  0
SECTION
  2
HEADER
  9
$ACADVER
  1
AC1024
  9
$DWGCODEPAGE
  3
ANSI_1252
  9
$EXTMAX
 10
297.0
 20
210.0
 30
0.0
  9
$EXTMIN
 10
0.0
 20
0.0
 30
0.0
  9
$LIMMIN
 10
0.0
 20
0.0
  9
$LIMMAX
 10
297.0
 20
210.0
  9
$VIEWCTR
 10
148.5
 20
105.0
  9
$VIEWSIZE
 40
210.0
  9
$CLAYER
  8
0
  9
$LTSCALE
 40
16.335
  9
$CELTYPE
  6
BYLAYER
  9
$DIMSCALE
 40
1.0
  9
$DIMASZ
 40
3.0
  9
$DIMEXO
 40
0.5
  9
$DIMDLI
 40
11.286
  9
$DIMEXE
 40
1.5
  9
$DIMCEN
 40
2.673
  9
$DIMLFAC
 40
1.0
  9
$DIMBLK
  1
_FILLED
  9
$DIMALT
 70
0
  9
$DIMALTF
 40
0.0393700787
  9
$DIMTXT
 40
3.0
  9
$DIMTOL
 70
1
  9
$DIMLIM
 70
0
  9
$DIMTFAC
 40
1.0
  9
$DIMTP
 40
0.01
  9
$DIMTM
 40
0.01
  9
$DIMGAP
 40
0.625
  9
$DIMDSEP
 70
44
  9
$AUNITS
 70
0
  9
$PDMODE
 70
3
  9
$PDSIZE
 40
3.0
  9
$HANDSEED
  5
3AF
  9
$TILEMODE
 70
1
  9
$MEASUREMENT
 70
1
  9
$INSUNITS
 70
4
  0
ENDSEC
  0
SECTION
  2
CLASSES
  0
CLASS
  1
ACDBDICTIONARYWDFLT
  2
AcDbDictionaryWithDefault
  3
AutoCAD 2000
 90
0
 91
1
280
0
281
0
  0
CLASS
  1
ACDBPLACEHOLDER
  2
AcDbPlaceHolder
  3
AutoCAD 2000
 90
0
 91
1
280
0
281
0
  0
CLASS
  1
LAYOUT
  2
AcDbLayout
  3
AutoCAD 2000
 90
0
 91
0
280
0
281
0
  0
ENDSEC
  0
SECTION
  2
TABLES
  0
TABLE
  2
VPORT
  5
8
100
AcDbSymbolTable
 70
2
  0
VPORT
  5
1F4
100
AcDbSymbolTableRecord
100
AcDbViewportTableRecord
  2
*ACTIVE
 70
0
 10
0.0
 20
0.0
 11
1.0
 21
1.0
 12
148.5
 22
105.0
 13
0.0
 23
0.0
 14
1.0
 24
1.0
 15
0.0
 25
0.0
 16
0.0
 26
0.0
 36
1.0
 17
0.0
 27
0.0
 37
0.0
 40
210.0
 41
1.4142857143
 42
50.0
 43
0.0
 44
0.0
 50
0.0
 51
0.0
 71
0
 72
100
 73
1
 74
1
 75
0
 76
0
 77
0
 78
0
  0
ENDTAB
  0
TABLE
  2
LTYPE
  5
5
100
AcDbSymbolTable
 70
6
  0
LTYPE
  5
14
100
AcDbSymbolTableRecord
100
AcDbLinetypeTableRecord
  2
BYBLOCK
 70
0
  3

 72
65
 73
0
 40
0.0
  0
LTYPE
  5
15
100
AcDbSymbolTableRecord
100
AcDbLinetypeTableRecord
  2
BYLAYER
 70
0
  3

 72
65
 73
0
 40
0.0
  0
LTYPE
  5
16
100
AcDbSymbolTableRecord
100
AcDbLinetypeTableRecord
  2
CONTINUOUS
 70
64
  3
Solid line
 72
65
 73
0
 40
0.0
  0
LTYPE
  5
1F5
100
AcDbSymbolTableRecord
100
AcDbLinetypeTableRecord
  2
CENTER
 70
64
  3
____ _ ____ _ ____ _ ____ _ ____ _ ____ _ ____
 72
65
 73
4
 40
0.6
 49
0.375
 74
0
 49
-0.075
 74
0
 49
0.075
 74
0
 49
-0.075
 74
0
  0
LTYPE
  5
1F6
100
AcDbSymbolTableRecord
100
AcDbLinetypeTableRecord
  2
HIDDEN
 70
64
  3
- - - - - - - - - - - - - - - - - - - -
 72
65
 73
2
 40
0.2
 49
0.1
 74
0
 49
-0.1
 74
0
  0
LTYPE
  5
1F7
100
AcDbSymbolTableRecord
100
AcDbLinetypeTableRecord
  2
PHANTOM
 70
64
  3
_____ _ _ _____ _ _ _____ _ _ _____
 72
65
 73
6
 40
0.8
 49
0.45
 74
0
 49
-0.05
 74
0
 49
0.1
 74
0
 49
-0.05
 74
0
 49
0.1
 74
0
 49
-0.05
 74
0
  0
LTYPE
  5
1F8
100
AcDbSymbolTableRecord
100
AcDbLinetypeTableRecord
  2
DOT
 70
64
  3
. . . . . . . . . . . . . . . . . . . .
 72
65
 73
2
 40
0.2
 49
0.1
 74
0
 49
-0.1
 74
0
  0
LTYPE
  5
1F9
100
AcDbSymbolTableRecord
100
AcDbLinetypeTableRecord
  2
DASHED
 70
64
  3
- - - - - - - - - - - - - - - - - - - -
 72
65
 73
2
 40
0.2
 49
0.1
 74
0
 49
-0.1
 74
0
  0
ENDTAB
  0
TABLE
  2
LAYER
  5
2
100
AcDbSymbolTable
 70
36
  0
LAYER
  5
10
100
AcDbSymbolTableRecord
100
AcDbLayerTableRecord
  2
0
 70
0
 62
7
  6
CONTINUOUS
370
-3
390
F
  0
LAYER
  5
1FA
100
AcDbSymbolTableRecord
100
AcDbLayerTableRecord
  2
DEFAULT_1
 70
0
 62
7
  6
CENTER
370
-3
390
F
  0
LAYER
  5
1FB
100
AcDbSymbolTableRecord
100
AcDbLayerTableRecord
  2
DEFAULT_2
 70
0
 62
7
  6
HIDDEN
370
-3
390
F
  0
LAYER
  5
1FC
100
AcDbSymbolTableRecord
100
AcDbLayerTableRecord
  2
DEFAULT_3
 70
0
 62
7
  6
PHANTOM
370
-3
390
F
  0
LAYER
  5
1FD
100
AcDbSymbolTableRecord
100
AcDbLayerTableRecord
  2
9
 70
0
 62
7
  6
CONTINUOUS
370
-3
390
F
  0
LAYER
  5
1FE
100
AcDbSymbolTableRecord
100
AcDbLayerTableRecord
  2
ASSI
 70
0
 62
7
  6
CONTINUOUS
370
-3
390
F
  0
LAYER
  5
1FF
100
AcDbSymbolTableRecord
100
AcDbLayerTableRecord
  2
COORDINATE
 70
0
 62
7
  6
CONTINUOUS
370
-3
390
F
  0
LAYER
  5
200
100
AcDbSymbolTableRecord
100
AcDbLayerTableRecord
  2
COPY_PUBLISH
 70
0
 62
7
  6
CONTINUOUS
370
-3
390
F
  0
LAYER
  5
201
100
AcDbSymbolTableRecord
100
AcDbLayerTableRecord
  2
COSMETICI
 70
0
 62
7
  6
CONTINUOUS
370
-3
390
F
  0
LAYER
  5
202
100
AcDbSymbolTableRecord
100
AcDbLayerTableRecord
  2
CURVE
 70
0
 62
7
  6
CONTINUOUS
370
-3
390
F
  0
LAYER
  5
203
100
AcDbSymbolTableRecord
100
AcDbLayerTableRecord
  2
DRAFT
 70
0
 62
7
  6
CONTINUOUS
370
-3
390
F
  0
LAYER
  5
204
100
AcDbSymbolTableRecord
100
AcDbLayerTableRecord
  2
IMPORT_IGES
 70
0
 62
7
  6
CONTINUOUS
370
-3
390
F
  0
LAYER
  5
205
100
AcDbSymbolTableRecord
100
AcDbLayerTableRecord
  2
INTF_10
 70
0
 62
7
  6
CONTINUOUS
370
-3
390
F
  0
LAYER
  5
206
100
AcDbSymbolTableRecord
100
AcDbLayerTableRecord
  2
INTF_2
 70
0
 62
7
  6
CONTINUOUS
370
-3
390
F
  0
LAYER
  5
207
100
AcDbSymbolTableRecord
100
AcDbLayerTableRecord
  2
INTF_3
 70
0
 62
7
  6
CONTINUOUS
370
-3
390
F
  0
LAYER
  5
208
100
AcDbSymbolTableRecord
100
AcDbLayerTableRecord
  2
INTF_4
 70
0
 62
7
  6
CONTINUOUS
370
-3
390
F
  0
LAYER
  5
209
100
AcDbSymbolTableRecord
100
AcDbLayerTableRecord
  2
INTF_5
 70
0
 62
7
  6
CONTINUOUS
370
-3
390
F
  0
LAYER
  5
20A
100
AcDbSymbolTableRecord
100
AcDbLayerTableRecord
  2
INTF_6
 70
0
 62
7
  6
CONTINUOUS
370
-3
390
F
  0
LAYER
  5
20B
100
AcDbSymbolTableRecord
100
AcDbLayerTableRecord
  2
INTF_7
 70
0
 62
7
  6
CONTINUOUS
370
-3
390
F
  0
LAYER
  5
20C
100
AcDbSymbolTableRecord
100
AcDbLayerTableRecord
  2
INTF_9
 70
0
 62
7
  6
CONTINUOUS
370
-3
390
F
  0
LAYER
  5
20D
100
AcDbSymbolTableRecord
100
AcDbLayerTableRecord
  2
INTF_BLANK
 70
0
 62
7
  6
CONTINUOUS
370
-3
390
F
  0
LAYER
  5
20E
100
AcDbSymbolTableRecord
100
AcDbLayerTableRecord
  2
INTF_RED
 70
0
 62
7
  6
CONTINUOUS
370
-3
390
F
  0
LAYER
  5
20F
100
AcDbSymbolTableRecord
100
AcDbLayerTableRecord
  2
NOTE
 70
0
 62
7
  6
CONTINUOUS
370
-3
390
F
  0
LAYER
  5
210
100
AcDbSymbolTableRecord
100
AcDbLayerTableRecord
  2
PIANI
 70
0
 62
7
  6
CONTINUOUS
370
-3
390
F
  0
LAYER
  5
211
100
AcDbSymbolTableRecord
100
AcDbLayerTableRecord
  2
PUNTI
 70
0
 62
7
  6
CONTINUOUS
370
-3
390
F
  0
LAYER
  5
212
100
AcDbSymbolTableRecord
100
AcDbLayerTableRecord
  2
RACCORDO
 70
0
 62
7
  6
CONTINUOUS
370
-3
390
F
  0
LAYER
  5
213
100
AcDbSymbolTableRecord
100
AcDbLayerTableRecord
  2
RGB____0____0____0__
 70
0
 62
7
  6
CONTINUOUS
370
-3
390
F
  0
LAYER
  5
214
100
AcDbSymbolTableRecord
100
AcDbLayerTableRecord
  2
SIMBOLI
 70
0
 62
7
  6
CONTINUOUS
370
-3
390
F
  0
LAYER
  5
215
100
AcDbSymbolTableRecord
100
AcDbLayerTableRecord
  2
SMUSSO
 70
0
 62
7
  6
CONTINUOUS
370
-3
390
F
  0
LAYER
  5
216
100
AcDbSymbolTableRecord
100
AcDbLayerTableRecord
  2
SNAPLINE
 70
0
 62
7
  6
CONTINUOUS
370
-3
390
F
  0
LAYER
  5
217
100
AcDbSymbolTableRecord
100
AcDbLayerTableRecord
  2
SUPERFICI
 70
0
 62
7
  6
CONTINUOUS
370
-3
390
F
  0
LAYER
  5
218
100
AcDbSymbolTableRecord
100
AcDbLayerTableRecord
  2
TRASH
 70
0
 62
7
  6
CONTINUOUS
370
-3
390
F
  0
ENDTAB
  0
TABLE
  2
STYLE
  5
3
100
AcDbSymbolTable
 70
1
  0
STYLE
  5
11
100
AcDbSymbolTableRecord
100
AcDbTextStyleTableRecord
  2
STANDARD
 70
0
 40
0.0
 41
0.8
 50
0.0
 71
0
 42
0.2
  3
txt
  4

  0
STYLE
  5
219
100
AcDbSymbolTableRecord
100
AcDbTextStyleTableRecord
  2
TEXTSTYLE_1
 70
0
 40
0.0
 41
0.8
 50
0.0
 71
0
 42
0.2
  3
gdt
  4

  0
ENDTAB
  0
TABLE
  2
VIEW
  5
6
100
AcDbSymbolTable
 70
0
  0
ENDTAB
  0
TABLE
  2
UCS
  5
7
100
AcDbSymbolTable
 70
0
  0
ENDTAB
  0
TABLE
  2
APPID
  5
9
100
AcDbSymbolTable
 70
1
  0
APPID
  5
21A
100
AcDbSymbolTableRecord
100
AcDbRegAppTableRecord
  2
ACAD
 70
0
  0
ENDTAB
  0
TABLE
  2
BLOCK_RECORD
  5
1
100
AcDbSymbolTable
 70
0
  0
BLOCK_RECORD
  5
21B
100
AcDbSymbolTableRecord
100
AcDbBlockTableRecord
  2
*Model_Space
  0
BLOCK_RECORD
  5
21C
100
AcDbSymbolTableRecord
100
AcDbBlockTableRecord
  2
*Paper_Space
  0
BLOCK_RECORD
  5
21D
100
AcDbSymbolTableRecord
100
AcDbBlockTableRecord
  2
_FILLED
  0
BLOCK_RECORD
  5
21E
100
AcDbSymbolTableRecord
100
AcDbBlockTableRecord
  2
*D0
  0
BLOCK_RECORD
  5
21F
100
AcDbSymbolTableRecord
100
AcDbBlockTableRecord
  2
*D1
  0
BLOCK_RECORD
  5
220
100
AcDbSymbolTableRecord
100
AcDbBlockTableRecord
  2
*D2
  0
BLOCK_RECORD
  5
221
100
AcDbSymbolTableRecord
100
AcDbBlockTableRecord
  2
*D3
  0
ENDTAB
  0
TABLE
  2
DIMSTYLE
  5
A
100
AcDbSymbolTable
 70
1
100
AcDbDimStyleTable
 71
0
  0
DIMSTYLE
105
222
100
AcDbSymbolTableRecord
100
AcDbDimStyleTableRecord
  2
STANDARD
 70
0
  3

  4

 40
1.0
 41
3.0
 42
0.5
 43
0.38
 44
1.5
 45
0.0
 46
0.0
 47
0.01
 48
0.01
140
3.0
141
0.09
142
0.0
143
25.4
144
1.0
145
0.0
146
1.0
147
0.625
 71
1
 72
0
 73
0
 74
0
 75
0
 76
0
 77
1
 78
8
 79
2
170
0
171
1
172
0
173
0
174
0
175
0
176
0
177
0
178
0
270
2
179
2
271
2
272
2
273
2
274
2
275
0
280
0
281
0
282
0
283
1
284
8
285
0
286
0
287
3
288
0
340
11
278
44
341
21D
342
21D
343
21D
344
21D
  0
DIMSTYLE
105
223
100
AcDbSymbolTableRecord
100
AcDbDimStyleTableRecord
  2
DIMSTYLE_1
 70
0
  3

  4

 40
1.0
 41
3.0
 42
0.5
 43
0.38
 44
1.5
 45
0.0
 46
0.0
 47
0.0
 48
0.0
140
3.0
141
0.09
142
0.0
143
25.4
144
1.0
145
0.0
146
1.0
147
0.75
 71
0
 72
0
 73
0
 74
0
 75
0
 76
0
 77
1
 78
8
 79
2
170
0
171
1
172
0
173
0
174
0
175
0
176
0
177
0
178
0
270
2
179
2
271
1
272
1
273
2
274
2
275
0
280
0
281
0
282
0
283
1
284
8
285
0
286
0
287
3
288
0
340
11
278
44
341
21D
342
21D
343
21D
344
21D
  0
ENDTAB
  0
ENDSEC
  0
SECTION
  2
BLOCKS
  0
BLOCK
  5
20
100
AcDbEntity
  8
0
100
AcDbBlockBegin
  2
*Model_Space
 70
0
 10
0.0
 20
0.0
 30
0.0
  3
*Model_Space
  1

  0
ENDBLK
  5
21
100
AcDbEntity
  8
0
100
AcDbBlockEnd
  0
BLOCK
  5
1C
100
AcDbEntity
  8
0
100
AcDbBlockBegin
  2
*Paper_Space
 70
0
 10
0.0
 20
0.0
 30
0.0
  3
*Paper_Space
  1

  0
ENDBLK
  5
1D
100
AcDbEntity
  8
0
100
AcDbBlockEnd
  0
BLOCK
  5
224
100
AcDbEntity
  8
0
100
AcDbBlockBegin
  2
_FILLED
 70
64
 10
0.0
 20
0.0
  3
_FILLED
  1

  0
SOLID
  5
225
100
AcDbEntity
  8
0
  6
BYBLOCK
 62
0
100
AcDbTrace
 10
0.0
 20
0.0
 11
-1.0
 21
0.3166666667
 12
-1.0
 22
-0.3166666667
 13
-1.0
 23
-0.3166666667
  0
ENDBLK
  5
226
100
AcDbEntity
  8
0
  6
BYBLOCK
 62
0
100
AcDbBlockEnd
  0
BLOCK
  5
227
100
AcDbEntity
  8
0
100
AcDbBlockBegin
 62
7
  6
CONTINUOUS
  2
*D0
 70
65
 10
0.0
 20
0.0
  3
*D0
  1

  0
LINE
  5
228
100
AcDbEntity
  8
0
100
AcDbLine
 62
7
  6
CONTINUOUS
 10
-11.4850472359
 20
62.0509694325
 11
-11.4850472359
 21
73.7287838778
  0
LINE
  5
229
100
AcDbEntity
  8
0
100
AcDbLine
 62
7
  6
CONTINUOUS
 10
10.6206834464
 20
62.0509694325
 11
10.6206834464
 21
73.7287838778
  0
LINE
  5
22A
100
AcDbEntity
  8
0
100
AcDbLine
 62
7
  6
CONTINUOUS
 10
-11.4850472359
 20
72.2287838778
 11
-0.4321818947
 21
72.2287838778
  0
LINE
  5
22B
100
AcDbEntity
  8
0
100
AcDbLine
 62
7
  6
CONTINUOUS
 10
10.6206834464
 20
72.2287838778
 11
-0.4321818947
 21
72.2287838778
  0
INSERT
  5
22C
100
AcDbEntity
  8
0
100
AcDbBlockReference
 62
7
  6
CONTINUOUS
  2
_FILLED
 10
-11.4850472359
 20
72.2287838778
 41
3.0
 42
3.0
 43
3.0
 50
180.0
  0
INSERT
  5
22D
100
AcDbEntity
  8
0
100
AcDbBlockReference
 62
7
  6
CONTINUOUS
  2
_FILLED
 10
10.6206834464
 20
72.2287838778
 41
3.0
 42
3.0
 43
3.0
  0
ENDBLK
  5
22E
100
AcDbEntity
  8
0
  6
BYBLOCK
 62
0
100
AcDbBlockEnd
  0
BLOCK
  5
22F
100
AcDbEntity
  8
0
100
AcDbBlockBegin
 62
7
  6
CONTINUOUS
  2
*D1
 70
65
 10
0.0
 20
0.0
  3
*D1
  1

  0
LINE
  5
230
100
AcDbEntity
  8
0
100
AcDbLine
 62
7
  6
CONTINUOUS
 10
10.620854784
 20
62.050798095
 11
22.2986692292
 21
62.050798095
  0
LINE
  5
231
100
AcDbEntity
  8
0
100
AcDbLine
 62
7
  6
CONTINUOUS
 10
10.620854784
 20
9.3450674126
 11
22.2986692292
 21
9.3450674126
  0
LINE
  5
232
100
AcDbEntity
  8
0
100
AcDbLine
 62
7
  6
CONTINUOUS
 10
20.7986692292
 20
62.050798095
 11
20.7986692292
 21
35.6979327538
  0
LINE
  5
233
100
AcDbEntity
  8
0
100
AcDbLine
 62
7
  6
CONTINUOUS
 10
20.7986692292
 20
9.3450674126
 11
20.7986692292
 21
35.6979327538
  0
INSERT
  5
234
100
AcDbEntity
  8
0
100
AcDbBlockReference
 62
7
  6
CONTINUOUS
  2
_FILLED
 10
20.7986692292
 20
62.050798095
 41
3.0
 42
3.0
 43
3.0
 50
90.0
  0
INSERT
  5
235
100
AcDbEntity
  8
0
100
AcDbBlockReference
 62
7
  6
CONTINUOUS
  2
_FILLED
 10
20.7986692292
 20
9.3450674126
 41
3.0
 42
3.0
 43
3.0
 50
270.0
  0
ENDBLK
  5
236
100
AcDbEntity
  8
0
  6
BYBLOCK
 62
0
100
AcDbBlockEnd
  0
BLOCK
  5
237
100
AcDbEntity
  8
0
100
AcDbBlockBegin
 62
7
  6
CONTINUOUS
  2
*D2
 70
65
 10
0.0
 20
0.0
  3
*D2
  1

  0
LINE
  5
238
100
AcDbEntity
  8
0
100
AcDbLine
 62
7
  6
CONTINUOUS
 10
-17.0818296924
 20
62.0509694325
 11
-17.0818296924
 21
73.7287838778
  0
LINE
  5
239
100
AcDbEntity
  8
0
100
AcDbLine
 62
7
  6
CONTINUOUS
 10
-21.7515772211
 20
10.9935109376
 11
-21.7515772211
 21
73.7287838778
  0
LINE
  5
23A
100
AcDbEntity
  8
0
100
AcDbLine
 62
7
  6
CONTINUOUS
 10
-17.0818296924
 20
72.2287838778
 11
-13.0818296924
 21
72.2287838778
  0
LINE
  5
23B
100
AcDbEntity
  8
0
100
AcDbLine
 62
7
  6
CONTINUOUS
 10
-13.0818296924
 20
72.2287838778
 11
-19.4167034568
 21
72.2287838778
  0
LINE
  5
23C
100
AcDbEntity
  8
0
100
AcDbLine
 62
7
  6
CONTINUOUS
 10
-21.7515772211
 20
72.2287838778
 11
-36.0120572813
 21
72.2287838778
  0
LINE
  5
23D
100
AcDbEntity
  8
0
100
AcDbLine
 62
7
  6
CONTINUOUS
 10
-36.0120572813
 20
72.2287838778
 11
-19.4167034568
 21
72.2287838778
  0
INSERT
  5
23E
100
AcDbEntity
  8
0
100
AcDbBlockReference
 62
7
  6
CONTINUOUS
  2
_FILLED
 10
-17.0818296924
 20
72.2287838778
 41
3.0
 42
3.0
 43
3.0
 50
180.0
  0
INSERT
  5
23F
100
AcDbEntity
  8
0
100
AcDbBlockReference
 62
7
  6
CONTINUOUS
  2
_FILLED
 10
-21.7515772211
 20
72.2287838778
 41
3.0
 42
3.0
 43
3.0
  0
ENDBLK
  5
240
100
AcDbEntity
  8
0
  6
BYBLOCK
 62
0
100
AcDbBlockEnd
  0
BLOCK
  5
241
100
AcDbEntity
  8
0
100
AcDbBlockBegin
 62
7
  6
CONTINUOUS
  2
*D3
 70
65
 10
0.0
 20
0.0
  3
*D3
  1

  0
LINE
  5
242
100
AcDbEntity
  8
0
100
AcDbLine
 62
7
  6
CONTINUOUS
 10
-13.7818296924
 20
23.8010545772
 11
-13.7818296924
 21
82.9126491409
  0
LINE
  5
243
100
AcDbEntity
  8
0
100
AcDbLine
 62
7
  6
CONTINUOUS
 10
-21.7515772211
 20
10.9935109376
 11
-21.7515772211
 21
82.9126491409
  0
LINE
  5
244
100
AcDbEntity
  8
0
100
AcDbLine
 62
7
  6
CONTINUOUS
 10
-13.7818296924
 20
81.4126491409
 11
-9.7818296924
 21
81.4126491409
  0
LINE
  5
245
100
AcDbEntity
  8
0
100
AcDbLine
 62
7
  6
CONTINUOUS
 10
-9.7818296924
 20
81.4126491409
 11
-17.7667034568
 21
81.4126491409
  0
LINE
  5
246
100
AcDbEntity
  8
0
100
AcDbLine
 62
7
  6
CONTINUOUS
 10
-21.7515772211
 20
81.4126491409
 11
-31.7245377625
 21
81.4126491409
  0
LINE
  5
247
100
AcDbEntity
  8
0
100
AcDbLine
 62
7
  6
CONTINUOUS
 10
-31.7245377625
 20
81.4126491409
 11
-17.7667034568
 21
81.4126491409
  0
INSERT
  5
248
100
AcDbEntity
  8
0
100
AcDbBlockReference
 62
7
  6
CONTINUOUS
  2
_FILLED
 10
-13.7818296924
 20
81.4126491409
 41
3.0
 42
3.0
 43
3.0
 50
180.0
  0
INSERT
  5
249
100
AcDbEntity
  8
0
100
AcDbBlockReference
 62
7
  6
CONTINUOUS
  2
_FILLED
 10
-21.7515772211
 20
81.4126491409
 41
3.0
 42
3.0
 43
3.0
  0
ENDBLK
  5
24A
100
AcDbEntity
  8
0
  6
BYBLOCK
 62
0
100
AcDbBlockEnd
  0
ENDSEC
  0
SECTION
  2
ENTITIES
  0
DIMENSION
  5
24B
100
AcDbEntity
  8
0
100
AcDbDimension
 62
7
  6
CONTINUOUS
  2
*D0
 10
10.6206834464
 20
72.2287838778
 11
-4.5036104662
 21
72.2287838778
 70
160
 71
2
 72
2
 41
0.9
 42
22.1057306824
  3
DIMSTYLE_1
100
AcDbAlignedDimension
 13
-11.4850472359
 23
61.5509694325
 14
10.6206834464
 24
61.5509694325
100
AcDbRotatedDimension
  0
DIMENSION
  5
24C
100
AcDbEntity
  8
0
100
AcDbDimension
 62
7
  6
CONTINUOUS
  2
*D1
 10
20.7986692292
 20
9.3450674126
 11
20.7986692292
 21
31.4122184681
 70
160
 71
2
 72
2
 41
0.9
 42
52.7057306824
  3
DIMSTYLE_1
100
AcDbAlignedDimension
 13
10.120854784
 23
62.050798095
 14
10.120854784
 24
9.3450674126
 50
270.0
100
AcDbRotatedDimension
  0
DIMENSION
  5
24D
100
AcDbEntity
  8
0
100
AcDbDimension
 62
7
  6
CONTINUOUS
  2
*D2
 10
-21.7515772211
 20
72.2287838778
 11
-36.0120572813
 21
72.2287838778
 70
160
 71
3
 72
2
 41
0.9
 42
4.6697475287
  3
DIMSTYLE_1
100
AcDbAlignedDimension
 13
-17.0818296924
 23
61.5509694325
 14
-21.7515772211
 24
10.4935109376
 50
180.0
100
AcDbRotatedDimension
  0
DIMENSION
  5
24E
100
AcDbEntity
  8
0
100
AcDbDimension
 62
7
  6
CONTINUOUS
  2
*D3
 10
-21.7515772211
 20
81.4126491409
 11
-31.7245377625
 21
81.4126491409
 70
160
 71
3
 72
2
 41
0.9
 42
7.9697475287
  3
DIMSTYLE_1
100
AcDbAlignedDimension
 13
-13.7818296924
 23
23.3010545772
 14
-21.7515772211
 24
10.4935109376
 50
180.0
100
AcDbRotatedDimension
  0
LWPOLYLINE
  5
24F
100
AcDbEntity
  8
0
100
AcDbPolyline
 62
7
  6
CONTINUOUS
 90
3
 70
0
 43
0.3500000006
 10
1.9249609337
 20
75.121644104
 10
2.7821036882
 20
75.9787820435
 10
2.7821036882
 20
72.9787811279
  0
LINE
  5
250
100
AcDbEntity
  8
RACCORDO
100
AcDbLine
 62
250
  6
CONTINUOUS
 10
10.120854784
 20
62.050798095
 11
10.0812331678
 21
62.0111764789
  0
LINE
  5
251
100
AcDbEntity
  8
RACCORDO
100
AcDbLine
 62
250
  6
CONTINUOUS
 10
10.6206834464
 20
61.5509694325
 11
10.5810618303
 21
61.5113478164
  0
LWPOLYLINE
  5
252
100
AcDbEntity
  8
0
100
AcDbPolyline
 62
7
  6
CONTINUOUS
 90
10
 70
0
 43
0.3500000006
 10
19.5486690674
 20
36.5550774536
 10
19.6915269012
 20
36.6265041046
 10
19.7629558182
 20
36.6265041046
 10
19.9058113861
 20
36.4836462708
 10
19.9058113861
 20
36.4122196198
 10
19.8343824692
 20
36.3407884369
 10
19.7629558182
 20
36.3407884369
 10
19.6200979843
 20
36.4122196198
 10
19.5486690674
 20
36.4836462708
 10
19.5486690674
 20
36.5550774536
  0
LWPOLYLINE
  5
253
100
AcDbEntity
  8
RACCORDO
100
AcDbPolyline
 62
250
  6
CONTINUOUS
 90
16
 70
0
 10
-11.416574125
 20
25.4115909873
 10
-11.4125878003
 20
25.4169656065
 10
-11.4033473615
 20
25.4222832836
 10
-11.3889507246
 20
25.4274876697
 10
-11.3695504426
 20
25.4325236167
 10
-11.3453520886
 20
25.4373377618
 10
-11.3166120774
 20
25.4418790936
 10
-11.2836349486
 20
25.4460994908
 10
-11.2467701397
 20
25.4499542322
 10
-11.2064082825
 20
25.453402472
 10
-11.1629770651
 20
25.4564076718
 10
-11.1169366993
 20
25.4589379876
 10
-11.0687750433
 20
25.4609666068
 10
-11.0190024334
 20
25.4624720337
 10
-10.968146277
 20
25.4634383171
 10
-10.9167454626
 20
25.4638552189
  0
LWPOLYLINE
  5
254
100
AcDbEntity
  8
0
100
AcDbPolyline
 62
7
  6
CONTINUOUS
 90
3
 70
0
 43
0.3500000006
 10
0.9249609826
 20
73.2644967957
 10
0.8535324197
 20
73.0502123108
 10
0.7106752231
 20
72.7644966431
  0
LWPOLYLINE
  5
255
100
AcDbEntity
  8
RACCORDO
100
AcDbPolyline
 62
250
  6
CONTINUOUS
 90
10
 70
0
 10
-11.4525613343
 20
9.8773819767
 10
-11.4522950743
 20
9.8777521201
 10
-11.4520293129
 20
9.8783279901
 10
-11.4517640503
 20
9.8791095869
 10
-11.4514992132
 20
9.8800971771
 10
-11.4512348748
 20
9.8812904941
 10
-11.4509712545
 20
9.8826887378
 10
-11.4507084255
 20
9.8842916416
 10
-11.4504463147
 20
9.8860994721
 10
-11.450184922
 20
9.8881122294
  0
LWPOLYLINE
  5
256
100
AcDbEntity
  8
RACCORDO
100
AcDbPolyline
 62
250
  6
CONTINUOUS
 90
16
 70
0
 10
-11.3755158204
 20
10.4935109376
 10
-11.3715135081
 20
10.4988985439
 10
-11.362231908
 20
10.5042287861
 10
-11.3477698449
 20
10.5094449107
 10
-11.3282793457
 20
10.5144918203
 10
-11.3039690319
 20
10.5193152971
 10
-11.2751061006
 20
10.5238627985
 10
-11.242007605
 20
10.5280854339
 10
-11.2050239951
 20
10.53193942
 10
-11.1645398649
 20
10.5353849841
 10
-11.1209331162
 20
10.5383887221
 10
-11.0747134673
 20
10.540914369
 10
-11.0265317319
 20
10.5429293429
 10
-10.9769700567
 20
10.5444159429
 10
-10.9265105841
 20
10.5453661165
 10
-10.8756871579
 20
10.5457751692
  0
LINE
  5
257
100
AcDbEntity
  8
RACCORDO
100
AcDbLine
 62
250
  6
CONTINUOUS
 10
-11.4850472359
 20
9.8448960751
 11
-11.4525613343
 21
9.8773819767
  0
LINE
  5
258
100
AcDbEntity
  8
RACCORDO
100
AcDbLine
 62
250
  6
CONTINUOUS
 10
-10.9852185734
 20
9.3450674126
 11
-10.9527326718
 21
9.3775533142
  0
LWPOLYLINE
  5
259
100
AcDbEntity
  8
RACCORDO
100
AcDbPolyline
 62
250
  6
CONTINUOUS
 90
10
 70
0
 10
-10.9527326718
 20
9.3775533142
 10
-10.9524663994
 20
9.3782923084
 10
-10.9522006319
 20
9.3794442504
 10
-10.9519353693
 20
9.3810085346
 10
-10.9516705424
 20
9.3829840854
 10
-10.9514062204
 20
9.3853701446
 10
-10.9511426104
 20
9.3881668364
 10
-10.9508797815
 20
9.3913738524
 10
-10.9506176645
 20
9.394989887
 10
-10.9503562595
 20
9.3990138196
  0
LINE
  5
25A
100
AcDbEntity
  8
0
100
AcDbLine
 62
7
  6
CONTINUOUS
 10
-2.0463938076
 20
23.6377377835
 11
-3.5485544876
 21
20.0112010971
  0
LINE
  5
25B
100
AcDbEntity
  8
0
100
AcDbLine
 62
7
  6
CONTINUOUS
 10
-3.96276805
 20
19.0112010971
 11
-4.0139082289
 21
18.8877377835
  0
LINE
  5
25C
100
AcDbEntity
  8
0
100
AcDbLine
 62
7
  6
CONTINUOUS
 10
-2.9308217009
 20
19.9346644106
 11
-1.5687763564
 21
23.2229327538
  0
LWPOLYLINE
  5
25D
100
AcDbEntity
  8
RACCORDO
100
AcDbPolyline
 62
250
  6
CONTINUOUS
 90
16
 70
0
 10
-11.4454256198
 20
61.5113478164
 10
-11.4426376553
 20
61.5637267914
 10
-11.4343762459
 20
61.6155289691
 10
-11.4207323659
 20
61.6661839002
 10
-11.4018536763
 20
61.7151395497
 10
-11.3779494434
 20
61.7618504925
 10
-11.3492941636
 20
61.8057868732
 10
-11.3162167844
 20
61.8464588807
 10
-11.2790791559
 20
61.88343418
 10
-11.2382778239
 20
61.9163220913
 10
-11.1941963207
 20
61.9447983593
 10
-11.1473757414
 20
61.9684994298
 10
-11.0985263495
 20
61.9871015156
 10
-11.0482714502
 20
62.0004468026
 10
-10.9971086739
 20
62.0084797303
 10
-10.9455969573
 20
62.0111764789
  0
LINE
  5
25E
100
AcDbEntity
  8
RACCORDO
100
AcDbLine
 62
250
  6
CONTINUOUS
 10
-11.450184922
 20
9.8881122294
 11
-11.3755158204
 21
10.4935109376
  0
LINE
  5
25F
100
AcDbEntity
  8
RACCORDO
100
AcDbLine
 62
250
  6
CONTINUOUS
 10
-10.9503562595
 20
9.3990138196
 11
-10.8756871579
 21
10.0044125278
  0
LWPOLYLINE
  5
260
100
AcDbEntity
  8
RACCORDO
100
AcDbPolyline
 62
250
  6
CONTINUOUS
 90
16
 70
0
 10
-11.3755158204
 20
10.4935109376
 10
-11.3724991576
 20
10.4424340854
 10
-11.3640497169
 20
10.391915885
 10
-11.3502599306
 20
10.3425087615
 10
-11.3312786746
 20
10.294748739
 10
-11.307314595
 20
10.2491627093
 10
-11.2786382504
 20
10.2062605182
 10
-11.2455730035
 20
10.1665153953
 10
-11.208478834
 20
10.130350903
 10
-11.1677531042
 20
10.0981511
 10
-11.1237871559
 20
10.0702369919
 10
-11.0771080774
 20
10.0469539817
 10
-11.0283898846
 20
10.0286085264
 10
-10.9782370219
 20
10.0153626647
 10
-10.9271511495
 20
10.007285705
 10
-10.8756871579
 20
10.0044125278
  0
LWPOLYLINE
  5
261
100
AcDbEntity
  8
RACCORDO
100
AcDbPolyline
 62
250
  6
CONTINUOUS
 90
16
 70
0
 10
-11.450184922
 20
9.8881122294
 10
-11.4471826531
 20
9.8371630677
 10
-11.4387746293
 20
9.786768262
 10
-11.4250523345
 20
9.7374761366
 10
-11.4061650753
 20
9.689823018
 10
-11.3823183557
 20
9.6443273992
 10
-11.3537716417
 20
9.6014842987
 10
-11.3208355378
 20
9.5617598738
 10
-11.2838684078
 20
9.525586349
 10
-11.243272475
 20
9.4933573129
 10
-11.1994894465
 20
9.4654234358
 10
-11.1529957066
 20
9.4420886543
 10
-11.1042971337
 20
9.4236068641
 10
-11.0539235961
 20
9.4101791577
 10
-11.0024231867
 20
9.4019516361
 10
-10.9503562595
 20
9.3990138196
  0
LWPOLYLINE
  5
262
100
AcDbEntity
  8
RACCORDO
100
AcDbPolyline
 62
250
  6
CONTINUOUS
 90
16
 70
0
 10
-11.4525613343
 20
9.8773819767
 10
-11.4497898288
 20
9.8251584203
 10
-11.4415772193
 20
9.7735065252
 10
-11.4280134028
 20
9.7229917065
 10
-11.4092468543
 20
9.6741669325
 10
-11.3854830012
 20
9.6275666721
 10
-11.3569819756
 20
9.5837010442
 10
-11.3240557653
 20
9.5430502321
 10
-11.2870648001
 20
9.5060592287
 10
-11.2464140065
 20
9.4731329652
 10
-11.2025483734
 20
9.4446318767
 10
-11.1559480821
 20
9.4208679574
 10
-11.1071232519
 20
9.4021013465
 10
-11.0566083526
 20
9.3885374781
 10
-11.0049563533
 20
9.380324833
 10
-10.9527326718
 20
9.3775533142
  0
LINE
  5
263
100
AcDbEntity
  8
RACCORDO
100
AcDbLine
 62
250
  6
CONTINUOUS
 10
-11.3755158204
 20
10.4935109376
 11
-11.4233087834
 21
27.9357052499
  0
LINE
  5
264
100
AcDbEntity
  8
RACCORDO
100
AcDbLine
 62
250
  6
CONTINUOUS
 10
-11.4233087834
 20
27.9357052499
 11
-11.435629237
 21
33.4171961798
  0
LINE
  5
265
100
AcDbEntity
  8
RACCORDO
100
AcDbLine
 62
250
  6
CONTINUOUS
 10
-11.435629237
 20
33.4171961798
 11
-11.4415148962
 21
37.4334753952
  0
LINE
  5
266
100
AcDbEntity
  8
RACCORDO
100
AcDbLine
 62
250
  6
CONTINUOUS
 10
-10.9358005745
 20
33.4523595498
 11
-10.9416862337
 21
37.4539290547
  0
LINE
  5
267
100
AcDbEntity
  8
RACCORDO
100
AcDbLine
 62
250
  6
CONTINUOUS
 10
-11.4415148962
 20
37.4334753952
 11
-11.4450224621
 21
43.0246519065
  0
LINE
  5
268
100
AcDbEntity
  8
RACCORDO
100
AcDbLine
 62
250
  6
CONTINUOUS
 10
-10.9416862337
 20
37.4539290547
 11
-10.9451937996
 21
43.0296408762
  0
LINE
  5
269
100
AcDbEntity
  8
RACCORDO
100
AcDbLine
 62
7
  6
CONTINUOUS
 10
-11.4850472359
 20
61.5509694325
 11
-11.4850472359
 21
9.8448960751
  0
LINE
  5
26A
100
AcDbEntity
  8
RACCORDO
100
AcDbLine
 62
250
  6
CONTINUOUS
 10
-11.4450224621
 20
43.0246519065
 11
-11.4454256198
 21
61.5113478164
  0
LINE
  5
26B
100
AcDbEntity
  8
RACCORDO
100
AcDbLine
 62
250
  6
CONTINUOUS
 10
-10.9451937996
 20
43.0296408762
 11
-10.9455969573
 21
62.0111764789
  0
LINE
  5
26C
100
AcDbEntity
  8
RACCORDO
100
AcDbLine
 62
250
  6
CONTINUOUS
 10
-10.8756871579
 20
10.0044125278
 11
-10.9358005745
 21
33.4523595498
  0
LINE
  5
26D
100
AcDbEntity
  8
0
100
AcDbLine
 62
7
  6
CONTINUOUS
 10
-1.2778362588
 20
17.5729327538
 11
-1.2778362588
 21
17.1729327538
  0
LINE
  5
26E
100
AcDbEntity
  8
0
100
AcDbLine
 62
7
  6
CONTINUOUS
 10
0.1221637412
 20
17.1729327538
 11
0.1221637412
 21
17.5729327538
  0
LWPOLYLINE
  5
26F
100
AcDbEntity
  8
RACCORDO
100
AcDbPolyline
 62
250
  6
CONTINUOUS
 90
10
 70
0
 10
10.08599247
 20
9.3990138196
 10
10.0862535834
 20
9.3949941221
 10
10.0865154814
 20
9.3913804722
 10
10.086778164
 20
9.3881743262
 10
10.0870416999
 20
9.3853773268
 10
10.0873060205
 20
9.3829901253
 10
10.0875709196
 20
9.3810129427
 10
10.0878363286
 20
9.3794468799
 10
10.0881023162
 20
9.378293354
 10
10.0883688823
 20
9.3775533142
  0
LINE
  5
270
100
AcDbEntity
  8
RACCORDO
100
AcDbLine
 62
7
  6
CONTINUOUS
 10
10.6206834464
 20
61.5509694325
 11
10.6206834464
 21
9.8448960751
  0
LINE
  5
271
100
AcDbEntity
  8
RACCORDO
100
AcDbLine
 62
250
  6
CONTINUOUS
 10
10.0812331678
 20
62.0111764789
 11
10.0809242528
 21
43.4166872346
  0
LINE
  5
272
100
AcDbEntity
  8
RACCORDO
100
AcDbLine
 62
250
  6
CONTINUOUS
 10
10.5810618303
 20
61.5113478164
 11
10.5807529153
 21
43.4124346189
  0
LINE
  5
273
100
AcDbEntity
  8
RACCORDO
100
AcDbLine
 62
250
  6
CONTINUOUS
 10
10.0809242528
 20
43.4166872346
 11
10.0715337698
 21
33.5048110606
  0
LINE
  5
274
100
AcDbEntity
  8
RACCORDO
100
AcDbLine
 62
250
  6
CONTINUOUS
 10
10.5807529153
 20
43.4124346189
 11
10.5713624322
 21
33.469819913
  0
LINE
  5
275
100
AcDbEntity
  8
RACCORDO
100
AcDbLine
 62
250
  6
CONTINUOUS
 10
10.0715337698
 20
33.5048110606
 11
10.0562926382
 21
26.9073691318
  0
LINE
  5
276
100
AcDbEntity
  8
RACCORDO
100
AcDbLine
 62
250
  6
CONTINUOUS
 10
10.5713624322
 20
33.469819913
 11
10.5561213007
 21
26.8568692888
  0
LINE
  5
277
100
AcDbEntity
  8
RACCORDO
100
AcDbLine
 62
250
  6
CONTINUOUS
 10
10.0562926382
 20
26.9073691318
 11
10.0113233684
 21
10.0044125278
  0
LINE
  5
278
100
AcDbEntity
  8
RACCORDO
100
AcDbLine
 62
250
  6
CONTINUOUS
 10
10.5561213007
 20
26.8568692888
 11
10.5111520309
 21
10.4935109376
  0
LWPOLYLINE
  5
279
100
AcDbEntity
  8
RACCORDO
100
AcDbPolyline
 62
250
  6
CONTINUOUS
 90
16
 70
0
 10
10.5881975448
 20
9.8773819767
 10
10.585426032
 20
9.8251583507
 10
10.577213403
 20
9.773506399
 10
10.5636495586
 20
9.7229915381
 10
10.5448829777
 20
9.674166737
 10
10.5211190917
 20
9.6275664643
 10
10.4926180358
 20
9.5837008373
 10
10.4596918014
 20
9.5430500383
 10
10.4227008208
 20
9.5060590577
 10
10.3820500217
 20
9.4731328233
 10
10.3381843948
 20
9.4446317674
 10
10.291584122
 20
9.4208678814
 10
10.2427593209
 20
9.4021013005
 10
10.19224446
 20
9.3885374561
 10
10.1405925083
 20
9.3803248271
 10
10.0883688823
 20
9.3775533142
  0
LWPOLYLINE
  5
27A
100
AcDbEntity
  8
RACCORDO
100
AcDbPolyline
 62
250
  6
CONTINUOUS
 90
16
 70
0
 10
10.5858211325
 20
9.8881122294
 10
10.5828188661
 20
9.8371630899
 10
10.5744108487
 20
9.7867683022
 10
10.5606885631
 20
9.7374761902
 10
10.5418013143
 20
9.6898230802
 10
10.5179546055
 20
9.6443274655
 10
10.4894079013
 20
9.6014843647
 10
10.4564718054
 20
9.5617599357
 10
10.4195046803
 20
9.5255864037
 10
10.3789087494
 20
9.4933573584
 10
10.3351257188
 20
9.4654234709
 10
10.2886319728
 20
9.4420886788
 10
10.2399333904
 20
9.423606879
 10
10.1895598403
 20
9.4101791648
 10
10.1380594154
 20
9.4019516381
 10
10.08599247
 20
9.3990138196
  0
LWPOLYLINE
  5
27B
100
AcDbEntity
  8
RACCORDO
100
AcDbPolyline
 62
250
  6
CONTINUOUS
 90
16
 70
0
 10
10.5111520309
 20
10.4935109376
 10
10.5081356467
 20
10.4424365538
 10
10.4996869832
 20
10.3919206291
 10
10.4858984199
 20
10.3425155184
 10
10.4669187066
 20
10.2947570456
 10
10.4429564559
 20
10.2491722074
 10
10.4142824312
 20
10.2062711869
 10
10.3812205359
 20
10.1665276452
 10
10.3441303757
 20
10.1303643718
 10
10.3034078529
 20
10.0981642606
 10
10.2594435536
 20
10.0702483944
 10
10.2127646477
 20
10.0469628626
 10
10.1640446184
 20
10.0286144408
 10
10.1138876722
 20
10.0153657037
 10
10.0627955853
 20
10.0072865819
 10
10.0113233684
 20
10.0044125278
  0
LWPOLYLINE
  5
27C
100
AcDbEntity
  8
RACCORDO
100
AcDbPolyline
 62
250
  6
CONTINUOUS
 90
16
 70
0
 10
10.5810618303
 20
61.5113478164
 10
10.5782734953
 20
61.5637302853
 10
10.5700110236
 20
61.615535671
 10
10.5563654665
 20
61.666193425
 10
10.5374846709
 20
61.7151512124
 10
10.5135779498
 20
61.7618637785
 10
10.4849194838
 20
61.8058017974
 10
10.4518374264
 20
61.8464760957
 10
10.4146941584
 20
61.8834531895
 10
10.3738883122
 20
61.9163406884
 10
10.3298045233
 20
61.9448144345
 10
10.2829837466
 20
61.9685118936
 10
10.2341369332
 20
61.9871097682
 10
10.1838876947
 20
62.0004510066
 10
10.1327335167
 20
62.0084809157
 10
10.0812331677
 20
62.0111764787
  0
LWPOLYLINE
  5
27D
100
AcDbEntity
  8
RACCORDO
100
AcDbPolyline
 62
250
  6
CONTINUOUS
 90
10
 70
0
 10
10.5858211325
 20
9.8881122294
 10
10.5860822336
 20
9.8861013077
 10
10.5863441255
 20
9.8842947255
 10
10.5866068081
 20
9.8826924827
 10
10.5868703543
 20
9.8812941415
 10
10.5871346913
 20
9.8801001397
 10
10.5873996007
 20
9.879111791
 10
10.5876650096
 20
9.8783295332
 10
10.587930991
 20
9.8777529284
 10
10.5881975448
 20
9.8773819767
  0
LINE
  5
27E
100
AcDbEntity
  8
RACCORDO
100
AcDbLine
 62
250
  6
CONTINUOUS
 10
10.0113233684
 20
10.0044125278
 11
10.08599247
 21
9.3990138196
  0
LINE
  5
27F
100
AcDbEntity
  8
RACCORDO
100
AcDbLine
 62
250
  6
CONTINUOUS
 10
10.5111520309
 20
10.4935109376
 11
10.5858211325
 21
9.8881122294
  0
LWPOLYLINE
  5
280
100
AcDbEntity
  8
0
100
AcDbPolyline
 62
7
  6
CONTINUOUS
 90
7
 70
0
 43
0.3500000006
 10
20.04866922
 20
35.0550769958
 10
20.04866922
 20
33.5550765381
 10
17.9058119087
 20
35.0550769958
 10
17.4772406731
 20
35.0550769958
 10
17.0486694374
 20
34.6265034943
 10
17.0486694374
 20
33.9836455078
 10
17.6915262909
 20
33.5550765381
  0
LWPOLYLINE
  5
281
100
AcDbEntity
  8
0
100
AcDbPolyline
 62
7
  6
CONTINUOUS
 90
8
 70
0
 43
0.3500000006
 10
20.04866922
 20
31.4122180939
 10
20.04866922
 20
32.2693605652
 10
19.6200979843
 20
32.6979340668
 10
18.76295438
 20
32.6979340668
 10
18.3343831444
 20
32.2693605652
 10
18.3343831444
 20
31.4122180939
 10
17.0486694374
 20
31.4122180939
 10
17.0486694374
 20
32.6979340668
  0
LINE
  5
282
100
AcDbEntity
  8
0
100
AcDbLine
 62
7
  6
CONTINUOUS
 10
0.7044125669
 20
23.2229327538
 11
2.4233988507
 21
19.0729327538
  0
LINE
  5
283
100
AcDbEntity
  8
0
100
AcDbLine
 62
7
  6
CONTINUOUS
 10
3.1495444393
 20
18.8877377835
 11
1.182030018
 21
23.6377377835
  0
LINE
  5
284
100
AcDbEntity
  8
RACCORDO
100
AcDbLine
 62
250
  6
CONTINUOUS
 10
10.0883688823
 20
9.3775533142
 11
10.120854784
 21
9.3450674126
  0
LINE
  5
285
100
AcDbEntity
  8
RACCORDO
100
AcDbLine
 62
250
  6
CONTINUOUS
 10
10.5881975448
 20
9.8773819767
 11
10.6206834464
 21
9.8448960751
  0
LWPOLYLINE
  5
286
100
AcDbEntity
  8
RACCORDO
100
AcDbPolyline
 62
250
  6
CONTINUOUS
 90
16
 70
0
 10
10.5111520309
 20
10.4935109376
 10
10.5071493989
 20
10.4988988019
 10
10.4978670006
 20
10.5042292827
 10
10.4834037115
 20
10.5094456193
 10
10.4639116765
 20
10.5144926945
 10
10.4395995483
 20
10.5193163006
 10
10.4107343407
 20
10.5238639266
 10
10.3776326075
 20
10.5280867255
 10
10.3406451605
 20
10.5319408376
 10
10.3001579732
 20
10.5353863725
 10
10.256549633
 20
10.5383899343
 10
10.2103297944
 20
10.540915325
 10
10.1621498339
 20
10.5429299911
 10
10.1125921472
 20
10.5444162866
 10
10.0621387487
 20
10.5453662243
 10
10.0113233684
 20
10.5457751692
  0
LINE
  5
287
100
AcDbEntity
  8
RACCORDO
100
AcDbLine
 62
7
  6
CONTINUOUS
 10
-10.9852185734
 20
9.3450674126
 11
10.120854784
 21
9.3450674126
  0
LINE
  5
288
100
AcDbEntity
  8
RACCORDO
100
AcDbLine
 62
250
  6
CONTINUOUS
 10
10.0883688823
 20
9.3775533142
 11
-10.9527326718
 21
9.3775533142
  0
LINE
  5
289
100
AcDbEntity
  8
RACCORDO
100
AcDbLine
 62
250
  6
CONTINUOUS
 10
10.08599247
 20
9.3990138196
 11
-10.9503562595
 21
9.3990138196
  0
LINE
  5
28A
100
AcDbEntity
  8
RACCORDO
100
AcDbLine
 62
250
  6
CONTINUOUS
 10
-10.8756871579
 20
10.0044125278
 11
10.0113233684
 21
10.0044125278
  0
LINE
  5
28B
100
AcDbEntity
  8
RACCORDO
100
AcDbLine
 62
250
  6
CONTINUOUS
 10
-10.8756871579
 20
10.5457751692
 11
10.0113233684
 21
10.5457751692
  0
LWPOLYLINE
  5
28C
100
AcDbEntity
  8
RACCORDO
100
AcDbPolyline
 62
250
  6
CONTINUOUS
 90
16
 70
0
 10
10.5522103356
 20
25.4115909873
 10
10.5482240143
 20
25.416965679
 10
10.538983583
 20
25.4222834188
 10
10.5245869564
 20
25.427487858
 10
10.5051866859
 20
25.4325238486
 10
10.4809883431
 20
25.4373380278
 10
10.4522483418
 20
25.4418793827
 10
10.4192712206
 20
25.4460997918
 10
10.3824064159
 20
25.4499545341
 10
10.3420445595
 20
25.4534027635
 10
10.2986133391
 20
25.4564079415
 10
10.2525729661
 20
25.4589382241
 10
10.2044112998
 20
25.4609667997
 10
10.1546386771
 20
25.4624721728
 10
10.1037825052
 20
25.463438392
 10
10.0523816731
 20
25.4638552189
  0
LINE
  5
28D
100
AcDbEntity
  8
0
100
AcDbLine
 62
7
  6
CONTINUOUS
 10
-1.1778362588
 20
17.0729327538
 11
0.0221637412
 21
17.0729327538
  0
LINE
  5
28E
100
AcDbEntity
  8
0
100
AcDbLine
 62
7
  6
CONTINUOUS
 10
0.0221637412
 20
17.6729327538
 11
-1.1778362588
 21
17.6729327538
  0
LINE
  5
28F
100
AcDbEntity
  8
0
100
AcDbLine
 62
7
  6
CONTINUOUS
 10
-3.736744369
 20
18.4729327538
 11
2.8723805795
 21
18.4729327538
  0
LINE
  5
290
100
AcDbEntity
  8
0
100
AcDbLine
 62
7
  6
CONTINUOUS
 10
2.4233988507
 20
19.0729327538
 11
-3.8703800966
 21
19.0729327538
  0
LINE
  5
291
100
AcDbEntity
  8
0
100
AcDbLine
 62
7
  6
CONTINUOUS
 10
-3.4561665342
 20
19.8729327538
 11
-3.0232096541
 21
19.8729327538
  0
LWPOLYLINE
  5
292
100
AcDbEntity
  8
0
100
AcDbPolyline
 62
7
  6
CONTINUOUS
 90
10
 70
0
 43
0.3500000006
 10
0.8535324197
 20
73.4787812805
 10
0.9249609826
 20
73.3359279785
 10
0.9249609826
 20
73.2644967957
 10
0.782103786
 20
73.1216434937
 10
0.7106752231
 20
73.1216434937
 10
0.6392466602
 20
73.1930656128
 10
0.6392466602
 20
73.2644967957
 10
0.7106752231
 20
73.4073591614
 10
0.782103786
 20
73.4787812805
 10
0.8535324197
 20
73.4787812805
  0
LINE
  5
293
100
AcDbEntity
  8
0
100
AcDbLine
 62
7
  6
CONTINUOUS
 10
-1.5687763564
 20
23.2229327538
 11
0.7044125669
 21
23.2229327538
  0
LINE
  5
294
100
AcDbEntity
  8
0
100
AcDbLine
 62
7
  6
CONTINUOUS
 10
0.9048661583
 20
23.8229327538
 11
-1.7692299477
 21
23.8229327538
  0
LINE
  5
295
100
AcDbEntity
  8
RACCORDO
100
AcDbLine
 62
250
  6
CONTINUOUS
 10
-10.9167454626
 20
25.4638552189
 11
10.0523816731
 21
25.4638552189
  0
LINE
  5
296
100
AcDbEntity
  8
RACCORDO
100
AcDbLine
 62
250
  6
CONTINUOUS
 10
-11.4454256198
 20
61.5113478164
 11
-11.4850472359
 21
61.5509694325
  0
LINE
  5
297
100
AcDbEntity
  8
RACCORDO
100
AcDbLine
 62
250
  6
CONTINUOUS
 10
-10.9455969573
 20
62.0111764789
 11
-10.9852185734
 21
62.050798095
  0
LWPOLYLINE
  5
298
100
AcDbEntity
  8
0
100
AcDbPolyline
 62
7
  6
CONTINUOUS
 90
4
 70
0
 43
0.3500000006
 10
17.6915262909
 20
37.6265044098
 10
17.0486694374
 20
37.6265044098
 10
17.0486694374
 20
39.1265048676
 10
20.04866922
 20
38.2693623962
  0
LWPOLYLINE
  5
299
100
AcDbEntity
  8
0
100
AcDbPolyline
 62
7
  6
CONTINUOUS
 90
3
 70
0
 43
0.3500000006
 10
19.7629558182
 20
36.6265041046
 10
19.977240303
 20
36.5550774536
 10
20.2629559708
 20
36.4122196198
  0
LINE
  5
29A
100
AcDbEntity
  8
RACCORDO
100
AcDbLine
 62
250
  6
CONTINUOUS
 10
10.5810618303
 20
46.4350754487
 11
-11.4454256198
 21
46.4350754487
  0
LINE
  5
29B
100
AcDbEntity
  8
RACCORDO
100
AcDbLine
 62
250
  6
CONTINUOUS
 10
10.5810618303
 20
61.5113478164
 11
-11.4454256198
 21
61.5113478164
  0
LINE
  5
29C
100
AcDbEntity
  8
RACCORDO
100
AcDbLine
 62
250
  6
CONTINUOUS
 10
10.0812331678
 20
62.0111764789
 11
-10.9455969573
 21
62.0111764789
  0
LINE
  5
29D
100
AcDbEntity
  8
RACCORDO
100
AcDbLine
 62
7
  6
CONTINUOUS
 10
-10.9852185734
 20
62.050798095
 11
10.120854784
 21
62.050798095
  0
LWPOLYLINE
  5
29E
100
AcDbEntity
  8
0
100
AcDbPolyline
 62
7
  6
CONTINUOUS
 90
7
 70
0
 43
0.3500000006
 10
-0.6464676132
 20
72.9787811279
 10
-2.1464676461
 20
72.9787811279
 10
-0.6464676132
 20
75.121644104
 10
-0.6464676132
 20
75.5502130737
 10
-1.0750390613
 20
75.9787820435
 10
-1.7178961272
 20
75.9787820435
 10
-2.1464676461
 20
75.3359285889
  0
LWPOLYLINE
  5
29F
100
AcDbEntity
  8
0
100
AcDbPolyline
 62
7
  6
CONTINUOUS
 90
7
 70
0
 43
0.3500000006
 10
-3.0036105423
 20
72.9787811279
 10
-4.5036104336
 20
72.9787811279
 10
-3.0036105423
 20
75.121644104
 10
-3.0036105423
 20
75.5502130737
 10
-3.432181778
 20
75.9787820435
 10
-4.0750389147
 20
75.9787820435
 10
-4.5036104336
 20
75.3359285889
  0
LWPOLYLINE
  5
2A0
100
AcDbEntity
  8
RACCORDO
100
AcDbPolyline
 62
7
  6
CONTINUOUS
 90
10
 70
0
 10
-15.5305207121
 20
56.1385707213
 10
-15.5040835303
 20
56.1584184369
 10
-15.4787338585
 20
56.1755636536
 10
-15.4552201609
 20
56.1902010134
 10
-15.4342950947
 20
56.2025207188
 10
-15.416391847
 20
56.2129264331
 10
-15.4017617339
 20
56.2219376932
 10
-15.3908467087
 20
56.2299391684
 10
-15.3841127891
 20
56.2372570692
 10
-15.3818296924
 20
56.2443198138
  0
LINE
  5
2A1
100
AcDbEntity
  8
RACCORDO
100
AcDbLine
 62
250
  6
CONTINUOUS
 10
-15.7523179587
 20
57.1163797865
 11
-15.7797472741
 21
57.0888450385
  0
LINE
  5
2A2
100
AcDbEntity
  8
RACCORDO
100
AcDbLine
 62
250
  6
CONTINUOUS
 10
-15.5408754079
 20
56.9012131899
 11
-15.568305377
 21
56.8736778187
  0
LINE
  5
2A3
100
AcDbEntity
  8
RACCORDO
100
AcDbLine
 62
250
  6
CONTINUOUS
 10
-15.7797472741
 20
57.0888450385
 11
-15.8666300965
 21
57.0026541416
  0
LINE
  5
2A4
100
AcDbEntity
  8
RACCORDO
100
AcDbLine
 62
250
  6
CONTINUOUS
 10
-15.568305377
 20
56.8736778187
 11
-15.6551884973
 21
56.7874866189
  0
LINE
  5
2A5
100
AcDbEntity
  8
RACCORDO
100
AcDbLine
 62
250
  6
CONTINUOUS
 10
-15.8666300965
 20
57.0026541416
 11
-15.9480047664
 21
56.9224870681
  0
LINE
  5
2A6
100
AcDbEntity
  8
RACCORDO
100
AcDbLine
 62
250
  6
CONTINUOUS
 10
-15.6551884973
 20
56.7874866189
 11
-15.736561642
 21
56.7073209814
  0
LWPOLYLINE
  5
2A7
100
AcDbEntity
  8
RACCORDO
100
AcDbPolyline
 62
7
  6
CONTINUOUS
 90
3
 70
0
 10
-17.0399978799
 20
38.5047463905
 10
-17.0795598597
 20
38.4831194608
 10
-17.0818296924
 20
38.4818629208
  0
LINE
  5
2A8
100
AcDbEntity
  8
RACCORDO
100
AcDbLine
 62
250
  6
CONTINUOUS
 10
-16.9254959221
 20
38.4544880063
 11
-17.0050514904
 21
38.4114773406
  0
LINE
  5
2A9
100
AcDbEntity
  8
RACCORDO
100
AcDbLine
 62
250
  6
CONTINUOUS
 10
-16.5576814141
 20
38.6502853236
 11
-16.6215808716
 21
38.6157426007
  0
LINE
  5
2AA
100
AcDbEntity
  8
RACCORDO
100
AcDbLine
 62
7
  6
CONTINUOUS
 10
-16.9641142812
 20
38.5456226709
 11
-17.0399978799
 21
38.5047463905
  0
LINE
  5
2AB
100
AcDbEntity
  8
RACCORDO
100
AcDbLine
 62
250
  6
CONTINUOUS
 10
-16.6215808716
 20
38.6157426007
 11
-16.7157957927
 21
38.565570841
  0
LINE
  5
2AC
100
AcDbEntity
  8
RACCORDO
100
AcDbLine
 62
7
  6
CONTINUOUS
 10
-16.826569755
 20
38.6185467894
 11
-16.9641142812
 21
38.5456226709
  0
LINE
  5
2AD
100
AcDbEntity
  8
RACCORDO
100
AcDbLine
 62
250
  6
CONTINUOUS
 10
-16.7157957927
 20
38.565570841
 11
-16.9254959221
 21
38.4544880063
  0
LINE
  5
2AE
100
AcDbEntity
  8
DRAFT
100
AcDbLine
 62
7
  6
CONTINUOUS
 10
-16.146834227
 20
41.4979327538
 11
-15.8008405893
 21
41.6788433875
  0
LINE
  5
2AF
100
AcDbEntity
  8
RACCORDO
100
AcDbLine
 62
250
  6
CONTINUOUS
 10
-16.8683462529
 20
40.1532061744
 11
-17.0818296924
 21
40.043357446
  0
LWPOLYLINE
  5
2B0
100
AcDbEntity
  8
IMPORT_IGES
100
AcDbPolyline
 62
7
  6
CONTINUOUS
 90
4
 70
0
 10
-16.6376885242
 20
41.6391776943
 10
-16.7753192661
 20
41.5699291899
 10
-16.9428011131
 20
41.483591897
 10
-17.0818296924
 20
41.4110135413
  0
LWPOLYLINE
  5
2B1
100
AcDbEntity
  8
RACCORDO
100
AcDbPolyline
 62
250
  6
CONTINUOUS
 90
5
 70
0
 10
-16.4412741628
 20
39.3140442786
 10
-16.4916937325
 20
39.2890426939
 10
-16.5416676411
 20
39.2645339874
 10
-16.5911958885
 20
39.2405181591
 10
-16.639819835
 20
39.2172853797
  0
LINE
  5
2B2
100
AcDbEntity
  8
RACCORDO
100
AcDbLine
 62
7
  6
CONTINUOUS
 10
-17.0728817672
 20
39.1213612942
 11
-17.0818296924
 21
39.1169585109
  0
LWPOLYLINE
  5
2B3
100
AcDbEntity
  8
RACCORDO
100
AcDbPolyline
 62
250
  6
CONTINUOUS
 90
3
 70
0
 10
-16.9993059121
 20
39.0474097701
 10
-17.0538411822
 20
39.0208477239
 10
-17.0818296924
 20
39.006956039
  0
LINE
  5
2B4
100
AcDbEntity
  8
RACCORDO
100
AcDbLine
 62
7
  6
CONTINUOUS
 10
-17.0745717218
 20
39.1205365277
 11
-16.9908270081
 21
39.1609392678
  0
LINE
  5
2B5
100
AcDbEntity
  8
RACCORDO
100
AcDbLine
 62
250
  6
CONTINUOUS
 10
-16.8913897617
 20
39.0989390271
 11
-16.9993059121
 21
39.0474097701
  0
LINE
  5
2B6
100
AcDbEntity
  8
RACCORDO
100
AcDbLine
 62
7
  6
CONTINUOUS
 10
-16.9196993004
 20
39.1946797566
 11
-17.0210061023
 21
39.1464806318
  0
LINE
  5
2B7
100
AcDbEntity
  8
RACCORDO
100
AcDbLine
 62
7
  6
CONTINUOUS
 10
-16.8218300113
 20
39.240665882
 11
-16.9490619083
 21
39.1807994296
  0
LINE
  5
2B8
100
AcDbEntity
  8
RACCORDO
100
AcDbLine
 62
250
  6
CONTINUOUS
 10
-16.639819835
 20
39.2172853797
 11
-16.8913897617
 21
39.0989390271
  0
LWPOLYLINE
  5
2B9
100
AcDbEntity
  8
RACCORDO
100
AcDbPolyline
 62
250
  6
CONTINUOUS
 90
7
 70
0
 10
-16.3718296955
 20
40.3969319428
 10
-16.4370788823
 20
40.3664163366
 10
-16.5042559254
 20
40.3344386633
 10
-16.573360825
 20
40.300998923
 10
-16.6446018623
 20
40.2659435552
 10
-16.717770756
 20
40.2294261204
 10
-16.8683462529
 20
40.1532061744
  0
LWPOLYLINE
  5
2BA
100
AcDbEntity
  8
RACCORDO
100
AcDbPolyline
 62
250
  6
CONTINUOUS
 90
9
 70
0
 10
-16.3718296971
 20
40.495713532
 10
-16.4365047872
 20
40.4657141326
 10
-16.5030364729
 20
40.4343957654
 10
-16.5714247542
 20
40.4016938467
 10
-16.6417997216
 20
40.3674794696
 10
-16.7140312845
 20
40.331800842
 10
-16.7877291723
 20
40.2949015473
 10
-16.8632453809
 20
40.2566748582
 10
-17.0818296924
 20
40.1445661842
  0
LWPOLYLINE
  5
2BB
100
AcDbEntity
  8
RACCORDO
100
AcDbPolyline
 62
250
  6
CONTINUOUS
 90
3
 70
0
 10
-17.0068215655
 20
39.6501673303
 10
-17.058387256
 20
39.627543966
 10
-17.0818296924
 20
39.6170738763
  0
LWPOLYLINE
  5
2BC
100
AcDbEntity
  8
RACCORDO
100
AcDbPolyline
 62
7
  6
CONTINUOUS
 90
3
 70
0
 10
-17.0143092639
 20
39.7545257471
 10
-17.064340942
 20
39.7327656998
 10
-17.0818296924
 20
39.7250430766
  0
LINE
  5
2BD
100
AcDbEntity
  8
RACCORDO
100
AcDbLine
 62
250
  6
CONTINUOUS
 10
-16.9045687217
 20
39.694176423
 11
-17.0068215655
 21
39.6501673303
  0
LINE
  5
2BE
100
AcDbEntity
  8
RACCORDO
100
AcDbLine
 62
7
  6
CONTINUOUS
 10
-16.9165039767
 20
39.7963657337
 11
-17.0143092639
 21
39.7545257471
  0
LINE
  5
2BF
100
AcDbEntity
  8
RACCORDO
100
AcDbLine
 62
7
  6
CONTINUOUS
 10
-16.8218293761
 20
39.8363928373
 11
-16.9165039767
 21
39.7963657337
  0
LINE
  5
2C0
100
AcDbEntity
  8
RACCORDO
100
AcDbLine
 62
250
  6
CONTINUOUS
 10
-16.620359498
 20
39.8146604328
 11
-16.9045687217
 21
39.694176423
  0
LINE
  5
2C1
100
AcDbEntity
  8
RACCORDO
100
AcDbLine
 62
7
  6
CONTINUOUS
 10
-17.0790935103
 20
40.3146205256
 11
-17.0818296924
 21
40.3135051599
  0
LINE
  5
2C2
100
AcDbEntity
  8
RACCORDO
100
AcDbLine
 62
250
  6
CONTINUOUS
 10
-16.4701837545
 20
40.5440030423
 11
-16.5366914326
 21
40.5168524158
  0
LINE
  5
2C3
100
AcDbEntity
  8
RACCORDO
100
AcDbLine
 62
250
  6
CONTINUOUS
 10
-16.5366914326
 20
40.5168524158
 11
-16.6004578319
 21
40.4913229627
  0
LINE
  5
2C4
100
AcDbEntity
  8
RACCORDO
100
AcDbLine
 62
7
  6
CONTINUOUS
 10
-16.5472540705
 20
40.5217553861
 11
-16.6471464997
 21
40.4821604099
  0
LINE
  5
2C5
100
AcDbEntity
  8
RACCORDO
100
AcDbLine
 62
7
  6
CONTINUOUS
 10
-17.0790935103
 20
40.3146205256
 11
-16.9646692591
 21
40.3596833978
  0
LINE
  5
2C6
100
AcDbEntity
  8
RACCORDO
100
AcDbLine
 62
250
  6
CONTINUOUS
 10
-16.9943062797
 20
40.3392059755
 11
-17.0818296924
 21
40.3047131383
  0
LWPOLYLINE
  5
2C7
100
AcDbEntity
  8
RACCORDO
100
AcDbPolyline
 62
7
  6
CONTINUOUS
 90
10
 70
0
 10
-16.5472540503
 20
40.521755336
 10
-16.5399663841
 20
40.5245940288
 10
-16.5323804157
 20
40.527357653
 10
-16.5244879093
 20
40.5300397327
 10
-16.5162811753
 20
40.5326360304
 10
-16.5077518706
 20
40.5351399007
 10
-16.4988885244
 20
40.5375379805
 10
-16.4896792844
 20
40.5398185553
 10
-16.480114535
 20
40.541976056
 10
-16.470183937
 20
40.5440034234
  0
LINE
  5
2C8
100
AcDbEntity
  8
RACCORDO
100
AcDbLine
 62
250
  6
CONTINUOUS
 10
-16.6004578319
 20
40.4913229627
 11
-16.6944404199
 21
40.454576349
  0
LINE
  5
2C9
100
AcDbEntity
  8
RACCORDO
100
AcDbLine
 62
7
  6
CONTINUOUS
 10
-16.6471464997
 20
40.4821604099
 11
-16.966771572
 21
40.358866188
  0
LINE
  5
2CA
100
AcDbEntity
  8
RACCORDO
100
AcDbLine
 62
250
  6
CONTINUOUS
 10
-16.6944404199
 20
40.454576349
 11
-16.9943062797
 21
40.3392059755
  0
LINE
  5
2CB
100
AcDbEntity
  8
RACCORDO
100
AcDbLine
 62
7
  6
CONTINUOUS
 10
-17.0534196198
 20
36.2604695562
 11
-17.0610095536
 21
36.2576473573
  0
LINE
  5
2CC
100
AcDbEntity
  8
RACCORDO
100
AcDbLine
 62
7
  6
CONTINUOUS
 10
-16.9602351904
 20
36.2943086239
 11
-17.0534196198
 21
36.2604695562
  0
LWPOLYLINE
  5
2CD
100
AcDbEntity
  8
RACCORDO
100
AcDbPolyline
 62
7
  6
CONTINUOUS
 90
4
 70
0
 10
-17.0610095536
 20
36.2576473573
 10
-17.0741314068
 20
36.2528758033
 10
-17.0791650663
 20
36.2508917723
 10
-17.0818296924
 20
36.2497310518
  0
LINE
  5
2CE
100
AcDbEntity
  8
RACCORDO
100
AcDbLine
 62
7
  6
CONTINUOUS
 10
-16.8455676385
 20
36.3356611632
 11
-16.9602351904
 21
36.2943086239
  0
LINE
  5
2CF
100
AcDbEntity
  8
RACCORDO
100
AcDbLine
 62
7
  6
CONTINUOUS
 10
-17.0511950859
 20
37.0833077886
 11
-17.0593139501
 21
37.0809676102
  0
LWPOLYLINE
  5
2D0
100
AcDbEntity
  8
RACCORDO
100
AcDbPolyline
 62
250
  6
CONTINUOUS
 90
4
 70
0
 10
-15.7366475923
 20
57.1327598474
 10
-15.738296505
 20
57.1308049821
 10
-15.743549685
 20
57.1253138911
 10
-15.7523179587
 20
57.1163797865
  0
LWPOLYLINE
  5
2D1
100
AcDbEntity
  8
RACCORDO
100
AcDbPolyline
 62
250
  6
CONTINUOUS
 90
4
 70
0
 10
-15.5252044679
 20
56.9175937607
 10
-15.5268534651
 20
56.9156388338
 10
-15.5321068498
 20
56.9101475596
 10
-15.5408754079
 20
56.9012131899
  0
LWPOLYLINE
  5
2D2
100
AcDbEntity
  8
RACCORDO
100
AcDbPolyline
 62
250
  6
CONTINUOUS
 90
3
 70
0
 10
-16.8154441095
 20
37.8632296995
 10
-16.9060755127
 20
37.8039351159
 10
-16.9508094654
 20
37.7749730431
  0
LINE
  5
2D3
100
AcDbEntity
  8
RACCORDO
100
AcDbLine
 62
250
  6
CONTINUOUS
 10
-16.9508094654
 20
37.7749730431
 11
-17.0818296924
 21
37.6913731936
  0
LWPOLYLINE
  5
2D4
100
AcDbEntity
  8
RACCORDO
100
AcDbPolyline
 62
250
  6
CONTINUOUS
 90
3
 70
0
 10
-16.455132896
 20
38.7070992236
 10
-16.5242931439
 20
38.6686213944
 10
-16.5576814141
 20
38.6502853236
  0
LWPOLYLINE
  5
2D5
100
AcDbEntity
  8
RACCORDO
100
AcDbPolyline
 62
250
  6
CONTINUOUS
 90
3
 70
0
 10
-17.0050514904
 20
38.4114773406
 10
-17.0465324063
 20
38.3887444421
 10
-17.0818296924
 20
38.3691254449
  0
LWPOLYLINE
  5
2D6
100
AcDbEntity
  8
0
100
AcDbPolyline
 62
7
  6
CONTINUOUS
 90
3
 70
0
 43
0.3500000006
 10
-32.9406291046
 20
73.2644967957
 10
-33.0120580215
 20
73.0502123108
 10
-33.1549135895
 20
72.7644966431
  0
LINE
  5
2D7
100
AcDbEntity
  8
RACCORDO
100
AcDbLine
 62
250
  6
CONTINUOUS
 10
-16.8455676385
 20
36.3356611632
 11
-17.0818296924
 21
36.1190609912
  0
LINE
  5
2D8
100
AcDbEntity
  8
RACCORDO
100
AcDbLine
 62
250
  6
CONTINUOUS
 10
-16.8283641026
 20
37.1457717088
 11
-17.0818296924
 21
36.9531493506
  0
LINE
  5
2D9
100
AcDbEntity
  8
DRAFT
100
AcDbLine
 62
7
  6
CONTINUOUS
 10
-17.0582630804
 20
29.4764993659
 11
-16.5368296924
 21
29.9979327538
  0
LINE
  5
2DA
100
AcDbEntity
  8
0
100
AcDbLine
 62
7
  6
CONTINUOUS
 10
-17.0582630804
 20
27.3760428577
 11
-16.024551351
 21
29.5628528592
  0
LINE
  5
2DB
100
AcDbEntity
  8
IMPORT_IGES
100
AcDbLine
 62
7
  6
CONTINUOUS
 10
-16.024551351
 20
29.5628528592
 11
-15.8368296924
 21
29.9599767273
  0
LWPOLYLINE
  5
2DC
100
AcDbEntity
  8
0
100
AcDbPolyline
 62
7
  6
CONTINUOUS
 90
2
 70
0
 43
0.3500000006
 10
-35.012056366
 20
72.9787811279
 10
-35.012056366
 20
74.4787815857
  0
LWPOLYLINE
  5
2DD
100
AcDbEntity
  8
0
100
AcDbPolyline
 62
7
  6
CONTINUOUS
 90
4
 70
0
 43
0.3500000006
 10
-31.9406287994
 20
75.3359285889
 10
-31.9406287994
 20
75.9787820435
 10
-30.4406283417
 20
75.9787820435
 10
-31.297770813
 20
72.9787811279
  0
LWPOLYLINE
  5
2DE
100
AcDbEntity
  8
0
100
AcDbPolyline
 62
7
  6
CONTINUOUS
 90
4
 70
0
 43
0.3500000006
 10
-31.7245383682
 20
82.5912194824
 10
-31.7245383682
 20
83.4483664856
 10
-31.2959671326
 20
83.8769354553
 10
-30.6531091461
 20
83.8769354553
  0
LWPOLYLINE
  5
2DF
100
AcDbEntity
  8
RACCORDO
100
AcDbPolyline
 62
250
  6
CONTINUOUS
 90
5
 70
0
 10
-15.9053920802
 20
58.9100513438
 10
-15.9035849936
 20
58.9214601908
 10
-15.9023369882
 20
58.9297629591
 10
-15.9016693763
 20
58.9348178598
 10
-15.9015935592
 20
58.9365385686
  0
LINE
  5
2E0
100
AcDbEntity
  8
RACCORDO
100
AcDbLine
 62
250
  6
CONTINUOUS
 10
-15.9105510349
 20
58.8787444613
 11
-15.9053920802
 21
58.9100513438
  0
LINE
  5
2E1
100
AcDbEntity
  8
RACCORDO
100
AcDbLine
 62
250
  6
CONTINUOUS
 10
-15.9214331845
 20
58.8148820839
 11
-15.9105510349
 21
58.8787444613
  0
LINE
  5
2E2
100
AcDbEntity
  8
RACCORDO
100
AcDbLine
 62
250
  6
CONTINUOUS
 10
-15.9345778876
 20
58.739577018
 11
-15.9214331845
 21
58.8148820839
  0
LWPOLYLINE
  5
2E3
100
AcDbEntity
  8
DRAFT
100
AcDbPolyline
 62
7
  6
CONTINUOUS
 90
25
 70
0
 10
-15.2818296924
 20
41.7787096284
 10
-15.2826935827
 20
41.7738689831
 10
-15.2852760947
 20
41.7689953002
 10
-15.289559115
 20
41.7640885799
 10
-15.2955177905
 20
41.7591292106
 10
-15.3031232414
 20
41.7541368038
 10
-15.3123451991
 20
41.7491701941
 10
-15.3231460508
 20
41.7442280766
 10
-15.3354826337
 20
41.7393117561
 10
-15.349312687
 20
41.7344839816
 10
-15.3645849387
 20
41.7297446942
 10
-15.3812440917
 20
41.7250939527
 10
-15.399238558
 20
41.7205946825
 10
-15.4185035507
 20
41.716248233
 10
-15.4389746002
 20
41.7120532547
 10
-15.4605991513
 20
41.7080686244
 10
-15.4833059895
 20
41.7042960402
 10
-15.5070196507
 20
41.700733804
 10
-15.5316806916
 20
41.6974356991
 10
-15.5572114701
 20
41.6944043488
 10
-15.5835262414
 20
41.6916371299
 10
-15.6105516379
 20
41.6891799557
 10
-15.638203537
 20
41.6870481306
 10
-15.6663861854
 20
41.6852263501
 10
-15.6950056036
 20
41.6837146144
  0
LWPOLYLINE
  5
2E4
100
AcDbEntity
  8
RACCORDO
100
AcDbPolyline
 62
250
  6
CONTINUOUS
 90
9
 70
0
 10
-21.3306848187
 20
10.1665276452
 10
-21.3373913675
 20
10.1303643718
 10
-21.3431613844
 20
10.0981642606
 10
-21.3479369287
 20
10.0702483944
 10
-21.3516583267
 20
10.0469628626
 10
-21.3542780832
 20
10.0286144408
 10
-21.3557775036
 20
10.0153657037
 10
-21.3561548805
 20
10.0072865819
 10
-21.3554172207
 20
10.0044125278
  0
LINE
  5
2E5
100
AcDbEntity
  8
RACCORDO
100
AcDbLine
 62
250
  6
CONTINUOUS
 10
-21.3147552454
 20
10.2491722074
 11
-21.3306848187
 21
10.1665276452
  0
LINE
  5
2E6
100
AcDbEntity
  8
RACCORDO
100
AcDbLine
 62
250
  6
CONTINUOUS
 10
-21.2960620943
 20
10.3425155184
 11
-21.3147552454
 21
10.2491722074
  0
LWPOLYLINE
  5
2E7
100
AcDbEntity
  8
RACCORDO
100
AcDbPolyline
 62
250
  6
CONTINUOUS
 90
3
 70
0
 10
-21.2646656953
 20
10.4935109376
 10
-21.2754302604
 20
10.4424365538
 10
-21.2960620943
 20
10.3425155184
  0
LINE
  5
2E8
100
AcDbEntity
  8
RACCORDO
100
AcDbLine
 62
7
  6
CONTINUOUS
 10
-19.1671405135
 20
39.2870754752
 11
-19.1417695015
 21
40.2662515045
  0
LINE
  5
2E9
100
AcDbEntity
  8
RACCORDO
100
AcDbLine
 62
250
  6
CONTINUOUS
 10
-18.6799719934
 20
39.2888210251
 11
-18.7082183664
 21
38.3918550444
  0
LINE
  5
2EA
100
AcDbEntity
  8
RACCORDO
100
AcDbLine
 62
7
  6
CONTINUOUS
 10
-19.196702417
 20
38.3555805064
 11
-19.1666775221
 21
39.3031721474
  0
LINE
  5
2EB
100
AcDbEntity
  8
RACCORDO
100
AcDbLine
 62
250
  6
CONTINUOUS
 10
-18.7082183664
 20
38.3918550444
 11
-18.7418954164
 21
37.4930437965
  0
LINE
  5
2EC
100
AcDbEntity
  8
RACCORDO
100
AcDbLine
 62
7
  6
CONTINUOUS
 10
-19.2307836107
 20
37.4539290547
 11
-19.1948547491
 21
38.4090389515
  0
LINE
  5
2ED
100
AcDbEntity
  8
RACCORDO
100
AcDbLine
 62
7
  6
CONTINUOUS
 10
-19.2283664893
 20
37.5132858763
 11
-19.2675697988
 21
36.6174011603
  0
LINE
  5
2EE
100
AcDbEntity
  8
RACCORDO
100
AcDbLine
 62
250
  6
CONTINUOUS
 10
-18.7418954164
 20
37.4930437965
 11
-18.7812115221
 21
36.5938864185
  0
LINE
  5
2EF
100
AcDbEntity
  8
RACCORDO
100
AcDbLine
 62
7
  6
CONTINUOUS
 10
-19.2915419561
 20
36.1277746121
 11
-19.24957321
 21
37.0120655411
  0
LINE
  5
2F0
100
AcDbEntity
  8
RACCORDO
100
AcDbLine
 62
250
  6
CONTINUOUS
 10
-18.7812115221
 20
36.5938864185
 11
-18.8262264788
 21
35.7036026082
  0
LINE
  5
2F1
100
AcDbEntity
  8
RACCORDO
100
AcDbLine
 62
7
  6
CONTINUOUS
 10
-19.2892418288
 20
36.1731574399
 11
-19.3370349316
 21
35.2879049
  0
LINE
  5
2F2
100
AcDbEntity
  8
RACCORDO
100
AcDbLine
 62
250
  6
CONTINUOUS
 10
-18.8262264788
 20
35.7036026082
 11
-18.8770846617
 21
34.8162083379
  0
LINE
  5
2F3
100
AcDbEntity
  8
RACCORDO
100
AcDbLine
 62
7
  6
CONTINUOUS
 10
-19.3662710161
 20
34.7947470944
 11
-19.3148179517
 21
35.6853522723
  0
LINE
  5
2F4
100
AcDbEntity
  8
RACCORDO
100
AcDbLine
 62
7
  6
CONTINUOUS
 10
-19.3631169575
 20
34.8465145631
 11
-19.4199454939
 21
33.9577985846
  0
LINE
  5
2F5
100
AcDbEntity
  8
RACCORDO
100
AcDbLine
 62
250
  6
CONTINUOUS
 10
-18.8770846617
 20
34.8162083379
 11
-18.9341551594
 21
33.9243331657
  0
LINE
  5
2F6
100
AcDbEntity
  8
RACCORDO
100
AcDbLine
 62
7
  6
CONTINUOUS
 10
-19.4547205262
 20
33.4523595498
 11
-19.3943934197
 21
34.3465613913
  0
LINE
  5
2F7
100
AcDbEntity
  8
RACCORDO
100
AcDbLine
 62
250
  6
CONTINUOUS
 10
-18.9341551594
 20
33.9243331657
 11
-18.9982897187
 21
33.0095492688
  0
LINE
  5
2F8
100
AcDbEntity
  8
RACCORDO
100
AcDbLine
 62
7
  6
CONTINUOUS
 10
-19.5201816095
 20
32.5602980162
 11
-19.4510318765
 21
33.5048110606
  0
LINE
  5
2F9
100
AcDbEntity
  8
RACCORDO
100
AcDbLine
 62
250
  6
CONTINUOUS
 10
-18.9982897187
 20
33.0095492688
 11
-19.0710564271
 21
32.0539988045
  0
LINE
  5
2FA
100
AcDbEntity
  8
RACCORDO
100
AcDbLine
 62
7
  6
CONTINUOUS
 10
-19.5190201626
 20
32.5755509566
 11
-19.5961399765
 21
31.5995117809
  0
LINE
  5
2FB
100
AcDbEntity
  8
RACCORDO
100
AcDbLine
 62
250
  6
CONTINUOUS
 10
-19.0710564271
 20
32.0539988045
 11
-19.1535905607
 21
31.0458824611
  0
LINE
  5
2FC
100
AcDbEntity
  8
RACCORDO
100
AcDbLine
 62
7
  6
CONTINUOUS
 10
-19.5904407857
 20
31.6693170172
 11
-19.684233659
 21
30.5590045914
  0
LINE
  5
2FD
100
AcDbEntity
  8
RACCORDO
100
AcDbLine
 62
250
  6
CONTINUOUS
 10
-19.1535905607
 20
31.0458824611
 11
-19.2478249026
 21
29.9675239202
  0
LINE
  5
2FE
100
AcDbEntity
  8
RACCORDO
100
AcDbLine
 62
7
  6
CONTINUOUS
 10
-19.746260064
 20
29.8627757101
 11
-19.6657675015
 21
30.7716303183
  0
LINE
  5
2FF
100
AcDbEntity
  8
RACCORDO
100
AcDbLine
 62
7
  6
CONTINUOUS
 10
-19.7327378427
 20
30.0123703441
 11
-19.8405274284
 21
28.8486394975
  0
LINE
  5
300
100
AcDbEntity
  8
RACCORDO
100
AcDbLine
 62
250
  6
CONTINUOUS
 10
-19.2478249026
 20
29.9675239202
 11
-19.3558801625
 21
28.8013347549
  0
LINE
  5
301
100
AcDbEntity
  8
RACCORDO
100
AcDbLine
 62
7
  6
CONTINUOUS
 10
-19.7885808113
 20
29.4016283661
 11
-19.8999106099
 21
28.2315480226
  0
LINE
  5
302
100
AcDbEntity
  8
RACCORDO
100
AcDbLine
 62
250
  6
CONTINUOUS
 10
-19.3558801625
 20
28.8013347549
 11
-19.4791045769
 21
27.5355981266
  0
LINE
  5
303
100
AcDbEntity
  8
RACCORDO
100
AcDbLine
 62
7
  6
CONTINUOUS
 10
-20.0732967969
 20
26.4995804322
 11
-19.8774092427
 21
28.4636493522
  0
LINE
  5
304
100
AcDbEntity
  8
RACCORDO
100
AcDbLine
 62
250
  6
CONTINUOUS
 10
-19.4791045769
 20
27.5355981266
 11
-19.6198944733
 21
26.148866909
  0
LINE
  5
305
100
AcDbEntity
  8
RACCORDO
100
AcDbLine
 62
7
  6
CONTINUOUS
 10
-20.0316853073
 20
26.9073691318
 11
-20.1808847735
 21
25.4638552189
  0
LINE
  5
306
100
AcDbEntity
  8
RACCORDO
100
AcDbLine
 62
7
  6
CONTINUOUS
 10
-20.1808847735
 20
25.4638552189
 11
-21.7488381688
 21
10.5457751692
  0
LINE
  5
307
100
AcDbEntity
  8
RACCORDO
100
AcDbLine
 62
250
  6
CONTINUOUS
 10
-19.6198944733
 20
26.148866909
 11
-21.2646656953
 21
10.4935109376
  0
LINE
  5
308
100
AcDbEntity
  8
0
100
AcDbLine
 62
7
  6
CONTINUOUS
 10
-16.5684269973
 20
28.4122876977
 11
-17.0582630804
 21
24.4228929441
  0
LWPOLYLINE
  5
309
100
AcDbEntity
  8
RACCORDO
100
AcDbPolyline
 62
250
  6
CONTINUOUS
 90
9
 70
0
 10
-18.4790681509
 20
9.5617599357
 10
-18.4857800995
 20
9.5255864037
 10
-18.4915595744
 20
9.4933573584
 10
-18.4963436914
 20
9.4654234709
 10
-18.5000803964
 20
9.4420886788
 10
-18.5027290318
 20
9.423606879
 10
-18.5042607787
 20
9.4101791648
 10
-18.5046589706
 20
9.4019516381
 10
-18.503919275
 20
9.3990138196
  0
LINE
  5
30A
100
AcDbEntity
  8
RACCORDO
100
AcDbLine
 62
250
  6
CONTINUOUS
 10
-18.4631483042
 20
9.6443274655
 11
-18.4790681509
 21
9.5617599357
  0
LINE
  5
30B
100
AcDbEntity
  8
RACCORDO
100
AcDbLine
 62
250
  6
CONTINUOUS
 10
-18.4444910186
 20
9.7374761902
 11
-18.4631483042
 21
9.6443274655
  0
LWPOLYLINE
  5
30C
100
AcDbEntity
  8
RACCORDO
100
AcDbPolyline
 62
250
  6
CONTINUOUS
 90
3
 70
0
 10
-18.4131677496
 20
9.8881122294
 10
-18.4239060939
 20
9.8371630899
 10
-18.4444910186
 20
9.7374761902
  0
LINE
  5
30D
100
AcDbEntity
  8
RACCORDO
100
AcDbLine
 62
250
  6
CONTINUOUS
 10
-18.5949181666
 20
61.5113478164
 11
-18.597357046
 21
61.615535671
  0
LINE
  5
30E
100
AcDbEntity
  8
RACCORDO
100
AcDbLine
 62
250
  6
CONTINUOUS
 10
-18.597357046
 20
61.615535671
 11
-18.5991138383
 21
61.7151512124
  0
LWPOLYLINE
  5
30F
100
AcDbEntity
  8
RACCORDO
100
AcDbPolyline
 62
250
  6
CONTINUOUS
 90
11
 70
0
 10
-18.5991138383
 20
61.7151512124
 10
-18.6001111395
 20
61.8058017974
 10
-18.6003099493
 20
61.8464760957
 10
-18.6003055979
 20
61.8834531895
 10
-18.6000982487
 20
61.9163406884
 10
-18.5996894851
 20
61.9448144345
 10
-18.5990839795
 20
61.9685118936
 10
-18.5982918836
 20
61.9871097682
 10
-18.5973254151
 20
62.0004510066
 10
-18.5961961686
 20
62.0084809157
 10
-18.5949181732
 20
62.0111764787
  0
LINE
  5
310
100
AcDbEntity
  8
RACCORDO
100
AcDbLine
 62
250
  6
CONTINUOUS
 10
-16.0879514897
 20
57.2420864746
 11
-16.0878253692
 21
57.1944114042
  0
LWPOLYLINE
  5
311
100
AcDbEntity
  8
RACCORDO
100
AcDbPolyline
 62
250
  6
CONTINUOUS
 90
9
 70
0
 10
-18.3278059728
 20
9.5430500383
 10
-18.3278059728
 20
9.5060590577
 10
-18.327603698
 20
9.4731328233
 10
-18.3272013625
 20
9.4446317674
 10
-18.3266033707
 20
9.4208678814
 10
-18.3258162685
 20
9.4021013005
 10
-18.3248486721
 20
9.3885374561
 10
-18.3237111734
 20
9.3803248271
 10
-18.3224162242
 20
9.3775533142
  0
LINE
  5
312
100
AcDbEntity
  8
RACCORDO
100
AcDbLine
 62
7
  6
CONTINUOUS
 10
-17.0818296924
 20
62.050798095
 11
-17.0818296924
 21
9.3450674126
  0
LINE
  5
313
100
AcDbEntity
  8
RACCORDO
100
AcDbLine
 62
7
  6
CONTINUOUS
 10
-17.0582630804
 20
24.2429235158
 11
-17.0582630804
 21
29.4764993659
  0
LINE
  5
314
100
AcDbEntity
  8
RACCORDO
100
AcDbLine
 62
7
  6
CONTINUOUS
 10
-16.3718296924
 20
41.6520101761
 11
-16.3718296924
 21
35.6336441813
  0
LINE
  5
315
100
AcDbEntity
  8
RACCORDO
100
AcDbLine
 62
7
  6
CONTINUOUS
 10
-16.0659830388
 20
58.1125528577
 11
-16.0659830388
 21
58.2833126499
  0
LINE
  5
316
100
AcDbEntity
  8
IMPORT_IGES
100
AcDbLine
 62
7
  6
CONTINUOUS
 10
-16.0245288276
 20
29.9979327538
 11
-16.0245288276
 21
29.5629005073
  0
LINE
  5
317
100
AcDbEntity
  8
RACCORDO
100
AcDbLine
 62
250
  6
CONTINUOUS
 10
-16.0075297043
 20
35.6336441813
 11
-16.0075297043
 21
39.0704706301
  0
LINE
  5
318
100
AcDbEntity
  8
RACCORDO
100
AcDbLine
 62
7
  6
CONTINUOUS
 10
-15.9836597737
 20
39.0278417728
 11
-15.9836597737
 21
35.6336441813
  0
LINE
  5
319
100
AcDbEntity
  8
DRAFT
100
AcDbLine
 62
7
  6
CONTINUOUS
 10
-15.8818296924
 20
23.9928648798
 11
-15.8818296924
 21
23.9429463576
  0
LINE
  5
31A
100
AcDbEntity
  8
DRAFT
100
AcDbLine
 62
7
  6
CONTINUOUS
 10
-15.8818296924
 20
20.95291915
 11
-15.8818296924
 21
20.9030006278
  0
LINE
  5
31B
100
AcDbEntity
  8
IMPORT_IGES
100
AcDbLine
 62
7
  6
CONTINUOUS
 10
-15.8368296924
 20
29.9599767273
 11
-15.8368296924
 21
35.6336441813
  0
LINE
  5
31C
100
AcDbEntity
  8
DRAFT
100
AcDbLine
 62
250
  6
CONTINUOUS
 10
-15.6950056036
 20
42.3567361814
 11
-15.6950056036
 21
41.6837146144
  0
LINE
  5
31D
100
AcDbEntity
  8
RACCORDO
100
AcDbLine
 62
250
  6
CONTINUOUS
 10
-15.6792117318
 20
56.5671391286
 11
-15.6792117318
 21
56.0831527152
  0
LINE
  5
31E
100
AcDbEntity
  8
RACCORDO
100
AcDbLine
 62
250
  6
CONTINUOUS
 10
-15.5305207121
 20
55.5184523164
 11
-15.5305207121
 21
56.1385707213
  0
LINE
  5
31F
100
AcDbEntity
  8
RACCORDO
100
AcDbLine
 62
7
  6
CONTINUOUS
 10
-15.3818296924
 20
55.6684466049
 11
-15.3818296924
 21
56.5671391286
  0
LINE
  5
320
100
AcDbEntity
  8
DRAFT
100
AcDbLine
 62
7
  6
CONTINUOUS
 10
-15.2818296924
 20
42.5404531595
 11
-15.2818296924
 21
41.7787096284
  0
LINE
  5
321
100
AcDbEntity
  8
DRAFT
100
AcDbLine
 62
7
  6
CONTINUOUS
 10
-14.9318296924
 20
23.8598321272
 11
-14.9318296924
 21
21.0360333804
  0
LINE
  5
322
100
AcDbEntity
  8
DRAFT
100
AcDbLine
 62
7
  6
CONTINUOUS
 10
-14.6431545578
 20
23.8345763255
 11
-14.6431545578
 21
21.0612891821
  0
LINE
  5
323
100
AcDbEntity
  8
DRAFT
100
AcDbLine
 62
7
  6
CONTINUOUS
 10
-16.36140232
 20
35.6336441813
 11
-16.3671382836
 21
29.9979327538
  0
LINE
  5
324
100
AcDbEntity
  8
RACCORDO
100
AcDbLine
 62
7
  6
CONTINUOUS
 10
-19.0818296924
 20
61.5113478164
 11
-19.0830971585
 21
45.3924548392
  0
LINE
  5
325
100
AcDbEntity
  8
RACCORDO
100
AcDbLine
 62
250
  6
CONTINUOUS
 10
-18.5949181666
 20
61.5113478164
 11
-18.5961652971
 21
45.3912154607
  0
LINE
  5
326
100
AcDbEntity
  8
RACCORDO
100
AcDbLine
 62
250
  6
CONTINUOUS
 10
-18.5961652971
 20
45.3912154607
 11
-18.6000634659
 21
44.3844188259
  0
LINE
  5
327
100
AcDbEntity
  8
RACCORDO
100
AcDbLine
 62
250
  6
CONTINUOUS
 10
-16.0878253692
 20
57.1944114042
 11
-16.0881071484
 21
57.0970908496
  0
LINE
  5
328
100
AcDbEntity
  8
RACCORDO
100
AcDbLine
 62
7
  6
CONTINUOUS
 10
-19.0824606288
 20
45.6937999545
 11
-19.0899210896
 21
43.898435433
  0
LINE
  5
329
100
AcDbEntity
  8
RACCORDO
100
AcDbLine
 62
250
  6
CONTINUOUS
 10
-18.6000634659
 20
44.3844188259
 11
-18.6067151571
 21
43.4124346189
  0
LINE
  5
32A
100
AcDbEntity
  8
RACCORDO
100
AcDbLine
 62
250
  6
CONTINUOUS
 10
-16.0881071484
 20
57.0970908496
 11
-16.0889095492
 21
56.9822975998
  0
LINE
  5
32B
100
AcDbEntity
  8
RACCORDO
100
AcDbLine
 62
250
  6
CONTINUOUS
 10
-18.3272013625
 20
9.6275664643
 11
-18.3278059728
 21
9.5430500383
  0
LINE
  5
32C
100
AcDbEntity
  8
RACCORDO
100
AcDbLine
 62
7
  6
CONTINUOUS
 10
-19.0874387208
 20
44.300354211
 11
-19.0980688199
 21
42.9418322219
  0
LINE
  5
32D
100
AcDbEntity
  8
IMPORT_IGES
100
AcDbLine
 62
7
  6
CONTINUOUS
 10
-15.8711687029
 20
35.663090456
 11
-15.8708296924
 21
35.6979327538
  0
LINE
  5
32E
100
AcDbEntity
  8
RACCORDO
100
AcDbLine
 62
250
  6
CONTINUOUS
 10
-18.6067151571
 20
43.4124346189
 11
-18.6164454663
 21
42.4677569604
  0
LINE
  5
32F
100
AcDbEntity
  8
RACCORDO
100
AcDbLine
 62
7
  6
CONTINUOUS
 10
-19.0971791466
 20
43.0296408762
 11
-19.1164830755
 21
41.5518453789
  0
LINE
  5
330
100
AcDbEntity
  8
RACCORDO
100
AcDbLine
 62
250
  6
CONTINUOUS
 10
-18.6164454663
 20
42.4677569604
 11
-18.6296477692
 21
41.5436485321
  0
LINE
  5
331
100
AcDbEntity
  8
RACCORDO
100
AcDbLine
 62
250
  6
CONTINUOUS
 10
-18.3258162685
 20
9.7229915381
 11
-18.3272013625
 21
9.6275664643
  0
LINE
  5
332
100
AcDbEntity
  8
RACCORDO
100
AcDbLine
 62
7
  6
CONTINUOUS
 10
-19.1116558735
 20
41.8600236977
 11
-19.1333924633
 21
40.6461237723
  0
LINE
  5
333
100
AcDbEntity
  8
RACCORDO
100
AcDbLine
 62
250
  6
CONTINUOUS
 10
-18.6296477692
 20
41.5436485321
 11
-18.6465913717
 21
40.6356155827
  0
LINE
  5
334
100
AcDbEntity
  8
RACCORDO
100
AcDbLine
 62
7
  6
CONTINUOUS
 10
-19.1306331183
 20
40.7796525282
 11
-19.1433864184
 21
40.1968273119
  0
LWPOLYLINE
  5
335
100
AcDbEntity
  8
RACCORDO
100
AcDbPolyline
 62
250
  6
CONTINUOUS
 90
3
 70
0
 10
-18.6465913717
 20
40.6356155827
 10
-18.6676834636
 20
39.7368987408
 10
-18.6799719934
 20
39.2888210251
  0
LWPOLYLINE
  5
336
100
AcDbEntity
  8
RACCORDO
100
AcDbPolyline
 62
250
  6
CONTINUOUS
 90
3
 70
0
 10
-18.3224162242
 20
9.8773819767
 10
-18.3237111733
 20
9.8251583507
 10
-18.3258162685
 20
9.7229915381
  0
LINE
  5
337
100
AcDbEntity
  8
IMPORT_IGES
100
AcDbLine
 62
7
  6
CONTINUOUS
 10
-15.8719986997
 20
35.6336441813
 11
-15.8711687029
 21
35.663090456
  0
LINE
  5
338
100
AcDbEntity
  8
DRAFT
100
AcDbLine
 62
7
  6
CONTINUOUS
 10
-16.3603623429
 20
41.6525598261
 11
-16.346834227
 21
41.4979327538
  0
LINE
  5
339
100
AcDbEntity
  8
DRAFT
100
AcDbLine
 62
7
  6
CONTINUOUS
 10
-14.3931545578
 20
23.8127041596
 11
-14.3931545578
 21
21.083161348
  0
LINE
  5
33A
100
AcDbEntity
  8
RACCORDO
100
AcDbLine
 62
7
  6
CONTINUOUS
 10
-14.0818296924
 20
34.6464635115
 11
-14.0818296924
 21
36.7494019961
  0
LINE
  5
33B
100
AcDbEntity
  8
RACCORDO
100
AcDbLine
 62
7
  6
CONTINUOUS
 10
-13.7818296924
 20
23.3010545772
 11
-13.7818296924
 21
21.5948109304
  0
LWPOLYLINE
  5
33C
100
AcDbEntity
  8
RACCORDO
100
AcDbPolyline
 62
250
  6
CONTINUOUS
 90
5
 70
0
 10
-16.0889095492
 20
57.2822861767
 10
-16.0885902898
 20
57.2797168945
 10
-16.0883212816
 20
57.2720590025
 10
-16.088107127
 20
57.2594435697
 10
-16.0879514897
 20
57.2420864746
  0
LINE
  5
33D
100
AcDbEntity
  8
RACCORDO
100
AcDbLine
 62
250
  6
CONTINUOUS
 10
-15.9345778876
 20
57.6562884896
 11
-15.9174635689
 21
57.5578973622
  0
LWPOLYLINE
  5
33E
100
AcDbEntity
  8
RACCORDO
100
AcDbPolyline
 62
250
  6
CONTINUOUS
 90
7
 70
0
 10
-15.9174635689
 20
57.5578973622
 10
-15.9077278044
 20
57.5001367594
 10
-15.9053923738
 20
57.485815957
 10
-15.903585171
 20
57.4744064283
 10
-15.9023370711
 20
57.466103091
 10
-15.9016693975
 20
57.4610477951
 10
-15.9015935639
 20
57.4593269382
  0
LWPOLYLINE
  5
33F
100
AcDbEntity
  8
IMPORT_IGES
100
AcDbPolyline
 62
7
  6
CONTINUOUS
 90
20
 70
0
 10
-15.9836597737
 20
36.3450971922
 10
-15.9735201998
 20
36.3140832358
 10
-15.9631305371
 20
36.2808245032
 10
-15.953196795
 20
36.2474252975
 10
-15.9437377444
 20
36.213888112
 10
-15.9347724392
 20
36.1802163961
 10
-15.9263199338
 20
36.1464136002
 10
-15.9183992825
 20
36.1124831749
 10
-15.9110295343
 20
36.0784285821
 10
-15.9042291069
 20
36.044254664
 10
-15.8980151912
 20
36.0099689434
 10
-15.8924047961
 20
35.975579279
 10
-15.8874136369
 20
35.9410944131
 10
-15.8830559053
 20
35.9065241275
 10
-15.8793454659
 20
35.8718783538
 10
-15.8762929339
 20
35.8371682483
 10
-15.8739082713
 20
35.8024059435
 10
-15.8722022046
 20
35.7676038717
 10
-15.8711687029
 20
35.7327750516
 10
-15.8708296924
 20
35.6979327538
  0
LWPOLYLINE
  5
340
100
AcDbEntity
  8
0
100
AcDbPolyline
 62
7
  6
CONTINUOUS
 90
10
 70
0
 43
0.3500000006
 10
-33.0120580215
 20
73.4787812805
 10
-32.9406291046
 20
73.3359279785
 10
-32.9406291046
 20
73.2644967957
 10
-33.0834869385
 20
73.1216434937
 10
-33.1549135895
 20
73.1216434937
 10
-33.2263425064
 20
73.1930656128
 10
-33.2263425064
 20
73.2644967957
 10
-33.1549135895
 20
73.4073591614
 10
-33.0834869385
 20
73.4787812805
 10
-33.0120580215
 20
73.4787812805
  0
LINE
  5
341
100
AcDbEntity
  8
RACCORDO
100
AcDbLine
 62
7
  6
CONTINUOUS
 10
-18.3224162242
 20
9.3775533142
 11
-17.0818296924
 21
9.3450674126
  0
LINE
  5
342
100
AcDbEntity
  8
RACCORDO
100
AcDbLine
 62
250
  6
CONTINUOUS
 10
-18.3224162242
 20
9.8773819767
 11
-17.0818296924
 21
9.8448960751
  0
LINE
  5
343
100
AcDbEntity
  8
RACCORDO
100
AcDbLine
 62
250
  6
CONTINUOUS
 10
-21.2646656953
 20
10.4935109376
 11
-21.6849938277
 21
10.5383899343
  0
LWPOLYLINE
  5
344
100
AcDbEntity
  8
RACCORDO
100
AcDbPolyline
 62
250
  6
CONTINUOUS
 90
5
 70
0
 10
-21.6849938277
 20
10.5383899343
 10
-21.7257176375
 20
10.5429299911
 10
-21.7385610811
 20
10.5444162866
 10
-21.7462779654
 20
10.5453662243
 10
-21.7488381688
 20
10.5457751692
  0
LWPOLYLINE
  5
345
100
AcDbEntity
  8
RACCORDO
100
AcDbPolyline
 62
250
  6
CONTINUOUS
 90
10
 70
0
 10
-18.4131677496
 20
9.8881122294
 10
-18.4031967001
 20
9.8861013077
 10
-18.3931954526
 20
9.8842947255
 10
-18.383164007
 20
9.8826924827
 10
-18.3730995839
 20
9.8812941415
 10
-18.3630049627
 20
9.8801001397
 10
-18.3528884822
 20
9.879111791
 10
-18.3427529221
 20
9.8783295332
 10
-18.3325955028
 20
9.8777529284
 10
-18.3224162242
 20
9.8773819767
  0
LINE
  5
346
100
AcDbEntity
  8
RACCORDO
100
AcDbLine
 62
7
  6
CONTINUOUS
 10
-21.3554172207
 20
10.0044125278
 11
-18.503919275
 21
9.3990138196
  0
LINE
  5
347
100
AcDbEntity
  8
RACCORDO
100
AcDbLine
 62
250
  6
CONTINUOUS
 10
-21.2646656953
 20
10.4935109376
 11
-18.4131677496
 21
9.8881122294
  0
LINE
  5
348
100
AcDbEntity
  8
DRAFT
100
AcDbLine
 62
7
  6
CONTINUOUS
 10
-17.0818296924
 20
20.6479327538
 11
-15.8818296924
 21
20.9030006278
  0
LINE
  5
349
100
AcDbEntity
  8
RACCORDO
100
AcDbLine
 62
7
  6
CONTINUOUS
 10
-14.2382518211
 20
21.0967135814
 11
-14.3931545578
 21
21.083161348
  0
LINE
  5
34A
100
AcDbEntity
  8
DRAFT
100
AcDbLine
 62
7
  6
CONTINUOUS
 10
-14.3931545578
 20
21.083161348
 11
-17.0818296924
 21
20.8479327538
  0
LINE
  5
34B
100
AcDbEntity
  8
RACCORDO
100
AcDbLine
 62
250
  6
CONTINUOUS
 10
-17.0582630804
 20
25.597292866
 11
-17.0818296924
 21
25.5977042228
  0
LINE
  5
34C
100
AcDbEntity
  8
RACCORDO
100
AcDbLine
 62
7
  6
CONTINUOUS
 10
-17.0818296924
 20
25.6983441105
 11
-17.0582630804
 21
25.6979327538
  0
LINE
  5
34D
100
AcDbEntity
  8
RACCORDO
100
AcDbLine
 62
250
  6
CONTINUOUS
 10
-17.0818296924
 20
26.1982679581
 11
-17.0582630804
 21
26.1978566014
  0
LINE
  5
34E
100
AcDbEntity
  8
RACCORDO
100
AcDbLine
 62
7
  6
CONTINUOUS
 10
-14.2382518211
 20
23.7991519262
 11
-14.3931545578
 21
23.8127041596
  0
LINE
  5
34F
100
AcDbEntity
  8
DRAFT
100
AcDbLine
 62
7
  6
CONTINUOUS
 10
-14.3931545578
 20
23.8127041596
 11
-17.0818296924
 21
24.0479327538
  0
LINE
  5
350
100
AcDbEntity
  8
RACCORDO
100
AcDbLine
 62
250
  6
CONTINUOUS
 10
-19.6967123
 20
25.4115909873
 11
-20.1164764651
 21
25.4564079415
  0
LWPOLYLINE
  5
351
100
AcDbEntity
  8
RACCORDO
100
AcDbPolyline
 62
250
  6
CONTINUOUS
 90
5
 70
0
 10
-20.1164764651
 20
25.4564079415
 10
-20.1573843368
 20
25.4609667997
 10
-20.1704036632
 20
25.4624721728
 10
-20.1782649089
 20
25.463438392
 10
-20.1808847735
 20
25.4638552189
  0
LINE
  5
352
100
AcDbEntity
  8
DRAFT
100
AcDbLine
 62
7
  6
CONTINUOUS
 10
-17.0818296924
 20
24.2479327538
 11
-15.8818296924
 21
23.9928648798
  0
LINE
  5
353
100
AcDbEntity
  8
RACCORDO
100
AcDbLine
 62
250
  6
CONTINUOUS
 10
-17.0818296924
 20
28.1975975495
 11
-17.0582630804
 21
28.1980089062
  0
LINE
  5
354
100
AcDbEntity
  8
RACCORDO
100
AcDbLine
 62
7
  6
CONTINUOUS
 10
-17.0818296924
 20
28.6975213971
 11
-17.0582630804
 21
28.6979327538
  0
LINE
  5
355
100
AcDbEntity
  8
RACCORDO
100
AcDbLine
 62
250
  6
CONTINUOUS
 10
-17.0818296924
 20
28.7968510496
 11
-17.0582630804
 21
28.7972624064
  0
LINE
  5
356
100
AcDbEntity
  8
DRAFT
100
AcDbLine
 62
7
  6
CONTINUOUS
 10
-16.0245288279
 20
29.9979327538
 11
-16.5368296924
 21
29.9979327538
  0
LINE
  5
357
100
AcDbEntity
  8
IMPORT_IGES
100
AcDbLine
 62
7
  6
CONTINUOUS
 10
-16.3708319348
 20
39.2906000097
 11
-16.0075297043
 21
39.0704706301
  0
LINE
  5
358
100
AcDbEntity
  8
RACCORDO
100
AcDbLine
 62
250
  6
CONTINUOUS
 10
-15.9480047664
 20
56.9224870681
 11
-15.736561642
 21
56.7073209814
  0
LINE
  5
359
100
AcDbEntity
  8
RACCORDO
100
AcDbLine
 62
7
  6
CONTINUOUS
 10
-15.7366475923
 20
57.1327598474
 11
-15.5252044679
 21
56.9175937607
  0
LWPOLYLINE
  5
35A
100
AcDbEntity
  8
RACCORDO
100
AcDbPolyline
 62
250
  6
CONTINUOUS
 90
10
 70
0
 10
-15.736561642
 20
56.7073209814
 10
-15.72567028
 20
56.6954476736
 10
-15.7158220595
 20
56.6826303478
 10
-15.7070169803
 20
56.6688690039
 10
-15.6991395143
 20
56.6541391026
 10
-15.6923051898
 20
56.6384651832
 10
-15.6868605908
 20
56.6219208643
 10
-15.6829212455
 20
56.6045306853
 10
-15.6803716259
 20
56.5862701067
 10
-15.6792117318
 20
56.5671391286
  0
LINE
  5
35B
100
AcDbEntity
  8
RACCORDO
100
AcDbLine
 62
7
  6
CONTINUOUS
 10
-16.8456729334
 20
37.140963646
 11
-17.0511950859
 21
37.0833077886
  0
LWPOLYLINE
  5
35C
100
AcDbEntity
  8
RACCORDO
100
AcDbPolyline
 62
7
  6
CONTINUOUS
 90
4
 70
0
 10
-17.0593139501
 20
37.0809676102
 10
-17.0732876851
 20
37.0770428263
 10
-17.0786503327
 20
37.0753914419
 10
-17.0818296924
 20
37.0742966451
  0
LINE
  5
35D
100
AcDbEntity
  8
RACCORDO
100
AcDbLine
 62
7
  6
CONTINUOUS
 10
-16.8283641026
 20
37.1457717088
 11
-16.8456729334
 21
37.140963646
  0
LINE
  5
35E
100
AcDbEntity
  8
RACCORDO
100
AcDbLine
 62
7
  6
CONTINUOUS
 10
-16.455132896
 20
38.7070992236
 11
-16.5638013077
 21
38.680805957
  0
LWPOLYLINE
  5
35F
100
AcDbEntity
  8
RACCORDO
100
AcDbPolyline
 62
7
  6
CONTINUOUS
 90
3
 70
0
 10
-16.5638013077
 20
38.680805957
 10
-16.783013939
 20
38.629118589
 10
-16.7918882016
 20
38.626987562
  0
LWPOLYLINE
  5
360
100
AcDbEntity
  8
RACCORDO
100
AcDbPolyline
 62
7
  6
CONTINUOUS
 90
6
 70
0
 10
-16.7918882016
 20
38.626987562
 10
-16.8081422271
 20
38.6232642318
 10
-16.8147482708
 20
38.6215346063
 10
-16.819924286
 20
38.6199912061
 10
-16.8238672469
 20
38.6189161469
 10
-16.8265700236
 20
38.6185466476
  0
LWPOLYLINE
  5
361
100
AcDbEntity
  8
RACCORDO
100
AcDbPolyline
 62
7
  6
CONTINUOUS
 90
7
 70
0
 10
-16.8154441095
 20
37.8632296995
 10
-17.0484001453
 20
37.8135135356
 10
-17.0570060562
 20
37.8116409786
 10
-17.0648893972
 20
37.8099729253
 10
-17.0719622911
 20
37.8085090088
 10
-17.0777631347
 20
37.8071385899
 10
-17.0818296924
 20
37.8060353081
  0
LINE
  5
362
100
AcDbEntity
  8
RACCORDO
100
AcDbLine
 62
7
  6
CONTINUOUS
 10
-16.4412741628
 20
39.3140442786
 11
-16.5524255161
 21
39.2922016098
  0
LWPOLYLINE
  5
363
100
AcDbEntity
  8
RACCORDO
100
AcDbPolyline
 62
7
  6
CONTINUOUS
 90
3
 70
0
 10
-16.5524255161
 20
39.2922016098
 10
-16.7767723977
 20
39.2495116788
 10
-16.7858919236
 20
39.2477404217
  0
LWPOLYLINE
  5
364
100
AcDbEntity
  8
RACCORDO
100
AcDbPolyline
 62
7
  6
CONTINUOUS
 90
6
 70
0
 10
-16.7858919236
 20
39.2477404217
 10
-16.8026371575
 20
39.2446729901
 10
-16.809475319
 20
39.2432013181
 10
-16.8148613533
 20
39.2418534429
 10
-16.8189851246
 20
39.2409271321
 10
-16.8218296924
 20
39.2406660316
  0
LINE
  5
365
100
AcDbEntity
  8
RACCORDO
100
AcDbLine
 62
7
  6
CONTINUOUS
 10
-15.8368296924
 20
33.9174598448
 11
-14.4950056036
 21
34.154059635
  0
LINE
  5
366
100
AcDbEntity
  8
RACCORDO
100
AcDbLine
 62
7
  6
CONTINUOUS
 10
-15.8367873496
 20
35.6336441813
 11
-16.1071531172
 21
35.6336441813
  0
LINE
  5
367
100
AcDbEntity
  8
DRAFT
100
AcDbLine
 62
7
  6
CONTINUOUS
 10
-16.1071531084
 20
35.6336441813
 11
-16.3718296924
 21
35.6336441813
  0
LINE
  5
368
100
AcDbEntity
  8
RACCORDO
100
AcDbLine
 62
7
  6
CONTINUOUS
 10
-17.0818296924
 20
38.6268611583
 11
-16.8265697599
 21
38.618546639
  0
LINE
  5
369
100
AcDbEntity
  8
RACCORDO
100
AcDbLine
 62
250
  6
CONTINUOUS
 10
-17.0818296924
 20
36.3482646315
 11
-16.8455676385
 21
36.3356611632
  0
LINE
  5
36A
100
AcDbEntity
  8
RACCORDO
100
AcDbLine
 62
250
  6
CONTINUOUS
 10
-17.0818296924
 20
37.1733562442
 11
-16.8283641026
 21
37.1457717088
  0
LINE
  5
36B
100
AcDbEntity
  8
RACCORDO
100
AcDbLine
 62
250
  6
CONTINUOUS
 10
-17.0818296924
 20
37.9058478986
 11
-16.8154441095
 21
37.8632296995
  0
LINE
  5
36C
100
AcDbEntity
  8
RACCORDO
100
AcDbLine
 62
7
  6
CONTINUOUS
 10
-15.9836597737
 20
37.5042957677
 11
-14.4950056036
 21
37.2418058726
  0
LINE
  5
36D
100
AcDbEntity
  8
0
100
AcDbLine
 62
7
  6
CONTINUOUS
 10
-16.346834227
 20
41.4979327538
 11
-16.146834227
 21
41.4979327538
  0
LINE
  5
36E
100
AcDbEntity
  8
RACCORDO
100
AcDbLine
 62
250
  6
CONTINUOUS
 10
-17.0818296924
 20
38.7275124649
 11
-16.455132896
 21
38.7070992236
  0
LWPOLYLINE
  5
36F
100
AcDbEntity
  8
DRAFT
100
AcDbPolyline
 62
7
  6
CONTINUOUS
 90
25
 70
0
 10
-15.6950056036
 20
42.3567361814
 10
-15.6664459182
 20
42.3553514818
 10
-15.6382704054
 20
42.3543210621
 10
-15.6105753654
 20
42.3536449223
 10
-15.583450919
 20
42.3533280854
 10
-15.55699499
 20
42.3533655283
 10
-15.5313117217
 20
42.3537421823
 10
-15.5064888274
 20
42.3544633083
 10
-15.4826095518
 20
42.3555236452
 10
-15.459764381
 20
42.3568923409
 10
-15.4380305562
 20
42.3585731342
 10
-15.4174778361
 20
42.3605622863
 10
-15.3981774253
 20
42.3628177282
 10
-15.3801940788
 20
42.3653412198
 10
-15.3635819479
 20
42.3681310013
 10
-15.3483896148
 20
42.3711397251
 10
-15.3346662746
 20
42.3743678952
 10
-15.3224545759
 20
42.3778150075
 10
-15.3117886503
 20
42.3814322027
 10
-15.3027039186
 20
42.3852188718
 10
-15.2952291947
 20
42.3891756238
 10
-15.2893855476
 20
42.3932554261
 10
-15.2851939279
 20
42.3974426011
 10
-15.282671801
 20
42.4017528263
 10
-15.2818296924
 20
42.4061861019
  0
LINE
  5
370
100
AcDbEntity
  8
RACCORDO
100
AcDbLine
 62
7
  6
CONTINUOUS
 10
-17.0818296924
 20
39.2593930201
 11
-16.8218299988
 21
39.2406660536
  0
LINE
  5
371
100
AcDbEntity
  8
RACCORDO
100
AcDbLine
 62
250
  6
CONTINUOUS
 10
-17.0818296924
 20
39.3601814942
 11
-16.4412741628
 21
39.3140442786
  0
LINE
  5
372
100
AcDbEntity
  8
DRAFT
100
AcDbLine
 62
7
  6
CONTINUOUS
 10
-17.0818296924
 20
42.6979327538
 11
-15.2818296924
 21
42.5404531595
  0
LINE
  5
373
100
AcDbEntity
  8
RACCORDO
100
AcDbLine
 62
7
  6
CONTINUOUS
 10
-17.0818296924
 20
39.8644384921
 11
-16.620359498
 21
39.814660433
  0
LINE
  5
374
100
AcDbEntity
  8
RACCORDO
100
AcDbLine
 62
7
  6
CONTINUOUS
 10
-17.0818296924
 20
40.4508038711
 11
-16.8218296924
 21
40.4147145918
  0
LINE
  5
375
100
AcDbEntity
  8
RACCORDO
100
AcDbLine
 62
250
  6
CONTINUOUS
 10
-17.0818296924
 20
40.6292888883
 11
-16.4701837545
 21
40.5440030423
  0
LINE
  5
376
100
AcDbEntity
  8
RACCORDO
100
AcDbLine
 62
250
  6
CONTINUOUS
 10
-18.5949181666
 20
46.4350754487
 11
-19.0818296924
 21
46.4350754487
  0
LWPOLYLINE
  5
377
100
AcDbEntity
  8
RACCORDO
100
AcDbPolyline
 62
250
  6
CONTINUOUS
 90
34
 70
0
 10
-15.9345778876
 20
57.6562884896
 10
-15.8845205919
 20
57.6678041258
 10
-15.8367199021
 20
57.6832183636
 10
-15.7911758183
 20
57.702531203
 10
-15.7476852418
 20
57.7259243722
 10
-15.7064512712
 20
57.753216143
 10
-15.6680832026
 20
57.7838613304
 10
-15.6325065565
 20
57.8179884539
 10
-15.5997958124
 20
57.8554689939
 10
-15.5707837047
 20
57.8953722066
 10
-15.5455792752
 20
57.9377450924
 10
-15.5240734821
 20
57.9825406509
 10
-15.5067719346
 20
58.0286871366
 10
-15.4937714392
 20
58.0761996876
 10
-15.4849751893
 20
58.1250631658
 10
-15.4805983748
 20
58.1741604122
 10
-15.480770774
 20
58.2235779546
 10
-15.4853626085
 20
58.2732292651
 10
-15.4941997339
 20
58.3217376016
 10
-15.5076727818
 20
58.3692832281
 10
-15.5253911204
 20
58.4156858806
 10
-15.54600871
 20
58.4590280247
 10
-15.5696623735
 20
58.4988291297
 10
-15.5962152879
 20
58.5355697262
 10
-15.6239109439
 20
58.5687738727
 10
-15.6521175643
 20
58.5979129924
 10
-15.6814669263
 20
58.623515662
 10
-15.7120978516
 20
58.6466916694
 10
-15.74363054
 20
58.6677157725
 10
-15.7764447917
 20
58.6863132135
 10
-15.8118188301
 20
58.702769507
 10
-15.8501787293
 20
58.7171798247
 10
-15.8910984152
 20
58.729448995
 10
-15.9345778876
 20
58.739577018
  0
LINE
  5
378
100
AcDbEntity
  8
RACCORDO
100
AcDbLine
 62
7
  6
CONTINUOUS
 10
-17.0818296924
 20
57.2512194651
 11
-15.9015935592
 21
57.459326939
  0
LINE
  5
379
100
AcDbEntity
  8
RACCORDO
100
AcDbLine
 62
250
  6
CONTINUOUS
 10
-17.0818296924
 20
57.4539970428
 11
-15.9345778876
 21
57.6562884896
  0
LINE
  5
37A
100
AcDbEntity
  8
RACCORDO
100
AcDbLine
 62
250
  6
CONTINUOUS
 10
-17.0818296924
 20
61.5509694325
 11
-18.5949181666
 21
61.5113478164
  0
LINE
  5
37B
100
AcDbEntity
  8
RACCORDO
100
AcDbLine
 62
7
  6
CONTINUOUS
 10
-17.0818296924
 20
62.050798095
 11
-18.5949181666
 21
62.0111764789
  0
LINE
  5
37C
100
AcDbEntity
  8
RACCORDO
100
AcDbLine
 62
7
  6
CONTINUOUS
 10
-15.5305207121
 20
55.5184523164
 11
-17.0818296924
 21
55.504914248
  0
LINE
  5
37D
100
AcDbEntity
  8
RACCORDO
100
AcDbLine
 62
7
  6
CONTINUOUS
 10
-17.0818296924
 20
57.904914248
 11
-16.3495551404
 21
57.9113047112
  0
LINE
  5
37E
100
AcDbEntity
  8
RACCORDO
100
AcDbLine
 62
250
  6
CONTINUOUS
 10
-17.0818296924
 20
58.1036876982
 11
-16.0659830388
 21
58.1125528577
  0
LINE
  5
37F
100
AcDbEntity
  8
RACCORDO
100
AcDbLine
 62
250
  6
CONTINUOUS
 10
-15.3818296924
 20
56.5671391286
 11
-15.6792117318
 21
56.5671391286
  0
LINE
  5
380
100
AcDbEntity
  8
RACCORDO
100
AcDbLine
 62
250
  6
CONTINUOUS
 10
-18.5949181666
 20
61.5113478164
 11
-19.0818296924
 21
61.5113478164
  0
LWPOLYLINE
  5
381
100
AcDbEntity
  8
0
100
AcDbPolyline
 62
7
  6
CONTINUOUS
 90
3
 70
0
 43
0.3500000006
 10
-34.5120562134
 20
73.6216436462
 10
-36.0120566711
 20
73.6216436462
 10
-35.3692009506
 20
75.9787820435
  0
LINE
  5
382
100
AcDbEntity
  8
RACCORDO
100
AcDbLine
 62
7
  6
CONTINUOUS
 10
-17.0818296924
 20
56.0870564058
 11
-15.6792117318
 21
56.0831527152
  0
LINE
  5
383
100
AcDbEntity
  8
RACCORDO
100
AcDbLine
 62
250
  6
CONTINUOUS
 10
-15.5305207121
 20
55.8018429592
 11
-17.0818296924
 21
55.8096808244
  0
LINE
  5
384
100
AcDbEntity
  8
RACCORDO
100
AcDbLine
 62
250
  6
CONTINUOUS
 10
-17.0818296924
 20
56.9909626826
 11
-16.0889095492
 21
56.9822975998
  0
LINE
  5
385
100
AcDbEntity
  8
RACCORDO
100
AcDbLine
 62
7
  6
CONTINUOUS
 10
-16.8671257306
 20
57.2890775665
 11
-16.0889095492
 21
57.2822861767
  0
LINE
  5
386
100
AcDbEntity
  8
RACCORDO
100
AcDbLine
 62
250
  6
CONTINUOUS
 10
-16.0659830388
 20
58.2833126499
 11
-17.0818296924
 21
58.2921778094
  0
LINE
  5
387
100
AcDbEntity
  8
RACCORDO
100
AcDbLine
 62
7
  6
CONTINUOUS
 10
-16.3495551404
 20
58.4845607964
 11
-17.0818296924
 21
58.4909512596
  0
LWPOLYLINE
  5
388
100
AcDbEntity
  8
RACCORDO
100
AcDbPolyline
 62
250
  6
CONTINUOUS
 90
13
 70
0
 10
-15.5305207121
 20
55.8018429592
 10
-15.5110617543
 20
55.8010098872
 10
-15.4919542099
 20
55.798721509
 10
-15.4735213969
 20
55.7950165462
 10
-15.4560752162
 20
55.7899576904
 10
-15.4399108739
 20
55.7836305422
 10
-15.4253018861
 20
55.7761421631
 10
-15.412495451
 20
55.7676192636
 10
-15.4017082656
 20
55.7582060593
 10
-15.3931228596
 20
55.7480618306
 10
-15.3868845062
 20
55.7373582278
 10
-15.3830987644
 20
55.7262763659
 10
-15.3818296924
 20
55.7150037607
  0
LWPOLYLINE
  5
389
100
AcDbEntity
  8
RACCORDO
100
AcDbPolyline
 62
250
  6
CONTINUOUS
 90
13
 70
0
 10
-16.0889095492
 20
56.9822975998
 10
-16.0746641676
 20
56.9815089369
 10
-16.0610256057
 20
56.9799771865
 10
-16.0479938636
 20
56.9777023485
 10
-16.0356674062
 20
56.974670269
 10
-16.0239477686
 20
56.9708951019
 10
-16.0125395556
 20
56.9664193097
 10
-16.001419659
 20
56.9613477609
 10
-15.990611187
 20
56.955575587
 10
-15.9798880688
 20
56.9488306451
 10
-15.9691749475
 20
56.9410222208
 10
-15.9585471801
 20
56.9322410285
 10
-15.9480047664
 20
56.9224870681
  0
LINE
  5
38A
100
AcDbEntity
  8
RACCORDO
100
AcDbLine
 62
250
  6
CONTINUOUS
 10
-15.9345778876
 20
58.739577018
 11
-17.0818296924
 21
58.9418684648
  0
LINE
  5
38B
100
AcDbEntity
  8
RACCORDO
100
AcDbLine
 62
7
  6
CONTINUOUS
 10
-15.9015935592
 20
58.9365385686
 11
-17.0818296924
 21
59.1446460425
  0
LWPOLYLINE
  5
38C
100
AcDbEntity
  8
0
100
AcDbPolyline
 62
7
  6
CONTINUOUS
 90
13
 70
0
 43
0.3500000006
 10
-31.2959671326
 20
83.8769354553
 10
-31.5816805344
 20
84.0912199402
 10
-31.5816805344
 20
84.7340733948
 10
-31.2959671326
 20
85.1626514282
 10
-30.6531091461
 20
85.1626514282
 10
-30.3673957443
 20
84.7340733948
 10
-30.3673957443
 20
84.0912199402
 10
-30.6531091461
 20
83.8769354553
 10
-30.2245379105
 20
83.4483664856
 10
-30.2245379105
 20
82.5912194824
 10
-30.6531091461
 20
82.1626505127
 10
-31.2959671326
 20
82.1626505127
 10
-31.7245383682
 20
82.5912194824
  0
ARC
  5
38D
100
AcDbEntity
  8
0
100
AcDbCircle
 62
7
  6
CONTINUOUS
 10
0.9048661583
 20
23.5229327538
 40
0.3
100
AcDbArc
 50
22.5000000003
 51
90.0
  0
ARC
  5
38E
100
AcDbEntity
  8
0
100
AcDbCircle
 62
7
  6
CONTINUOUS
 10
-1.7692299477
 20
23.5229327538
 40
0.3
100
AcDbArc
 50
90.0
 51
157.4999999999
  0
ARC
  5
38F
100
AcDbEntity
  8
0
100
AcDbCircle
 62
7
  6
CONTINUOUS
 10
-3.736744369
 20
18.7729327538
 40
0.3
100
AcDbArc
 50
157.5000000029
 51
270.0
  0
ARC
  5
390
100
AcDbEntity
  8
0
100
AcDbCircle
 62
7
  6
CONTINUOUS
 10
2.8723805795
 20
18.7729327538
 40
0.3
100
AcDbArc
 50
270.0
 51
22.5000000003
  0
ARC
  5
391
100
AcDbEntity
  8
0
100
AcDbCircle
 62
7
  6
CONTINUOUS
 10
-3.4561665342
 20
19.9729327538
 40
0.1
100
AcDbArc
 50
157.4999999999
 51
270.0
  0
ARC
  5
392
100
AcDbEntity
  8
0
100
AcDbCircle
 62
7
  6
CONTINUOUS
 10
-3.0232096541
 20
19.9729327538
 40
0.1
100
AcDbArc
 50
270.0
 51
337.4999999996
  0
ARC
  5
393
100
AcDbEntity
  8
0
100
AcDbCircle
 62
7
  6
CONTINUOUS
 10
-3.8703800966
 20
18.9729327538
 40
0.1
100
AcDbArc
 50
90.0
 51
157.5000000029
  0
ARC
  5
394
100
AcDbEntity
  8
0
100
AcDbCircle
 62
7
  6
CONTINUOUS
 10
-1.1778362588
 20
17.5729327538
 40
0.1
100
AcDbArc
 50
90.0
 51
180.0
  0
ARC
  5
395
100
AcDbEntity
  8
0
100
AcDbCircle
 62
7
  6
CONTINUOUS
 10
-1.1778362588
 20
17.1729327538
 40
0.1
100
AcDbArc
 50
180.0
 51
270.0
  0
ARC
  5
396
100
AcDbEntity
  8
0
100
AcDbCircle
 62
7
  6
CONTINUOUS
 10
0.0221637412
 20
17.1729327538
 40
0.1
100
AcDbArc
 50
270.0
 51
360.0
  0
ARC
  5
397
100
AcDbEntity
  8
0
100
AcDbCircle
 62
7
  6
CONTINUOUS
 10
0.0221637412
 20
17.5729327538
 40
0.1
100
AcDbArc
 50
0.0
 51
90.0
  0
ARC
  5
398
100
AcDbEntity
  8
RACCORDO
100
AcDbCircle
 62
7
  6
CONTINUOUS
 10
-18.2962392759
 20
10.3772106392
 40
1.0
100
AcDbArc
 50
258.0135711831
 51
268.5
  0
ARC
  5
399
100
AcDbEntity
  8
RACCORDO
100
AcDbCircle
 62
7
  6
CONTINUOUS
 10
-16.0318296924
 20
58.1979327538
 40
0.75
100
AcDbArc
 50
280.0
 51
80.0
  0
ARC
  5
39A
100
AcDbEntity
  8
RACCORDO
100
AcDbCircle
 62
7
  6
CONTINUOUS
 10
-14.2818296924
 20
23.3010545772
 40
0.5
100
AcDbArc
 50
0.0
 51
85.0
  0
ARC
  5
39B
100
AcDbEntity
  8
RACCORDO
100
AcDbCircle
 62
7
  6
CONTINUOUS
 10
-14.2818296924
 20
21.5948109304
 40
0.5
100
AcDbArc
 50
275.0
 51
360.0
  0
ARC
  5
39C
100
AcDbEntity
  8
RACCORDO
100
AcDbCircle
 62
7
  6
CONTINUOUS
 10
-21.2515772211
 20
10.4935109376
 40
0.5
100
AcDbArc
 50
174.0
 51
258.0135711831
  0
ARC
  5
39D
100
AcDbEntity
  8
RACCORDO
100
AcDbCircle
 62
7
  6
CONTINUOUS
 10
-18.5818296924
 20
61.5113478164
 40
0.5
100
AcDbArc
 50
91.5
 51
180.0
  0
ARC
  5
39E
100
AcDbEntity
  8
RACCORDO
100
AcDbCircle
 62
7
  6
CONTINUOUS
 10
-16.0932728169
 20
56.7823052152
 40
0.5
100
AcDbArc
 50
44.5
 51
89.5
  0
ARC
  5
39F
100
AcDbEntity
  8
RACCORDO
100
AcDbCircle
 62
7
  6
CONTINUOUS
 10
-15.8818296924
 20
56.5671391286
 40
0.5
100
AcDbArc
 50
0.0
 51
44.5
  0
ARC
  5
3A0
100
AcDbEntity
  8
RACCORDO
100
AcDbCircle
 62
7
  6
CONTINUOUS
 10
-14.5818296924
 20
36.7494019961
 40
0.5
100
AcDbArc
 50
0.0
 51
80.0
  0
ARC
  5
3A1
100
AcDbEntity
  8
RACCORDO
100
AcDbCircle
 62
7
  6
CONTINUOUS
 10
-14.5818296924
 20
34.6464635115
 40
0.5
100
AcDbArc
 50
280.0
 51
360.0
  0
ARC
  5
3A2
100
AcDbEntity
  8
RACCORDO
100
AcDbCircle
 62
7
  6
CONTINUOUS
 10
-15.5318296924
 20
55.6684466049
 40
0.15
100
AcDbArc
 50
270.5
 51
360.0
  0
ARC
  5
3A3
100
AcDbEntity
  8
RACCORDO
100
AcDbCircle
 62
7
  6
CONTINUOUS
 10
-16.0336597737
 20
39.0278417728
 40
0.05
100
AcDbArc
 50
0.0
 51
58.4930902702
  0
ELLIPSE
  5
3A4
100
AcDbEntity
  8
RACCORDO
100
AcDbEllipse
 62
7
  6
CONTINUOUS
 10
10.1205120502
 20
9.8452388089
 30
0.0
 11
-0.35379574
 21
0.35379574
 31
0.0
 40
0.999315002
 41
-3.9266482006
 42
-2.3565371065
  0
ELLIPSE
  5
3A5
100
AcDbEntity
  8
RACCORDO
100
AcDbEllipse
 62
7
  6
CONTINUOUS
 10
10.1205120502
 20
61.5506266987
 30
0.0
 11
0.35379574
 21
0.35379574
 31
0.0
 40
0.999315002
 41
-0.7850555471
 42
0.7850555471
  0
ELLIPSE
  5
3A6
100
AcDbEntity
  8
RACCORDO
100
AcDbEllipse
 62
7
  6
CONTINUOUS
 10
-10.9848758397
 20
61.5506266987
 30
0.0
 11
-0.35379574
 21
0.35379574
 31
0.0
 40
0.999315002
 41
-0.7850555471
 42
0.7850555471
  0
ELLIPSE
  5
3A7
100
AcDbEntity
  8
RACCORDO
100
AcDbEllipse
 62
7
  6
CONTINUOUS
 10
-10.9848758397
 20
9.8452388089
 30
0.0
 11
0.35379574
 21
0.35379574
 31
0.0
 40
0.999315002
 41
-3.9266482006
 42
-2.3565371065
  0
ELLIPSE
  5
3A8
100
AcDbEntity
  8
0
100
AcDbEllipse
 62
7
  6
CONTINUOUS
 10
0.2282824932
 20
30.8979327538
 30
0.0
 11
63.2804152257
 21
0.0
 31
0.0
 40
0.1761108909
 41
1.8251610131
 42
1.8478741742
  0
ELLIPSE
  5
3A9
100
AcDbEntity
  8
RACCORDO
100
AcDbEllipse
 62
7
  6
CONTINUOUS
 10
-15.6818296924
 20
56.5056804371
 30
0.0
 11
-0.0064728562
 21
0.4225035608
 31
0.0
 40
0.7098878919
 41
-3.154443869
 42
-2.6345261014
  0
ELLIPSE
  5
3AA
100
AcDbEntity
  8
RACCORDO
100
AcDbEllipse
 62
7
  6
CONTINUOUS
 10
-16.3513158126
 20
58.2845685458
 30
0.0
 11
0.2853275264
 21
-0.0024688431
 31
0.0
 40
0.7009226047
 41
0.0060647732
 42
1.5706904684
  0
ELLIPSE
  5
3AB
100
AcDbEntity
  8
RACCORDO
100
AcDbEllipse
 62
7
  6
CONTINUOUS
 10
-16.3513158126
 20
58.1112969618
 30
0.0
 11
0.2853275264
 21
0.0024688431
 31
0.0
 40
0.7009226047
 41
-1.5706904684
 42
-0.0060647732
  0
ELLIPSE
  5
3AC
100
AcDbEntity
  8
0
100
AcDbEllipse
 62
7
  6
CONTINUOUS
 10
-42.3218495644
 20
30.8979327538
 30
0.0
 11
79.4445384914
 21
0.0
 31
0.0
 40
0.153091273
 41
1.2290184413
 42
1.2474869946
  0
ENDSEC
  0
SECTION
  2
OBJECTS
  0
DICTIONARY
  5
C
100
AcDbDictionary
280
0
281
1
  3
ACAD_GROUP
350
D
  3
ACAD_MLINESTYLE
350
17
  3
ACAD_LAYOUT
350
1A
  3
ACAD_PLOTSETTINGS
350
19
  3
ACAD_PLOTSTYLENAME
350
E
  0
DICTIONARY
  5
D
102
{ACAD_REACTORS
330
C
102
}
100
AcDbDictionary
280
0
281
1
  0
ACDBDICTIONARYWDFLT
  5
E
102
{ACAD_REACTORS
330
C
102
}
100
AcDbDictionary
281
1
  3
Normal
350
F
100
AcDbDictionaryWithDefault
340
F
  0
DICTIONARY
  5
17
102
{ACAD_REACTORS
330
C
102
}
100
AcDbDictionary
280
0
281
1
  3
Standard
350
18
  0
DICTIONARY
  5
19
102
{ACAD_REACTORS
330
C
102
}
100
AcDbDictionary
281
1
  0
DICTIONARY
  5
1A
102
{ACAD_REACTORS
330
C
102
}
100
AcDbDictionary
281
1
  3
Model
350
3AD
  3
Layout1
350
3AE
  0
ACDBPLACEHOLDER
  5
F
102
{ACAD_REACTORS
330
E
102
}
  0
MLINESTYLE
  5
18
102
{ACAD_REACTORS
330
17
102
}
100
AcDbMlineStyle
  2
STANDARD
 70
0
  3

 62
256
 51
90.0
 52
90.0
 71
2
 49
0.5
 62
256
  6
BYLAYER
 49
-0.5
 62
256
  6
BYLAYER
  0
LAYOUT
  5
3AD
102
{ACAD_REACTORS
330
1A
102
}
100
AcDbPlotSettings
  1

  2
none_device
  4
ISO_A4_(297.00_x_210.00_MM)
  6

 40
0.0
 41
0.0
 42
0.0
 43
0.0
 44
297.0
 45
210.0
 46
0.0
 47
0.0
 48
0.0
 49
0.0
140
0.0
141
0.0
142
1.0
143
1.0
 70
1024
 72
1
 73
0
 74
0
  7

 75
0
147
1.0
148
0.0
149
0.0
100
AcDbLayout
  1
Model
 70
0
 71
0
 10
0.0
 20
0.0
 11
297.0
 21
210.0
 12
0.0
 22
0.0
 32
0.0
 14
0.0
 24
0.0
 34
0.0
 15
0.0
 25
0.0
 35
0.0
146
0.0
 13
0.0
 23
0.0
 33
0.0
 16
1.0
 26
0.0
 36
0.0
 17
0.0
 27
1.0
 37
0.0
 76
0
330
21B
345
0
346
0
  0
LAYOUT
  5
3AE
102
{ACAD_REACTORS
330
1A
102
}
100
AcDbPlotSettings
  1

  2
none_device
  4
ISO_A4_(297.00_x_210.00_MM)
  6

 40
0.0
 41
0.0
 42
0.0
 43
0.0
 44
297.0
 45
210.0
 46
0.0
 47
0.0
 48
0.0
 49
0.0
140
0.0
141
0.0
142
1.0
143
1.0
 70
0
 72
1
 73
0
 74
0
  7

 75
0
147
1.0
148
0.0
149
0.0
100
AcDbLayout
  1
Layout1
 70
0
 71
1
 10
0.0
 20
0.0
 11
297.0
 21
210.0
 12
0.0
 22
0.0
 32
0.0
 14
0.0
 24
0.0
 34
0.0
 15
0.0
 25
0.0
 35
0.0
146
0.0
 13
0.0
 23
0.0
 33
0.0
 16
1.0
 26
0.0
 36
0.0
 17
0.0
 27
1.0
 37
0.0
 76
0
330
21C
345
0
346
0
  0
ENDSEC
  0
EOF
