  0
SECTION
  2
HEADER
  9
$ACADVER
  1
AC1024
  9
$DWGCODEPAGE
  3
ANSI_1252
  9
$EXTMAX
 10
297.0
 20
210.0
 30
0.0
  9
$EXTMIN
 10
0.0
 20
0.0
 30
0.0
  9
$LIMMIN
 10
0.0
 20
0.0
  9
$LIMMAX
 10
297.0
 20
210.0
  9
$VIEWCTR
 10
148.5
 20
105.0
  9
$VIEWSIZE
 40
210.0
  9
$CLAYER
  8
0
  9
$LTSCALE
 40
16.335
  9
$CELTYPE
  6
BYLAYER
  9
$DIMSCALE
 40
1.0
  9
$DIMASZ
 40
3.0
  9
$DIMEXO
 40
0.5
  9
$DIMDLI
 40
11.286
  9
$DIMEXE
 40
1.5
  9
$DIMCEN
 40
2.673
  9
$DIMLFAC
 40
1.0
  9
$DIMBLK
  1
_FILLED
  9
$DIMALT
 70
0
  9
$DIMALTF
 40
0.0393700787
  9
$DIMTXT
 40
3.0
  9
$DIMTOL
 70
1
  9
$DIMLIM
 70
0
  9
$DIMTFAC
 40
1.0
  9
$DIMTP
 40
0.01
  9
$DIMTM
 40
0.01
  9
$DIMGAP
 40
0.625
  9
$DIMDSEP
 70
44
  9
$AUNITS
 70
0
  9
$PDMODE
 70
3
  9
$PDSIZE
 40
3.0
  9
$HANDSEED
  5
467
  9
$TILEMODE
 70
1
  9
$MEASUREMENT
 70
1
  9
$INSUNITS
 70
4
  0
ENDSEC
  0
SECTION
  2
CLASSES
  0
CLASS
  1
ACDBDICTIONARYWDFLT
  2
AcDbDictionaryWithDefault
  3
AutoCAD 2000
 90
0
 91
1
280
0
281
0
  0
CLASS
  1
ACDBPLACEHOLDER
  2
AcDbPlaceHolder
  3
AutoCAD 2000
 90
0
 91
1
280
0
281
0
  0
CLASS
  1
LAYOUT
  2
AcDbLayout
  3
AutoCAD 2000
 90
0
 91
0
280
0
281
0
  0
ENDSEC
  0
SECTION
  2
TABLES
  0
TABLE
  2
VPORT
  5
8
100
AcDbSymbolTable
 70
2
  0
VPORT
  5
1F4
100
AcDbSymbolTableRecord
100
AcDbViewportTableRecord
  2
*ACTIVE
 70
0
 10
0.0
 20
0.0
 11
1.0
 21
1.0
 12
148.5
 22
105.0
 13
0.0
 23
0.0
 14
1.0
 24
1.0
 15
0.0
 25
0.0
 16
0.0
 26
0.0
 36
1.0
 17
0.0
 27
0.0
 37
0.0
 40
210.0
 41
1.4142857143
 42
50.0
 43
0.0
 44
0.0
 50
0.0
 51
0.0
 71
0
 72
100
 73
1
 74
1
 75
0
 76
0
 77
0
 78
0
  0
ENDTAB
  0
TABLE
  2
LTYPE
  5
5
100
AcDbSymbolTable
 70
6
  0
LTYPE
  5
14
100
AcDbSymbolTableRecord
100
AcDbLinetypeTableRecord
  2
BYBLOCK
 70
0
  3

 72
65
 73
0
 40
0.0
  0
LTYPE
  5
15
100
AcDbSymbolTableRecord
100
AcDbLinetypeTableRecord
  2
BYLAYER
 70
0
  3

 72
65
 73
0
 40
0.0
  0
LTYPE
  5
16
100
AcDbSymbolTableRecord
100
AcDbLinetypeTableRecord
  2
CONTINUOUS
 70
64
  3
Solid line
 72
65
 73
0
 40
0.0
  0
LTYPE
  5
1F5
100
AcDbSymbolTableRecord
100
AcDbLinetypeTableRecord
  2
CENTER
 70
64
  3
____ _ ____ _ ____ _ ____ _ ____ _ ____ _ ____
 72
65
 73
4
 40
0.6
 49
0.375
 74
0
 49
-0.075
 74
0
 49
0.075
 74
0
 49
-0.075
 74
0
  0
LTYPE
  5
1F6
100
AcDbSymbolTableRecord
100
AcDbLinetypeTableRecord
  2
HIDDEN
 70
64
  3
- - - - - - - - - - - - - - - - - - - -
 72
65
 73
2
 40
0.2
 49
0.1
 74
0
 49
-0.1
 74
0
  0
LTYPE
  5
1F7
100
AcDbSymbolTableRecord
100
AcDbLinetypeTableRecord
  2
PHANTOM
 70
64
  3
_____ _ _ _____ _ _ _____ _ _ _____
 72
65
 73
6
 40
0.8
 49
0.45
 74
0
 49
-0.05
 74
0
 49
0.1
 74
0
 49
-0.05
 74
0
 49
0.1
 74
0
 49
-0.05
 74
0
  0
LTYPE
  5
1F8
100
AcDbSymbolTableRecord
100
AcDbLinetypeTableRecord
  2
DOT
 70
64
  3
. . . . . . . . . . . . . . . . . . . .
 72
65
 73
2
 40
0.2
 49
0.1
 74
0
 49
-0.1
 74
0
  0
LTYPE
  5
1F9
100
AcDbSymbolTableRecord
100
AcDbLinetypeTableRecord
  2
DASHED
 70
64
  3
- - - - - - - - - - - - - - - - - - - -
 72
65
 73
2
 40
0.2
 49
0.1
 74
0
 49
-0.1
 74
0
  0
ENDTAB
  0
TABLE
  2
LAYER
  5
2
100
AcDbSymbolTable
 70
36
  0
LAYER
  5
10
100
AcDbSymbolTableRecord
100
AcDbLayerTableRecord
  2
0
 70
0
 62
7
  6
CONTINUOUS
370
-3
390
F
  0
LAYER
  5
1FA
100
AcDbSymbolTableRecord
100
AcDbLayerTableRecord
  2
DEFAULT_1
 70
0
 62
7
  6
CENTER
370
-3
390
F
  0
LAYER
  5
1FB
100
AcDbSymbolTableRecord
100
AcDbLayerTableRecord
  2
DEFAULT_2
 70
0
 62
7
  6
HIDDEN
370
-3
390
F
  0
LAYER
  5
1FC
100
AcDbSymbolTableRecord
100
AcDbLayerTableRecord
  2
DEFAULT_3
 70
0
 62
7
  6
PHANTOM
370
-3
390
F
  0
LAYER
  5
1FD
100
AcDbSymbolTableRecord
100
AcDbLayerTableRecord
  2
9
 70
0
 62
7
  6
CONTINUOUS
370
-3
390
F
  0
LAYER
  5
1FE
100
AcDbSymbolTableRecord
100
AcDbLayerTableRecord
  2
ASSI
 70
0
 62
7
  6
CONTINUOUS
370
-3
390
F
  0
LAYER
  5
1FF
100
AcDbSymbolTableRecord
100
AcDbLayerTableRecord
  2
COORDINATE
 70
0
 62
7
  6
CONTINUOUS
370
-3
390
F
  0
LAYER
  5
200
100
AcDbSymbolTableRecord
100
AcDbLayerTableRecord
  2
COPY_PUBLISH
 70
0
 62
7
  6
CONTINUOUS
370
-3
390
F
  0
LAYER
  5
201
100
AcDbSymbolTableRecord
100
AcDbLayerTableRecord
  2
COSMETICI
 70
0
 62
7
  6
CONTINUOUS
370
-3
390
F
  0
LAYER
  5
202
100
AcDbSymbolTableRecord
100
AcDbLayerTableRecord
  2
CURVE
 70
0
 62
7
  6
CONTINUOUS
370
-3
390
F
  0
LAYER
  5
203
100
AcDbSymbolTableRecord
100
AcDbLayerTableRecord
  2
DRAFT
 70
0
 62
7
  6
CONTINUOUS
370
-3
390
F
  0
LAYER
  5
204
100
AcDbSymbolTableRecord
100
AcDbLayerTableRecord
  2
IMPORT_IGES
 70
0
 62
7
  6
CONTINUOUS
370
-3
390
F
  0
LAYER
  5
205
100
AcDbSymbolTableRecord
100
AcDbLayerTableRecord
  2
INTF_10
 70
0
 62
7
  6
CONTINUOUS
370
-3
390
F
  0
LAYER
  5
206
100
AcDbSymbolTableRecord
100
AcDbLayerTableRecord
  2
INTF_2
 70
0
 62
7
  6
CONTINUOUS
370
-3
390
F
  0
LAYER
  5
207
100
AcDbSymbolTableRecord
100
AcDbLayerTableRecord
  2
INTF_3
 70
0
 62
7
  6
CONTINUOUS
370
-3
390
F
  0
LAYER
  5
208
100
AcDbSymbolTableRecord
100
AcDbLayerTableRecord
  2
INTF_4
 70
0
 62
7
  6
CONTINUOUS
370
-3
390
F
  0
LAYER
  5
209
100
AcDbSymbolTableRecord
100
AcDbLayerTableRecord
  2
INTF_5
 70
0
 62
7
  6
CONTINUOUS
370
-3
390
F
  0
LAYER
  5
20A
100
AcDbSymbolTableRecord
100
AcDbLayerTableRecord
  2
INTF_6
 70
0
 62
7
  6
CONTINUOUS
370
-3
390
F
  0
LAYER
  5
20B
100
AcDbSymbolTableRecord
100
AcDbLayerTableRecord
  2
INTF_7
 70
0
 62
7
  6
CONTINUOUS
370
-3
390
F
  0
LAYER
  5
20C
100
AcDbSymbolTableRecord
100
AcDbLayerTableRecord
  2
INTF_9
 70
0
 62
7
  6
CONTINUOUS
370
-3
390
F
  0
LAYER
  5
20D
100
AcDbSymbolTableRecord
100
AcDbLayerTableRecord
  2
INTF_BLANK
 70
0
 62
7
  6
CONTINUOUS
370
-3
390
F
  0
LAYER
  5
20E
100
AcDbSymbolTableRecord
100
AcDbLayerTableRecord
  2
INTF_RED
 70
0
 62
7
  6
CONTINUOUS
370
-3
390
F
  0
LAYER
  5
20F
100
AcDbSymbolTableRecord
100
AcDbLayerTableRecord
  2
NOTE
 70
0
 62
7
  6
CONTINUOUS
370
-3
390
F
  0
LAYER
  5
210
100
AcDbSymbolTableRecord
100
AcDbLayerTableRecord
  2
PIANI
 70
0
 62
7
  6
CONTINUOUS
370
-3
390
F
  0
LAYER
  5
211
100
AcDbSymbolTableRecord
100
AcDbLayerTableRecord
  2
PUNTI
 70
0
 62
7
  6
CONTINUOUS
370
-3
390
F
  0
LAYER
  5
212
100
AcDbSymbolTableRecord
100
AcDbLayerTableRecord
  2
RACCORDO
 70
0
 62
7
  6
CONTINUOUS
370
-3
390
F
  0
LAYER
  5
213
100
AcDbSymbolTableRecord
100
AcDbLayerTableRecord
  2
RGB____0____0____0__
 70
0
 62
7
  6
CONTINUOUS
370
-3
390
F
  0
LAYER
  5
214
100
AcDbSymbolTableRecord
100
AcDbLayerTableRecord
  2
SIMBOLI
 70
0
 62
7
  6
CONTINUOUS
370
-3
390
F
  0
LAYER
  5
215
100
AcDbSymbolTableRecord
100
AcDbLayerTableRecord
  2
SMUSSO
 70
0
 62
7
  6
CONTINUOUS
370
-3
390
F
  0
LAYER
  5
216
100
AcDbSymbolTableRecord
100
AcDbLayerTableRecord
  2
SUPERFICI
 70
0
 62
7
  6
CONTINUOUS
370
-3
390
F
  0
LAYER
  5
217
100
AcDbSymbolTableRecord
100
AcDbLayerTableRecord
  2
TRASH
 70
0
 62
7
  6
CONTINUOUS
370
-3
390
F
  0
ENDTAB
  0
TABLE
  2
STYLE
  5
3
100
AcDbSymbolTable
 70
1
  0
STYLE
  5
11
100
AcDbSymbolTableRecord
100
AcDbTextStyleTableRecord
  2
STANDARD
 70
0
 40
0.0
 41
0.8
 50
0.0
 71
0
 42
0.2
  3
txt
  4

  0
STYLE
  5
218
100
AcDbSymbolTableRecord
100
AcDbTextStyleTableRecord
  2
TEXTSTYLE_1
 70
0
 40
0.0
 41
0.8
 50
0.0
 71
0
 42
0.2
  3
gdt
  4

  0
ENDTAB
  0
TABLE
  2
VIEW
  5
6
100
AcDbSymbolTable
 70
0
  0
ENDTAB
  0
TABLE
  2
UCS
  5
7
100
AcDbSymbolTable
 70
0
  0
ENDTAB
  0
TABLE
  2
APPID
  5
9
100
AcDbSymbolTable
 70
1
  0
APPID
  5
219
100
AcDbSymbolTableRecord
100
AcDbRegAppTableRecord
  2
ACAD
 70
0
  0
ENDTAB
  0
TABLE
  2
BLOCK_RECORD
  5
1
100
AcDbSymbolTable
 70
0
  0
BLOCK_RECORD
  5
21A
100
AcDbSymbolTableRecord
100
AcDbBlockTableRecord
  2
*Model_Space
  0
BLOCK_RECORD
  5
21B
100
AcDbSymbolTableRecord
100
AcDbBlockTableRecord
  2
*Paper_Space
  0
BLOCK_RECORD
  5
21C
100
AcDbSymbolTableRecord
100
AcDbBlockTableRecord
  2
_FILLED
  0
BLOCK_RECORD
  5
21D
100
AcDbSymbolTableRecord
100
AcDbBlockTableRecord
  2
*D0
  0
BLOCK_RECORD
  5
21E
100
AcDbSymbolTableRecord
100
AcDbBlockTableRecord
  2
*D1
  0
BLOCK_RECORD
  5
21F
100
AcDbSymbolTableRecord
100
AcDbBlockTableRecord
  2
*D2
  0
BLOCK_RECORD
  5
220
100
AcDbSymbolTableRecord
100
AcDbBlockTableRecord
  2
*D3
  0
ENDTAB
  0
TABLE
  2
DIMSTYLE
  5
A
100
AcDbSymbolTable
 70
1
100
AcDbDimStyleTable
 71
0
  0
DIMSTYLE
105
221
100
AcDbSymbolTableRecord
100
AcDbDimStyleTableRecord
  2
STANDARD
 70
0
  3

  4

 40
1.0
 41
3.0
 42
0.5
 43
0.38
 44
1.5
 45
0.0
 46
0.0
 47
0.01
 48
0.01
140
3.0
141
0.09
142
0.0
143
25.4
144
1.0
145
0.0
146
1.0
147
0.625
 71
1
 72
0
 73
0
 74
0
 75
0
 76
0
 77
1
 78
8
 79
2
170
0
171
1
172
0
173
0
174
0
175
0
176
0
177
0
178
0
270
2
179
2
271
2
272
2
273
2
274
2
275
0
280
0
281
0
282
0
283
1
284
8
285
0
286
0
287
3
288
0
340
11
278
44
341
21C
342
21C
343
21C
344
21C
  0
DIMSTYLE
105
222
100
AcDbSymbolTableRecord
100
AcDbDimStyleTableRecord
  2
DIMSTYLE_1
 70
0
  3

  4

 40
1.0
 41
3.0
 42
0.5
 43
0.38
 44
1.5
 45
0.0
 46
0.0
 47
0.0
 48
0.0
140
3.0
141
0.09
142
0.0
143
25.4
144
1.0
145
0.0
146
1.0
147
0.75
 71
0
 72
0
 73
0
 74
0
 75
0
 76
0
 77
1
 78
8
 79
2
170
0
171
1
172
0
173
0
174
0
175
0
176
0
177
0
178
0
270
2
179
2
271
1
272
1
273
2
274
2
275
0
280
0
281
0
282
0
283
1
284
8
285
0
286
0
287
3
288
0
340
11
278
44
341
21C
342
21C
343
21C
344
21C
  0
ENDTAB
  0
ENDSEC
  0
SECTION
  2
BLOCKS
  0
BLOCK
  5
20
100
AcDbEntity
  8
0
100
AcDbBlockBegin
  2
*Model_Space
 70
0
 10
0.0
 20
0.0
 30
0.0
  3
*Model_Space
  1

  0
ENDBLK
  5
21
100
AcDbEntity
  8
0
100
AcDbBlockEnd
  0
BLOCK
  5
1C
100
AcDbEntity
  8
0
100
AcDbBlockBegin
  2
*Paper_Space
 70
0
 10
0.0
 20
0.0
 30
0.0
  3
*Paper_Space
  1

  0
ENDBLK
  5
1D
100
AcDbEntity
  8
0
100
AcDbBlockEnd
  0
BLOCK
  5
223
100
AcDbEntity
  8
0
100
AcDbBlockBegin
  2
_FILLED
 70
64
 10
0.0
 20
0.0
  3
_FILLED
  1

  0
SOLID
  5
224
100
AcDbEntity
  8
0
  6
BYBLOCK
 62
0
100
AcDbTrace
 10
0.0
 20
0.0
 11
-1.0
 21
0.3166666667
 12
-1.0
 22
-0.3166666667
 13
-1.0
 23
-0.3166666667
  0
ENDBLK
  5
225
100
AcDbEntity
  8
0
  6
BYBLOCK
 62
0
100
AcDbBlockEnd
  0
BLOCK
  5
226
100
AcDbEntity
  8
0
100
AcDbBlockBegin
 62
7
  6
CONTINUOUS
  2
*D0
 70
65
 10
0.0
 20
0.0
  3
*D0
  1

  0
LINE
  5
227
100
AcDbEntity
  8
0
100
AcDbLine
 62
7
  6
CONTINUOUS
 10
-11.3229790254
 20
59.4038553272
 11
-11.3229790254
 21
66.6640718555
  0
LINE
  5
228
100
AcDbEntity
  8
0
100
AcDbLine
 62
7
  6
CONTINUOUS
 10
10.782751657
 20
59.4038553272
 11
10.782751657
 21
66.6640718555
  0
LINE
  5
229
100
AcDbEntity
  8
0
100
AcDbLine
 62
7
  6
CONTINUOUS
 10
-11.3229790254
 20
65.1640718555
 11
-0.2701136842
 21
65.1640718555
  0
LINE
  5
22A
100
AcDbEntity
  8
0
100
AcDbLine
 62
7
  6
CONTINUOUS
 10
10.782751657
 20
65.1640718555
 11
-0.2701136842
 21
65.1640718555
  0
INSERT
  5
22B
100
AcDbEntity
  8
0
100
AcDbBlockReference
 62
7
  6
CONTINUOUS
  2
_FILLED
 10
-11.3229790254
 20
65.1640718555
 41
3.0
 42
3.0
 43
3.0
 50
180.0
  0
INSERT
  5
22C
100
AcDbEntity
  8
0
100
AcDbBlockReference
 62
7
  6
CONTINUOUS
  2
_FILLED
 10
10.782751657
 20
65.1640718555
 41
3.0
 42
3.0
 43
3.0
  0
ENDBLK
  5
22D
100
AcDbEntity
  8
0
  6
BYBLOCK
 62
0
100
AcDbBlockEnd
  0
BLOCK
  5
22E
100
AcDbEntity
  8
0
100
AcDbBlockBegin
 62
7
  6
CONTINUOUS
  2
*D1
 70
65
 10
0.0
 20
0.0
  3
*D1
  1

  0
LINE
  5
22F
100
AcDbEntity
  8
0
100
AcDbLine
 62
7
  6
CONTINUOUS
 10
10.7829229945
 20
59.4036839897
 11
21.1301551128
 21
59.4036839897
  0
LINE
  5
230
100
AcDbEntity
  8
0
100
AcDbLine
 62
7
  6
CONTINUOUS
 10
10.7829229945
 20
6.6979533074
 11
21.1301551128
 21
6.6979533074
  0
LINE
  5
231
100
AcDbEntity
  8
0
100
AcDbLine
 62
7
  6
CONTINUOUS
 10
19.6301551128
 20
59.4036839897
 11
19.6301551128
 21
33.0508186485
  0
LINE
  5
232
100
AcDbEntity
  8
0
100
AcDbLine
 62
7
  6
CONTINUOUS
 10
19.6301551128
 20
6.6979533074
 11
19.6301551128
 21
33.0508186485
  0
INSERT
  5
233
100
AcDbEntity
  8
0
100
AcDbBlockReference
 62
7
  6
CONTINUOUS
  2
_FILLED
 10
19.6301551128
 20
59.4036839897
 41
3.0
 42
3.0
 43
3.0
 50
90.0
  0
INSERT
  5
234
100
AcDbEntity
  8
0
100
AcDbBlockReference
 62
7
  6
CONTINUOUS
  2
_FILLED
 10
19.6301551128
 20
6.6979533074
 41
3.0
 42
3.0
 43
3.0
 50
270.0
  0
ENDBLK
  5
235
100
AcDbEntity
  8
0
  6
BYBLOCK
 62
0
100
AcDbBlockEnd
  0
BLOCK
  5
236
100
AcDbEntity
  8
0
100
AcDbBlockBegin
 62
7
  6
CONTINUOUS
  2
*D2
 70
65
 10
0.0
 20
0.0
  3
*D2
  1

  0
LINE
  5
237
100
AcDbEntity
  8
0
100
AcDbLine
 62
7
  6
CONTINUOUS
 10
-28.2818535658
 20
59.4038553272
 11
-28.2818535658
 21
66.5145970421
  0
LINE
  5
238
100
AcDbEntity
  8
0
100
AcDbLine
 62
7
  6
CONTINUOUS
 10
-32.9516010945
 20
8.3463968323
 11
-32.9516010945
 21
66.5145970421
  0
LINE
  5
239
100
AcDbEntity
  8
0
100
AcDbLine
 62
7
  6
CONTINUOUS
 10
-28.2818535658
 20
65.0145970421
 11
-24.2818535658
 21
65.0145970421
  0
LINE
  5
23A
100
AcDbEntity
  8
0
100
AcDbLine
 62
7
  6
CONTINUOUS
 10
-24.2818535658
 20
65.0145970421
 11
-30.6167273301
 21
65.0145970421
  0
LINE
  5
23B
100
AcDbEntity
  8
0
100
AcDbLine
 62
7
  6
CONTINUOUS
 10
-32.9516010945
 20
65.0145970421
 11
-44.0899748546
 21
65.0145970421
  0
LINE
  5
23C
100
AcDbEntity
  8
0
100
AcDbLine
 62
7
  6
CONTINUOUS
 10
-44.0899748546
 20
65.0145970421
 11
-30.6167273301
 21
65.0145970421
  0
INSERT
  5
23D
100
AcDbEntity
  8
0
100
AcDbBlockReference
 62
7
  6
CONTINUOUS
  2
_FILLED
 10
-28.2818535658
 20
65.0145970421
 41
3.0
 42
3.0
 43
3.0
 50
180.0
  0
INSERT
  5
23E
100
AcDbEntity
  8
0
100
AcDbBlockReference
 62
7
  6
CONTINUOUS
  2
_FILLED
 10
-32.9516010945
 20
65.0145970421
 41
3.0
 42
3.0
 43
3.0
  0
ENDBLK
  5
23F
100
AcDbEntity
  8
0
  6
BYBLOCK
 62
0
100
AcDbBlockEnd
  0
BLOCK
  5
240
100
AcDbEntity
  8
0
100
AcDbBlockBegin
 62
7
  6
CONTINUOUS
  2
*D3
 70
65
 10
0.0
 20
0.0
  3
*D3
  1

  0
LINE
  5
241
100
AcDbEntity
  8
0
100
AcDbLine
 62
7
  6
CONTINUOUS
 10
-24.9818535658
 20
21.1539404719
 11
-24.9818535658
 21
73.761423053
  0
LINE
  5
242
100
AcDbEntity
  8
0
100
AcDbLine
 62
7
  6
CONTINUOUS
 10
-32.9516010945
 20
8.3463968323
 11
-32.9516010945
 21
73.761423053
  0
LINE
  5
243
100
AcDbEntity
  8
0
100
AcDbLine
 62
7
  6
CONTINUOUS
 10
-24.9818535658
 20
72.261423053
 11
-28.9667273301
 21
72.261423053
  0
LINE
  5
244
100
AcDbEntity
  8
0
100
AcDbLine
 62
7
  6
CONTINUOUS
 10
-32.9516010945
 20
72.261423053
 11
-28.9667273301
 21
72.261423053
  0
LINE
  5
245
100
AcDbEntity
  8
0
100
AcDbLine
 62
7
  6
CONTINUOUS
 10
-28.9667273301
 20
72.261423053
 11
-39.7148925654
 21
72.261423053
  0
INSERT
  5
246
100
AcDbEntity
  8
0
100
AcDbBlockReference
 62
7
  6
CONTINUOUS
  2
_FILLED
 10
-24.9818535658
 20
72.261423053
 41
3.0
 42
3.0
 43
3.0
  0
INSERT
  5
247
100
AcDbEntity
  8
0
100
AcDbBlockReference
 62
7
  6
CONTINUOUS
  2
_FILLED
 10
-32.9516010945
 20
72.261423053
 41
3.0
 42
3.0
 43
3.0
 50
180.0
  0
ENDBLK
  5
248
100
AcDbEntity
  8
0
  6
BYBLOCK
 62
0
100
AcDbBlockEnd
  0
ENDSEC
  0
SECTION
  2
ENTITIES
  0
DIMENSION
  5
249
100
AcDbEntity
  8
0
100
AcDbDimension
 62
7
  6
CONTINUOUS
  2
*D0
 10
10.782751657
 20
65.1640718555
 11
-4.3415422556
 21
65.1640718555
 70
160
 71
2
 72
2
 41
0.9
 42
22.1057306824
  3
DIMSTYLE_1
100
AcDbAlignedDimension
 13
-11.3229790254
 23
58.9038553272
 14
10.782751657
 24
58.9038553272
100
AcDbRotatedDimension
  0
DIMENSION
  5
24A
100
AcDbEntity
  8
0
100
AcDbDimension
 62
7
  6
CONTINUOUS
  2
*D1
 10
19.6301551128
 20
6.6979533074
 11
19.6301551128
 21
28.7651043628
 70
160
 71
2
 72
2
 41
0.9
 42
52.7057306824
  3
DIMSTYLE_1
100
AcDbAlignedDimension
 13
10.2829229945
 23
59.4036839897
 14
10.2829229945
 24
6.6979533074
 50
270.0
100
AcDbRotatedDimension
  0
DIMENSION
  5
24B
100
AcDbEntity
  8
0
100
AcDbDimension
 62
7
  6
CONTINUOUS
  2
*D2
 10
-32.9516010945
 20
65.0145970421
 11
-44.0899748546
 21
65.0145970421
 70
160
 71
3
 72
2
 41
0.9
 42
4.6697475287
  3
DIMSTYLE_1
100
AcDbAlignedDimension
 13
-28.2818535658
 23
58.9038553272
 14
-32.9516010945
 24
7.8463968323
 50
180.0
100
AcDbRotatedDimension
  0
DIMENSION
  5
24C
100
AcDbEntity
  8
0
100
AcDbDimension
 62
7
  6
CONTINUOUS
  2
*D3
 10
-32.9516010945
 20
72.261423053
 11
-39.7148925654
 21
72.261423053
 70
160
 71
3
 72
2
 41
0.9
 42
7.9697475287
  3
DIMSTYLE_1
100
AcDbAlignedDimension
 13
-24.9818535658
 23
20.6539404719
 14
-32.9516010945
 24
7.8463968323
 50
180.0
100
AcDbRotatedDimension
  0
LWPOLYLINE
  5
24D
100
AcDbEntity
  8
0
100
AcDbPolyline
 62
7
  6
CONTINUOUS
 90
3
 70
0
 43
0.3500000006
 10
2.087029182
 20
68.056927002
 10
2.9441720781
 20
68.9140740051
 10
2.9441720781
 20
65.9140730896
  0
LINE
  5
24E
100
AcDbEntity
  8
RACCORDO
100
AcDbLine
 62
250
  6
CONTINUOUS
 10
10.2829229945
 20
59.4036839897
 11
10.2433013784
 21
59.3640623736
  0
LINE
  5
24F
100
AcDbEntity
  8
RACCORDO
100
AcDbLine
 62
250
  6
CONTINUOUS
 10
10.782751657
 20
58.9038553272
 11
10.7431300409
 21
58.8642337111
  0
LWPOLYLINE
  5
250
100
AcDbEntity
  8
0
100
AcDbPolyline
 62
7
  6
CONTINUOUS
 90
10
 70
0
 43
0.3500000006
 10
18.3801549339
 20
33.9079634399
 10
18.5230127678
 20
33.9793900909
 10
18.5944405518
 20
33.9793900909
 10
18.7372983856
 20
33.8365322571
 10
18.7372983856
 20
33.7651056061
 10
18.6658694687
 20
33.6936744232
 10
18.5944405518
 20
33.6936744232
 10
18.4515838509
 20
33.7651056061
 10
18.3801549339
 20
33.8365322571
 10
18.3801549339
 20
33.9079634399
  0
LWPOLYLINE
  5
251
100
AcDbEntity
  8
0
100
AcDbPolyline
 62
7
  6
CONTINUOUS
 90
8
 70
0
 10
-1.2960089567
 20
21.7177579535
 10
-1.3050837527
 20
21.7137366364
 10
-1.3141094752
 20
21.7086415841
 10
-1.3227286734
 20
21.7027316868
 10
-1.3309275806
 20
21.6960115272
 10
-1.3387199634
 20
21.6884765227
 10
-1.345789671
 20
21.6803718154
 10
-1.3521662854
 20
21.6716765139
  0
LINE
  5
252
100
AcDbEntity
  8
0
100
AcDbLine
 62
7
  6
CONTINUOUS
 10
0.4655533674
 20
16.5665440718
 11
0.5877958921
 21
16.6156267267
  0
LWPOLYLINE
  5
253
100
AcDbEntity
  8
0
100
AcDbPolyline
 62
7
  6
CONTINUOUS
 90
3
 70
0
 10
2.6292266601
 20
19.3800478705
 10
2.6381896399
 20
19.3835985347
 10
2.6475399606
 20
19.3861386019
  0
LWPOLYLINE
  5
254
100
AcDbEntity
  8
0
100
AcDbPolyline
 62
7
  6
CONTINUOUS
 90
3
 70
0
 10
3.8247834397
 20
18.9872579671
 10
3.8158204597
 20
18.9837073028
 10
3.806470139
 20
18.9811672356
  0
LINE
  5
255
100
AcDbEntity
  8
0
100
AcDbLine
 62
7
  6
CONTINUOUS
 10
0.3399669203
 20
16.5249758631
 11
0.4672335824
 21
16.5671577939
  0
LWPOLYLINE
  5
256
100
AcDbEntity
  8
RACCORDO
100
AcDbPolyline
 62
250
  6
CONTINUOUS
 90
16
 70
0
 10
-11.2545059145
 20
22.764476882
 10
-11.2505195898
 20
22.7698515013
 10
-11.2412791509
 20
22.7751691783
 10
-11.2268825141
 20
22.7803735645
 10
-11.2074822321
 20
22.7854095115
 10
-11.1832838781
 20
22.7902236566
 10
-11.1545438668
 20
22.7947649884
 10
-11.1215667381
 20
22.7989853856
 10
-11.0847019292
 20
22.802840127
 10
-11.0443400719
 20
22.8062883667
 10
-11.0009088545
 20
22.8092935665
 10
-10.9548684888
 20
22.8118238824
 10
-10.9067068328
 20
22.8138525016
 10
-10.8569342229
 20
22.8153579284
 10
-10.8060780665
 20
22.8163242119
 10
-10.754677252
 20
22.8167411136
  0
LWPOLYLINE
  5
257
100
AcDbEntity
  8
0
100
AcDbPolyline
 62
7
  6
CONTINUOUS
 90
6
 70
0
 10
-4.3373190974
 20
19.5366349777
 10
-4.3302042782
 20
19.5445354828
 10
-4.3221558098
 20
19.5516193654
 10
-4.3132489348
 20
19.5579403334
 10
-4.3038553723
 20
19.5632041904
 10
-4.293927218
 20
19.5673191785
  0
LWPOLYLINE
  5
258
100
AcDbEntity
  8
0
100
AcDbPolyline
 62
7
  6
CONTINUOUS
 90
3
 70
0
 10
-3.5946280651
 20
16.1685936455
 10
-3.6039196713
 20
16.1596696707
 10
-3.6118394877
 20
16.1497685714
  0
LINE
  5
259
100
AcDbEntity
  8
0
100
AcDbLine
 62
7
  6
CONTINUOUS
 10
-2.387811924
 20
16.397691302
 11
-2.3795047303
 21
16.4056442059
  0
LINE
  5
25A
100
AcDbEntity
  8
0
100
AcDbLine
 62
7
  6
CONTINUOUS
 10
-2.3804113181
 20
16.4045973285
 11
-2.3878118064
 21
16.3976914007
  0
LINE
  5
25B
100
AcDbEntity
  8
0
100
AcDbLine
 62
7
  6
CONTINUOUS
 10
-3.2087840059
 20
15.7088395698
 11
-2.387811924
 21
16.397691302
  0
LINE
  5
25C
100
AcDbEntity
  8
0
100
AcDbLine
 62
7
  6
CONTINUOUS
 10
-2.7736642894
 20
16.8572661539
 11
-3.5946280651
 21
16.1685936455
  0
LWPOLYLINE
  5
25D
100
AcDbEntity
  8
0
100
AcDbPolyline
 62
7
  6
CONTINUOUS
 90
9
 70
0
 10
2.6126167363
 20
19.3700289424
 10
2.6047054762
 20
19.363409984
 10
2.597324119
 20
19.3560481742
 10
2.590432732
 20
19.3479183536
 10
2.5840712479
 20
19.3390456816
 10
2.5785432147
 20
19.3297727032
 10
2.5738479522
 20
19.3200664826
 10
2.5699861404
 20
19.3099599555
 10
2.5672633682
 20
19.2998944737
  0
LWPOLYLINE
  5
25E
100
AcDbEntity
  8
0
100
AcDbPolyline
 62
7
  6
CONTINUOUS
 90
9
 70
0
 10
3.8413933634
 20
18.9972768952
 10
3.8493046236
 20
19.0038958536
 10
3.8566859808
 20
19.0112576634
 10
3.8635773678
 20
19.019387484
 10
3.8699388519
 20
19.028260156
 10
3.8754668851
 20
19.0375331344
 10
3.8801621476
 20
19.0472393551
 10
3.8840239594
 20
19.0573458823
 10
3.8867467316
 20
19.0674113639
  0
LWPOLYLINE
  5
25F
100
AcDbEntity
  8
0
100
AcDbPolyline
 62
7
  6
CONTINUOUS
 90
6
 70
0
 10
1.1399931326
 20
16.9687891391
 10
1.038982704
 20
16.8850469113
 10
0.9333961589
 20
16.8079204933
 10
0.8228234918
 20
16.7371230625
 10
0.7076747082
 20
16.6729414415
 10
0.5891798247
 20
16.616236099
  0
LWPOLYLINE
  5
260
100
AcDbEntity
  8
0
100
AcDbPolyline
 62
7
  6
CONTINUOUS
 90
14
 70
0
 10
-2.7736647311
 20
16.8572657834
 10
-2.7657727118
 20
16.8628322146
 10
-2.7572453789
 20
16.8674520212
 10
-2.7480827322
 20
16.8711252033
 10
-2.7381110194
 20
16.8738448517
 10
-2.7275039929
 20
16.8756178756
 10
-2.7167829101
 20
16.8764650023
 10
-2.7059618095
 20
16.8763665235
 10
-2.6950266528
 20
16.8753421474
 10
-2.6844565815
 20
16.8734717266
 10
-2.6742964848
 20
16.8707737321
 10
-2.6645014736
 20
16.8672296928
 10
-2.6554160225
 20
16.8628640475
 10
-2.6471549564
 20
16.8576849423
  0
LWPOLYLINE
  5
261
100
AcDbEntity
  8
0
100
AcDbPolyline
 62
7
  6
CONTINUOUS
 90
14
 70
0
 10
-3.2087835646
 20
15.7088399401
 10
-3.2166755843
 20
15.7032735087
 10
-3.2252029176
 20
15.6986537019
 10
-3.2343655645
 20
15.6949805197
 10
-3.2443372774
 20
15.6922608712
 10
-3.2549443039
 20
15.6904878473
 10
-3.2656653866
 20
15.6896407206
 10
-3.2764864871
 20
15.6897391995
 10
-3.2874216439
 20
15.6907635755
 10
-3.2979917152
 20
15.6926339964
 10
-3.3081518119
 20
15.6953319909
 10
-3.3179468232
 20
15.6988760302
 10
-3.3270322742
 20
15.7032416755
 10
-3.3352933402
 20
15.7084207806
  0
LWPOLYLINE
  5
262
100
AcDbEntity
  8
0
100
AcDbPolyline
 62
7
  6
CONTINUOUS
 90
3
 70
0
 10
-3.1939031708
 20
18.839042801
 10
-3.1877863917
 20
18.847651642
 10
-3.1829085989
 20
18.8566260701
  0
LWPOLYLINE
  5
263
100
AcDbEntity
  8
RACCORDO
100
AcDbPolyline
 62
250
  6
CONTINUOUS
 90
10
 70
0
 10
-11.2904931238
 20
7.2302678715
 10
-11.2902268637
 20
7.2306380148
 10
-11.2899611024
 20
7.2312138849
 10
-11.2896958397
 20
7.2319954817
 10
-11.2894310027
 20
7.2329830719
 10
-11.2891666642
 20
7.2341763888
 10
-11.288903044
 20
7.2355746325
 10
-11.288640215
 20
7.2371775363
 10
-11.2883781042
 20
7.2389853668
 10
-11.2881167114
 20
7.2409981241
  0
LWPOLYLINE
  5
264
100
AcDbEntity
  8
RACCORDO
100
AcDbPolyline
 62
250
  6
CONTINUOUS
 90
16
 70
0
 10
-11.2134476099
 20
7.8463968323
 10
-11.2094452976
 20
7.8517844386
 10
-11.2001636975
 20
7.8571146809
 10
-11.1857016344
 20
7.8623308055
 10
-11.1662111352
 20
7.867377715
 10
-11.1419008213
 20
7.8722011919
 10
-11.11303789
 20
7.8767486932
 10
-11.0799393945
 20
7.8809713287
 10
-11.0429557846
 20
7.8848253147
 10
-11.0024716544
 20
7.8882708788
 10
-10.9588649056
 20
7.8912746168
 10
-10.9126452568
 20
7.8938002638
 10
-10.8644635214
 20
7.8958152376
 10
-10.8149018462
 20
7.8973018377
 10
-10.7644423735
 20
7.8982520112
 10
-10.7136189474
 20
7.8986610639
  0
LWPOLYLINE
  5
265
100
AcDbEntity
  8
0
100
AcDbPolyline
 62
7
  6
CONTINUOUS
 90
11
 70
0
 10
-2.3785560607
 20
16.4065524162
 10
-2.3706582934
 20
16.4164147383
 10
-2.3641186221
 20
16.4272782683
 10
-2.3587867248
 20
16.4394380919
 10
-2.3548129236
 20
16.4525991234
 10
-2.3526481845
 20
16.4658761055
 10
-2.3525463329
 20
16.4792557865
 10
-2.3542535435
 20
16.4927514181
 10
-2.3574593052
 20
16.5055174986
 10
-2.3620601145
 20
16.517272194
 10
-2.368159475
 20
16.5282973383
  0
LWPOLYLINE
  5
266
100
AcDbEntity
  8
0
100
AcDbPolyline
 62
7
  6
CONTINUOUS
 90
7
 70
0
 10
1.3062532674
 20
17.1330194828
 10
1.3721557051
 20
17.2097803667
 10
1.4341347511
 20
17.2894298213
 10
1.4922449348
 20
17.3721877656
 10
1.5464317268
 20
17.4578342806
 10
1.5965315386
 20
17.5457096088
 10
1.6425695954
 20
17.6357966897
  0
LWPOLYLINE
  5
267
100
AcDbEntity
  8
0
100
AcDbPolyline
 62
7
  6
CONTINUOUS
 90
21
 70
0
 10
0.920902415
 20
17.6042577875
 10
0.8465321869
 20
17.5188989029
 10
0.7666465006
 20
17.439772539
 10
0.680701733
 20
17.3661755065
 10
0.5899912386
 20
17.2994182094
 10
0.4944143658
 20
17.2396267205
 10
0.3940717662
 20
17.1866749669
 10
0.2905587496
 20
17.1414951345
 10
0.1837399319
 20
17.1042545668
 10
0.0737506972
 20
17.0747859202
 10
-0.0374074925
 20
17.0535193504
 10
-0.1496472276
 20
17.0405789683
 10
-0.2630559178
 20
17.0358406628
 10
-0.3758943296
 20
17.0393622562
 10
-0.4881940943
 20
17.0512652837
 10
-0.5999235807
 20
17.07142821
 10
-0.7092486622
 20
17.0995442518
 10
-0.8161242974
 20
17.1357228379
 10
-0.9205955276
 20
17.1798545394
 10
-1.0209633503
 20
17.2313042861
 10
-1.117161168
 20
17.2902682382
  0
LINE
  5
268
100
AcDbEntity
  8
0
100
AcDbLine
 62
7
  6
CONTINUOUS
 10
-3.1939051499
 20
18.8390466194
 11
-3.2011297439
 21
18.8308564713
  0
LINE
  5
269
100
AcDbEntity
  8
0
100
AcDbLine
 62
7
  6
CONTINUOUS
 10
1.3062652142
 20
17.1330310361
 11
1.2364274447
 21
17.0591471768
  0
LINE
  5
26A
100
AcDbEntity
  8
RACCORDO
100
AcDbLine
 62
250
  6
CONTINUOUS
 10
-11.3229790254
 20
7.1977819698
 11
-11.2904931238
 21
7.2302678715
  0
LINE
  5
26B
100
AcDbEntity
  8
RACCORDO
100
AcDbLine
 62
250
  6
CONTINUOUS
 10
-10.8231503629
 20
6.6979533074
 11
-10.7906644613
 21
6.730439209
  0
LWPOLYLINE
  5
26C
100
AcDbEntity
  8
0
100
AcDbPolyline
 62
7
  6
CONTINUOUS
 90
14
 70
0
 10
2.0918464063
 20
16.8450357063
 10
2.0986916239
 20
16.8518333154
 10
2.1063146173
 20
16.857820243
 10
2.1147153866
 20
16.8629964891
 10
2.1240631005
 20
16.8673867195
 10
2.1341885903
 20
16.8709662684
 10
2.1445843494
 20
16.8736611379
 10
2.1552413091
 20
16.8754499386
 10
2.1661685381
 20
16.8763540598
 10
2.1768857358
 20
16.8763636721
 10
2.1873464163
 20
16.8754885606
 10
2.1975970655
 20
16.8737189401
 10
2.2072968408
 20
16.871015625
 10
2.2163321277
 20
16.8673655535
  0
LWPOLYLINE
  5
26D
100
AcDbEntity
  8
0
100
AcDbPolyline
 62
7
  6
CONTINUOUS
 90
14
 70
0
 10
2.8091136242
 20
15.7212422716
 10
2.8022684066
 20
15.7144446624
 10
2.7946454132
 20
15.7084577348
 10
2.7862446439
 20
15.7032814888
 10
2.77689693
 20
15.6988912583
 10
2.7667714402
 20
15.6953117094
 10
2.7563756811
 20
15.6926168399
 10
2.7457187214
 20
15.6908280393
 10
2.7347914924
 20
15.689923918
 10
2.7240742947
 20
15.6899143058
 10
2.7136136142
 20
15.6907894172
 10
2.703362965
 20
15.6925590377
 10
2.6936631897
 20
15.6952623528
 10
2.6846279028
 20
15.6989124244
  0
LINE
  5
26E
100
AcDbEntity
  8
0
100
AcDbLine
 62
7
  6
CONTINUOUS
 10
1.1398524192
 20
16.9686553668
 11
1.236427438
 21
17.0591471696
  0
LWPOLYLINE
  5
26F
100
AcDbEntity
  8
0
100
AcDbPolyline
 62
7
  6
CONTINUOUS
 90
3
 70
0
 43
0.3500000006
 10
1.08702916
 20
66.1997887573
 10
1.0156005971
 20
65.9855042725
 10
0.8727434714
 20
65.6997886047
  0
LWPOLYLINE
  5
270
100
AcDbEntity
  8
0
100
AcDbPolyline
 62
7
  6
CONTINUOUS
 90
3
 70
0
 10
-1.3578202245
 20
21.6624115097
 10
-1.3623465912
 20
21.652884619
 10
-1.3656104196
 20
21.6431984473
  0
LWPOLYLINE
  5
271
100
AcDbEntity
  8
0
100
AcDbPolyline
 62
7
  6
CONTINUOUS
 90
4
 70
0
 10
-2.3628785726
 20
16.429777735
 10
-2.3679970849
 20
16.4205723441
 10
-2.373806411
 20
16.4122243096
 10
-2.3795047303
 20
16.4056442059
  0
LWPOLYLINE
  5
272
100
AcDbEntity
  8
0
100
AcDbPolyline
 62
7
  6
CONTINUOUS
 90
9
 70
0
 10
-0.5601634934
 20
15.587438771
 10
-0.5549166549
 20
15.5964333688
 10
-0.5488539332
 20
15.6050072164
 10
-0.5419554184
 20
15.6132012849
 10
-0.5342410203
 20
15.6209746034
 10
-0.5260259514
 20
15.6279681956
 10
-0.5172884719
 20
15.6341764691
 10
-0.5080503216
 20
15.6396050164
 10
-0.4986919332
 20
15.6439116395
  0
LINE
  5
273
100
AcDbEntity
  8
0
100
AcDbLine
 62
7
  6
CONTINUOUS
 10
-3.6183354643
 20
16.1389887766
 11
-3.6117892176
 21
16.1499054386
  0
LINE
  5
274
100
AcDbEntity
  8
0
100
AcDbLine
 62
7
  6
CONTINUOUS
 10
-1.357821382
 20
21.6624008217
 11
-1.3521476223
 21
21.671699945
  0
LWPOLYLINE
  5
275
100
AcDbEntity
  8
0
100
AcDbPolyline
 62
7
  6
CONTINUOUS
 90
3
 70
0
 10
1.0485414026
 20
17.7881435791
 10
0.9879844384
 20
17.6937370442
 10
0.9202878533
 20
17.6035533078
  0
LINE
  5
276
100
AcDbEntity
  8
0
100
AcDbLine
 62
7
  6
CONTINUOUS
 10
0.9850492119
 20
17.6894922147
 11
1.0432288239
 21
17.7792012213
  0
LINE
  5
277
100
AcDbEntity
  8
0
100
AcDbLine
 62
7
  6
CONTINUOUS
 10
1.8348411412
 20
16.5385931013
 11
1.8279782951
 21
16.5293188104
  0
LINE
  5
278
100
AcDbEntity
  8
0
100
AcDbLine
 62
7
  6
CONTINUOUS
 10
3.0661188893
 20
16.0276848766
 11
3.0729817354
 21
16.0369591675
  0
LINE
  5
279
100
AcDbEntity
  8
0
100
AcDbLine
 62
7
  6
CONTINUOUS
 10
1.8286987757
 20
16.5305119353
 11
1.8348410484
 21
16.5385929906
  0
LINE
  5
27A
100
AcDbEntity
  8
0
100
AcDbLine
 62
7
  6
CONTINUOUS
 10
3.0722612548
 20
16.0357660426
 11
3.0661189822
 21
16.0276849873
  0
LINE
  5
27B
100
AcDbEntity
  8
0
100
AcDbLine
 62
7
  6
CONTINUOUS
 10
2.0918468032
 20
16.8450361795
 11
1.8348411412
 21
16.5385931013
  0
LINE
  5
27C
100
AcDbEntity
  8
0
100
AcDbLine
 62
7
  6
CONTINUOUS
 10
2.8091132273
 20
15.7212417984
 11
3.0661188893
 21
16.0276848766
  0
LWPOLYLINE
  5
27D
100
AcDbEntity
  8
0
100
AcDbPolyline
 62
7
  6
CONTINUOUS
 90
4
 70
0
 10
-4.3562210355
 20
19.5004392764
 10
-4.353026479
 20
19.5098737074
 10
-4.348827525
 20
19.5190005435
 10
-4.3435755099
 20
19.527971558
  0
LWPOLYLINE
  5
27E
100
AcDbEntity
  8
RACCORDO
100
AcDbPolyline
 62
250
  6
CONTINUOUS
 90
10
 70
0
 10
-10.7906644613
 20
6.730439209
 10
-10.7903981889
 20
6.7311782032
 10
-10.7901324214
 20
6.7323301451
 10
-10.7898671588
 20
6.7338944294
 10
-10.7896023319
 20
6.7358699802
 10
-10.7893380099
 20
6.7382560393
 10
-10.7890743999
 20
6.7410527311
 10
-10.7888115709
 20
6.7442597471
 10
-10.7885494539
 20
6.7478757817
 10
-10.788288049
 20
6.7518997143
  0
LWPOLYLINE
  5
27F
100
AcDbEntity
  8
0
100
AcDbPolyline
 62
7
  6
CONTINUOUS
 90
17
 70
0
 10
-1.6682427227
 20
19.1888511324
 10
-1.7083497299
 20
19.0893397904
 10
-1.7412575029
 20
18.987696754
 10
-1.7670613358
 20
18.8833489806
 10
-1.7856659347
 20
18.7768695129
 10
-1.7967854177
 20
18.6699774791
 10
-1.8002998578
 20
18.5627705744
 10
-1.7963291821
 20
18.4551511037
 10
-1.7849472895
 20
18.3485451101
 10
-1.7660434871
 20
18.2428656649
 10
-1.7397284679
 20
18.1381996968
 10
-1.7064082097
 20
18.0362340341
 10
-1.6660431473
 20
17.9371288398
 10
-1.6186728458
 20
17.840723951
 10
-1.5648219789
 20
17.748225707
 10
-1.5042682157
 20
17.659567863
 10
-1.4372338871
 20
17.5748166639
  0
LINE
  5
280
100
AcDbEntity
  8
0
100
AcDbLine
 62
7
  6
CONTINUOUS
 10
-2.200097706
 20
19.4453056331
 11
-2.2510574783
 21
19.3230151897
  0
LINE
  5
281
100
AcDbEntity
  8
0
100
AcDbLine
 62
7
  6
CONTINUOUS
 10
-1.6159369233
 20
19.2972295746
 11
-1.6209364816
 21
19.2862307801
  0
LWPOLYLINE
  5
282
100
AcDbEntity
  8
0
100
AcDbPolyline
 62
7
  6
CONTINUOUS
 90
17
 70
0
 10
1.0947716749
 20
17.8724933453
 10
1.1396513553
 20
17.9697089524
 10
1.1778942746
 20
18.0705076769
 10
1.2089100853
 20
18.1729769605
 10
1.2325395208
 20
18.2768963558
 10
1.2489418477
 20
18.3824863102
 10
1.2580045173
 20
18.4884956078
 10
1.2596679414
 20
18.5950845316
 10
1.2539917082
 20
18.7020927986
 10
1.2410420337
 20
18.8077883431
 10
1.2207528521
 20
18.9120089564
 10
1.1931902292
 20
19.0149168473
 10
1.1586185787
 20
19.1152665768
 10
1.1168496166
 20
19.2131313879
 10
1.0680716269
 20
19.3084380377
 10
1.0131138748
 20
19.3997213587
 10
0.9522527819
 20
19.4864929618
  0
LINE
  5
283
100
AcDbEntity
  8
0
100
AcDbLine
 62
7
  6
CONTINUOUS
 10
-1.6704210856
 20
19.1838760307
 11
-1.62093661
 21
19.2862304363
  0
LINE
  5
284
100
AcDbEntity
  8
0
100
AcDbLine
 62
7
  6
CONTINUOUS
 10
1.1018347923
 20
17.8869255315
 11
1.0485414026
 21
17.7881435791
  0
LWPOLYLINE
  5
285
100
AcDbEntity
  8
0
100
AcDbPolyline
 62
7
  6
CONTINUOUS
 90
11
 70
0
 10
1.8271975358
 20
16.5282637104
 10
1.8210743308
 20
16.5171771181
 10
1.8164715263
 20
16.5053333244
 10
1.8132913546
 20
16.4924118032
 10
1.8116315834
 20
16.4787330806
 10
1.8117855149
 20
16.4652587348
 10
1.8140042546
 20
16.4520477807
 10
1.8180366971
 20
16.4390412035
 10
1.8234228284
 20
16.4270235372
 10
1.8300093105
 20
16.4162562929
 10
1.8379494814
 20
16.4064779595
  0
LWPOLYLINE
  5
286
100
AcDbEntity
  8
0
100
AcDbPolyline
 62
7
  6
CONTINUOUS
 90
11
 70
0
 10
3.0737624947
 20
16.0380142674
 10
3.0798856997
 20
16.0491008597
 10
3.0844885043
 20
16.0609446534
 10
3.0876686759
 20
16.0738661746
 10
3.0893284471
 20
16.0875448973
 10
3.0891745156
 20
16.101019243
 10
3.0869557759
 20
16.1142301971
 10
3.0829233334
 20
16.1272367743
 10
3.0775372021
 20
16.1392544407
 10
3.07095072
 20
16.1500216849
 10
3.0630105491
 20
16.1598000184
  0
LINE
  5
287
100
AcDbEntity
  8
0
100
AcDbLine
 62
7
  6
CONTINUOUS
 10
1.0432288239
 20
17.7792012213
 11
1.0947716749
 21
17.8724933453
  0
LWPOLYLINE
  5
288
100
AcDbEntity
  8
0
100
AcDbPolyline
 62
7
  6
CONTINUOUS
 90
9
 70
0
 10
0.0195916152
 20
14.4408356886
 10
0.0143447767
 20
14.4318410908
 10
0.008282055
 20
14.4232672432
 10
0.0013835402
 20
14.4150731746
 10
-0.0063308579
 20
14.4072998562
 10
-0.0145459267
 20
14.4003062639
 10
-0.0232834063
 20
14.3940979905
 10
-0.0325215566
 20
14.3886694432
 10
-0.041879945
 20
14.3843628201
  0
LWPOLYLINE
  5
289
100
AcDbEntity
  8
RACCORDO
100
AcDbPolyline
 62
250
  6
CONTINUOUS
 90
16
 70
0
 10
-11.2833574093
 20
58.8642337111
 10
-11.2805694448
 20
58.9166126861
 10
-11.2723080354
 20
58.9684148638
 10
-11.2586641553
 20
59.019069795
 10
-11.2397854657
 20
59.0680254444
 10
-11.2158812329
 20
59.1147363872
 10
-11.1872259531
 20
59.158672768
 10
-11.1541485739
 20
59.1993447755
 10
-11.1170109454
 20
59.2363200748
 10
-11.0762096134
 20
59.269207986
 10
-11.0321281102
 20
59.297684254
 10
-10.9853075309
 20
59.3213853245
 10
-10.936458139
 20
59.3399874103
 10
-10.8862032397
 20
59.3533326973
 10
-10.8350404634
 20
59.3613656251
 10
-10.7835287468
 20
59.3640623736
  0
LINE
  5
28A
100
AcDbEntity
  8
RACCORDO
100
AcDbLine
 62
250
  6
CONTINUOUS
 10
-11.2881167114
 20
7.2409981241
 11
-11.2134476099
 21
7.8463968323
  0
LINE
  5
28B
100
AcDbEntity
  8
RACCORDO
100
AcDbLine
 62
250
  6
CONTINUOUS
 10
-10.788288049
 20
6.7518997143
 11
-10.7136189474
 21
7.3572984225
  0
LINE
  5
28C
100
AcDbEntity
  8
0
100
AcDbLine
 62
7
  6
CONTINUOUS
 10
-4.3584111944
 20
19.490697252
 11
-4.4280021367
 21
19.0967505065
  0
LINE
  5
28D
100
AcDbEntity
  8
0
100
AcDbLine
 62
7
  6
CONTINUOUS
 10
-3.1763981503
 20
18.875919576
 11
-3.106807154
 21
19.2698666268
  0
LINE
  5
28E
100
AcDbEntity
  8
0
100
AcDbLine
 62
7
  6
CONTINUOUS
 10
-2.3579285688
 20
18.9418925174
 11
-2.3301004852
 21
19.0712030748
  0
LINE
  5
28F
100
AcDbEntity
  8
0
100
AcDbLine
 62
7
  6
CONTINUOUS
 10
-4.3584111946
 20
19.4906972506
 11
-4.3562210355
 21
19.5004392764
  0
LINE
  5
290
100
AcDbEntity
  8
0
100
AcDbLine
 62
7
  6
CONTINUOUS
 10
-4.3554498689
 20
19.5030733065
 11
-4.3584111944
 21
19.490697252
  0
LWPOLYLINE
  5
291
100
AcDbEntity
  8
0
100
AcDbPolyline
 62
7
  6
CONTINUOUS
 90
3
 70
0
 10
-3.1763981271
 20
18.8759197071
 10
-3.179098009
 20
18.8660670304
 10
-3.1828892824
 20
18.856651899
  0
LWPOLYLINE
  5
292
100
AcDbEntity
  8
0
100
AcDbPolyline
 62
7
  6
CONTINUOUS
 90
3
 70
0
 10
-2.3301004852
 20
19.0712030748
 10
-2.2945727501
 20
19.1979444786
 10
-2.2512383641
 20
19.3226457025
  0
LINE
  5
293
100
AcDbEntity
  8
0
100
AcDbLine
 62
7
  6
CONTINUOUS
 10
1.7221455054
 20
17.8220487157
 11
1.7554628966
 21
17.9175511066
  0
LWPOLYLINE
  5
294
100
AcDbEntity
  8
0
100
AcDbPolyline
 62
7
  6
CONTINUOUS
 90
4
 70
0
 10
1.8156742934
 20
16.5026504659
 10
1.8191556565
 20
16.5126177853
 10
1.8234703117
 20
16.5218535335
 10
1.8279782951
 20
16.5293188104
  0
LWPOLYLINE
  5
295
100
AcDbEntity
  8
0
100
AcDbPolyline
 62
7
  6
CONTINUOUS
 90
4
 70
0
 10
3.0852857371
 20
16.063627512
 10
3.081804374
 20
16.0536601925
 10
3.0774897188
 20
16.0444244444
 10
3.0729817354
 20
16.0369591675
  0
LWPOLYLINE
  5
296
100
AcDbEntity
  8
RACCORDO
100
AcDbPolyline
 62
250
  6
CONTINUOUS
 90
16
 70
0
 10
-11.2134476099
 20
7.8463968323
 10
-11.2104309471
 20
7.7953199801
 10
-11.2019815064
 20
7.7448017797
 10
-11.1881917201
 20
7.6953946563
 10
-11.1692104641
 20
7.6476346337
 10
-11.1452463845
 20
7.602048604
 10
-11.1165700398
 20
7.5591464129
 10
-11.083504793
 20
7.51940129
 10
-11.0464106235
 20
7.4832367977
 10
-11.0056848937
 20
7.4510369947
 10
-10.9617189454
 20
7.4231228867
 10
-10.9150398669
 20
7.3998398765
 10
-10.8663216741
 20
7.3814944212
 10
-10.8161688114
 20
7.3682485594
 10
-10.765082939
 20
7.3601715997
 10
-10.7136189474
 20
7.3572984225
  0
LWPOLYLINE
  5
297
100
AcDbEntity
  8
RACCORDO
100
AcDbPolyline
 62
250
  6
CONTINUOUS
 90
16
 70
0
 10
-11.2881167114
 20
7.2409981241
 10
-11.2851144426
 20
7.1900489625
 10
-11.2767064187
 20
7.1396541568
 10
-11.262984124
 20
7.0903620314
 10
-11.2440968647
 20
7.0427089127
 10
-11.2202501451
 20
6.9972132939
 10
-11.1917034311
 20
6.9543701934
 10
-11.1587673273
 20
6.9146457685
 10
-11.1218001973
 20
6.8784722437
 10
-11.0812042645
 20
6.8462432076
 10
-11.037421236
 20
6.8183093306
 10
-10.990927496
 20
6.794974549
 10
-10.9422289231
 20
6.7764927589
 10
-10.8918553856
 20
6.7630650524
 10
-10.8403549762
 20
6.7548375309
 10
-10.788288049
 20
6.7518997143
  0
LWPOLYLINE
  5
298
100
AcDbEntity
  8
RACCORDO
100
AcDbPolyline
 62
250
  6
CONTINUOUS
 90
16
 70
0
 10
-11.2904931238
 20
7.2302678715
 10
-11.2877216183
 20
7.178044315
 10
-11.2795090088
 20
7.1263924199
 10
-11.2659451923
 20
7.0758776012
 10
-11.2471786437
 20
7.0270528272
 10
-11.2234147907
 20
6.9804525669
 10
-11.1949137651
 20
6.9365869389
 10
-11.1619875548
 20
6.8959361268
 10
-11.1249965895
 20
6.8589451234
 10
-11.084345796
 20
6.82601886
 10
-11.0404801629
 20
6.7975177714
 10
-10.9938798716
 20
6.7737538521
 10
-10.9450550414
 20
6.7549872413
 10
-10.8945401421
 20
6.7414233728
 10
-10.8428881428
 20
6.7332107277
 10
-10.7906644613
 20
6.730439209
  0
LINE
  5
299
100
AcDbEntity
  8
RACCORDO
100
AcDbLine
 62
250
  6
CONTINUOUS
 10
-11.2134476099
 20
7.8463968323
 11
-11.2612405729
 21
25.2885911447
  0
LINE
  5
29A
100
AcDbEntity
  8
RACCORDO
100
AcDbLine
 62
250
  6
CONTINUOUS
 10
-11.2612405729
 20
25.2885911447
 11
-11.2735610264
 21
30.7700820746
  0
LINE
  5
29B
100
AcDbEntity
  8
RACCORDO
100
AcDbLine
 62
250
  6
CONTINUOUS
 10
-11.2735610264
 20
30.7700820746
 11
-11.2794466856
 21
34.78636129
  0
LINE
  5
29C
100
AcDbEntity
  8
RACCORDO
100
AcDbLine
 62
250
  6
CONTINUOUS
 10
-10.773732364
 20
30.8052454445
 11
-10.7796180232
 21
34.8068149495
  0
LINE
  5
29D
100
AcDbEntity
  8
RACCORDO
100
AcDbLine
 62
250
  6
CONTINUOUS
 10
-11.2794466856
 20
34.78636129
 11
-11.2829542516
 21
40.3775378012
  0
LINE
  5
29E
100
AcDbEntity
  8
RACCORDO
100
AcDbLine
 62
250
  6
CONTINUOUS
 10
-10.7796180232
 20
34.8068149495
 11
-10.7831255891
 21
40.3825267709
  0
LINE
  5
29F
100
AcDbEntity
  8
RACCORDO
100
AcDbLine
 62
7
  6
CONTINUOUS
 10
-11.3229790254
 20
58.9038553272
 11
-11.3229790254
 21
7.1977819698
  0
LINE
  5
2A0
100
AcDbEntity
  8
RACCORDO
100
AcDbLine
 62
250
  6
CONTINUOUS
 10
-11.2829542516
 20
40.3775378012
 11
-11.2833574093
 21
58.8642337111
  0
LINE
  5
2A1
100
AcDbEntity
  8
RACCORDO
100
AcDbLine
 62
250
  6
CONTINUOUS
 10
-10.7831255891
 20
40.3825267709
 11
-10.7835287468
 21
59.3640623736
  0
LINE
  5
2A2
100
AcDbEntity
  8
RACCORDO
100
AcDbLine
 62
250
  6
CONTINUOUS
 10
-10.7136189474
 20
7.3572984225
 11
-10.773732364
 21
30.8052454445
  0
LINE
  5
2A3
100
AcDbEntity
  8
0
100
AcDbLine
 62
7
  6
CONTINUOUS
 10
-2.3775643638
 20
18.8138755551
 11
-2.3898437848
 21
18.6787377834
  0
LWPOLYLINE
  5
2A4
100
AcDbEntity
  8
0
100
AcDbPolyline
 62
7
  6
CONTINUOUS
 90
3
 70
0
 10
-1.3687553592
 20
21.6230402043
 10
-1.3677588538
 20
21.6332265912
 10
-1.3656269977
 20
21.6431641448
  0
LWPOLYLINE
  5
2A5
100
AcDbEntity
  8
0
100
AcDbPolyline
 62
7
  6
CONTINUOUS
 90
3
 70
0
 10
-3.106807154
 20
19.2698666268
 10
-3.1053489668
 20
19.2825906031
 10
-3.1055738689
 20
19.2952051486
  0
LINE
  5
2A6
100
AcDbEntity
  8
0
100
AcDbLine
 62
7
  6
CONTINUOUS
 10
-2.3575195152
 20
18.9442508509
 11
-2.3779500014
 21
18.81054178
  0
LWPOLYLINE
  5
2A7
100
AcDbEntity
  8
0
100
AcDbPolyline
 62
7
  6
CONTINUOUS
 90
4
 70
0
 10
-3.6298366905
 20
16.0999487208
 10
-3.6276818653
 20
16.1133701068
 10
-3.623686791
 20
16.1267036142
 10
-3.6183543135
 20
16.1389455042
  0
LINE
  5
2A8
100
AcDbEntity
  8
0
100
AcDbLine
 62
7
  6
CONTINUOUS
 10
1.808823282
 20
18.1129699608
 11
1.8286044661
 21
18.2125845498
  0
LWPOLYLINE
  5
2A9
100
AcDbEntity
  8
0
100
AcDbPolyline
 62
7
  6
CONTINUOUS
 90
3
 70
0
 10
-0.5674343601
 20
15.5687285734
 10
-0.5693370754
 20
15.5593719337
 10
-0.5701816989
 20
15.5498498708
  0
LWPOLYLINE
  5
2AA
100
AcDbEntity
  8
0
100
AcDbPolyline
 62
7
  6
CONTINUOUS
 90
3
 70
0
 10
0.0268624819
 20
14.4595458861
 10
0.0287651972
 20
14.4689025259
 10
0.0296098207
 20
14.4784245888
  0
LWPOLYLINE
  5
2AB
100
AcDbEntity
  8
0
100
AcDbPolyline
 62
7
  6
CONTINUOUS
 90
3
 70
0
 10
-4.4284657315
 20
19.0773674956
 10
-4.4287756744
 20
19.0870601503
 10
-4.4280021182
 20
19.0967506112
  0
LINE
  5
2AC
100
AcDbEntity
  8
0
100
AcDbLine
 62
7
  6
CONTINUOUS
 10
-2.3935018686
 20
18.5515624011
 11
-2.3889839097
 21
18.4136362155
  0
LINE
  5
2AD
100
AcDbEntity
  8
0
100
AcDbLine
 62
7
  6
CONTINUOUS
 10
-1.3687553592
 20
21.6230404444
 11
-1.3687553592
 21
21.2230648019
  0
LINE
  5
2AE
100
AcDbEntity
  8
0
100
AcDbLine
 62
7
  6
CONTINUOUS
 10
-0.5701816989
 20
15.5498498708
 11
-0.5701816989
 21
14.4784219558
  0
LINE
  5
2AF
100
AcDbEntity
  8
0
100
AcDbLine
 62
7
  6
CONTINUOUS
 10
0.0296098207
 20
14.4784245888
 11
0.0296098207
 21
15.5498525038
  0
LINE
  5
2B0
100
AcDbEntity
  8
0
100
AcDbLine
 62
7
  6
CONTINUOUS
 10
0.1643131431
 20
21.1229845742
 11
0.1643131431
 21
20.420012318
  0
LINE
  5
2B1
100
AcDbEntity
  8
0
100
AcDbLine
 62
7
  6
CONTINUOUS
 10
-3.6298588813
 20
16.0864563118
 11
-3.6298366905
 21
16.0999487208
  0
LINE
  5
2B2
100
AcDbEntity
  8
0
100
AcDbLine
 62
7
  6
CONTINUOUS
 10
-2.3895886677
 20
18.6830018013
 11
-2.3934776719
 21
18.5464136291
  0
LWPOLYLINE
  5
2B3
100
AcDbEntity
  8
0
100
AcDbPolyline
 62
7
  6
CONTINUOUS
 90
11
 70
0
 10
1.8539038666
 20
18.414453581
 10
1.8588898875
 20
18.5157397054
 10
1.8588567611
 20
18.6173184884
 10
1.8538121259
 20
18.7185711288
 10
1.8436266052
 20
18.8195718789
 10
1.8284295756
 20
18.9202464864
 10
1.8086168054
 20
19.0197533931
 10
1.7842204703
 20
19.1179664741
 10
1.7552083946
 20
19.2150118544
 10
1.7218798195
 20
19.3104263509
 10
1.6842572803
 20
19.4042535504
  0
LWPOLYLINE
  5
2B4
100
AcDbEntity
  8
0
100
AcDbPolyline
 62
7
  6
CONTINUOUS
 90
9
 70
0
 10
1.8539197749
 20
18.4146644276
 10
1.8437940263
 20
18.3136116714
 10
1.8286515468
 20
18.2128485278
 10
1.80888564
 20
18.1132487024
 10
1.7845299687
 20
18.014953852
 10
1.7555508703
 20
17.9178223197
 10
1.7222406609
 20
17.82230284
 10
1.6846166914
 20
17.7283396116
 10
1.642661611
 20
17.6359884359
  0
LINE
  5
2B5
100
AcDbEntity
  8
0
100
AcDbLine
 62
7
  6
CONTINUOUS
 10
-2.3893945249
 20
18.4196245427
 11
-2.3764382417
 21
18.2821931595
  0
LWPOLYLINE
  5
2B6
100
AcDbEntity
  8
0
100
AcDbPolyline
 62
7
  6
CONTINUOUS
 90
14
 70
0
 10
-0.5701816989
 20
14.4784219558
 10
-0.5693041883
 20
14.4686355294
 10
-0.5672914747
 20
14.4590043506
 10
-0.5641435581
 20
14.4495284194
 10
-0.5597332238
 20
14.4400793322
 10
-0.5541876865
 20
14.4307854926
 10
-0.5478885904
 20
14.4220321115
 10
-0.5408424607
 20
14.4138523227
 10
-0.5330427721
 20
14.4062129923
 10
-0.5248515932
 20
14.3993999297
 10
-0.5163130735
 20
14.3934316678
 10
-0.5073830635
 20
14.3882896736
 10
-0.4982911823
 20
14.384204158
 10
-0.4893293214
 20
14.3813211363
  0
LWPOLYLINE
  5
2B7
100
AcDbEntity
  8
0
100
AcDbPolyline
 62
7
  6
CONTINUOUS
 90
14
 70
0
 10
0.0296098207
 20
15.5498525038
 10
0.0287323101
 20
15.5596389302
 10
0.0267195965
 20
15.569270109
 10
0.0235716799
 20
15.5787460402
 10
0.0191613456
 20
15.5881951274
 10
0.0136158083
 20
15.5974889669
 10
0.0073167122
 20
15.606242348
 10
0.0002705825
 20
15.6144221369
 10
-0.0075291061
 20
15.6220614672
 10
-0.015720285
 20
15.6288745298
 10
-0.0242588047
 20
15.6348427918
 10
-0.0331888147
 20
15.639984786
 10
-0.0422806959
 20
15.6440703016
 10
-0.0512425568
 20
15.6469533232
  0
LWPOLYLINE
  5
2B8
100
AcDbEntity
  8
0
100
AcDbPolyline
 62
7
  6
CONTINUOUS
 90
13
 70
0
 10
0.1648655004
 20
20.4040894505
 10
0.1662358198
 20
20.3883465452
 10
0.1684241014
 20
20.3727836022
 10
0.1714609551
 20
20.3573751454
 10
0.175315771
 20
20.342146651
 10
0.1798967187
 20
20.3271745466
 10
0.1851886498
 20
20.3124516221
 10
0.1912067128
 20
20.2979850876
 10
0.1979045234
 20
20.2838730021
 10
0.2052717502
 20
20.2701052775
 10
0.2133187247
 20
20.2566920017
 10
0.2220300569
 20
20.2437614982
 10
0.2312946429
 20
20.2314968321
  0
LINE
  5
2B9
100
AcDbEntity
  8
0
100
AcDbLine
 62
7
  6
CONTINUOUS
 10
-1.6095658044
 20
19.3328576009
 11
-1.6102393202
 21
19.3458593624
  0
LINE
  5
2BA
100
AcDbEntity
  8
0
100
AcDbLine
 62
7
  6
CONTINUOUS
 10
0.1643131431
 20
20.420012318
 11
0.1648652782
 21
20.4040958554
  0
LINE
  5
2BB
100
AcDbEntity
  8
0
100
AcDbLine
 62
7
  6
CONTINUOUS
 10
0.7644491725
 20
20.5443804057
 11
0.7644491725
 21
21.4230526141
  0
LINE
  5
2BC
100
AcDbEntity
  8
0
100
AcDbLine
 62
7
  6
CONTINUOUS
 10
-2.3772689446
 20
18.2887954113
 11
-2.3557542061
 21
18.1522654648
  0
LINE
  5
2BD
100
AcDbEntity
  8
0
100
AcDbLine
 62
7
  6
CONTINUOUS
 10
-3.1074603457
 20
19.3076078681
 11
-3.1055300451
 21
19.2950789489
  0
LWPOLYLINE
  5
2BE
100
AcDbEntity
  8
0
100
AcDbPolyline
 62
7
  6
CONTINUOUS
 90
6
 70
0
 10
-2.3541275712
 20
16.4926643737
 10
-2.352677045
 20
16.482122485
 10
-2.3524419732
 20
16.4713978344
 10
-2.3533373417
 20
16.460514229
 10
-2.3553425928
 20
16.4499427673
 10
-2.3585556413
 20
16.4397041793
  0
LINE
  5
2BF
100
AcDbEntity
  8
0
100
AcDbLine
 62
7
  6
CONTINUOUS
 10
-3.628070098
 20
16.0730946976
 11
-3.6298588813
 21
16.0864563118
  0
LINE
  5
2C0
100
AcDbEntity
  8
0
100
AcDbLine
 62
7
  6
CONTINUOUS
 10
-3.6298730346
 20
16.0869468006
 11
-3.6287721125
 21
16.0783385114
  0
LWPOLYLINE
  5
2C1
100
AcDbEntity
  8
0
100
AcDbPolyline
 62
7
  6
CONTINUOUS
 90
14
 70
0
 10
2.5662350028
 20
19.2703849381
 10
2.5654246017
 20
19.2800120085
 10
2.5657372367
 20
19.2897071435
 10
2.5671729079
 20
19.2994703432
 10
2.5698223316
 20
19.309444908
 10
2.5735947914
 20
19.3194875376
 10
2.5782181387
 20
19.3291683302
 10
2.5837015424
 20
19.3384674665
 10
2.5900358335
 20
19.3474047659
 10
2.5969213567
 20
19.355609785
 10
2.6043201191
 20
19.3630546919
 10
2.6122701135
 20
19.3697673185
 10
2.6205856626
 20
19.3754607176
 10
2.6292048739
 20
19.3800392399
  0
LWPOLYLINE
  5
2C2
100
AcDbEntity
  8
0
100
AcDbPolyline
 62
7
  6
CONTINUOUS
 90
14
 70
0
 10
3.8877750969
 20
19.0969208973
 10
3.8885854981
 20
19.0872938279
 10
3.8882728631
 20
19.0775986936
 10
3.8868371919
 20
19.0678354944
 10
3.8841877682
 20
19.0578609297
 10
3.8804153084
 20
19.0478183001
 10
3.8757919611
 20
19.0381375074
 10
3.8703085574
 20
19.0288383711
 10
3.8639742663
 20
19.0199010717
 10
3.8570887431
 20
19.0116960526
 10
3.8496899807
 20
19.0042511457
 10
3.8417399863
 20
18.9975385191
 10
3.8334244372
 20
18.99184512
 10
3.8248052258
 20
18.9872665976
  0
LWPOLYLINE
  5
2C3
100
AcDbEntity
  8
RACCORDO
100
AcDbPolyline
 62
250
  6
CONTINUOUS
 90
10
 70
0
 10
10.2480606805
 20
6.7518997143
 10
10.2483217939
 20
6.7478800168
 10
10.2485836919
 20
6.7442663669
 10
10.2488463745
 20
6.7410602209
 10
10.2491099105
 20
6.7382632215
 10
10.249374231
 20
6.73587602
 10
10.2496391301
 20
6.7338988375
 10
10.2499045391
 20
6.7323327746
 10
10.2501705267
 20
6.7311792488
 10
10.2504370929
 20
6.730439209
  0
LINE
  5
2C4
100
AcDbEntity
  8
RACCORDO
100
AcDbLine
 62
7
  6
CONTINUOUS
 10
10.782751657
 20
58.9038553272
 11
10.782751657
 21
7.1977819698
  0
LINE
  5
2C5
100
AcDbEntity
  8
RACCORDO
100
AcDbLine
 62
250
  6
CONTINUOUS
 10
10.2433013784
 20
59.3640623736
 11
10.2429924633
 21
40.7695731293
  0
LINE
  5
2C6
100
AcDbEntity
  8
RACCORDO
100
AcDbLine
 62
250
  6
CONTINUOUS
 10
10.7431300409
 20
58.8642337111
 11
10.7428211258
 21
40.7653205136
  0
LINE
  5
2C7
100
AcDbEntity
  8
RACCORDO
100
AcDbLine
 62
250
  6
CONTINUOUS
 10
10.2429924633
 20
40.7695731293
 11
10.2336019803
 21
30.8576969553
  0
LINE
  5
2C8
100
AcDbEntity
  8
RACCORDO
100
AcDbLine
 62
250
  6
CONTINUOUS
 10
10.7428211258
 20
40.7653205136
 11
10.7334306428
 21
30.8227058078
  0
LINE
  5
2C9
100
AcDbEntity
  8
RACCORDO
100
AcDbLine
 62
250
  6
CONTINUOUS
 10
10.2336019803
 20
30.8576969553
 11
10.2183608487
 21
24.2602550265
  0
LINE
  5
2CA
100
AcDbEntity
  8
RACCORDO
100
AcDbLine
 62
250
  6
CONTINUOUS
 10
10.7334306428
 20
30.8227058078
 11
10.7181895113
 21
24.2097551835
  0
LINE
  5
2CB
100
AcDbEntity
  8
RACCORDO
100
AcDbLine
 62
250
  6
CONTINUOUS
 10
10.2183608487
 20
24.2602550265
 11
10.173391579
 21
7.3572984225
  0
LINE
  5
2CC
100
AcDbEntity
  8
RACCORDO
100
AcDbLine
 62
250
  6
CONTINUOUS
 10
10.7181895113
 20
24.2097551835
 11
10.6732202415
 21
7.8463968323
  0
LWPOLYLINE
  5
2CD
100
AcDbEntity
  8
RACCORDO
100
AcDbPolyline
 62
250
  6
CONTINUOUS
 90
16
 70
0
 10
10.7502657553
 20
7.2302678715
 10
10.7474942425
 20
7.1780442455
 10
10.7392816135
 20
7.1263922938
 10
10.7257177691
 20
7.0758774329
 10
10.7069511882
 20
7.0270526318
 10
10.6831873022
 20
6.980452359
 10
10.6546862463
 20
6.9365867321
 10
10.6217600119
 20
6.895935933
 10
10.5847690313
 20
6.8589449524
 10
10.5441182323
 20
6.826018718
 10
10.5002526053
 20
6.7975176621
 10
10.4536523326
 20
6.7737537761
 10
10.4048275315
 20
6.7549871952
 10
10.3543126705
 20
6.7414233508
 10
10.3026607189
 20
6.7332107218
 10
10.2504370929
 20
6.730439209
  0
LWPOLYLINE
  5
2CE
100
AcDbEntity
  8
RACCORDO
100
AcDbPolyline
 62
250
  6
CONTINUOUS
 90
16
 70
0
 10
10.747889343
 20
7.2409981241
 10
10.7448870767
 20
7.1900489846
 10
10.7364790592
 20
7.1396541969
 10
10.7227567736
 20
7.090362085
 10
10.7038695249
 20
7.042708975
 10
10.680022816
 20
6.9972133602
 10
10.6514761119
 20
6.9543702594
 10
10.6185400159
 20
6.9146458304
 10
10.5815728909
 20
6.8784722984
 10
10.5409769599
 20
6.8462432531
 10
10.4971939293
 20
6.8183093656
 10
10.4507001833
 20
6.7949745735
 10
10.402001601
 20
6.7764927737
 10
10.3516280509
 20
6.7630650596
 10
10.300127626
 20
6.7548375328
 10
10.2480606805
 20
6.7518997143
  0
LWPOLYLINE
  5
2CF
100
AcDbEntity
  8
RACCORDO
100
AcDbPolyline
 62
250
  6
CONTINUOUS
 90
16
 70
0
 10
10.6732202415
 20
7.8463968323
 10
10.6702038572
 20
7.7953224485
 10
10.6617551938
 20
7.7448065238
 10
10.6479666304
 20
7.6954014131
 10
10.6289869172
 20
7.6476429403
 10
10.6050246664
 20
7.6020581021
 10
10.5763506417
 20
7.5591570817
 10
10.5432887465
 20
7.51941354
 10
10.5061985862
 20
7.4832502666
 10
10.4654760634
 20
7.4510501553
 10
10.4215117641
 20
7.4231342891
 10
10.3748328582
 20
7.3998487573
 10
10.3261128289
 20
7.3815003355
 10
10.2759558827
 20
7.3682515984
 10
10.2248637959
 20
7.3601724767
 10
10.173391579
 20
7.3572984225
  0
LINE
  5
2D0
100
AcDbEntity
  8
0
100
AcDbLine
 62
7
  6
CONTINUOUS
 10
-2.3288239261
 20
18.0307094963
 11
-2.2905655452
 21
17.8976577532
  0
LINE
  5
2D1
100
AcDbEntity
  8
0
100
AcDbLine
 62
7
  6
CONTINUOUS
 10
-3.6248211832
 20
16.0602955756
 11
-3.6266325143
 21
16.0673731863
  0
LINE
  5
2D2
100
AcDbEntity
  8
0
100
AcDbLine
 62
7
  6
CONTINUOUS
 10
-3.628070098
 20
16.0730946976
 11
-3.6249133155
 21
16.0605308609
  0
LINE
  5
2D3
100
AcDbEntity
  8
0
100
AcDbLine
 62
7
  6
CONTINUOUS
 10
-2.3570555536
 20
18.1591980903
 11
-2.3270182645
 21
18.0236721275
  0
LWPOLYLINE
  5
2D4
100
AcDbEntity
  8
0
100
AcDbPolyline
 62
7
  6
CONTINUOUS
 90
3
 70
0
 10
-1.365935283
 20
21.2039224528
 10
-1.3678812143
 20
21.2134026697
 10
-1.3687553592
 20
21.2230650004
  0
LINE
  5
2D5
100
AcDbEntity
  8
0
100
AcDbLine
 62
7
  6
CONTINUOUS
 10
2.5662348769
 20
19.2703856519
 11
2.6358262682
 21
18.8760918527
  0
LINE
  5
2D6
100
AcDbEntity
  8
0
100
AcDbLine
 62
7
  6
CONTINUOUS
 10
3.8877752228
 20
19.0969201826
 11
3.8190103231
 21
19.4871337008
  0
LWPOLYLINE
  5
2D7
100
AcDbEntity
  8
0
100
AcDbPolyline
 62
7
  6
CONTINUOUS
 90
3
 70
0
 10
0.7580303669
 20
21.483811933
 10
0.7628452029
 20
21.4536637245
 10
0.7644491725
 20
21.4230526161
  0
LWPOLYLINE
  5
2D8
100
AcDbEntity
  8
RACCORDO
100
AcDbPolyline
 62
250
  6
CONTINUOUS
 90
16
 70
0
 10
10.7431300409
 20
58.8642337111
 10
10.7403417058
 20
58.91661618
 10
10.7320792341
 20
58.9684215657
 10
10.718433677
 20
59.0190793198
 10
10.6995528815
 20
59.0680371071
 10
10.6756461603
 20
59.1147496733
 10
10.6469876944
 20
59.1586876922
 10
10.613905637
 20
59.1993619905
 10
10.5767623689
 20
59.2363390842
 10
10.5359565227
 20
59.2692265831
 10
10.4918727338
 20
59.2977003293
 10
10.4450519572
 20
59.3213977884
 10
10.3962051437
 20
59.3399956629
 10
10.3459559052
 20
59.3533369014
 10
10.2948017272
 20
59.3613668104
 10
10.2433013782
 20
59.3640623734
  0
LWPOLYLINE
  5
2D9
100
AcDbEntity
  8
0
100
AcDbPolyline
 62
7
  6
CONTINUOUS
 90
7
 70
0
 43
0.3500000006
 10
18.8801550865
 20
32.4079629822
 10
18.8801550865
 20
30.9079625244
 10
16.7372977753
 20
32.4079629822
 10
16.3087265396
 20
32.4079629822
 10
15.880155304
 20
31.9793894806
 10
15.880155304
 20
31.3365314941
 10
16.5230121574
 20
30.9079625244
  0
LWPOLYLINE
  5
2DA
100
AcDbEntity
  8
0
100
AcDbPolyline
 62
7
  6
CONTINUOUS
 90
8
 70
0
 43
0.3500000006
 10
18.8801550865
 20
28.7651040802
 10
18.8801550865
 20
29.6222465515
 10
18.4515838509
 20
30.0508200531
 10
17.5944413795
 20
30.0508200531
 10
17.1658690109
 20
29.6222465515
 10
17.1658690109
 20
28.7651040802
 10
15.880155304
 20
28.7651040802
 10
15.880155304
 20
30.0508200531
  0
LINE
  5
2DB
100
AcDbEntity
  8
0
100
AcDbLine
 62
7
  6
CONTINUOUS
 10
-2.2488043539
 20
17.7806068245
 11
-2.1943121822
 21
17.6531642586
  0
LINE
  5
2DC
100
AcDbEntity
  8
0
100
AcDbLine
 62
7
  6
CONTINUOUS
 10
-3.6249133155
 20
16.0605308609
 11
-3.6205234166
 21
16.0493200483
  0
LWPOLYLINE
  5
2DD
100
AcDbEntity
  8
0
100
AcDbPolyline
 62
7
  6
CONTINUOUS
 90
9
 70
0
 10
-4.4246690554
 20
19.0583407029
 10
-4.4211262623
 20
19.0486358799
 10
-4.4167056181
 20
19.0391778116
 10
-4.4113968209
 20
19.0299188193
 10
-4.4052101727
 20
19.0209065816
 10
-4.3983638137
 20
19.0125456829
 10
-4.3908255693
 20
19.0048244814
 10
-4.3826276142
 20
18.9977546189
 10
-4.3740846126
 20
18.991775605
  0
LINE
  5
2DE
100
AcDbEntity
  8
0
100
AcDbLine
 62
7
  6
CONTINUOUS
 10
-2.2927850931
 20
17.9045675637
 11
-2.2462972526
 21
17.7741215244
  0
LWPOLYLINE
  5
2DF
100
AcDbEntity
  8
0
100
AcDbPolyline
 62
7
  6
CONTINUOUS
 90
6
 70
0
 10
1.8178955826
 20
16.4391057463
 10
1.8146316587
 20
16.449243092
 10
1.8125396861
 20
16.4597773028
 10
1.8115394354
 20
16.4706692185
 10
1.8116945434
 20
16.4814464623
 10
1.8131067391
 20
16.4921058
  0
LWPOLYLINE
  5
2E0
100
AcDbEntity
  8
0
100
AcDbPolyline
 62
7
  6
CONTINUOUS
 90
6
 70
0
 10
3.0830644479
 20
16.1271722316
 10
3.0863283718
 20
16.1170348859
 10
3.0884203444
 20
16.106500675
 10
3.0894205951
 20
16.0956087593
 10
3.0892654871
 20
16.0848315156
 10
3.0878532914
 20
16.0741721778
  0
LINE
  5
2E1
100
AcDbEntity
  8
0
100
AcDbLine
 62
7
  6
CONTINUOUS
 10
2.6358262682
 20
18.8760918527
 11
2.6385201949
 21
18.8648669654
  0
LINE
  5
2E2
100
AcDbEntity
  8
0
100
AcDbLine
 62
7
  6
CONTINUOUS
 10
2.638067392
 20
18.8661946471
 11
2.6358262705
 21
18.8760918396
  0
LWPOLYLINE
  5
2E3
100
AcDbEntity
  8
RACCORDO
100
AcDbPolyline
 62
250
  6
CONTINUOUS
 90
10
 70
0
 10
10.747889343
 20
7.2409981241
 10
10.7481504441
 20
7.2389872024
 10
10.748412336
 20
7.2371806202
 10
10.7486750187
 20
7.2355783774
 10
10.7489385649
 20
7.2341800362
 10
10.7492029018
 20
7.2329860344
 10
10.7494678112
 20
7.2319976857
 10
10.7497332202
 20
7.2312154279
 10
10.7499992016
 20
7.2306388232
 10
10.7502657553
 20
7.2302678715
  0
LINE
  5
2E4
100
AcDbEntity
  8
RACCORDO
100
AcDbLine
 62
250
  6
CONTINUOUS
 10
10.173391579
 20
7.3572984225
 11
10.2480606805
 21
6.7518997143
  0
LINE
  5
2E5
100
AcDbEntity
  8
RACCORDO
100
AcDbLine
 62
250
  6
CONTINUOUS
 10
10.6732202415
 20
7.8463968323
 11
10.747889343
 21
7.2409981241
  0
LWPOLYLINE
  5
2E6
100
AcDbEntity
  8
0
100
AcDbPolyline
 62
7
  6
CONTINUOUS
 90
4
 70
0
 10
-3.1234291044
 20
19.3447205501
 10
-3.1166087043
 20
19.3332030465
 10
-3.1111782359
 20
19.3204312274
 10
-3.1074727813
 20
19.3076507598
  0
LINE
  5
2E7
100
AcDbEntity
  8
0
100
AcDbLine
 62
7
  6
CONTINUOUS
 10
-2.1380363925
 20
17.54145967
 11
-2.0690717106
 21
17.4238670491
  0
LWPOLYLINE
  5
2E8
100
AcDbEntity
  8
0
100
AcDbPolyline
 62
7
  6
CONTINUOUS
 90
5
 70
0
 10
1.6423182416
 20
19.4964498662
 10
1.5962943386
 20
19.5864213549
 10
1.5462036949
 20
19.6741963734
 10
1.4920281867
 20
19.7597465648
 10
1.4339450778
 20
19.8423929159
  0
LINE
  5
2E9
100
AcDbEntity
  8
0
100
AcDbLine
 62
7
  6
CONTINUOUS
 10
-2.1970164091
 20
17.6589927469
 11
-2.1352418483
 21
17.5363330131
  0
LWPOLYLINE
  5
2EA
100
AcDbEntity
  8
0
100
AcDbPolyline
 62
7
  6
CONTINUOUS
 90
3
 70
0
 10
-1.6166525809
 20
19.3707393311
 10
-1.6223923258
 20
19.3826175384
 10
-1.6294265996
 20
19.393441308
  0
LINE
  5
2EB
100
AcDbEntity
  8
0
100
AcDbLine
 62
7
  6
CONTINUOUS
 10
1.6423167995
 20
19.496452563
 11
1.6842555396
 21
19.4042567609
  0
LWPOLYLINE
  5
2EC
100
AcDbEntity
  8
0
100
AcDbPolyline
 62
7
  6
CONTINUOUS
 90
11
 70
0
 10
2.6388245808
 20
18.8635986687
 10
2.6433674864
 20
18.8517888299
 10
2.649454985
 20
18.8406623362
 10
2.6572624032
 20
18.8299430332
 10
2.6666144144
 20
18.8199070752
 10
2.6769850385
 20
18.8113829263
 10
2.6884939917
 20
18.80459797
 10
2.7010215577
 20
18.7993248226
 10
2.7136826077
 20
18.7957097966
 10
2.7261820987
 20
18.7938016628
 10
2.7388150736
 20
18.7935516505
  0
LWPOLYLINE
  5
2ED
100
AcDbEntity
  8
0
100
AcDbPolyline
 62
7
  6
CONTINUOUS
 90
3
 70
0
 10
0.738629934
 20
21.5432541351
 10
0.7500046645
 20
21.5134972414
 10
0.7580249927
 20
21.4838318111
  0
LWPOLYLINE
  5
2EE
100
AcDbEntity
  8
0
100
AcDbPolyline
 62
7
  6
CONTINUOUS
 90
7
 70
0
 10
0.7499939855
 20
21.513530566
 10
0.7386129493
 20
21.5432929457
 10
0.7240201269
 20
21.5725895974
 10
0.7066327226
 20
21.5998169654
 10
0.6862552903
 20
21.6247133467
 10
0.6630832762
 20
21.6475404443
 10
0.6381202228
 20
21.6674798121
  0
LINE
  5
2EF
100
AcDbEntity
  8
0
100
AcDbLine
 62
7
  6
CONTINUOUS
 10
-1.9185590446
 20
17.2150807825
 11
-1.8298821477
 21
17.1135669669
  0
LINE
  5
2F0
100
AcDbEntity
  8
0
100
AcDbLine
 62
7
  6
CONTINUOUS
 10
-2.3757573868
 20
16.5385929315
 11
-2.6327616928
 21
16.844862138
  0
LINE
  5
2F1
100
AcDbEntity
  8
0
100
AcDbLine
 62
7
  6
CONTINUOUS
 10
-3.606690841
 20
16.0276849642
 11
-3.3496866039
 21
15.7212435849
  0
LINE
  5
2F2
100
AcDbEntity
  8
0
100
AcDbLine
 62
7
  6
CONTINUOUS
 10
-3.1321515298
 20
19.3552882214
 11
-3.1234291044
 21
19.3447205501
  0
LINE
  5
2F3
100
AcDbEntity
  8
0
100
AcDbLine
 62
7
  6
CONTINUOUS
 10
-1.9984087446
 20
17.3191563251
 11
-1.9161507801
 21
17.2121424562
  0
LWPOLYLINE
  5
2F4
100
AcDbEntity
  8
0
100
AcDbPolyline
 62
7
  6
CONTINUOUS
 90
5
 70
0
 10
-2.3757574748
 20
16.5385930364
 10
-2.3696708475
 20
16.5305778599
 10
-2.3644801757
 20
16.5220040506
 10
-2.3601854596
 20
16.5128716084
 10
-2.3567085376
 20
16.5030473074
  0
LWPOLYLINE
  5
2F5
100
AcDbEntity
  8
0
100
AcDbPolyline
 62
7
  6
CONTINUOUS
 90
3
 70
0
 10
-3.6066908509
 20
16.027684976
 10
-3.6141662155
 20
16.0376738825
 10
-3.6201944902
 20
16.0484848094
  0
LINE
  5
2F6
100
AcDbEntity
  8
0
100
AcDbLine
 62
7
  6
CONTINUOUS
 10
-2.368159475
 20
16.5282973383
 11
-2.3757573868
 21
16.5385929315
  0
LINE
  5
2F7
100
AcDbEntity
  8
0
100
AcDbLine
 62
7
  6
CONTINUOUS
 10
-2.0718186045
 20
17.4282674972
 11
-1.9958163095
 21
17.3155271054
  0
LWPOLYLINE
  5
2F8
100
AcDbEntity
  8
0
100
AcDbPolyline
 62
7
  6
CONTINUOUS
 90
4
 70
0
 10
2.6509774445
 20
18.8383455819
 10
2.6456114417
 20
18.8474003437
 10
2.6413291157
 20
18.8566308151
 10
2.6385201949
 20
18.8648669654
  0
LWPOLYLINE
  5
2F9
100
AcDbEntity
  8
0
100
AcDbPolyline
 62
7
  6
CONTINUOUS
 90
9
 70
0
 10
-1.3589611394
 20
21.1858533087
 10
-1.3538134122
 20
21.1769067861
 10
-1.3478402309
 20
21.1683535802
 10
-1.3410232023
 20
21.1601487467
 10
-1.3333807198
 20
21.1523372297
 10
-1.3251990681
 20
21.1452818409
 10
-1.3164443923
 20
21.1389764522
 10
-1.3071505474
 20
21.1334271916
 10
-1.2977053835
 20
21.129015254
  0
LWPOLYLINE
  5
2FA
100
AcDbEntity
  8
0
100
AcDbPolyline
 62
7
  6
CONTINUOUS
 90
3
 70
0
 10
-3.3353161197
 20
15.708438882
 10
-3.3428448461
 20
15.7144214917
 10
-3.3496867917
 20
15.7212438089
  0
LWPOLYLINE
  5
2FB
100
AcDbEntity
  8
0
100
AcDbPolyline
 62
7
  6
CONTINUOUS
 90
3
 70
0
 10
-2.647132177
 20
16.8576668409
 10
-2.6396034504
 20
16.8516842311
 10
-2.6327615046
 20
16.8448619138
  0
LINE
  5
2FC
100
AcDbEntity
  8
0
100
AcDbLine
 62
7
  6
CONTINUOUS
 10
-1.2873896856
 20
17.4214200999
 11
-1.2045798128
 21
17.352774735
  0
LINE
  5
2FD
100
AcDbEntity
  8
0
100
AcDbLine
 62
7
  6
CONTINUOUS
 10
-1.7391558217
 20
17.0218192819
 11
-1.6393685587
 21
16.9325495488
  0
LWPOLYLINE
  5
2FE
100
AcDbEntity
  8
0
100
AcDbPolyline
 62
7
  6
CONTINUOUS
 90
5
 70
0
 10
1.8472434505
 20
16.3976884452
 10
1.8398396607
 20
16.4044993844
 10
1.8332232673
 20
16.4120229245
 10
1.8273942705
 20
16.4202590652
 10
1.8222512283
 20
16.4293261054
  0
LINE
  5
2FF
100
AcDbEntity
  8
0
100
AcDbLine
 62
7
  6
CONTINUOUS
 10
-3.1421360614
 20
19.3644838514
 11
-3.1321515298
 21
19.3552882214
  0
LINE
  5
300
100
AcDbEntity
  8
0
100
AcDbLine
 62
7
  6
CONTINUOUS
 10
-3.1318595336
 20
19.3549617847
 11
-3.1419148868
 21
19.3643224822
  0
LINE
  5
301
100
AcDbEntity
  8
0
100
AcDbLine
 62
7
  6
CONTINUOUS
 10
1.8379494814
 20
16.4064779595
 11
1.8472433412
 21
16.3976885369
  0
LINE
  5
302
100
AcDbEntity
  8
0
100
AcDbLine
 62
7
  6
CONTINUOUS
 10
3.0630105491
 20
16.1598000184
 11
3.0537166893
 21
16.168589441
  0
LINE
  5
303
100
AcDbEntity
  8
0
100
AcDbLine
 62
7
  6
CONTINUOUS
 10
-1.2957473706
 20
17.428926726
 11
-1.3765366684
 21
17.5074298087
  0
LINE
  5
304
100
AcDbEntity
  8
RACCORDO
100
AcDbLine
 62
250
  6
CONTINUOUS
 10
10.2504370929
 20
6.730439209
 11
10.2829229945
 21
6.6979533074
  0
LINE
  5
305
100
AcDbEntity
  8
RACCORDO
100
AcDbLine
 62
250
  6
CONTINUOUS
 10
10.7502657553
 20
7.2302678715
 11
10.782751657
 21
7.1977819698
  0
LINE
  5
306
100
AcDbEntity
  8
0
100
AcDbLine
 62
7
  6
CONTINUOUS
 10
0.2521348103
 20
20.207994944
 11
0.8119912197
 21
19.647966271
  0
LINE
  5
307
100
AcDbEntity
  8
0
100
AcDbLine
 62
7
  6
CONTINUOUS
 10
-1.8320773532
 20
17.1159322174
 11
-1.7372033872
 21
17.019946772
  0
LWPOLYLINE
  5
308
100
AcDbEntity
  8
0
100
AcDbPolyline
 62
7
  6
CONTINUOUS
 90
18
 70
0
 10
0.811991309
 20
19.6479661818
 10
0.888779068
 20
19.5650921109
 10
0.9586999586
 20
19.4778688473
 10
1.0217538915
 20
19.3862964804
 10
1.0782379662
 20
19.2898362284
 10
1.1278550832
 20
19.189026873
 10
1.1697139439
 20
19.0854847596
 10
1.2036192699
 20
18.9792045171
 10
1.2297663395
 20
18.8701915165
 10
1.2478496901
 20
18.7600782166
 10
1.257771454
 20
18.6488222367
 10
1.2596294988
 20
18.5364659574
 10
1.2534119648
 20
18.4247689782
 10
1.239039139
 20
18.3137181298
 10
1.2165907345
 20
18.2033265815
 10
1.1862940306
 20
18.0953934415
 10
1.1479885611
 20
17.9899302824
 10
1.1018347923
 20
17.8869255315
  0
LWPOLYLINE
  5
309
100
AcDbEntity
  8
0
100
AcDbPolyline
 62
7
  6
CONTINUOUS
 90
3
 70
0
 10
-1.4372338871
 20
17.5748166639
 10
-1.3649106587
 20
17.4953771835
 10
-1.2873896856
 20
17.4214200999
  0
LWPOLYLINE
  5
30A
100
AcDbEntity
  8
0
100
AcDbPolyline
 62
7
  6
CONTINUOUS
 90
17
 70
0
 10
-1.3765366684
 20
17.5074298087
 10
-1.4517233486
 20
17.5920273847
 10
-1.5201078326
 20
17.6813996062
 10
-1.5815777664
 20
17.7756342185
 10
-1.636245504
 20
17.8746434763
 10
-1.68324853
 20
17.9768442957
 10
-1.7224463388
 20
18.082291185
 10
-1.753979436
 20
18.190929636
 10
-1.7774068228
 20
18.3010130399
 10
-1.7926305788
 20
18.4125510662
 10
-1.7997486244
 20
18.5255340454
 10
-1.7986137219
 20
18.6381863593
 10
-1.7890753593
 20
18.7505596387
 10
-1.7712840485
 20
18.8626022529
 10
-1.7455440883
 20
18.9723836908
 10
-1.7119569117
 20
19.0792604488
 10
-1.6704210856
 20
19.1838760307
  0
LWPOLYLINE
  5
30B
100
AcDbEntity
  8
0
100
AcDbPolyline
 62
7
  6
CONTINUOUS
 90
3
 70
0
 10
0.2314006169
 20
20.2313565413
 10
0.2414355347
 20
20.2194343566
 10
0.2521348103
 20
20.207994944
  0
LINE
  5
30C
100
AcDbEntity
  8
0
100
AcDbLine
 62
7
  6
CONTINUOUS
 10
0.9522527819
 20
19.4864929618
 11
0.8852119267
 21
19.5692412362
  0
LWPOLYLINE
  5
30D
100
AcDbEntity
  8
0
100
AcDbPolyline
 62
7
  6
CONTINUOUS
 90
4
 70
0
 10
1.4339423017
 20
19.8423964803
 10
1.3720134559
 20
19.9219090889
 10
1.3061742332
 20
19.9985214215
 10
1.2364274097
 20
20.0722299137
  0
LWPOLYLINE
  5
30E
100
AcDbEntity
  8
RACCORDO
100
AcDbPolyline
 62
250
  6
CONTINUOUS
 90
16
 70
0
 10
10.6732202415
 20
7.8463968323
 10
10.6692176094
 20
7.8517846966
 10
10.6599352112
 20
7.8571151774
 10
10.6454719221
 20
7.862331514
 10
10.625979887
 20
7.8673785893
 10
10.6016677589
 20
7.8722021953
 10
10.5728025512
 20
7.8767498213
 10
10.539700818
 20
7.8809726203
 10
10.502713371
 20
7.8848267323
 10
10.4622261837
 20
7.8882722673
 10
10.4186178435
 20
7.891275829
 10
10.3723980049
 20
7.8938012197
 10
10.3242180444
 20
7.8958158859
 10
10.2746603578
 20
7.8973021814
 10
10.2242069592
 20
7.898252119
 10
10.173391579
 20
7.8986610639
  0
LINE
  5
30F
100
AcDbEntity
  8
RACCORDO
100
AcDbLine
 62
7
  6
CONTINUOUS
 10
-10.8231503629
 20
6.6979533074
 11
10.2829229945
 21
6.6979533074
  0
LINE
  5
310
100
AcDbEntity
  8
RACCORDO
100
AcDbLine
 62
250
  6
CONTINUOUS
 10
10.2504370929
 20
6.730439209
 11
-10.7906644613
 21
6.730439209
  0
LINE
  5
311
100
AcDbEntity
  8
RACCORDO
100
AcDbLine
 62
250
  6
CONTINUOUS
 10
10.2480606805
 20
6.7518997143
 11
-10.788288049
 21
6.7518997143
  0
LINE
  5
312
100
AcDbEntity
  8
RACCORDO
100
AcDbLine
 62
250
  6
CONTINUOUS
 10
-10.7136189474
 20
7.3572984225
 11
10.173391579
 21
7.3572984225
  0
LINE
  5
313
100
AcDbEntity
  8
RACCORDO
100
AcDbLine
 62
250
  6
CONTINUOUS
 10
-10.7136189474
 20
7.8986610639
 11
10.173391579
 21
7.8986610639
  0
LWPOLYLINE
  5
314
100
AcDbEntity
  8
0
100
AcDbPolyline
 62
7
  6
CONTINUOUS
 90
20
 70
0
 10
-1.0255589421
 20
17.2340836685
 10
-0.9293479443
 20
17.1840379668
 10
-0.8305515211
 20
17.141133901
 10
-0.7293862757
 20
17.1056127075
 10
-0.6256356049
 20
17.0772331499
 10
-0.5204349746
 20
17.0562083967
 10
-0.4134990348
 20
17.0425580077
 10
-0.3051131355
 20
17.0362624231
 10
-0.197268792
 20
17.0374761318
 10
-0.090248789
 20
17.0463004926
 10
0.0162296582
 20
17.0626341466
 10
0.1210233879
 20
17.0863275061
 10
0.224447342
 20
17.1175695548
 10
0.3261865786
 20
17.156171309
 10
0.4241531104
 20
17.2014162289
 10
0.5179341683
 20
17.2533136667
 10
0.6079425214
 20
17.3118542702
 10
0.6933284906
 20
17.3762934436
 10
0.7742571164
 20
17.4468576518
 10
0.8505633581
 20
17.52332043
  0
LINE
  5
315
100
AcDbEntity
  8
0
100
AcDbLine
 62
7
  6
CONTINUOUS
 10
-1.3176868408
 20
16.7098102619
 11
-1.1993728644
 21
16.6481360124
  0
LWPOLYLINE
  5
316
100
AcDbEntity
  8
0
100
AcDbPolyline
 62
7
  6
CONTINUOUS
 90
3
 70
0
 10
2.6846088993
 20
15.6989226911
 10
2.6761434898
 20
15.7034961905
 10
2.6682099508
 20
15.7090136512
  0
LWPOLYLINE
  5
317
100
AcDbEntity
  8
0
100
AcDbPolyline
 62
7
  6
CONTINUOUS
 90
9
 70
0
 10
-0.5077705577
 20
14.3884868436
 10
-0.5167494786
 20
14.3937112457
 10
-0.525314944
 20
14.3997548993
 10
-0.5335104795
 20
14.4066391661
 10
-0.5412925596
 20
14.4143426843
 10
-0.5482985025
 20
14.4225527379
 10
-0.5545232743
 20
14.4312910947
 10
-0.5599719089
 20
14.4405359868
 10
-0.5642968267
 20
14.4499093946
  0
LWPOLYLINE
  5
318
100
AcDbEntity
  8
0
100
AcDbPolyline
 62
7
  6
CONTINUOUS
 90
9
 70
0
 10
-0.0328013205
 20
15.639787616
 10
-0.0238223996
 20
15.6345632139
 10
-0.0152569342
 20
15.6285195602
 10
-0.0070613987
 20
15.6216352935
 10
0.0007206814
 20
15.6139317753
 10
0.0077266243
 20
15.6057217217
 10
0.0139513961
 20
15.5969833649
 10
0.0194000307
 20
15.5877384727
 10
0.0237249485
 20
15.5783650649
  0
LINE
  5
319
100
AcDbEntity
  8
0
100
AcDbLine
 62
7
  6
CONTINUOUS
 10
-1.4299888583
 20
16.7777576711
 11
-1.3161817257
 21
16.7089633861
  0
LINE
  5
31A
100
AcDbEntity
  8
0
100
AcDbLine
 62
7
  6
CONTINUOUS
 10
-1.5381115743
 20
16.8527320087
 11
-1.4284616458
 21
16.7767637394
  0
LWPOLYLINE
  5
31B
100
AcDbEntity
  8
0
100
AcDbPolyline
 62
7
  6
CONTINUOUS
 90
3
 70
0
 10
-1.1173992399
 20
17.2903341287
 10
-1.2092555781
 20
17.3565502355
 10
-1.2957473706
 20
17.428926726
  0
LINE
  5
31C
100
AcDbEntity
  8
0
100
AcDbLine
 62
7
  6
CONTINUOUS
 10
-3.1529809756
 20
19.372357578
 11
-3.1421360614
 21
19.3644838514
  0
LINE
  5
31D
100
AcDbEntity
  8
0
100
AcDbLine
 62
7
  6
CONTINUOUS
 10
-1.6411231361
 20
16.9340225601
 11
-1.5364931362
 21
16.8515451583
  0
LINE
  5
31E
100
AcDbEntity
  8
0
100
AcDbLine
 62
7
  6
CONTINUOUS
 10
1.8472433412
 20
16.3976885369
 11
2.6682102979
 21
15.70901336
  0
LINE
  5
31F
100
AcDbEntity
  8
0
100
AcDbLine
 62
7
  6
CONTINUOUS
 10
3.0537166893
 20
16.168589441
 11
2.2327497326
 21
16.8572646179
  0
LWPOLYLINE
  5
320
100
AcDbEntity
  8
0
100
AcDbPolyline
 62
7
  6
CONTINUOUS
 90
5
 70
0
 10
3.05371658
 20
16.1685895327
 10
3.0611203698
 20
16.1617785934
 10
3.0677367632
 20
16.1542550534
 10
3.07356576
 20
16.1460189126
 10
3.0787088022
 20
16.1369518725
  0
LINE
  5
321
100
AcDbEntity
  8
0
100
AcDbLine
 62
7
  6
CONTINUOUS
 10
1.2364274097
 20
20.0722299137
 11
0.7644491725
 21
20.5443804057
  0
LWPOLYLINE
  5
322
100
AcDbEntity
  8
RACCORDO
100
AcDbPolyline
 62
250
  6
CONTINUOUS
 90
16
 70
0
 10
10.7142785461
 20
22.764476882
 10
10.7102922248
 20
22.7698515738
 10
10.7010517936
 20
22.7751693135
 10
10.6866551669
 20
22.7803737527
 10
10.6672548964
 20
22.7854097434
 10
10.6430565536
 20
22.7902239225
 10
10.6143165523
 20
22.7947652775
 10
10.5813394311
 20
22.7989856865
 10
10.5444746264
 20
22.8028404288
 10
10.50411277
 20
22.8062886582
 10
10.4606815496
 20
22.8092938362
 10
10.4146411766
 20
22.8118241188
 10
10.3664795103
 20
22.8138526945
 10
10.3167068876
 20
22.8153580676
 10
10.2658507157
 20
22.8163242868
 10
10.2144498836
 20
22.8167411136
  0
LINE
  5
323
100
AcDbEntity
  8
0
100
AcDbLine
 62
7
  6
CONTINUOUS
 10
0.212630388
 20
16.4913256333
 11
0.3419412402
 21
16.5255557673
  0
LINE
  5
324
100
AcDbEntity
  8
0
100
AcDbLine
 62
7
  6
CONTINUOUS
 10
0.0836415862
 20
16.4656851833
 11
0.2148485906
 21
16.491838211
  0
LINE
  5
325
100
AcDbEntity
  8
0
100
AcDbLine
 62
7
  6
CONTINUOUS
 10
2.7515815324
 20
18.7949597595
 11
3.8064705333
 21
18.9811673052
  0
LINE
  5
326
100
AcDbEntity
  8
0
100
AcDbLine
 62
7
  6
CONTINUOUS
 10
-0.0470973008
 20
16.4479627123
 11
0.0860420399
 21
16.4660894158
  0
LWPOLYLINE
  5
327
100
AcDbEntity
  8
0
100
AcDbPolyline
 62
7
  6
CONTINUOUS
 90
14
 70
0
 10
-0.0702957515
 20
14.3785166934
 10
-0.0605406158
 20
14.3793849043
 10
-0.0509334794
 20
14.3813878552
 10
-0.0414743421
 20
14.3845255461
 10
-0.0320335077
 20
14.3889241871
 10
-0.0227406726
 20
14.3944575682
 10
-0.0139849252
 20
14.4007470588
 10
-0.0058000039
 20
14.4077868331
 10
0.0018478296
 20
14.4155827171
 10
0.0086707016
 20
14.4237735579
 10
0.0146503642
 20
14.4323154828
 10
0.0198050654
 20
14.4412523646
 10
0.0239016746
 20
14.4503546694
 10
0.0267907537
 20
14.4593232208
  0
LWPOLYLINE
  5
328
100
AcDbEntity
  8
0
100
AcDbPolyline
 62
7
  6
CONTINUOUS
 90
14
 70
0
 10
-0.4702761267
 20
15.6497577661
 10
-0.4800312624
 20
15.6488895552
 10
-0.4896383988
 20
15.6468866044
 10
-0.4990975361
 20
15.6437489135
 10
-0.5085383705
 20
15.6393502724
 10
-0.5178312056
 20
15.6338168914
 10
-0.526586953
 20
15.6275274007
 10
-0.5347718743
 20
15.6204876264
 10
-0.5424197078
 20
15.6126917425
 10
-0.5492425798
 20
15.6045009016
 10
-0.5552222424
 20
15.5959589768
 10
-0.5603769436
 20
15.587022095
 10
-0.5644735528
 20
15.5779197901
 10
-0.5673626319
 20
15.5689512388
  0
LINE
  5
329
100
AcDbEntity
  8
0
100
AcDbLine
 62
7
  6
CONTINUOUS
 10
-0.1782858829
 20
16.4382863499
 11
-0.0445648181
 21
16.448225091
  0
LINE
  5
32A
100
AcDbEntity
  8
0
100
AcDbLine
 62
7
  6
CONTINUOUS
 10
-0.31006934
 20
16.4367214875
 11
-0.1756854092
 21
16.4384005552
  0
LINE
  5
32B
100
AcDbEntity
  8
0
100
AcDbLine
 62
7
  6
CONTINUOUS
 10
-0.4702739311
 20
14.3785166934
 11
-0.0702957515
 21
14.3785166934
  0
LINE
  5
32C
100
AcDbEntity
  8
0
100
AcDbLine
 62
7
  6
CONTINUOUS
 10
-0.0702979471
 20
15.6497577661
 11
-0.4702761267
 21
15.6497577661
  0
LINE
  5
32D
100
AcDbEntity
  8
0
100
AcDbLine
 62
7
  6
CONTINUOUS
 10
-0.4423024922
 20
16.4432027338
 11
-0.3074784745
 21
16.4366821273
  0
LINE
  5
32E
100
AcDbEntity
  8
0
100
AcDbLine
 62
7
  6
CONTINUOUS
 10
-0.5732494104
 20
16.4576620444
 11
-0.4397852729
 21
16.4430034885
  0
LINE
  5
32F
100
AcDbEntity
  8
0
100
AcDbLine
 62
7
  6
CONTINUOUS
 10
-0.7027300183
 20
16.4801512163
 11
-0.5708430068
 21
16.4573210015
  0
LINE
  5
330
100
AcDbEntity
  8
0
100
AcDbLine
 62
7
  6
CONTINUOUS
 10
-4.3466999942
 20
18.9808231646
 11
-3.292153437
 21
18.7947875093
  0
LWPOLYLINE
  5
331
100
AcDbEntity
  8
0
100
AcDbPolyline
 62
7
  6
CONTINUOUS
 90
9
 70
0
 10
2.7029431475
 20
15.6926557295
 10
2.7131003532
 20
15.6908553121
 10
2.7234885317
 20
15.6899401434
 10
2.734152692
 20
15.6898974605
 10
2.745047825
 20
15.6907400262
 10
2.7557128818
 20
15.6924785401
 10
2.7661733013
 20
15.6951352404
 10
2.7764036446
 20
15.6986878888
 10
2.7858665454
 20
15.7030804704
  0
LWPOLYLINE
  5
332
100
AcDbEntity
  8
0
100
AcDbPolyline
 62
7
  6
CONTINUOUS
 90
9
 70
0
 10
2.198016883
 20
16.8736222484
 10
2.1878596773
 20
16.8754226657
 10
2.1774714988
 20
16.8763378345
 10
2.1668073385
 20
16.8763805174
 10
2.1559122055
 20
16.8755379517
 10
2.1452471487
 20
16.8737994378
 10
2.1347867292
 20
16.8711427375
 10
2.1245563859
 20
16.867590089
 10
2.1150934851
 20
16.8631975074
  0
LWPOLYLINE
  5
333
100
AcDbEntity
  8
0
100
AcDbPolyline
 62
7
  6
CONTINUOUS
 90
3
 70
0
 10
-0.4891139697
 20
14.3812518579
 10
-0.479774886
 20
14.3793560364
 10
-0.4702739311
 20
14.3785166934
  0
LWPOLYLINE
  5
334
100
AcDbEntity
  8
0
100
AcDbPolyline
 62
7
  6
CONTINUOUS
 90
3
 70
0
 10
-0.0514579085
 20
15.6470226017
 10
-0.0607969922
 20
15.6489184232
 10
-0.0702979471
 20
15.6497577661
  0
LINE
  5
335
100
AcDbEntity
  8
0
100
AcDbLine
 62
7
  6
CONTINUOUS
 10
-0.8309243921
 20
16.5106184526
 11
-0.7004808083
 21
16.4796976986
  0
LWPOLYLINE
  5
336
100
AcDbEntity
  8
0
100
AcDbPolyline
 62
7
  6
CONTINUOUS
 90
4
 70
0
 10
-3.1878778197
 20
19.3858135777
 10
-3.1756408068
 20
19.3828855993
 10
-3.1640085254
 20
19.378400266
 10
-3.1529809756
 20
19.372357578
  0
LINE
  5
337
100
AcDbEntity
  8
0
100
AcDbLine
 62
7
  6
CONTINUOUS
 10
-1.6797987568
 20
19.4288834351
 11
-1.6915610446
 21
19.4317860893
  0
LWPOLYLINE
  5
338
100
AcDbEntity
  8
0
100
AcDbPolyline
 62
7
  6
CONTINUOUS
 90
14
 70
0
 10
-4.3466996682
 20
18.9808231071
 10
-4.3560022449
 20
18.9833052731
 10
-4.3649937151
 20
18.9868710732
 10
-4.3736740787
 20
18.9915205073
 10
-4.3821482268
 20
18.9973868527
 10
-4.3903112683
 20
19.004336832
 10
-4.3978485305
 20
19.0119706136
 10
-4.404737682
 20
19.0202905066
 10
-4.4110010541
 20
19.0292942018
 10
-4.4163909687
 20
19.0385749394
 10
-4.4208948803
 20
19.0480902116
 10
-4.4245253345
 20
19.0578825262
 10
-4.4270722895
 20
19.0676726471
 10
-4.4284657315
 20
19.0773674956
  0
LINE
  5
339
100
AcDbEntity
  8
0
100
AcDbLine
 62
7
  6
CONTINUOUS
 10
-0.9566368313
 20
16.5488403187
 11
-0.8288695452
 21
16.5100705474
  0
LWPOLYLINE
  5
33A
100
AcDbEntity
  8
0
100
AcDbPolyline
 62
7
  6
CONTINUOUS
 90
9
 70
0
 10
-3.3183739613
 20
15.6990570146
 10
-3.3086899188
 20
15.695499981
 10
-3.2986182074
 20
15.6927743788
 10
-3.2881139817
 20
15.6908579805
 10
-3.2772220871
 20
15.6897730136
 10
-3.2663994994
 20
15.6896185133
 10
-3.2556151873
 20
15.6904122994
 10
-3.2449001822
 20
15.6921365521
 10
-3.2348045545
 20
15.6948368479
  0
LWPOLYLINE
  5
33B
100
AcDbEntity
  8
0
100
AcDbPolyline
 62
7
  6
CONTINUOUS
 90
9
 70
0
 10
-2.6640743354
 20
16.8670487084
 10
-2.6737583779
 20
16.870605742
 10
-2.6838300893
 20
16.8733313441
 10
-2.694334315
 20
16.8752477425
 10
-2.7052262096
 20
16.8763327094
 10
-2.7160487972
 20
16.8764872096
 10
-2.7268331094
 20
16.8756934235
 10
-2.7375481146
 20
16.8739691708
 10
-2.7476437422
 20
16.8712688751
  0
LINE
  5
33C
100
AcDbEntity
  8
0
100
AcDbLine
 62
7
  6
CONTINUOUS
 10
-1.080034558
 20
16.5949849037
 11
-0.9547590248
 21
16.548206814
  0
LINE
  5
33D
100
AcDbEntity
  8
0
100
AcDbLine
 62
7
  6
CONTINUOUS
 10
-1.6798013419
 20
19.4288717081
 11
-1.6686147114
 21
19.4245817472
  0
LWPOLYLINE
  5
33E
100
AcDbEntity
  8
0
100
AcDbPolyline
 62
7
  6
CONTINUOUS
 90
6
 70
0
 10
2.700882421
 20
18.7992549175
 10
2.6910350365
 20
18.8032746623
 10
2.6816485314
 20
18.8084434525
 10
2.6726995929
 20
18.814673116
 10
2.6645820335
 20
18.8217090929
 10
2.6573640495
 20
18.8296241807
  0
LINE
  5
33F
100
AcDbEntity
  8
0
100
AcDbLine
 62
7
  6
CONTINUOUS
 10
-1.2009503502
 20
16.6488841186
 11
-1.0783155733
 21
16.5942897043
  0
LWPOLYLINE
  5
340
100
AcDbEntity
  8
0
100
AcDbPolyline
 62
7
  6
CONTINUOUS
 90
13
 70
0
 10
-1.6686147114
 20
19.4245817472
 10
-1.6580013272
 20
19.4189162372
 10
-1.647727263
 20
19.4117643083
 10
-1.6380264452
 20
19.4032368304
 10
-1.6296006521
 20
19.3936664129
 10
-1.6225704747
 20
19.3829572187
 10
-1.6168153221
 20
19.3712050848
 10
-1.6126751998
 20
19.3590301321
 10
-1.6103187627
 20
19.3463468701
 10
-1.6095773559
 20
19.3332407892
 10
-1.6102850203
 20
19.3205884806
 10
-1.6123864362
 20
19.3086821414
 10
-1.6159369233
 20
19.2972295746
  0
LWPOLYLINE
  5
341
100
AcDbEntity
  8
0
100
AcDbPolyline
 62
7
  6
CONTINUOUS
 90
3
 70
0
 10
2.2163511312
 20
16.8673552868
 10
2.2248165407
 20
16.8627817874
 10
2.2327500797
 20
16.8572643266
  0
LWPOLYLINE
  5
342
100
AcDbEntity
  8
0
100
AcDbPolyline
 62
7
  6
CONTINUOUS
 90
10
 70
0
 43
0.3500000006
 10
1.0156005971
 20
66.4140732422
 10
1.08702916
 20
66.2712108765
 10
1.08702916
 20
66.1997887573
 10
0.9441720343
 20
66.0569263916
 10
0.8727434714
 20
66.0569263916
 10
0.8013149085
 20
66.1283575745
 10
0.8013149085
 20
66.1997887573
 10
0.8727434714
 20
66.3426420593
 10
0.9441720343
 20
66.4140732422
 10
1.0156005971
 20
66.4140732422
  0
LWPOLYLINE
  5
343
100
AcDbEntity
  8
0
100
AcDbPolyline
 62
7
  6
CONTINUOUS
 90
8
 70
0
 10
-3.2644647421
 20
18.7953283267
 10
-3.254823966
 20
18.7977014716
 10
-3.2450439305
 20
18.8011390024
 10
-3.2355227128
 20
18.8054486166
 10
-3.2262759812
 20
18.8106248728
 10
-3.2172880674
 20
18.8166732126
 10
-3.2089100443
 20
18.8234176572
 10
-3.2011016622
 20
18.8308821766
  0
LWPOLYLINE
  5
344
100
AcDbEntity
  8
0
100
AcDbPolyline
 62
7
  6
CONTINUOUS
 90
4
 70
0
 10
-4.2835123761
 20
19.5703770555
 10
-4.2731262788
 20
19.5723588988
 10
-4.2629407366
 20
19.573258401
 10
-4.2541826977
 20
19.5731061809
  0
LINE
  5
345
100
AcDbEntity
  8
0
100
AcDbLine
 62
7
  6
CONTINUOUS
 10
3.6985231054
 20
19.5715046554
 11
2.6475395665
 21
19.3861385324
  0
LINE
  5
346
100
AcDbEntity
  8
0
100
AcDbLine
 62
7
  6
CONTINUOUS
 10
2.7515815885
 20
18.7949597694
 11
2.741555956
 21
18.7937182933
  0
LINE
  5
347
100
AcDbEntity
  8
0
100
AcDbLine
 62
7
  6
CONTINUOUS
 10
2.7388150736
 20
18.7935516505
 11
2.7515815324
 21
18.7949597595
  0
LWPOLYLINE
  5
348
100
AcDbEntity
  8
0
100
AcDbPolyline
 62
7
  6
CONTINUOUS
 90
4
 70
0
 10
-1.2688475786
 20
21.7231206036
 10
-1.2779504448
 20
21.7224067888
 10
-1.2870042375
 20
21.7206192387
 10
-1.2959224896
 20
21.7177854288
  0
LWPOLYLINE
  5
349
100
AcDbEntity
  8
0
100
AcDbPolyline
 62
7
  6
CONTINUOUS
 90
11
 70
0
 10
-4.2554994403
 20
19.5732520427
 10
-4.2682163941
 20
19.5729843214
 10
-4.2808066998
 20
19.5710261322
 10
-4.2935935727
 20
19.5673012057
 10
-4.3062537975
 20
19.5618858113
 10
-4.3178177287
 20
19.5550087579
 10
-4.3281039536
 20
19.5464800911
 10
-4.3372938849
 20
19.5364897652
 10
-4.3449621153
 20
19.5258364512
 10
-4.3509668425
 20
19.5147863729
 10
-4.3554498689
 20
19.5030733065
  0
LWPOLYLINE
  5
34A
100
AcDbEntity
  8
0
100
AcDbPolyline
 62
7
  6
CONTINUOUS
 90
4
 70
0
 10
2.741555956
 20
18.7937182933
 10
2.7315041397
 20
18.7935277338
 10
2.7214261396
 20
18.794388091
 10
2.7111673722
 20
18.7962960459
  0
LWPOLYLINE
  5
34B
100
AcDbEntity
  8
0
100
AcDbPolyline
 62
7
  6
CONTINUOUS
 90
12
 70
0
 10
-2.1016647263
 20
19.5034297093
 10
-2.1116207977
 20
19.5032971689
 10
-2.1217495116
 20
19.5020129535
 10
-2.1322402505
 20
19.4995241091
 10
-2.142903632
 20
19.4958835896
 10
-2.1531715087
 20
19.4912502562
 10
-2.1630485411
 20
19.4855886646
 10
-2.1725300687
 20
19.478934259
 10
-2.181033962
 20
19.4715522337
 10
-2.1883661777
 20
19.4635309866
 10
-2.194720759
 20
19.4547821197
 10
-2.200097706
 20
19.4453056331
  0
LINE
  5
34C
100
AcDbEntity
  8
0
100
AcDbLine
 62
7
  6
CONTINUOUS
 10
-1.2688498284
 20
21.1229845742
 11
0.1643131431
 21
21.1229845742
  0
LINE
  5
34D
100
AcDbEntity
  8
0
100
AcDbLine
 62
7
  6
CONTINUOUS
 10
0.4647255116
 20
21.7231206036
 11
-1.2688475786
 21
21.7231206036
  0
LINE
  5
34E
100
AcDbEntity
  8
RACCORDO
100
AcDbLine
 62
250
  6
CONTINUOUS
 10
-10.754677252
 20
22.8167411136
 11
10.2144498836
 21
22.8167411136
  0
LWPOLYLINE
  5
34F
100
AcDbEntity
  8
0
100
AcDbPolyline
 62
7
  6
CONTINUOUS
 90
14
 70
0
 10
-1.268849415
 20
21.1229845742
 10
-1.2784394467
 20
21.123810731
 10
-1.2879102484
 20
21.1257615181
 10
-1.2972618202
 20
21.1288369355
 10
-1.3066213373
 20
21.1331512035
 10
-1.3158616244
 20
21.1385901017
 10
-1.3246011561
 20
21.1448109689
 10
-1.3328180114
 20
21.1518198754
 10
-1.3405341113
 20
21.1596107508
 10
-1.3474336929
 20
21.1678227232
 10
-1.3534965913
 20
21.1764151628
 10
-1.3587429715
 20
21.1854286993
 10
-1.3629175651
 20
21.1946243497
 10
-1.365935283
 20
21.2039224528
  0
LWPOLYLINE
  5
350
100
AcDbEntity
  8
0
100
AcDbPolyline
 62
7
  6
CONTINUOUS
 90
4
 70
0
 10
-3.292153437
 20
18.7947875093
 10
-3.2830631314
 20
18.7939033959
 10
-3.2738335665
 20
18.7940836684
 10
-3.2645534424
 20
18.7953165428
  0
LINE
  5
351
100
AcDbEntity
  8
0
100
AcDbLine
 62
7
  6
CONTINUOUS
 10
-2.0918812976
 20
19.5024105746
 11
-2.1016422401
 21
19.5034273669
  0
LINE
  5
352
100
AcDbEntity
  8
0
100
AcDbLine
 62
7
  6
CONTINUOUS
 10
-4.2426558385
 20
19.5718292963
 11
-4.2541826977
 21
19.5731061809
  0
LINE
  5
353
100
AcDbEntity
  8
0
100
AcDbLine
 62
7
  6
CONTINUOUS
 10
-4.2527839389
 20
19.5730818696
 11
-4.2426558857
 21
19.5718293046
  0
LINE
  5
354
100
AcDbEntity
  8
0
100
AcDbLine
 62
7
  6
CONTINUOUS
 10
-3.1878778431
 20
19.3858135818
 11
-4.2426558385
 21
19.5718292963
  0
LINE
  5
355
100
AcDbEntity
  8
0
100
AcDbLine
 62
7
  6
CONTINUOUS
 10
-1.6915610446
 20
19.4317860893
 11
-2.0918812976
 21
19.5024105746
  0
LWPOLYLINE
  5
356
100
AcDbEntity
  8
0
100
AcDbPolyline
 62
7
  6
CONTINUOUS
 90
4
 70
0
 10
0.5534883697
 20
21.7091530899
 10
0.5243597509
 20
21.716887346
 10
0.4947721315
 20
21.721543184
 10
0.4647255116
 20
21.7231206036
  0
LWPOLYLINE
  5
357
100
AcDbEntity
  8
0
100
AcDbPolyline
 62
7
  6
CONTINUOUS
 90
4
 70
0
 10
0.5535008828
 20
21.7091491431
 10
0.5826214354
 20
21.6982677336
 10
0.6112838061
 20
21.6843062578
 10
0.6381526212
 20
21.6674570861
  0
LINE
  5
358
100
AcDbEntity
  8
RACCORDO
100
AcDbLine
 62
250
  6
CONTINUOUS
 10
-11.2833574093
 20
58.8642337111
 11
-11.3229790254
 21
58.9038553272
  0
LINE
  5
359
100
AcDbEntity
  8
RACCORDO
100
AcDbLine
 62
250
  6
CONTINUOUS
 10
-10.7835287468
 20
59.3640623736
 11
-10.8231503629
 21
59.4036839897
  0
LWPOLYLINE
  5
35A
100
AcDbEntity
  8
0
100
AcDbPolyline
 62
7
  6
CONTINUOUS
 90
4
 70
0
 43
0.3500000006
 10
16.5230121574
 20
34.9793903961
 10
15.880155304
 20
34.9793903961
 10
15.880155304
 20
36.4793908539
 10
18.8801550865
 20
35.6222483826
  0
LWPOLYLINE
  5
35B
100
AcDbEntity
  8
0
100
AcDbPolyline
 62
7
  6
CONTINUOUS
 90
3
 70
0
 43
0.3500000006
 10
18.5944405518
 20
33.9793900909
 10
18.8087261696
 20
33.9079634399
 10
19.0944407043
 20
33.7651056061
  0
LINE
  5
35C
100
AcDbEntity
  8
RACCORDO
100
AcDbLine
 62
250
  6
CONTINUOUS
 10
10.7431300409
 20
43.7879613435
 11
-11.2833574093
 21
43.7879613435
  0
LINE
  5
35D
100
AcDbEntity
  8
RACCORDO
100
AcDbLine
 62
250
  6
CONTINUOUS
 10
10.7431300409
 20
58.8642337111
 11
-11.2833574093
 21
58.8642337111
  0
LINE
  5
35E
100
AcDbEntity
  8
RACCORDO
100
AcDbLine
 62
250
  6
CONTINUOUS
 10
10.2433013784
 20
59.3640623736
 11
-10.7835287468
 21
59.3640623736
  0
LINE
  5
35F
100
AcDbEntity
  8
RACCORDO
100
AcDbLine
 62
7
  6
CONTINUOUS
 10
-10.8231503629
 20
59.4036839897
 11
10.2829229945
 21
59.4036839897
  0
LWPOLYLINE
  5
360
100
AcDbEntity
  8
0
100
AcDbPolyline
 62
7
  6
CONTINUOUS
 90
7
 70
0
 43
0.3500000006
 10
-0.4843994004
 20
65.9140730896
 10
-1.9843993979
 20
65.9140730896
 10
-0.4843994004
 20
68.056927002
 10
-0.4843994004
 20
68.4854959717
 10
-0.912970813
 20
68.9140740051
 10
-1.5558280206
 20
68.9140740051
 10
-1.9843993979
 20
68.2712114868
  0
LWPOLYLINE
  5
361
100
AcDbEntity
  8
0
100
AcDbPolyline
 62
7
  6
CONTINUOUS
 90
7
 70
0
 43
0.3500000006
 10
-2.8415421524
 20
65.9140730896
 10
-4.3415423269
 20
65.9140730896
 10
-2.8415421524
 20
68.056927002
 10
-2.8415421524
 20
68.4854959717
 10
-3.2701136713
 20
68.9140740051
 10
-3.912970808
 20
68.9140740051
 10
-4.3415423269
 20
68.2712114868
  0
LWPOLYLINE
  5
362
100
AcDbEntity
  8
RACCORDO
100
AcDbPolyline
 62
7
  6
CONTINUOUS
 90
10
 70
0
 10
-26.7305445855
 20
53.4914566161
 10
-26.7041074037
 20
53.5113043317
 10
-26.6787577319
 20
53.5284495484
 10
-26.6552440343
 20
53.5430869081
 10
-26.634318968
 20
53.5554066136
 10
-26.6164157203
 20
53.5658123279
 10
-26.6017856073
 20
53.5748235879
 10
-26.590870582
 20
53.5828250632
 10
-26.5841366624
 20
53.5901429639
 10
-26.5818535658
 20
53.5972057085
  0
LINE
  5
363
100
AcDbEntity
  8
RACCORDO
100
AcDbLine
 62
250
  6
CONTINUOUS
 10
-26.952341832
 20
54.4692656813
 11
-26.9797711475
 21
54.4417309332
  0
LINE
  5
364
100
AcDbEntity
  8
RACCORDO
100
AcDbLine
 62
250
  6
CONTINUOUS
 10
-26.7408992813
 20
54.2540990847
 11
-26.7683292504
 21
54.2265637135
  0
LINE
  5
365
100
AcDbEntity
  8
RACCORDO
100
AcDbLine
 62
250
  6
CONTINUOUS
 10
-26.9797711475
 20
54.4417309332
 11
-27.0666539699
 21
54.3555400364
  0
LINE
  5
366
100
AcDbEntity
  8
RACCORDO
100
AcDbLine
 62
250
  6
CONTINUOUS
 10
-26.7683292504
 20
54.2265637135
 11
-26.8552123706
 21
54.1403725136
  0
LINE
  5
367
100
AcDbEntity
  8
RACCORDO
100
AcDbLine
 62
250
  6
CONTINUOUS
 10
-27.0666539699
 20
54.3555400364
 11
-27.1480286398
 21
54.2753729628
  0
LINE
  5
368
100
AcDbEntity
  8
RACCORDO
100
AcDbLine
 62
250
  6
CONTINUOUS
 10
-26.8552123706
 20
54.1403725136
 11
-26.9365855153
 21
54.0602068762
  0
LWPOLYLINE
  5
369
100
AcDbEntity
  8
RACCORDO
100
AcDbPolyline
 62
7
  6
CONTINUOUS
 90
3
 70
0
 10
-28.2400217533
 20
35.8576322852
 10
-28.2795837331
 20
35.8360053556
 10
-28.2818535658
 20
35.8347488155
  0
LINE
  5
36A
100
AcDbEntity
  8
RACCORDO
100
AcDbLine
 62
250
  6
CONTINUOUS
 10
-28.1255197955
 20
35.807373901
 11
-28.2050753637
 21
35.7643632354
  0
LINE
  5
36B
100
AcDbEntity
  8
RACCORDO
100
AcDbLine
 62
250
  6
CONTINUOUS
 10
-27.7577052874
 20
36.0031712183
 11
-27.821604745
 21
35.9686284955
  0
LINE
  5
36C
100
AcDbEntity
  8
RACCORDO
100
AcDbLine
 62
7
  6
CONTINUOUS
 10
-28.1641381545
 20
35.8985085657
 11
-28.2400217533
 21
35.8576322852
  0
LINE
  5
36D
100
AcDbEntity
  8
RACCORDO
100
AcDbLine
 62
250
  6
CONTINUOUS
 10
-27.821604745
 20
35.9686284955
 11
-27.9158196661
 21
35.9184567358
  0
LINE
  5
36E
100
AcDbEntity
  8
RACCORDO
100
AcDbLine
 62
7
  6
CONTINUOUS
 10
-28.0265936284
 20
35.9714326841
 11
-28.1641381545
 21
35.8985085657
  0
LINE
  5
36F
100
AcDbEntity
  8
RACCORDO
100
AcDbLine
 62
250
  6
CONTINUOUS
 10
-27.9158196661
 20
35.9184567358
 11
-28.1255197955
 21
35.807373901
  0
LINE
  5
370
100
AcDbEntity
  8
DRAFT
100
AcDbLine
 62
7
  6
CONTINUOUS
 10
-27.3468581004
 20
38.8508186485
 11
-27.0008644626
 21
39.0317292822
  0
LINE
  5
371
100
AcDbEntity
  8
RACCORDO
100
AcDbLine
 62
250
  6
CONTINUOUS
 10
-28.0683701263
 20
37.5060920692
 11
-28.2818535658
 21
37.3962433408
  0
LWPOLYLINE
  5
372
100
AcDbEntity
  8
IMPORT_IGES
100
AcDbPolyline
 62
7
  6
CONTINUOUS
 90
4
 70
0
 10
-27.8377123976
 20
38.992063589
 10
-27.9753431395
 20
38.9228150847
 10
-28.1428249865
 20
38.8364777917
 10
-28.2818535658
 20
38.763899436
  0
LWPOLYLINE
  5
373
100
AcDbEntity
  8
RACCORDO
100
AcDbPolyline
 62
250
  6
CONTINUOUS
 90
5
 70
0
 10
-27.6412980361
 20
36.6669301733
 10
-27.6917176059
 20
36.6419285886
 10
-27.7416915144
 20
36.6174198821
 10
-27.7912197618
 20
36.5934040539
 10
-27.8398437084
 20
36.5701712744
  0
LINE
  5
374
100
AcDbEntity
  8
RACCORDO
100
AcDbLine
 62
7
  6
CONTINUOUS
 10
-28.2729056405
 20
36.4742471889
 11
-28.2818535658
 21
36.4698444056
  0
LWPOLYLINE
  5
375
100
AcDbEntity
  8
RACCORDO
100
AcDbPolyline
 62
250
  6
CONTINUOUS
 90
3
 70
0
 10
-28.1993297855
 20
36.4002956648
 10
-28.2538650555
 20
36.3737336187
 10
-28.2818535658
 20
36.3598419338
  0
LINE
  5
376
100
AcDbEntity
  8
RACCORDO
100
AcDbLine
 62
7
  6
CONTINUOUS
 10
-28.2745955951
 20
36.4734224225
 11
-28.1908508815
 21
36.5138251625
  0
LINE
  5
377
100
AcDbEntity
  8
RACCORDO
100
AcDbLine
 62
250
  6
CONTINUOUS
 10
-28.091413635
 20
36.4518249219
 11
-28.1993297855
 21
36.4002956648
  0
LINE
  5
378
100
AcDbEntity
  8
RACCORDO
100
AcDbLine
 62
7
  6
CONTINUOUS
 10
-28.1197231738
 20
36.5475656513
 11
-28.2210299756
 21
36.4993665265
  0
LINE
  5
379
100
AcDbEntity
  8
RACCORDO
100
AcDbLine
 62
7
  6
CONTINUOUS
 10
-28.0218538847
 20
36.5935517768
 11
-28.1490857817
 21
36.5336853244
  0
LINE
  5
37A
100
AcDbEntity
  8
RACCORDO
100
AcDbLine
 62
250
  6
CONTINUOUS
 10
-27.8398437084
 20
36.5701712744
 11
-28.091413635
 21
36.4518249219
  0
LWPOLYLINE
  5
37B
100
AcDbEntity
  8
RACCORDO
100
AcDbPolyline
 62
250
  6
CONTINUOUS
 90
7
 70
0
 10
-27.5718535689
 20
37.7498178375
 10
-27.6371027556
 20
37.7193022313
 10
-27.7042797988
 20
37.687324558
 10
-27.7733846983
 20
37.6538848177
 10
-27.8446257356
 20
37.61882945
 10
-27.9177946293
 20
37.5823120152
 10
-28.0683701263
 20
37.5060920692
  0
LWPOLYLINE
  5
37C
100
AcDbEntity
  8
RACCORDO
100
AcDbPolyline
 62
250
  6
CONTINUOUS
 90
9
 70
0
 10
-27.5718535705
 20
37.8485994267
 10
-27.6365286605
 20
37.8186000273
 10
-27.7030603462
 20
37.7872816602
 10
-27.7714486276
 20
37.7545797414
 10
-27.8418235949
 20
37.7203653644
 10
-27.9140551579
 20
37.6846867368
 10
-27.9877530457
 20
37.647787442
 10
-28.0632692542
 20
37.6095607529
 10
-28.2818535658
 20
37.4974520789
  0
LWPOLYLINE
  5
37D
100
AcDbEntity
  8
RACCORDO
100
AcDbPolyline
 62
250
  6
CONTINUOUS
 90
3
 70
0
 10
-28.2068454388
 20
37.0030532251
 10
-28.2584111293
 20
36.9804298607
 10
-28.2818535658
 20
36.969959771
  0
LWPOLYLINE
  5
37E
100
AcDbEntity
  8
RACCORDO
100
AcDbPolyline
 62
7
  6
CONTINUOUS
 90
3
 70
0
 10
-28.2143331373
 20
37.1074116419
 10
-28.2643648153
 20
37.0856515945
 10
-28.2818535658
 20
37.0779289714
  0
LINE
  5
37F
100
AcDbEntity
  8
RACCORDO
100
AcDbLine
 62
250
  6
CONTINUOUS
 10
-28.1045925951
 20
37.0470623177
 11
-28.2068454388
 21
37.0030532251
  0
LINE
  5
380
100
AcDbEntity
  8
RACCORDO
100
AcDbLine
 62
7
  6
CONTINUOUS
 10
-28.1165278501
 20
37.1492516284
 11
-28.2143331373
 21
37.1074116419
  0
LINE
  5
381
100
AcDbEntity
  8
RACCORDO
100
AcDbLine
 62
7
  6
CONTINUOUS
 10
-28.021852854
 20
37.1892788989
 11
-28.1165278501
 21
37.1492516284
  0
LINE
  5
382
100
AcDbEntity
  8
RACCORDO
100
AcDbLine
 62
250
  6
CONTINUOUS
 10
-27.8203833713
 20
37.1675463276
 11
-28.1045925951
 21
37.0470623177
  0
LINE
  5
383
100
AcDbEntity
  8
RACCORDO
100
AcDbLine
 62
7
  6
CONTINUOUS
 10
-28.2791173836
 20
37.6675064203
 11
-28.2818535658
 21
37.6663910546
  0
LINE
  5
384
100
AcDbEntity
  8
RACCORDO
100
AcDbLine
 62
250
  6
CONTINUOUS
 10
-27.6702076279
 20
37.896888937
 11
-27.7367153059
 21
37.8697383105
  0
LINE
  5
385
100
AcDbEntity
  8
RACCORDO
100
AcDbLine
 62
250
  6
CONTINUOUS
 10
-27.7367153059
 20
37.8697383105
 11
-27.8004817052
 21
37.8442088575
  0
LINE
  5
386
100
AcDbEntity
  8
RACCORDO
100
AcDbLine
 62
7
  6
CONTINUOUS
 10
-27.7472779439
 20
37.8746412808
 11
-27.847170373
 21
37.8350463047
  0
LINE
  5
387
100
AcDbEntity
  8
RACCORDO
100
AcDbLine
 62
7
  6
CONTINUOUS
 10
-28.2791173836
 20
37.6675064203
 11
-28.1646931324
 21
37.7125692926
  0
LINE
  5
388
100
AcDbEntity
  8
RACCORDO
100
AcDbLine
 62
250
  6
CONTINUOUS
 10
-28.1943301531
 20
37.6920918702
 11
-28.2818535658
 21
37.657599033
  0
LWPOLYLINE
  5
389
100
AcDbEntity
  8
RACCORDO
100
AcDbPolyline
 62
7
  6
CONTINUOUS
 90
10
 70
0
 10
-27.7472779237
 20
37.8746412307
 10
-27.7399902574
 20
37.8774799235
 10
-27.7324042891
 20
37.8802435477
 10
-27.7245117827
 20
37.8829256274
 10
-27.7163050487
 20
37.8855219251
 10
-27.7077757439
 20
37.8880257954
 10
-27.6989123977
 20
37.8904238752
 10
-27.6897031578
 20
37.8927044501
 10
-27.6801384084
 20
37.8948619507
 10
-27.6702078103
 20
37.8968893182
  0
LINE
  5
38A
100
AcDbEntity
  8
RACCORDO
100
AcDbLine
 62
250
  6
CONTINUOUS
 10
-27.8004817052
 20
37.8442088575
 11
-27.8944642932
 21
37.8074622437
  0
LINE
  5
38B
100
AcDbEntity
  8
RACCORDO
100
AcDbLine
 62
7
  6
CONTINUOUS
 10
-27.847170373
 20
37.8350463047
 11
-28.1667954454
 21
37.7117520827
  0
LINE
  5
38C
100
AcDbEntity
  8
RACCORDO
100
AcDbLine
 62
250
  6
CONTINUOUS
 10
-27.8944642932
 20
37.8074622437
 11
-28.1943301531
 21
37.6920918702
  0
LINE
  5
38D
100
AcDbEntity
  8
RACCORDO
100
AcDbLine
 62
7
  6
CONTINUOUS
 10
-28.2534434932
 20
33.613355451
 11
-28.261033427
 21
33.610533252
  0
LINE
  5
38E
100
AcDbEntity
  8
RACCORDO
100
AcDbLine
 62
7
  6
CONTINUOUS
 10
-28.1602590637
 20
33.6471945187
 11
-28.2534434932
 21
33.613355451
  0
LWPOLYLINE
  5
38F
100
AcDbEntity
  8
RACCORDO
100
AcDbPolyline
 62
7
  6
CONTINUOUS
 90
4
 70
0
 10
-28.261033427
 20
33.610533252
 10
-28.2741552801
 20
33.605761698
 10
-28.2791889397
 20
33.603777667
 10
-28.2818535658
 20
33.6026169466
  0
LINE
  5
390
100
AcDbEntity
  8
RACCORDO
100
AcDbLine
 62
7
  6
CONTINUOUS
 10
-28.0455915119
 20
33.6885470579
 11
-28.1602590637
 21
33.6471945187
  0
LINE
  5
391
100
AcDbEntity
  8
RACCORDO
100
AcDbLine
 62
7
  6
CONTINUOUS
 10
-28.2512189592
 20
34.4361936833
 11
-28.2593378234
 21
34.4338535049
  0
LWPOLYLINE
  5
392
100
AcDbEntity
  8
RACCORDO
100
AcDbPolyline
 62
250
  6
CONTINUOUS
 90
4
 70
0
 10
-26.9366714657
 20
54.4856457421
 10
-26.9383203784
 20
54.4836908768
 10
-26.9435735583
 20
54.4781997858
 10
-26.952341832
 20
54.4692656813
  0
LWPOLYLINE
  5
393
100
AcDbEntity
  8
RACCORDO
100
AcDbPolyline
 62
250
  6
CONTINUOUS
 90
4
 70
0
 10
-26.7252283412
 20
54.2704796554
 10
-26.7268773385
 20
54.2685247286
 10
-26.7321307231
 20
54.2630334543
 10
-26.7408992813
 20
54.2540990847
  0
LWPOLYLINE
  5
394
100
AcDbEntity
  8
RACCORDO
100
AcDbPolyline
 62
250
  6
CONTINUOUS
 90
3
 70
0
 10
-28.0154679828
 20
35.2161155943
 10
-28.1060993861
 20
35.1568210107
 10
-28.1508333388
 20
35.1278589378
  0
LINE
  5
395
100
AcDbEntity
  8
RACCORDO
100
AcDbLine
 62
250
  6
CONTINUOUS
 10
-28.1508333388
 20
35.1278589378
 11
-28.2818535658
 21
35.0442590883
  0
LWPOLYLINE
  5
396
100
AcDbEntity
  8
RACCORDO
100
AcDbPolyline
 62
250
  6
CONTINUOUS
 90
3
 70
0
 10
-27.6551567694
 20
36.0599851183
 10
-27.7243170173
 20
36.0215072892
 10
-27.7577052874
 20
36.0031712183
  0
LWPOLYLINE
  5
397
100
AcDbEntity
  8
RACCORDO
100
AcDbPolyline
 62
250
  6
CONTINUOUS
 90
3
 70
0
 10
-28.2050753637
 20
35.7643632354
 10
-28.2465562797
 20
35.7416303369
 10
-28.2818535658
 20
35.7220113396
  0
LINE
  5
398
100
AcDbEntity
  8
RACCORDO
100
AcDbLine
 62
250
  6
CONTINUOUS
 10
-28.0455915119
 20
33.6885470579
 11
-28.2818535658
 21
33.4719468859
  0
LINE
  5
399
100
AcDbEntity
  8
RACCORDO
100
AcDbLine
 62
250
  6
CONTINUOUS
 10
-28.0283879759
 20
34.4986576036
 11
-28.2818535658
 21
34.3060352453
  0
LWPOLYLINE
  5
39A
100
AcDbEntity
  8
0
100
AcDbPolyline
 62
7
  6
CONTINUOUS
 90
3
 70
0
 43
0.3500000006
 10
-41.018547821
 20
66.0503098755
 10
-41.089974472
 20
65.8360253906
 10
-41.2328323059
 20
65.5503097229
  0
LINE
  5
39B
100
AcDbEntity
  8
DRAFT
100
AcDbLine
 62
7
  6
CONTINUOUS
 10
-28.2582869537
 20
26.8293852606
 11
-27.7368535658
 21
27.3508186485
  0
LINE
  5
39C
100
AcDbEntity
  8
0
100
AcDbLine
 62
7
  6
CONTINUOUS
 10
-28.2582869537
 20
24.7289287524
 11
-27.2245752244
 21
26.9157387539
  0
LINE
  5
39D
100
AcDbEntity
  8
IMPORT_IGES
100
AcDbLine
 62
7
  6
CONTINUOUS
 10
-27.2245752244
 20
26.9157387539
 11
-27.0368535658
 21
27.312862622
  0
LWPOLYLINE
  5
39E
100
AcDbEntity
  8
0
100
AcDbPolyline
 62
7
  6
CONTINUOUS
 90
2
 70
0
 43
0.3500000006
 10
-43.0899750824
 20
65.7645942078
 10
-43.0899750824
 20
67.2645946655
  0
LWPOLYLINE
  5
39F
100
AcDbEntity
  8
0
100
AcDbPolyline
 62
7
  6
CONTINUOUS
 90
4
 70
0
 43
0.3500000006
 10
-40.0185475159
 20
68.1217416687
 10
-40.0185475159
 20
68.7645951233
 10
-38.5185470581
 20
68.7645951233
 10
-39.3756895294
 20
65.7645942078
  0
LWPOLYLINE
  5
3A0
100
AcDbEntity
  8
0
100
AcDbPolyline
 62
7
  6
CONTINUOUS
 90
4
 70
0
 43
0.3500000006
 10
-39.7148947449
 20
73.4399976196
 10
-39.7148947449
 20
74.2971355591
 10
-39.2863212433
 20
74.7257045288
 10
-38.6434632568
 20
74.7257045288
  0
LWPOLYLINE
  5
3A1
100
AcDbEntity
  8
RACCORDO
100
AcDbPolyline
 62
250
  6
CONTINUOUS
 90
5
 70
0
 10
-27.1054159535
 20
56.2629372386
 10
-27.103608867
 20
56.2743460855
 10
-27.1023608615
 20
56.2826488539
 10
-27.1016932497
 20
56.2877037545
 10
-27.1016174325
 20
56.2894244633
  0
LINE
  5
3A2
100
AcDbEntity
  8
RACCORDO
100
AcDbLine
 62
250
  6
CONTINUOUS
 10
-27.1105749082
 20
56.231630356
 11
-27.1054159535
 21
56.2629372386
  0
LINE
  5
3A3
100
AcDbEntity
  8
RACCORDO
100
AcDbLine
 62
250
  6
CONTINUOUS
 10
-27.1214570578
 20
56.1677679787
 11
-27.1105749082
 21
56.231630356
  0
LINE
  5
3A4
100
AcDbEntity
  8
RACCORDO
100
AcDbLine
 62
250
  6
CONTINUOUS
 10
-27.134601761
 20
56.0924629127
 11
-27.1214570578
 21
56.1677679787
  0
LWPOLYLINE
  5
3A5
100
AcDbEntity
  8
DRAFT
100
AcDbPolyline
 62
7
  6
CONTINUOUS
 90
25
 70
0
 10
-26.4818535658
 20
39.1315955231
 10
-26.482717456
 20
39.1267548778
 10
-26.485299968
 20
39.121881195
 10
-26.4895829883
 20
39.1169744747
 10
-26.4955416639
 20
39.1120151054
 10
-26.5031471148
 20
39.1070226986
 10
-26.5123690724
 20
39.1020560888
 10
-26.5231699241
 20
39.0971139713
 10
-26.5355065071
 20
39.0921976508
 10
-26.5493365603
 20
39.0873698763
 10
-26.5646088121
 20
39.0826305889
 10
-26.5812679651
 20
39.0779798475
 10
-26.5992624314
 20
39.0734805772
 10
-26.6185274241
 20
39.0691341277
 10
-26.6389984735
 20
39.0649391494
 10
-26.6606230247
 20
39.0609545192
 10
-26.6833298629
 20
39.0571819349
 10
-26.707043524
 20
39.0536196987
 10
-26.7317045649
 20
39.0503215938
 10
-26.7572353435
 20
39.0472902436
 10
-26.7835501147
 20
39.0445230246
 10
-26.8105755112
 20
39.0420658504
 10
-26.8382274103
 20
39.0399340253
 10
-26.8664100587
 20
39.0381122449
 10
-26.895029477
 20
39.0366005092
  0
LWPOLYLINE
  5
3A6
100
AcDbEntity
  8
RACCORDO
100
AcDbPolyline
 62
250
  6
CONTINUOUS
 90
9
 70
0
 10
-32.530708692
 20
7.51941354
 10
-32.5374152408
 20
7.4832502666
 10
-32.5431852578
 20
7.4510501553
 10
-32.547960802
 20
7.4231342891
 10
-32.5516822001
 20
7.3998487573
 10
-32.5543019565
 20
7.3815003355
 10
-32.5558013769
 20
7.3682515984
 10
-32.5561787539
 20
7.3601724767
 10
-32.555441094
 20
7.3572984225
  0
LINE
  5
3A7
100
AcDbEntity
  8
RACCORDO
100
AcDbLine
 62
250
  6
CONTINUOUS
 10
-32.5147791188
 20
7.6020581021
 11
-32.530708692
 21
7.51941354
  0
LINE
  5
3A8
100
AcDbEntity
  8
RACCORDO
100
AcDbLine
 62
250
  6
CONTINUOUS
 10
-32.4960859676
 20
7.6954014131
 11
-32.5147791188
 21
7.6020581021
  0
LWPOLYLINE
  5
3A9
100
AcDbEntity
  8
RACCORDO
100
AcDbPolyline
 62
250
  6
CONTINUOUS
 90
3
 70
0
 10
-32.4646895686
 20
7.8463968323
 10
-32.4754541337
 20
7.7953224485
 10
-32.4960859676
 20
7.6954014131
  0
LINE
  5
3AA
100
AcDbEntity
  8
RACCORDO
100
AcDbLine
 62
7
  6
CONTINUOUS
 10
-30.3671643868
 20
36.6399613699
 11
-30.3417933748
 21
37.6191373992
  0
LINE
  5
3AB
100
AcDbEntity
  8
RACCORDO
100
AcDbLine
 62
250
  6
CONTINUOUS
 10
-29.8799958668
 20
36.6417069198
 11
-29.9082422397
 21
35.7447409391
  0
LINE
  5
3AC
100
AcDbEntity
  8
RACCORDO
100
AcDbLine
 62
7
  6
CONTINUOUS
 10
-30.3967262903
 20
35.7084664012
 11
-30.3667013955
 21
36.6560580422
  0
LINE
  5
3AD
100
AcDbEntity
  8
RACCORDO
100
AcDbLine
 62
250
  6
CONTINUOUS
 10
-29.9082422397
 20
35.7447409391
 11
-29.9419192897
 21
34.8459296912
  0
LINE
  5
3AE
100
AcDbEntity
  8
RACCORDO
100
AcDbLine
 62
7
  6
CONTINUOUS
 10
-30.430807484
 20
34.8068149495
 11
-30.3948786224
 21
35.7619248462
  0
LINE
  5
3AF
100
AcDbEntity
  8
RACCORDO
100
AcDbLine
 62
7
  6
CONTINUOUS
 10
-30.4283903626
 20
34.8661717711
 11
-30.4675936721
 21
33.970287055
  0
LINE
  5
3B0
100
AcDbEntity
  8
RACCORDO
100
AcDbLine
 62
250
  6
CONTINUOUS
 10
-29.9419192897
 20
34.8459296912
 11
-29.9812353955
 21
33.9467723133
  0
LINE
  5
3B1
100
AcDbEntity
  8
RACCORDO
100
AcDbLine
 62
7
  6
CONTINUOUS
 10
-30.4915658295
 20
33.4806605068
 11
-30.4495970833
 21
34.3649514358
  0
LINE
  5
3B2
100
AcDbEntity
  8
RACCORDO
100
AcDbLine
 62
250
  6
CONTINUOUS
 10
-29.9812353955
 20
33.9467723133
 11
-30.0262503522
 21
33.056488503
  0
LINE
  5
3B3
100
AcDbEntity
  8
RACCORDO
100
AcDbLine
 62
7
  6
CONTINUOUS
 10
-30.4892657022
 20
33.5260433346
 11
-30.5370588049
 21
32.6407907948
  0
LINE
  5
3B4
100
AcDbEntity
  8
RACCORDO
100
AcDbLine
 62
250
  6
CONTINUOUS
 10
-30.0262503522
 20
33.056488503
 11
-30.077108535
 21
32.1690942326
  0
LINE
  5
3B5
100
AcDbEntity
  8
RACCORDO
100
AcDbLine
 62
7
  6
CONTINUOUS
 10
-30.5662948894
 20
32.1476329891
 11
-30.5148418251
 21
33.0382381671
  0
LINE
  5
3B6
100
AcDbEntity
  8
RACCORDO
100
AcDbLine
 62
7
  6
CONTINUOUS
 10
-30.5631408309
 20
32.1994004578
 11
-30.6199693673
 21
31.3106844794
  0
LINE
  5
3B7
100
AcDbEntity
  8
RACCORDO
100
AcDbLine
 62
250
  6
CONTINUOUS
 10
-30.077108535
 20
32.1690942326
 11
-30.1341790328
 21
31.2772190605
  0
LINE
  5
3B8
100
AcDbEntity
  8
RACCORDO
100
AcDbLine
 62
7
  6
CONTINUOUS
 10
-30.6547443996
 20
30.8052454445
 11
-30.5944172931
 21
31.699447286
  0
LINE
  5
3B9
100
AcDbEntity
  8
RACCORDO
100
AcDbLine
 62
250
  6
CONTINUOUS
 10
-30.1341790328
 20
31.2772190605
 11
-30.198313592
 21
30.3624351636
  0
LINE
  5
3BA
100
AcDbEntity
  8
RACCORDO
100
AcDbLine
 62
7
  6
CONTINUOUS
 10
-30.7202054828
 20
29.9131839109
 11
-30.6510557499
 21
30.8576969553
  0
LINE
  5
3BB
100
AcDbEntity
  8
RACCORDO
100
AcDbLine
 62
250
  6
CONTINUOUS
 10
-30.198313592
 20
30.3624351636
 11
-30.2710803005
 21
29.4068846993
  0
LINE
  5
3BC
100
AcDbEntity
  8
RACCORDO
100
AcDbLine
 62
7
  6
CONTINUOUS
 10
-30.719044036
 20
29.9284368514
 11
-30.7961638499
 21
28.9523976757
  0
LINE
  5
3BD
100
AcDbEntity
  8
RACCORDO
100
AcDbLine
 62
250
  6
CONTINUOUS
 10
-30.2710803005
 20
29.4068846993
 11
-30.3536144341
 21
28.3987683558
  0
LINE
  5
3BE
100
AcDbEntity
  8
RACCORDO
100
AcDbLine
 62
7
  6
CONTINUOUS
 10
-30.790464659
 20
29.0222029119
 11
-30.8842575323
 21
27.9118904862
  0
LINE
  5
3BF
100
AcDbEntity
  8
RACCORDO
100
AcDbLine
 62
250
  6
CONTINUOUS
 10
-30.3536144341
 20
28.3987683558
 11
-30.447848776
 21
27.3204098149
  0
LINE
  5
3C0
100
AcDbEntity
  8
RACCORDO
100
AcDbLine
 62
7
  6
CONTINUOUS
 10
-30.9462839373
 20
27.2156616049
 11
-30.8657913749
 21
28.124516213
  0
LINE
  5
3C1
100
AcDbEntity
  8
RACCORDO
100
AcDbLine
 62
7
  6
CONTINUOUS
 10
-30.932761716
 20
27.3652562389
 11
-31.0405513018
 21
26.2015253923
  0
LINE
  5
3C2
100
AcDbEntity
  8
RACCORDO
100
AcDbLine
 62
250
  6
CONTINUOUS
 10
-30.447848776
 20
27.3204098149
 11
-30.5559040359
 21
26.1542206496
  0
LINE
  5
3C3
100
AcDbEntity
  8
RACCORDO
100
AcDbLine
 62
7
  6
CONTINUOUS
 10
-30.9886046846
 20
26.7545142608
 11
-31.0999344832
 21
25.5844339174
  0
LINE
  5
3C4
100
AcDbEntity
  8
RACCORDO
100
AcDbLine
 62
250
  6
CONTINUOUS
 10
-30.5559040359
 20
26.1542206496
 11
-30.6791284503
 21
24.8884840213
  0
LINE
  5
3C5
100
AcDbEntity
  8
RACCORDO
100
AcDbLine
 62
7
  6
CONTINUOUS
 10
-31.2733206703
 20
23.8524663269
 11
-31.0774331161
 21
25.8165352469
  0
LINE
  5
3C6
100
AcDbEntity
  8
RACCORDO
100
AcDbLine
 62
250
  6
CONTINUOUS
 10
-30.6791284503
 20
24.8884840213
 11
-30.8199183467
 21
23.5017528037
  0
LINE
  5
3C7
100
AcDbEntity
  8
RACCORDO
100
AcDbLine
 62
7
  6
CONTINUOUS
 10
-31.2317091807
 20
24.2602550265
 11
-31.3809086469
 21
22.8167411136
  0
LINE
  5
3C8
100
AcDbEntity
  8
RACCORDO
100
AcDbLine
 62
7
  6
CONTINUOUS
 10
-31.3809086469
 20
22.8167411136
 11
-32.9488620422
 21
7.8986610639
  0
LINE
  5
3C9
100
AcDbEntity
  8
RACCORDO
100
AcDbLine
 62
250
  6
CONTINUOUS
 10
-30.8199183467
 20
23.5017528037
 11
-32.4646895686
 21
7.8463968323
  0
LINE
  5
3CA
100
AcDbEntity
  8
0
100
AcDbLine
 62
7
  6
CONTINUOUS
 10
-27.7684508706
 20
25.7651735924
 11
-28.2582869537
 21
21.7757788388
  0
LWPOLYLINE
  5
3CB
100
AcDbEntity
  8
RACCORDO
100
AcDbPolyline
 62
250
  6
CONTINUOUS
 90
9
 70
0
 10
-29.6790920243
 20
6.9146458304
 10
-29.6858039729
 20
6.8784722984
 10
-29.6915834477
 20
6.8462432531
 10
-29.6963675647
 20
6.8183093656
 10
-29.7001042698
 20
6.7949745735
 10
-29.7027529051
 20
6.7764927737
 10
-29.704284652
 20
6.7630650596
 10
-29.704682844
 20
6.7548375328
 10
-29.7039431484
 20
6.7518997143
  0
LINE
  5
3CC
100
AcDbEntity
  8
RACCORDO
100
AcDbLine
 62
250
  6
CONTINUOUS
 10
-29.6631721775
 20
6.9972133602
 11
-29.6790920243
 21
6.9146458304
  0
LINE
  5
3CD
100
AcDbEntity
  8
RACCORDO
100
AcDbLine
 62
250
  6
CONTINUOUS
 10
-29.644514892
 20
7.090362085
 11
-29.6631721775
 21
6.9972133602
  0
LWPOLYLINE
  5
3CE
100
AcDbEntity
  8
RACCORDO
100
AcDbPolyline
 62
250
  6
CONTINUOUS
 90
3
 70
0
 10
-29.613191623
 20
7.2409981241
 10
-29.6239299673
 20
7.1900489846
 10
-29.644514892
 20
7.090362085
  0
LINE
  5
3CF
100
AcDbEntity
  8
RACCORDO
100
AcDbLine
 62
250
  6
CONTINUOUS
 10
-29.79494204
 20
58.8642337111
 11
-29.7973809194
 21
58.9684215657
  0
LINE
  5
3D0
100
AcDbEntity
  8
RACCORDO
100
AcDbLine
 62
250
  6
CONTINUOUS
 10
-29.7973809194
 20
58.9684215657
 11
-29.7991377116
 21
59.0680371071
  0
LWPOLYLINE
  5
3D1
100
AcDbEntity
  8
RACCORDO
100
AcDbPolyline
 62
250
  6
CONTINUOUS
 90
11
 70
0
 10
-29.7991377116
 20
59.0680371071
 10
-29.8001350129
 20
59.1586876922
 10
-29.8003338227
 20
59.1993619905
 10
-29.8003294713
 20
59.2363390842
 10
-29.800122122
 20
59.2692265831
 10
-29.7997133584
 20
59.2977003293
 10
-29.7991078528
 20
59.3213977884
 10
-29.798315757
 20
59.3399956629
 10
-29.7973492884
 20
59.3533369014
 10
-29.7962200419
 20
59.3613668104
 10
-29.7949420466
 20
59.3640623734
  0
LINE
  5
3D2
100
AcDbEntity
  8
RACCORDO
100
AcDbLine
 62
250
  6
CONTINUOUS
 10
-27.287975363
 20
54.5949723693
 11
-27.2878492425
 21
54.5472972989
  0
LWPOLYLINE
  5
3D3
100
AcDbEntity
  8
RACCORDO
100
AcDbPolyline
 62
250
  6
CONTINUOUS
 90
9
 70
0
 10
-29.5278298462
 20
6.895935933
 10
-29.5278298462
 20
6.8589449524
 10
-29.5276275713
 20
6.826018718
 10
-29.5272252359
 20
6.7975176621
 10
-29.526627244
 20
6.7737537761
 10
-29.5258401418
 20
6.7549871952
 10
-29.5248725454
 20
6.7414233508
 10
-29.5237350467
 20
6.7332107218
 10
-29.5224400975
 20
6.730439209
  0
LINE
  5
3D4
100
AcDbEntity
  8
RACCORDO
100
AcDbLine
 62
7
  6
CONTINUOUS
 10
-28.2818535658
 20
59.4036839897
 11
-28.2818535658
 21
6.6979533074
  0
LINE
  5
3D5
100
AcDbEntity
  8
RACCORDO
100
AcDbLine
 62
7
  6
CONTINUOUS
 10
-28.2582869537
 20
21.5958094105
 11
-28.2582869537
 21
26.8293852606
  0
LINE
  5
3D6
100
AcDbEntity
  8
RACCORDO
100
AcDbLine
 62
7
  6
CONTINUOUS
 10
-27.5718535658
 20
39.0048960709
 11
-27.5718535658
 21
32.986530076
  0
LINE
  5
3D7
100
AcDbEntity
  8
RACCORDO
100
AcDbLine
 62
7
  6
CONTINUOUS
 10
-27.2660069121
 20
55.4654387524
 11
-27.2660069121
 21
55.6361985447
  0
LINE
  5
3D8
100
AcDbEntity
  8
IMPORT_IGES
100
AcDbLine
 62
7
  6
CONTINUOUS
 10
-27.224552701
 20
27.3508186485
 11
-27.224552701
 21
26.915786402
  0
LINE
  5
3D9
100
AcDbEntity
  8
RACCORDO
100
AcDbLine
 62
250
  6
CONTINUOUS
 10
-27.2075535777
 20
32.986530076
 11
-27.2075535777
 21
36.4233565248
  0
LINE
  5
3DA
100
AcDbEntity
  8
RACCORDO
100
AcDbLine
 62
7
  6
CONTINUOUS
 10
-27.183683647
 20
36.3807276675
 11
-27.183683647
 21
32.986530076
  0
LINE
  5
3DB
100
AcDbEntity
  8
DRAFT
100
AcDbLine
 62
7
  6
CONTINUOUS
 10
-27.0818535658
 20
21.3457507745
 11
-27.0818535658
 21
21.2958322523
  0
LINE
  5
3DC
100
AcDbEntity
  8
DRAFT
100
AcDbLine
 62
7
  6
CONTINUOUS
 10
-27.0818535658
 20
18.3058050448
 11
-27.0818535658
 21
18.2558865225
  0
LINE
  5
3DD
100
AcDbEntity
  8
IMPORT_IGES
100
AcDbLine
 62
7
  6
CONTINUOUS
 10
-27.0368535658
 20
27.312862622
 11
-27.0368535658
 21
32.986530076
  0
LINE
  5
3DE
100
AcDbEntity
  8
DRAFT
100
AcDbLine
 62
250
  6
CONTINUOUS
 10
-26.895029477
 20
39.7096220761
 11
-26.895029477
 21
39.0366005092
  0
LINE
  5
3DF
100
AcDbEntity
  8
RACCORDO
100
AcDbLine
 62
250
  6
CONTINUOUS
 10
-26.8792356051
 20
53.9200250233
 11
-26.8792356051
 21
53.4360386099
  0
LINE
  5
3E0
100
AcDbEntity
  8
RACCORDO
100
AcDbLine
 62
250
  6
CONTINUOUS
 10
-26.7305445855
 20
52.8713382111
 11
-26.7305445855
 21
53.4914566161
  0
LINE
  5
3E1
100
AcDbEntity
  8
RACCORDO
100
AcDbLine
 62
7
  6
CONTINUOUS
 10
-26.5818535658
 20
53.0213324996
 11
-26.5818535658
 21
53.9200250233
  0
LINE
  5
3E2
100
AcDbEntity
  8
DRAFT
100
AcDbLine
 62
7
  6
CONTINUOUS
 10
-26.4818535658
 20
39.8933390542
 11
-26.4818535658
 21
39.1315955231
  0
LINE
  5
3E3
100
AcDbEntity
  8
DRAFT
100
AcDbLine
 62
7
  6
CONTINUOUS
 10
-26.1318535658
 20
21.212718022
 11
-26.1318535658
 21
18.3889192751
  0
LINE
  5
3E4
100
AcDbEntity
  8
DRAFT
100
AcDbLine
 62
7
  6
CONTINUOUS
 10
-25.8431784312
 20
21.1874622202
 11
-25.8431784312
 21
18.4141750768
  0
LINE
  5
3E5
100
AcDbEntity
  8
DRAFT
100
AcDbLine
 62
7
  6
CONTINUOUS
 10
-27.5614261934
 20
32.986530076
 11
-27.5671621569
 21
27.3508186485
  0
LINE
  5
3E6
100
AcDbEntity
  8
RACCORDO
100
AcDbLine
 62
7
  6
CONTINUOUS
 10
-30.2818535658
 20
58.8642337111
 11
-30.2831210318
 21
42.745340734
  0
LINE
  5
3E7
100
AcDbEntity
  8
RACCORDO
100
AcDbLine
 62
250
  6
CONTINUOUS
 10
-29.79494204
 20
58.8642337111
 11
-29.7961891704
 21
42.7441013554
  0
LINE
  5
3E8
100
AcDbEntity
  8
RACCORDO
100
AcDbLine
 62
250
  6
CONTINUOUS
 10
-29.7961891704
 20
42.7441013554
 11
-29.8000873392
 21
41.7373047207
  0
LINE
  5
3E9
100
AcDbEntity
  8
RACCORDO
100
AcDbLine
 62
250
  6
CONTINUOUS
 10
-27.2878492425
 20
54.5472972989
 11
-27.2881310218
 21
54.4499767443
  0
LINE
  5
3EA
100
AcDbEntity
  8
RACCORDO
100
AcDbLine
 62
7
  6
CONTINUOUS
 10
-30.2824845021
 20
43.0466858493
 11
-30.2899449629
 21
41.2513213278
  0
LINE
  5
3EB
100
AcDbEntity
  8
RACCORDO
100
AcDbLine
 62
250
  6
CONTINUOUS
 10
-29.8000873392
 20
41.7373047207
 11
-29.8067390305
 21
40.7653205136
  0
LINE
  5
3EC
100
AcDbEntity
  8
RACCORDO
100
AcDbLine
 62
250
  6
CONTINUOUS
 10
-27.2881310218
 20
54.4499767443
 11
-27.2889334225
 21
54.3351834946
  0
LINE
  5
3ED
100
AcDbEntity
  8
RACCORDO
100
AcDbLine
 62
250
  6
CONTINUOUS
 10
-29.5272252359
 20
6.980452359
 11
-29.5278298462
 21
6.895935933
  0
LINE
  5
3EE
100
AcDbEntity
  8
RACCORDO
100
AcDbLine
 62
7
  6
CONTINUOUS
 10
-30.2874625942
 20
41.6532401058
 11
-30.2980926933
 21
40.2947181166
  0
LINE
  5
3EF
100
AcDbEntity
  8
IMPORT_IGES
100
AcDbLine
 62
7
  6
CONTINUOUS
 10
-27.0711925763
 20
33.0159763508
 11
-27.0708535658
 21
33.0508186485
  0
LINE
  5
3F0
100
AcDbEntity
  8
RACCORDO
100
AcDbLine
 62
250
  6
CONTINUOUS
 10
-29.8067390305
 20
40.7653205136
 11
-29.8164693396
 21
39.8206428551
  0
LINE
  5
3F1
100
AcDbEntity
  8
RACCORDO
100
AcDbLine
 62
7
  6
CONTINUOUS
 10
-30.29720302
 20
40.3825267709
 11
-30.3165069489
 21
38.9047312736
  0
LINE
  5
3F2
100
AcDbEntity
  8
RACCORDO
100
AcDbLine
 62
250
  6
CONTINUOUS
 10
-29.8164693396
 20
39.8206428551
 11
-29.8296716426
 21
38.8965344268
  0
LINE
  5
3F3
100
AcDbEntity
  8
RACCORDO
100
AcDbLine
 62
250
  6
CONTINUOUS
 10
-29.5258401418
 20
7.0758774329
 11
-29.5272252359
 21
6.980452359
  0
LINE
  5
3F4
100
AcDbEntity
  8
RACCORDO
100
AcDbLine
 62
7
  6
CONTINUOUS
 10
-30.3116797469
 20
39.2129095924
 11
-30.3334163367
 21
37.999009667
  0
LINE
  5
3F5
100
AcDbEntity
  8
RACCORDO
100
AcDbLine
 62
250
  6
CONTINUOUS
 10
-29.8296716426
 20
38.8965344268
 11
-29.8466152451
 21
37.9885014775
  0
LINE
  5
3F6
100
AcDbEntity
  8
RACCORDO
100
AcDbLine
 62
7
  6
CONTINUOUS
 10
-30.3306569917
 20
38.132538423
 11
-30.3434102917
 21
37.5497132066
  0
LWPOLYLINE
  5
3F7
100
AcDbEntity
  8
RACCORDO
100
AcDbPolyline
 62
250
  6
CONTINUOUS
 90
3
 70
0
 10
-29.8466152451
 20
37.9885014775
 10
-29.867707337
 20
37.0897846355
 10
-29.8799958668
 20
36.6417069198
  0
LWPOLYLINE
  5
3F8
100
AcDbEntity
  8
RACCORDO
100
AcDbPolyline
 62
250
  6
CONTINUOUS
 90
3
 70
0
 10
-29.5224400975
 20
7.2302678715
 10
-29.5237350467
 20
7.1780442455
 10
-29.5258401418
 20
7.0758774329
  0
LINE
  5
3F9
100
AcDbEntity
  8
IMPORT_IGES
100
AcDbLine
 62
7
  6
CONTINUOUS
 10
-27.072022573
 20
32.986530076
 11
-27.0711925763
 21
33.0159763508
  0
LINE
  5
3FA
100
AcDbEntity
  8
DRAFT
100
AcDbLine
 62
7
  6
CONTINUOUS
 10
-27.5603862163
 20
39.0054457208
 11
-27.5468581004
 21
38.8508186485
  0
LINE
  5
3FB
100
AcDbEntity
  8
DRAFT
100
AcDbLine
 62
7
  6
CONTINUOUS
 10
-25.5931784312
 20
21.1655900544
 11
-25.5931784312
 21
18.4360472427
  0
LINE
  5
3FC
100
AcDbEntity
  8
RACCORDO
100
AcDbLine
 62
7
  6
CONTINUOUS
 10
-25.2818535658
 20
31.9993494063
 11
-25.2818535658
 21
34.1022878908
  0
LINE
  5
3FD
100
AcDbEntity
  8
RACCORDO
100
AcDbLine
 62
7
  6
CONTINUOUS
 10
-24.9818535658
 20
20.6539404719
 11
-24.9818535658
 21
18.9476968252
  0
LWPOLYLINE
  5
3FE
100
AcDbEntity
  8
RACCORDO
100
AcDbPolyline
 62
250
  6
CONTINUOUS
 90
5
 70
0
 10
-27.2889334225
 20
54.6351720715
 10
-27.2886141631
 20
54.6326027893
 10
-27.288345155
 20
54.6249448973
 10
-27.2881310003
 20
54.6123294645
 10
-27.287975363
 20
54.5949723693
  0
LINE
  5
3FF
100
AcDbEntity
  8
RACCORDO
100
AcDbLine
 62
250
  6
CONTINUOUS
 10
-27.134601761
 20
55.0091743844
 11
-27.1174874422
 21
54.9107832569
  0
LWPOLYLINE
  5
400
100
AcDbEntity
  8
RACCORDO
100
AcDbPolyline
 62
250
  6
CONTINUOUS
 90
7
 70
0
 10
-27.1174874422
 20
54.9107832569
 10
-27.1077516778
 20
54.8530226541
 10
-27.1054162471
 20
54.8387018518
 10
-27.1036090444
 20
54.827292323
 10
-27.1023609445
 20
54.8189889858
 10
-27.1016932709
 20
54.8139336899
 10
-27.1016174372
 20
54.812212833
  0
LWPOLYLINE
  5
401
100
AcDbEntity
  8
IMPORT_IGES
100
AcDbPolyline
 62
7
  6
CONTINUOUS
 90
20
 70
0
 10
-27.183683647
 20
33.6979830869
 10
-27.1735440731
 20
33.6669691305
 10
-27.1631544104
 20
33.6337103979
 10
-27.1532206683
 20
33.6003111922
 10
-27.1437616177
 20
33.5667740068
 10
-27.1347963126
 20
33.5331022908
 10
-27.1263438072
 20
33.4992994949
 10
-27.1184231558
 20
33.4653690696
 10
-27.1110534077
 20
33.4313144768
 10
-27.1042529802
 20
33.3971405587
 10
-27.0980390645
 20
33.3628548381
 10
-27.0924286695
 20
33.3284651738
 10
-27.0874375102
 20
33.2939803079
 10
-27.0830797787
 20
33.2594100222
 10
-27.0793693393
 20
33.2247642486
 10
-27.0763168072
 20
33.190054143
 10
-27.0739321447
 20
33.1552918383
 10
-27.072226078
 20
33.1204897664
 10
-27.0711925763
 20
33.0856609463
 10
-27.0708535658
 20
33.0508186485
  0
LWPOLYLINE
  5
402
100
AcDbEntity
  8
0
100
AcDbPolyline
 62
7
  6
CONTINUOUS
 90
10
 70
0
 43
0.3500000006
 10
-41.089974472
 20
66.2645943604
 10
-41.018547821
 20
66.1217410583
 10
-41.018547821
 20
66.0503098755
 10
-41.1614056549
 20
65.9074565735
 10
-41.2328323059
 20
65.9074565735
 10
-41.3042589569
 20
65.9788786926
 10
-41.3042589569
 20
66.0503098755
 10
-41.2328323059
 20
66.1931722412
 10
-41.1614056549
 20
66.2645943604
 10
-41.089974472
 20
66.2645943604
  0
LINE
  5
403
100
AcDbEntity
  8
RACCORDO
100
AcDbLine
 62
7
  6
CONTINUOUS
 10
-29.5224400975
 20
6.730439209
 11
-28.2818535658
 21
6.6979533074
  0
LINE
  5
404
100
AcDbEntity
  8
RACCORDO
100
AcDbLine
 62
250
  6
CONTINUOUS
 10
-29.5224400975
 20
7.2302678715
 11
-28.2818535658
 21
7.1977819698
  0
LINE
  5
405
100
AcDbEntity
  8
RACCORDO
100
AcDbLine
 62
250
  6
CONTINUOUS
 10
-32.4646895686
 20
7.8463968323
 11
-32.885017701
 21
7.891275829
  0
LWPOLYLINE
  5
406
100
AcDbEntity
  8
RACCORDO
100
AcDbPolyline
 62
250
  6
CONTINUOUS
 90
5
 70
0
 10
-32.885017701
 20
7.891275829
 10
-32.9257415109
 20
7.8958158859
 10
-32.9385849544
 20
7.8973021814
 10
-32.9463018387
 20
7.898252119
 10
-32.9488620422
 20
7.8986610639
  0
LWPOLYLINE
  5
407
100
AcDbEntity
  8
RACCORDO
100
AcDbPolyline
 62
250
  6
CONTINUOUS
 90
10
 70
0
 10
-29.613191623
 20
7.2409981241
 10
-29.6032205735
 20
7.2389872024
 10
-29.5932193259
 20
7.2371806202
 10
-29.5831878804
 20
7.2355783774
 10
-29.5731234572
 20
7.2341800362
 10
-29.563028836
 20
7.2329860344
 10
-29.5529123556
 20
7.2319976857
 10
-29.5427767955
 20
7.2312154279
 10
-29.5326193761
 20
7.2306388232
 10
-29.5224400975
 20
7.2302678715
  0
LINE
  5
408
100
AcDbEntity
  8
RACCORDO
100
AcDbLine
 62
7
  6
CONTINUOUS
 10
-32.555441094
 20
7.3572984225
 11
-29.7039431484
 21
6.7518997143
  0
LINE
  5
409
100
AcDbEntity
  8
RACCORDO
100
AcDbLine
 62
250
  6
CONTINUOUS
 10
-32.4646895686
 20
7.8463968323
 11
-29.613191623
 21
7.2409981241
  0
LINE
  5
40A
100
AcDbEntity
  8
DRAFT
100
AcDbLine
 62
7
  6
CONTINUOUS
 10
-28.2818535658
 20
18.0008186485
 11
-27.0818535658
 21
18.2558865225
  0
LINE
  5
40B
100
AcDbEntity
  8
RACCORDO
100
AcDbLine
 62
7
  6
CONTINUOUS
 10
-25.4382756944
 20
18.4495994761
 11
-25.5931784312
 21
18.4360472427
  0
LINE
  5
40C
100
AcDbEntity
  8
DRAFT
100
AcDbLine
 62
7
  6
CONTINUOUS
 10
-25.5931784312
 20
18.4360472427
 11
-28.2818535658
 21
18.2008186485
  0
LINE
  5
40D
100
AcDbEntity
  8
RACCORDO
100
AcDbLine
 62
250
  6
CONTINUOUS
 10
-28.2582869537
 20
22.9501787608
 11
-28.2818535658
 21
22.9505901175
  0
LINE
  5
40E
100
AcDbEntity
  8
RACCORDO
100
AcDbLine
 62
7
  6
CONTINUOUS
 10
-28.2818535658
 20
23.0512300053
 11
-28.2582869537
 21
23.0508186485
  0
LINE
  5
40F
100
AcDbEntity
  8
RACCORDO
100
AcDbLine
 62
250
  6
CONTINUOUS
 10
-28.2818535658
 20
23.5511538529
 11
-28.2582869537
 21
23.5507424961
  0
LINE
  5
410
100
AcDbEntity
  8
RACCORDO
100
AcDbLine
 62
7
  6
CONTINUOUS
 10
-25.4382756944
 20
21.1520378209
 11
-25.5931784312
 21
21.1655900544
  0
LINE
  5
411
100
AcDbEntity
  8
DRAFT
100
AcDbLine
 62
7
  6
CONTINUOUS
 10
-25.5931784312
 20
21.1655900544
 11
-28.2818535658
 21
21.4008186485
  0
LINE
  5
412
100
AcDbEntity
  8
RACCORDO
100
AcDbLine
 62
250
  6
CONTINUOUS
 10
-30.8967361734
 20
22.764476882
 11
-31.3165003384
 21
22.8092938362
  0
LWPOLYLINE
  5
413
100
AcDbEntity
  8
RACCORDO
100
AcDbPolyline
 62
250
  6
CONTINUOUS
 90
5
 70
0
 10
-31.3165003384
 20
22.8092938362
 10
-31.3574082102
 20
22.8138526945
 10
-31.3704275366
 20
22.8153580676
 10
-31.3782887823
 20
22.8163242868
 10
-31.3809086469
 20
22.8167411136
  0
LINE
  5
414
100
AcDbEntity
  8
DRAFT
100
AcDbLine
 62
7
  6
CONTINUOUS
 10
-28.2818535658
 20
21.6008186485
 11
-27.0818535658
 21
21.3457507745
  0
LINE
  5
415
100
AcDbEntity
  8
RACCORDO
100
AcDbLine
 62
250
  6
CONTINUOUS
 10
-28.2818535658
 20
25.5504834442
 11
-28.2582869537
 21
25.550894801
  0
LINE
  5
416
100
AcDbEntity
  8
RACCORDO
100
AcDbLine
 62
7
  6
CONTINUOUS
 10
-28.2818535658
 20
26.0504072918
 11
-28.2582869537
 21
26.0508186485
  0
LINE
  5
417
100
AcDbEntity
  8
RACCORDO
100
AcDbLine
 62
250
  6
CONTINUOUS
 10
-28.2818535658
 20
26.1497369444
 11
-28.2582869537
 21
26.1501483011
  0
LINE
  5
418
100
AcDbEntity
  8
DRAFT
100
AcDbLine
 62
7
  6
CONTINUOUS
 10
-27.2245527013
 20
27.3508186485
 11
-27.7368535658
 21
27.3508186485
  0
LINE
  5
419
100
AcDbEntity
  8
IMPORT_IGES
100
AcDbLine
 62
7
  6
CONTINUOUS
 10
-27.5708558082
 20
36.6434859044
 11
-27.2075535777
 21
36.4233565248
  0
LINE
  5
41A
100
AcDbEntity
  8
RACCORDO
100
AcDbLine
 62
250
  6
CONTINUOUS
 10
-27.1480286398
 20
54.2753729628
 11
-26.9365855153
 21
54.0602068762
  0
LINE
  5
41B
100
AcDbEntity
  8
RACCORDO
100
AcDbLine
 62
7
  6
CONTINUOUS
 10
-26.9366714657
 20
54.4856457421
 11
-26.7252283412
 21
54.2704796554
  0
LWPOLYLINE
  5
41C
100
AcDbEntity
  8
RACCORDO
100
AcDbPolyline
 62
250
  6
CONTINUOUS
 90
10
 70
0
 10
-26.9365855153
 20
54.0602068762
 10
-26.9256941534
 20
54.0483335683
 10
-26.9158459328
 20
54.0355162425
 10
-26.9070408536
 20
54.0217548987
 10
-26.8991633877
 20
54.0070249973
 10
-26.8923290631
 20
53.9913510779
 10
-26.8868844642
 20
53.974806759
 10
-26.8829451189
 20
53.95741658
 10
-26.8803954992
 20
53.9391560014
 10
-26.8792356051
 20
53.9200250233
  0
LINE
  5
41D
100
AcDbEntity
  8
RACCORDO
100
AcDbLine
 62
7
  6
CONTINUOUS
 10
-28.0456968068
 20
34.4938495407
 11
-28.2512189592
 21
34.4361936833
  0
LWPOLYLINE
  5
41E
100
AcDbEntity
  8
RACCORDO
100
AcDbPolyline
 62
7
  6
CONTINUOUS
 90
4
 70
0
 10
-28.2593378234
 20
34.4338535049
 10
-28.2733115585
 20
34.4299287211
 10
-28.2786742061
 20
34.4282773366
 10
-28.2818535658
 20
34.4271825398
  0
LINE
  5
41F
100
AcDbEntity
  8
RACCORDO
100
AcDbLine
 62
7
  6
CONTINUOUS
 10
-28.0283879759
 20
34.4986576036
 11
-28.0456968068
 21
34.4938495407
  0
LINE
  5
420
100
AcDbEntity
  8
RACCORDO
100
AcDbLine
 62
7
  6
CONTINUOUS
 10
-27.6551567694
 20
36.0599851183
 11
-27.7638251811
 21
36.0336918517
  0
LWPOLYLINE
  5
421
100
AcDbEntity
  8
RACCORDO
100
AcDbPolyline
 62
7
  6
CONTINUOUS
 90
3
 70
0
 10
-27.7638251811
 20
36.0336918517
 10
-27.9830378123
 20
35.9820044838
 10
-27.991912075
 20
35.9798734568
  0
LWPOLYLINE
  5
422
100
AcDbEntity
  8
RACCORDO
100
AcDbPolyline
 62
7
  6
CONTINUOUS
 90
6
 70
0
 10
-27.991912075
 20
35.9798734568
 10
-28.0081661005
 20
35.9761501265
 10
-28.0147721442
 20
35.9744205011
 10
-28.0199481593
 20
35.9728771008
 10
-28.0238911203
 20
35.9718020417
 10
-28.0265938969
 20
35.9714325423
  0
LWPOLYLINE
  5
423
100
AcDbEntity
  8
RACCORDO
100
AcDbPolyline
 62
7
  6
CONTINUOUS
 90
7
 70
0
 10
-28.0154679828
 20
35.2161155943
 10
-28.2484240186
 20
35.1663994304
 10
-28.2570299295
 20
35.1645268734
 10
-28.2649132705
 20
35.16285882
 10
-28.2719861644
 20
35.1613949035
 10
-28.277787008
 20
35.1600244846
 10
-28.2818535658
 20
35.1589212028
  0
LINE
  5
424
100
AcDbEntity
  8
RACCORDO
100
AcDbLine
 62
7
  6
CONTINUOUS
 10
-27.6412980361
 20
36.6669301733
 11
-27.7524493895
 21
36.6450875045
  0
LWPOLYLINE
  5
425
100
AcDbEntity
  8
RACCORDO
100
AcDbPolyline
 62
7
  6
CONTINUOUS
 90
3
 70
0
 10
-27.7524493895
 20
36.6450875045
 10
-27.976796271
 20
36.6023975735
 10
-27.985915797
 20
36.6006263164
  0
LWPOLYLINE
  5
426
100
AcDbEntity
  8
RACCORDO
100
AcDbPolyline
 62
7
  6
CONTINUOUS
 90
6
 70
0
 10
-27.985915797
 20
36.6006263164
 10
-28.0026610308
 20
36.5975588849
 10
-28.0094991924
 20
36.5960872129
 10
-28.0148852267
 20
36.5947393377
 10
-28.019008998
 20
36.5938130269
 10
-28.0218535658
 20
36.5935519263
  0
LINE
  5
427
100
AcDbEntity
  8
RACCORDO
100
AcDbLine
 62
7
  6
CONTINUOUS
 10
-27.0368535658
 20
31.2703457395
 11
-25.695029477
 21
31.5069455297
  0
LINE
  5
428
100
AcDbEntity
  8
RACCORDO
100
AcDbLine
 62
7
  6
CONTINUOUS
 10
-27.036811223
 20
32.986530076
 11
-27.3071769905
 21
32.986530076
  0
LINE
  5
429
100
AcDbEntity
  8
DRAFT
100
AcDbLine
 62
7
  6
CONTINUOUS
 10
-27.3071769817
 20
32.986530076
 11
-27.5718535658
 21
32.986530076
  0
LINE
  5
42A
100
AcDbEntity
  8
RACCORDO
100
AcDbLine
 62
7
  6
CONTINUOUS
 10
-28.2818535658
 20
35.979747053
 11
-28.0265936333
 21
35.9714325337
  0
LINE
  5
42B
100
AcDbEntity
  8
RACCORDO
100
AcDbLine
 62
250
  6
CONTINUOUS
 10
-28.2818535658
 20
33.7011505262
 11
-28.0455915119
 21
33.6885470579
  0
LINE
  5
42C
100
AcDbEntity
  8
RACCORDO
100
AcDbLine
 62
250
  6
CONTINUOUS
 10
-28.2818535658
 20
34.5262421389
 11
-28.0283879759
 21
34.4986576036
  0
LINE
  5
42D
100
AcDbEntity
  8
RACCORDO
100
AcDbLine
 62
250
  6
CONTINUOUS
 10
-28.2818535658
 20
35.2587337933
 11
-28.0154679828
 21
35.2161155943
  0
LINE
  5
42E
100
AcDbEntity
  8
RACCORDO
100
AcDbLine
 62
7
  6
CONTINUOUS
 10
-27.183683647
 20
34.8571816625
 11
-25.695029477
 21
34.5946917673
  0
LINE
  5
42F
100
AcDbEntity
  8
0
100
AcDbLine
 62
7
  6
CONTINUOUS
 10
-27.5468581004
 20
38.8508186485
 11
-27.3468581004
 21
38.8508186485
  0
LINE
  5
430
100
AcDbEntity
  8
RACCORDO
100
AcDbLine
 62
250
  6
CONTINUOUS
 10
-28.2818535658
 20
36.0803983597
 11
-27.6551567694
 21
36.0599851183
  0
LWPOLYLINE
  5
431
100
AcDbEntity
  8
DRAFT
100
AcDbPolyline
 62
7
  6
CONTINUOUS
 90
25
 70
0
 10
-26.895029477
 20
39.7096220761
 10
-26.8664697915
 20
39.7082373765
 10
-26.8382942787
 20
39.7072069569
 10
-26.8105992388
 20
39.7065308171
 10
-26.7834747924
 20
39.7062139801
 10
-26.7570188634
 20
39.7062514231
 10
-26.731335595
 20
39.706628077
 10
-26.7065127008
 20
39.707349203
 10
-26.6826334251
 20
39.70840954
 10
-26.6597882543
 20
39.7097782357
 10
-26.6380544296
 20
39.711459029
 10
-26.6175017094
 20
39.713448181
 10
-26.5982012986
 20
39.715703623
 10
-26.5802179522
 20
39.7182271145
 10
-26.5636058212
 20
39.7210168961
 10
-26.5484134882
 20
39.7240256199
 10
-26.5346901479
 20
39.7272537899
 10
-26.5224784493
 20
39.7307009022
 10
-26.5118125237
 20
39.7343180974
 10
-26.5027277919
 20
39.7381047665
 10
-26.4952530681
 20
39.7420615185
 10
-26.489409421
 20
39.7461413208
 10
-26.4852178013
 20
39.7503284958
 10
-26.4826956744
 20
39.7546387211
 10
-26.4818535658
 20
39.7590719966
  0
LINE
  5
432
100
AcDbEntity
  8
RACCORDO
100
AcDbLine
 62
7
  6
CONTINUOUS
 10
-28.2818535658
 20
36.6122789148
 11
-28.0218538722
 21
36.5935519484
  0
LINE
  5
433
100
AcDbEntity
  8
RACCORDO
100
AcDbLine
 62
250
  6
CONTINUOUS
 10
-28.2818535658
 20
36.7130673889
 11
-27.6412980361
 21
36.6669301733
  0
LINE
  5
434
100
AcDbEntity
  8
DRAFT
100
AcDbLine
 62
7
  6
CONTINUOUS
 10
-28.2818535658
 20
40.0508186485
 11
-26.4818535658
 21
39.8933390542
  0
LINE
  5
435
100
AcDbEntity
  8
RACCORDO
100
AcDbLine
 62
7
  6
CONTINUOUS
 10
-28.2818535658
 20
37.2173243868
 11
-27.8203833713
 21
37.1675463277
  0
LINE
  5
436
100
AcDbEntity
  8
RACCORDO
100
AcDbLine
 62
7
  6
CONTINUOUS
 10
-28.2818535658
 20
37.8036897658
 11
-28.0218535658
 21
37.7676004865
  0
LINE
  5
437
100
AcDbEntity
  8
RACCORDO
100
AcDbLine
 62
250
  6
CONTINUOUS
 10
-28.2818535658
 20
37.982174783
 11
-27.6702076279
 21
37.896888937
  0
LINE
  5
438
100
AcDbEntity
  8
RACCORDO
100
AcDbLine
 62
250
  6
CONTINUOUS
 10
-29.79494204
 20
43.7879613435
 11
-30.2818535658
 21
43.7879613435
  0
LWPOLYLINE
  5
439
100
AcDbEntity
  8
0
100
AcDbPolyline
 62
7
  6
CONTINUOUS
 90
13
 70
0
 43
0.3500000006
 10
-39.2863212433
 20
74.7257045288
 10
-39.572036911
 20
74.9399980774
 10
-39.572036911
 20
75.582851532
 10
-39.2863212433
 20
76.0114205017
 10
-38.6434632568
 20
76.0114205017
 10
-38.3577475891
 20
75.582851532
 10
-38.3577475891
 20
74.9399980774
 10
-38.6434632568
 20
74.7257045288
 10
-38.2148942871
 20
74.2971355591
 10
-38.2148942871
 20
73.4399976196
 10
-38.6434632568
 20
73.0114195862
 10
-39.2863212433
 20
73.0114195862
 10
-39.7148947449
 20
73.4399976196
  0
LWPOLYLINE
  5
43A
100
AcDbEntity
  8
RACCORDO
100
AcDbPolyline
 62
250
  6
CONTINUOUS
 90
34
 70
0
 10
-27.134601761
 20
55.0091743844
 10
-27.0845444652
 20
55.0206900206
 10
-27.0367437755
 20
55.0361042583
 10
-26.9911996916
 20
55.0554170977
 10
-26.9477091151
 20
55.0788102669
 10
-26.9064751445
 20
55.1061020378
 10
-26.868107076
 20
55.1367472251
 10
-26.8325304299
 20
55.1708743486
 10
-26.7998196857
 20
55.2083548886
 10
-26.770807578
 20
55.2482581013
 10
-26.7456031485
 20
55.2906309871
 10
-26.7240973555
 20
55.3354265456
 10
-26.706795808
 20
55.3815730314
 10
-26.6937953125
 20
55.4290855823
 10
-26.6849990626
 20
55.4779490606
 10
-26.6806222482
 20
55.527046307
 10
-26.6807946473
 20
55.5764638493
 10
-26.6853864819
 20
55.6261151599
 10
-26.6942236073
 20
55.6746234964
 10
-26.7076966551
 20
55.7221691229
 10
-26.7254149938
 20
55.7685717753
 10
-26.7460325833
 20
55.8119139195
 10
-26.7696862469
 20
55.8517150244
 10
-26.7962391613
 20
55.888455621
 10
-26.8239348172
 20
55.9216597674
 10
-26.8521414377
 20
55.9507988871
 10
-26.8814907996
 20
55.9764015567
 10
-26.912121725
 20
55.9995775642
 10
-26.9436544133
 20
56.0206016672
 10
-26.9764686651
 20
56.0391991082
 10
-27.0118427034
 20
56.0556554017
 10
-27.0502026027
 20
56.0700657194
 10
-27.0911222886
 20
56.0823348898
 10
-27.134601761
 20
56.0924629127
  0
LINE
  5
43B
100
AcDbEntity
  8
RACCORDO
100
AcDbLine
 62
7
  6
CONTINUOUS
 10
-28.2818535658
 20
54.6041053599
 11
-27.1016174325
 21
54.8122128338
  0
LINE
  5
43C
100
AcDbEntity
  8
RACCORDO
100
AcDbLine
 62
250
  6
CONTINUOUS
 10
-28.2818535658
 20
54.8068829375
 11
-27.134601761
 21
55.0091743844
  0
LINE
  5
43D
100
AcDbEntity
  8
RACCORDO
100
AcDbLine
 62
250
  6
CONTINUOUS
 10
-28.2818535658
 20
58.9038553272
 11
-29.79494204
 21
58.8642337111
  0
LINE
  5
43E
100
AcDbEntity
  8
RACCORDO
100
AcDbLine
 62
7
  6
CONTINUOUS
 10
-28.2818535658
 20
59.4036839897
 11
-29.79494204
 21
59.3640623736
  0
LINE
  5
43F
100
AcDbEntity
  8
RACCORDO
100
AcDbLine
 62
7
  6
CONTINUOUS
 10
-26.7305445855
 20
52.8713382111
 11
-28.2818535658
 21
52.8578001428
  0
LINE
  5
440
100
AcDbEntity
  8
RACCORDO
100
AcDbLine
 62
7
  6
CONTINUOUS
 10
-28.2818535658
 20
55.2578001428
 11
-27.5495790137
 21
55.264190606
  0
LINE
  5
441
100
AcDbEntity
  8
RACCORDO
100
AcDbLine
 62
250
  6
CONTINUOUS
 10
-28.2818535658
 20
55.456573593
 11
-27.2660069121
 21
55.4654387524
  0
LINE
  5
442
100
AcDbEntity
  8
RACCORDO
100
AcDbLine
 62
250
  6
CONTINUOUS
 10
-26.5818535658
 20
53.9200250233
 11
-26.8792356051
 21
53.9200250233
  0
LINE
  5
443
100
AcDbEntity
  8
RACCORDO
100
AcDbLine
 62
250
  6
CONTINUOUS
 10
-29.79494204
 20
58.8642337111
 11
-30.2818535658
 21
58.8642337111
  0
LWPOLYLINE
  5
444
100
AcDbEntity
  8
0
100
AcDbPolyline
 62
7
  6
CONTINUOUS
 90
3
 70
0
 43
0.3500000006
 10
-42.5899749298
 20
66.4074567261
 10
-44.0899753876
 20
66.4074567261
 10
-43.4471174011
 20
68.7645951233
  0
LINE
  5
445
100
AcDbEntity
  8
RACCORDO
100
AcDbLine
 62
7
  6
CONTINUOUS
 10
-28.2818535658
 20
53.4399423005
 11
-26.8792356051
 21
53.4360386099
  0
LINE
  5
446
100
AcDbEntity
  8
RACCORDO
100
AcDbLine
 62
250
  6
CONTINUOUS
 10
-26.7305445855
 20
53.154728854
 11
-28.2818535658
 21
53.1625667191
  0
LINE
  5
447
100
AcDbEntity
  8
RACCORDO
100
AcDbLine
 62
250
  6
CONTINUOUS
 10
-28.2818535658
 20
54.3438485774
 11
-27.2889334225
 21
54.3351834946
  0
LINE
  5
448
100
AcDbEntity
  8
RACCORDO
100
AcDbLine
 62
7
  6
CONTINUOUS
 10
-28.067149604
 20
54.6419634612
 11
-27.2889334225
 21
54.6351720715
  0
LINE
  5
449
100
AcDbEntity
  8
RACCORDO
100
AcDbLine
 62
250
  6
CONTINUOUS
 10
-27.2660069121
 20
55.6361985447
 11
-28.2818535658
 21
55.6450637041
  0
LINE
  5
44A
100
AcDbEntity
  8
RACCORDO
100
AcDbLine
 62
7
  6
CONTINUOUS
 10
-27.5495790137
 20
55.8374466911
 11
-28.2818535658
 21
55.8438371543
  0
LWPOLYLINE
  5
44B
100
AcDbEntity
  8
RACCORDO
100
AcDbPolyline
 62
250
  6
CONTINUOUS
 90
13
 70
0
 10
-26.7305445855
 20
53.154728854
 10
-26.7110856277
 20
53.1538957819
 10
-26.6919780833
 20
53.1516074037
 10
-26.6735452703
 20
53.147902441
 10
-26.6560990896
 20
53.1428435852
 10
-26.6399347472
 20
53.136516437
 10
-26.6253257595
 20
53.1290280578
 10
-26.6125193243
 20
53.1205051583
 10
-26.601732139
 20
53.111091954
 10
-26.593146733
 20
53.1009477254
 10
-26.5869083796
 20
53.0902441225
 10
-26.5831226377
 20
53.0791622606
 10
-26.5818535658
 20
53.0678896555
  0
LWPOLYLINE
  5
44C
100
AcDbEntity
  8
RACCORDO
100
AcDbPolyline
 62
250
  6
CONTINUOUS
 90
13
 70
0
 10
-27.2889334225
 20
54.3351834946
 10
-27.2746880409
 20
54.3343948316
 10
-27.2610494791
 20
54.3328630812
 10
-27.2480177369
 20
54.3305882433
 10
-27.2356912796
 20
54.3275561637
 10
-27.223971642
 20
54.3237809966
 10
-27.2125634289
 20
54.3193052045
 10
-27.2014435324
 20
54.3142336557
 10
-27.1906350604
 20
54.3084614818
 10
-27.1799119422
 20
54.3017165398
 10
-27.1691988209
 20
54.2939081155
 10
-27.1585710534
 20
54.2851269232
 10
-27.1480286398
 20
54.2753729628
  0
LINE
  5
44D
100
AcDbEntity
  8
RACCORDO
100
AcDbLine
 62
250
  6
CONTINUOUS
 10
-27.134601761
 20
56.0924629127
 11
-28.2818535658
 21
56.2947543595
  0
LINE
  5
44E
100
AcDbEntity
  8
RACCORDO
100
AcDbLine
 62
7
  6
CONTINUOUS
 10
-27.1016174325
 20
56.2894244633
 11
-28.2818535658
 21
56.4975319372
  0
ARC
  5
44F
100
AcDbEntity
  8
0
100
AcDbCircle
 62
7
  6
CONTINUOUS
 10
3.7165873809
 20
19.4690843432
 40
0.1040011461
100
AcDbArc
 50
9.9942650217
 51
100.002610229
  0
ARC
  5
450
100
AcDbEntity
  8
RACCORDO
100
AcDbCircle
 62
7
  6
CONTINUOUS
 10
-29.4962631492
 20
7.730096534
 40
1.0
100
AcDbArc
 50
258.0135711831
 51
268.5
  0
ARC
  5
451
100
AcDbEntity
  8
RACCORDO
100
AcDbCircle
 62
7
  6
CONTINUOUS
 10
-27.2318535658
 20
55.5508186485
 40
0.75
100
AcDbArc
 50
280.0
 51
80.0
  0
ARC
  5
452
100
AcDbEntity
  8
RACCORDO
100
AcDbCircle
 62
7
  6
CONTINUOUS
 10
-25.4818535658
 20
20.6539404719
 40
0.5
100
AcDbArc
 50
0.0
 51
85.0
  0
ARC
  5
453
100
AcDbEntity
  8
RACCORDO
100
AcDbCircle
 62
7
  6
CONTINUOUS
 10
-25.4818535658
 20
18.9476968252
 40
0.5
100
AcDbArc
 50
275.0
 51
360.0
  0
ARC
  5
454
100
AcDbEntity
  8
RACCORDO
100
AcDbCircle
 62
7
  6
CONTINUOUS
 10
-32.4516010945
 20
7.8463968323
 40
0.5
100
AcDbArc
 50
174.0
 51
258.0135711831
  0
ARC
  5
455
100
AcDbEntity
  8
RACCORDO
100
AcDbCircle
 62
7
  6
CONTINUOUS
 10
-29.7818535658
 20
58.8642337111
 40
0.5
100
AcDbArc
 50
91.5
 51
180.0
  0
ARC
  5
456
100
AcDbEntity
  8
RACCORDO
100
AcDbCircle
 62
7
  6
CONTINUOUS
 10
-27.2932966903
 20
54.13519111
 40
0.5
100
AcDbArc
 50
44.5
 51
89.5
  0
ARC
  5
457
100
AcDbEntity
  8
RACCORDO
100
AcDbCircle
 62
7
  6
CONTINUOUS
 10
-27.0818535658
 20
53.9200250233
 40
0.5
100
AcDbArc
 50
0.0
 51
44.5
  0
ARC
  5
458
100
AcDbEntity
  8
RACCORDO
100
AcDbCircle
 62
7
  6
CONTINUOUS
 10
-25.7818535658
 20
34.1022878908
 40
0.5
100
AcDbArc
 50
0.0
 51
80.0
  0
ARC
  5
459
100
AcDbEntity
  8
RACCORDO
100
AcDbCircle
 62
7
  6
CONTINUOUS
 10
-25.7818535658
 20
31.9993494063
 40
0.5
100
AcDbArc
 50
280.0
 51
360.0
  0
ARC
  5
45A
100
AcDbEntity
  8
RACCORDO
100
AcDbCircle
 62
7
  6
CONTINUOUS
 10
-26.7318535658
 20
53.0213324996
 40
0.15
100
AcDbArc
 50
270.5
 51
360.0
  0
ARC
  5
45B
100
AcDbEntity
  8
RACCORDO
100
AcDbCircle
 62
7
  6
CONTINUOUS
 10
-27.233683647
 20
36.3807276675
 40
0.05
100
AcDbArc
 50
0.0
 51
58.4930902702
  0
ELLIPSE
  5
45C
100
AcDbEntity
  8
RACCORDO
100
AcDbEllipse
 62
7
  6
CONTINUOUS
 10
10.2825802607
 20
7.1981247036
 30
0.0
 11
-0.35379574
 21
0.35379574
 31
0.0
 40
0.999315002
 41
-3.9266482006
 42
-2.3565371065
  0
ELLIPSE
  5
45D
100
AcDbEntity
  8
RACCORDO
100
AcDbEllipse
 62
7
  6
CONTINUOUS
 10
10.2825802607
 20
58.9035125935
 30
0.0
 11
0.35379574
 21
0.35379574
 31
0.0
 40
0.999315002
 41
-0.7850555471
 42
0.7850555471
  0
ELLIPSE
  5
45E
100
AcDbEntity
  8
RACCORDO
100
AcDbEllipse
 62
7
  6
CONTINUOUS
 10
-10.8228076291
 20
58.9035125935
 30
0.0
 11
-0.35379574
 21
0.35379574
 31
0.0
 40
0.999315002
 41
-0.7850555471
 42
0.7850555471
  0
ELLIPSE
  5
45F
100
AcDbEntity
  8
RACCORDO
100
AcDbEllipse
 62
7
  6
CONTINUOUS
 10
-10.8228076291
 20
7.1981247036
 30
0.0
 11
0.35379574
 21
0.35379574
 31
0.0
 40
0.999315002
 41
-3.9266482006
 42
-2.3565371065
  0
ELLIPSE
  5
460
100
AcDbEntity
  8
0
100
AcDbEllipse
 62
7
  6
CONTINUOUS
 10
-10.9717413802
 20
28.2508186485
 30
0.0
 11
63.2804152257
 21
0.0
 31
0.0
 40
0.1761108909
 41
1.8251610131
 42
1.8478741742
  0
ELLIPSE
  5
461
100
AcDbEntity
  8
RACCORDO
100
AcDbEllipse
 62
7
  6
CONTINUOUS
 10
-26.8818535658
 20
53.8585663319
 30
0.0
 11
-0.0064728562
 21
0.4225035608
 31
0.0
 40
0.7098878919
 41
-3.154443869
 42
-2.6345261014
  0
ELLIPSE
  5
462
100
AcDbEntity
  8
RACCORDO
100
AcDbEllipse
 62
7
  6
CONTINUOUS
 10
-27.551339686
 20
55.6374544406
 30
0.0
 11
0.2853275264
 21
-0.0024688431
 31
0.0
 40
0.7009226047
 41
0.0060647732
 42
1.5706904684
  0
ELLIPSE
  5
463
100
AcDbEntity
  8
RACCORDO
100
AcDbEllipse
 62
7
  6
CONTINUOUS
 10
-27.551339686
 20
55.4641828565
 30
0.0
 11
0.2853275264
 21
0.0024688431
 31
0.0
 40
0.7009226047
 41
-1.5706904684
 42
-0.0060647732
  0
ELLIPSE
  5
464
100
AcDbEntity
  8
0
100
AcDbEllipse
 62
7
  6
CONTINUOUS
 10
-53.5218734378
 20
28.2508186485
 30
0.0
 11
79.4445384914
 21
0.0
 31
0.0
 40
0.153091273
 41
1.2290184413
 42
1.2474869946
  0
ENDSEC
  0
SECTION
  2
OBJECTS
  0
DICTIONARY
  5
C
100
AcDbDictionary
280
0
281
1
  3
ACAD_GROUP
350
D
  3
ACAD_MLINESTYLE
350
17
  3
ACAD_LAYOUT
350
1A
  3
ACAD_PLOTSETTINGS
350
19
  3
ACAD_PLOTSTYLENAME
350
E
  0
DICTIONARY
  5
D
102
{ACAD_REACTORS
330
C
102
}
100
AcDbDictionary
280
0
281
1
  0
ACDBDICTIONARYWDFLT
  5
E
102
{ACAD_REACTORS
330
C
102
}
100
AcDbDictionary
281
1
  3
Normal
350
F
100
AcDbDictionaryWithDefault
340
F
  0
DICTIONARY
  5
17
102
{ACAD_REACTORS
330
C
102
}
100
AcDbDictionary
280
0
281
1
  3
Standard
350
18
  0
DICTIONARY
  5
19
102
{ACAD_REACTORS
330
C
102
}
100
AcDbDictionary
281
1
  0
DICTIONARY
  5
1A
102
{ACAD_REACTORS
330
C
102
}
100
AcDbDictionary
281
1
  3
Model
350
465
  3
Layout1
350
466
  0
ACDBPLACEHOLDER
  5
F
102
{ACAD_REACTORS
330
E
102
}
  0
MLINESTYLE
  5
18
102
{ACAD_REACTORS
330
17
102
}
100
AcDbMlineStyle
  2
STANDARD
 70
0
  3

 62
256
 51
90.0
 52
90.0
 71
2
 49
0.5
 62
256
  6
BYLAYER
 49
-0.5
 62
256
  6
BYLAYER
  0
LAYOUT
  5
465
102
{ACAD_REACTORS
330
1A
102
}
100
AcDbPlotSettings
  1

  2
none_device
  4
ISO_A4_(297.00_x_210.00_MM)
  6

 40
0.0
 41
0.0
 42
0.0
 43
0.0
 44
297.0
 45
210.0
 46
0.0
 47
0.0
 48
0.0
 49
0.0
140
0.0
141
0.0
142
1.0
143
1.0
 70
1024
 72
1
 73
0
 74
0
  7

 75
0
147
1.0
148
0.0
149
0.0
100
AcDbLayout
  1
Model
 70
0
 71
0
 10
0.0
 20
0.0
 11
297.0
 21
210.0
 12
0.0
 22
0.0
 32
0.0
 14
0.0
 24
0.0
 34
0.0
 15
0.0
 25
0.0
 35
0.0
146
0.0
 13
0.0
 23
0.0
 33
0.0
 16
1.0
 26
0.0
 36
0.0
 17
0.0
 27
1.0
 37
0.0
 76
0
330
21A
345
0
346
0
  0
LAYOUT
  5
466
102
{ACAD_REACTORS
330
1A
102
}
100
AcDbPlotSettings
  1

  2
none_device
  4
ISO_A4_(297.00_x_210.00_MM)
  6

 40
0.0
 41
0.0
 42
0.0
 43
0.0
 44
297.0
 45
210.0
 46
0.0
 47
0.0
 48
0.0
 49
0.0
140
0.0
141
0.0
142
1.0
143
1.0
 70
0
 72
1
 73
0
 74
0
  7

 75
0
147
1.0
148
0.0
149
0.0
100
AcDbLayout
  1
Layout1
 70
0
 71
1
 10
0.0
 20
0.0
 11
297.0
 21
210.0
 12
0.0
 22
0.0
 32
0.0
 14
0.0
 24
0.0
 34
0.0
 15
0.0
 25
0.0
 35
0.0
146
0.0
 13
0.0
 23
0.0
 33
0.0
 16
1.0
 26
0.0
 36
0.0
 17
0.0
 27
1.0
 37
0.0
 76
0
330
21B
345
0
346
0
  0
ENDSEC
  0
EOF
