  0
SECTION
  2
HEADER
  9
$ACADVER
  1
AC1024
  9
$DWGCODEPAGE
  3
ANSI_1252
  9
$EXTMAX
 10
297.0
 20
210.0
 30
0.0
  9
$EXTMIN
 10
0.0
 20
0.0
 30
0.0
  9
$LIMMIN
 10
0.0
 20
0.0
  9
$LIMMAX
 10
297.0
 20
210.0
  9
$VIEWCTR
 10
148.5
 20
105.0
  9
$VIEWSIZE
 40
210.0
  9
$CLAYER
  8
0
  9
$LTSCALE
 40
16.335
  9
$CELTYPE
  6
BYLAYER
  9
$DIMSCALE
 40
1.0
  9
$DIMASZ
 40
3.0
  9
$DIMEXO
 40
0.5
  9
$DIMDLI
 40
11.286
  9
$DIMEXE
 40
1.5
  9
$DIMCEN
 40
2.673
  9
$DIMLFAC
 40
1.0
  9
$DIMBLK
  1
_FILLED
  9
$DIMALT
 70
0
  9
$DIMALTF
 40
0.0393700787
  9
$DIMTXT
 40
3.0
  9
$DIMTOL
 70
1
  9
$DIMLIM
 70
0
  9
$DIMTFAC
 40
1.0
  9
$DIMTP
 40
0.01
  9
$DIMTM
 40
0.01
  9
$DIMGAP
 40
0.625
  9
$DIMDSEP
 70
44
  9
$AUNITS
 70
0
  9
$PDMODE
 70
3
  9
$PDSIZE
 40
3.0
  9
$HANDSEED
  5
343
  9
$TILEMODE
 70
1
  9
$MEASUREMENT
 70
1
  9
$INSUNITS
 70
4
  0
ENDSEC
  0
SECTION
  2
CLASSES
  0
CLASS
  1
ACDBDICTIONARYWDFLT
  2
AcDbDictionaryWithDefault
  3
AutoCAD 2000
 90
0
 91
1
280
0
281
0
  0
CLASS
  1
ACDBPLACEHOLDER
  2
AcDbPlaceHolder
  3
AutoCAD 2000
 90
0
 91
1
280
0
281
0
  0
CLASS
  1
LAYOUT
  2
AcDbLayout
  3
AutoCAD 2000
 90
0
 91
0
280
0
281
0
  0
ENDSEC
  0
SECTION
  2
TABLES
  0
TABLE
  2
VPORT
  5
8
100
AcDbSymbolTable
 70
2
  0
VPORT
  5
1F4
100
AcDbSymbolTableRecord
100
AcDbViewportTableRecord
  2
*ACTIVE
 70
0
 10
0.0
 20
0.0
 11
1.0
 21
1.0
 12
148.5
 22
105.0
 13
0.0
 23
0.0
 14
1.0
 24
1.0
 15
0.0
 25
0.0
 16
0.0
 26
0.0
 36
1.0
 17
0.0
 27
0.0
 37
0.0
 40
210.0
 41
1.4142857143
 42
50.0
 43
0.0
 44
0.0
 50
0.0
 51
0.0
 71
0
 72
100
 73
1
 74
1
 75
0
 76
0
 77
0
 78
0
  0
ENDTAB
  0
TABLE
  2
LTYPE
  5
5
100
AcDbSymbolTable
 70
6
  0
LTYPE
  5
14
100
AcDbSymbolTableRecord
100
AcDbLinetypeTableRecord
  2
BYBLOCK
 70
0
  3

 72
65
 73
0
 40
0.0
  0
LTYPE
  5
15
100
AcDbSymbolTableRecord
100
AcDbLinetypeTableRecord
  2
BYLAYER
 70
0
  3

 72
65
 73
0
 40
0.0
  0
LTYPE
  5
16
100
AcDbSymbolTableRecord
100
AcDbLinetypeTableRecord
  2
CONTINUOUS
 70
64
  3
Solid line
 72
65
 73
0
 40
0.0
  0
LTYPE
  5
1F5
100
AcDbSymbolTableRecord
100
AcDbLinetypeTableRecord
  2
CENTER
 70
64
  3
____ _ ____ _ ____ _ ____ _ ____ _ ____ _ ____
 72
65
 73
4
 40
0.6
 49
0.375
 74
0
 49
-0.075
 74
0
 49
0.075
 74
0
 49
-0.075
 74
0
  0
LTYPE
  5
1F6
100
AcDbSymbolTableRecord
100
AcDbLinetypeTableRecord
  2
HIDDEN
 70
64
  3
- - - - - - - - - - - - - - - - - - - -
 72
65
 73
2
 40
0.2
 49
0.1
 74
0
 49
-0.1
 74
0
  0
LTYPE
  5
1F7
100
AcDbSymbolTableRecord
100
AcDbLinetypeTableRecord
  2
PHANTOM
 70
64
  3
_____ _ _ _____ _ _ _____ _ _ _____
 72
65
 73
6
 40
0.8
 49
0.45
 74
0
 49
-0.05
 74
0
 49
0.1
 74
0
 49
-0.05
 74
0
 49
0.1
 74
0
 49
-0.05
 74
0
  0
LTYPE
  5
1F8
100
AcDbSymbolTableRecord
100
AcDbLinetypeTableRecord
  2
DOT
 70
64
  3
. . . . . . . . . . . . . . . . . . . .
 72
65
 73
2
 40
0.2
 49
0.1
 74
0
 49
-0.1
 74
0
  0
LTYPE
  5
1F9
100
AcDbSymbolTableRecord
100
AcDbLinetypeTableRecord
  2
DASHED
 70
64
  3
- - - - - - - - - - - - - - - - - - - -
 72
65
 73
2
 40
0.2
 49
0.1
 74
0
 49
-0.1
 74
0
  0
ENDTAB
  0
TABLE
  2
LAYER
  5
2
100
AcDbSymbolTable
 70
36
  0
LAYER
  5
10
100
AcDbSymbolTableRecord
100
AcDbLayerTableRecord
  2
0
 70
0
 62
7
  6
CONTINUOUS
370
-3
390
F
  0
LAYER
  5
1FA
100
AcDbSymbolTableRecord
100
AcDbLayerTableRecord
  2
DEFAULT_1
 70
0
 62
7
  6
CENTER
370
-3
390
F
  0
LAYER
  5
1FB
100
AcDbSymbolTableRecord
100
AcDbLayerTableRecord
  2
DEFAULT_2
 70
0
 62
7
  6
HIDDEN
370
-3
390
F
  0
LAYER
  5
1FC
100
AcDbSymbolTableRecord
100
AcDbLayerTableRecord
  2
DEFAULT_3
 70
0
 62
7
  6
PHANTOM
370
-3
390
F
  0
LAYER
  5
1FD
100
AcDbSymbolTableRecord
100
AcDbLayerTableRecord
  2
ASSI
 70
0
 62
7
  6
CONTINUOUS
370
-3
390
F
  0
LAYER
  5
1FE
100
AcDbSymbolTableRecord
100
AcDbLayerTableRecord
  2
COORDINATE
 70
0
 62
7
  6
CONTINUOUS
370
-3
390
F
  0
LAYER
  5
1FF
100
AcDbSymbolTableRecord
100
AcDbLayerTableRecord
  2
COPY_PUBLISH
 70
0
 62
7
  6
CONTINUOUS
370
-3
390
F
  0
LAYER
  5
200
100
AcDbSymbolTableRecord
100
AcDbLayerTableRecord
  2
COSMETICI
 70
0
 62
7
  6
CONTINUOUS
370
-3
390
F
  0
LAYER
  5
201
100
AcDbSymbolTableRecord
100
AcDbLayerTableRecord
  2
CURVE
 70
0
 62
7
  6
CONTINUOUS
370
-3
390
F
  0
LAYER
  5
202
100
AcDbSymbolTableRecord
100
AcDbLayerTableRecord
  2
DRAFT
 70
0
 62
7
  6
CONTINUOUS
370
-3
390
F
  0
LAYER
  5
203
100
AcDbSymbolTableRecord
100
AcDbLayerTableRecord
  2
IMPORT_IGES
 70
0
 62
7
  6
CONTINUOUS
370
-3
390
F
  0
LAYER
  5
204
100
AcDbSymbolTableRecord
100
AcDbLayerTableRecord
  2
INTF_1
 70
0
 62
7
  6
CONTINUOUS
370
-3
390
F
  0
LAYER
  5
205
100
AcDbSymbolTableRecord
100
AcDbLayerTableRecord
  2
INTF_10
 70
0
 62
7
  6
CONTINUOUS
370
-3
390
F
  0
LAYER
  5
206
100
AcDbSymbolTableRecord
100
AcDbLayerTableRecord
  2
INTF_11
 70
0
 62
7
  6
CONTINUOUS
370
-3
390
F
  0
LAYER
  5
207
100
AcDbSymbolTableRecord
100
AcDbLayerTableRecord
  2
INTF_17
 70
0
 62
7
  6
CONTINUOUS
370
-3
390
F
  0
LAYER
  5
208
100
AcDbSymbolTableRecord
100
AcDbLayerTableRecord
  2
INTF_2
 70
0
 62
7
  6
CONTINUOUS
370
-3
390
F
  0
LAYER
  5
209
100
AcDbSymbolTableRecord
100
AcDbLayerTableRecord
  2
INTF_3
 70
0
 62
7
  6
CONTINUOUS
370
-3
390
F
  0
LAYER
  5
20A
100
AcDbSymbolTableRecord
100
AcDbLayerTableRecord
  2
INTF_4
 70
0
 62
7
  6
CONTINUOUS
370
-3
390
F
  0
LAYER
  5
20B
100
AcDbSymbolTableRecord
100
AcDbLayerTableRecord
  2
INTF_5
 70
0
 62
7
  6
CONTINUOUS
370
-3
390
F
  0
LAYER
  5
20C
100
AcDbSymbolTableRecord
100
AcDbLayerTableRecord
  2
INTF_6
 70
0
 62
7
  6
CONTINUOUS
370
-3
390
F
  0
LAYER
  5
20D
100
AcDbSymbolTableRecord
100
AcDbLayerTableRecord
  2
INTF_7
 70
0
 62
7
  6
CONTINUOUS
370
-3
390
F
  0
LAYER
  5
20E
100
AcDbSymbolTableRecord
100
AcDbLayerTableRecord
  2
INTF_8
 70
0
 62
7
  6
CONTINUOUS
370
-3
390
F
  0
LAYER
  5
20F
100
AcDbSymbolTableRecord
100
AcDbLayerTableRecord
  2
INTF_9
 70
0
 62
7
  6
CONTINUOUS
370
-3
390
F
  0
LAYER
  5
210
100
AcDbSymbolTableRecord
100
AcDbLayerTableRecord
  2
INTF_BLANK
 70
0
 62
7
  6
CONTINUOUS
370
-3
390
F
  0
LAYER
  5
211
100
AcDbSymbolTableRecord
100
AcDbLayerTableRecord
  2
INTF_RED
 70
0
 62
7
  6
CONTINUOUS
370
-3
390
F
  0
LAYER
  5
212
100
AcDbSymbolTableRecord
100
AcDbLayerTableRecord
  2
NOTE
 70
0
 62
7
  6
CONTINUOUS
370
-3
390
F
  0
LAYER
  5
213
100
AcDbSymbolTableRecord
100
AcDbLayerTableRecord
  2
PIANI
 70
0
 62
7
  6
CONTINUOUS
370
-3
390
F
  0
LAYER
  5
214
100
AcDbSymbolTableRecord
100
AcDbLayerTableRecord
  2
PUNTI
 70
0
 62
7
  6
CONTINUOUS
370
-3
390
F
  0
LAYER
  5
215
100
AcDbSymbolTableRecord
100
AcDbLayerTableRecord
  2
RACCORDO
 70
0
 62
7
  6
CONTINUOUS
370
-3
390
F
  0
LAYER
  5
216
100
AcDbSymbolTableRecord
100
AcDbLayerTableRecord
  2
RGB____0____0____0__
 70
0
 62
7
  6
CONTINUOUS
370
-3
390
F
  0
LAYER
  5
217
100
AcDbSymbolTableRecord
100
AcDbLayerTableRecord
  2
SIMBOLI
 70
0
 62
7
  6
CONTINUOUS
370
-3
390
F
  0
LAYER
  5
218
100
AcDbSymbolTableRecord
100
AcDbLayerTableRecord
  2
SMUSSO
 70
0
 62
7
  6
CONTINUOUS
370
-3
390
F
  0
LAYER
  5
219
100
AcDbSymbolTableRecord
100
AcDbLayerTableRecord
  2
SNAPLINE
 70
0
 62
7
  6
CONTINUOUS
370
-3
390
F
  0
LAYER
  5
21A
100
AcDbSymbolTableRecord
100
AcDbLayerTableRecord
  2
SUPERFICI
 70
0
 62
7
  6
CONTINUOUS
370
-3
390
F
  0
LAYER
  5
21B
100
AcDbSymbolTableRecord
100
AcDbLayerTableRecord
  2
TRASH
 70
0
 62
7
  6
CONTINUOUS
370
-3
390
F
  0
ENDTAB
  0
TABLE
  2
STYLE
  5
3
100
AcDbSymbolTable
 70
1
  0
STYLE
  5
11
100
AcDbSymbolTableRecord
100
AcDbTextStyleTableRecord
  2
STANDARD
 70
0
 40
0.0
 41
0.8
 50
0.0
 71
0
 42
0.2
  3
txt
  4

  0
STYLE
  5
21C
100
AcDbSymbolTableRecord
100
AcDbTextStyleTableRecord
  2
TEXTSTYLE_1
 70
0
 40
0.0
 41
0.8
 50
0.0
 71
0
 42
0.2
  3
gdt
  4

  0
ENDTAB
  0
TABLE
  2
VIEW
  5
6
100
AcDbSymbolTable
 70
0
  0
ENDTAB
  0
TABLE
  2
UCS
  5
7
100
AcDbSymbolTable
 70
0
  0
ENDTAB
  0
TABLE
  2
APPID
  5
9
100
AcDbSymbolTable
 70
1
  0
APPID
  5
21D
100
AcDbSymbolTableRecord
100
AcDbRegAppTableRecord
  2
ACAD
 70
0
  0
ENDTAB
  0
TABLE
  2
BLOCK_RECORD
  5
1
100
AcDbSymbolTable
 70
0
  0
BLOCK_RECORD
  5
21E
100
AcDbSymbolTableRecord
100
AcDbBlockTableRecord
  2
*Model_Space
  0
BLOCK_RECORD
  5
21F
100
AcDbSymbolTableRecord
100
AcDbBlockTableRecord
  2
*Paper_Space
  0
BLOCK_RECORD
  5
220
100
AcDbSymbolTableRecord
100
AcDbBlockTableRecord
  2
_FILLED
  0
BLOCK_RECORD
  5
221
100
AcDbSymbolTableRecord
100
AcDbBlockTableRecord
  2
*D0
  0
BLOCK_RECORD
  5
222
100
AcDbSymbolTableRecord
100
AcDbBlockTableRecord
  2
*D1
  0
BLOCK_RECORD
  5
223
100
AcDbSymbolTableRecord
100
AcDbBlockTableRecord
  2
*D2
  0
BLOCK_RECORD
  5
224
100
AcDbSymbolTableRecord
100
AcDbBlockTableRecord
  2
*D3
  0
ENDTAB
  0
TABLE
  2
DIMSTYLE
  5
A
100
AcDbSymbolTable
 70
1
100
AcDbDimStyleTable
 71
0
  0
DIMSTYLE
105
225
100
AcDbSymbolTableRecord
100
AcDbDimStyleTableRecord
  2
STANDARD
 70
0
  3

  4

 40
1.0
 41
3.0
 42
0.5
 43
0.38
 44
1.5
 45
0.0
 46
0.0
 47
0.01
 48
0.01
140
3.0
141
0.09
142
0.0
143
25.4
144
1.0
145
0.0
146
1.0
147
0.625
 71
1
 72
0
 73
0
 74
0
 75
0
 76
0
 77
1
 78
8
 79
2
170
0
171
1
172
0
173
0
174
0
175
0
176
0
177
0
178
0
270
2
179
2
271
2
272
2
273
2
274
2
275
0
280
0
281
0
282
0
283
1
284
8
285
0
286
0
287
3
288
0
340
11
278
44
341
220
342
220
343
220
344
220
  0
DIMSTYLE
105
226
100
AcDbSymbolTableRecord
100
AcDbDimStyleTableRecord
  2
DIMSTYLE_1
 70
0
  3

  4

 40
1.0
 41
3.0
 42
0.5
 43
0.38
 44
1.5
 45
0.0
 46
0.0
 47
0.0
 48
0.0
140
3.0
141
0.09
142
0.0
143
25.4
144
1.0
145
0.0
146
1.0
147
0.75
 71
0
 72
0
 73
0
 74
0
 75
0
 76
0
 77
1
 78
8
 79
2
170
0
171
1
172
0
173
0
174
0
175
0
176
0
177
0
178
0
270
2
179
2
271
1
272
1
273
2
274
2
275
0
280
0
281
0
282
0
283
1
284
8
285
0
286
0
287
3
288
0
340
11
278
44
341
220
342
220
343
220
344
220
  0
ENDTAB
  0
ENDSEC
  0
SECTION
  2
BLOCKS
  0
BLOCK
  5
20
100
AcDbEntity
  8
0
100
AcDbBlockBegin
  2
*Model_Space
 70
0
 10
0.0
 20
0.0
 30
0.0
  3
*Model_Space
  1

  0
ENDBLK
  5
21
100
AcDbEntity
  8
0
100
AcDbBlockEnd
  0
BLOCK
  5
1C
100
AcDbEntity
  8
0
100
AcDbBlockBegin
  2
*Paper_Space
 70
0
 10
0.0
 20
0.0
 30
0.0
  3
*Paper_Space
  1

  0
ENDBLK
  5
1D
100
AcDbEntity
  8
0
100
AcDbBlockEnd
  0
BLOCK
  5
227
100
AcDbEntity
  8
0
100
AcDbBlockBegin
  2
_FILLED
 70
64
 10
0.0
 20
0.0
  3
_FILLED
  1

  0
SOLID
  5
228
100
AcDbEntity
  8
0
  6
BYBLOCK
 62
0
100
AcDbTrace
 10
0.0
 20
0.0
 11
-1.0
 21
0.3166666667
 12
-1.0
 22
-0.3166666667
 13
-1.0
 23
-0.3166666667
  0
ENDBLK
  5
229
100
AcDbEntity
  8
0
  6
BYBLOCK
 62
0
100
AcDbBlockEnd
  0
BLOCK
  5
22A
100
AcDbEntity
  8
0
100
AcDbBlockBegin
 62
7
  6
CONTINUOUS
  2
*D0
 70
65
 10
0.0
 20
0.0
  3
*D0
  1

  0
LINE
  5
22B
100
AcDbEntity
  8
0
100
AcDbLine
 62
7
  6
CONTINUOUS
 10
-22.3028653412
 20
26.3530366787
 11
-22.3028653412
 21
36.030851124
  0
LINE
  5
22C
100
AcDbEntity
  8
0
100
AcDbLine
 62
7
  6
CONTINUOUS
 10
22.3028653412
 20
26.3530366787
 11
22.3028653412
 21
36.030851124
  0
LINE
  5
22D
100
AcDbEntity
  8
0
100
AcDbLine
 62
7
  6
CONTINUOUS
 10
-22.3028653412
 20
34.530851124
 11
0.0
 21
34.530851124
  0
LINE
  5
22E
100
AcDbEntity
  8
0
100
AcDbLine
 62
7
  6
CONTINUOUS
 10
22.3028653412
 20
34.530851124
 11
0.0
 21
34.530851124
  0
INSERT
  5
22F
100
AcDbEntity
  8
0
100
AcDbBlockReference
 62
7
  6
CONTINUOUS
  2
_FILLED
 10
-22.3028653412
 20
34.530851124
 41
3.0
 42
3.0
 43
3.0
 50
180.0
  0
INSERT
  5
230
100
AcDbEntity
  8
0
100
AcDbBlockReference
 62
7
  6
CONTINUOUS
  2
_FILLED
 10
22.3028653412
 20
34.530851124
 41
3.0
 42
3.0
 43
3.0
  0
ENDBLK
  5
231
100
AcDbEntity
  8
0
  6
BYBLOCK
 62
0
100
AcDbBlockEnd
  0
BLOCK
  5
232
100
AcDbEntity
  8
0
100
AcDbBlockBegin
 62
7
  6
CONTINUOUS
  2
*D1
 70
65
 10
0.0
 20
0.0
  3
*D1
  1

  0
LINE
  5
233
100
AcDbEntity
  8
0
100
AcDbLine
 62
7
  6
CONTINUOUS
 10
22.3030366787
 20
26.3528653412
 11
31.980851124
 21
26.3528653412
  0
LINE
  5
234
100
AcDbEntity
  8
0
100
AcDbLine
 62
7
  6
CONTINUOUS
 10
22.3030366787
 20
-26.3528653412
 11
31.980851124
 21
-26.3528653412
  0
LINE
  5
235
100
AcDbEntity
  8
0
100
AcDbLine
 62
7
  6
CONTINUOUS
 10
30.480851124
 20
26.3528653412
 11
30.480851124
 21
0.0
  0
LINE
  5
236
100
AcDbEntity
  8
0
100
AcDbLine
 62
7
  6
CONTINUOUS
 10
30.480851124
 20
-26.3528653412
 11
30.480851124
 21
0.0
  0
INSERT
  5
237
100
AcDbEntity
  8
0
100
AcDbBlockReference
 62
7
  6
CONTINUOUS
  2
_FILLED
 10
30.480851124
 20
26.3528653412
 41
3.0
 42
3.0
 43
3.0
 50
90.0
  0
INSERT
  5
238
100
AcDbEntity
  8
0
100
AcDbBlockReference
 62
7
  6
CONTINUOUS
  2
_FILLED
 10
30.480851124
 20
-26.3528653412
 41
3.0
 42
3.0
 43
3.0
 50
270.0
  0
ENDBLK
  5
239
100
AcDbEntity
  8
0
  6
BYBLOCK
 62
0
100
AcDbBlockEnd
  0
BLOCK
  5
23A
100
AcDbEntity
  8
0
100
AcDbBlockBegin
 62
7
  6
CONTINUOUS
  2
*D2
 70
65
 10
0.0
 20
0.0
  3
*D2
  1

  0
LINE
  5
23B
100
AcDbEntity
  8
0
100
AcDbLine
 62
7
  6
CONTINUOUS
 10
-38.8051822795
 20
26.3530366787
 11
-38.8051822795
 21
35.6495394982
  0
LINE
  5
23C
100
AcDbEntity
  8
0
100
AcDbLine
 62
7
  6
CONTINUOUS
 10
-43.4749298081
 20
-24.7044218162
 11
-43.4749298081
 21
35.6495394982
  0
LINE
  5
23D
100
AcDbEntity
  8
0
100
AcDbLine
 62
7
  6
CONTINUOUS
 10
-38.8051822795
 20
34.1495394982
 11
-34.8051822795
 21
34.1495394982
  0
LINE
  5
23E
100
AcDbEntity
  8
0
100
AcDbLine
 62
7
  6
CONTINUOUS
 10
-34.8051822795
 20
34.1495394982
 11
-41.1400560438
 21
34.1495394982
  0
LINE
  5
23F
100
AcDbEntity
  8
0
100
AcDbLine
 62
7
  6
CONTINUOUS
 10
-43.4749298081
 20
34.1495394982
 11
-52.9854832879
 21
34.1495394982
  0
LINE
  5
240
100
AcDbEntity
  8
0
100
AcDbLine
 62
7
  6
CONTINUOUS
 10
-52.9854832879
 20
34.1495394982
 11
-41.1400560438
 21
34.1495394982
  0
INSERT
  5
241
100
AcDbEntity
  8
0
100
AcDbBlockReference
 62
7
  6
CONTINUOUS
  2
_FILLED
 10
-38.8051822795
 20
34.1495394982
 41
3.0
 42
3.0
 43
3.0
 50
180.0
  0
INSERT
  5
242
100
AcDbEntity
  8
0
100
AcDbBlockReference
 62
7
  6
CONTINUOUS
  2
_FILLED
 10
-43.4749298081
 20
34.1495394982
 41
3.0
 42
3.0
 43
3.0
  0
ENDBLK
  5
243
100
AcDbEntity
  8
0
  6
BYBLOCK
 62
0
100
AcDbBlockEnd
  0
BLOCK
  5
244
100
AcDbEntity
  8
0
100
AcDbBlockBegin
 62
7
  6
CONTINUOUS
  2
*D3
 70
65
 10
0.0
 20
0.0
  3
*D3
  1

  0
LINE
  5
245
100
AcDbEntity
  8
0
100
AcDbLine
 62
7
  6
CONTINUOUS
 10
-35.5051822795
 20
-11.8968781766
 11
-35.5051822795
 21
43.1407000216
  0
LINE
  5
246
100
AcDbEntity
  8
0
100
AcDbLine
 62
7
  6
CONTINUOUS
 10
-43.4749298081
 20
-24.7044218162
 11
-43.4749298081
 21
43.1407000216
  0
LINE
  5
247
100
AcDbEntity
  8
0
100
AcDbLine
 62
7
  6
CONTINUOUS
 10
-35.5051822795
 20
41.6407000216
 11
-39.4900560438
 21
41.6407000216
  0
LINE
  5
248
100
AcDbEntity
  8
0
100
AcDbLine
 62
7
  6
CONTINUOUS
 10
-43.4749298081
 20
41.6407000216
 11
-39.4900560438
 21
41.6407000216
  0
LINE
  5
249
100
AcDbEntity
  8
0
100
AcDbLine
 62
7
  6
CONTINUOUS
 10
-39.4900560438
 20
41.6407000216
 11
-51.3297848916
 21
41.6407000216
  0
INSERT
  5
24A
100
AcDbEntity
  8
0
100
AcDbBlockReference
 62
7
  6
CONTINUOUS
  2
_FILLED
 10
-35.5051822795
 20
41.6407000216
 41
3.0
 42
3.0
 43
3.0
  0
INSERT
  5
24B
100
AcDbEntity
  8
0
100
AcDbBlockReference
 62
7
  6
CONTINUOUS
  2
_FILLED
 10
-43.4749298081
 20
41.6407000216
 41
3.0
 42
3.0
 43
3.0
 50
180.0
  0
ENDBLK
  5
24C
100
AcDbEntity
  8
0
  6
BYBLOCK
 62
0
100
AcDbBlockEnd
  0
ENDSEC
  0
SECTION
  2
ENTITIES
  0
DIMENSION
  5
24D
100
AcDbEntity
  8
0
100
AcDbDimension
 62
7
  6
CONTINUOUS
  2
*D0
 10
22.3028653412
 20
34.530851124
 11
-4.3928571429
 21
34.530851124
 70
160
 71
2
 72
2
 41
0.9
 42
44.6057306824
  3
DIMSTYLE_1
100
AcDbAlignedDimension
 13
-22.3028653412
 23
25.8530366787
 14
22.3028653412
 24
25.8530366787
100
AcDbRotatedDimension
  0
DIMENSION
  5
24E
100
AcDbEntity
  8
0
100
AcDbDimension
 62
7
  6
CONTINUOUS
  2
*D1
 10
30.480851124
 20
-26.3528653412
 11
30.480851124
 21
-4.2857142857
 70
160
 71
2
 72
2
 41
0.9
 42
52.7057306824
  3
DIMSTYLE_1
100
AcDbAlignedDimension
 13
21.8030366787
 23
26.3528653412
 14
21.8030366787
 24
-26.3528653412
 50
270.0
100
AcDbRotatedDimension
  0
DIMENSION
  5
24F
100
AcDbEntity
  8
0
100
AcDbDimension
 62
7
  6
CONTINUOUS
  2
*D2
 10
-43.4749298081
 20
34.1495394982
 11
-52.9854832879
 21
34.1495394982
 70
160
 71
3
 72
2
 41
0.9
 42
4.6697475287
  3
DIMSTYLE_1
100
AcDbAlignedDimension
 13
-38.8051822795
 23
25.8530366787
 14
-43.4749298081
 24
-25.2044218162
 50
180.0
100
AcDbRotatedDimension
  0
DIMENSION
  5
250
100
AcDbEntity
  8
0
100
AcDbDimension
 62
7
  6
CONTINUOUS
  2
*D3
 10
-43.4749298081
 20
41.6407000216
 11
-51.3297848916
 21
41.6407000216
 70
160
 71
3
 72
2
 41
0.9
 42
7.9697475287
  3
DIMSTYLE_1
100
AcDbAlignedDimension
 13
-35.5051822795
 23
-12.3968781766
 14
-43.4749298081
 24
-25.2044218162
 50
180.0
100
AcDbRotatedDimension
  0
LINE
  5
251
100
AcDbEntity
  8
RACCORDO
100
AcDbLine
 62
7
  6
CONTINUOUS
 10
-21.8030366787
 20
-26.3528653412
 11
21.8030366787
 21
-26.3528653412
  0
LINE
  5
252
100
AcDbEntity
  8
RACCORDO
100
AcDbLine
 62
250
  6
CONTINUOUS
 10
21.7705507771
 20
-26.3203794396
 11
-21.7705507771
 21
-26.3203794396
  0
LINE
  5
253
100
AcDbEntity
  8
RACCORDO
100
AcDbLine
 62
250
  6
CONTINUOUS
 10
21.7681743647
 20
-26.2989189342
 11
-21.7681743647
 21
-26.2989189342
  0
LINE
  5
254
100
AcDbEntity
  8
RACCORDO
100
AcDbLine
 62
250
  6
CONTINUOUS
 10
21.6935052632
 20
-25.693520226
 11
-21.6935052632
 21
-25.693520226
  0
LWPOLYLINE
  5
255
100
AcDbEntity
  8
RACCORDO
100
AcDbPolyline
 62
250
  6
CONTINUOUS
 90
16
 70
0
 10
-22.2680030272
 20
-25.8098205244
 10
-22.2650007584
 20
-25.8607696861
 10
-22.2565927345
 20
-25.9111644918
 10
-22.2428704398
 20
-25.9604566172
 10
-22.2239831805
 20
-26.0081097358
 10
-22.2001364609
 20
-26.0536053546
 10
-22.1715897469
 20
-26.0964484551
 10
-22.1386536431
 20
-26.13617288
 10
-22.1016865131
 20
-26.1723464048
 10
-22.0610905803
 20
-26.2045754409
 10
-22.0173075518
 20
-26.232509318
 10
-21.9708138118
 20
-26.2558440995
 10
-21.9221152389
 20
-26.2743258897
 10
-21.8717417014
 20
-26.2877535961
 10
-21.820241292
 20
-26.2959811177
 10
-21.7681743647
 20
-26.2989189342
  0
LWPOLYLINE
  5
256
100
AcDbEntity
  8
RACCORDO
100
AcDbPolyline
 62
250
  6
CONTINUOUS
 90
16
 70
0
 10
-22.2703794396
 20
-25.8205507771
 10
-22.2676079341
 20
-25.8727743335
 10
-22.2593953246
 20
-25.9244262286
 10
-22.2458315081
 20
-25.9749410473
 10
-22.2270649595
 20
-26.0237658213
 10
-22.2033011065
 20
-26.0703660817
 10
-22.1748000809
 20
-26.1142317096
 10
-22.1418738706
 20
-26.1548825217
 10
-22.1048829053
 20
-26.1918735251
 10
-22.0642321118
 20
-26.2247997886
 10
-22.0203664787
 20
-26.2533008771
 10
-21.9737661873
 20
-26.2770647964
 10
-21.9249413572
 20
-26.2958314073
 10
-21.8744264579
 20
-26.3093952757
 10
-21.8227744586
 20
-26.3176079208
 10
-21.7705507771
 20
-26.3203794396
  0
LWPOLYLINE
  5
257
100
AcDbEntity
  8
RACCORDO
100
AcDbPolyline
 62
250
  6
CONTINUOUS
 90
19
 70
0
 10
-22.1933339257
 20
-25.2044218162
 10
-22.191199862
 20
-25.2469999691
 10
-22.1852859782
 20
-25.289260224
 10
-22.1756357445
 20
-25.3308814455
 10
-22.1623184283
 20
-25.3715540968
 10
-22.1454352194
 20
-25.4109613099
 10
-22.1251245712
 20
-25.4487837085
 10
-22.1015555519
 20
-25.4847209343
 10
-22.0749026602
 20
-25.5185193789
 10
-22.0453475744
 20
-25.5499487837
 10
-22.013085799
 20
-25.5787888267
 10
-21.9783811266
 20
-25.6047922964
 10
-21.9415522254
 20
-25.6277257127
 10
-21.9028840869
 20
-25.6474262963
 10
-21.8626767624
 20
-25.6637551337
 10
-21.8213072775
 20
-25.6765824244
 10
-21.779118991
 20
-25.6858367726
 10
-21.7364113094
 20
-25.6914866739
 10
-21.6935052632
 20
-25.693520226
  0
LWPOLYLINE
  5
258
100
AcDbEntity
  8
RACCORDO
100
AcDbPolyline
 62
250
  6
CONTINUOUS
 90
19
 70
0
 10
-22.2632437251
 20
25.8134150626
 10
-22.2613076596
 20
25.8570257965
 10
-22.2555739276
 20
25.9003042898
 10
-22.2460861594
 20
25.9429204231
 10
-22.2329165731
 20
25.9845492487
 10
-22.2161655492
 20
26.0248730571
 10
-22.1959609828
 20
26.0635838484
 10
-22.1724552711
 20
26.1003888057
 10
-22.14582902
 20
26.1350044232
 10
-22.1162920631
 20
26.1671599442
 10
-22.0840764125
 20
26.1966076963
 10
-22.0494250716
 20
26.2231300512
 10
-22.0125948979
 20
26.2465319007
 10
-21.9738302846
 20
26.2666516761
 10
-21.9334596155
 20
26.283312963
 10
-21.8918966897
 20
26.296360325
 10
-21.849501534
 20
26.3057155099
 10
-21.8065656984
 20
26.3113480586
 10
-21.7634150626
 20
26.3132437251
  0
LWPOLYLINE
  5
259
100
AcDbEntity
  8
0
100
AcDbPolyline
 62
7
  6
CONTINUOUS
 90
10
 70
0
 43
0.3500000006
 10
3.1071428747
 20
38.2808506622
 10
2.464285738
 20
37.6379926758
 10
2.0357142191
 20
36.7808502045
 10
2.0357142191
 20
35.7094232483
 10
2.464285738
 20
35.2808497467
 10
3.1071428747
 20
35.2808497467
 10
3.5357143936
 20
35.7094232483
 10
3.5357143936
 20
36.5665657196
 10
3.1071428747
 20
36.9951346893
 10
2.1785714865
 20
36.9951346893
  0
LINE
  5
25A
100
AcDbEntity
  8
RACCORDO
100
AcDbLine
 62
250
  6
CONTINUOUS
 10
21.6935052632
 20
-25.1521575846
 11
-21.6935052632
 21
-25.1521575846
  0
LINE
  5
25B
100
AcDbEntity
  8
RACCORDO
100
AcDbLine
 62
250
  6
CONTINUOUS
 10
-22.1933339257
 20
-25.2044218162
 11
-22.249881972
 21
-4.069206719
  0
LINE
  5
25C
100
AcDbEntity
  8
RACCORDO
100
AcDbLine
 62
250
  6
CONTINUOUS
 10
-22.249881972
 20
-4.069206719
 11
-22.2577342273
 21
0.404448446
  0
LINE
  5
25D
100
AcDbEntity
  8
RACCORDO
100
AcDbLine
 62
250
  6
CONTINUOUS
 10
-21.7500533095
 20
-4.0286157366
 11
-21.7579055649
 21
0.4298418583
  0
LINE
  5
25E
100
AcDbEntity
  8
RACCORDO
100
AcDbLine
 62
250
  6
CONTINUOUS
 10
-22.2577342273
 20
0.404448446
 11
-22.2622265547
 21
5.6041845376
  0
LINE
  5
25F
100
AcDbEntity
  8
RACCORDO
100
AcDbLine
 62
250
  6
CONTINUOUS
 10
-21.7579055649
 20
0.4298418583
 11
-21.7623978922
 21
5.6129760211
  0
LINE
  5
260
100
AcDbEntity
  8
RACCORDO
100
AcDbLine
 62
7
  6
CONTINUOUS
 10
-22.3028653412
 20
25.8530366787
 11
-22.3028653412
 21
-25.8530366787
  0
LINE
  5
261
100
AcDbEntity
  8
RACCORDO
100
AcDbLine
 62
250
  6
CONTINUOUS
 10
-22.2622265547
 20
5.6041845376
 11
-22.2632437251
 21
25.8134150626
  0
LINE
  5
262
100
AcDbEntity
  8
RACCORDO
100
AcDbLine
 62
250
  6
CONTINUOUS
 10
-21.7623978922
 20
5.6129760211
 11
-21.7634150626
 21
26.3132437251
  0
LINE
  5
263
100
AcDbEntity
  8
RACCORDO
100
AcDbLine
 62
250
  6
CONTINUOUS
 10
-21.6935052632
 20
-25.693520226
 11
-21.7500533095
 21
-4.0286157366
  0
LINE
  5
264
100
AcDbEntity
  8
RACCORDO
100
AcDbLine
 62
250
  6
CONTINUOUS
 10
-22.2680030272
 20
-25.8098205244
 11
-22.1933339257
 21
-25.2044218162
  0
LINE
  5
265
100
AcDbEntity
  8
RACCORDO
100
AcDbLine
 62
250
  6
CONTINUOUS
 10
-21.7681743647
 20
-26.2989189342
 11
-21.6935052632
 21
-25.693520226
  0
LWPOLYLINE
  5
266
100
AcDbEntity
  8
RACCORDO
100
AcDbPolyline
 62
250
  6
CONTINUOUS
 90
10
 70
0
 10
-21.7705507771
 20
-26.3203794396
 10
-21.7702845047
 20
-26.3196404454
 10
-21.7700187372
 20
-26.3184885034
 10
-21.7697534745
 20
-26.3169242192
 10
-21.7694886477
 20
-26.3149486684
 10
-21.7692243257
 20
-26.3125626092
 10
-21.7689607157
 20
-26.3097659174
 10
-21.7686978867
 20
-26.3065589014
 10
-21.7684357697
 20
-26.3029428668
 10
-21.7681743647
 20
-26.2989189342
  0
LWPOLYLINE
  5
267
100
AcDbEntity
  8
RACCORDO
100
AcDbPolyline
 62
250
  6
CONTINUOUS
 90
16
 70
0
 10
-22.2343922303
 20
-10.2863417665
 10
-22.2304059056
 20
-10.2809671473
 10
-22.2211654667
 20
-10.2756494702
 10
-22.2067688298
 20
-10.2704450841
 10
-22.1873685479
 20
-10.2654091371
 10
-22.1631701939
 20
-10.260594992
 10
-22.1344301826
 20
-10.2560536602
 10
-22.1014530538
 20
-10.251833263
 10
-22.064588245
 20
-10.2479785215
 10
-22.0242263877
 20
-10.2445302818
 10
-21.9807951703
 20
-10.241525082
 10
-21.9347548046
 20
-10.2389947662
 10
-21.8865931486
 20
-10.236966147
 10
-21.8368205387
 20
-10.2354607201
 10
-21.7859643823
 20
-10.2344944367
 10
-21.7345635678
 20
-10.2340775349
  0
LWPOLYLINE
  5
268
100
AcDbEntity
  8
0
100
AcDbPolyline
 62
7
  6
CONTINUOUS
 90
3
 70
0
 43
0.3500000006
 10
1.035714268
 20
35.5665654144
 10
0.9642857051
 20
35.3522809296
 10
0.8214285793
 20
35.0665652618
  0
LINE
  5
269
100
AcDbEntity
  8
RACCORDO
100
AcDbLine
 62
250
  6
CONTINUOUS
 10
-21.7345635678
 20
-10.2340775349
 11
21.7345635678
 21
-10.2340775349
  0
LINE
  5
26A
100
AcDbEntity
  8
0
100
AcDbLine
 62
7
  6
CONTINUOUS
 10
-5.0
 20
4.5
 11
-5.0
 21
-4.5
  0
LWPOLYLINE
  5
26B
100
AcDbEntity
  8
RACCORDO
100
AcDbPolyline
 62
250
  6
CONTINUOUS
 90
19
 70
0
 10
-22.1933339257
 20
-25.2044218162
 10
-22.1903726247
 20
-25.1999348236
 10
-22.1837449714
 20
-25.1954810092
 10
-22.1735000381
 20
-25.1910932352
 10
-22.1597136902
 20
-25.1868039032
 10
-22.1424877515
 20
-25.1826446261
 10
-22.1219490179
 20
-25.1786460048
 10
-22.0982474407
 20
-25.174837319
 10
-22.0715590244
 20
-25.1712469264
 10
-22.0420856673
 20
-25.1679018471
 10
-22.0100496674
 20
-25.1648269553
 10
-21.9756853311
 20
-25.1620444133
 10
-21.9392408779
 20
-25.1595742111
 10
-21.9009568299
 20
-25.1574331478
 10
-21.861141218
 20
-25.1556389233
 10
-21.8201706643
 20
-25.1542072779
 10
-21.7783809441
 20
-25.153147152
 10
-21.7360554461
 20
-25.1524630098
 10
-21.6935052632
 20
-25.1521575846
  0
LINE
  5
26C
100
AcDbEntity
  8
0
100
AcDbLine
 62
7
  6
CONTINUOUS
 10
-4.5
 20
-5.0
 11
4.5
 21
-5.0
  0
LWPOLYLINE
  5
26D
100
AcDbEntity
  8
0
100
AcDbPolyline
 62
7
  6
CONTINUOUS
 90
2
 70
0
 43
0.3500000006
 10
-3.3928571262
 20
35.2808497467
 10
-3.3928571262
 20
36.7808502045
  0
LWPOLYLINE
  5
26E
100
AcDbEntity
  8
RACCORDO
100
AcDbPolyline
 62
250
  6
CONTINUOUS
 90
10
 70
0
 10
-22.2703794396
 20
-25.8205507771
 10
-22.2701131795
 20
-25.8201806337
 10
-22.2698474182
 20
-25.8196047637
 10
-22.2695821555
 20
-25.8188231669
 10
-22.2693173184
 20
-25.8178355767
 10
-22.26905298
 20
-25.8166422597
 10
-22.2687893598
 20
-25.815244016
 10
-22.2685265308
 20
-25.8136411122
 10
-22.2682644199
 20
-25.8118332817
 10
-22.2680030272
 20
-25.8098205244
  0
LINE
  5
26F
100
AcDbEntity
  8
RACCORDO
100
AcDbLine
 62
250
  6
CONTINUOUS
 10
21.8030366787
 20
26.3528653412
 11
21.7634150626
 21
26.3132437251
  0
LINE
  5
270
100
AcDbEntity
  8
RACCORDO
100
AcDbLine
 62
250
  6
CONTINUOUS
 10
22.3028653412
 20
25.8530366787
 11
22.2632437251
 21
25.8134150626
  0
LINE
  5
271
100
AcDbEntity
  8
RACCORDO
100
AcDbLine
 62
250
  6
CONTINUOUS
 10
21.7705507771
 20
-26.3203794396
 11
21.8030366787
 21
-26.3528653412
  0
LINE
  5
272
100
AcDbEntity
  8
RACCORDO
100
AcDbLine
 62
250
  6
CONTINUOUS
 10
22.2703794396
 20
-25.8205507771
 11
22.3028653412
 21
-25.8530366787
  0
LWPOLYLINE
  5
273
100
AcDbEntity
  8
0
100
AcDbPolyline
 62
7
  6
CONTINUOUS
 90
2
 70
0
 43
0.3500000006
 10
-1.035714268
 20
35.2808497467
 10
-1.035714268
 20
36.7808502045
  0
LINE
  5
274
100
AcDbEntity
  8
RACCORDO
100
AcDbLine
 62
250
  6
CONTINUOUS
 10
-22.3028653412
 20
-25.8530366787
 11
-22.2703794396
 21
-25.8205507771
  0
LWPOLYLINE
  5
275
100
AcDbEntity
  8
0
100
AcDbPolyline
 62
7
  6
CONTINUOUS
 90
4
 70
0
 43
0.3500000006
 10
27.3737077103
 20
1.928571373
 10
26.7308519897
 20
1.928571373
 10
26.7308519897
 20
3.4285718307
 10
29.7308506393
 20
2.5714293594
  0
LINE
  5
276
100
AcDbEntity
  8
RACCORDO
100
AcDbLine
 62
250
  6
CONTINUOUS
 10
-22.2632437251
 20
25.8134150626
 11
-22.3028653412
 21
25.8530366787
  0
LINE
  5
277
100
AcDbEntity
  8
RACCORDO
100
AcDbLine
 62
250
  6
CONTINUOUS
 10
-21.8030366787
 20
-26.3528653412
 11
-21.7705507771
 21
-26.3203794396
  0
LINE
  5
278
100
AcDbEntity
  8
RACCORDO
100
AcDbLine
 62
250
  6
CONTINUOUS
 10
-21.7634150626
 20
26.3132437251
 11
-21.8030366787
 21
26.3528653412
  0
LWPOLYLINE
  5
279
100
AcDbEntity
  8
RACCORDO
100
AcDbPolyline
 62
250
  6
CONTINUOUS
 90
19
 70
0
 10
22.1933339257
 20
-25.2044218162
 10
22.1903679874
 20
-25.1999305014
 10
22.1837274508
 20
-25.1954718323
 10
22.1734600409
 20
-25.1910788009
 10
22.1596377448
 20
-25.1867832264
 10
22.1423629574
 20
-25.1826176872
 10
22.1217734273
 20
-25.1786150407
 10
22.0980355996
 20
-25.1748062362
 10
22.0713204115
 20
-25.1712174815
 10
22.0418053992
 20
-25.1678726173
 10
22.0096809692
 20
-25.164794462
 10
21.9752030588
 20
-25.1620086805
 10
21.9386800279
 20
-25.1595396501
 10
21.9003866224
 20
-25.1574044612
 10
21.8606123745
 20
-25.1556178463
 10
21.8197214736
 20
-25.1541937825
 10
21.7780447103
 20
-25.1531401951
 10
21.7358697143
 20
-25.1524608497
 10
21.6935052632
 20
-25.1521575846
  0
LINE
  5
27A
100
AcDbEntity
  8
0
100
AcDbLine
 62
7
  6
CONTINUOUS
 10
5.0
 20
4.5
 11
5.0
 21
-4.5
  0
LINE
  5
27B
100
AcDbEntity
  8
0
100
AcDbLine
 62
7
  6
CONTINUOUS
 10
-4.5
 20
5.0
 11
4.5
 21
5.0
  0
LINE
  5
27C
100
AcDbEntity
  8
RACCORDO
100
AcDbLine
 62
250
  6
CONTINUOUS
 10
22.2632437251
 20
10.7371426949
 11
-22.2632437251
 21
10.7371426949
  0
LWPOLYLINE
  5
27D
100
AcDbEntity
  8
0
100
AcDbPolyline
 62
7
  6
CONTINUOUS
 90
3
 70
0
 43
0.3500000006
 10
29.4451372375
 20
0.9285710678
 10
29.6594217224
 20
0.8571421509
 10
29.9451373901
 20
0.7142865829
  0
LWPOLYLINE
  5
27E
100
AcDbEntity
  8
RACCORDO
100
AcDbPolyline
 62
250
  6
CONTINUOUS
 90
16
 70
0
 10
22.2343922303
 20
-10.2863417665
 10
22.2304059091
 20
-10.2809670748
 10
22.2211654778
 20
-10.275649335
 10
22.2067688511
 20
-10.2704448958
 10
22.1873685806
 20
-10.2654089052
 10
22.1631702378
 20
-10.260594726
 10
22.1344302365
 20
-10.2560533711
 10
22.1014531153
 20
-10.251832962
 10
22.0645883106
 20
-10.2479782197
 10
22.0242264543
 20
-10.2445299903
 10
21.9807952338
 20
-10.2415248123
 10
21.9347548609
 20
-10.2389945297
 10
21.8865931945
 20
-10.2369659541
 10
21.8368205718
 20
-10.235460581
 10
21.7859644
 20
-10.2344943618
 10
21.7345635678
 20
-10.2340775349
  0
LWPOLYLINE
  5
27F
100
AcDbEntity
  8
0
100
AcDbPolyline
 62
7
  6
CONTINUOUS
 90
10
 70
0
 43
0.3500000006
 10
29.2308504868
 20
0.8571421509
 10
29.3737083206
 20
0.9285710678
 10
29.4451372375
 20
0.9285710678
 10
29.5879950714
 20
0.7857132339
 10
29.5879950714
 20
0.7142865829
 10
29.5165661545
 20
0.642857666
 10
29.4451372375
 20
0.642857666
 10
29.3022794037
 20
0.7142865829
 10
29.2308504868
 20
0.7857132339
 10
29.2308504868
 20
0.8571421509
  0
LWPOLYLINE
  5
280
100
AcDbEntity
  8
0
100
AcDbPolyline
 62
7
  6
CONTINUOUS
 90
10
 70
0
 43
0.3500000006
 10
0.9642857051
 20
35.7808498993
 10
1.035714268
 20
35.6379920654
 10
1.035714268
 20
35.5665654144
 10
0.8928571422
 20
35.4237075806
 10
0.8214285793
 20
35.4237075806
 10
0.7500000165
 20
35.4951387634
 10
0.7500000165
 20
35.5665654144
 10
0.8214285793
 20
35.7094232483
 10
0.8928571422
 20
35.7808498993
 10
0.9642857051
 20
35.7808498993
  0
LWPOLYLINE
  5
281
100
AcDbEntity
  8
RACCORDO
100
AcDbPolyline
 62
250
  6
CONTINUOUS
 90
10
 70
0
 10
22.2680030272
 20
-25.8098205244
 10
22.2682641283
 20
-25.8118314461
 10
22.2685260202
 20
-25.8136380283
 10
22.2687887029
 20
-25.8152402711
 10
22.2690522491
 20
-25.8166386123
 10
22.269316586
 20
-25.8178326141
 10
22.2695814954
 20
-25.8188209628
 10
22.2698469044
 20
-25.8196032206
 10
22.2701128858
 20
-25.8201798254
 10
22.2703794396
 20
-25.8205507771
  0
LINE
  5
282
100
AcDbEntity
  8
RACCORDO
100
AcDbLine
 62
250
  6
CONTINUOUS
 10
21.6935052632
 20
-25.693520226
 11
21.7681743647
 21
-26.2989189342
  0
LWPOLYLINE
  5
283
100
AcDbEntity
  8
RACCORDO
100
AcDbPolyline
 62
250
  6
CONTINUOUS
 90
10
 70
0
 10
21.7681743647
 20
-26.2989189342
 10
21.7684354781
 20
-26.3029386317
 10
21.7686973761
 20
-26.3065522816
 10
21.7689600588
 20
-26.3097584276
 10
21.7692235947
 20
-26.312555427
 10
21.7694879152
 20
-26.3149426285
 10
21.7697528144
 20
-26.3169198111
 10
21.7700182234
 20
-26.3184858739
 10
21.7702842109
 20
-26.3196393998
 10
21.7705507771
 20
-26.3203794396
  0
LINE
  5
284
100
AcDbEntity
  8
RACCORDO
100
AcDbLine
 62
250
  6
CONTINUOUS
 10
22.1933339257
 20
-25.2044218162
 11
22.2680030272
 21
-25.8098205244
  0
LWPOLYLINE
  5
285
100
AcDbEntity
  8
RACCORDO
100
AcDbPolyline
 62
250
  6
CONTINUOUS
 90
19
 70
0
 10
22.2632437251
 20
25.8134150626
 10
22.2613028584
 20
25.8570801542
 10
22.2555537898
 20
25.9004178512
 10
22.2460387832
 20
25.9430964506
 10
22.2328257512
 20
25.9847978064
 10
22.216015846
 20
26.0251929236
 10
22.1957502639
 20
26.0639475453
 10
22.1722023129
 20
26.1007488462
 10
22.1455467167
 20
26.1353397423
 10
22.115961983
 20
26.1674889091
 10
22.0836391688
 20
26.1969732548
 10
22.0488482743
 20
26.2235322962
 10
22.011922065
 20
26.2469186072
 10
21.9731501007
 20
26.2669671975
 10
21.9328360226
 20
26.2835385297
 10
21.891372723
 20
26.2964997493
 10
21.8491117484
 20
26.3057837699
 10
21.806351528
 20
26.3113667177
 10
21.7634150625
 20
26.313243725
  0
LINE
  5
286
100
AcDbEntity
  8
RACCORDO
100
AcDbLine
 62
7
  6
CONTINUOUS
 10
22.3028653412
 20
25.8530366787
 11
22.3028653412
 21
-25.8530366787
  0
LINE
  5
287
100
AcDbEntity
  8
RACCORDO
100
AcDbLine
 62
250
  6
CONTINUOUS
 10
21.7634150626
 20
26.3132437251
 11
21.7631061475
 21
7.7187544808
  0
LINE
  5
288
100
AcDbEntity
  8
RACCORDO
100
AcDbLine
 62
250
  6
CONTINUOUS
 10
22.2632437251
 20
25.8134150626
 11
22.26293481
 21
7.7145018651
  0
LINE
  5
289
100
AcDbEntity
  8
RACCORDO
100
AcDbLine
 62
250
  6
CONTINUOUS
 10
21.7631061475
 20
7.7187544808
 11
21.7595663279
 21
1.8153531225
  0
LINE
  5
28A
100
AcDbEntity
  8
RACCORDO
100
AcDbLine
 62
250
  6
CONTINUOUS
 10
22.26293481
 20
7.7145018651
 11
22.2593949903
 21
1.7951110427
  0
LINE
  5
28B
100
AcDbEntity
  8
RACCORDO
100
AcDbLine
 62
250
  6
CONTINUOUS
 10
21.7595663279
 20
1.8153531225
 11
21.7499047379
 21
-4.0984209729
  0
LINE
  5
28C
100
AcDbEntity
  8
RACCORDO
100
AcDbLine
 62
250
  6
CONTINUOUS
 10
22.2593949903
 20
1.7951110427
 11
22.2497334003
 21
-4.1392137694
  0
LINE
  5
28D
100
AcDbEntity
  8
RACCORDO
100
AcDbLine
 62
250
  6
CONTINUOUS
 10
21.7499047379
 20
-4.0984209729
 11
21.7345635678
 21
-10.2340775349
  0
LINE
  5
28E
100
AcDbEntity
  8
RACCORDO
100
AcDbLine
 62
250
  6
CONTINUOUS
 10
21.7345635678
 20
-10.2340775349
 11
21.6935052632
 21
-25.693520226
  0
LINE
  5
28F
100
AcDbEntity
  8
RACCORDO
100
AcDbLine
 62
250
  6
CONTINUOUS
 10
22.2497334003
 20
-4.1392137694
 11
22.1933339257
 21
-25.2044218162
  0
LWPOLYLINE
  5
290
100
AcDbEntity
  8
RACCORDO
100
AcDbPolyline
 62
250
  6
CONTINUOUS
 90
19
 70
0
 10
22.1933339257
 20
-25.2044218162
 10
22.1912037289
 20
-25.2469591848
 10
22.1853020538
 20
-25.289173539
 10
22.1756737997
 20
-25.3307450077
 10
22.1623921887
 20
-25.3713583822
 10
22.1455579843
 20
-25.4107062219
 10
22.12529852
 20
-25.4484911017
 10
22.1017657081
 20
-25.4844289077
 10
22.0751390309
 20
-25.5182448653
 10
22.0456255303
 20
-25.5496775477
 10
22.0134540566
 20
-25.5784869325
 10
21.9788662299
 20
-25.6044600513
 10
21.9421183649
 20
-25.627405563
 10
21.9034591758
 20
-25.6471632033
 10
21.8632082505
 20
-25.6635649147
 10
21.8217571645
 20
-25.6764633821
 10
21.779455146
 20
-25.6857776826
 10
21.7365966995
 20
-25.6914700239
 10
21.6935052632
 20
-25.693520226
  0
LWPOLYLINE
  5
291
100
AcDbEntity
  8
RACCORDO
100
AcDbPolyline
 62
250
  6
CONTINUOUS
 90
16
 70
0
 10
22.2703794396
 20
-25.8205507771
 10
22.2676079267
 20
-25.8727744031
 10
22.2593952977
 20
-25.9244263548
 10
22.2458314533
 20
-25.9749412157
 10
22.2270648724
 20
-26.0237660168
 10
22.2033009864
 20
-26.0703662895
 10
22.1747999305
 20
-26.1142319165
 10
22.1418736961
 20
-26.1548827155
 10
22.1048827155
 20
-26.1918736961
 10
22.0642319165
 20
-26.2247999305
 10
22.0203662895
 20
-26.2533009864
 10
21.9737660168
 20
-26.2770648724
 10
21.9249412157
 20
-26.2958314533
 10
21.8744263548
 20
-26.3093952977
 10
21.8227744031
 20
-26.3176079267
 10
21.7705507771
 20
-26.3203794396
  0
LWPOLYLINE
  5
292
100
AcDbEntity
  8
RACCORDO
100
AcDbPolyline
 62
250
  6
CONTINUOUS
 90
16
 70
0
 10
22.2680030272
 20
-25.8098205244
 10
22.2650007609
 20
-25.8607696639
 10
22.2565927434
 20
-25.9111644516
 10
22.2428704578
 20
-25.9604565636
 10
22.2239832091
 20
-26.0081096736
 10
22.2001365002
 20
-26.0536052883
 10
22.1715897961
 20
-26.0964483891
 10
22.1386537001
 20
-26.1361728181
 10
22.1016865751
 20
-26.1723463501
 10
22.0610906441
 20
-26.2045753954
 10
22.0173076135
 20
-26.2325092829
 10
21.9708138675
 20
-26.255844075
 10
21.9221152852
 20
-26.2743258748
 10
21.8717417351
 20
-26.287753589
 10
21.8202413102
 20
-26.2959811157
 10
21.7681743647
 20
-26.2989189342
  0
LINE
  5
293
100
AcDbEntity
  8
RACCORDO
100
AcDbLine
 62
250
  6
CONTINUOUS
 10
22.2632437251
 20
25.8134150626
 11
-22.2632437251
 21
25.8134150626
  0
LINE
  5
294
100
AcDbEntity
  8
RACCORDO
100
AcDbLine
 62
250
  6
CONTINUOUS
 10
21.7634150626
 20
26.3132437251
 11
-21.7634150626
 21
26.3132437251
  0
LINE
  5
295
100
AcDbEntity
  8
RACCORDO
100
AcDbLine
 62
7
  6
CONTINUOUS
 10
-21.8030366787
 20
26.3528653412
 11
21.8030366787
 21
26.3528653412
  0
LWPOLYLINE
  5
296
100
AcDbEntity
  8
0
100
AcDbPolyline
 62
7
  6
CONTINUOUS
 90
7
 70
0
 43
0.3500000006
 10
29.7308506393
 20
-0.642856041
 10
29.7308506393
 20
-2.1428576317
 10
27.5879944611
 20
-0.642856041
 10
27.1594232254
 20
-0.642856041
 10
26.7308519897
 20
-1.0714295425
 10
26.7308519897
 20
-1.7142852631
 10
27.3737077103
 20
-2.1428576317
  0
LWPOLYLINE
  5
297
100
AcDbEntity
  8
0
100
AcDbPolyline
 62
7
  6
CONTINUOUS
 90
8
 70
0
 43
0.3500000006
 10
29.7308506393
 20
-4.28571381
 10
29.7308506393
 20
-3.4285713387
 10
29.3022794037
 20
-3.000000103
 10
28.4451369324
 20
-3.000000103
 10
28.0165656967
 20
-3.4285713387
 10
28.0165656967
 20
-4.28571381
 10
26.7308519897
 20
-4.28571381
 10
26.7308519897
 20
-3.000000103
  0
LWPOLYLINE
  5
298
100
AcDbEntity
  8
0
100
AcDbPolyline
 62
7
  6
CONTINUOUS
 90
3
 70
0
 43
0.3500000006
 10
-0.5357142924
 20
35.9237077332
 10
-2.0357142191
 20
35.9237077332
 10
-1.3928570824
 20
38.2808506622
  0
LWPOLYLINE
  5
299
100
AcDbEntity
  8
0
100
AcDbPolyline
 62
7
  6
CONTINUOUS
 90
3
 70
0
 43
0.3500000006
 10
-2.8928572569
 20
35.9237077332
 10
-4.3928571482
 20
35.9237077332
 10
-3.7500000114
 20
38.2808506622
  0
LINE
  5
29A
100
AcDbEntity
  8
RACCORDO
100
AcDbLine
 62
7
  6
CONTINUOUS
 10
-40.0457688112
 20
-26.3203794396
 11
-38.8051822795
 21
-26.3528653412
  0
LINE
  5
29B
100
AcDbEntity
  8
RACCORDO
100
AcDbLine
 62
250
  6
CONTINUOUS
 10
-40.0457688112
 20
-25.8205507771
 11
-38.8051822795
 21
-25.8530366787
  0
LINE
  5
29C
100
AcDbEntity
  8
RACCORDO
100
AcDbLine
 62
250
  6
CONTINUOUS
 10
-42.9880182823
 20
-25.2044218162
 11
-43.408375221
 21
-25.1595396501
  0
LWPOLYLINE
  5
29D
100
AcDbEntity
  8
RACCORDO
100
AcDbPolyline
 62
250
  6
CONTINUOUS
 90
5
 70
0
 10
-43.408375221
 20
-25.1595396501
 10
-43.4561227142
 20
-25.1541937825
 10
-43.4650555851
 20
-25.1531401951
 10
-43.4704147335
 20
-25.1524608497
 10
-43.4721907558
 20
-25.1521575846
  0
LWPOLYLINE
  5
29E
100
AcDbEntity
  8
RACCORDO
100
AcDbPolyline
 62
250
  6
CONTINUOUS
 90
10
 70
0
 10
-40.1365203366
 20
-25.8098205244
 10
-40.1265492871
 20
-25.8118314461
 10
-40.1165480396
 20
-25.8136380283
 10
-40.1065165941
 20
-25.8152402711
 10
-40.0964521709
 20
-25.8166386123
 10
-40.0863575497
 20
-25.8178326141
 10
-40.0762410693
 20
-25.8188209628
 10
-40.0661055092
 20
-25.8196032206
 10
-40.0559480898
 20
-25.8201798254
 10
-40.0457688112
 20
-25.8205507771
  0
LINE
  5
29F
100
AcDbEntity
  8
RACCORDO
100
AcDbLine
 62
7
  6
CONTINUOUS
 10
-43.0787698077
 20
-25.693520226
 11
-40.2272718621
 21
-26.2989189342
  0
LINE
  5
2A0
100
AcDbEntity
  8
RACCORDO
100
AcDbLine
 62
250
  6
CONTINUOUS
 10
-42.9880182823
 20
-25.2044218162
 11
-40.1365203366
 21
-25.8098205244
  0
LWPOLYLINE
  5
2A1
100
AcDbEntity
  8
0
100
AcDbPolyline
 62
7
  6
CONTINUOUS
 90
3
 70
0
 43
0.3500000006
 10
-49.9140549316
 20
35.1852546844
 10
-49.9854815826
 20
34.9709701996
 10
-50.1283394165
 20
34.6852545319
  0
LWPOLYLINE
  5
2A2
100
AcDbEntity
  8
RACCORDO
100
AcDbPolyline
 62
7
  6
CONTINUOUS
 90
13
 70
0
 10
-37.2551822795
 20
20.4196499413
 10
-37.2345909901
 20
20.4314846696
 10
-37.214688711
 20
20.4416422363
 10
-37.1958155369
 20
20.4502372928
 10
-37.1783366225
 20
20.4573581711
 10
-37.1624175879
 20
20.4632137917
 10
-37.1480833144
 20
20.4680788894
 10
-37.1355404807
 20
20.4721234065
 10
-37.1249921757
 20
20.4754546933
 10
-37.1165197298
 20
20.4782071162
 10
-37.1102870747
 20
20.4805242686
 10
-37.1064715451
 20
20.4825815525
 10
-37.1051822795
 20
20.4845614035
  0
LWPOLYLINE
  5
2A3
100
AcDbEntity
  8
0
100
AcDbPolyline
 62
7
  6
CONTINUOUS
 90
2
 70
0
 43
0.3500000006
 10
-51.985482193
 20
34.8995390167
 10
-51.985482193
 20
36.3995394745
  0
LINE
  5
2A4
100
AcDbEntity
  8
RACCORDO
100
AcDbLine
 62
250
  6
CONTINUOUS
 10
-37.4587356701
 20
21.4535533906
 11
-37.6355123654
 21
21.2767766953
  0
LINE
  5
2A5
100
AcDbEntity
  8
RACCORDO
100
AcDbLine
 62
250
  6
CONTINUOUS
 10
-37.2516288889
 20
21.2464466094
 11
-37.4284055842
 21
21.0696699141
  0
LINE
  5
2A6
100
AcDbEntity
  8
DRAFT
100
AcDbLine
 62
7
  6
CONTINUOUS
 10
-38.8051822795
 20
-15.05
 11
-37.6051822795
 21
-14.794932126
  0
LINE
  5
2A7
100
AcDbEntity
  8
RACCORDO
100
AcDbLine
 62
7
  6
CONTINUOUS
 10
-35.9616044081
 20
-14.6012191724
 11
-36.1165071449
 21
-14.6147714058
  0
LINE
  5
2A8
100
AcDbEntity
  8
DRAFT
100
AcDbLine
 62
7
  6
CONTINUOUS
 10
-36.1165071449
 20
-14.6147714058
 11
-38.8051822795
 21
-14.85
  0
LWPOLYLINE
  5
2A9
100
AcDbEntity
  8
0
100
AcDbPolyline
 62
7
  6
CONTINUOUS
 90
4
 70
0
 43
0.3500000006
 10
-51.3297854462
 20
42.8192731476
 10
-51.3297854462
 20
43.6764156189
 10
-50.9012119446
 20
44.1049845886
 10
-50.25835849
 20
44.1049845886
  0
LWPOLYLINE
  5
2AA
100
AcDbEntity
  8
0
100
AcDbPolyline
 62
7
  6
CONTINUOUS
 90
4
 70
0
 43
0.3500000006
 10
-48.9140546265
 20
37.2566819458
 10
-48.9140546265
 20
37.8995399323
 10
-47.4140541687
 20
37.8995399323
 10
-48.27119664
 20
34.8995390167
  0
LINE
  5
2AB
100
AcDbEntity
  8
RACCORDO
100
AcDbLine
 62
7
  6
CONTINUOUS
 10
-35.9616044081
 20
-11.8987808276
 11
-36.1165071449
 21
-11.8852285942
  0
LINE
  5
2AC
100
AcDbEntity
  8
DRAFT
100
AcDbLine
 62
7
  6
CONTINUOUS
 10
-36.1165071449
 20
-11.8852285942
 11
-38.8051822795
 21
-11.65
  0
LINE
  5
2AD
100
AcDbEntity
  8
RACCORDO
100
AcDbLine
 62
250
  6
CONTINUOUS
 10
-41.5214502227
 20
-10.275649335
 11
-41.8398290521
 21
-10.2415248123
  0
LWPOLYLINE
  5
2AE
100
AcDbEntity
  8
RACCORDO
100
AcDbPolyline
 62
250
  6
CONTINUOUS
 90
5
 70
0
 10
-41.8398290521
 20
-10.2415248123
 10
-41.8807369238
 20
-10.2369659541
 10
-41.8937562503
 20
-10.235460581
 10
-41.901617496
 20
-10.2344943618
 10
-41.9042373606
 20
-10.2340775349
  0
LINE
  5
2AF
100
AcDbEntity
  8
DRAFT
100
AcDbLine
 62
7
  6
CONTINUOUS
 10
-38.8051822795
 20
-11.45
 11
-37.6051822795
 21
-11.705067874
  0
LINE
  5
2B0
100
AcDbEntity
  8
RACCORDO
100
AcDbLine
 62
250
  6
CONTINUOUS
 10
-41.420064887
 20
-10.2863417665
 11
-41.5214502227
 21
-10.275649335
  0
LWPOLYLINE
  5
2B1
100
AcDbEntity
  8
RACCORDO
100
AcDbPolyline
 62
250
  6
CONTINUOUS
 90
7
 70
0
 10
-37.6326909368
 20
23.5807065509
 10
-37.63003882
 20
23.5976928711
 10
-37.6278918478
 20
23.6120194347
 10
-37.6262866141
 20
23.6234420536
 10
-37.6252504793
 20
23.6317660362
 10
-37.6248011035
 20
23.6368495048
 10
-37.6249461462
 20
23.6386058148
  0
LWPOLYLINE
  5
2B2
100
AcDbEntity
  8
RACCORDO
100
AcDbPolyline
 62
250
  6
CONTINUOUS
 90
7
 70
0
 10
-37.6326909368
 20
23.1807065509
 10
-37.63003882
 20
23.1976928711
 10
-37.6278918478
 20
23.2120194347
 10
-37.6262866141
 20
23.2234420536
 10
-37.6252504793
 20
23.2317660362
 10
-37.6248011035
 20
23.2368495048
 10
-37.6249461462
 20
23.2386058148
  0
LINE
  5
2B3
100
AcDbEntity
  8
RACCORDO
100
AcDbLine
 62
250
  6
CONTINUOUS
 10
-37.6393219495
 20
23.5399531271
 11
-37.6326909368
 21
23.5807065509
  0
LINE
  5
2B4
100
AcDbEntity
  8
RACCORDO
100
AcDbLine
 62
250
  6
CONTINUOUS
 10
-37.6393219495
 20
23.1399531271
 11
-37.6326909368
 21
23.1807065509
  0
LINE
  5
2B5
100
AcDbEntity
  8
RACCORDO
100
AcDbLine
 62
250
  6
CONTINUOUS
 10
-37.6473347256
 20
23.4925257963
 11
-37.6393219495
 21
23.5399531271
  0
LINE
  5
2B6
100
AcDbEntity
  8
RACCORDO
100
AcDbLine
 62
250
  6
CONTINUOUS
 10
-37.6473347256
 20
23.0925257963
 11
-37.6393219495
 21
23.1399531271
  0
LINE
  5
2B7
100
AcDbEntity
  8
RACCORDO
100
AcDbLine
 62
250
  6
CONTINUOUS
 10
-37.6561853005
 20
23.4416442642
 11
-37.6473347256
 21
23.4925257963
  0
LINE
  5
2B8
100
AcDbEntity
  8
RACCORDO
100
AcDbLine
 62
250
  6
CONTINUOUS
 10
-37.6561853005
 20
23.0416442642
 11
-37.6473347256
 21
23.0925257963
  0
LINE
  5
2B9
100
AcDbEntity
  8
RACCORDO
100
AcDbLine
 62
250
  6
CONTINUOUS
 10
-40.3182707536
 20
25.8134150626
 11
-40.3203476338
 21
25.9004178512
  0
LINE
  5
2BA
100
AcDbEntity
  8
RACCORDO
100
AcDbLine
 62
250
  6
CONTINUOUS
 10
-40.3203476338
 20
25.9004178512
 11
-40.321962046
 21
25.9847978064
  0
LINE
  5
2BB
100
AcDbEntity
  8
RACCORDO
100
AcDbLine
 62
250
  6
CONTINUOUS
 10
-40.321962046
 20
25.9847978064
 11
-40.3230637991
 21
26.0639475453
  0
LWPOLYLINE
  5
2BC
100
AcDbEntity
  8
RACCORDO
100
AcDbPolyline
 62
250
  6
CONTINUOUS
 90
12
 70
0
 10
-40.3230637991
 20
26.0639475453
 10
-40.3236186434
 20
26.1353397423
 10
-40.3236857955
 20
26.1674889091
 10
-40.3236114675
 20
26.1969732548
 10
-40.3233959089
 20
26.2235322962
 10
-40.3230413542
 20
26.2469186072
 10
-40.3225510653
 20
26.2669671975
 10
-40.3219293395
 20
26.2835385297
 10
-40.3211829864
 20
26.2964997493
 10
-40.320319455
 20
26.3057837699
 10
-40.3193459345
 20
26.3113667177
 10
-40.3182707557
 20
26.313243725
  0
LWPOLYLINE
  5
2BD
100
AcDbEntity
  8
RACCORDO
100
AcDbPolyline
 62
250
  6
CONTINUOUS
 90
9
 70
0
 10
-40.0511585598
 20
-26.1548827155
 10
-40.0511585598
 20
-26.1918736961
 10
-40.050956285
 20
-26.2247999305
 10
-40.0505539495
 20
-26.2533009864
 10
-40.0499559577
 20
-26.2770648724
 10
-40.0491688555
 20
-26.2958314533
 10
-40.0482012591
 20
-26.3093952977
 10
-40.0470637604
 20
-26.3176079267
 10
-40.0457688112
 20
-26.3203794396
  0
LINE
  5
2BE
100
AcDbEntity
  8
RACCORDO
100
AcDbLine
 62
7
  6
CONTINUOUS
 10
-40.8051822795
 20
25.8134150626
 11
-40.8064497455
 21
9.6945220854
  0
LINE
  5
2BF
100
AcDbEntity
  8
RACCORDO
100
AcDbLine
 62
250
  6
CONTINUOUS
 10
-40.3182707536
 20
25.8134150626
 11
-40.3195178841
 21
9.6932827069
  0
LINE
  5
2C0
100
AcDbEntity
  8
RACCORDO
100
AcDbLine
 62
250
  6
CONTINUOUS
 10
-40.3195178841
 20
9.6932827069
 11
-40.3234160529
 21
8.6864860721
  0
LINE
  5
2C1
100
AcDbEntity
  8
RACCORDO
100
AcDbLine
 62
7
  6
CONTINUOUS
 10
-40.8058132158
 20
9.9958672007
 11
-40.8132736766
 21
8.2005026792
  0
LINE
  5
2C2
100
AcDbEntity
  8
RACCORDO
100
AcDbLine
 62
250
  6
CONTINUOUS
 10
-40.3234160529
 20
8.6864860721
 11
-40.3300677441
 21
7.7145018651
  0
LINE
  5
2C3
100
AcDbEntity
  8
RACCORDO
100
AcDbLine
 62
250
  6
CONTINUOUS
 10
-40.0505539495
 20
-26.0703662895
 11
-40.0511585598
 21
-26.1548827155
  0
LINE
  5
2C4
100
AcDbEntity
  8
RACCORDO
100
AcDbLine
 62
7
  6
CONTINUOUS
 10
-40.8107913079
 20
8.6024214572
 11
-40.821421407
 21
7.2438994681
  0
LINE
  5
2C5
100
AcDbEntity
  8
RACCORDO
100
AcDbLine
 62
250
  6
CONTINUOUS
 10
-40.3300677441
 20
7.7145018651
 11
-40.3397980533
 21
6.7698242066
  0
LINE
  5
2C6
100
AcDbEntity
  8
RACCORDO
100
AcDbLine
 62
7
  6
CONTINUOUS
 10
-40.8205317337
 20
7.3317081224
 11
-40.8398356626
 21
5.8539126251
  0
LINE
  5
2C7
100
AcDbEntity
  8
RACCORDO
100
AcDbLine
 62
250
  6
CONTINUOUS
 10
-40.3397980533
 20
6.7698242066
 11
-40.3530003563
 21
5.8457157783
  0
LINE
  5
2C8
100
AcDbEntity
  8
RACCORDO
100
AcDbLine
 62
250
  6
CONTINUOUS
 10
-40.0491688555
 20
-25.9749412157
 11
-40.0505539495
 21
-26.0703662895
  0
LINE
  5
2C9
100
AcDbEntity
  8
RACCORDO
100
AcDbLine
 62
7
  6
CONTINUOUS
 10
-40.8350084605
 20
6.1620909439
 11
-40.8567450503
 21
4.9481910185
  0
LINE
  5
2CA
100
AcDbEntity
  8
RACCORDO
100
AcDbLine
 62
250
  6
CONTINUOUS
 10
-40.3530003563
 20
5.8457157783
 11
-40.3699439587
 21
4.9376828289
  0
LINE
  5
2CB
100
AcDbEntity
  8
RACCORDO
100
AcDbLine
 62
7
  6
CONTINUOUS
 10
-40.8557582763
 20
5.0000020633
 11
-40.8539857053
 21
5.0817197744
  0
LINE
  5
2CC
100
AcDbEntity
  8
0
100
AcDbLine
 62
7
  6
CONTINUOUS
 10
-40.866713048
 20
4.5
 11
-40.8556631533
 21
5.0
  0
LINE
  5
2CD
100
AcDbEntity
  8
RACCORDO
100
AcDbLine
 62
7
  6
CONTINUOUS
 10
-40.8567450503
 20
4.9481910185
 11
-40.8778025412
 21
4.0519842831
  0
LINE
  5
2CE
100
AcDbEntity
  8
RACCORDO
100
AcDbLine
 62
250
  6
CONTINUOUS
 10
-40.3699439587
 20
4.9376828289
 11
-40.3910360507
 21
4.038965987
  0
LWPOLYLINE
  5
2CF
100
AcDbEntity
  8
RACCORDO
100
AcDbPolyline
 62
250
  6
CONTINUOUS
 90
3
 70
0
 10
-40.0457688112
 20
-25.8205507771
 10
-40.0470637604
 20
-25.8727744031
 10
-40.0491688555
 20
-25.9749412157
  0
LWPOLYLINE
  5
2D0
100
AcDbEntity
  8
0
100
AcDbPolyline
 62
7
  6
CONTINUOUS
 90
10
 70
0
 10
-40.8667130505
 20
4.5
 10
-40.8931010493
 20
3.4839278647
 10
-40.9260617209
 20
2.4781273654
 10
-40.9655950655
 20
1.4825985023
 10
-41.0112572391
 20
0.5056794115
 10
-41.0634920856
 20
-0.4609680432
 10
-41.123631137
 20
-1.4423582708
 10
-41.1921182373
 20
-2.4468294076
 10
-41.2685095424
 20
-3.4660433174
 10
-41.3471252675
 20
-4.43033257
  0
LINE
  5
2D1
100
AcDbEntity
  8
RACCORDO
100
AcDbLine
 62
7
  6
CONTINUOUS
 10
-40.8778025412
 20
4.0519842831
 11
-40.9034874483
 21
3.1580875214
  0
LINE
  5
2D2
100
AcDbEntity
  8
RACCORDO
100
AcDbLine
 62
250
  6
CONTINUOUS
 10
-40.3910360507
 20
4.038965987
 11
-40.4168372975
 21
3.1423483244
  0
LINE
  5
2D3
100
AcDbEntity
  8
RACCORDO
100
AcDbLine
 62
7
  6
CONTINUOUS
 10
-40.9034874483
 20
3.1580875214
 11
-40.9342560519
 21
2.2638005874
  0
LINE
  5
2D4
100
AcDbEntity
  8
RACCORDO
100
AcDbLine
 62
250
  6
CONTINUOUS
 10
-40.4168372975
 20
3.1423483244
 11
-40.4476936522
 21
2.2451189316
  0
LINE
  5
2D5
100
AcDbEntity
  8
RACCORDO
100
AcDbLine
 62
7
  6
CONTINUOUS
 10
-40.9342560519
 20
2.2638005874
 11
-40.9706209829
 21
1.3665871387
  0
LINE
  5
2D6
100
AcDbEntity
  8
RACCORDO
100
AcDbLine
 62
250
  6
CONTINUOUS
 10
-40.4476936522
 20
2.2451189316
 11
-40.4841913974
 21
1.3447258286
  0
LINE
  5
2D7
100
AcDbEntity
  8
RACCORDO
100
AcDbLine
 62
7
  6
CONTINUOUS
 10
-40.9706209829
 20
1.3665871387
 11
-41.0125944159
 21
0.4752246861
  0
LINE
  5
2D8
100
AcDbEntity
  8
RACCORDO
100
AcDbLine
 62
250
  6
CONTINUOUS
 10
-40.4841913974
 20
1.3447258286
 11
-40.5263569287
 21
0.4500052345
  0
LINE
  5
2D9
100
AcDbEntity
  8
RACCORDO
100
AcDbLine
 62
7
  6
CONTINUOUS
 10
-41.0125944159
 20
0.4752246861
 11
-41.0603875186
 21
-0.4100278538
  0
LINE
  5
2DA
100
AcDbEntity
  8
RACCORDO
100
AcDbLine
 62
250
  6
CONTINUOUS
 10
-40.5263569287
 20
0.4500052345
 11
-40.5742984258
 21
-0.4386941504
  0
LINE
  5
2DB
100
AcDbEntity
  8
RACCORDO
100
AcDbLine
 62
7
  6
CONTINUOUS
 10
-41.0603875186
 20
-0.4100278538
 11
-41.1139937131
 21
-1.292879026
  0
LINE
  5
2DC
100
AcDbEntity
  8
RACCORDO
100
AcDbLine
 62
250
  6
CONTINUOUS
 10
-40.5742984258
 20
-0.4386941504
 11
-40.6280732943
 21
-1.3247833062
  0
LINE
  5
2DD
100
AcDbEntity
  8
RACCORDO
100
AcDbLine
 62
7
  6
CONTINUOUS
 10
-41.1139937131
 20
-1.292879026
 11
-41.1743844635
 21
-2.1931216932
  0
LINE
  5
2DE
100
AcDbEntity
  8
RACCORDO
100
AcDbLine
 62
250
  6
CONTINUOUS
 10
-40.6280732943
 20
-1.3247833062
 11
-40.6886758228
 21
-2.2281128408
  0
LINE
  5
2DF
100
AcDbEntity
  8
RACCORDO
100
AcDbLine
 62
7
  6
CONTINUOUS
 10
-41.1743844635
 20
-2.1931216932
 11
-41.2423727496
 21
-3.1223817972
  0
LINE
  5
2E0
100
AcDbEntity
  8
RACCORDO
100
AcDbLine
 62
250
  6
CONTINUOUS
 10
-40.6886758228
 20
-2.2281128408
 11
-40.7569027265
 21
-3.1603215494
  0
LINE
  5
2E1
100
AcDbEntity
  8
RACCORDO
100
AcDbLine
 62
7
  6
CONTINUOUS
 10
-41.2423727496
 20
-3.1223817972
 11
-41.3194925636
 21
-4.0984209729
  0
LINE
  5
2E2
100
AcDbEntity
  8
RACCORDO
100
AcDbLine
 62
250
  6
CONTINUOUS
 10
-40.7569027265
 20
-3.1603215494
 11
-40.8342092397
 21
-4.1392137694
  0
LINE
  5
2E3
100
AcDbEntity
  8
RACCORDO
100
AcDbLine
 62
7
  6
CONTINUOUS
 10
-41.3194925636
 20
-4.0984209729
 11
-41.407586246
 21
-5.1389281624
  0
LINE
  5
2E4
100
AcDbEntity
  8
RACCORDO
100
AcDbLine
 62
250
  6
CONTINUOUS
 10
-40.8342092397
 20
-4.1392137694
 11
-40.9225934774
 21
-5.1824512115
  0
LINE
  5
2E5
100
AcDbEntity
  8
0
100
AcDbLine
 62
7
  6
CONTINUOUS
 10
-41.3953661312
 20
-4.9985984797
 11
-41.3528050508
 21
-4.5
  0
LINE
  5
2E6
100
AcDbEntity
  8
RACCORDO
100
AcDbLine
 62
7
  6
CONTINUOUS
 10
-41.407586246
 20
-5.1389281624
 11
-41.5081677839
 21
-6.2556817226
  0
LINE
  5
2E7
100
AcDbEntity
  8
RACCORDO
100
AcDbLine
 62
250
  6
CONTINUOUS
 10
-40.9225934774
 20
-5.1824512115
 11
-41.0233867117
 21
-6.3017893656
  0
LINE
  5
2E8
100
AcDbEntity
  8
0
100
AcDbLine
 62
7
  6
CONTINUOUS
 10
-41.3954944307
 20
-5.0
 11
-41.3953661312
 21
-4.9985984797
  0
LINE
  5
2E9
100
AcDbEntity
  8
RACCORDO
100
AcDbLine
 62
7
  6
CONTINUOUS
 10
-41.5081677839
 20
-6.2556817226
 11
-41.6232631969
 21
-7.4663847312
  0
LINE
  5
2EA
100
AcDbEntity
  8
RACCORDO
100
AcDbLine
 62
250
  6
CONTINUOUS
 10
-41.0233867117
 20
-6.3017893656
 11
-41.1387039973
 21
-7.5148295421
  0
LINE
  5
2EB
100
AcDbEntity
  8
RACCORDO
100
AcDbLine
 62
7
  6
CONTINUOUS
 10
-41.6232631969
 20
-7.4663847312
 11
-41.7550378944
 21
-8.790563622
  0
LINE
  5
2EC
100
AcDbEntity
  8
RACCORDO
100
AcDbLine
 62
250
  6
CONTINUOUS
 10
-41.1387039973
 20
-7.5148295421
 11
-41.2707111527
 21
-8.841063465
  0
LINE
  5
2ED
100
AcDbEntity
  8
RACCORDO
100
AcDbLine
 62
7
  6
CONTINUOUS
 10
-41.7550378944
 20
-8.790563622
 11
-41.9042373606
 21
-10.2340775349
  0
LINE
  5
2EE
100
AcDbEntity
  8
RACCORDO
100
AcDbLine
 62
250
  6
CONTINUOUS
 10
-41.2707111527
 20
-8.841063465
 11
-41.420064887
 21
-10.2863417665
  0
LINE
  5
2EF
100
AcDbEntity
  8
RACCORDO
100
AcDbLine
 62
7
  6
CONTINUOUS
 10
-41.9042373606
 20
-10.2340775349
 11
-43.4721907558
 21
-25.1521575846
  0
LINE
  5
2F0
100
AcDbEntity
  8
RACCORDO
100
AcDbLine
 62
250
  6
CONTINUOUS
 10
-41.420064887
 20
-10.2863417665
 11
-42.9880182823
 21
-25.2044218162
  0
LINE
  5
2F1
100
AcDbEntity
  8
RACCORDO
100
AcDbLine
 62
7
  6
CONTINUOUS
 10
-38.8051822795
 20
-2.0
 11
-36.2183581906
 21
-1.5438731188
  0
LINE
  5
2F2
100
AcDbEntity
  8
RACCORDO
100
AcDbLine
 62
7
  6
CONTINUOUS
 10
-38.8051822795
 20
26.3528653412
 11
-38.8051822795
 21
-26.3528653412
  0
LINE
  5
2F3
100
AcDbEntity
  8
RACCORDO
100
AcDbLine
 62
7
  6
CONTINUOUS
 10
-37.8874171226
 20
22.5846728965
 11
-37.8874171226
 21
22.4153271035
  0
LINE
  5
2F4
100
AcDbEntity
  8
RACCORDO
100
AcDbLine
 62
250
  6
CONTINUOUS
 10
-37.8122890607
 20
21.6
 11
-37.8122890607
 21
21.35
  0
LINE
  5
2F5
100
AcDbEntity
  8
DRAFT
100
AcDbLine
 62
7
  6
CONTINUOUS
 10
-37.6051822795
 20
-11.705067874
 11
-37.6051822795
 21
-11.7549863962
  0
LINE
  5
2F6
100
AcDbEntity
  8
DRAFT
100
AcDbLine
 62
7
  6
CONTINUOUS
 10
-37.6051822795
 20
-14.7450136038
 11
-37.6051822795
 21
-14.794932126
  0
LWPOLYLINE
  5
2F7
100
AcDbEntity
  8
RACCORDO
100
AcDbPolyline
 62
250
  6
CONTINUOUS
 90
10
 70
0
 10
-43.0574513047
 20
-25.5496775477
 10
-43.062725357
 20
-25.5784869325
 10
-43.06733397
 20
-25.6044600513
 10
-43.0712432322
 20
-25.627405563
 10
-43.0744256308
 20
-25.6471632033
 10
-43.0768538543
 20
-25.6635649147
 10
-43.0785068803
 20
-25.6764633821
 10
-43.0793766729
 20
-25.6857776826
 10
-43.0794629203
 20
-25.6914700239
 10
-43.0787698077
 20
-25.693520226
  0
LINE
  5
2F8
100
AcDbEntity
  8
RACCORDO
100
AcDbLine
 62
250
  6
CONTINUOUS
 10
-43.0450685127
 20
-25.4844289077
 11
-43.0574513047
 21
-25.5496775477
  0
LINE
  5
2F9
100
AcDbEntity
  8
RACCORDO
100
AcDbLine
 62
250
  6
CONTINUOUS
 10
-43.0305632634
 20
-25.4107062219
 11
-43.0450685127
 21
-25.4844289077
  0
LINE
  5
2FA
100
AcDbEntity
  8
RACCORDO
100
AcDbLine
 62
250
  6
CONTINUOUS
 10
-43.0143753874
 20
-25.3307450077
 11
-43.0305632634
 21
-25.4107062219
  0
LWPOLYLINE
  5
2FB
100
AcDbEntity
  8
RACCORDO
100
AcDbPolyline
 62
250
  6
CONTINUOUS
 90
3
 70
0
 10
-42.9880182823
 20
-25.2044218162
 10
-42.9969935678
 20
-25.2469591848
 10
-43.0143753874
 20
-25.3307450077
  0
LINE
  5
2FC
100
AcDbEntity
  8
RACCORDO
100
AcDbLine
 62
250
  6
CONTINUOUS
 10
-37.3551822795
 20
20.8928932188
 11
-37.3551822795
 21
20.39
  0
LINE
  5
2FD
100
AcDbEntity
  8
RACCORDO
100
AcDbLine
 62
250
  6
CONTINUOUS
 10
-37.2551822795
 20
19.8
 11
-37.2551822795
 21
20.4196499413
  0
LINE
  5
2FE
100
AcDbEntity
  8
RACCORDO
100
AcDbLine
 62
7
  6
CONTINUOUS
 10
-37.1051822795
 20
19.95
 11
-37.1051822795
 21
20.8928932188
  0
LINE
  5
2FF
100
AcDbEntity
  8
DRAFT
100
AcDbLine
 62
7
  6
CONTINUOUS
 10
-36.6551822795
 20
-11.8381006266
 11
-36.6551822795
 21
-14.6618993734
  0
LINE
  5
300
100
AcDbEntity
  8
DRAFT
100
AcDbLine
 62
7
  6
CONTINUOUS
 10
-36.3665071449
 20
-11.8633564283
 11
-36.3665071449
 21
-14.6366435717
  0
LINE
  5
301
100
AcDbEntity
  8
DRAFT
100
AcDbLine
 62
7
  6
CONTINUOUS
 10
-36.1165071449
 20
-11.8852285942
 11
-36.1165071449
 21
-14.6147714058
  0
LINE
  5
302
100
AcDbEntity
  8
RACCORDO
100
AcDbLine
 62
7
  6
CONTINUOUS
 10
-35.8051822795
 20
-1.0514692423
 11
-35.8051822795
 21
1.0514692423
  0
LINE
  5
303
100
AcDbEntity
  8
RACCORDO
100
AcDbLine
 62
7
  6
CONTINUOUS
 10
-38.8051822795
 20
2.0
 11
-36.2183581906
 21
1.5438731188
  0
LINE
  5
304
100
AcDbEntity
  8
RACCORDO
100
AcDbLine
 62
7
  6
CONTINUOUS
 10
-35.5051822795
 20
-12.3968781766
 11
-35.5051822795
 21
-14.1031218234
  0
LWPOLYLINE
  5
305
100
AcDbEntity
  8
RACCORDO
100
AcDbPolyline
 62
250
  6
CONTINUOUS
 90
9
 70
0
 10
-40.202420738
 20
-26.1361728181
 10
-40.2091326865
 20
-26.1723463501
 10
-40.2149121614
 20
-26.2045753954
 10
-40.2196962784
 20
-26.2325092829
 10
-40.2234329834
 20
-26.255844075
 10
-40.2260816188
 20
-26.2743258748
 10
-40.2276133657
 20
-26.287753589
 10
-40.2280115577
 20
-26.2959811157
 10
-40.2272718621
 20
-26.2989189342
  0
LINE
  5
306
100
AcDbEntity
  8
RACCORDO
100
AcDbLine
 62
250
  6
CONTINUOUS
 10
-40.1865008912
 20
-26.0536052883
 11
-40.202420738
 21
-26.1361728181
  0
LINE
  5
307
100
AcDbEntity
  8
RACCORDO
100
AcDbLine
 62
250
  6
CONTINUOUS
 10
-40.1678436056
 20
-25.9604565636
 11
-40.1865008912
 21
-26.0536052883
  0
LWPOLYLINE
  5
308
100
AcDbEntity
  8
RACCORDO
100
AcDbPolyline
 62
250
  6
CONTINUOUS
 90
3
 70
0
 10
-40.1365203366
 20
-25.8098205244
 10
-40.147258681
 20
-25.8607696639
 10
-40.1678436056
 20
-25.9604565636
  0
LINE
  5
309
100
AcDbEntity
  8
RACCORDO
100
AcDbLine
 62
250
  6
CONTINUOUS
 10
-37.651692233
 20
21.9326977843
 11
-37.6431883842
 21
21.8831226658
  0
LWPOLYLINE
  5
30A
100
AcDbEntity
  8
RACCORDO
100
AcDbPolyline
 62
250
  6
CONTINUOUS
 90
9
 70
0
 10
-37.6431883842
 20
21.8831226658
 10
-37.6358035631
 20
21.8386534821
 10
-37.6326914313
 20
21.8192965457
 10
-37.6300392074
 20
21.8023096308
 10
-37.6278921136
 20
21.7879823593
 10
-37.6262867677
 20
21.7765590595
 10
-37.6252505444
 20
21.7682345084
 10
-37.624801115
 20
21.763150644
 10
-37.6249461509
 20
21.7613941844
  0
LWPOLYLINE
  5
30B
100
AcDbEntity
  8
0
100
AcDbPolyline
 62
7
  6
CONTINUOUS
 90
10
 70
0
 43
0.3500000006
 10
-49.9854815826
 20
35.3995391693
 10
-49.9140549316
 20
35.2566813354
 10
-49.9140549316
 20
35.1852546844
 10
-50.0569127655
 20
35.0423968506
 10
-50.1283394165
 20
35.0423968506
 10
-50.1997705994
 20
35.1138235016
 10
-50.1997705994
 20
35.1852546844
 10
-50.1283394165
 20
35.3281125183
 10
-50.0569127655
 20
35.3995391693
 10
-49.9854815826
 20
35.3995391693
  0
LWPOLYLINE
  5
30C
100
AcDbEntity
  8
RACCORDO
100
AcDbPolyline
 62
250
  6
CONTINUOUS
 90
17
 70
0
 10
-37.2149931297
 20
23.019603406
 10
-37.2155400209
 20
23.0226428623
 10
-37.2289270119
 20
23.0702666296
 10
-37.2465716203
 20
23.1167609339
 10
-37.2671346726
 20
23.1602006766
 10
-37.2907588829
 20
23.2001082776
 10
-37.3173015371
 20
23.2369613171
 10
-37.3449953195
 20
23.2702674361
 10
-37.3732055086
 20
23.2994910117
 10
-37.402566826
 20
23.325167667
 10
-37.4332161213
 20
23.3484119125
 10
-37.4647637457
 20
23.3694982717
 10
-37.497599348
 20
23.3881522211
 10
-37.533028725
 20
23.404664701
 10
-37.5714871422
 20
23.4191326915
 10
-37.612539334
 20
23.4314592126
 10
-37.6561853005
 20
23.4416442642
  0
LINE
  5
30D
100
AcDbEntity
  8
RACCORDO
100
AcDbLine
 62
250
  6
CONTINUOUS
 10
-37.6561853005
 20
21.9583557358
 11
-37.651692233
 21
21.9326977843
  0
LINE
  5
30E
100
AcDbEntity
  8
RACCORDO
100
AcDbLine
 62
250
  6
CONTINUOUS
 10
-40.3182707536
 20
10.7371426949
 11
-40.8051822795
 21
10.7371426949
  0
LINE
  5
30F
100
AcDbEntity
  8
RACCORDO
100
AcDbLine
 62
250
  6
CONTINUOUS
 10
-37.6355123654
 20
21.2767766953
 11
-37.4284055842
 21
21.0696699141
  0
LINE
  5
310
100
AcDbEntity
  8
RACCORDO
100
AcDbLine
 62
7
  6
CONTINUOUS
 10
-37.4587356701
 20
21.4535533906
 11
-37.2516288889
 21
21.2464466094
  0
LINE
  5
311
100
AcDbEntity
  8
RACCORDO
100
AcDbLine
 62
7
  6
CONTINUOUS
 10
-38.8051822795
 20
19.8
 11
-37.2551822795
 21
19.8
  0
LINE
  5
312
100
AcDbEntity
  8
RACCORDO
100
AcDbLine
 62
250
  6
CONTINUOUS
 10
-38.8051822795
 20
20.1151224438
 11
-37.2551822795
 21
20.1151224438
  0
LWPOLYLINE
  5
313
100
AcDbEntity
  8
RACCORDO
100
AcDbPolyline
 62
250
  6
CONTINUOUS
 90
13
 70
0
 10
-37.2551822795
 20
20.1151224438
 10
-37.2356033506
 20
20.1143837775
 10
-37.2163594227
 20
20.1121804172
 10
-37.1977797646
 20
20.1085500631
 10
-37.1801822795
 20
20.1035548316
 10
-37.1638680651
 20
20.0972801925
 10
-37.1491162623
 20
20.0898335065
 10
-37.1361792784
 20
20.0813421885
 10
-37.1252784689
 20
20.0719515274
 10
-37.1166003496
 20
20.0618221999
 10
-37.1102934055
 20
20.0511275217
 10
-37.1064655503
 20
20.0400504816
 10
-37.1051822795
 20
20.028780611
  0
LWPOLYLINE
  5
314
100
AcDbEntity
  8
RACCORDO
100
AcDbPolyline
 62
250
  6
CONTINUOUS
 90
34
 70
0
 10
-37.6561853005
 20
21.9583557358
 10
-37.6070192954
 20
21.9694969159
 10
-37.5598350632
 20
21.9846152812
 10
-37.5146326041
 20
22.0037108318
 10
-37.4711072712
 20
22.0269939857
 10
-37.4295637114
 20
22.0542543249
 10
-37.3909158647
 20
22.0848605947
 10
-37.3552033726
 20
22.118902668
 10
-37.3223865937
 20
22.1562906718
 10
-37.2932605446
 20
22.1961237328
 10
-37.2679174786
 20
22.2384625478
 10
-37.2462651425
 20
22.28324642
 10
-37.2288217934
 20
22.3293923857
 10
-37.2156878473
 20
22.3769121739
 10
-37.2067628883
 20
22.4257940557
 10
-37.2022639252
 20
22.4749198805
 10
-37.2023194207
 20
22.5243747334
 10
-37.2068009121
 20
22.5740735294
 10
-37.2155400209
 20
22.6226428623
 10
-37.2289270119
 20
22.6702666296
 10
-37.2465716203
 20
22.7167609339
 10
-37.2671346726
 20
22.7602006766
 10
-37.2907588829
 20
22.8001082776
 10
-37.3173015371
 20
22.8369613171
 10
-37.3449953195
 20
22.8702674361
 10
-37.3732055086
 20
22.8994910117
 10
-37.402566826
 20
22.925167667
 10
-37.4332161213
 20
22.9484119125
 10
-37.4647637457
 20
22.9694982717
 10
-37.497599348
 20
22.9881522211
 10
-37.533028725
 20
23.004664701
 10
-37.5714871422
 20
23.0191326915
 10
-37.612539334
 20
23.0314592126
 10
-37.6561853005
 20
23.0416442642
  0
LINE
  5
315
100
AcDbEntity
  8
RACCORDO
100
AcDbLine
 62
7
  6
CONTINUOUS
 10
-38.8051822795
 20
21.5532867113
 11
-37.6249461462
 21
21.7613941852
  0
LINE
  5
316
100
AcDbEntity
  8
RACCORDO
100
AcDbLine
 62
250
  6
CONTINUOUS
 10
-38.8051822795
 20
21.7557565677
 11
-37.6561853005
 21
21.9583557358
  0
LINE
  5
317
100
AcDbEntity
  8
RACCORDO
100
AcDbLine
 62
7
  6
CONTINUOUS
 10
-38.8051822795
 20
20.39
 11
-37.3551822795
 21
20.39
  0
LINE
  5
318
100
AcDbEntity
  8
RACCORDO
100
AcDbLine
 62
250
  6
CONTINUOUS
 10
-37.1051822795
 20
20.8928932188
 11
-37.3551822795
 21
20.8928932188
  0
LINE
  5
319
100
AcDbEntity
  8
RACCORDO
100
AcDbLine
 62
250
  6
CONTINUOUS
 10
-38.8051822795
 20
21.35
 11
-37.8122890607
 21
21.35
  0
LINE
  5
31A
100
AcDbEntity
  8
RACCORDO
100
AcDbLine
 62
7
  6
CONTINUOUS
 10
-38.5402580548
 20
21.6
 11
-37.8122890607
 21
21.6
  0
LINE
  5
31B
100
AcDbEntity
  8
RACCORDO
100
AcDbLine
 62
7
  6
CONTINUOUS
 10
-38.17173209
 20
22.2128024207
 11
-38.8051822795
 21
22.2017455065
  0
LINE
  5
31C
100
AcDbEntity
  8
RACCORDO
100
AcDbLine
 62
250
  6
CONTINUOUS
 10
-37.8874171226
 20
22.4153271035
 11
-38.8051822795
 21
22.3993074531
  0
LINE
  5
31D
100
AcDbEntity
  8
RACCORDO
100
AcDbLine
 62
250
  6
CONTINUOUS
 10
-38.8051822795
 20
22.6006925469
 11
-37.8874171226
 21
22.5846728965
  0
LINE
  5
31E
100
AcDbEntity
  8
RACCORDO
100
AcDbLine
 62
7
  6
CONTINUOUS
 10
-38.8051822795
 20
22.7982544935
 11
-38.17173209
 21
22.7871975793
  0
LINE
  5
31F
100
AcDbEntity
  8
RACCORDO
100
AcDbLine
 62
250
  6
CONTINUOUS
 10
-37.6561853005
 20
23.0416442642
 11
-38.8051822795
 21
23.2442434323
  0
LINE
  5
320
100
AcDbEntity
  8
RACCORDO
100
AcDbLine
 62
7
  6
CONTINUOUS
 10
-37.6249461462
 20
23.2386058148
 11
-38.8051822795
 21
23.4467132887
  0
LINE
  5
321
100
AcDbEntity
  8
RACCORDO
100
AcDbLine
 62
250
  6
CONTINUOUS
 10
-37.6561853005
 20
23.4416442642
 11
-38.8051822795
 21
23.6442434323
  0
LINE
  5
322
100
AcDbEntity
  8
RACCORDO
100
AcDbLine
 62
7
  6
CONTINUOUS
 10
-37.6249461462
 20
23.6386058148
 11
-38.8051822795
 21
23.8467132887
  0
LINE
  5
323
100
AcDbEntity
  8
RACCORDO
100
AcDbLine
 62
250
  6
CONTINUOUS
 10
-38.8051822795
 20
25.8530366787
 11
-40.3182707536
 21
25.8134150626
  0
LINE
  5
324
100
AcDbEntity
  8
RACCORDO
100
AcDbLine
 62
7
  6
CONTINUOUS
 10
-38.8051822795
 20
26.3528653412
 11
-40.3182707536
 21
26.3132437251
  0
LINE
  5
325
100
AcDbEntity
  8
RACCORDO
100
AcDbLine
 62
250
  6
CONTINUOUS
 10
-40.3182707536
 20
25.8134150626
 11
-40.8051822795
 21
25.8134150626
  0
LWPOLYLINE
  5
326
100
AcDbEntity
  8
0
100
AcDbPolyline
 62
7
  6
CONTINUOUS
 90
3
 70
0
 43
0.3500000006
 10
-51.4854820404
 20
35.5423970032
 10
-52.9854824982
 20
35.5423970032
 10
-52.3426245117
 20
37.8995399323
  0
LWPOLYLINE
  5
327
100
AcDbEntity
  8
0
100
AcDbPolyline
 62
7
  6
CONTINUOUS
 90
13
 70
0
 43
0.3500000006
 10
-50.9012119446
 20
44.1049845886
 10
-51.1869276123
 20
44.3192736053
 10
-51.1869276123
 20
44.9621270599
 10
-50.9012119446
 20
45.3907005615
 10
-50.25835849
 20
45.3907005615
 10
-49.9726428223
 20
44.9621270599
 10
-49.9726428223
 20
44.3192736053
 10
-50.25835849
 20
44.1049845886
 10
-49.8297849884
 20
43.6764156189
 10
-49.8297849884
 20
42.8192731476
 10
-50.25835849
 20
42.390699646
 10
-50.9012119446
 20
42.390699646
 10
-51.3297854462
 20
42.8192731476
  0
ARC
  5
328
100
AcDbEntity
  8
0
100
AcDbCircle
 62
7
  6
CONTINUOUS
 10
4.5
 20
4.5
 40
0.5
100
AcDbArc
 50
0.0
 51
90.0
  0
ARC
  5
329
100
AcDbEntity
  8
0
100
AcDbCircle
 62
7
  6
CONTINUOUS
 10
-4.5
 20
4.5
 40
0.5
100
AcDbArc
 50
90.0
 51
180.0
  0
ARC
  5
32A
100
AcDbEntity
  8
0
100
AcDbCircle
 62
7
  6
CONTINUOUS
 10
-4.5
 20
-4.5
 40
0.5
100
AcDbArc
 50
180.0
 51
270.0
  0
ARC
  5
32B
100
AcDbEntity
  8
0
100
AcDbCircle
 62
7
  6
CONTINUOUS
 10
4.5
 20
-4.5
 40
0.5
100
AcDbArc
 50
270.0
 51
360.0
  0
ARC
  5
32C
100
AcDbEntity
  8
RACCORDO
100
AcDbCircle
 62
7
  6
CONTINUOUS
 10
-40.0195918629
 20
-25.3207221146
 40
1.0
100
AcDbArc
 50
258.0135711831
 51
268.5
  0
ARC
  5
32D
100
AcDbEntity
  8
RACCORDO
100
AcDbCircle
 62
7
  6
CONTINUOUS
 10
-37.7551822795
 20
22.5
 40
0.75
100
AcDbArc
 50
280.0
 51
80.0
  0
ARC
  5
32E
100
AcDbEntity
  8
RACCORDO
100
AcDbCircle
 62
7
  6
CONTINUOUS
 10
-37.7551822795
 20
22.9
 40
0.75
100
AcDbArc
 50
344.5149374117
 51
80.0
  0
ARC
  5
32F
100
AcDbEntity
  8
RACCORDO
100
AcDbCircle
 62
7
  6
CONTINUOUS
 10
-36.0051822795
 20
-14.1031218234
 40
0.5
100
AcDbArc
 50
275.0
 51
360.0
  0
ARC
  5
330
100
AcDbEntity
  8
RACCORDO
100
AcDbCircle
 62
7
  6
CONTINUOUS
 10
-36.0051822795
 20
-12.3968781766
 40
0.5
100
AcDbArc
 50
0.0
 51
85.0
  0
ARC
  5
331
100
AcDbEntity
  8
RACCORDO
100
AcDbCircle
 62
7
  6
CONTINUOUS
 10
-37.6051822795
 20
20.8928932188
 40
0.5
100
AcDbArc
 50
0.0
 51
45.0
  0
ARC
  5
332
100
AcDbEntity
  8
RACCORDO
100
AcDbCircle
 62
7
  6
CONTINUOUS
 10
-37.8122890607
 20
21.1
 40
0.5
100
AcDbArc
 50
45.0
 51
90.0
  0
ARC
  5
333
100
AcDbEntity
  8
RACCORDO
100
AcDbCircle
 62
7
  6
CONTINUOUS
 10
-36.3051822795
 20
1.0514692423
 40
0.5
100
AcDbArc
 50
0.0
 51
80.0
  0
ARC
  5
334
100
AcDbEntity
  8
RACCORDO
100
AcDbCircle
 62
7
  6
CONTINUOUS
 10
-36.3051822795
 20
-1.0514692423
 40
0.5
100
AcDbArc
 50
280.0
 51
360.0
  0
ARC
  5
335
100
AcDbEntity
  8
RACCORDO
100
AcDbCircle
 62
7
  6
CONTINUOUS
 10
-42.9749298081
 20
-25.2044218162
 40
0.5
100
AcDbArc
 50
174.0
 51
258.0135711831
  0
ARC
  5
336
100
AcDbEntity
  8
RACCORDO
100
AcDbCircle
 62
7
  6
CONTINUOUS
 10
-40.3051822795
 20
25.8134150626
 40
0.5
100
AcDbArc
 50
91.5
 51
180.0
  0
ARC
  5
337
100
AcDbEntity
  8
RACCORDO
100
AcDbCircle
 62
250
  6
CONTINUOUS
 10
-37.8122890607
 20
21.1
 40
0.25
100
AcDbArc
 50
45.0
 51
90.0
  0
ARC
  5
338
100
AcDbEntity
  8
RACCORDO
100
AcDbCircle
 62
250
  6
CONTINUOUS
 10
-37.6051822795
 20
20.8928932188
 40
0.25
100
AcDbArc
 50
0.0
 51
45.0
  0
ARC
  5
339
100
AcDbEntity
  8
RACCORDO
100
AcDbCircle
 62
7
  6
CONTINUOUS
 10
-37.2551822795
 20
19.95
 40
0.15
100
AcDbArc
 50
270.0
 51
360.0
  0
ELLIPSE
  5
33A
100
AcDbEntity
  8
RACCORDO
100
AcDbEllipse
 62
7
  6
CONTINUOUS
 10
21.8026939449
 20
-25.8526939449
 30
0.0
 11
-0.35379574
 21
0.35379574
 31
0.0
 40
0.999315002
 41
-3.9266482006
 42
-2.3565371065
  0
ELLIPSE
  5
33B
100
AcDbEntity
  8
RACCORDO
100
AcDbEllipse
 62
7
  6
CONTINUOUS
 10
21.8026939449
 20
25.8526939449
 30
0.0
 11
0.35379574
 21
0.35379574
 31
0.0
 40
0.999315002
 41
-0.7850555471
 42
0.7850555471
  0
ELLIPSE
  5
33C
100
AcDbEntity
  8
RACCORDO
100
AcDbEllipse
 62
7
  6
CONTINUOUS
 10
-21.8026939449
 20
25.8526939449
 30
0.0
 11
0.35379574
 21
-0.35379574
 31
0.0
 40
0.999315002
 41
2.3565371065
 42
3.9266482006
  0
ELLIPSE
  5
33D
100
AcDbEntity
  8
RACCORDO
100
AcDbEllipse
 62
7
  6
CONTINUOUS
 10
-21.8026939449
 20
-25.8526939449
 30
0.0
 11
0.35379574
 21
0.35379574
 31
0.0
 40
0.999315002
 41
-3.9266482006
 42
-2.3565371065
  0
ELLIPSE
  5
33E
100
AcDbEntity
  8
RACCORDO
100
AcDbEllipse
 62
7
  6
CONTINUOUS
 10
-37.3551822795
 20
20.7451535088
 30
0.0
 11
-0.0
 21
0.3551535088
 31
0.0
 40
0.7039209633
 41
-3.1415926536
 42
-2.7300758075
  0
ELLIPSE
  5
33F
100
AcDbEntity
  8
RACCORDO
100
AcDbEllipse
 62
7
  6
CONTINUOUS
 10
-38.1752845802
 20
22.4127708773
 30
0.0
 11
0.2878469909
 21
0.0049410995
 31
0.0
 40
0.6947112101
 41
-1.5703799483
 42
-0.0119246497
  0
ELLIPSE
  5
340
100
AcDbEntity
  8
RACCORDO
100
AcDbEllipse
 62
7
  6
CONTINUOUS
 10
-38.1752845802
 20
22.5872291227
 30
0.0
 11
0.2878469909
 21
-0.0049410995
 31
0.0
 40
0.6947112101
 41
0.0119246497
 42
1.5703799483
  0
ENDSEC
  0
SECTION
  2
OBJECTS
  0
DICTIONARY
  5
C
100
AcDbDictionary
280
0
281
1
  3
ACAD_GROUP
350
D
  3
ACAD_MLINESTYLE
350
17
  3
ACAD_LAYOUT
350
1A
  3
ACAD_PLOTSETTINGS
350
19
  3
ACAD_PLOTSTYLENAME
350
E
  0
DICTIONARY
  5
D
102
{ACAD_REACTORS
330
C
102
}
100
AcDbDictionary
280
0
281
1
  0
ACDBDICTIONARYWDFLT
  5
E
102
{ACAD_REACTORS
330
C
102
}
100
AcDbDictionary
281
1
  3
Normal
350
F
100
AcDbDictionaryWithDefault
340
F
  0
DICTIONARY
  5
17
102
{ACAD_REACTORS
330
C
102
}
100
AcDbDictionary
280
0
281
1
  3
Standard
350
18
  0
DICTIONARY
  5
19
102
{ACAD_REACTORS
330
C
102
}
100
AcDbDictionary
281
1
  0
DICTIONARY
  5
1A
102
{ACAD_REACTORS
330
C
102
}
100
AcDbDictionary
281
1
  3
Model
350
341
  3
Layout1
350
342
  0
ACDBPLACEHOLDER
  5
F
102
{ACAD_REACTORS
330
E
102
}
  0
MLINESTYLE
  5
18
102
{ACAD_REACTORS
330
17
102
}
100
AcDbMlineStyle
  2
STANDARD
 70
0
  3

 62
256
 51
90.0
 52
90.0
 71
2
 49
0.5
 62
256
  6
BYLAYER
 49
-0.5
 62
256
  6
BYLAYER
  0
LAYOUT
  5
341
102
{ACAD_REACTORS
330
1A
102
}
100
AcDbPlotSettings
  1

  2
none_device
  4
ISO_A4_(297.00_x_210.00_MM)
  6

 40
0.0
 41
0.0
 42
0.0
 43
0.0
 44
297.0
 45
210.0
 46
0.0
 47
0.0
 48
0.0
 49
0.0
140
0.0
141
0.0
142
1.0
143
1.0
 70
1024
 72
1
 73
0
 74
0
  7

 75
0
147
1.0
148
0.0
149
0.0
100
AcDbLayout
  1
Model
 70
0
 71
0
 10
0.0
 20
0.0
 11
297.0
 21
210.0
 12
0.0
 22
0.0
 32
0.0
 14
0.0
 24
0.0
 34
0.0
 15
0.0
 25
0.0
 35
0.0
146
0.0
 13
0.0
 23
0.0
 33
0.0
 16
1.0
 26
0.0
 36
0.0
 17
0.0
 27
1.0
 37
0.0
 76
0
330
21E
345
0
346
0
  0
LAYOUT
  5
342
102
{ACAD_REACTORS
330
1A
102
}
100
AcDbPlotSettings
  1

  2
none_device
  4
ISO_A4_(297.00_x_210.00_MM)
  6

 40
0.0
 41
0.0
 42
0.0
 43
0.0
 44
297.0
 45
210.0
 46
0.0
 47
0.0
 48
0.0
 49
0.0
140
0.0
141
0.0
142
1.0
143
1.0
 70
0
 72
1
 73
0
 74
0
  7

 75
0
147
1.0
148
0.0
149
0.0
100
AcDbLayout
  1
Layout1
 70
0
 71
1
 10
0.0
 20
0.0
 11
297.0
 21
210.0
 12
0.0
 22
0.0
 32
0.0
 14
0.0
 24
0.0
 34
0.0
 15
0.0
 25
0.0
 35
0.0
146
0.0
 13
0.0
 23
0.0
 33
0.0
 16
1.0
 26
0.0
 36
0.0
 17
0.0
 27
1.0
 37
0.0
 76
0
330
21F
345
0
346
0
  0
ENDSEC
  0
EOF
