  0
SECTION
  2
HEADER
  9
$ACADVER
  1
AC1024
  9
$DWGCODEPAGE
  3
ANSI_1252
  9
$EXTMAX
 10
297.0
 20
210.0
 30
0.0
  9
$EXTMIN
 10
0.0
 20
0.0
 30
0.0
  9
$LIMMIN
 10
0.0
 20
0.0
  9
$LIMMAX
 10
297.0
 20
210.0
  9
$VIEWCTR
 10
148.5
 20
105.0
  9
$VIEWSIZE
 40
210.0
  9
$CLAYER
  8
0
  9
$LTSCALE
 40
16.335
  9
$CELTYPE
  6
BYLAYER
  9
$DIMSCALE
 40
1.0
  9
$DIMASZ
 40
3.0
  9
$DIMEXO
 40
0.5
  9
$DIMDLI
 40
11.286
  9
$DIMEXE
 40
1.5
  9
$DIMCEN
 40
2.673
  9
$DIMLFAC
 40
1.0
  9
$DIMBLK
  1
_FILLED
  9
$DIMALT
 70
0
  9
$DIMALTF
 40
0.0393700787
  9
$DIMTXT
 40
3.0
  9
$DIMTOL
 70
1
  9
$DIMLIM
 70
0
  9
$DIMTFAC
 40
1.0
  9
$DIMTP
 40
0.01
  9
$DIMTM
 40
0.01
  9
$DIMGAP
 40
0.625
  9
$DIMDSEP
 70
44
  9
$AUNITS
 70
0
  9
$PDMODE
 70
3
  9
$PDSIZE
 40
3.0
  9
$HANDSEED
  5
3AB
  9
$TILEMODE
 70
1
  9
$MEASUREMENT
 70
1
  9
$INSUNITS
 70
4
  0
ENDSEC
  0
SECTION
  2
CLASSES
  0
CLASS
  1
ACDBDICTIONARYWDFLT
  2
AcDbDictionaryWithDefault
  3
AutoCAD 2000
 90
0
 91
1
280
0
281
0
  0
CLASS
  1
ACDBPLACEHOLDER
  2
AcDbPlaceHolder
  3
AutoCAD 2000
 90
0
 91
1
280
0
281
0
  0
CLASS
  1
LAYOUT
  2
AcDbLayout
  3
AutoCAD 2000
 90
0
 91
0
280
0
281
0
  0
ENDSEC
  0
SECTION
  2
TABLES
  0
TABLE
  2
VPORT
  5
8
100
AcDbSymbolTable
 70
2
  0
VPORT
  5
1F4
100
AcDbSymbolTableRecord
100
AcDbViewportTableRecord
  2
*ACTIVE
 70
0
 10
0.0
 20
0.0
 11
1.0
 21
1.0
 12
148.5
 22
105.0
 13
0.0
 23
0.0
 14
1.0
 24
1.0
 15
0.0
 25
0.0
 16
0.0
 26
0.0
 36
1.0
 17
0.0
 27
0.0
 37
0.0
 40
210.0
 41
1.4142857143
 42
50.0
 43
0.0
 44
0.0
 50
0.0
 51
0.0
 71
0
 72
100
 73
1
 74
1
 75
0
 76
0
 77
0
 78
0
  0
ENDTAB
  0
TABLE
  2
LTYPE
  5
5
100
AcDbSymbolTable
 70
6
  0
LTYPE
  5
14
100
AcDbSymbolTableRecord
100
AcDbLinetypeTableRecord
  2
BYBLOCK
 70
0
  3

 72
65
 73
0
 40
0.0
  0
LTYPE
  5
15
100
AcDbSymbolTableRecord
100
AcDbLinetypeTableRecord
  2
BYLAYER
 70
0
  3

 72
65
 73
0
 40
0.0
  0
LTYPE
  5
16
100
AcDbSymbolTableRecord
100
AcDbLinetypeTableRecord
  2
CONTINUOUS
 70
64
  3
Solid line
 72
65
 73
0
 40
0.0
  0
LTYPE
  5
1F5
100
AcDbSymbolTableRecord
100
AcDbLinetypeTableRecord
  2
CENTER
 70
64
  3
____ _ ____ _ ____ _ ____ _ ____ _ ____ _ ____
 72
65
 73
4
 40
0.6
 49
0.375
 74
0
 49
-0.075
 74
0
 49
0.075
 74
0
 49
-0.075
 74
0
  0
LTYPE
  5
1F6
100
AcDbSymbolTableRecord
100
AcDbLinetypeTableRecord
  2
HIDDEN
 70
64
  3
- - - - - - - - - - - - - - - - - - - -
 72
65
 73
2
 40
0.2
 49
0.1
 74
0
 49
-0.1
 74
0
  0
LTYPE
  5
1F7
100
AcDbSymbolTableRecord
100
AcDbLinetypeTableRecord
  2
PHANTOM
 70
64
  3
_____ _ _ _____ _ _ _____ _ _ _____
 72
65
 73
6
 40
0.8
 49
0.45
 74
0
 49
-0.05
 74
0
 49
0.1
 74
0
 49
-0.05
 74
0
 49
0.1
 74
0
 49
-0.05
 74
0
  0
LTYPE
  5
1F8
100
AcDbSymbolTableRecord
100
AcDbLinetypeTableRecord
  2
DOT
 70
64
  3
. . . . . . . . . . . . . . . . . . . .
 72
65
 73
2
 40
0.2
 49
0.1
 74
0
 49
-0.1
 74
0
  0
LTYPE
  5
1F9
100
AcDbSymbolTableRecord
100
AcDbLinetypeTableRecord
  2
DASHED
 70
64
  3
- - - - - - - - - - - - - - - - - - - -
 72
65
 73
2
 40
0.2
 49
0.1
 74
0
 49
-0.1
 74
0
  0
ENDTAB
  0
TABLE
  2
LAYER
  5
2
100
AcDbSymbolTable
 70
36
  0
LAYER
  5
10
100
AcDbSymbolTableRecord
100
AcDbLayerTableRecord
  2
0
 70
0
 62
7
  6
CONTINUOUS
370
-3
390
F
  0
LAYER
  5
1FA
100
AcDbSymbolTableRecord
100
AcDbLayerTableRecord
  2
DEFAULT_1
 70
0
 62
7
  6
CENTER
370
-3
390
F
  0
LAYER
  5
1FB
100
AcDbSymbolTableRecord
100
AcDbLayerTableRecord
  2
DEFAULT_2
 70
0
 62
7
  6
HIDDEN
370
-3
390
F
  0
LAYER
  5
1FC
100
AcDbSymbolTableRecord
100
AcDbLayerTableRecord
  2
DEFAULT_3
 70
0
 62
7
  6
PHANTOM
370
-3
390
F
  0
LAYER
  5
1FD
100
AcDbSymbolTableRecord
100
AcDbLayerTableRecord
  2
ASSI
 70
0
 62
7
  6
CONTINUOUS
370
-3
390
F
  0
LAYER
  5
1FE
100
AcDbSymbolTableRecord
100
AcDbLayerTableRecord
  2
COORDINATE
 70
0
 62
7
  6
CONTINUOUS
370
-3
390
F
  0
LAYER
  5
1FF
100
AcDbSymbolTableRecord
100
AcDbLayerTableRecord
  2
COPY_PUBLISH
 70
0
 62
7
  6
CONTINUOUS
370
-3
390
F
  0
LAYER
  5
200
100
AcDbSymbolTableRecord
100
AcDbLayerTableRecord
  2
COSMETICI
 70
0
 62
7
  6
CONTINUOUS
370
-3
390
F
  0
LAYER
  5
201
100
AcDbSymbolTableRecord
100
AcDbLayerTableRecord
  2
CURVE
 70
0
 62
7
  6
CONTINUOUS
370
-3
390
F
  0
LAYER
  5
202
100
AcDbSymbolTableRecord
100
AcDbLayerTableRecord
  2
DRAFT
 70
0
 62
7
  6
CONTINUOUS
370
-3
390
F
  0
LAYER
  5
203
100
AcDbSymbolTableRecord
100
AcDbLayerTableRecord
  2
IMPORT_IGES
 70
0
 62
7
  6
CONTINUOUS
370
-3
390
F
  0
LAYER
  5
204
100
AcDbSymbolTableRecord
100
AcDbLayerTableRecord
  2
INTF_1
 70
0
 62
7
  6
CONTINUOUS
370
-3
390
F
  0
LAYER
  5
205
100
AcDbSymbolTableRecord
100
AcDbLayerTableRecord
  2
INTF_2
 70
0
 62
7
  6
CONTINUOUS
370
-3
390
F
  0
LAYER
  5
206
100
AcDbSymbolTableRecord
100
AcDbLayerTableRecord
  2
INTF_3
 70
0
 62
7
  6
CONTINUOUS
370
-3
390
F
  0
LAYER
  5
207
100
AcDbSymbolTableRecord
100
AcDbLayerTableRecord
  2
INTF_4
 70
0
 62
7
  6
CONTINUOUS
370
-3
390
F
  0
LAYER
  5
208
100
AcDbSymbolTableRecord
100
AcDbLayerTableRecord
  2
INTF_5
 70
0
 62
7
  6
CONTINUOUS
370
-3
390
F
  0
LAYER
  5
209
100
AcDbSymbolTableRecord
100
AcDbLayerTableRecord
  2
INTF_6
 70
0
 62
7
  6
CONTINUOUS
370
-3
390
F
  0
LAYER
  5
20A
100
AcDbSymbolTableRecord
100
AcDbLayerTableRecord
  2
INTF_7
 70
0
 62
7
  6
CONTINUOUS
370
-3
390
F
  0
LAYER
  5
20B
100
AcDbSymbolTableRecord
100
AcDbLayerTableRecord
  2
INTF_9
 70
0
 62
7
  6
CONTINUOUS
370
-3
390
F
  0
LAYER
  5
20C
100
AcDbSymbolTableRecord
100
AcDbLayerTableRecord
  2
INTF_BLANK
 70
0
 62
7
  6
CONTINUOUS
370
-3
390
F
  0
LAYER
  5
20D
100
AcDbSymbolTableRecord
100
AcDbLayerTableRecord
  2
INTF_RED
 70
0
 62
7
  6
CONTINUOUS
370
-3
390
F
  0
LAYER
  5
20E
100
AcDbSymbolTableRecord
100
AcDbLayerTableRecord
  2
NOTE
 70
0
 62
7
  6
CONTINUOUS
370
-3
390
F
  0
LAYER
  5
20F
100
AcDbSymbolTableRecord
100
AcDbLayerTableRecord
  2
PIANI
 70
0
 62
7
  6
CONTINUOUS
370
-3
390
F
  0
LAYER
  5
210
100
AcDbSymbolTableRecord
100
AcDbLayerTableRecord
  2
PUNTI
 70
0
 62
7
  6
CONTINUOUS
370
-3
390
F
  0
LAYER
  5
211
100
AcDbSymbolTableRecord
100
AcDbLayerTableRecord
  2
RACCORDO
 70
0
 62
7
  6
CONTINUOUS
370
-3
390
F
  0
LAYER
  5
212
100
AcDbSymbolTableRecord
100
AcDbLayerTableRecord
  2
RGB____0____0____0__
 70
0
 62
7
  6
CONTINUOUS
370
-3
390
F
  0
LAYER
  5
213
100
AcDbSymbolTableRecord
100
AcDbLayerTableRecord
  2
SIMBOLI
 70
0
 62
7
  6
CONTINUOUS
370
-3
390
F
  0
LAYER
  5
214
100
AcDbSymbolTableRecord
100
AcDbLayerTableRecord
  2
SMUSSO
 70
0
 62
7
  6
CONTINUOUS
370
-3
390
F
  0
LAYER
  5
215
100
AcDbSymbolTableRecord
100
AcDbLayerTableRecord
  2
SNAPLINE
 70
0
 62
7
  6
CONTINUOUS
370
-3
390
F
  0
LAYER
  5
216
100
AcDbSymbolTableRecord
100
AcDbLayerTableRecord
  2
SUPERFICI
 70
0
 62
7
  6
CONTINUOUS
370
-3
390
F
  0
LAYER
  5
217
100
AcDbSymbolTableRecord
100
AcDbLayerTableRecord
  2
TRASH
 70
0
 62
7
  6
CONTINUOUS
370
-3
390
F
  0
ENDTAB
  0
TABLE
  2
STYLE
  5
3
100
AcDbSymbolTable
 70
1
  0
STYLE
  5
11
100
AcDbSymbolTableRecord
100
AcDbTextStyleTableRecord
  2
STANDARD
 70
0
 40
0.0
 41
0.8
 50
0.0
 71
0
 42
0.2
  3
txt
  4

  0
STYLE
  5
218
100
AcDbSymbolTableRecord
100
AcDbTextStyleTableRecord
  2
TEXTSTYLE_1
 70
0
 40
0.0
 41
0.8
 50
0.0
 71
0
 42
0.2
  3
gdt
  4

  0
ENDTAB
  0
TABLE
  2
VIEW
  5
6
100
AcDbSymbolTable
 70
0
  0
ENDTAB
  0
TABLE
  2
UCS
  5
7
100
AcDbSymbolTable
 70
0
  0
ENDTAB
  0
TABLE
  2
APPID
  5
9
100
AcDbSymbolTable
 70
1
  0
APPID
  5
219
100
AcDbSymbolTableRecord
100
AcDbRegAppTableRecord
  2
ACAD
 70
0
  0
ENDTAB
  0
TABLE
  2
BLOCK_RECORD
  5
1
100
AcDbSymbolTable
 70
0
  0
BLOCK_RECORD
  5
21A
100
AcDbSymbolTableRecord
100
AcDbBlockTableRecord
  2
*Model_Space
  0
BLOCK_RECORD
  5
21B
100
AcDbSymbolTableRecord
100
AcDbBlockTableRecord
  2
*Paper_Space
  0
BLOCK_RECORD
  5
21C
100
AcDbSymbolTableRecord
100
AcDbBlockTableRecord
  2
_FILLED
  0
BLOCK_RECORD
  5
21D
100
AcDbSymbolTableRecord
100
AcDbBlockTableRecord
  2
*D0
  0
BLOCK_RECORD
  5
21E
100
AcDbSymbolTableRecord
100
AcDbBlockTableRecord
  2
*D1
  0
BLOCK_RECORD
  5
21F
100
AcDbSymbolTableRecord
100
AcDbBlockTableRecord
  2
*D2
  0
BLOCK_RECORD
  5
220
100
AcDbSymbolTableRecord
100
AcDbBlockTableRecord
  2
*D3
  0
ENDTAB
  0
TABLE
  2
DIMSTYLE
  5
A
100
AcDbSymbolTable
 70
1
100
AcDbDimStyleTable
 71
0
  0
DIMSTYLE
105
221
100
AcDbSymbolTableRecord
100
AcDbDimStyleTableRecord
  2
STANDARD
 70
0
  3

  4

 40
1.0
 41
3.0
 42
0.5
 43
0.38
 44
1.5
 45
0.0
 46
0.0
 47
0.01
 48
0.01
140
3.0
141
0.09
142
0.0
143
25.4
144
1.0
145
0.0
146
1.0
147
0.625
 71
1
 72
0
 73
0
 74
0
 75
0
 76
0
 77
1
 78
8
 79
2
170
0
171
1
172
0
173
0
174
0
175
0
176
0
177
0
178
0
270
2
179
2
271
2
272
2
273
2
274
2
275
0
280
0
281
0
282
0
283
1
284
8
285
0
286
0
287
3
288
0
340
11
278
44
341
21C
342
21C
343
21C
344
21C
  0
DIMSTYLE
105
222
100
AcDbSymbolTableRecord
100
AcDbDimStyleTableRecord
  2
DIMSTYLE_1
 70
0
  3

  4

 40
1.0
 41
3.0
 42
0.5
 43
0.38
 44
1.5
 45
0.0
 46
0.0
 47
0.0
 48
0.0
140
3.0
141
0.09
142
0.0
143
25.4
144
1.0
145
0.0
146
1.0
147
0.75
 71
0
 72
0
 73
0
 74
0
 75
0
 76
0
 77
1
 78
8
 79
2
170
0
171
1
172
0
173
0
174
0
175
0
176
0
177
0
178
0
270
2
179
2
271
1
272
1
273
2
274
2
275
0
280
0
281
0
282
0
283
1
284
8
285
0
286
0
287
3
288
0
340
11
278
44
341
21C
342
21C
343
21C
344
21C
  0
DIMSTYLE
105
223
100
AcDbSymbolTableRecord
100
AcDbDimStyleTableRecord
  2
DIMSTYLE_2
 70
0
  3

  4

 40
1.0
 41
3.0
 42
0.5
 43
0.38
 44
1.5
 45
0.0
 46
0.0
 47
0.0
 48
0.0
140
3.0
141
0.09
142
0.0
143
25.4
144
1.0
145
0.0
146
1.0
147
0.75
 71
0
 72
0
 73
0
 74
0
 75
0
 76
0
 77
1
 78
8
 79
2
170
0
171
1
172
0
173
0
174
0
175
0
176
0
177
0
178
0
270
2
179
2
271
2
272
2
273
2
274
2
275
0
280
0
281
0
282
0
283
1
284
8
285
0
286
0
287
3
288
0
340
11
278
44
341
21C
342
21C
343
21C
344
21C
  0
ENDTAB
  0
ENDSEC
  0
SECTION
  2
BLOCKS
  0
BLOCK
  5
20
100
AcDbEntity
  8
0
100
AcDbBlockBegin
  2
*Model_Space
 70
0
 10
0.0
 20
0.0
 30
0.0
  3
*Model_Space
  1

  0
ENDBLK
  5
21
100
AcDbEntity
  8
0
100
AcDbBlockEnd
  0
BLOCK
  5
1C
100
AcDbEntity
  8
0
100
AcDbBlockBegin
  2
*Paper_Space
 70
0
 10
0.0
 20
0.0
 30
0.0
  3
*Paper_Space
  1

  0
ENDBLK
  5
1D
100
AcDbEntity
  8
0
100
AcDbBlockEnd
  0
BLOCK
  5
224
100
AcDbEntity
  8
0
100
AcDbBlockBegin
  2
_FILLED
 70
64
 10
0.0
 20
0.0
  3
_FILLED
  1

  0
SOLID
  5
225
100
AcDbEntity
  8
0
  6
BYBLOCK
 62
0
100
AcDbTrace
 10
0.0
 20
0.0
 11
-1.0
 21
0.3166666667
 12
-1.0
 22
-0.3166666667
 13
-1.0
 23
-0.3166666667
  0
ENDBLK
  5
226
100
AcDbEntity
  8
0
  6
BYBLOCK
 62
0
100
AcDbBlockEnd
  0
BLOCK
  5
227
100
AcDbEntity
  8
0
100
AcDbBlockBegin
 62
7
  6
CONTINUOUS
  2
*D0
 70
65
 10
0.0
 20
0.0
  3
*D0
  1

  0
LINE
  5
228
100
AcDbEntity
  8
0
100
AcDbLine
 62
7
  6
CONTINUOUS
 10
11.0347065336
 20
26.3345351961
 11
22.6
 21
26.3345351961
  0
LINE
  5
229
100
AcDbEntity
  8
0
100
AcDbLine
 62
7
  6
CONTINUOUS
 10
11.0347065336
 20
-26.3345351961
 11
22.6
 21
-26.3345351961
  0
LINE
  5
22A
100
AcDbEntity
  8
0
100
AcDbLine
 62
7
  6
CONTINUOUS
 10
21.1
 20
26.3345351961
 11
21.1
 21
0.0
  0
LINE
  5
22B
100
AcDbEntity
  8
0
100
AcDbLine
 62
7
  6
CONTINUOUS
 10
21.1
 20
-26.3345351961
 11
21.1
 21
0.0
  0
INSERT
  5
22C
100
AcDbEntity
  8
0
100
AcDbBlockReference
 62
7
  6
CONTINUOUS
  2
_FILLED
 10
21.1
 20
26.3345351961
 41
3.0
 42
3.0
 43
3.0
 50
90.0
  0
INSERT
  5
22D
100
AcDbEntity
  8
0
100
AcDbBlockReference
 62
7
  6
CONTINUOUS
  2
_FILLED
 10
21.1
 20
-26.3345351961
 41
3.0
 42
3.0
 43
3.0
 50
270.0
  0
ENDBLK
  5
22E
100
AcDbEntity
  8
0
  6
BYBLOCK
 62
0
100
AcDbBlockEnd
  0
BLOCK
  5
22F
100
AcDbEntity
  8
0
100
AcDbBlockBegin
 62
7
  6
CONTINUOUS
  2
*D1
 70
65
 10
0.0
 20
0.0
  3
*D1
  1

  0
LINE
  5
230
100
AcDbEntity
  8
0
100
AcDbLine
 62
7
  6
CONTINUOUS
 10
11.0345351961
 20
26.3347065336
 11
11.0345351961
 21
37.9
  0
LINE
  5
231
100
AcDbEntity
  8
0
100
AcDbLine
 62
7
  6
CONTINUOUS
 10
-11.0345351961
 20
26.3347065336
 11
-11.0345351961
 21
37.9
  0
LINE
  5
232
100
AcDbEntity
  8
0
100
AcDbLine
 62
7
  6
CONTINUOUS
 10
11.0345351961
 20
36.4
 11
0.0
 21
36.4
  0
LINE
  5
233
100
AcDbEntity
  8
0
100
AcDbLine
 62
7
  6
CONTINUOUS
 10
-11.0345351961
 20
36.4
 11
0.0
 21
36.4
  0
INSERT
  5
234
100
AcDbEntity
  8
0
100
AcDbBlockReference
 62
7
  6
CONTINUOUS
  2
_FILLED
 10
11.0345351961
 20
36.4
 41
3.0
 42
3.0
 43
3.0
  0
INSERT
  5
235
100
AcDbEntity
  8
0
100
AcDbBlockReference
 62
7
  6
CONTINUOUS
  2
_FILLED
 10
-11.0345351961
 20
36.4
 41
3.0
 42
3.0
 43
3.0
 50
180.0
  0
ENDBLK
  5
236
100
AcDbEntity
  8
0
  6
BYBLOCK
 62
0
100
AcDbBlockEnd
  0
BLOCK
  5
237
100
AcDbEntity
  8
0
100
AcDbBlockBegin
 62
7
  6
CONTINUOUS
  2
*D2
 70
65
 10
0.0
 20
0.0
  3
*D2
  1

  0
LINE
  5
238
100
AcDbEntity
  8
0
100
AcDbLine
 62
7
  6
CONTINUOUS
 10
-29.4144640214
 20
26.3134150626
 11
-29.4144640214
 21
37.8956378947
  0
LINE
  5
239
100
AcDbEntity
  8
0
100
AcDbLine
 62
7
  6
CONTINUOUS
 10
-27.4144640214
 20
26.2709349336
 11
-27.4144640214
 21
37.8956378947
  0
LINE
  5
23A
100
AcDbEntity
  8
0
100
AcDbLine
 62
7
  6
CONTINUOUS
 10
-29.4144640214
 20
36.3956378947
 11
-42.1966068785
 21
36.3956378947
  0
LINE
  5
23B
100
AcDbEntity
  8
0
100
AcDbLine
 62
7
  6
CONTINUOUS
 10
-42.1966068785
 20
36.3956378947
 11
-28.4144640214
 21
36.3956378947
  0
LINE
  5
23C
100
AcDbEntity
  8
0
100
AcDbLine
 62
7
  6
CONTINUOUS
 10
-27.4144640214
 20
36.3956378947
 11
-23.4144640214
 21
36.3956378947
  0
LINE
  5
23D
100
AcDbEntity
  8
0
100
AcDbLine
 62
7
  6
CONTINUOUS
 10
-23.4144640214
 20
36.3956378947
 11
-28.4144640214
 21
36.3956378947
  0
INSERT
  5
23E
100
AcDbEntity
  8
0
100
AcDbBlockReference
 62
7
  6
CONTINUOUS
  2
_FILLED
 10
-29.4144640214
 20
36.3956378947
 41
3.0
 42
3.0
 43
3.0
  0
INSERT
  5
23F
100
AcDbEntity
  8
0
100
AcDbBlockReference
 62
7
  6
CONTINUOUS
  2
_FILLED
 10
-27.4144640214
 20
36.3956378947
 41
3.0
 42
3.0
 43
3.0
 50
180.0
  0
ENDBLK
  5
240
100
AcDbEntity
  8
0
  6
BYBLOCK
 62
0
100
AcDbBlockEnd
  0
BLOCK
  5
241
100
AcDbEntity
  8
0
100
AcDbBlockBegin
 62
7
  6
CONTINUOUS
  2
*D3
 70
65
 10
0.0
 20
0.0
  3
*D3
  1

  0
LINE
  5
242
100
AcDbEntity
  8
0
100
AcDbLine
 62
7
  6
CONTINUOUS
 10
-29.4144640214
 20
26.3134150626
 11
-29.4144640214
 21
44.8869473684
  0
LINE
  5
243
100
AcDbEntity
  8
0
100
AcDbLine
 62
7
  6
CONTINUOUS
 10
-24.1144640214
 20
14.7974685017
 11
-24.1144640214
 21
44.8869473684
  0
LINE
  5
244
100
AcDbEntity
  8
0
100
AcDbLine
 62
7
  6
CONTINUOUS
 10
-29.4144640214
 20
43.3869473684
 11
-42.4630429688
 21
43.3869473684
  0
LINE
  5
245
100
AcDbEntity
  8
0
100
AcDbLine
 62
7
  6
CONTINUOUS
 10
-42.4630429688
 20
43.3869473684
 11
-26.7644640214
 21
43.3869473684
  0
LINE
  5
246
100
AcDbEntity
  8
0
100
AcDbLine
 62
7
  6
CONTINUOUS
 10
-24.1144640214
 20
43.3869473684
 11
-20.1144640214
 21
43.3869473684
  0
LINE
  5
247
100
AcDbEntity
  8
0
100
AcDbLine
 62
7
  6
CONTINUOUS
 10
-20.1144640214
 20
43.3869473684
 11
-26.7644640214
 21
43.3869473684
  0
INSERT
  5
248
100
AcDbEntity
  8
0
100
AcDbBlockReference
 62
7
  6
CONTINUOUS
  2
_FILLED
 10
-29.4144640214
 20
43.3869473684
 41
3.0
 42
3.0
 43
3.0
  0
INSERT
  5
249
100
AcDbEntity
  8
0
100
AcDbBlockReference
 62
7
  6
CONTINUOUS
  2
_FILLED
 10
-24.1144640214
 20
43.3869473684
 41
3.0
 42
3.0
 43
3.0
 50
180.0
  0
ENDBLK
  5
24A
100
AcDbEntity
  8
0
  6
BYBLOCK
 62
0
100
AcDbBlockEnd
  0
ENDSEC
  0
SECTION
  2
ENTITIES
  0
DIMENSION
  5
24B
100
AcDbEntity
  8
0
100
AcDbDimension
 62
7
  6
CONTINUOUS
  2
*D0
 10
21.1
 20
-26.3345351961
 11
21.1
 21
-4.2857142857
 70
160
 71
2
 72
2
 41
0.9
 42
52.6690703922
  3
DIMSTYLE_1
100
AcDbAlignedDimension
 13
10.5347065336
 23
26.3345351961
 14
10.5347065336
 24
-26.3345351961
 50
270.0
100
AcDbRotatedDimension
  0
DIMENSION
  5
24C
100
AcDbEntity
  8
0
100
AcDbDimension
 62
7
  6
CONTINUOUS
  2
*D1
 10
-11.0345351961
 20
36.4
 11
-4.0714285714
 21
36.4
 70
160
 71
2
 72
2
 41
0.9
 42
22.0690703922
  3
DIMSTYLE_1
100
AcDbAlignedDimension
 13
11.0345351961
 23
25.8347065336
 14
-11.0345351961
 24
25.8347065336
 50
180.0
100
AcDbRotatedDimension
  0
DIMENSION
  5
24D
100
AcDbEntity
  8
0
100
AcDbDimension
 62
7
  6
CONTINUOUS
  2
*D2
 10
-27.4144640214
 20
36.3956378947
 11
-42.1966068785
 21
36.3956378947
 70
160
 71
3
 72
2
 41
0.9
 42
2.0
  3
DIMSTYLE_2
100
AcDbAlignedDimension
 13
-29.4144640214
 23
25.8134150626
 14
-27.4144640214
 24
25.7709349336
100
AcDbRotatedDimension
  0
DIMENSION
  5
24E
100
AcDbEntity
  8
0
100
AcDbDimension
 62
7
  6
CONTINUOUS
  2
*D3
 10
-24.1144640214
 20
43.3869473684
 11
-42.4630429688
 21
43.3869473684
 70
160
 71
3
 72
2
 41
0.9
 42
5.3
  3
DIMSTYLE_2
100
AcDbAlignedDimension
 13
-29.4144640214
 23
25.8134150626
 14
-24.1144640214
 24
14.2974685017
100
AcDbRotatedDimension
  0
LWPOLYLINE
  5
24F
100
AcDbEntity
  8
0
100
AcDbPolyline
 62
7
  6
CONTINUOUS
 90
3
 70
0
 43
0.3500000006
 10
2.3571427875
 20
39.2928558655
 10
3.2142856836
 20
40.1499983368
 10
3.2142856836
 20
37.1500019531
  0
LINE
  5
250
100
AcDbEntity
  8
0
100
AcDbLine
 62
7
  6
CONTINUOUS
 10
-10.5347065336
 20
-26.3345351961
 11
10.5347065336
 21
-26.3345351961
  0
LINE
  5
251
100
AcDbEntity
  8
ASSI
100
AcDbLine
 62
7
  6
CONTINUOUS
 10
-10.5347065336
 20
-26.3345351961
 11
10.5347065336
 21
-26.3345351961
  0
LINE
  5
252
100
AcDbEntity
  8
COPY_PUBLISH
100
AcDbLine
 62
250
  6
CONTINUOUS
 10
-10.5134150626
 20
-26.3132437251
 11
10.5134150626
 21
-26.3132437251
  0
LINE
  5
253
100
AcDbEntity
  8
ASSI
100
AcDbLine
 62
250
  6
CONTINUOUS
 10
-10.5134150626
 20
-26.3132437251
 11
10.5134150626
 21
-26.3132437251
  0
LINE
  5
254
100
AcDbEntity
  8
COPY_PUBLISH
100
AcDbLine
 62
250
  6
CONTINUOUS
 10
11.0132437251
 20
-25.8134150626
 11
-11.0132437251
 21
-25.8134150626
  0
LINE
  5
255
100
AcDbEntity
  8
ASSI
100
AcDbLine
 62
250
  6
CONTINUOUS
 10
-11.0132437251
 20
-25.8134150626
 11
11.0132437251
 21
-25.8134150626
  0
LINE
  5
256
100
AcDbEntity
  8
CURVE
100
AcDbLine
 62
250
  6
CONTINUOUS
 10
-0.249769
 20
-17.428221
 11
0.250114
 21
-17.428221
  0
LINE
  5
257
100
AcDbEntity
  8
CURVE
100
AcDbLine
 62
250
  6
CONTINUOUS
 10
0.250114
 20
-16.328547
 11
-0.249769
 21
-16.328547
  0
LINE
  5
258
100
AcDbEntity
  8
CURVE
100
AcDbLine
 62
250
  6
CONTINUOUS
 10
-2.651518
 20
18.004586
 11
-3.004985
 21
17.651119
  0
LINE
  5
259
100
AcDbEntity
  8
CURVE
100
AcDbLine
 62
7
  6
CONTINUOUS
 10
-2.8266881473
 20
17.4727787774
 11
-2.4732211473
 21
17.8262457774
  0
LINE
  5
25A
100
AcDbEntity
  8
CURVE
100
AcDbLine
 62
7
  6
CONTINUOUS
 10
-2.6167029722
 20
17.2627425245
 11
-2.2632359722
 21
17.6162095245
  0
LINE
  5
25B
100
AcDbEntity
  8
CURVE
100
AcDbLine
 62
7
  6
CONTINUOUS
 10
-2.4067177971
 20
17.0527062716
 11
-2.0532507971
 21
17.4061732716
  0
LINE
  5
25C
100
AcDbEntity
  8
CURVE
100
AcDbLine
 62
7
  6
CONTINUOUS
 10
-3.999928
 20
15.0394746406
 11
-3.7898596406
 21
15.249543
  0
LINE
  5
25D
100
AcDbEntity
  8
CURVE
100
AcDbLine
 62
7
  6
CONTINUOUS
 10
-2.196732622
 20
16.8426700186
 11
-1.843265622
 21
17.1961370186
  0
LINE
  5
25E
100
AcDbEntity
  8
CURVE
100
AcDbLine
 62
7
  6
CONTINUOUS
 10
-0.249769
 20
18.7896336406
 11
-0.0402176406
 21
18.999185
  0
LINE
  5
25F
100
AcDbEntity
  8
CURVE
100
AcDbLine
 62
7
  6
CONTINUOUS
 10
-3.8697212126
 20
14.74966
 11
-3.3698382126
 21
15.249543
  0
LINE
  5
260
100
AcDbEntity
  8
CURVE
100
AcDbLine
 62
7
  6
CONTINUOUS
 10
-1.9867474469
 20
16.6326337657
 11
-1.6332804469
 21
16.9861007657
  0
LINE
  5
261
100
AcDbEntity
  8
CURVE
100
AcDbLine
 62
7
  6
CONTINUOUS
 10
-0.249769
 20
18.3696122126
 11
0.250114
 21
18.8694952126
  0
LINE
  5
262
100
AcDbEntity
  8
CURVE
100
AcDbLine
 62
250
  6
CONTINUOUS
 10
-0.249769
 20
-13.671689
 11
0.250114
 21
-13.671689
  0
LINE
  5
263
100
AcDbEntity
  8
CURVE
100
AcDbLine
 62
250
  6
CONTINUOUS
 10
-2.227771
 20
-14.002418
 11
-1.275547
 21
-14.552256
  0
LINE
  5
264
100
AcDbEntity
  8
CURVE
100
AcDbLine
 62
250
  6
CONTINUOUS
 10
1.025777
 20
-15.880684
 11
1.978002
 21
-16.430522
  0
LWPOLYLINE
  5
265
100
AcDbEntity
  8
COPY_PUBLISH
100
AcDbPolyline
 62
250
  6
CONTINUOUS
 90
16
 70
0
 10
-11.0132437251
 20
-25.8134150626
 10
-11.01045539
 20
-25.8657975315
 10
-11.0021929183
 20
-25.9176029172
 10
-10.9885473613
 20
-25.9682606712
 10
-10.9696665657
 20
-26.0172184586
 10
-10.9457598445
 20
-26.0639310247
 10
-10.9171013786
 20
-26.1078690436
 10
-10.8840193212
 20
-26.1485433419
 10
-10.8468760531
 20
-26.1855204357
 10
-10.8060702069
 20
-26.2184079346
 10
-10.761986418
 20
-26.2468816807
 10
-10.7151656414
 20
-26.2705791398
 10
-10.6663188279
 20
-26.2891770144
 10
-10.6160695894
 20
-26.3025182528
 10
-10.5649154114
 20
-26.3105481619
 10
-10.5134150624
 20
-26.3132437249
  0
LWPOLYLINE
  5
266
100
AcDbEntity
  8
ASSI
100
AcDbPolyline
 62
250
  6
CONTINUOUS
 90
16
 70
0
 10
-11.0132437251
 20
-25.8134150626
 10
-11.01045539
 20
-25.8657975315
 10
-11.0021929183
 20
-25.9176029172
 10
-10.9885473613
 20
-25.9682606712
 10
-10.9696665657
 20
-26.0172184586
 10
-10.9457598445
 20
-26.0639310247
 10
-10.9171013786
 20
-26.1078690436
 10
-10.8840193212
 20
-26.1485433419
 10
-10.8468760531
 20
-26.1855204357
 10
-10.8060702069
 20
-26.2184079346
 10
-10.761986418
 20
-26.2468816807
 10
-10.7151656414
 20
-26.2705791398
 10
-10.6663188279
 20
-26.2891770144
 10
-10.6160695894
 20
-26.3025182528
 10
-10.5649154114
 20
-26.3105481619
 10
-10.5134150624
 20
-26.3132437249
  0
LWPOLYLINE
  5
267
100
AcDbEntity
  8
COPY_PUBLISH
100
AcDbPolyline
 62
250
  6
CONTINUOUS
 90
16
 70
0
 10
-11.0132437251
 20
25.8134150626
 10
-11.0104557606
 20
25.8657940376
 10
-11.0021943512
 20
25.9175962153
 10
-10.9885504711
 20
25.9682511464
 10
-10.9696717815
 20
26.0172067959
 10
-10.9457675487
 20
26.0639177387
 10
-10.9171122688
 20
26.1078541194
 10
-10.8840348897
 20
26.1485261269
 10
-10.8468972612
 20
26.1855014262
 10
-10.8060959292
 20
26.2183893375
 10
-10.762014426
 20
26.2468656055
 10
-10.7151938467
 20
26.270566676
 10
-10.6663444548
 20
26.2891687618
 10
-10.6160895555
 20
26.3025140488
 10
-10.5649267792
 20
26.3105469765
 10
-10.5134150626
 20
26.3132437251
  0
LWPOLYLINE
  5
268
100
AcDbEntity
  8
ASSI
100
AcDbPolyline
 62
250
  6
CONTINUOUS
 90
16
 70
0
 10
-11.0132437251
 20
25.8134150626
 10
-11.0104557606
 20
25.8657940376
 10
-11.0021943512
 20
25.9175962153
 10
-10.9885504711
 20
25.9682511464
 10
-10.9696717815
 20
26.0172067959
 10
-10.9457675487
 20
26.0639177387
 10
-10.9171122688
 20
26.1078541194
 10
-10.8840348897
 20
26.1485261269
 10
-10.8468972612
 20
26.1855014262
 10
-10.8060959292
 20
26.2183893375
 10
-10.762014426
 20
26.2468656055
 10
-10.7151938467
 20
26.270566676
 10
-10.6663444548
 20
26.2891687618
 10
-10.6160895555
 20
26.3025140488
 10
-10.5649267792
 20
26.3105469765
 10
-10.5134150626
 20
26.3132437251
  0
LINE
  5
269
100
AcDbEntity
  8
CURVE
100
AcDbLine
 62
7
  6
CONTINUOUS
 10
-3.4496997846
 20
14.74966
 11
-2.9498167846
 21
15.249543
  0
LINE
  5
26A
100
AcDbEntity
  8
CURVE
100
AcDbLine
 62
7
  6
CONTINUOUS
 10
-1.7767622718
 20
16.4225975128
 11
-1.4232952718
 21
16.7760645128
  0
LINE
  5
26B
100
AcDbEntity
  8
CURVE
100
AcDbLine
 62
7
  6
CONTINUOUS
 10
-0.249769
 20
17.9495907846
 11
0.250114
 21
18.4494737846
  0
LINE
  5
26C
100
AcDbEntity
  8
CURVE
100
AcDbLine
 62
250
  6
CONTINUOUS
 10
-1.590773
 20
16.236563
 11
-1.237306
 21
16.59003
  0
LINE
  5
26D
100
AcDbEntity
  8
CURVE
100
AcDbLine
 62
7
  6
CONTINUOUS
 10
-3.0296783565
 20
14.74966
 11
-2.5297953565
 21
15.249543
  0
LINE
  5
26E
100
AcDbEntity
  8
CURVE
100
AcDbLine
 62
7
  6
CONTINUOUS
 10
-0.249769
 20
17.5295693565
 11
0.250114
 21
18.0294523565
  0
LINE
  5
26F
100
AcDbEntity
  8
CURVE
100
AcDbLine
 62
7
  6
CONTINUOUS
 10
-2.6096569285
 20
14.74966
 11
-2.1097739285
 21
15.249543
  0
LINE
  5
270
100
AcDbEntity
  8
CURVE
100
AcDbLine
 62
7
  6
CONTINUOUS
 10
-0.249769
 20
17.1095479285
 11
0.250114
 21
17.6094309285
  0
LINE
  5
271
100
AcDbEntity
  8
CURVE
100
AcDbLine
 62
7
  6
CONTINUOUS
 10
-2.1896355005
 20
14.74966
 11
-1.999706
 21
14.9395895005
  0
LINE
  5
272
100
AcDbEntity
  8
CURVE
100
AcDbLine
 62
7
  6
CONTINUOUS
 10
0.0603554995
 20
16.999651
 11
0.250114
 21
17.1894095005
  0
LINE
  5
273
100
AcDbEntity
  8
CURVE
100
AcDbLine
 62
7
  6
CONTINUOUS
 10
-0.9942053229
 20
15.1050473216
 11
-0.1058245749
 21
15.9934280696
  0
LINE
  5
274
100
AcDbEntity
  8
CURVE
100
AcDbLine
 62
250
  6
CONTINUOUS
 10
0.250114
 20
-12.572015
 11
-0.249769
 21
-12.572015
  0
LINE
  5
275
100
AcDbEntity
  8
CURVE
100
AcDbLine
 62
250
  6
CONTINUOUS
 10
-1.025433
 20
-14.119552
 11
-1.977657
 21
-13.569714
  0
LINE
  5
276
100
AcDbEntity
  8
CURVE
100
AcDbLine
 62
250
  6
CONTINUOUS
 10
2.228116
 20
-15.997818
 11
1.275891
 21
-15.44798
  0
LINE
  5
277
100
AcDbEntity
  8
0
100
AcDbLine
 62
7
  6
CONTINUOUS
 10
-11.0345351961
 20
25.8347065336
 11
-11.0345351961
 21
-25.8347065336
  0
LINE
  5
278
100
AcDbEntity
  8
ASSI
100
AcDbLine
 62
7
  6
CONTINUOUS
 10
-11.0345351961
 20
25.8347065336
 11
-11.0345351961
 21
-25.8347065336
  0
LINE
  5
279
100
AcDbEntity
  8
COPY_PUBLISH
100
AcDbLine
 62
250
  6
CONTINUOUS
 10
-11.0132437251
 20
-25.8134150626
 11
-11.0132437251
 21
25.8134150626
  0
LINE
  5
27A
100
AcDbEntity
  8
ASSI
100
AcDbLine
 62
250
  6
CONTINUOUS
 10
-11.0132437251
 20
-25.8134150626
 11
-11.0132437251
 21
25.8134150626
  0
LINE
  5
27B
100
AcDbEntity
  8
COPY_PUBLISH
100
AcDbLine
 62
250
  6
CONTINUOUS
 10
-10.5134150626
 20
-26.3132437251
 11
-10.5134150626
 21
26.3132437251
  0
LINE
  5
27C
100
AcDbEntity
  8
ASSI
100
AcDbLine
 62
250
  6
CONTINUOUS
 10
-10.5134150626
 20
-26.3132437251
 11
-10.5134150626
 21
26.3132437251
  0
LWPOLYLINE
  5
27D
100
AcDbEntity
  8
0
100
AcDbPolyline
 62
7
  6
CONTINUOUS
 90
3
 70
0
 43
0.3500000006
 10
1.3571429071
 20
37.435713089
 10
1.2857142735
 20
37.2214286041
 10
1.1428571477
 20
36.9357129364
  0
LINE
  5
27E
100
AcDbEntity
  8
0
100
AcDbLine
 62
250
  6
CONTINUOUS
 10
10.5347065336
 20
26.3345351961
 11
10.5134150626
 21
26.3132437251
  0
LINE
  5
27F
100
AcDbEntity
  8
ASSI
100
AcDbLine
 62
250
  6
CONTINUOUS
 10
10.5347065336
 20
26.3345351961
 11
10.5134150626
 21
26.3132437251
  0
LINE
  5
280
100
AcDbEntity
  8
CURVE
100
AcDbLine
 62
7
  6
CONTINUOUS
 10
-0.9596061631
 20
14.7196250534
 11
0.2796324629
 21
15.9588636793
  0
LINE
  5
281
100
AcDbEntity
  8
CURVE
100
AcDbLine
 62
250
  6
CONTINUOUS
 10
2.651862
 20
18.004586
 11
1.237651
 21
16.59003
  0
LINE
  5
282
100
AcDbEntity
  8
CURVE
100
AcDbLine
 62
7
  6
CONTINUOUS
 10
-2.9582278942
 20
12.3009818942
 11
-1.5441883942
 21
13.7150213942
  0
LINE
  5
283
100
AcDbEntity
  8
CURVE
100
AcDbLine
 62
7
  6
CONTINUOUS
 10
-0.8236325586
 20
14.4355772298
 11
0.5636558337
 21
15.8228656221
  0
LINE
  5
284
100
AcDbEntity
  8
CURVE
100
AcDbLine
 62
7
  6
CONTINUOUS
 10
1.2842355399
 20
16.5434453283
 11
2.6986191058
 21
17.9578288942
  0
LINE
  5
285
100
AcDbEntity
  8
CURVE
100
AcDbLine
 62
7
  6
CONTINUOUS
 10
-2.7482171802
 20
12.0909711802
 11
-1.3341776802
 21
13.5050106802
  0
LINE
  5
286
100
AcDbEntity
  8
CURVE
100
AcDbLine
 62
7
  6
CONTINUOUS
 10
-0.6219654681
 20
14.2172228923
 11
0.7820665815
 21
15.6212549419
  0
LINE
  5
287
100
AcDbEntity
  8
CURVE
100
AcDbLine
 62
7
  6
CONTINUOUS
 10
1.4942459568
 20
16.3334343172
 11
2.9086298198
 21
17.7478181802
  0
LINE
  5
288
100
AcDbEntity
  8
0
100
AcDbLine
 62
250
  6
CONTINUOUS
 10
11.0345351961
 20
25.8347065336
 11
11.0132437251
 21
25.8134150626
  0
LINE
  5
289
100
AcDbEntity
  8
ASSI
100
AcDbLine
 62
250
  6
CONTINUOUS
 10
11.0345351961
 20
25.8347065336
 11
11.0132437251
 21
25.8134150626
  0
LINE
  5
28A
100
AcDbEntity
  8
CURVE
100
AcDbLine
 62
250
  6
CONTINUOUS
 10
1.591117
 20
16.236563
 11
3.005329
 21
17.651119
  0
LINE
  5
28B
100
AcDbEntity
  8
CURVE
100
AcDbLine
 62
7
  6
CONTINUOUS
 10
-0.3541585239
 20
14.0650084085
 11
0.9344473218
 21
15.3536142542
  0
LINE
  5
28C
100
AcDbEntity
  8
CURVE
100
AcDbLine
 62
7
  6
CONTINUOUS
 10
0.0001722548
 20
13.9993177591
 11
1.0002834741
 21
14.9994289785
  0
LINE
  5
28D
100
AcDbEntity
  8
CURVE
100
AcDbLine
 62
7
  6
CONTINUOUS
 10
-0.249769
 20
12.9093336483
 11
-0.1598956483
 21
12.999207
  0
LINE
  5
28E
100
AcDbEntity
  8
CURVE
100
AcDbLine
 62
7
  6
CONTINUOUS
 10
2.00005
 20
15.1591526483
 11
2.0904403517
 21
15.249543
  0
LINE
  5
28F
100
AcDbEntity
  8
CURVE
100
AcDbLine
 62
250
  6
CONTINUOUS
 10
-1.590773
 20
13.761606
 11
-3.004985
 21
12.347739
  0
LINE
  5
290
100
AcDbEntity
  8
CURVE
100
AcDbLine
 62
250
  6
CONTINUOUS
 10
-2.651518
 20
11.994272
 11
-1.237306
 21
13.408139
  0
LINE
  5
291
100
AcDbEntity
  8
0
100
AcDbLine
 62
250
  6
CONTINUOUS
 10
10.5134150626
 20
-26.3132437251
 11
10.5347065336
 21
-26.3345351961
  0
LINE
  5
292
100
AcDbEntity
  8
ASSI
100
AcDbLine
 62
250
  6
CONTINUOUS
 10
10.5134150626
 20
-26.3132437251
 11
10.5347065336
 21
-26.3345351961
  0
LINE
  5
293
100
AcDbEntity
  8
0
100
AcDbLine
 62
250
  6
CONTINUOUS
 10
11.0132437251
 20
-25.8134150626
 11
11.0345351961
 21
-25.8347065336
  0
LINE
  5
294
100
AcDbEntity
  8
ASSI
100
AcDbLine
 62
250
  6
CONTINUOUS
 10
11.0132437251
 20
-25.8134150626
 11
11.0345351961
 21
-25.8347065336
  0
LINE
  5
295
100
AcDbEntity
  8
CURVE
100
AcDbLine
 62
250
  6
CONTINUOUS
 10
-2.227771
 20
-15.997818
 11
-1.977657
 21
-16.430522
  0
LINE
  5
296
100
AcDbEntity
  8
CURVE
100
AcDbLine
 62
7
  6
CONTINUOUS
 10
-0.249769
 20
12.4893122202
 11
0.250114
 21
12.9891952202
  0
LINE
  5
297
100
AcDbEntity
  8
CURVE
100
AcDbLine
 62
7
  6
CONTINUOUS
 10
2.0105787798
 20
14.74966
 11
2.5104617798
 21
15.249543
  0
LINE
  5
298
100
AcDbEntity
  8
CURVE
100
AcDbLine
 62
7
  6
CONTINUOUS
 10
-0.249769
 20
12.0692907922
 11
0.250114
 21
12.5691737922
  0
LINE
  5
299
100
AcDbEntity
  8
CURVE
100
AcDbLine
 62
7
  6
CONTINUOUS
 10
2.4306002078
 20
14.74966
 11
2.9304832078
 21
15.249543
  0
LINE
  5
29A
100
AcDbEntity
  8
CURVE
100
AcDbLine
 62
250
  6
CONTINUOUS
 10
1.591117
 20
13.761606
 11
1.237651
 21
13.408139
  0
LINE
  5
29B
100
AcDbEntity
  8
CURVE
100
AcDbLine
 62
7
  6
CONTINUOUS
 10
-0.249769
 20
11.6492693642
 11
0.250114
 21
12.1491523642
  0
LINE
  5
29C
100
AcDbEntity
  8
CURVE
100
AcDbLine
 62
7
  6
CONTINUOUS
 10
1.3733923271
 20
13.2724306913
 11
1.7268588752
 21
13.6258972394
  0
LINE
  5
29D
100
AcDbEntity
  8
CURVE
100
AcDbLine
 62
7
  6
CONTINUOUS
 10
2.8506216358
 20
14.74966
 11
3.3505046358
 21
15.249543
  0
LINE
  5
29E
100
AcDbEntity
  8
CURVE
100
AcDbLine
 62
7
  6
CONTINUOUS
 10
-0.249769
 20
11.2292479362
 11
0.250114
 21
11.7291309362
  0
LINE
  5
29F
100
AcDbEntity
  8
CURVE
100
AcDbLine
 62
7
  6
CONTINUOUS
 10
1.5834285863
 20
13.0624455224
 11
1.9368952086
 21
13.4159121447
  0
LINE
  5
2A0
100
AcDbEntity
  8
CURVE
100
AcDbLine
 62
7
  6
CONTINUOUS
 10
3.2706430638
 20
14.74966
 11
3.7705260638
 21
15.249543
  0
LINE
  5
2A1
100
AcDbEntity
  8
CURVE
100
AcDbLine
 62
7
  6
CONTINUOUS
 10
-0.0593225081
 20
10.999673
 11
0.250114
 21
11.3091095081
  0
LINE
  5
2A2
100
AcDbEntity
  8
CURVE
100
AcDbLine
 62
7
  6
CONTINUOUS
 10
1.7934648454
 20
12.8524603536
 11
2.146931542
 21
13.2059270501
  0
LINE
  5
2A3
100
AcDbEntity
  8
CURVE
100
AcDbLine
 62
7
  6
CONTINUOUS
 10
3.6906644919
 20
14.74966
 11
4.000273
 21
15.0592685081
  0
LINE
  5
2A4
100
AcDbEntity
  8
CURVE
100
AcDbLine
 62
7
  6
CONTINUOUS
 10
2.0035011046
 20
12.6424751847
 11
2.3569678754
 21
12.9959419555
  0
LINE
  5
2A5
100
AcDbEntity
  8
CURVE
100
AcDbLine
 62
250
  6
CONTINUOUS
 10
-1.025433
 20
-15.880684
 11
-1.275547
 21
-15.44798
  0
LINE
  5
2A6
100
AcDbEntity
  8
CURVE
100
AcDbLine
 62
7
  6
CONTINUOUS
 10
2.2135373638
 20
12.4324900159
 11
2.5670042088
 21
12.7859568609
  0
LINE
  5
2A7
100
AcDbEntity
  8
CURVE
100
AcDbLine
 62
7
  6
CONTINUOUS
 10
2.4235736229
 20
12.222504847
 11
2.7770405422
 21
12.5759717663
  0
LINE
  5
2A8
100
AcDbEntity
  8
CURVE
100
AcDbLine
 62
7
  6
CONTINUOUS
 10
2.6336098821
 20
12.0125196782
 11
2.9870768757
 21
12.3659866717
  0
LINE
  5
2A9
100
AcDbEntity
  8
CURVE
100
AcDbLine
 62
250
  6
CONTINUOUS
 10
2.651862
 20
11.994272
 11
3.005329
 21
12.347739
  0
LINE
  5
2AA
100
AcDbEntity
  8
CURVE
100
AcDbLine
 62
250
  6
CONTINUOUS
 10
1.025777
 20
-14.119552
 11
1.275891
 21
-14.552256
  0
LINE
  5
2AB
100
AcDbEntity
  8
CURVE
100
AcDbLine
 62
250
  6
CONTINUOUS
 10
-3.999928
 20
15.249543
 11
-3.999928
 21
14.74966
  0
LINE
  5
2AC
100
AcDbEntity
  8
CURVE
100
AcDbLine
 62
250
  6
CONTINUOUS
 10
2.228116
 20
-14.002418
 11
1.978002
 21
-13.569714
  0
LINE
  5
2AD
100
AcDbEntity
  8
CURVE
100
AcDbLine
 62
250
  6
CONTINUOUS
 10
-1.999706
 20
14.74966
 11
-1.999706
 21
15.249543
  0
LINE
  5
2AE
100
AcDbEntity
  8
CURVE
100
AcDbLine
 62
250
  6
CONTINUOUS
 10
-0.000172
 20
15.999023
 11
0.000517
 21
14.001213
  0
LINE
  5
2AF
100
AcDbEntity
  8
0
100
AcDbLine
 62
7
  6
CONTINUOUS
 10
-1.0
 20
0.9
 11
-1.0
 21
-0.9
  0
LINE
  5
2B0
100
AcDbEntity
  8
DRAFT
100
AcDbLine
 62
7
  6
CONTINUOUS
 10
-1.0
 20
0.9
 11
-1.0
 21
-0.9
  0
LINE
  5
2B1
100
AcDbEntity
  8
ASSI
100
AcDbLine
 62
7
  6
CONTINUOUS
 10
-1.0
 20
0.9
 11
-1.0
 21
-0.9
  0
LINE
  5
2B2
100
AcDbEntity
  8
CURVE
100
AcDbLine
 62
250
  6
CONTINUOUS
 10
-0.249769
 20
18.999185
 11
-0.249769
 21
16.999651
  0
LINE
  5
2B3
100
AcDbEntity
  8
CURVE
100
AcDbLine
 62
250
  6
CONTINUOUS
 10
-0.249769
 20
12.999207
 11
-0.249769
 21
10.999673
  0
LINE
  5
2B4
100
AcDbEntity
  8
CURVE
100
AcDbLine
 62
250
  6
CONTINUOUS
 10
-0.249769
 20
-12.572015
 11
-0.249769
 21
-13.671689
  0
LINE
  5
2B5
100
AcDbEntity
  8
CURVE
100
AcDbLine
 62
250
  6
CONTINUOUS
 10
-0.249769
 20
-16.328547
 11
-0.249769
 21
-17.428221
  0
LINE
  5
2B6
100
AcDbEntity
  8
CURVE
100
AcDbLine
 62
250
  6
CONTINUOUS
 10
0.250114
 20
-17.428221
 11
0.250114
 21
-16.328547
  0
LINE
  5
2B7
100
AcDbEntity
  8
CURVE
100
AcDbLine
 62
250
  6
CONTINUOUS
 10
0.250114
 20
-13.671689
 11
0.250114
 21
-12.572015
  0
LINE
  5
2B8
100
AcDbEntity
  8
CURVE
100
AcDbLine
 62
250
  6
CONTINUOUS
 10
0.250114
 20
10.999673
 11
0.250114
 21
12.999207
  0
LINE
  5
2B9
100
AcDbEntity
  8
CURVE
100
AcDbLine
 62
250
  6
CONTINUOUS
 10
0.250114
 20
16.999651
 11
0.250114
 21
18.999185
  0
LINE
  5
2BA
100
AcDbEntity
  8
0
100
AcDbLine
 62
7
  6
CONTINUOUS
 10
-0.9
 20
-1.0
 11
0.9
 21
-1.0
  0
LINE
  5
2BB
100
AcDbEntity
  8
DRAFT
100
AcDbLine
 62
7
  6
CONTINUOUS
 10
-0.9
 20
-1.0
 11
0.9
 21
-1.0
  0
LINE
  5
2BC
100
AcDbEntity
  8
ASSI
100
AcDbLine
 62
7
  6
CONTINUOUS
 10
-0.9
 20
-1.0
 11
0.9
 21
-1.0
  0
LINE
  5
2BD
100
AcDbEntity
  8
0
100
AcDbLine
 62
7
  6
CONTINUOUS
 10
1.0
 20
-0.9
 11
1.0
 21
0.9
  0
LINE
  5
2BE
100
AcDbEntity
  8
DRAFT
100
AcDbLine
 62
7
  6
CONTINUOUS
 10
1.0
 20
-0.9
 11
1.0
 21
0.9
  0
LINE
  5
2BF
100
AcDbEntity
  8
ASSI
100
AcDbLine
 62
7
  6
CONTINUOUS
 10
1.0
 20
-0.9
 11
1.0
 21
0.9
  0
LINE
  5
2C0
100
AcDbEntity
  8
CURVE
100
AcDbLine
 62
250
  6
CONTINUOUS
 10
2.00005
 20
15.249543
 11
2.00005
 21
14.74966
  0
LINE
  5
2C1
100
AcDbEntity
  8
0
100
AcDbLine
 62
7
  6
CONTINUOUS
 10
0.9
 20
1.0
 11
-0.9
 21
1.0
  0
LINE
  5
2C2
100
AcDbEntity
  8
DRAFT
100
AcDbLine
 62
7
  6
CONTINUOUS
 10
0.9
 20
1.0
 11
-0.9
 21
1.0
  0
LINE
  5
2C3
100
AcDbEntity
  8
ASSI
100
AcDbLine
 62
7
  6
CONTINUOUS
 10
0.9
 20
1.0
 11
-0.9
 21
1.0
  0
LWPOLYLINE
  5
2C4
100
AcDbEntity
  8
0
100
AcDbPolyline
 62
7
  6
CONTINUOUS
 90
4
 70
0
 43
0.3500000006
 10
17.9928576164
 20
1.928571373
 10
17.34999963
 20
1.928571373
 10
17.34999963
 20
3.4285718307
 10
20.3499994125
 20
2.5714293594
  0
LINE
  5
2C5
100
AcDbEntity
  8
CURVE
100
AcDbLine
 62
250
  6
CONTINUOUS
 10
4.000273
 20
14.74966
 11
4.000273
 21
15.249543
  0
LINE
  5
2C6
100
AcDbEntity
  8
CURVE
100
AcDbLine
 62
250
  6
CONTINUOUS
 10
-1.977657
 20
-13.569714
 11
-2.227771
 21
-14.002418
  0
LINE
  5
2C7
100
AcDbEntity
  8
CURVE
100
AcDbLine
 62
250
  6
CONTINUOUS
 10
-1.275547
 20
-14.552256
 11
-1.025433
 21
-14.119552
  0
LWPOLYLINE
  5
2C8
100
AcDbEntity
  8
0
100
AcDbPolyline
 62
7
  6
CONTINUOUS
 90
3
 70
0
 43
0.3500000006
 10
20.0642860107
 20
0.9285710678
 10
20.2785704956
 20
0.8571421509
 10
20.5642861633
 20
0.7142865829
  0
LINE
  5
2C9
100
AcDbEntity
  8
CURVE
100
AcDbLine
 62
250
  6
CONTINUOUS
 10
-3.004985
 20
12.347739
 11
-2.651518
 21
11.994272
  0
LINE
  5
2CA
100
AcDbEntity
  8
CURVE
100
AcDbLine
 62
250
  6
CONTINUOUS
 10
1.275891
 20
-15.44798
 11
1.025777
 21
-15.880684
  0
LINE
  5
2CB
100
AcDbEntity
  8
CURVE
100
AcDbLine
 62
7
  6
CONTINUOUS
 10
-2.0188946539
 20
-13.6410562591
 11
-1.95857235
 21
-13.5807339552
  0
LINE
  5
2CC
100
AcDbEntity
  8
CURVE
100
AcDbLine
 62
7
  6
CONTINUOUS
 10
-2.0581679931
 20
-14.1003510264
 11
-1.69230206
 21
-13.7344850932
  0
LINE
  5
2CD
100
AcDbEntity
  8
CURVE
100
AcDbLine
 62
7
  6
CONTINUOUS
 10
-1.7918977032
 20
-14.2541021644
 11
-1.4260317701
 21
-13.8882362313
  0
LINE
  5
2CE
100
AcDbEntity
  8
CURVE
100
AcDbLine
 62
7
  6
CONTINUOUS
 10
-0.249769
 20
-12.7119734612
 11
-0.1098105388
 21
-12.572015
  0
LINE
  5
2CF
100
AcDbEntity
  8
CURVE
100
AcDbLine
 62
7
  6
CONTINUOUS
 10
-1.5256274132
 20
-14.4078533025
 11
-1.1597614801
 21
-14.0419873694
  0
LINE
  5
2D0
100
AcDbEntity
  8
CURVE
100
AcDbLine
 62
7
  6
CONTINUOUS
 10
-0.249769
 20
-13.1319948893
 11
0.250114
 21
-12.6321118893
  0
LINE
  5
2D1
100
AcDbEntity
  8
CURVE
100
AcDbLine
 62
7
  6
CONTINUOUS
 10
-0.249769
 20
-13.5520163173
 11
0.250114
 21
-13.0521333173
  0
LINE
  5
2D2
100
AcDbEntity
  8
CURVE
100
AcDbLine
 62
7
  6
CONTINUOUS
 10
0.0505797453
 20
-13.671689
 11
0.250114
 21
-13.4721547453
  0
LWPOLYLINE
  5
2D3
100
AcDbEntity
  8
0
100
AcDbPolyline
 62
7
  6
CONTINUOUS
 90
10
 70
0
 43
0.3500000006
 10
19.8499992599
 20
0.8571421509
 10
19.9928570938
 20
0.9285710678
 10
20.0642860107
 20
0.9285710678
 10
20.2071438446
 20
0.7857132339
 10
20.2071438446
 20
0.7142865829
 10
20.1357149277
 20
0.642857666
 10
20.0642860107
 20
0.642857666
 10
19.9214281769
 20
0.7142865829
 10
19.8499992599
 20
0.7857132339
 10
19.8499992599
 20
0.8571421509
  0
LINE
  5
2D4
100
AcDbEntity
  8
CURVE
100
AcDbLine
 62
250
  6
CONTINUOUS
 10
-1.237306
 20
13.408139
 11
-1.590773
 21
13.761606
  0
LINE
  5
2D5
100
AcDbEntity
  8
COPY_PUBLISH
100
AcDbLine
 62
250
  6
CONTINUOUS
 10
10.5134150626
 20
26.3132437251
 11
10.5134150626
 21
-26.3132437251
  0
LINE
  5
2D6
100
AcDbEntity
  8
ASSI
100
AcDbLine
 62
250
  6
CONTINUOUS
 10
10.5134150626
 20
26.3132437251
 11
10.5134150626
 21
-26.3132437251
  0
LINE
  5
2D7
100
AcDbEntity
  8
COPY_PUBLISH
100
AcDbLine
 62
250
  6
CONTINUOUS
 10
11.0132437251
 20
25.8134150626
 11
11.0132437251
 21
-25.8134150626
  0
LINE
  5
2D8
100
AcDbEntity
  8
ASSI
100
AcDbLine
 62
250
  6
CONTINUOUS
 10
11.0132437251
 20
25.8134150626
 11
11.0132437251
 21
-25.8134150626
  0
LINE
  5
2D9
100
AcDbEntity
  8
0
100
AcDbLine
 62
7
  6
CONTINUOUS
 10
11.0345351961
 20
-25.8347065336
 11
11.0345351961
 21
25.8347065336
  0
LINE
  5
2DA
100
AcDbEntity
  8
ASSI
100
AcDbLine
 62
7
  6
CONTINUOUS
 10
11.0345351961
 20
-25.8347065336
 11
11.0345351961
 21
25.8347065336
  0
LINE
  5
2DB
100
AcDbEntity
  8
CURVE
100
AcDbLine
 62
250
  6
CONTINUOUS
 10
1.978002
 20
-16.430522
 11
2.228116
 21
-15.997818
  0
LINE
  5
2DC
100
AcDbEntity
  8
CURVE
100
AcDbLine
 62
7
  6
CONTINUOUS
 10
-2.0914195432
 20
-16.2337097165
 11
-1.3468783161
 21
-15.4891684895
  0
LINE
  5
2DD
100
AcDbEntity
  8
CURVE
100
AcDbLine
 62
7
  6
CONTINUOUS
 10
-0.5936805387
 20
-14.735970712
 11
-0.264320288
 21
-14.4066104613
  0
LINE
  5
2DE
100
AcDbEntity
  8
CURVE
100
AcDbLine
 62
7
  6
CONTINUOUS
 10
-1.7186577293
 20
-16.2809693307
 11
-1.1327357436
 21
-15.6950473449
  0
LINE
  5
2DF
100
AcDbEntity
  8
CURVE
100
AcDbLine
 62
7
  6
CONTINUOUS
 10
-0.6230647587
 20
-15.1853763601
 11
0.1850853601
 21
-14.3772262413
  0
LINE
  5
2E0
100
AcDbEntity
  8
0
100
AcDbLine
 62
250
  6
CONTINUOUS
 10
-11.0345351961
 20
-25.8347065336
 11
-11.0132437251
 21
-25.8134150626
  0
LINE
  5
2E1
100
AcDbEntity
  8
ASSI
100
AcDbLine
 62
250
  6
CONTINUOUS
 10
-11.0345351961
 20
-25.8347065336
 11
-11.0132437251
 21
-25.8134150626
  0
LINE
  5
2E2
100
AcDbEntity
  8
CURVE
100
AcDbLine
 62
7
  6
CONTINUOUS
 10
-0.4685709386
 20
-15.450903968
 11
0.450612968
 21
-14.5317200614
  0
LINE
  5
2E3
100
AcDbEntity
  8
CURVE
100
AcDbLine
 62
7
  6
CONTINUOUS
 10
-0.2124460499
 20
-15.6148005074
 11
0.6145095074
 21
-14.7878449501
  0
LINE
  5
2E4
100
AcDbEntity
  8
CURVE
100
AcDbLine
 62
7
  6
CONTINUOUS
 10
1.1199245844
 20
-14.2824298731
 11
1.63401252
 21
-13.7683419374
  0
LINE
  5
2E5
100
AcDbEntity
  8
0
100
AcDbLine
 62
250
  6
CONTINUOUS
 10
-10.5347065336
 20
-26.3345351961
 11
-10.5134150626
 21
-26.3132437251
  0
LINE
  5
2E6
100
AcDbEntity
  8
ASSI
100
AcDbLine
 62
250
  6
CONTINUOUS
 10
-10.5347065336
 20
-26.3345351961
 11
-10.5134150626
 21
-26.3132437251
  0
LINE
  5
2E7
100
AcDbEntity
  8
CURVE
100
AcDbLine
 62
7
  6
CONTINUOUS
 10
0.2049017545
 20
-15.617474131
 11
0.617183131
 21
-15.2051927545
  0
LINE
  5
2E8
100
AcDbEntity
  8
CURVE
100
AcDbLine
 62
7
  6
CONTINUOUS
 10
1.2737770596
 20
-14.5485988258
 11
2.0786090177
 21
-13.7437668678
  0
LINE
  5
2E9
100
AcDbEntity
  8
CURVE
100
AcDbLine
 62
7
  6
CONTINUOUS
 10
-0.249769
 20
-16.4921663135
 11
-0.0861496865
 21
-16.328547
  0
LINE
  5
2EA
100
AcDbEntity
  8
CURVE
100
AcDbLine
 62
250
  6
CONTINUOUS
 10
-0.249769
 20
10.999673
 11
0.250114
 21
10.999673
  0
LINE
  5
2EB
100
AcDbEntity
  8
CURVE
100
AcDbLine
 62
250
  6
CONTINUOUS
 10
1.237651
 20
13.408139
 11
2.651862
 21
11.994272
  0
LINE
  5
2EC
100
AcDbEntity
  8
0
100
AcDbLine
 62
250
  6
CONTINUOUS
 10
-11.0132437251
 20
25.8134150626
 11
-11.0345351961
 21
25.8347065336
  0
LINE
  5
2ED
100
AcDbEntity
  8
ASSI
100
AcDbLine
 62
250
  6
CONTINUOUS
 10
-11.0132437251
 20
25.8134150626
 11
-11.0345351961
 21
25.8347065336
  0
LINE
  5
2EE
100
AcDbEntity
  8
CURVE
100
AcDbLine
 62
250
  6
CONTINUOUS
 10
3.005329
 20
12.347739
 11
1.591117
 21
13.761606
  0
LINE
  5
2EF
100
AcDbEntity
  8
0
100
AcDbLine
 62
250
  6
CONTINUOUS
 10
-10.5134150626
 20
26.3132437251
 11
-10.5347065336
 21
26.3345351961
  0
LINE
  5
2F0
100
AcDbEntity
  8
ASSI
100
AcDbLine
 62
250
  6
CONTINUOUS
 10
-10.5134150626
 20
26.3132437251
 11
-10.5347065336
 21
26.3345351961
  0
LINE
  5
2F1
100
AcDbEntity
  8
CURVE
100
AcDbLine
 62
250
  6
CONTINUOUS
 10
-3.004985
 20
17.651119
 11
-1.590773
 21
16.236563
  0
LINE
  5
2F2
100
AcDbEntity
  8
CURVE
100
AcDbLine
 62
250
  6
CONTINUOUS
 10
-1.237306
 20
16.59003
 11
-2.651518
 21
18.004586
  0
LWPOLYLINE
  5
2F3
100
AcDbEntity
  8
COPY_PUBLISH
100
AcDbPolyline
 62
250
  6
CONTINUOUS
 90
16
 70
0
 10
11.0132437251
 20
25.8134150626
 10
11.01045539
 20
25.8657975315
 10
11.0021929183
 20
25.9176029172
 10
10.9885473613
 20
25.9682606712
 10
10.9696665657
 20
26.0172184586
 10
10.9457598445
 20
26.0639310247
 10
10.9171013786
 20
26.1078690436
 10
10.8840193212
 20
26.1485433419
 10
10.8468760531
 20
26.1855204357
 10
10.8060702069
 20
26.2184079346
 10
10.761986418
 20
26.2468816807
 10
10.7151656414
 20
26.2705791398
 10
10.6663188279
 20
26.2891770144
 10
10.6160695894
 20
26.3025182528
 10
10.5649154114
 20
26.3105481619
 10
10.5134150624
 20
26.3132437249
  0
LWPOLYLINE
  5
2F4
100
AcDbEntity
  8
ASSI
100
AcDbPolyline
 62
250
  6
CONTINUOUS
 90
16
 70
0
 10
11.0132437251
 20
25.8134150626
 10
11.01045539
 20
25.8657975315
 10
11.0021929183
 20
25.9176029172
 10
10.9885473613
 20
25.9682606712
 10
10.9696665657
 20
26.0172184586
 10
10.9457598445
 20
26.0639310247
 10
10.9171013786
 20
26.1078690436
 10
10.8840193212
 20
26.1485433419
 10
10.8468760531
 20
26.1855204357
 10
10.8060702069
 20
26.2184079346
 10
10.761986418
 20
26.2468816807
 10
10.7151656414
 20
26.2705791398
 10
10.6663188279
 20
26.2891770144
 10
10.6160695894
 20
26.3025182528
 10
10.5649154114
 20
26.3105481619
 10
10.5134150624
 20
26.3132437249
  0
LWPOLYLINE
  5
2F5
100
AcDbEntity
  8
COPY_PUBLISH
100
AcDbPolyline
 62
250
  6
CONTINUOUS
 90
16
 70
0
 10
11.0132437251
 20
-25.8134150626
 10
11.0104557606
 20
-25.8657940376
 10
11.0021943512
 20
-25.9175962153
 10
10.9885504711
 20
-25.9682511464
 10
10.9696717815
 20
-26.0172067959
 10
10.9457675487
 20
-26.0639177387
 10
10.9171122688
 20
-26.1078541194
 10
10.8840348897
 20
-26.1485261269
 10
10.8468972612
 20
-26.1855014262
 10
10.8060959292
 20
-26.2183893375
 10
10.762014426
 20
-26.2468656055
 10
10.7151938467
 20
-26.270566676
 10
10.6663444548
 20
-26.2891687618
 10
10.6160895555
 20
-26.3025140488
 10
10.5649267792
 20
-26.3105469765
 10
10.5134150626
 20
-26.3132437251
  0
LWPOLYLINE
  5
2F6
100
AcDbEntity
  8
ASSI
100
AcDbPolyline
 62
250
  6
CONTINUOUS
 90
16
 70
0
 10
11.0132437251
 20
-25.8134150626
 10
11.0104557606
 20
-25.8657940376
 10
11.0021943512
 20
-25.9175962153
 10
10.9885504711
 20
-25.9682511464
 10
10.9696717815
 20
-26.0172067959
 10
10.9457675487
 20
-26.0639177387
 10
10.9171122688
 20
-26.1078541194
 10
10.8840348897
 20
-26.1485261269
 10
10.8468972612
 20
-26.1855014262
 10
10.8060959292
 20
-26.2183893375
 10
10.762014426
 20
-26.2468656055
 10
10.7151938467
 20
-26.270566676
 10
10.6663444548
 20
-26.2891687618
 10
10.6160895555
 20
-26.3025140488
 10
10.5649267792
 20
-26.3105469765
 10
10.5134150626
 20
-26.3132437251
  0
LINE
  5
2F7
100
AcDbEntity
  8
CURVE
100
AcDbLine
 62
7
  6
CONTINUOUS
 10
-0.249769
 20
-16.9121877415
 11
0.250114
 21
-16.4123047415
  0
LINE
  5
2F8
100
AcDbEntity
  8
CURVE
100
AcDbLine
 62
7
  6
CONTINUOUS
 10
-0.249769
 20
-17.3322091695
 11
0.250114
 21
-16.8323261695
  0
LINE
  5
2F9
100
AcDbEntity
  8
CURVE
100
AcDbLine
 62
7
  6
CONTINUOUS
 10
1.1373380761
 20
-15.9451020934
 11
1.5032040537
 21
-15.5792361158
  0
LINE
  5
2FA
100
AcDbEntity
  8
CURVE
100
AcDbLine
 62
7
  6
CONTINUOUS
 10
0.0742405975
 20
-17.428221
 11
0.250114
 21
-17.2523475975
  0
LINE
  5
2FB
100
AcDbEntity
  8
CURVE
100
AcDbLine
 62
7
  6
CONTINUOUS
 10
1.4036084685
 20
-16.0988531291
 11
1.7694744461
 21
-15.7329871515
  0
LINE
  5
2FC
100
AcDbEntity
  8
CURVE
100
AcDbLine
 62
7
  6
CONTINUOUS
 10
1.6698788608
 20
-16.2526041648
 11
2.0357448384
 21
-15.8867381872
  0
LINE
  5
2FD
100
AcDbEntity
  8
CURVE
100
AcDbLine
 62
7
  6
CONTINUOUS
 10
1.9361492531
 20
-16.4063552005
 11
2.0684363766
 21
-16.274068077
  0
LINE
  5
2FE
100
AcDbEntity
  8
CURVE
100
AcDbLine
 62
250
  6
CONTINUOUS
 10
-1.275547
 20
-15.44798
 11
-2.227771
 21
-15.997818
  0
LINE
  5
2FF
100
AcDbEntity
  8
CURVE
100
AcDbLine
 62
250
  6
CONTINUOUS
 10
1.978002
 20
-13.569714
 11
1.025777
 21
-14.119552
  0
LINE
  5
300
100
AcDbEntity
  8
CURVE
100
AcDbLine
 62
250
  6
CONTINUOUS
 10
-1.977657
 20
-16.430522
 11
-1.025433
 21
-15.880684
  0
LINE
  5
301
100
AcDbEntity
  8
CURVE
100
AcDbLine
 62
250
  6
CONTINUOUS
 10
1.275891
 20
-14.552256
 11
2.228116
 21
-14.002418
  0
LINE
  5
302
100
AcDbEntity
  8
CURVE
100
AcDbLine
 62
250
  6
CONTINUOUS
 10
0.250114
 20
12.999207
 11
-0.249769
 21
12.999207
  0
LINE
  5
303
100
AcDbEntity
  8
CURVE
100
AcDbLine
 62
250
  6
CONTINUOUS
 10
1.237651
 20
16.59003
 11
1.591117
 21
16.236563
  0
LWPOLYLINE
  5
304
100
AcDbEntity
  8
CURVE
100
AcDbPolyline
 62
250
  6
CONTINUOUS
 90
81
 70
0
 10
0.0001722548
 20
13.9993177591
 10
0.0407302849
 20
14.0001341777
 10
0.0812203068
 20
14.0025743055
 10
0.1215743573
 20
14.0066375346
 10
0.1617244734
 20
14.0123232572
 10
0.201602692
 20
14.0196308655
 10
0.2399862328
 20
14.0282723618
 10
0.2779973776
 20
14.0384294687
 10
0.3155839085
 20
14.0500904111
 10
0.3526936078
 20
14.0632434139
 10
0.389274258
 20
14.0778767021
 10
0.424399489
 20
14.0935632723
 10
0.4589203917
 20
14.1106141426
 10
0.492785801
 20
14.1289961046
 10
0.5259445516
 20
14.1486759494
 10
0.5583454786
 20
14.1696204685
 10
0.5899374165
 20
14.1917964533
 10
0.6206692004
 20
14.2151706949
 10
0.650489665
 20
14.239709985
 10
0.6793476452
 20
14.2653811146
 10
0.7071919757
 20
14.2921508753
 10
0.7339788123
 20
14.3199877643
 10
0.7596671469
 20
14.3488392567
 10
0.7842236454
 20
14.3786541807
 10
0.8076149733
 20
14.4093813645
 10
0.8298077964
 20
14.440969636
 10
0.8507687803
 20
14.4733678235
 10
0.8704645907
 20
14.5065247551
 10
0.8888618933
 20
14.5403892588
 10
0.9059273538
 20
14.5749101629
 10
0.9216276378
 20
14.6100362953
 10
0.9362794965
 20
14.6466333779
 10
0.9494489772
 20
14.683760745
 10
0.9611244292
 20
14.7213660141
 10
0.971294202
 20
14.7593968026
 10
0.9799466449
 20
14.797800728
 10
0.987266528
 20
14.8377174591
 10
0.9929611115
 20
14.8779067996
 10
0.9970294364
 20
14.9183005996
 10
0.9994705436
 20
14.9588307092
 10
1.0002834741
 20
14.9994289785
 10
0.9994684351
 20
15.0400045803
 10
0.9970266558
 20
15.0805120133
 10
0.9929587131
 20
15.120883099
 10
0.9872651838
 20
15.1610496587
 10
0.9799466449
 20
15.2009435139
 10
0.9712941749
 20
15.2393306165
 10
0.9611241193
 20
15.2773444109
 10
0.9494483979
 20
15.3149325518
 10
0.9362789308
 20
15.3520426939
 10
0.9216276378
 20
15.388622492
 10
0.9059254781
 20
15.423738512
 10
0.8888584292
 20
15.4582491247
 10
0.870459874
 20
15.4921032158
 10
0.8507631955
 20
15.5252496708
 10
0.8298017765
 20
15.5576373753
 10
0.8076089999
 20
15.5892152149
 10
0.7842182486
 20
15.6199320751
 10
0.7596629056
 20
15.6497368416
 10
0.7339763537
 20
15.6785784
 10
0.7071919757
 20
15.7064056357
 10
0.6793461007
 20
15.7331704466
 10
0.6504869391
 20
15.7588366866
 10
0.6206656487
 20
15.7833712229
 10
0.5899333871
 20
15.8067409229
 10
0.5583413122
 20
15.8289126538
 10
0.5259405817
 20
15.849853283
 10
0.4927823532
 20
15.8695296777
 10
0.4589177846
 20
15.8879087053
 10
0.4243980336
 20
15.9049572331
 10
0.389274258
 20
15.9206421282
 10
0.3526933791
 20
15.9352751758
 10
0.3155836315
 20
15.9484282998
 10
0.2779971656
 20
15.9600894666
 10
0.2399861321
 20
15.9702466421
 10
0.2016026814
 20
15.9788877924
 10
0.1616814952
 20
15.9862014151
 10
0.1214878255
 20
15.9918892878
 10
0.0810898736
 20
15.9959511387
 10
0.0405558406
 20
15.9983866961
 10
-0.0000460721
 20
15.9991956882
  0
LINE
  5
305
100
AcDbEntity
  8
CURVE
100
AcDbLine
 62
250
  6
CONTINUOUS
 10
-3.999928
 20
14.74966
 11
-1.999706
 21
14.74966
  0
LINE
  5
306
100
AcDbEntity
  8
CURVE
100
AcDbLine
 62
250
  6
CONTINUOUS
 10
2.00005
 20
14.74966
 11
4.000273
 21
14.74966
  0
LINE
  5
307
100
AcDbEntity
  8
CURVE
100
AcDbLine
 62
250
  6
CONTINUOUS
 10
4.000273
 20
15.249543
 11
2.00005
 21
15.249543
  0
LINE
  5
308
100
AcDbEntity
  8
CURVE
100
AcDbLine
 62
250
  6
CONTINUOUS
 10
-1.999706
 20
15.249543
 11
-3.999928
 21
15.249543
  0
LINE
  5
309
100
AcDbEntity
  8
CURVE
100
AcDbLine
 62
250
  6
CONTINUOUS
 10
3.005329
 20
17.651119
 11
2.651862
 21
18.004586
  0
LWPOLYLINE
  5
30A
100
AcDbEntity
  8
CURVE
100
AcDbPolyline
 62
250
  6
CONTINUOUS
 90
81
 70
0
 10
-0.0000460721
 20
15.9991956882
 10
-0.0406195688
 20
15.9983791924
 10
-0.0811249733
 20
15.9959391385
 10
-0.1214945131
 20
15.9918765429
 10
-0.1616604154
 20
15.9861924221
 10
-0.2015549076
 20
15.9788877924
 10
-0.239966199
 20
15.9702479033
 10
-0.2780053456
 20
15.9600923977
 10
-0.3156199326
 20
15.9484322703
 10
-0.3527575451
 20
15.9352785156
 10
-0.3893657683
 20
15.9206421282
 10
-0.4244882122
 20
15.9049633432
 10
-0.4590065042
 20
15.8879195518
 10
-0.4928692415
 20
15.8695438927
 10
-0.5260250215
 20
15.8498695047
 10
-0.5584224412
 20
15.8289295264
 10
-0.5900100979
 20
15.8067570966
 10
-0.6207365889
 20
15.7833853539
 10
-0.6505505113
 20
15.7588474371
 10
-0.6794004624
 20
15.7331764848
 10
-0.7072350394
 20
15.7064056357
 10
-0.7339993456
 20
15.6785781319
 10
-0.7596642634
 20
15.6497357474
 10
-0.7841966498
 20
15.6199298283
 10
-0.8075633619
 20
15.5892117206
 10
-0.8297312567
 20
15.5576327704
 10
-0.8506671913
 20
15.5252443237
 10
-0.8703380227
 20
15.4920977265
 10
-0.8887106079
 20
15.4582443248
 10
-0.9057518041
 20
15.4237354646
 10
-0.9214284683
 20
15.388622492
 10
-0.9360570362
 20
15.3520400561
 10
-0.9492043349
 20
15.3149286229
 10
-0.9608589555
 20
15.2773405097
 10
-0.9710094889
 20
15.2393280342
 10
-0.9796445261
 20
15.2009435139
 10
-0.9869486582
 20
15.1610481935
 10
-0.9926304258
 20
15.1208811454
 10
-0.9966895712
 20
15.0805103039
 10
-0.9991258368
 20
15.0400036035
 10
-0.9999389646
 20
14.9994289785
 10
-0.9991279401
 20
14.9588316856
 10
-0.996692345
 20
14.9183023083
 10
-0.9926328182
 20
14.8779087525
 10
-0.9869499989
 20
14.8377189237
 10
-0.9796445261
 20
14.797800728
 10
-0.971009516
 20
14.7593993845
 10
-0.960859265
 20
14.7213699151
 10
-0.9492049132
 20
14.6837646741
 10
-0.9360576009
 20
14.6466360161
 10
-0.9214284683
 20
14.6100362953
 10
-0.9057536771
 20
14.574913211
 10
-0.8887140679
 20
14.5403940602
 10
-0.8703427347
 20
14.5065302462
 10
-0.8506727717
 20
14.4733731726
 10
-0.829737273
 20
14.4409742429
 10
-0.8075693328
 20
14.4093848606
 10
-0.7842020452
 20
14.3786564291
 10
-0.7596685044
 20
14.3488403521
 10
-0.7340018044
 20
14.319988033
 10
-0.7072350394
 20
14.2921508753
 10
-0.6794020073
 20
14.2653750782
 10
-0.6505532379
 20
14.2396992373
 10
-0.6207401414
 20
14.2151565674
 10
-0.5900141282
 20
14.1917802831
 10
-0.5584266083
 20
14.1696035993
 10
-0.5260289921
 20
14.1486597306
 10
-0.4928726897
 20
14.1289818919
 10
-0.4590091115
 20
14.1106032977
 10
-0.4244896676
 20
14.0935571629
 10
-0.3893657683
 20
14.0778767021
 10
-0.3527577742
 20
14.0632400731
 10
-0.3156202101
 20
14.0500864395
 10
-0.278005558
 20
14.0384265366
 10
-0.2399663
 20
14.0282711001
 10
-0.2015549182
 20
14.0196308655
 10
-0.1616172325
 20
14.0123182727
 10
-0.1214076991
 20
14.0066293082
 10
-0.0809942912
 20
14.0025653296
 10
-0.0404449822
 20
14.000127694
 10
0.0001722548
 20
13.9993177591
  0
LINE
  5
30B
100
AcDbEntity
  8
CURVE
100
AcDbLine
 62
250
  6
CONTINUOUS
 10
-0.249769
 20
16.999651
 11
0.250114
 21
16.999651
  0
LINE
  5
30C
100
AcDbEntity
  8
CURVE
100
AcDbLine
 62
250
  6
CONTINUOUS
 10
0.250114
 20
18.999185
 11
-0.249769
 21
18.999185
  0
LWPOLYLINE
  5
30D
100
AcDbEntity
  8
0
100
AcDbPolyline
 62
7
  6
CONTINUOUS
 90
10
 70
0
 43
0.3500000006
 10
1.2857142735
 20
37.6500021057
 10
1.3571429071
 20
37.5071442719
 10
1.3571429071
 20
37.435713089
 10
1.2142857814
 20
37.2928552551
 10
1.1428571477
 20
37.2928552551
 10
1.0714285848
 20
37.364286438
 10
1.0714285848
 20
37.435713089
 10
1.1428571477
 20
37.5785709229
 10
1.2142857814
 20
37.6500021057
 10
1.2857142735
 20
37.6500021057
  0
LWPOLYLINE
  5
30E
100
AcDbEntity
  8
0
100
AcDbPolyline
 62
7
  6
CONTINUOUS
 90
7
 70
0
 43
0.3500000006
 10
20.3499994125
 20
-0.642856041
 10
20.3499994125
 20
-2.1428576317
 10
18.2071432343
 20
-0.642856041
 10
17.7785708656
 20
-0.642856041
 10
17.34999963
 20
-1.0714295425
 10
17.34999963
 20
-1.7142852631
 10
17.9928576164
 20
-2.1428576317
  0
LWPOLYLINE
  5
30F
100
AcDbEntity
  8
0
100
AcDbPolyline
 62
7
  6
CONTINUOUS
 90
8
 70
0
 43
0.3500000006
 10
20.3499994125
 20
-4.28571381
 10
20.3499994125
 20
-3.4285713387
 10
19.9214281769
 20
-3.000000103
 10
19.0642857056
 20
-3.000000103
 10
18.6357144699
 20
-3.4285713387
 10
18.6357144699
 20
-4.28571381
 10
17.34999963
 20
-4.28571381
 10
17.34999963
 20
-3.000000103
  0
LINE
  5
310
100
AcDbEntity
  8
COPY_PUBLISH
100
AcDbLine
 62
250
  6
CONTINUOUS
 10
11.0132437251
 20
25.8134150626
 11
-11.0132437251
 21
25.8134150626
  0
LINE
  5
311
100
AcDbEntity
  8
ASSI
100
AcDbLine
 62
250
  6
CONTINUOUS
 10
11.0132437251
 20
25.8134150626
 11
-11.0132437251
 21
25.8134150626
  0
LINE
  5
312
100
AcDbEntity
  8
COPY_PUBLISH
100
AcDbLine
 62
250
  6
CONTINUOUS
 10
10.5134150626
 20
26.3132437251
 11
-10.5134150626
 21
26.3132437251
  0
LINE
  5
313
100
AcDbEntity
  8
ASSI
100
AcDbLine
 62
250
  6
CONTINUOUS
 10
10.5134150626
 20
26.3132437251
 11
-10.5134150626
 21
26.3132437251
  0
LINE
  5
314
100
AcDbEntity
  8
0
100
AcDbLine
 62
7
  6
CONTINUOUS
 10
10.5347065336
 20
26.3345351961
 11
-10.5347065336
 21
26.3345351961
  0
LINE
  5
315
100
AcDbEntity
  8
ASSI
100
AcDbLine
 62
7
  6
CONTINUOUS
 10
10.5347065336
 20
26.3345351961
 11
-10.5347065336
 21
26.3345351961
  0
LWPOLYLINE
  5
316
100
AcDbEntity
  8
0
100
AcDbPolyline
 62
7
  6
CONTINUOUS
 90
7
 70
0
 43
0.3500000006
 10
-0.2142857063
 20
37.1500019531
 10
-1.7142856507
 20
37.1500019531
 10
-0.2142857063
 20
39.2928558655
 10
-0.2142857063
 20
39.7214293671
 10
-0.6428571367
 20
40.1499983368
 10
-1.2857142735
 20
40.1499983368
 10
-1.7142856507
 20
39.5071448822
  0
LWPOLYLINE
  5
317
100
AcDbEntity
  8
0
100
AcDbPolyline
 62
7
  6
CONTINUOUS
 90
7
 70
0
 43
0.3500000006
 10
-2.5714285469
 20
37.1500019531
 10
-4.0714284382
 20
37.1500019531
 10
-2.5714285469
 20
39.2928558655
 10
-2.5714285469
 20
39.7214293671
 10
-3.0000000658
 20
40.1499983368
 10
-3.6428572025
 20
40.1499983368
 10
-4.0714284382
 20
39.5071448822
  0
LWPOLYLINE
  5
318
100
AcDbEntity
  8
0
100
AcDbPolyline
 62
7
  6
CONTINUOUS
 90
3
 70
0
 43
0.3500000006
 10
-39.6058989716
 20
44.4226634674
 10
-39.6773301544
 20
44.2083744507
 10
-39.8201879883
 20
43.9226633148
  0
LWPOLYLINE
  5
319
100
AcDbEntity
  8
0
100
AcDbPolyline
 62
7
  6
CONTINUOUS
 90
5
 70
0
 43
0.3500000006
 10
-37.7487561951
 20
45.8512327423
 10
-37.3916138763
 20
46.0655172272
 10
-37.3916138763
 20
46.7083752136
 10
-37.7487561951
 20
47.1369487152
 10
-38.6058986664
 20
47.1369487152
  0
LINE
  5
31A
100
AcDbEntity
  8
0
100
AcDbLine
 62
7
  6
CONTINUOUS
 10
-28.9275524955
 20
-26.3132437251
 11
-28.1144640214
 21
-26.3345351961
  0
LINE
  5
31B
100
AcDbEntity
  8
ASSI
100
AcDbLine
 62
7
  6
CONTINUOUS
 10
-28.9275524955
 20
-26.3132437251
 11
-28.1144640214
 21
-26.3345351961
  0
LINE
  5
31C
100
AcDbEntity
  8
RACCORDO
100
AcDbLine
 62
7
  6
CONTINUOUS
 10
-27.4144640214
 20
-26.2216232767
 11
-28.1144640214
 21
-26.2828653412
  0
LINE
  5
31D
100
AcDbEntity
  8
ASSI
100
AcDbLine
 62
7
  6
CONTINUOUS
 10
-27.4144640214
 20
-26.2216232767
 11
-28.1144640214
 21
-26.2828653412
  0
LINE
  5
31E
100
AcDbEntity
  8
RACCORDO
100
AcDbLine
 62
250
  6
CONTINUOUS
 10
-27.4144640214
 20
-25.7709349336
 11
-28.1144640214
 21
-25.8321769981
  0
LINE
  5
31F
100
AcDbEntity
  8
ASSI
100
AcDbLine
 62
250
  6
CONTINUOUS
 10
-27.4144640214
 20
-25.7709349336
 11
-28.1144640214
 21
-25.8321769981
  0
LINE
  5
320
100
AcDbEntity
  8
COPY_PUBLISH
100
AcDbLine
 62
250
  6
CONTINUOUS
 10
-28.9275524955
 20
-25.8134150626
 11
-29.4144640214
 21
-25.8134150626
  0
LINE
  5
321
100
AcDbEntity
  8
ASSI
100
AcDbLine
 62
250
  6
CONTINUOUS
 10
-28.9275524955
 20
-25.8134150626
 11
-29.4144640214
 21
-25.8134150626
  0
LINE
  5
322
100
AcDbEntity
  8
0
100
AcDbLine
 62
250
  6
CONTINUOUS
 10
-28.9275524955
 20
-25.8134150626
 11
-28.1144640214
 21
-25.8347065336
  0
LINE
  5
323
100
AcDbEntity
  8
ASSI
100
AcDbLine
 62
250
  6
CONTINUOUS
 10
-28.9275524955
 20
-25.8134150626
 11
-28.1144640214
 21
-25.8347065336
  0
LINE
  5
324
100
AcDbEntity
  8
DRAFT
100
AcDbLine
 62
7
  6
CONTINUOUS
 10
-28.1144640214
 20
-15.75
 11
-27.4144640214
 21
-15.75
  0
LINE
  5
325
100
AcDbEntity
  8
ASSI
100
AcDbLine
 62
7
  6
CONTINUOUS
 10
-28.1144640214
 20
-15.75
 11
-27.4144640214
 21
-15.75
  0
LINE
  5
326
100
AcDbEntity
  8
DRAFT
100
AcDbLine
 62
7
  6
CONTINUOUS
 10
-26.3144640214
 20
-14.8954050818
 11
-27.4144640214
 21
-15.05
  0
LINE
  5
327
100
AcDbEntity
  8
RACCORDO
100
AcDbLine
 62
7
  6
CONTINUOUS
 10
-24.4935296389
 20
-14.6969203156
 11
-24.5257888868
 21
-14.6986109511
  0
LINE
  5
328
100
AcDbEntity
  8
DRAFT
100
AcDbLine
 62
7
  6
CONTINUOUS
 10
-24.5257888868
 20
-14.6986109511
 11
-25.2644640214
 21
-14.7373232745
  0
LINE
  5
329
100
AcDbEntity
  8
RACCORDO
100
AcDbLine
 62
7
  6
CONTINUOUS
 10
-25.2644640214
 20
-14.7373232745
 11
-27.4144640214
 21
-14.85
  0
LINE
  5
32A
100
AcDbEntity
  8
RACCORDO
100
AcDbLine
 62
250
  6
CONTINUOUS
 10
-27.4144640214
 20
-15.55
 11
-28.1144640214
 21
-15.55
  0
LINE
  5
32B
100
AcDbEntity
  8
ASSI
100
AcDbLine
 62
250
  6
CONTINUOUS
 10
-27.4144640214
 20
-15.55
 11
-28.1144640214
 21
-15.55
  0
LINE
  5
32C
100
AcDbEntity
  8
RACCORDO
100
AcDbLine
 62
250
  6
CONTINUOUS
 10
-27.4144640214
 20
-10.95
 11
-28.1144640214
 21
-10.95
  0
LINE
  5
32D
100
AcDbEntity
  8
ASSI
100
AcDbLine
 62
250
  6
CONTINUOUS
 10
-27.4144640214
 20
-10.95
 11
-28.1144640214
 21
-10.95
  0
LINE
  5
32E
100
AcDbEntity
  8
DRAFT
100
AcDbLine
 62
7
  6
CONTINUOUS
 10
-28.1144640214
 20
-10.75
 11
-27.4144640214
 21
-10.75
  0
LINE
  5
32F
100
AcDbEntity
  8
ASSI
100
AcDbLine
 62
7
  6
CONTINUOUS
 10
-28.1144640214
 20
-10.75
 11
-27.4144640214
 21
-10.75
  0
LINE
  5
330
100
AcDbEntity
  8
RACCORDO
100
AcDbLine
 62
7
  6
CONTINUOUS
 10
-24.4935296389
 20
-11.8030796844
 11
-24.5257888868
 21
-11.8013890489
  0
LINE
  5
331
100
AcDbEntity
  8
DRAFT
100
AcDbLine
 62
7
  6
CONTINUOUS
 10
-24.5257888868
 20
-11.8013890489
 11
-25.2644640214
 21
-11.7626767255
  0
LINE
  5
332
100
AcDbEntity
  8
RACCORDO
100
AcDbLine
 62
7
  6
CONTINUOUS
 10
-25.2644640214
 20
-11.7626767255
 11
-27.4144640214
 21
-11.65
  0
LINE
  5
333
100
AcDbEntity
  8
DRAFT
100
AcDbLine
 62
7
  6
CONTINUOUS
 10
-26.3144640214
 20
-11.6045949182
 11
-27.4144640214
 21
-11.45
  0
LINE
  5
334
100
AcDbEntity
  8
COPY_PUBLISH
100
AcDbLine
 62
250
  6
CONTINUOUS
 10
-28.9275524955
 20
25.8134150626
 11
-28.929991375
 21
25.9176029172
  0
LINE
  5
335
100
AcDbEntity
  8
ASSI
100
AcDbLine
 62
250
  6
CONTINUOUS
 10
-28.9275524955
 20
25.8134150626
 11
-28.929991375
 21
25.9176029172
  0
LINE
  5
336
100
AcDbEntity
  8
COPY_PUBLISH
100
AcDbLine
 62
250
  6
CONTINUOUS
 10
-28.929991375
 20
25.9176029172
 11
-28.9317481672
 21
26.0172184586
  0
LINE
  5
337
100
AcDbEntity
  8
ASSI
100
AcDbLine
 62
250
  6
CONTINUOUS
 10
-28.929991375
 20
25.9176029172
 11
-28.9317481672
 21
26.0172184586
  0
LWPOLYLINE
  5
338
100
AcDbEntity
  8
COPY_PUBLISH
100
AcDbPolyline
 62
250
  6
CONTINUOUS
 90
11
 70
0
 10
-28.9317481672
 20
26.0172184586
 10
-28.9327454684
 20
26.1078690436
 10
-28.9329442783
 20
26.1485433419
 10
-28.9329399268
 20
26.1855204357
 10
-28.9327325776
 20
26.2184079346
 10
-28.932323814
 20
26.2468816807
 10
-28.9317183084
 20
26.2705791398
 10
-28.9309262125
 20
26.2891770144
 10
-28.929959744
 20
26.3025182528
 10
-28.9288304975
 20
26.3105481619
 10
-28.9275525022
 20
26.3132437249
  0
LWPOLYLINE
  5
339
100
AcDbEntity
  8
ASSI
100
AcDbPolyline
 62
250
  6
CONTINUOUS
 90
11
 70
0
 10
-28.9317481672
 20
26.0172184586
 10
-28.9327454684
 20
26.1078690436
 10
-28.9329442783
 20
26.1485433419
 10
-28.9329399268
 20
26.1855204357
 10
-28.9327325776
 20
26.2184079346
 10
-28.932323814
 20
26.2468816807
 10
-28.9317183084
 20
26.2705791398
 10
-28.9309262125
 20
26.2891770144
 10
-28.929959744
 20
26.3025182528
 10
-28.9288304975
 20
26.3105481619
 10
-28.9275525022
 20
26.3132437249
  0
LINE
  5
33A
100
AcDbEntity
  8
COPY_PUBLISH
100
AcDbLine
 62
7
  6
CONTINUOUS
 10
-29.4144640214
 20
25.8134150626
 11
-29.4144640214
 21
-25.8134150626
  0
LINE
  5
33B
100
AcDbEntity
  8
ASSI
100
AcDbLine
 62
7
  6
CONTINUOUS
 10
-29.4144640214
 20
25.8134150626
 11
-29.4144640214
 21
-25.8134150626
  0
LWPOLYLINE
  5
33C
100
AcDbEntity
  8
COPY_PUBLISH
100
AcDbPolyline
 62
250
  6
CONTINUOUS
 90
9
 70
0
 10
-28.9329442352
 20
-26.1485261269
 10
-28.9329399844
 20
-26.1855014262
 10
-28.9327327642
 20
-26.2183893375
 10
-28.9323241267
 20
-26.2468656055
 10
-28.9317187211
 20
-26.270566676
 10
-28.9309266675
 20
-26.2891687618
 10
-28.9299601553
 20
-26.3025140488
 10
-28.9288307605
 20
-26.3105469765
 10
-28.9275524955
 20
-26.3132437251
  0
LWPOLYLINE
  5
33D
100
AcDbEntity
  8
ASSI
100
AcDbPolyline
 62
250
  6
CONTINUOUS
 90
9
 70
0
 10
-28.9329442352
 20
-26.1485261269
 10
-28.9329399844
 20
-26.1855014262
 10
-28.9327327642
 20
-26.2183893375
 10
-28.9323241267
 20
-26.2468656055
 10
-28.9317187211
 20
-26.270566676
 10
-28.9309266675
 20
-26.2891687618
 10
-28.9299601553
 20
-26.3025140488
 10
-28.9288307605
 20
-26.3105469765
 10
-28.9275524955
 20
-26.3132437251
  0
LINE
  5
33E
100
AcDbEntity
  8
COPY_PUBLISH
100
AcDbLine
 62
250
  6
CONTINUOUS
 10
-28.9275524955
 20
25.8134150626
 11
-28.9275524955
 21
-25.8134150626
  0
LINE
  5
33F
100
AcDbEntity
  8
ASSI
100
AcDbLine
 62
250
  6
CONTINUOUS
 10
-28.9275524955
 20
25.8134150626
 11
-28.9275524955
 21
-25.8134150626
  0
LINE
  5
340
100
AcDbEntity
  8
RACCORDO
100
AcDbLine
 62
7
  6
CONTINUOUS
 10
-28.1144640214
 20
-26.3345351961
 11
-28.1144640214
 21
-25.8347065336
  0
LINE
  5
341
100
AcDbEntity
  8
0
100
AcDbLine
 62
7
  6
CONTINUOUS
 10
-28.1144640214
 20
-25.8347065336
 11
-28.1144640214
 21
25.8347065336
  0
LINE
  5
342
100
AcDbEntity
  8
RACCORDO
100
AcDbLine
 62
7
  6
CONTINUOUS
 10
-28.1144640214
 20
25.8347065336
 11
-28.1144640214
 21
26.3345351961
  0
LINE
  5
343
100
AcDbEntity
  8
ASSI
100
AcDbLine
 62
7
  6
CONTINUOUS
 10
-28.1144640214
 20
-26.3345351961
 11
-28.1144640214
 21
26.3345351961
  0
LINE
  5
344
100
AcDbEntity
  8
COPY_PUBLISH
100
AcDbLine
 62
250
  6
CONTINUOUS
 10
-28.9323452131
 20
-26.0639177387
 11
-28.9329442352
 21
-26.1485261269
  0
LINE
  5
345
100
AcDbEntity
  8
ASSI
100
AcDbLine
 62
250
  6
CONTINUOUS
 10
-28.9323452131
 20
-26.0639177387
 11
-28.9329442352
 21
-26.1485261269
  0
LINE
  5
346
100
AcDbEntity
  8
COPY_PUBLISH
100
AcDbLine
 62
250
  6
CONTINUOUS
 10
-28.9309604055
 20
-25.9682511464
 11
-28.9323452131
 21
-26.0639177387
  0
LINE
  5
347
100
AcDbEntity
  8
ASSI
100
AcDbLine
 62
250
  6
CONTINUOUS
 10
-28.9309604055
 20
-25.9682511464
 11
-28.9323452131
 21
-26.0639177387
  0
LWPOLYLINE
  5
348
100
AcDbEntity
  8
COPY_PUBLISH
100
AcDbPolyline
 62
250
  6
CONTINUOUS
 90
3
 70
0
 10
-28.9275524955
 20
-25.8134150626
 10
-28.9288510818
 20
-25.8657940376
 10
-28.9309604055
 20
-25.9682511464
  0
LWPOLYLINE
  5
349
100
AcDbEntity
  8
ASSI
100
AcDbPolyline
 62
250
  6
CONTINUOUS
 90
3
 70
0
 10
-28.9275524955
 20
-25.8134150626
 10
-28.9288510818
 20
-25.8657940376
 10
-28.9309604055
 20
-25.9682511464
  0
LINE
  5
34A
100
AcDbEntity
  8
RACCORDO
100
AcDbLine
 62
7
  6
CONTINUOUS
 10
-27.290511248
 20
-1.9781437817
 11
-25.8276399325
 21
-1.7202000995
  0
LINE
  5
34B
100
AcDbEntity
  8
ASSI
100
AcDbLine
 62
7
  6
CONTINUOUS
 10
-27.290511248
 20
-1.9781437817
 11
-25.8276399325
 21
-1.7202000995
  0
LINE
  5
34C
100
AcDbEntity
  8
RACCORDO
100
AcDbLine
 62
7
  6
CONTINUOUS
 10
-27.4144640214
 20
-26.2216232767
 11
-27.4144640214
 21
-2.1258649447
  0
LINE
  5
34D
100
AcDbEntity
  8
ASSI
100
AcDbLine
 62
7
  6
CONTINUOUS
 10
-27.4144640214
 20
-26.2216232767
 11
-27.4144640214
 21
-2.1258649447
  0
LINE
  5
34E
100
AcDbEntity
  8
RACCORDO
100
AcDbLine
 62
7
  6
CONTINUOUS
 10
-27.4144640214
 20
2.1258649447
 11
-27.4144640214
 21
26.2216232767
  0
LINE
  5
34F
100
AcDbEntity
  8
ASSI
100
AcDbLine
 62
7
  6
CONTINUOUS
 10
-27.4144640214
 20
2.1258649447
 11
-27.4144640214
 21
26.2216232767
  0
LINE
  5
350
100
AcDbEntity
  8
RACCORDO
100
AcDbLine
 62
250
  6
CONTINUOUS
 10
-27.1470249029
 20
14.8359841097
 11
-27.1470249029
 21
11.6640158903
  0
LINE
  5
351
100
AcDbEntity
  8
RACCORDO
100
AcDbLine
 62
250
  6
CONTINUOUS
 10
-27.1470249029
 20
-11.6640158903
 11
-27.1470249029
 21
-14.8359841097
  0
LINE
  5
352
100
AcDbEntity
  8
DRAFT
100
AcDbLine
 62
7
  6
CONTINUOUS
 10
-26.3144640214
 20
14.8954050818
 11
-26.3144640214
 21
14.7923514428
  0
LINE
  5
353
100
AcDbEntity
  8
DRAFT
100
AcDbLine
 62
7
  6
CONTINUOUS
 10
-26.3144640214
 20
11.7076485572
 11
-26.3144640214
 21
11.6045949182
  0
LINE
  5
354
100
AcDbEntity
  8
DRAFT
100
AcDbLine
 62
7
  6
CONTINUOUS
 10
-26.3144640214
 20
-11.6045949182
 11
-26.3144640214
 21
-11.7076485572
  0
LINE
  5
355
100
AcDbEntity
  8
DRAFT
100
AcDbLine
 62
7
  6
CONTINUOUS
 10
-26.3144640214
 20
-14.7923514428
 11
-26.3144640214
 21
-14.8954050818
  0
LINE
  5
356
100
AcDbEntity
  8
RACCORDO
100
AcDbLine
 62
7
  6
CONTINUOUS
 10
-25.4144640214
 20
1.227796223
 11
-25.4144640214
 21
-1.227796223
  0
LINE
  5
357
100
AcDbEntity
  8
ASSI
100
AcDbLine
 62
7
  6
CONTINUOUS
 10
-25.4144640214
 20
1.227796223
 11
-25.4144640214
 21
-1.227796223
  0
LINE
  5
358
100
AcDbEntity
  8
DRAFT
100
AcDbLine
 62
7
  6
CONTINUOUS
 10
-25.2644640214
 20
14.7373232745
 11
-25.2644640214
 21
11.7626767255
  0
LINE
  5
359
100
AcDbEntity
  8
DRAFT
100
AcDbLine
 62
7
  6
CONTINUOUS
 10
-25.2644640214
 20
-14.7373232745
 11
-25.2644640214
 21
-11.7626767255
  0
LINE
  5
35A
100
AcDbEntity
  8
DRAFT
100
AcDbLine
 62
7
  6
CONTINUOUS
 10
-24.9757888868
 20
14.7221944518
 11
-24.9757888868
 21
11.7778055482
  0
LINE
  5
35B
100
AcDbEntity
  8
DRAFT
100
AcDbLine
 62
7
  6
CONTINUOUS
 10
-24.9757888868
 20
-14.7221944518
 11
-24.9757888868
 21
-11.7778055482
  0
LINE
  5
35C
100
AcDbEntity
  8
RACCORDO
100
AcDbLine
 62
7
  6
CONTINUOUS
 10
-27.290511248
 20
1.9781437817
 11
-25.8276399325
 21
1.7202000995
  0
LINE
  5
35D
100
AcDbEntity
  8
ASSI
100
AcDbLine
 62
7
  6
CONTINUOUS
 10
-27.290511248
 20
1.9781437817
 11
-25.8276399325
 21
1.7202000995
  0
LINE
  5
35E
100
AcDbEntity
  8
DRAFT
100
AcDbLine
 62
7
  6
CONTINUOUS
 10
-24.5257888868
 20
14.6986109511
 11
-24.5257888868
 21
11.8013890489
  0
LINE
  5
35F
100
AcDbEntity
  8
DRAFT
100
AcDbLine
 62
7
  6
CONTINUOUS
 10
-24.5257888868
 20
-14.6986109511
 11
-24.5257888868
 21
-11.8013890489
  0
LINE
  5
360
100
AcDbEntity
  8
RACCORDO
100
AcDbLine
 62
7
  6
CONTINUOUS
 10
-24.1144640214
 20
14.2974685017
 11
-24.1144640214
 21
12.2025314983
  0
LINE
  5
361
100
AcDbEntity
  8
RACCORDO
100
AcDbLine
 62
7
  6
CONTINUOUS
 10
-24.1144640214
 20
-14.2974685017
 11
-24.1144640214
 21
-12.2025314983
  0
LWPOLYLINE
  5
362
100
AcDbEntity
  8
0
100
AcDbPolyline
 62
7
  6
CONTINUOUS
 90
10
 70
0
 43
0.3500000006
 10
-39.6773301544
 20
44.6369479523
 10
-39.6058989716
 20
44.4940901184
 10
-39.6058989716
 20
44.4226634674
 10
-39.7487568054
 20
44.2798056335
 10
-39.8201879883
 20
44.2798056335
 10
-39.8916146393
 20
44.3512322845
 10
-39.8916146393
 20
44.4226634674
 10
-39.8201879883
 20
44.5655167694
 10
-39.7487568054
 20
44.6369479523
 10
-39.6773301544
 20
44.6369479523
  0
LINE
  5
363
100
AcDbEntity
  8
DRAFT
100
AcDbLine
 62
7
  6
CONTINUOUS
 10
-28.1144640214
 20
10.75
 11
-27.4144640214
 21
10.75
  0
LINE
  5
364
100
AcDbEntity
  8
ASSI
100
AcDbLine
 62
7
  6
CONTINUOUS
 10
-28.1144640214
 20
10.75
 11
-27.4144640214
 21
10.75
  0
LINE
  5
365
100
AcDbEntity
  8
DRAFT
100
AcDbLine
 62
7
  6
CONTINUOUS
 10
-26.3144640214
 20
11.6045949182
 11
-27.4144640214
 21
11.45
  0
LINE
  5
366
100
AcDbEntity
  8
RACCORDO
100
AcDbLine
 62
7
  6
CONTINUOUS
 10
-24.4935296389
 20
11.8030796844
 11
-24.5257888868
 21
11.8013890489
  0
LINE
  5
367
100
AcDbEntity
  8
DRAFT
100
AcDbLine
 62
7
  6
CONTINUOUS
 10
-24.5257888868
 20
11.8013890489
 11
-25.2644640214
 21
11.7626767255
  0
LINE
  5
368
100
AcDbEntity
  8
RACCORDO
100
AcDbLine
 62
7
  6
CONTINUOUS
 10
-25.2644640214
 20
11.7626767255
 11
-27.4144640214
 21
11.65
  0
LINE
  5
369
100
AcDbEntity
  8
RACCORDO
100
AcDbLine
 62
250
  6
CONTINUOUS
 10
-27.4144640214
 20
10.95
 11
-28.1144640214
 21
10.95
  0
LINE
  5
36A
100
AcDbEntity
  8
ASSI
100
AcDbLine
 62
250
  6
CONTINUOUS
 10
-27.4144640214
 20
10.95
 11
-28.1144640214
 21
10.95
  0
LINE
  5
36B
100
AcDbEntity
  8
RACCORDO
100
AcDbLine
 62
250
  6
CONTINUOUS
 10
-27.4144640214
 20
15.55
 11
-28.1144640214
 21
15.55
  0
LINE
  5
36C
100
AcDbEntity
  8
ASSI
100
AcDbLine
 62
250
  6
CONTINUOUS
 10
-27.4144640214
 20
15.55
 11
-28.1144640214
 21
15.55
  0
LINE
  5
36D
100
AcDbEntity
  8
DRAFT
100
AcDbLine
 62
7
  6
CONTINUOUS
 10
-28.1144640214
 20
15.75
 11
-27.4144640214
 21
15.75
  0
LINE
  5
36E
100
AcDbEntity
  8
ASSI
100
AcDbLine
 62
7
  6
CONTINUOUS
 10
-28.1144640214
 20
15.75
 11
-27.4144640214
 21
15.75
  0
LINE
  5
36F
100
AcDbEntity
  8
RACCORDO
100
AcDbLine
 62
7
  6
CONTINUOUS
 10
-24.4935296389
 20
14.6969203156
 11
-24.5257888868
 21
14.6986109511
  0
LINE
  5
370
100
AcDbEntity
  8
DRAFT
100
AcDbLine
 62
7
  6
CONTINUOUS
 10
-24.5257888868
 20
14.6986109511
 11
-25.2644640214
 21
14.7373232745
  0
LINE
  5
371
100
AcDbEntity
  8
RACCORDO
100
AcDbLine
 62
7
  6
CONTINUOUS
 10
-25.2644640214
 20
14.7373232745
 11
-27.4144640214
 21
14.85
  0
LINE
  5
372
100
AcDbEntity
  8
DRAFT
100
AcDbLine
 62
7
  6
CONTINUOUS
 10
-26.3144640214
 20
14.8954050818
 11
-27.4144640214
 21
15.05
  0
LINE
  5
373
100
AcDbEntity
  8
0
100
AcDbLine
 62
250
  6
CONTINUOUS
 10
-28.1144640214
 20
25.8347065336
 11
-28.9275524955
 21
25.8134150626
  0
LINE
  5
374
100
AcDbEntity
  8
ASSI
100
AcDbLine
 62
250
  6
CONTINUOUS
 10
-28.1144640214
 20
25.8347065336
 11
-28.9275524955
 21
25.8134150626
  0
LINE
  5
375
100
AcDbEntity
  8
0
100
AcDbLine
 62
7
  6
CONTINUOUS
 10
-28.1144640214
 20
26.3345351961
 11
-28.9275524955
 21
26.3132437251
  0
LINE
  5
376
100
AcDbEntity
  8
ASSI
100
AcDbLine
 62
7
  6
CONTINUOUS
 10
-28.1144640214
 20
26.3345351961
 11
-28.9275524955
 21
26.3132437251
  0
LINE
  5
377
100
AcDbEntity
  8
COPY_PUBLISH
100
AcDbLine
 62
250
  6
CONTINUOUS
 10
-28.9275524955
 20
25.8134150626
 11
-29.4144640214
 21
25.8134150626
  0
LINE
  5
378
100
AcDbEntity
  8
ASSI
100
AcDbLine
 62
250
  6
CONTINUOUS
 10
-28.9275524955
 20
25.8134150626
 11
-29.4144640214
 21
25.8134150626
  0
LWPOLYLINE
  5
379
100
AcDbEntity
  8
0
100
AcDbPolyline
 62
7
  6
CONTINUOUS
 90
7
 70
0
 43
0.3500000006
 10
-40.6966089935
 20
37.1456377716
 10
-42.1966049194
 20
37.1456377716
 10
-40.6966089935
 20
39.2884962158
 10
-40.6966089935
 20
39.7170651855
 10
-41.1251779633
 20
40.1456386871
 10
-41.7680359497
 20
40.1456386871
 10
-42.1966049194
 20
39.5027807007
  0
LWPOLYLINE
  5
37A
100
AcDbEntity
  8
0
100
AcDbPolyline
 62
7
  6
CONTINUOUS
 90
8
 70
0
 43
0.3500000006
 10
-42.4630420532
 20
44.1369477997
 10
-41.6058995819
 20
44.1369477997
 10
-41.1773306122
 20
44.5655167694
 10
-41.1773306122
 20
45.4226637726
 10
-41.6058995819
 20
45.8512327423
 10
-42.4630420532
 20
45.8512327423
 10
-42.4630420532
 20
47.1369487152
 10
-41.1773306122
 20
47.1369487152
  0
LWPOLYLINE
  5
37B
100
AcDbEntity
  8
0
100
AcDbPolyline
 62
7
  6
CONTINUOUS
 90
6
 70
0
 43
0.3500000006
 10
-38.6058986664
 20
44.1369477997
 10
-37.5344717102
 20
44.1369477997
 10
-37.3201849594
 20
44.3512322845
 10
-37.3201849594
 20
45.4226637726
 10
-37.7487561951
 20
45.8512327423
 10
-38.1773296967
 20
45.8512327423
  0
LINE
  5
37C
100
AcDbEntity
  8
RACCORDO
100
AcDbLine
 62
250
  6
CONTINUOUS
 10
-27.4144640214
 20
25.7709349336
 11
-28.1144640214
 21
25.8321769981
  0
LINE
  5
37D
100
AcDbEntity
  8
ASSI
100
AcDbLine
 62
250
  6
CONTINUOUS
 10
-27.4144640214
 20
25.7709349336
 11
-28.1144640214
 21
25.8321769981
  0
LINE
  5
37E
100
AcDbEntity
  8
RACCORDO
100
AcDbLine
 62
7
  6
CONTINUOUS
 10
-27.4144640214
 20
26.2216232767
 11
-28.1144640214
 21
26.2828653412
  0
LINE
  5
37F
100
AcDbEntity
  8
ASSI
100
AcDbLine
 62
7
  6
CONTINUOUS
 10
-27.4144640214
 20
26.2216232767
 11
-28.1144640214
 21
26.2828653412
  0
CIRCLE
  5
380
100
AcDbEntity
  8
CURVE
100
AcDbCircle
 62
250
  6
CONTINUOUS
 10
0.000172
 20
-15.000463
 40
0.65009
  0
ARC
  5
381
100
AcDbEntity
  8
0
100
AcDbCircle
 62
7
  6
CONTINUOUS
 10
0.9
 20
-0.9
 40
0.1
100
AcDbArc
 50
270.0
 51
360.0
  0
ARC
  5
382
100
AcDbEntity
  8
0
100
AcDbCircle
 62
7
  6
CONTINUOUS
 10
-0.9
 20
-0.9
 40
0.1
100
AcDbArc
 50
180.0
 51
270.0
  0
ARC
  5
383
100
AcDbEntity
  8
0
100
AcDbCircle
 62
7
  6
CONTINUOUS
 10
-0.9
 20
0.9
 40
0.1
100
AcDbArc
 50
90.0
 51
179.9999999999
  0
ARC
  5
384
100
AcDbEntity
  8
0
100
AcDbCircle
 62
7
  6
CONTINUOUS
 10
0.9
 20
0.9
 40
0.1
100
AcDbArc
 50
0.0
 51
90.0
  0
ARC
  5
385
100
AcDbEntity
  8
DRAFT
100
AcDbCircle
 62
7
  6
CONTINUOUS
 10
0.9
 20
0.9
 40
0.1
100
AcDbArc
 50
0.0
 51
90.0
  0
ARC
  5
386
100
AcDbEntity
  8
DRAFT
100
AcDbCircle
 62
7
  6
CONTINUOUS
 10
-0.9
 20
0.9
 40
0.1
100
AcDbArc
 50
90.0
 51
180.0
  0
ARC
  5
387
100
AcDbEntity
  8
DRAFT
100
AcDbCircle
 62
7
  6
CONTINUOUS
 10
-0.9
 20
-0.9
 40
0.1
100
AcDbArc
 50
180.0
 51
270.0
  0
ARC
  5
388
100
AcDbEntity
  8
DRAFT
100
AcDbCircle
 62
7
  6
CONTINUOUS
 10
0.9
 20
-0.9
 40
0.1
100
AcDbArc
 50
270.0
 51
360.0
  0
ARC
  5
389
100
AcDbEntity
  8
ASSI
100
AcDbCircle
 62
7
  6
CONTINUOUS
 10
0.9
 20
0.9
 40
0.1
100
AcDbArc
 50
0.0
 51
90.0
  0
ARC
  5
38A
100
AcDbEntity
  8
ASSI
100
AcDbCircle
 62
7
  6
CONTINUOUS
 10
-0.9
 20
0.9
 40
0.1
100
AcDbArc
 50
90.0
 51
180.0
  0
ARC
  5
38B
100
AcDbEntity
  8
ASSI
100
AcDbCircle
 62
7
  6
CONTINUOUS
 10
-0.9
 20
-0.9
 40
0.1
100
AcDbArc
 50
180.0
 51
270.0
  0
ARC
  5
38C
100
AcDbEntity
  8
ASSI
100
AcDbCircle
 62
7
  6
CONTINUOUS
 10
0.9
 20
-0.9
 40
0.1
100
AcDbArc
 50
270.0
 51
360.0
  0
ARC
  5
38D
100
AcDbEntity
  8
COPY_PUBLISH
100
AcDbCircle
 62
7
  6
CONTINUOUS
 10
-28.9144640214
 20
25.8134150626
 40
0.5
100
AcDbArc
 50
91.5
 51
180.0
  0
ARC
  5
38E
100
AcDbEntity
  8
COPY_PUBLISH
100
AcDbCircle
 62
7
  6
CONTINUOUS
 10
-28.9144640214
 20
-25.8134150626
 40
0.5
100
AcDbArc
 50
180.0
 51
268.5
  0
ARC
  5
38F
100
AcDbEntity
  8
RACCORDO
100
AcDbCircle
 62
7
  6
CONTINUOUS
 10
-25.9144640214
 20
-1.227796223
 40
0.5
100
AcDbArc
 50
280.0
 51
360.0
  0
ARC
  5
390
100
AcDbEntity
  8
RACCORDO
100
AcDbCircle
 62
7
  6
CONTINUOUS
 10
-25.9144640214
 20
1.227796223
 40
0.5
100
AcDbArc
 50
0.0
 51
80.0
  0
ARC
  5
391
100
AcDbEntity
  8
ASSI
100
AcDbCircle
 62
7
  6
CONTINUOUS
 10
-28.9144640214
 20
25.8134150626
 40
0.5
100
AcDbArc
 50
91.5
 51
180.0
  0
ARC
  5
392
100
AcDbEntity
  8
ASSI
100
AcDbCircle
 62
7
  6
CONTINUOUS
 10
-28.9144640214
 20
-25.8134150626
 40
0.5
100
AcDbArc
 50
180.0
 51
268.5
  0
ARC
  5
393
100
AcDbEntity
  8
ASSI
100
AcDbCircle
 62
7
  6
CONTINUOUS
 10
-25.9144640214
 20
-1.227796223
 40
0.5
100
AcDbArc
 50
280.0
 51
360.0
  0
ARC
  5
394
100
AcDbEntity
  8
ASSI
100
AcDbCircle
 62
7
  6
CONTINUOUS
 10
-25.9144640214
 20
1.227796223
 40
0.5
100
AcDbArc
 50
0.0
 51
80.0
  0
ARC
  5
395
100
AcDbEntity
  8
RACCORDO
100
AcDbCircle
 62
7
  6
CONTINUOUS
 10
-24.5144640214
 20
14.2974685017
 40
0.4
100
AcDbArc
 50
0.0
 51
87.0
  0
ARC
  5
396
100
AcDbEntity
  8
RACCORDO
100
AcDbCircle
 62
7
  6
CONTINUOUS
 10
-24.5144640214
 20
12.2025314983
 40
0.4
100
AcDbArc
 50
273.0
 51
360.0
  0
ARC
  5
397
100
AcDbEntity
  8
RACCORDO
100
AcDbCircle
 62
7
  6
CONTINUOUS
 10
-24.5144640214
 20
-12.2025314983
 40
0.4
100
AcDbArc
 50
0.0
 51
87.0
  0
ARC
  5
398
100
AcDbEntity
  8
RACCORDO
100
AcDbCircle
 62
7
  6
CONTINUOUS
 10
-24.5144640214
 20
-14.2974685017
 40
0.4
100
AcDbArc
 50
273.0
 51
360.0
  0
ARC
  5
399
100
AcDbEntity
  8
RACCORDO
100
AcDbCircle
 62
7
  6
CONTINUOUS
 10
-27.2144640214
 20
11.4602070867
 40
0.2
100
AcDbArc
 50
93.0
 51
180.0
  0
ARC
  5
39A
100
AcDbEntity
  8
RACCORDO
100
AcDbCircle
 62
7
  6
CONTINUOUS
 10
-27.2144640214
 20
15.0397929133
 40
0.2
100
AcDbArc
 50
180.0
 51
267.0
  0
ARC
  5
39B
100
AcDbEntity
  8
RACCORDO
100
AcDbCircle
 62
7
  6
CONTINUOUS
 10
-27.2144640214
 20
-11.4602070867
 40
0.2
100
AcDbArc
 50
180.0
 51
267.0
  0
ARC
  5
39C
100
AcDbEntity
  8
RACCORDO
100
AcDbCircle
 62
7
  6
CONTINUOUS
 10
-27.2144640214
 20
-15.0397929133
 40
0.2
100
AcDbArc
 50
93.0
 51
180.0
  0
ARC
  5
39D
100
AcDbEntity
  8
RACCORDO
100
AcDbCircle
 62
7
  6
CONTINUOUS
 10
-27.2644640214
 20
2.1258649447
 40
0.15
100
AcDbArc
 50
180.0
 51
260.0
  0
ARC
  5
39E
100
AcDbEntity
  8
RACCORDO
100
AcDbCircle
 62
7
  6
CONTINUOUS
 10
-27.2644640214
 20
-2.1258649447
 40
0.15
100
AcDbArc
 50
100.0
 51
180.0
  0
ARC
  5
39F
100
AcDbEntity
  8
ASSI
100
AcDbCircle
 62
7
  6
CONTINUOUS
 10
-27.2644640214
 20
2.1258649447
 40
0.15
100
AcDbArc
 50
180.0
 51
260.0
  0
ARC
  5
3A0
100
AcDbEntity
  8
ASSI
100
AcDbCircle
 62
7
  6
CONTINUOUS
 10
-27.2644640214
 20
-2.1258649447
 40
0.15
100
AcDbArc
 50
100.0
 51
180.0
  0
ELLIPSE
  5
3A1
100
AcDbEntity
  8
RACCORDO
100
AcDbEllipse
 62
7
  6
CONTINUOUS
 10
-10.5343637998
 20
-25.8343637998
 30
0.0
 11
-0.35379574
 21
-0.35379574
 31
0.0
 40
0.999315002
 41
-0.7850555471
 42
0.7850555471
  0
ELLIPSE
  5
3A2
100
AcDbEntity
  8
RACCORDO
100
AcDbEllipse
 62
7
  6
CONTINUOUS
 10
-10.5343637998
 20
25.8343637998
 30
0.0
 11
0.35379574
 21
-0.35379574
 31
0.0
 40
0.999315002
 41
2.3565371065
 42
3.9266482006
  0
ELLIPSE
  5
3A3
100
AcDbEntity
  8
RACCORDO
100
AcDbEllipse
 62
7
  6
CONTINUOUS
 10
10.5343637998
 20
25.8343637998
 30
0.0
 11
0.35379574
 21
0.35379574
 31
0.0
 40
0.999315002
 41
-0.7850555471
 42
0.7850555471
  0
ELLIPSE
  5
3A4
100
AcDbEntity
  8
RACCORDO
100
AcDbEllipse
 62
7
  6
CONTINUOUS
 10
10.5343637998
 20
-25.8343637998
 30
0.0
 11
-0.35379574
 21
0.35379574
 31
0.0
 40
0.999315002
 41
2.3565371065
 42
3.9266482006
  0
ELLIPSE
  5
3A5
100
AcDbEntity
  8
ASSI
100
AcDbEllipse
 62
7
  6
CONTINUOUS
 10
10.5343637998
 20
-25.8343637998
 30
0.0
 11
-0.35379574
 21
0.35379574
 31
0.0
 40
0.999315002
 41
2.3565371065
 42
3.9266482006
  0
ELLIPSE
  5
3A6
100
AcDbEntity
  8
ASSI
100
AcDbEllipse
 62
7
  6
CONTINUOUS
 10
10.5343637998
 20
25.8343637998
 30
0.0
 11
0.35379574
 21
0.35379574
 31
0.0
 40
0.999315002
 41
-0.7850555471
 42
0.7850555471
  0
ELLIPSE
  5
3A7
100
AcDbEntity
  8
ASSI
100
AcDbEllipse
 62
7
  6
CONTINUOUS
 10
-10.5343637998
 20
25.8343637998
 30
0.0
 11
0.35379574
 21
-0.35379574
 31
0.0
 40
0.999315002
 41
2.3565371065
 42
3.9266482006
  0
ELLIPSE
  5
3A8
100
AcDbEntity
  8
ASSI
100
AcDbEllipse
 62
7
  6
CONTINUOUS
 10
-10.5343637998
 20
-25.8343637998
 30
0.0
 11
-0.35379574
 21
-0.35379574
 31
0.0
 40
0.999315002
 41
-0.7850555471
 42
0.7850555471
  0
ENDSEC
  0
SECTION
  2
OBJECTS
  0
DICTIONARY
  5
C
100
AcDbDictionary
280
0
281
1
  3
ACAD_GROUP
350
D
  3
ACAD_MLINESTYLE
350
17
  3
ACAD_LAYOUT
350
1A
  3
ACAD_PLOTSETTINGS
350
19
  3
ACAD_PLOTSTYLENAME
350
E
  0
DICTIONARY
  5
D
102
{ACAD_REACTORS
330
C
102
}
100
AcDbDictionary
280
0
281
1
  0
ACDBDICTIONARYWDFLT
  5
E
102
{ACAD_REACTORS
330
C
102
}
100
AcDbDictionary
281
1
  3
Normal
350
F
100
AcDbDictionaryWithDefault
340
F
  0
DICTIONARY
  5
17
102
{ACAD_REACTORS
330
C
102
}
100
AcDbDictionary
280
0
281
1
  3
Standard
350
18
  0
DICTIONARY
  5
19
102
{ACAD_REACTORS
330
C
102
}
100
AcDbDictionary
281
1
  0
DICTIONARY
  5
1A
102
{ACAD_REACTORS
330
C
102
}
100
AcDbDictionary
281
1
  3
Model
350
3A9
  3
Layout1
350
3AA
  0
ACDBPLACEHOLDER
  5
F
102
{ACAD_REACTORS
330
E
102
}
  0
MLINESTYLE
  5
18
102
{ACAD_REACTORS
330
17
102
}
100
AcDbMlineStyle
  2
STANDARD
 70
0
  3

 62
256
 51
90.0
 52
90.0
 71
2
 49
0.5
 62
256
  6
BYLAYER
 49
-0.5
 62
256
  6
BYLAYER
  0
LAYOUT
  5
3A9
102
{ACAD_REACTORS
330
1A
102
}
100
AcDbPlotSettings
  1

  2
none_device
  4
ISO_A4_(297.00_x_210.00_MM)
  6

 40
0.0
 41
0.0
 42
0.0
 43
0.0
 44
297.0
 45
210.0
 46
0.0
 47
0.0
 48
0.0
 49
0.0
140
0.0
141
0.0
142
1.0
143
1.0
 70
1024
 72
1
 73
0
 74
0
  7

 75
0
147
1.0
148
0.0
149
0.0
100
AcDbLayout
  1
Model
 70
0
 71
0
 10
0.0
 20
0.0
 11
297.0
 21
210.0
 12
0.0
 22
0.0
 32
0.0
 14
0.0
 24
0.0
 34
0.0
 15
0.0
 25
0.0
 35
0.0
146
0.0
 13
0.0
 23
0.0
 33
0.0
 16
1.0
 26
0.0
 36
0.0
 17
0.0
 27
1.0
 37
0.0
 76
0
330
21A
345
0
346
0
  0
LAYOUT
  5
3AA
102
{ACAD_REACTORS
330
1A
102
}
100
AcDbPlotSettings
  1

  2
none_device
  4
ISO_A4_(297.00_x_210.00_MM)
  6

 40
0.0
 41
0.0
 42
0.0
 43
0.0
 44
297.0
 45
210.0
 46
0.0
 47
0.0
 48
0.0
 49
0.0
140
0.0
141
0.0
142
1.0
143
1.0
 70
0
 72
1
 73
0
 74
0
  7

 75
0
147
1.0
148
0.0
149
0.0
100
AcDbLayout
  1
Layout1
 70
0
 71
1
 10
0.0
 20
0.0
 11
297.0
 21
210.0
 12
0.0
 22
0.0
 32
0.0
 14
0.0
 24
0.0
 34
0.0
 15
0.0
 25
0.0
 35
0.0
146
0.0
 13
0.0
 23
0.0
 33
0.0
 16
1.0
 26
0.0
 36
0.0
 17
0.0
 27
1.0
 37
0.0
 76
0
330
21B
345
0
346
0
  0
ENDSEC
  0
EOF
