  0
SECTION
  2
HEADER
  9
$ACADVER
  1
AC1024
  9
$DWGCODEPAGE
  3
ANSI_1252
  9
$EXTMAX
 10
297.0
 20
210.0
 30
0.0
  9
$EXTMIN
 10
0.0
 20
0.0
 30
0.0
  9
$LIMMIN
 10
0.0
 20
0.0
  9
$LIMMAX
 10
297.0
 20
210.0
  9
$VIEWCTR
 10
148.5
 20
105.0
  9
$VIEWSIZE
 40
210.0
  9
$CLAYER
  8
0
  9
$LTSCALE
 40
16.335
  9
$CELTYPE
  6
BYLAYER
  9
$DIMSCALE
 40
1.0
  9
$DIMASZ
 40
3.0
  9
$DIMEXO
 40
0.5
  9
$DIMDLI
 40
11.286
  9
$DIMEXE
 40
1.5
  9
$DIMCEN
 40
2.673
  9
$DIMLFAC
 40
1.0
  9
$DIMBLK
  1
_FILLED
  9
$DIMALT
 70
0
  9
$DIMALTF
 40
0.0393700787
  9
$DIMTXT
 40
3.0
  9
$DIMTOL
 70
1
  9
$DIMLIM
 70
0
  9
$DIMTFAC
 40
1.0
  9
$DIMTP
 40
0.01
  9
$DIMTM
 40
0.01
  9
$DIMGAP
 40
0.625
  9
$DIMDSEP
 70
44
  9
$AUNITS
 70
0
  9
$PDMODE
 70
3
  9
$PDSIZE
 40
3.0
  9
$HANDSEED
  5
3D2
  9
$TILEMODE
 70
1
  9
$MEASUREMENT
 70
1
  9
$INSUNITS
 70
4
  0
ENDSEC
  0
SECTION
  2
CLASSES
  0
CLASS
  1
ACDBDICTIONARYWDFLT
  2
AcDbDictionaryWithDefault
  3
AutoCAD 2000
 90
0
 91
1
280
0
281
0
  0
CLASS
  1
ACDBPLACEHOLDER
  2
AcDbPlaceHolder
  3
AutoCAD 2000
 90
0
 91
1
280
0
281
0
  0
CLASS
  1
LAYOUT
  2
AcDbLayout
  3
AutoCAD 2000
 90
0
 91
0
280
0
281
0
  0
ENDSEC
  0
SECTION
  2
TABLES
  0
TABLE
  2
VPORT
  5
8
100
AcDbSymbolTable
 70
2
  0
VPORT
  5
1F4
100
AcDbSymbolTableRecord
100
AcDbViewportTableRecord
  2
*ACTIVE
 70
0
 10
0.0
 20
0.0
 11
1.0
 21
1.0
 12
148.5
 22
105.0
 13
0.0
 23
0.0
 14
1.0
 24
1.0
 15
0.0
 25
0.0
 16
0.0
 26
0.0
 36
1.0
 17
0.0
 27
0.0
 37
0.0
 40
210.0
 41
1.4142857143
 42
50.0
 43
0.0
 44
0.0
 50
0.0
 51
0.0
 71
0
 72
100
 73
1
 74
1
 75
0
 76
0
 77
0
 78
0
  0
ENDTAB
  0
TABLE
  2
LTYPE
  5
5
100
AcDbSymbolTable
 70
6
  0
LTYPE
  5
14
100
AcDbSymbolTableRecord
100
AcDbLinetypeTableRecord
  2
BYBLOCK
 70
0
  3

 72
65
 73
0
 40
0.0
  0
LTYPE
  5
15
100
AcDbSymbolTableRecord
100
AcDbLinetypeTableRecord
  2
BYLAYER
 70
0
  3

 72
65
 73
0
 40
0.0
  0
LTYPE
  5
16
100
AcDbSymbolTableRecord
100
AcDbLinetypeTableRecord
  2
CONTINUOUS
 70
64
  3
Solid line
 72
65
 73
0
 40
0.0
  0
LTYPE
  5
1F5
100
AcDbSymbolTableRecord
100
AcDbLinetypeTableRecord
  2
CENTER
 70
64
  3
____ _ ____ _ ____ _ ____ _ ____ _ ____ _ ____
 72
65
 73
4
 40
0.6
 49
0.375
 74
0
 49
-0.075
 74
0
 49
0.075
 74
0
 49
-0.075
 74
0
  0
LTYPE
  5
1F6
100
AcDbSymbolTableRecord
100
AcDbLinetypeTableRecord
  2
HIDDEN
 70
64
  3
- - - - - - - - - - - - - - - - - - - -
 72
65
 73
2
 40
0.2
 49
0.1
 74
0
 49
-0.1
 74
0
  0
LTYPE
  5
1F7
100
AcDbSymbolTableRecord
100
AcDbLinetypeTableRecord
  2
PHANTOM
 70
64
  3
_____ _ _ _____ _ _ _____ _ _ _____
 72
65
 73
6
 40
0.8
 49
0.45
 74
0
 49
-0.05
 74
0
 49
0.1
 74
0
 49
-0.05
 74
0
 49
0.1
 74
0
 49
-0.05
 74
0
  0
LTYPE
  5
1F8
100
AcDbSymbolTableRecord
100
AcDbLinetypeTableRecord
  2
DOT
 70
64
  3
. . . . . . . . . . . . . . . . . . . .
 72
65
 73
2
 40
0.2
 49
0.1
 74
0
 49
-0.1
 74
0
  0
LTYPE
  5
1F9
100
AcDbSymbolTableRecord
100
AcDbLinetypeTableRecord
  2
DASHED
 70
64
  3
- - - - - - - - - - - - - - - - - - - -
 72
65
 73
2
 40
0.2
 49
0.1
 74
0
 49
-0.1
 74
0
  0
ENDTAB
  0
TABLE
  2
LAYER
  5
2
100
AcDbSymbolTable
 70
36
  0
LAYER
  5
10
100
AcDbSymbolTableRecord
100
AcDbLayerTableRecord
  2
0
 70
0
 62
7
  6
CONTINUOUS
370
-3
390
F
  0
LAYER
  5
1FA
100
AcDbSymbolTableRecord
100
AcDbLayerTableRecord
  2
DEFAULT_1
 70
0
 62
7
  6
CENTER
370
-3
390
F
  0
LAYER
  5
1FB
100
AcDbSymbolTableRecord
100
AcDbLayerTableRecord
  2
DEFAULT_2
 70
0
 62
7
  6
HIDDEN
370
-3
390
F
  0
LAYER
  5
1FC
100
AcDbSymbolTableRecord
100
AcDbLayerTableRecord
  2
DEFAULT_3
 70
0
 62
7
  6
PHANTOM
370
-3
390
F
  0
LAYER
  5
1FD
100
AcDbSymbolTableRecord
100
AcDbLayerTableRecord
  2
ASSI
 70
0
 62
7
  6
CONTINUOUS
370
-3
390
F
  0
LAYER
  5
1FE
100
AcDbSymbolTableRecord
100
AcDbLayerTableRecord
  2
COORDINATE
 70
0
 62
7
  6
CONTINUOUS
370
-3
390
F
  0
LAYER
  5
1FF
100
AcDbSymbolTableRecord
100
AcDbLayerTableRecord
  2
COPY_PUBLISH
 70
0
 62
7
  6
CONTINUOUS
370
-3
390
F
  0
LAYER
  5
200
100
AcDbSymbolTableRecord
100
AcDbLayerTableRecord
  2
COSMETICI
 70
0
 62
7
  6
CONTINUOUS
370
-3
390
F
  0
LAYER
  5
201
100
AcDbSymbolTableRecord
100
AcDbLayerTableRecord
  2
CURVE
 70
0
 62
7
  6
CONTINUOUS
370
-3
390
F
  0
LAYER
  5
202
100
AcDbSymbolTableRecord
100
AcDbLayerTableRecord
  2
DRAFT
 70
0
 62
7
  6
CONTINUOUS
370
-3
390
F
  0
LAYER
  5
203
100
AcDbSymbolTableRecord
100
AcDbLayerTableRecord
  2
IMPORT_IGES
 70
0
 62
7
  6
CONTINUOUS
370
-3
390
F
  0
LAYER
  5
204
100
AcDbSymbolTableRecord
100
AcDbLayerTableRecord
  2
INTF_1
 70
0
 62
7
  6
CONTINUOUS
370
-3
390
F
  0
LAYER
  5
205
100
AcDbSymbolTableRecord
100
AcDbLayerTableRecord
  2
INTF_2
 70
0
 62
7
  6
CONTINUOUS
370
-3
390
F
  0
LAYER
  5
206
100
AcDbSymbolTableRecord
100
AcDbLayerTableRecord
  2
INTF_3
 70
0
 62
7
  6
CONTINUOUS
370
-3
390
F
  0
LAYER
  5
207
100
AcDbSymbolTableRecord
100
AcDbLayerTableRecord
  2
INTF_4
 70
0
 62
7
  6
CONTINUOUS
370
-3
390
F
  0
LAYER
  5
208
100
AcDbSymbolTableRecord
100
AcDbLayerTableRecord
  2
INTF_5
 70
0
 62
7
  6
CONTINUOUS
370
-3
390
F
  0
LAYER
  5
209
100
AcDbSymbolTableRecord
100
AcDbLayerTableRecord
  2
INTF_6
 70
0
 62
7
  6
CONTINUOUS
370
-3
390
F
  0
LAYER
  5
20A
100
AcDbSymbolTableRecord
100
AcDbLayerTableRecord
  2
INTF_7
 70
0
 62
7
  6
CONTINUOUS
370
-3
390
F
  0
LAYER
  5
20B
100
AcDbSymbolTableRecord
100
AcDbLayerTableRecord
  2
INTF_9
 70
0
 62
7
  6
CONTINUOUS
370
-3
390
F
  0
LAYER
  5
20C
100
AcDbSymbolTableRecord
100
AcDbLayerTableRecord
  2
INTF_BLANK
 70
0
 62
7
  6
CONTINUOUS
370
-3
390
F
  0
LAYER
  5
20D
100
AcDbSymbolTableRecord
100
AcDbLayerTableRecord
  2
INTF_RED
 70
0
 62
7
  6
CONTINUOUS
370
-3
390
F
  0
LAYER
  5
20E
100
AcDbSymbolTableRecord
100
AcDbLayerTableRecord
  2
NOTE
 70
0
 62
7
  6
CONTINUOUS
370
-3
390
F
  0
LAYER
  5
20F
100
AcDbSymbolTableRecord
100
AcDbLayerTableRecord
  2
PIANI
 70
0
 62
7
  6
CONTINUOUS
370
-3
390
F
  0
LAYER
  5
210
100
AcDbSymbolTableRecord
100
AcDbLayerTableRecord
  2
PUNTI
 70
0
 62
7
  6
CONTINUOUS
370
-3
390
F
  0
LAYER
  5
211
100
AcDbSymbolTableRecord
100
AcDbLayerTableRecord
  2
RACCORDO
 70
0
 62
7
  6
CONTINUOUS
370
-3
390
F
  0
LAYER
  5
212
100
AcDbSymbolTableRecord
100
AcDbLayerTableRecord
  2
RGB____0____0____0__
 70
0
 62
7
  6
CONTINUOUS
370
-3
390
F
  0
LAYER
  5
213
100
AcDbSymbolTableRecord
100
AcDbLayerTableRecord
  2
SIMBOLI
 70
0
 62
7
  6
CONTINUOUS
370
-3
390
F
  0
LAYER
  5
214
100
AcDbSymbolTableRecord
100
AcDbLayerTableRecord
  2
SMUSSO
 70
0
 62
7
  6
CONTINUOUS
370
-3
390
F
  0
LAYER
  5
215
100
AcDbSymbolTableRecord
100
AcDbLayerTableRecord
  2
SNAPLINE
 70
0
 62
7
  6
CONTINUOUS
370
-3
390
F
  0
LAYER
  5
216
100
AcDbSymbolTableRecord
100
AcDbLayerTableRecord
  2
SUPERFICI
 70
0
 62
7
  6
CONTINUOUS
370
-3
390
F
  0
LAYER
  5
217
100
AcDbSymbolTableRecord
100
AcDbLayerTableRecord
  2
TRASH
 70
0
 62
7
  6
CONTINUOUS
370
-3
390
F
  0
ENDTAB
  0
TABLE
  2
STYLE
  5
3
100
AcDbSymbolTable
 70
1
  0
STYLE
  5
11
100
AcDbSymbolTableRecord
100
AcDbTextStyleTableRecord
  2
STANDARD
 70
0
 40
0.0
 41
0.8
 50
0.0
 71
0
 42
0.2
  3
txt
  4

  0
STYLE
  5
218
100
AcDbSymbolTableRecord
100
AcDbTextStyleTableRecord
  2
TEXTSTYLE_1
 70
0
 40
0.0
 41
0.8
 50
0.0
 71
0
 42
0.2
  3
gdt
  4

  0
ENDTAB
  0
TABLE
  2
VIEW
  5
6
100
AcDbSymbolTable
 70
0
  0
ENDTAB
  0
TABLE
  2
UCS
  5
7
100
AcDbSymbolTable
 70
0
  0
ENDTAB
  0
TABLE
  2
APPID
  5
9
100
AcDbSymbolTable
 70
1
  0
APPID
  5
219
100
AcDbSymbolTableRecord
100
AcDbRegAppTableRecord
  2
ACAD
 70
0
  0
ENDTAB
  0
TABLE
  2
BLOCK_RECORD
  5
1
100
AcDbSymbolTable
 70
0
  0
BLOCK_RECORD
  5
21A
100
AcDbSymbolTableRecord
100
AcDbBlockTableRecord
  2
*Model_Space
  0
BLOCK_RECORD
  5
21B
100
AcDbSymbolTableRecord
100
AcDbBlockTableRecord
  2
*Paper_Space
  0
BLOCK_RECORD
  5
21C
100
AcDbSymbolTableRecord
100
AcDbBlockTableRecord
  2
_FILLED
  0
BLOCK_RECORD
  5
21D
100
AcDbSymbolTableRecord
100
AcDbBlockTableRecord
  2
*D0
  0
BLOCK_RECORD
  5
21E
100
AcDbSymbolTableRecord
100
AcDbBlockTableRecord
  2
*D1
  0
BLOCK_RECORD
  5
21F
100
AcDbSymbolTableRecord
100
AcDbBlockTableRecord
  2
*D2
  0
BLOCK_RECORD
  5
220
100
AcDbSymbolTableRecord
100
AcDbBlockTableRecord
  2
*D3
  0
ENDTAB
  0
TABLE
  2
DIMSTYLE
  5
A
100
AcDbSymbolTable
 70
1
100
AcDbDimStyleTable
 71
0
  0
DIMSTYLE
105
221
100
AcDbSymbolTableRecord
100
AcDbDimStyleTableRecord
  2
STANDARD
 70
0
  3

  4

 40
1.0
 41
3.0
 42
0.5
 43
0.38
 44
1.5
 45
0.0
 46
0.0
 47
0.01
 48
0.01
140
3.0
141
0.09
142
0.0
143
25.4
144
1.0
145
0.0
146
1.0
147
0.625
 71
1
 72
0
 73
0
 74
0
 75
0
 76
0
 77
1
 78
8
 79
2
170
0
171
1
172
0
173
0
174
0
175
0
176
0
177
0
178
0
270
2
179
2
271
2
272
2
273
2
274
2
275
0
280
0
281
0
282
0
283
1
284
8
285
0
286
0
287
3
288
0
340
11
278
44
341
21C
342
21C
343
21C
344
21C
  0
DIMSTYLE
105
222
100
AcDbSymbolTableRecord
100
AcDbDimStyleTableRecord
  2
DIMSTYLE_1
 70
0
  3

  4

 40
1.0
 41
3.0
 42
0.5
 43
0.38
 44
1.5
 45
0.0
 46
0.0
 47
0.0
 48
0.0
140
3.0
141
0.09
142
0.0
143
25.4
144
1.0
145
0.0
146
1.0
147
0.75
 71
0
 72
0
 73
0
 74
0
 75
0
 76
0
 77
1
 78
8
 79
2
170
0
171
1
172
0
173
0
174
0
175
0
176
0
177
0
178
0
270
2
179
2
271
1
272
1
273
2
274
2
275
0
280
0
281
0
282
0
283
1
284
8
285
0
286
0
287
3
288
0
340
11
278
44
341
21C
342
21C
343
21C
344
21C
  0
DIMSTYLE
105
223
100
AcDbSymbolTableRecord
100
AcDbDimStyleTableRecord
  2
DIMSTYLE_2
 70
0
  3

  4

 40
1.0
 41
3.0
 42
0.5
 43
0.38
 44
1.5
 45
0.0
 46
0.0
 47
0.0
 48
0.0
140
3.0
141
0.09
142
0.0
143
25.4
144
1.0
145
0.0
146
1.0
147
0.75
 71
0
 72
0
 73
0
 74
0
 75
0
 76
0
 77
1
 78
8
 79
2
170
0
171
1
172
0
173
0
174
0
175
0
176
0
177
0
178
0
270
2
179
2
271
2
272
2
273
2
274
2
275
0
280
0
281
0
282
0
283
1
284
8
285
0
286
0
287
3
288
0
340
11
278
44
341
21C
342
21C
343
21C
344
21C
  0
ENDTAB
  0
ENDSEC
  0
SECTION
  2
BLOCKS
  0
BLOCK
  5
20
100
AcDbEntity
  8
0
100
AcDbBlockBegin
  2
*Model_Space
 70
0
 10
0.0
 20
0.0
 30
0.0
  3
*Model_Space
  1

  0
ENDBLK
  5
21
100
AcDbEntity
  8
0
100
AcDbBlockEnd
  0
BLOCK
  5
1C
100
AcDbEntity
  8
0
100
AcDbBlockBegin
  2
*Paper_Space
 70
0
 10
0.0
 20
0.0
 30
0.0
  3
*Paper_Space
  1

  0
ENDBLK
  5
1D
100
AcDbEntity
  8
0
100
AcDbBlockEnd
  0
BLOCK
  5
224
100
AcDbEntity
  8
0
100
AcDbBlockBegin
  2
_FILLED
 70
64
 10
0.0
 20
0.0
  3
_FILLED
  1

  0
SOLID
  5
225
100
AcDbEntity
  8
0
  6
BYBLOCK
 62
0
100
AcDbTrace
 10
0.0
 20
0.0
 11
-1.0
 21
0.3166666667
 12
-1.0
 22
-0.3166666667
 13
-1.0
 23
-0.3166666667
  0
ENDBLK
  5
226
100
AcDbEntity
  8
0
  6
BYBLOCK
 62
0
100
AcDbBlockEnd
  0
BLOCK
  5
227
100
AcDbEntity
  8
0
100
AcDbBlockBegin
 62
7
  6
CONTINUOUS
  2
*D0
 70
65
 10
0.0
 20
0.0
  3
*D0
  1

  0
LINE
  5
228
100
AcDbEntity
  8
0
100
AcDbLine
 62
7
  6
CONTINUOUS
 10
11.0345351961
 20
26.3347065336
 11
11.0345351961
 21
37.9
  0
LINE
  5
229
100
AcDbEntity
  8
0
100
AcDbLine
 62
7
  6
CONTINUOUS
 10
-11.0345351961
 20
26.3347065336
 11
-11.0345351961
 21
37.9
  0
LINE
  5
22A
100
AcDbEntity
  8
0
100
AcDbLine
 62
7
  6
CONTINUOUS
 10
11.0345351961
 20
36.4
 11
-0.0
 21
36.4
  0
LINE
  5
22B
100
AcDbEntity
  8
0
100
AcDbLine
 62
7
  6
CONTINUOUS
 10
-11.0345351961
 20
36.4
 11
-0.0
 21
36.4
  0
INSERT
  5
22C
100
AcDbEntity
  8
0
100
AcDbBlockReference
 62
7
  6
CONTINUOUS
  2
_FILLED
 10
11.0345351961
 20
36.4
 41
3.0
 42
3.0
 43
3.0
  0
INSERT
  5
22D
100
AcDbEntity
  8
0
100
AcDbBlockReference
 62
7
  6
CONTINUOUS
  2
_FILLED
 10
-11.0345351961
 20
36.4
 41
3.0
 42
3.0
 43
3.0
 50
180.0
  0
ENDBLK
  5
22E
100
AcDbEntity
  8
0
  6
BYBLOCK
 62
0
100
AcDbBlockEnd
  0
BLOCK
  5
22F
100
AcDbEntity
  8
0
100
AcDbBlockBegin
 62
7
  6
CONTINUOUS
  2
*D1
 70
65
 10
0.0
 20
0.0
  3
*D1
  1

  0
LINE
  5
230
100
AcDbEntity
  8
0
100
AcDbLine
 62
7
  6
CONTINUOUS
 10
11.0347065336
 20
26.3345351961
 11
22.6
 21
26.3345351961
  0
LINE
  5
231
100
AcDbEntity
  8
0
100
AcDbLine
 62
7
  6
CONTINUOUS
 10
11.0347065336
 20
-26.3345351961
 11
22.6
 21
-26.3345351961
  0
LINE
  5
232
100
AcDbEntity
  8
0
100
AcDbLine
 62
7
  6
CONTINUOUS
 10
21.1
 20
26.3345351961
 11
21.1
 21
0.0
  0
LINE
  5
233
100
AcDbEntity
  8
0
100
AcDbLine
 62
7
  6
CONTINUOUS
 10
21.1
 20
-26.3345351961
 11
21.1
 21
0.0
  0
INSERT
  5
234
100
AcDbEntity
  8
0
100
AcDbBlockReference
 62
7
  6
CONTINUOUS
  2
_FILLED
 10
21.1
 20
26.3345351961
 41
3.0
 42
3.0
 43
3.0
 50
90.0
  0
INSERT
  5
235
100
AcDbEntity
  8
0
100
AcDbBlockReference
 62
7
  6
CONTINUOUS
  2
_FILLED
 10
21.1
 20
-26.3345351961
 41
3.0
 42
3.0
 43
3.0
 50
270.0
  0
ENDBLK
  5
236
100
AcDbEntity
  8
0
  6
BYBLOCK
 62
0
100
AcDbBlockEnd
  0
BLOCK
  5
237
100
AcDbEntity
  8
0
100
AcDbBlockBegin
 62
7
  6
CONTINUOUS
  2
*D2
 70
65
 10
0.0
 20
0.0
  3
*D2
  1

  0
LINE
  5
238
100
AcDbEntity
  8
0
100
AcDbLine
 62
7
  6
CONTINUOUS
 10
-22.1963748355
 20
26.3134150626
 11
-22.1963748355
 21
44.5025109443
  0
LINE
  5
239
100
AcDbEntity
  8
0
100
AcDbLine
 62
7
  6
CONTINUOUS
 10
-16.8963748355
 20
14.7974685017
 11
-16.8963748355
 21
44.5025109443
  0
LINE
  5
23A
100
AcDbEntity
  8
0
100
AcDbLine
 62
7
  6
CONTINUOUS
 10
-22.1963748355
 20
43.0025109443
 11
-35.4740171831
 21
43.0025109443
  0
LINE
  5
23B
100
AcDbEntity
  8
0
100
AcDbLine
 62
7
  6
CONTINUOUS
 10
-35.4740171831
 20
43.0025109443
 11
-19.5463748355
 21
43.0025109443
  0
LINE
  5
23C
100
AcDbEntity
  8
0
100
AcDbLine
 62
7
  6
CONTINUOUS
 10
-16.8963748355
 20
43.0025109443
 11
-12.8963748355
 21
43.0025109443
  0
LINE
  5
23D
100
AcDbEntity
  8
0
100
AcDbLine
 62
7
  6
CONTINUOUS
 10
-12.8963748355
 20
43.0025109443
 11
-19.5463748355
 21
43.0025109443
  0
INSERT
  5
23E
100
AcDbEntity
  8
0
100
AcDbBlockReference
 62
7
  6
CONTINUOUS
  2
_FILLED
 10
-22.1963748355
 20
43.0025109443
 41
3.0
 42
3.0
 43
3.0
  0
INSERT
  5
23F
100
AcDbEntity
  8
0
100
AcDbBlockReference
 62
7
  6
CONTINUOUS
  2
_FILLED
 10
-16.8963748355
 20
43.0025109443
 41
3.0
 42
3.0
 43
3.0
 50
180.0
  0
ENDBLK
  5
240
100
AcDbEntity
  8
0
  6
BYBLOCK
 62
0
100
AcDbBlockEnd
  0
BLOCK
  5
241
100
AcDbEntity
  8
0
100
AcDbBlockBegin
 62
7
  6
CONTINUOUS
  2
*D3
 70
65
 10
0.0
 20
0.0
  3
*D3
  1

  0
LINE
  5
242
100
AcDbEntity
  8
0
100
AcDbLine
 62
7
  6
CONTINUOUS
 10
-20.1963748355
 20
26.2709349336
 11
-20.1963748355
 21
38.0306947368
  0
LINE
  5
243
100
AcDbEntity
  8
0
100
AcDbLine
 62
7
  6
CONTINUOUS
 10
-22.1963748355
 20
26.3134150626
 11
-22.1963748355
 21
38.0306947368
  0
LINE
  5
244
100
AcDbEntity
  8
0
100
AcDbLine
 62
7
  6
CONTINUOUS
 10
-20.1963748355
 20
36.5306947368
 11
-16.1963748355
 21
36.5306947368
  0
LINE
  5
245
100
AcDbEntity
  8
0
100
AcDbLine
 62
7
  6
CONTINUOUS
 10
-16.1963748355
 20
36.5306947368
 11
-21.1963748355
 21
36.5306947368
  0
LINE
  5
246
100
AcDbEntity
  8
0
100
AcDbLine
 62
7
  6
CONTINUOUS
 10
-22.1963748355
 20
36.5306947368
 11
-34.9785176927
 21
36.5306947368
  0
LINE
  5
247
100
AcDbEntity
  8
0
100
AcDbLine
 62
7
  6
CONTINUOUS
 10
-34.9785176927
 20
36.5306947368
 11
-21.1963748355
 21
36.5306947368
  0
INSERT
  5
248
100
AcDbEntity
  8
0
100
AcDbBlockReference
 62
7
  6
CONTINUOUS
  2
_FILLED
 10
-20.1963748355
 20
36.5306947368
 41
3.0
 42
3.0
 43
3.0
 50
180.0
  0
INSERT
  5
249
100
AcDbEntity
  8
0
100
AcDbBlockReference
 62
7
  6
CONTINUOUS
  2
_FILLED
 10
-22.1963748355
 20
36.5306947368
 41
3.0
 42
3.0
 43
3.0
  0
ENDBLK
  5
24A
100
AcDbEntity
  8
0
  6
BYBLOCK
 62
0
100
AcDbBlockEnd
  0
ENDSEC
  0
SECTION
  2
ENTITIES
  0
DIMENSION
  5
24B
100
AcDbEntity
  8
0
100
AcDbDimension
 62
7
  6
CONTINUOUS
  2
*D0
 10
-11.0345351961
 20
36.4
 11
-4.0714285714
 21
36.4
 70
160
 71
2
 72
2
 41
0.9
 42
22.0690703922
  3
DIMSTYLE_1
100
AcDbAlignedDimension
 13
11.0345351961
 23
25.8347065336
 14
-11.0345351961
 24
25.8347065336
 50
180.0
100
AcDbRotatedDimension
  0
DIMENSION
  5
24C
100
AcDbEntity
  8
0
100
AcDbDimension
 62
7
  6
CONTINUOUS
  2
*D1
 10
21.1
 20
-26.3345351961
 11
21.1
 21
-4.2857142857
 70
160
 71
2
 72
2
 41
0.9
 42
52.6690703922
  3
DIMSTYLE_1
100
AcDbAlignedDimension
 13
10.5347065336
 23
26.3345351961
 14
10.5347065336
 24
-26.3345351961
 50
270.0
100
AcDbRotatedDimension
  0
DIMENSION
  5
24D
100
AcDbEntity
  8
0
100
AcDbDimension
 62
7
  6
CONTINUOUS
  2
*D2
 10
-16.8963748355
 20
43.0025109443
 11
-35.4740171831
 21
43.0025109443
 70
160
 71
3
 72
2
 41
0.9
 42
5.3
  3
DIMSTYLE_2
100
AcDbAlignedDimension
 13
-22.1963748355
 23
25.8134150626
 14
-16.8963748355
 24
14.2974685017
100
AcDbRotatedDimension
  0
DIMENSION
  5
24E
100
AcDbEntity
  8
0
100
AcDbDimension
 62
7
  6
CONTINUOUS
  2
*D3
 10
-22.1963748355
 20
36.5306947368
 11
-34.9785176927
 21
36.5306947368
 70
160
 71
3
 72
2
 41
0.9
 42
2.0
  3
DIMSTYLE_2
100
AcDbAlignedDimension
 13
-20.1963748355
 23
25.7709349336
 14
-22.1963748355
 24
25.8134150626
 50
180.0
100
AcDbRotatedDimension
  0
LWPOLYLINE
  5
24F
100
AcDbEntity
  8
0
100
AcDbPolyline
 62
7
  6
CONTINUOUS
 90
3
 70
0
 43
0.3500000006
 10
2.3571427875
 20
39.2928558655
 10
3.2142856836
 20
40.1499983368
 10
3.2142856836
 20
37.1500019531
  0
LINE
  5
250
100
AcDbEntity
  8
0
100
AcDbLine
 62
7
  6
CONTINUOUS
 10
-10.5347065336
 20
-26.3345351961
 11
10.5347065336
 21
-26.3345351961
  0
LINE
  5
251
100
AcDbEntity
  8
ASSI
100
AcDbLine
 62
7
  6
CONTINUOUS
 10
-10.5347065336
 20
-26.3345351961
 11
10.5347065336
 21
-26.3345351961
  0
LINE
  5
252
100
AcDbEntity
  8
COPY_PUBLISH
100
AcDbLine
 62
250
  6
CONTINUOUS
 10
-10.5134150626
 20
-26.3132437251
 11
10.5134150626
 21
-26.3132437251
  0
LINE
  5
253
100
AcDbEntity
  8
ASSI
100
AcDbLine
 62
250
  6
CONTINUOUS
 10
-10.5134150626
 20
-26.3132437251
 11
10.5134150626
 21
-26.3132437251
  0
LINE
  5
254
100
AcDbEntity
  8
COPY_PUBLISH
100
AcDbLine
 62
250
  6
CONTINUOUS
 10
11.0132437251
 20
-25.8134150626
 11
-11.0132437251
 21
-25.8134150626
  0
LINE
  5
255
100
AcDbEntity
  8
ASSI
100
AcDbLine
 62
250
  6
CONTINUOUS
 10
-11.0132437251
 20
-25.8134150626
 11
11.0132437251
 21
-25.8134150626
  0
LWPOLYLINE
  5
256
100
AcDbEntity
  8
CURVE
100
AcDbPolyline
 62
250
  6
CONTINUOUS
 90
55
 70
0
 10
3.077503797
 20
-18.5513224237
 10
3.0788147996
 20
-18.5512954435
 10
3.0801305657
 20
-18.5512152462
 10
3.0814499801
 20
-18.5510829469
 10
3.082771928
 20
-18.5508996604
 10
3.0840952942
 20
-18.5506665019
 10
3.0854189638
 20
-18.5503845864
 10
3.0867418218
 20
-18.5500550288
 10
3.0880627531
 20
-18.5496789442
 10
3.0893806427
 20
-18.5492574476
 10
3.0906943757
 20
-18.548791654
 10
3.092002837
 20
-18.5482826783
 10
3.0933049116
 20
-18.5477316357
 10
3.0945994845
 20
-18.5471396411
 10
3.0958854407
 20
-18.5465078096
 10
3.0971616652
 20
-18.545837256
 10
3.098427043
 20
-18.5451290955
 10
3.099680459
 20
-18.5443844431
 10
3.1009207983
 20
-18.5436044138
 10
3.1021469458
 20
-18.5427901225
 10
3.1033577866
 20
-18.5419426843
 10
3.1045522056
 20
-18.5410632142
 10
3.1057290878
 20
-18.5401528272
 10
3.1068873183
 20
-18.5392126383
 10
3.1080257819
 20
-18.5382437625
 10
3.1091433637
 20
-18.5372473149
 10
3.1102389487
 20
-18.5362244104
 10
3.1113114219
 20
-18.5351761641
 10
3.1123596682
 20
-18.5341036909
 10
3.1133825727
 20
-18.5330081059
 10
3.1143790203
 20
-18.5318905241
 10
3.1153478961
 20
-18.5307520605
 10
3.1162880849
 20
-18.5295938301
 10
3.1171984719
 20
-18.5284169478
 10
3.118077942
 20
-18.5272225288
 10
3.1189253802
 20
-18.5260116881
 10
3.1197396715
 20
-18.5247855405
 10
3.1205197009
 20
-18.5235452012
 10
3.1212643533
 20
-18.5222917852
 10
3.1219725138
 20
-18.5210264074
 10
3.1226430673
 20
-18.519750183
 10
3.1232748989
 20
-18.5184642267
 10
3.1238668935
 20
-18.5171696538
 10
3.1244179361
 20
-18.5158675792
 10
3.1249269117
 20
-18.5145591179
 10
3.1253927054
 20
-18.5132453849
 10
3.125814202
 20
-18.5119274953
 10
3.1261902866
 20
-18.510606564
 10
3.1265198442
 20
-18.509283706
 10
3.1268017597
 20
-18.5079600364
 10
3.1270349182
 20
-18.5066366702
 10
3.1272182046
 20
-18.5053147224
 10
3.127350504
 20
-18.5039953079
 10
3.1274307013
 20
-18.5026795419
 10
3.1274576815
 20
-18.5013685392
  0
LWPOLYLINE
  5
257
100
AcDbEntity
  8
CURVE
100
AcDbPolyline
 62
250
  6
CONTINUOUS
 90
37
 70
0
 10
2.5259440098
 20
-17.4516479449
 10
2.5270877534
 20
-17.4516326233
 10
2.5282357545
 20
-17.4515869071
 10
2.5293871232
 20
-17.4515111688
 10
2.5305409699
 20
-17.451405781
 10
2.5316964048
 20
-17.4512711165
 10
2.5328525381
 20
-17.4511075477
 10
2.5340084801
 20
-17.4509154474
 10
2.535163341
 20
-17.4506951881
 10
2.536316231
 20
-17.4504471424
 10
2.5374662605
 20
-17.4501716831
 10
2.5386125395
 20
-17.4498691826
 10
2.5397541785
 20
-17.4495400136
 10
2.5408902875
 20
-17.4491845488
 10
2.542019977
 20
-17.4488031608
 10
2.543142357
 20
-17.4483962221
 10
2.5442565378
 20
-17.4479641055
 10
2.5453616298
 20
-17.4475071834
 10
2.5464567431
 20
-17.4470258286
 10
2.5475409879
 20
-17.4465204137
 10
2.5486134746
 20
-17.4459913112
 10
2.5496733133
 20
-17.4454388939
 10
2.5507196143
 20
-17.4448635342
 10
2.5517514879
 20
-17.4442656049
 10
2.5527680442
 20
-17.4436454786
 10
2.5537683936
 20
-17.4430035279
 10
2.5547516462
 20
-17.4423401253
 10
2.5557169123
 20
-17.4416556436
 10
2.5566633022
 20
-17.4409504554
 10
2.5575899261
 20
-17.4402249332
 10
2.5584958942
 20
-17.4394794496
 10
2.5593803167
 20
-17.4387143774
 10
2.560242304
 20
-17.4379300891
 10
2.5610809663
 20
-17.4371269574
 10
2.5618954137
 20
-17.4363053548
 10
2.5626847566
 20
-17.4354656541
 10
2.5634481052
 20
-17.4346082277
  0
LINE
  5
258
100
AcDbEntity
  8
CURVE
100
AcDbLine
 62
250
  6
CONTINUOUS
 10
-3.3227945955
 20
-18.5513224237
 11
3.077503797
 21
-18.5513224237
  0
LINE
  5
259
100
AcDbEntity
  8
CURVE
100
AcDbLine
 62
250
  6
CONTINUOUS
 10
3.077503797
 20
-18.0514390688
 11
-2.9221299906
 21
-18.0514390688
  0
LINE
  5
25A
100
AcDbEntity
  8
CURVE
100
AcDbLine
 62
250
  6
CONTINUOUS
 10
2.0043565533
 20
-17.4516479449
 11
2.5259440098
 21
-17.4516479449
  0
LWPOLYLINE
  5
25B
100
AcDbEntity
  8
CURVE
100
AcDbPolyline
 62
250
  6
CONTINUOUS
 90
55
 70
0
 10
0.70968967
 20
-15.8262518949
 10
0.7083786673
 20
-15.8262788751
 10
0.7070629013
 20
-15.8263590724
 10
0.7057434868
 20
-15.8264913718
 10
0.704421539
 20
-15.8266746582
 10
0.7030981727
 20
-15.8269078167
 10
0.7017745031
 20
-15.8271897323
 10
0.7004516452
 20
-15.8275192898
 10
0.6991307139
 20
-15.8278953744
 10
0.6978128242
 20
-15.8283168711
 10
0.6964990913
 20
-15.8287826647
 10
0.69519063
 20
-15.8292916403
 10
0.6938885553
 20
-15.8298426829
 10
0.6925939824
 20
-15.8304346775
 10
0.6913080262
 20
-15.8310665091
 10
0.6900318017
 20
-15.8317370626
 10
0.688766424
 20
-15.8324452231
 10
0.6875130079
 20
-15.8331898755
 10
0.6862726686
 20
-15.8339699049
 10
0.6850465211
 20
-15.8347841962
 10
0.6838356803
 20
-15.8356316344
 10
0.6826412613
 20
-15.8365111045
 10
0.6814643791
 20
-15.8374214915
 10
0.6803061487
 20
-15.8383616804
 10
0.6791676851
 20
-15.8393305561
 10
0.6780501032
 20
-15.8403270037
 10
0.6769545182
 20
-15.8413499082
 10
0.6758820451
 20
-15.8423981546
 10
0.6748337987
 20
-15.8434706277
 10
0.6738108943
 20
-15.8445662127
 10
0.6728144466
 20
-15.8456837945
 10
0.6718455709
 20
-15.8468222582
 10
0.670905382
 20
-15.8479804886
 10
0.669994995
 20
-15.8491573708
 10
0.6691155249
 20
-15.8503517898
 10
0.6682680867
 20
-15.8515626306
 10
0.6674537954
 20
-15.8527887781
 10
0.6666737661
 20
-15.8540291174
 10
0.6659291136
 20
-15.8552825334
 10
0.6652209531
 20
-15.8565479112
 10
0.6645503996
 20
-15.8578241357
 10
0.663918568
 20
-15.8591100919
 10
0.6633265734
 20
-15.8604046648
 10
0.6627755308
 20
-15.8617067394
 10
0.6622665552
 20
-15.8630152007
 10
0.6618007616
 20
-15.8643289337
 10
0.661379265
 20
-15.8656468234
 10
0.6610031803
 20
-15.8669677547
 10
0.6606736228
 20
-15.8682906126
 10
0.6603917072
 20
-15.8696142822
 10
0.6601585487
 20
-15.8709376484
 10
0.6599752623
 20
-15.8722595963
 10
0.6598429629
 20
-15.8735790107
 10
0.6597627656
 20
-15.8748947768
 10
0.6597357854
 20
-15.8762057794
  0
LINE
  5
25C
100
AcDbEntity
  8
CURVE
100
AcDbLine
 62
250
  6
CONTINUOUS
 10
0.70968967
 20
-16.3261352498
 11
2.8411702467
 21
-16.3261352498
  0
LINE
  5
25D
100
AcDbEntity
  8
CURVE
100
AcDbLine
 62
250
  6
CONTINUOUS
 10
2.8411702467
 20
-15.8262518949
 11
0.70968967
 21
-15.8262518949
  0
LINE
  5
25E
100
AcDbEntity
  8
CURVE
100
AcDbLine
 62
7
  6
CONTINUOUS
 10
-3.422357855
 20
15.5122314414
 11
0.0471978081
 21
18.9817871046
  0
LWPOLYLINE
  5
25F
100
AcDbEntity
  8
CURVE
100
AcDbPolyline
 62
250
  6
CONTINUOUS
 90
36
 70
0
 10
-3.3899739575
 20
15.9604383641
 10
-3.39165532
 20
15.9588548838
 10
-3.3933003534
 20
15.957220965
 10
-3.3949083169
 20
15.9555383702
 10
-3.3964784698
 20
15.9538088619
 10
-3.3980100715
 20
15.9520342024
 10
-3.3995023812
 20
15.9502161544
 10
-3.4009546581
 20
15.9483564803
 10
-3.4023661617
 20
15.9464569425
 10
-3.4037361511
 20
15.9445193036
 10
-3.4050638857
 20
15.9425453259
 10
-3.4063486248
 20
15.9405367721
 10
-3.4075896276
 20
15.9384954046
 10
-3.4087861535
 20
15.9364229858
 10
-3.4099374616
 20
15.9343212783
 10
-3.4110428115
 20
15.9321920445
 10
-3.4121014622
 20
15.9300370469
 10
-3.4131126731
 20
15.9278580479
 10
-3.4140757035
 20
15.9256568101
 10
-3.4149898127
 20
15.9234350959
 10
-3.41585426
 20
15.9211946679
 10
-3.4166683046
 20
15.9189372884
 10
-3.4174312059
 20
15.91666472
 10
-3.4181422231
 20
15.9143787252
 10
-3.4188006155
 20
15.9120810663
 10
-3.4194056425
 20
15.909773506
 10
-3.4199565633
 20
15.9074578067
 10
-3.4204526372
 20
15.9051357308
 10
-3.4208931235
 20
15.9028090409
 10
-3.4212772815
 20
15.9004794994
 10
-3.4216043705
 20
15.8981488687
 10
-3.4218736497
 20
15.8958189115
 10
-3.4220843785
 20
15.8934913901
 10
-3.4222358161
 20
15.8911680671
 10
-3.4223272219
 20
15.8888507048
 10
-3.422357855
 20
15.8865410659
  0
LINE
  5
260
100
AcDbEntity
  8
CURVE
100
AcDbLine
 62
250
  6
CONTINUOUS
 10
-0.0878499349
 20
18.9817871046
 11
-3.3899739575
 21
15.9604383641
  0
LINE
  5
261
100
AcDbEntity
  8
CURVE
100
AcDbLine
 62
250
  6
CONTINUOUS
 10
-2.9228190097
 20
15.7104966866
 11
-0.0206705729
 21
18.3656317771
  0
LWPOLYLINE
  5
262
100
AcDbEntity
  8
CURVE
100
AcDbPolyline
 62
250
  6
CONTINUOUS
 90
67
 70
0
 10
3.1501953117
 20
-13.9876044344
 10
3.1519108993
 20
-13.9875676446
 10
3.1536331799
 20
-13.9874581961
 10
3.1553596537
 20
-13.9872774707
 10
3.1570878207
 20
-13.98702685
 10
3.1588151811
 20
-13.9867077157
 10
3.1605392349
 20
-13.9863214496
 10
3.1622574822
 20
-13.9858694332
 10
3.1639674231
 20
-13.9853530482
 10
3.1656665576
 20
-13.9847736764
 10
3.1673523859
 20
-13.9841326993
 10
3.169022408
 20
-13.9834314988
 10
3.1706741241
 20
-13.9826714563
 10
3.1723050341
 20
-13.9818539537
 10
3.1739126382
 20
-13.9809803727
 10
3.1754944365
 20
-13.9800520947
 10
3.177047929
 20
-13.9790705017
 10
3.1785706158
 20
-13.9780369751
 10
3.180059997
 20
-13.9769528968
 10
3.1815135728
 20
-13.9758196484
 10
3.1829288431
 20
-13.9746386115
 10
3.184303308
 20
-13.9734111678
 10
3.1856344677
 20
-13.9721386991
 10
3.1869198223
 20
-13.9708225869
 10
3.1881568717
 20
-13.969464213
 10
3.1893431161
 20
-13.9680649591
 10
3.1904760556
 20
-13.9666262067
 10
3.1915531902
 20
-13.9651493377
 10
3.1925720201
 20
-13.9636357336
 10
3.1935300452
 20
-13.9620867762
 10
3.1944247658
 20
-13.9605038471
 10
3.1952536819
 20
-13.958888328
 10
3.1960142935
 20
-13.9572416005
 10
3.1967041008
 20
-13.9555650464
 10
3.1973187455
 20
-13.9538674473
 10
3.1978615913
 20
-13.952144337
 10
3.1983335325
 20
-13.9503984124
 10
3.1987354637
 20
-13.9486323703
 10
3.199068279
 20
-13.9468489074
 10
3.1993328729
 20
-13.9450507205
 10
3.1995301398
 20
-13.9432405064
 10
3.199660974
 20
-13.9414209618
 10
3.19972627
 20
-13.9395947836
 10
3.199726922
 20
-13.9377646685
 10
3.1996638244
 20
-13.9359333133
 10
3.1995378717
 20
-13.9341034147
 10
3.1993499581
 20
-13.9322776696
 10
3.1991009781
 20
-13.9304587748
 10
3.1987918261
 20
-13.9286494269
 10
3.1984233963
 20
-13.9268523228
 10
3.1979965832
 20
-13.9250701592
 10
3.1975122811
 20
-13.923305633
 10
3.1969713845
 20
-13.9215614409
 10
3.1963747876
 20
-13.9198402797
 10
3.1957233849
 20
-13.9181448462
 10
3.1950180707
 20
-13.916477837
 10
3.1942597395
 20
-13.9148419492
 10
3.1934492854
 20
-13.9132398793
 10
3.1925876031
 20
-13.9116743241
 10
3.1916755867
 20
-13.9101479806
 10
3.1907141307
 20
-13.9086635453
 10
3.1897041294
 20
-13.9072237152
 10
3.1886464773
 20
-13.9058311869
 10
3.1875420687
 20
-13.9044886573
 10
3.1863917979
 20
-13.9031988231
 10
3.1851965594
 20
-13.9019643812
 10
3.1839572475
 20
-13.9007880282
  0
LWPOLYLINE
  5
263
100
AcDbEntity
  8
CURVE
100
AcDbPolyline
 62
250
  6
CONTINUOUS
 90
65
 70
0
 10
2.0043565533
 20
-14.701428219
 10
2.0026773565
 20
-14.7014626932
 10
2.0009920738
 20
-14.7015653139
 10
1.9993030484
 20
-14.7017348787
 10
1.9976126235
 20
-14.7019701847
 10
1.9959231422
 20
-14.7022700294
 10
1.9942369477
 20
-14.7026332102
 10
1.9925563831
 20
-14.7030585244
 10
1.9908837918
 20
-14.7035447694
 10
1.9892215167
 20
-14.7040907424
 10
1.9875719012
 20
-14.704695241
 10
1.9859372884
 20
-14.7053570625
 10
1.9843200214
 20
-14.7060750041
 10
1.9827224434
 20
-14.7068478634
 10
1.9811468977
 20
-14.7076744375
 10
1.9795957274
 20
-14.708553524
 10
1.9780712756
 20
-14.7094839202
 10
1.9765758855
 20
-14.7104644234
 10
1.9751119004
 20
-14.7114938309
 10
1.9736816633
 20
-14.7125709403
 10
1.9722875175
 20
-14.7136945487
 10
1.9709318062
 20
-14.7148634536
 10
1.9696168725
 20
-14.7160764524
 10
1.9683450595
 20
-14.7173323424
 10
1.9671187105
 20
-14.7186299209
 10
1.9659401687
 20
-14.7199679854
 10
1.9648117772
 20
-14.7213453331
 10
1.9637358791
 20
-14.7227607615
 10
1.9627148178
 20
-14.724213068
 10
1.9617509362
 20
-14.7257010498
 10
1.9608465777
 20
-14.7272235043
 10
1.9600040854
 20
-14.728779229
 10
1.9592258025
 20
-14.7303670211
 10
1.9585149999
 20
-14.7319820432
 10
1.9578698791
 20
-14.733625259
 10
1.9572898469
 20
-14.7352941262
 10
1.95677431
 20
-14.7369861022
 10
1.9563226753
 20
-14.7386986448
 10
1.9559343496
 20
-14.7404292114
 10
1.9556087396
 20
-14.7421752597
 10
1.9553452522
 20
-14.7439342473
 10
1.9551432942
 20
-14.7457036318
 10
1.9550022723
 20
-14.7474808707
 10
1.9549215933
 20
-14.7492634218
 10
1.9549006641
 20
-14.7510487425
 10
1.9549388914
 20
-14.7528342906
 10
1.9550356821
 20
-14.7546175234
 10
1.9551904429
 20
-14.7563958988
 10
1.9554025806
 20
-14.7581668743
 10
1.9556715021
 20
-14.7599279074
 10
1.9559966141
 20
-14.7616764558
 10
1.9563773234
 20
-14.763409977
 10
1.9568130368
 20
-14.7651259287
 10
1.9573031611
 20
-14.7668217685
 10
1.9578471032
 20
-14.768494954
 10
1.9584442698
 20
-14.7701429427
 10
1.9590940677
 20
-14.7717631922
 10
1.9597959037
 20
-14.7733531603
 10
1.9605491845
 20
-14.7749103044
 10
1.9613533171
 20
-14.7764320821
 10
1.9622077082
 20
-14.7779159511
 10
1.9631117646
 20
-14.7793593689
 10
1.964064893
 20
-14.7807597932
 10
1.9650665004
 20
-14.7821146815
 10
1.9661159934
 20
-14.7834214915
  0
LINE
  5
264
100
AcDbEntity
  8
CURVE
100
AcDbLine
 62
250
  6
CONTINUOUS
 10
2.5266330289
 20
-14.701428219
 11
2.0043565533
 21
-14.701428219
  0
LINE
  5
265
100
AcDbEntity
  8
CURVE
100
AcDbLine
 62
250
  6
CONTINUOUS
 10
2.5579833978
 20
-13.9876044344
 11
3.1501953117
 21
-13.9876044344
  0
LWPOLYLINE
  5
266
100
AcDbEntity
  8
COPY_PUBLISH
100
AcDbPolyline
 62
250
  6
CONTINUOUS
 90
16
 70
0
 10
-11.0132437251
 20
-25.8134150626
 10
-11.01045539
 20
-25.8657975315
 10
-11.0021929183
 20
-25.9176029172
 10
-10.9885473613
 20
-25.9682606712
 10
-10.9696665657
 20
-26.0172184586
 10
-10.9457598445
 20
-26.0639310247
 10
-10.9171013786
 20
-26.1078690436
 10
-10.8840193212
 20
-26.1485433419
 10
-10.8468760531
 20
-26.1855204357
 10
-10.8060702069
 20
-26.2184079346
 10
-10.761986418
 20
-26.2468816807
 10
-10.7151656414
 20
-26.2705791398
 10
-10.6663188279
 20
-26.2891770144
 10
-10.6160695894
 20
-26.3025182528
 10
-10.5649154114
 20
-26.3105481619
 10
-10.5134150624
 20
-26.3132437249
  0
LWPOLYLINE
  5
267
100
AcDbEntity
  8
ASSI
100
AcDbPolyline
 62
250
  6
CONTINUOUS
 90
16
 70
0
 10
-11.0132437251
 20
-25.8134150626
 10
-11.01045539
 20
-25.8657975315
 10
-11.0021929183
 20
-25.9176029172
 10
-10.9885473613
 20
-25.9682606712
 10
-10.9696665657
 20
-26.0172184586
 10
-10.9457598445
 20
-26.0639310247
 10
-10.9171013786
 20
-26.1078690436
 10
-10.8840193212
 20
-26.1485433419
 10
-10.8468760531
 20
-26.1855204357
 10
-10.8060702069
 20
-26.2184079346
 10
-10.761986418
 20
-26.2468816807
 10
-10.7151656414
 20
-26.2705791398
 10
-10.6663188279
 20
-26.2891770144
 10
-10.6160695894
 20
-26.3025182528
 10
-10.5649154114
 20
-26.3105481619
 10
-10.5134150624
 20
-26.3132437249
  0
LWPOLYLINE
  5
268
100
AcDbEntity
  8
COPY_PUBLISH
100
AcDbPolyline
 62
250
  6
CONTINUOUS
 90
16
 70
0
 10
-11.0132437251
 20
25.8134150626
 10
-11.0104557606
 20
25.8657940376
 10
-11.0021943512
 20
25.9175962153
 10
-10.9885504711
 20
25.9682511464
 10
-10.9696717815
 20
26.0172067959
 10
-10.9457675487
 20
26.0639177387
 10
-10.9171122688
 20
26.1078541194
 10
-10.8840348897
 20
26.1485261269
 10
-10.8468972612
 20
26.1855014262
 10
-10.8060959292
 20
26.2183893375
 10
-10.762014426
 20
26.2468656055
 10
-10.7151938467
 20
26.270566676
 10
-10.6663444548
 20
26.2891687618
 10
-10.6160895555
 20
26.3025140488
 10
-10.5649267792
 20
26.3105469765
 10
-10.5134150626
 20
26.3132437251
  0
LWPOLYLINE
  5
269
100
AcDbEntity
  8
ASSI
100
AcDbPolyline
 62
250
  6
CONTINUOUS
 90
16
 70
0
 10
-11.0132437251
 20
25.8134150626
 10
-11.0104557606
 20
25.8657940376
 10
-11.0021943512
 20
25.9175962153
 10
-10.9885504711
 20
25.9682511464
 10
-10.9696717815
 20
26.0172067959
 10
-10.9457675487
 20
26.0639177387
 10
-10.9171122688
 20
26.1078541194
 10
-10.8840348897
 20
26.1485261269
 10
-10.8468972612
 20
26.1855014262
 10
-10.8060959292
 20
26.2183893375
 10
-10.762014426
 20
26.2468656055
 10
-10.7151938467
 20
26.270566676
 10
-10.6663444548
 20
26.2891687618
 10
-10.6160895555
 20
26.3025140488
 10
-10.5649267792
 20
26.3105469765
 10
-10.5134150626
 20
26.3132437251
  0
LINE
  5
26A
100
AcDbEntity
  8
CURVE
100
AcDbLine
 62
7
  6
CONTINUOUS
 10
-3.422357855
 20
15.0922100134
 11
-2.9228190097
 21
15.5917488588
  0
LINE
  5
26B
100
AcDbEntity
  8
CURVE
100
AcDbLine
 62
7
  6
CONTINUOUS
 10
-1.5276562458
 20
16.9869116227
 11
0.266385471
 21
18.7809533395
  0
LINE
  5
26C
100
AcDbEntity
  8
CURVE
100
AcDbLine
 62
7
  6
CONTINUOUS
 10
-3.422357855
 20
14.6721885854
 11
-2.9228190097
 21
15.1717274307
  0
LINE
  5
26D
100
AcDbEntity
  8
CURVE
100
AcDbLine
 62
7
  6
CONTINUOUS
 10
0.1315758882
 20
18.2261223287
 11
0.4855731339
 21
18.5801195744
  0
LINE
  5
26E
100
AcDbEntity
  8
CURVE
100
AcDbLine
 62
7
  6
CONTINUOUS
 10
-3.422357855
 20
14.2521671574
 11
-2.9228190097
 21
14.7517060027
  0
LINE
  5
26F
100
AcDbEntity
  8
CURVE
100
AcDbLine
 62
7
  6
CONTINUOUS
 10
0.350754914
 20
18.0252799264
 11
0.7047607968
 21
18.3792858092
  0
LINE
  5
270
100
AcDbEntity
  8
CURVE
100
AcDbLine
 62
7
  6
CONTINUOUS
 10
-3.422357855
 20
13.8321457293
 11
-2.9228190097
 21
14.3316845747
  0
LINE
  5
271
100
AcDbEntity
  8
CURVE
100
AcDbLine
 62
7
  6
CONTINUOUS
 10
0.5699339398
 20
17.8244375242
 11
0.9239484597
 21
18.1784520441
  0
LINE
  5
272
100
AcDbEntity
  8
CURVE
100
AcDbLine
 62
7
  6
CONTINUOUS
 10
-3.422357855
 20
13.4121243013
 11
-2.9228190097
 21
13.9116631467
  0
LINE
  5
273
100
AcDbEntity
  8
CURVE
100
AcDbLine
 62
7
  6
CONTINUOUS
 10
0.7891129655
 20
17.6235951219
 11
1.1431361226
 21
17.977618279
  0
LINE
  5
274
100
AcDbEntity
  8
CURVE
100
AcDbLine
 62
7
  6
CONTINUOUS
 10
-3.422357855
 20
12.9921028733
 11
-2.9228190097
 21
13.4916417186
  0
LINE
  5
275
100
AcDbEntity
  8
CURVE
100
AcDbLine
 62
7
  6
CONTINUOUS
 10
1.0082919913
 20
17.4227527197
 11
1.3623237855
 21
17.7767845138
  0
LINE
  5
276
100
AcDbEntity
  8
CURVE
100
AcDbLine
 62
7
  6
CONTINUOUS
 10
-3.422357855
 20
12.5720814453
 11
-2.9228190097
 21
13.0716202906
  0
LINE
  5
277
100
AcDbEntity
  8
CURVE
100
AcDbLine
 62
7
  6
CONTINUOUS
 10
1.2274710171
 20
17.2219103174
 11
1.5815114484
 21
17.5759507487
  0
LINE
  5
278
100
AcDbEntity
  8
0
100
AcDbLine
 62
7
  6
CONTINUOUS
 10
-11.0345351961
 20
25.8347065336
 11
-11.0345351961
 21
-25.8347065336
  0
LINE
  5
279
100
AcDbEntity
  8
ASSI
100
AcDbLine
 62
7
  6
CONTINUOUS
 10
-11.0345351961
 20
25.8347065336
 11
-11.0345351961
 21
-25.8347065336
  0
LINE
  5
27A
100
AcDbEntity
  8
COPY_PUBLISH
100
AcDbLine
 62
250
  6
CONTINUOUS
 10
-11.0132437251
 20
-25.8134150626
 11
-11.0132437251
 21
25.8134150626
  0
LINE
  5
27B
100
AcDbEntity
  8
ASSI
100
AcDbLine
 62
250
  6
CONTINUOUS
 10
-11.0132437251
 20
-25.8134150626
 11
-11.0132437251
 21
25.8134150626
  0
LINE
  5
27C
100
AcDbEntity
  8
COPY_PUBLISH
100
AcDbLine
 62
250
  6
CONTINUOUS
 10
-10.5134150626
 20
-26.3132437251
 11
-10.5134150626
 21
26.3132437251
  0
LINE
  5
27D
100
AcDbEntity
  8
ASSI
100
AcDbLine
 62
250
  6
CONTINUOUS
 10
-10.5134150626
 20
-26.3132437251
 11
-10.5134150626
 21
26.3132437251
  0
LWPOLYLINE
  5
27E
100
AcDbEntity
  8
0
100
AcDbPolyline
 62
7
  6
CONTINUOUS
 90
3
 70
0
 43
0.3500000006
 10
1.3571429071
 20
37.435713089
 10
1.2857142735
 20
37.2214286041
 10
1.1428571477
 20
36.9357129364
  0
LINE
  5
27F
100
AcDbEntity
  8
0
100
AcDbLine
 62
250
  6
CONTINUOUS
 10
10.5347065336
 20
26.3345351961
 11
10.5134150626
 21
26.3132437251
  0
LINE
  5
280
100
AcDbEntity
  8
ASSI
100
AcDbLine
 62
250
  6
CONTINUOUS
 10
10.5347065336
 20
26.3345351961
 11
10.5134150626
 21
26.3132437251
  0
LINE
  5
281
100
AcDbEntity
  8
CURVE
100
AcDbLine
 62
7
  6
CONTINUOUS
 10
-3.422357855
 20
12.1520600172
 11
-2.9228190097
 21
12.6515988626
  0
LINE
  5
282
100
AcDbEntity
  8
CURVE
100
AcDbLine
 62
7
  6
CONTINUOUS
 10
1.4466500429
 20
17.0210679151
 11
1.8006991113
 21
17.3751169835
  0
LINE
  5
283
100
AcDbEntity
  8
CURVE
100
AcDbLine
 62
7
  6
CONTINUOUS
 10
-3.422357855
 20
11.7320385892
 11
-2.9228190097
 21
12.2315774346
  0
LINE
  5
284
100
AcDbEntity
  8
CURVE
100
AcDbLine
 62
7
  6
CONTINUOUS
 10
1.6658290686
 20
16.8202255129
 11
2.0198867742
 21
17.1742832184
  0
LINE
  5
285
100
AcDbEntity
  8
0
100
AcDbLine
 62
250
  6
CONTINUOUS
 10
11.0345351961
 20
25.8347065336
 11
11.0132437251
 21
25.8134150626
  0
LINE
  5
286
100
AcDbEntity
  8
ASSI
100
AcDbLine
 62
250
  6
CONTINUOUS
 10
11.0345351961
 20
25.8347065336
 11
11.0132437251
 21
25.8134150626
  0
LINE
  5
287
100
AcDbEntity
  8
CURVE
100
AcDbLine
 62
7
  6
CONTINUOUS
 10
-3.2775377253
 20
11.456837291
 11
-2.7776543704
 21
11.9567206459
  0
LINE
  5
288
100
AcDbEntity
  8
CURVE
100
AcDbLine
 62
7
  6
CONTINUOUS
 10
1.8850080944
 20
16.6193831106
 11
2.239074437
 21
16.9734494533
  0
LINE
  5
289
100
AcDbEntity
  8
CURVE
100
AcDbLine
 62
7
  6
CONTINUOUS
 10
-2.8575162972
 20
11.456837291
 11
-2.3576329423
 21
11.9567206459
  0
LINE
  5
28A
100
AcDbEntity
  8
CURVE
100
AcDbLine
 62
7
  6
CONTINUOUS
 10
2.1041871202
 20
16.4185407084
 11
2.4582620999
 21
16.7726156881
  0
LINE
  5
28B
100
AcDbEntity
  8
CURVE
100
AcDbLine
 62
7
  6
CONTINUOUS
 10
-2.4374948692
 20
11.456837291
 11
-1.9376115143
 21
11.9567206459
  0
LINE
  5
28C
100
AcDbEntity
  8
CURVE
100
AcDbLine
 62
7
  6
CONTINUOUS
 10
2.323366146
 20
16.2176983061
 11
2.6774497628
 21
16.571781923
  0
LINE
  5
28D
100
AcDbEntity
  8
CURVE
100
AcDbLine
 62
7
  6
CONTINUOUS
 10
-2.0174734412
 20
11.456837291
 11
-1.5175900863
 21
11.9567206459
  0
LINE
  5
28E
100
AcDbEntity
  8
CURVE
100
AcDbLine
 62
7
  6
CONTINUOUS
 10
1.5302907349
 20
15.004601467
 11
1.8327652731
 21
15.3070760053
  0
LINE
  5
28F
100
AcDbEntity
  8
CURVE
100
AcDbLine
 62
7
  6
CONTINUOUS
 10
2.5474627712
 20
16.0217735034
 11
2.8966374257
 21
16.3709481579
  0
LINE
  5
290
100
AcDbEntity
  8
0
100
AcDbLine
 62
250
  6
CONTINUOUS
 10
10.5134150626
 20
-26.3132437251
 11
10.5347065336
 21
-26.3345351961
  0
LINE
  5
291
100
AcDbEntity
  8
ASSI
100
AcDbLine
 62
250
  6
CONTINUOUS
 10
10.5134150626
 20
-26.3132437251
 11
10.5347065336
 21
-26.3345351961
  0
LINE
  5
292
100
AcDbEntity
  8
0
100
AcDbLine
 62
250
  6
CONTINUOUS
 10
11.0132437251
 20
-25.8134150626
 11
11.0345351961
 21
-25.8347065336
  0
LINE
  5
293
100
AcDbEntity
  8
ASSI
100
AcDbLine
 62
250
  6
CONTINUOUS
 10
11.0132437251
 20
-25.8134150626
 11
11.0345351961
 21
-25.8347065336
  0
LWPOLYLINE
  5
294
100
AcDbEntity
  8
CURVE
100
AcDbPolyline
 62
250
  6
CONTINUOUS
 90
65
 70
0
 10
2.3681586366
 20
15.224910478
 10
2.3692045265
 20
15.226227249
 10
2.3702031037
 20
15.2275916456
 10
2.3711537407
 20
15.2290011413
 10
2.3720558104
 20
15.2304532093
 10
2.3729086855
 20
15.231945323
 10
2.3737117388
 20
15.2334749557
 10
2.374464343
 20
15.2350395807
 10
2.375165871
 20
15.2366366714
 10
2.3758156954
 20
15.2382637011
 10
2.376413189
 20
15.2399181431
 10
2.3769577246
 20
15.2415974707
 10
2.377448675
 20
15.2432991573
 10
2.3778854128
 20
15.2450206762
 10
2.3782673109
 20
15.2467595008
 10
2.3785937421
 20
15.2485131043
 10
2.378864079
 20
15.2502789601
 10
2.3790776944
 20
15.2520545416
 10
2.3792339612
 20
15.253837322
 10
2.379332252
 20
15.2556247747
 10
2.3793719396
 20
15.257414373
 10
2.3793523968
 20
15.2592035903
 10
2.3792729964
 20
15.2609898998
 10
2.379133111
 20
15.262770775
 10
2.3789321135
 20
15.264543689
 10
2.3786693766
 20
15.2663061154
 10
2.3783442731
 20
15.2680555274
 10
2.3779561758
 20
15.2697893983
 10
2.3775044573
 20
15.2715052014
 10
2.3769884905
 20
15.2732004102
 10
2.3764076481
 20
15.2748724978
 10
2.3757613028
 20
15.2765189377
 10
2.3750488275
 20
15.2781372032
 10
2.3742709822
 20
15.2797232603
 10
2.373428872
 20
15.2812774702
 10
2.3725248428
 20
15.2827986194
 10
2.3715612404
 20
15.2842854945
 10
2.3705404109
 20
15.2857368819
 10
2.3694647
 20
15.2871515683
 10
2.3683364538
 20
15.2885283401
 10
2.367158018
 20
15.2898659839
 10
2.3659317387
 20
15.2911632862
 10
2.3646599618
 20
15.2924190336
 10
2.363345033
 20
15.2936320125
 10
2.3619892985
 20
15.2948010095
 10
2.3605951039
 20
15.2959248111
 10
2.3591647954
 20
15.2970022039
 10
2.3577007187
 20
15.2980319743
 10
2.3562052198
 20
15.299012909
 10
2.3546806446
 20
15.2999437945
 10
2.353129339
 20
15.3008234172
 10
2.3515536489
 20
15.3016505637
 10
2.3499559202
 20
15.3024240205
 10
2.3483384988
 20
15.3031425742
 10
2.3467037307
 20
15.3038050113
 10
2.3450539617
 20
15.3044101183
 10
2.3433915377
 20
15.3049566818
 10
2.3417188047
 20
15.3054434882
 10
2.3400381086
 20
15.3058693242
 10
2.3383517952
 20
15.3062329762
 10
2.3366622105
 20
15.3065332307
 10
2.3349717004
 20
15.3067688744
 10
2.3332826108
 20
15.3069386937
 10
2.3315972876
 20
15.3070414751
 10
2.3299180767
 20
15.3070760053
  0
LWPOLYLINE
  5
295
100
AcDbEntity
  8
CURVE
100
AcDbPolyline
 62
250
  6
CONTINUOUS
 90
50
 70
0
 10
0.6562906899
 20
13.9629720017
 10
0.6554661778
 20
13.9619435711
 10
0.6546760204
 20
13.9608793491
 10
0.6539202176
 20
13.959780859
 10
0.6531987696
 20
13.9586496236
 10
0.6525116761
 20
13.957487166
 10
0.6518589374
 20
13.9562950092
 10
0.6512405533
 20
13.9550746764
 10
0.6506565239
 20
13.9538276904
 10
0.6501068492
 20
13.9525555744
 10
0.6495915291
 20
13.9512598514
 10
0.6491105637
 20
13.9499420444
 10
0.648663953
 20
13.9486036765
 10
0.648251697
 20
13.9472462706
 10
0.6478737956
 20
13.9458713499
 10
0.6475302489
 20
13.9444804373
 10
0.6472210568
 20
13.9430750558
 10
0.6469462195
 20
13.9416567286
 10
0.6467057368
 20
13.9402269787
 10
0.6464996087
 20
13.938787329
 10
0.6463278354
 20
13.9373393027
 10
0.6461904167
 20
13.9358844227
 10
0.6460873527
 20
13.934424212
 10
0.6460186433
 20
13.9329601938
 10
0.6459842887
 20
13.9314938911
 10
0.6459842887
 20
13.9300268268
 10
0.6460186433
 20
13.928560524
 10
0.6460873527
 20
13.9270965058
 10
0.6461904167
 20
13.9256362952
 10
0.6463278354
 20
13.9241814152
 10
0.6464996087
 20
13.9227333888
 10
0.6467057368
 20
13.9212937392
 10
0.6469462195
 20
13.9198639892
 10
0.6472210568
 20
13.918445662
 10
0.6475302489
 20
13.9170402806
 10
0.6478737956
 20
13.915649368
 10
0.648251697
 20
13.9142744472
 10
0.648663953
 20
13.9129170414
 10
0.6491105637
 20
13.9115786734
 10
0.6495915291
 20
13.9102608664
 10
0.6501068492
 20
13.9089651434
 10
0.6506565239
 20
13.9076930274
 10
0.6512405533
 20
13.9064460415
 10
0.6518589374
 20
13.9052257086
 10
0.6525116761
 20
13.9040335519
 10
0.6531987696
 20
13.9028710943
 10
0.6539202176
 20
13.9017398589
 10
0.6546760204
 20
13.9006413687
 10
0.6554661778
 20
13.8995771468
 10
0.6562906899
 20
13.8985487161
  0
LINE
  5
296
100
AcDbEntity
  8
CURVE
100
AcDbLine
 62
250
  6
CONTINUOUS
 10
1.4924153642
 20
14.1805297816
 11
2.3681586366
 21
15.224910478
  0
LINE
  5
297
100
AcDbEntity
  8
CURVE
100
AcDbLine
 62
250
  6
CONTINUOUS
 10
1.7690565317
 20
15.2891615088
 11
0.6562906899
 21
13.9629720017
  0
LINE
  5
298
100
AcDbEntity
  8
CURVE
100
AcDbLine
 62
7
  6
CONTINUOUS
 10
-1.5974520132
 20
11.456837291
 11
-1.0975686583
 21
11.9567206459
  0
LINE
  5
299
100
AcDbEntity
  8
CURVE
100
AcDbLine
 62
7
  6
CONTINUOUS
 10
0.7420993215
 20
13.7963886256
 11
2.2527867012
 21
15.3070760053
  0
LINE
  5
29A
100
AcDbEntity
  8
CURVE
100
AcDbLine
 62
7
  6
CONTINUOUS
 10
2.9662659761
 20
16.0205552803
 11
3.1158250886
 21
16.1701143927
  0
LINE
  5
29B
100
AcDbEntity
  8
CURVE
100
AcDbLine
 62
7
  6
CONTINUOUS
 10
-1.1774305851
 20
11.456837291
 11
-0.6775472302
 21
11.9567206459
  0
LINE
  5
29C
100
AcDbEntity
  8
CURVE
100
AcDbLine
 62
7
  6
CONTINUOUS
 10
0.9338411365
 20
13.5681090126
 11
1.5462619055
 21
14.1805297816
  0
LINE
  5
29D
100
AcDbEntity
  8
CURVE
100
AcDbLine
 62
7
  6
CONTINUOUS
 10
-0.7574091571
 20
11.456837291
 11
-0.2575258022
 21
11.9567206459
  0
LINE
  5
29E
100
AcDbEntity
  8
CURVE
100
AcDbLine
 62
7
  6
CONTINUOUS
 10
1.1255829516
 20
13.3398293997
 11
1.9662833335
 21
14.1805297816
  0
LINE
  5
29F
100
AcDbEntity
  8
CURVE
100
AcDbLine
 62
7
  6
CONTINUOUS
 10
-0.3373877291
 20
11.456837291
 11
0.1624956258
 21
11.9567206459
  0
LINE
  5
2A0
100
AcDbEntity
  8
CURVE
100
AcDbLine
 62
7
  6
CONTINUOUS
 10
1.3173247667
 20
13.1115497867
 11
1.6725129672
 21
13.4667379873
  0
LINE
  5
2A1
100
AcDbEntity
  8
CURVE
100
AcDbLine
 62
7
  6
CONTINUOUS
 10
1.8867659162
 20
13.6809909363
 11
2.3863047615
 21
14.1805297816
  0
LINE
  5
2A2
100
AcDbEntity
  8
CURVE
100
AcDbLine
 62
7
  6
CONTINUOUS
 10
0.0826336989
 20
11.456837291
 11
0.5825170538
 21
11.9567206459
  0
LINE
  5
2A3
100
AcDbEntity
  8
CURVE
100
AcDbLine
 62
7
  6
CONTINUOUS
 10
1.5090665817
 20
12.8832701738
 11
1.8641347772
 21
13.2383383692
  0
LINE
  5
2A4
100
AcDbEntity
  8
CURVE
100
AcDbLine
 62
7
  6
CONTINUOUS
 10
2.3067873442
 20
13.6809909363
 11
2.8063261896
 21
14.1805297816
  0
LINE
  5
2A5
100
AcDbEntity
  8
CURVE
100
AcDbLine
 62
7
  6
CONTINUOUS
 10
0.502655127
 20
11.456837291
 11
1.0025384819
 21
11.9567206459
  0
LINE
  5
2A6
100
AcDbEntity
  8
CURVE
100
AcDbLine
 62
7
  6
CONTINUOUS
 10
1.7008083968
 20
12.6549905608
 11
2.0557565872
 21
13.0099387512
  0
LINE
  5
2A7
100
AcDbEntity
  8
CURVE
100
AcDbLine
 62
7
  6
CONTINUOUS
 10
2.7268087722
 20
13.6809909363
 11
3.2263476176
 21
14.1805297816
  0
LINE
  5
2A8
100
AcDbEntity
  8
CURVE
100
AcDbLine
 62
7
  6
CONTINUOUS
 10
0.922676555
 20
11.456837291
 11
1.4225599099
 21
11.9567206459
  0
LINE
  5
2A9
100
AcDbEntity
  8
CURVE
100
AcDbLine
 62
7
  6
CONTINUOUS
 10
2.0216620148
 20
12.5558227508
 11
2.2473783972
 21
12.7815391332
  0
LINE
  5
2AA
100
AcDbEntity
  8
CURVE
100
AcDbLine
 62
7
  6
CONTINUOUS
 10
3.1468302003
 20
13.6809909363
 11
3.6418838418
 21
14.1760445778
  0
LWPOLYLINE
  5
2AB
100
AcDbEntity
  8
CURVE
100
AcDbPolyline
 62
250
  6
CONTINUOUS
 90
34
 70
0
 10
2.524221462
 20
-13.9745130716
 10
2.5250515341
 20
-13.975233907
 10
2.5259009986
 20
-13.9759381511
 10
2.5267691463
 20
-13.9766254491
 10
2.5276552681
 20
-13.9772954461
 10
2.5285586545
 20
-13.9779477872
 10
2.5294785965
 20
-13.9785821177
 10
2.5304143846
 20
-13.9791980828
 10
2.5313653098
 20
-13.9797953274
 10
2.5323306627
 20
-13.9803734969
 10
2.533309734
 20
-13.9809322365
 10
2.5343018146
 20
-13.9814711911
 10
2.5353061951
 20
-13.9819900061
 10
2.5363221664
 20
-13.9824883265
 10
2.5373490191
 20
-13.9829657976
 10
2.5383860441
 20
-13.9834220645
 10
2.539432532
 20
-13.9838567723
 10
2.5404877737
 20
-13.9842695663
 10
2.5415510598
 20
-13.9846600916
 10
2.5426216812
 20
-13.9850279933
 10
2.5436989285
 20
-13.9853729166
 10
2.5447820925
 20
-13.9856945066
 10
2.5458704641
 20
-13.9859924086
 10
2.5469633338
 20
-13.9862662677
 10
2.5480599925
 20
-13.9865157291
 10
2.5491597309
 20
-13.9867404379
 10
2.5502618397
 20
-13.9869400392
 10
2.5513656098
 20
-13.9871141783
 10
2.5524703319
 20
-13.9872625003
 10
2.5535752966
 20
-13.9873846504
 10
2.5546797949
 20
-13.9874802736
 10
2.5557831173
 20
-13.9875490153
 10
2.5568845547
 20
-13.9875905205
 10
2.5579833978
 20
-13.9876044344
  0
LWPOLYLINE
  5
2AC
100
AcDbEntity
  8
CURVE
100
AcDbPolyline
 62
250
  6
CONTINUOUS
 90
52
 70
0
 10
0.0471978081
 20
-11.0265448649
 10
0.0452076452
 20
-11.0247880823
 10
0.0431388863
 20
-11.0231011531
 10
0.0409947323
 20
-11.0214840863
 10
0.0387783843
 20
-11.0199368908
 10
0.0364930432
 20
-11.0184595759
 10
0.03414191
 20
-11.0170521504
 10
0.0317281857
 20
-11.0157146236
 10
0.0292550713
 20
-11.0144470043
 10
0.0267257677
 20
-11.0132493017
 10
0.024143476
 20
-11.0121215248
 10
0.0215113972
 20
-11.0110636826
 10
0.0188327321
 20
-11.0100757842
 10
0.0161106819
 20
-11.0091578387
 10
0.0133484474
 20
-11.0083098551
 10
0.0105492297
 20
-11.0075318424
 10
0.0077162298
 20
-11.0068238097
 10
0.0048526486
 20
-11.006185766
 10
0.0019616871
 20
-11.0056177205
 10
-0.0009534536
 20
-11.005119682
 10
-0.0038895727
 20
-11.0046916597
 10
-0.0068434691
 20
-11.0043336627
 10
-0.0098119418
 20
-11.0040456999
 10
-0.0127917899
 20
-11.0038277805
 10
-0.0157798124
 20
-11.0036799134
 10
-0.0187728082
 20
-11.0036021077
 10
-0.0217675765
 20
-11.0035943725
 10
-0.0247609161
 20
-11.0036567168
 10
-0.0277496262
 20
-11.0037891496
 10
-0.0307305058
 20
-11.0039916801
 10
-0.0337003538
 20
-11.0042643172
 10
-0.0366559693
 20
-11.00460707
 10
-0.0395941513
 20
-11.0050199475
 10
-0.0425116988
 20
-11.0055029588
 10
-0.0454054109
 20
-11.006056113
 10
-0.0482720865
 20
-11.0066794191
 10
-0.0511085246
 20
-11.0073728861
 10
-0.0539115243
 20
-11.008136523
 10
-0.0566778847
 20
-11.008970339
 10
-0.0594044046
 20
-11.0098743431
 10
-0.0620878831
 20
-11.0108485443
 10
-0.0647251193
 20
-11.0118929517
 10
-0.0673129122
 20
-11.0130075743
 10
-0.0698480607
 20
-11.0141924212
 10
-0.0723273639
 20
-11.0154475013
 10
-0.0747476208
 20
-11.0167728239
 10
-0.0771056304
 20
-11.0181683978
 10
-0.0793981918
 20
-11.0196342322
 10
-0.0816221039
 20
-11.0211703361
 10
-0.0837741658
 20
-11.0227767186
 10
-0.0858511764
 20
-11.0244533886
 10
-0.0878499349
 20
-11.0262003553
  0
LINE
  5
2AD
100
AcDbEntity
  8
CURVE
100
AcDbLine
 62
250
  6
CONTINUOUS
 10
-0.0206705729
 20
-11.6425279376
 11
2.524221462
 21
-13.9745130716
  0
LINE
  5
2AE
100
AcDbEntity
  8
CURVE
100
AcDbLine
 62
250
  6
CONTINUOUS
 10
3.1839572475
 20
-13.9007880282
 11
0.0471978081
 21
-11.0265448649
  0
LWPOLYLINE
  5
2AF
100
AcDbEntity
  8
CURVE
100
AcDbPolyline
 62
250
  6
CONTINUOUS
 90
37
 70
0
 10
2.5641371243
 20
-14.7184679362
 10
2.5633737757
 20
-14.7176105098
 10
2.5625844328
 20
-14.716770809
 10
2.5617699854
 20
-14.7159492064
 10
2.5609313231
 20
-14.7151460747
 10
2.5600693358
 20
-14.7143617864
 10
2.5591849133
 20
-14.7135967142
 10
2.5582789452
 20
-14.7128512307
 10
2.5573523213
 20
-14.7121257085
 10
2.5564059314
 20
-14.7114205202
 10
2.5554406653
 20
-14.7107360385
 10
2.5544574127
 20
-14.710072636
 10
2.5534570633
 20
-14.7094306852
 10
2.552440507
 20
-14.7088105589
 10
2.5514086334
 20
-14.7082126296
 10
2.5503623324
 20
-14.70763727
 10
2.5493024937
 20
-14.7070848526
 10
2.548230007
 20
-14.7065557502
 10
2.5471457622
 20
-14.7060503352
 10
2.5460506489
 20
-14.7055689804
 10
2.5449455569
 20
-14.7051120584
 10
2.5438313761
 20
-14.7046799417
 10
2.5427089961
 20
-14.704273003
 10
2.5415793066
 20
-14.703891615
 10
2.5404431976
 20
-14.7035361502
 10
2.5393015586
 20
-14.7032069812
 10
2.5381552796
 20
-14.7029044808
 10
2.5370052501
 20
-14.7026290214
 10
2.5358523601
 20
-14.7023809758
 10
2.5346974992
 20
-14.7021607165
 10
2.5335415572
 20
-14.7019686161
 10
2.5323854239
 20
-14.7018050474
 10
2.531229989
 20
-14.7016703828
 10
2.5300761423
 20
-14.7015649951
 10
2.5289247736
 20
-14.7014892568
 10
2.5277767725
 20
-14.7014435405
 10
2.5266330289
 20
-14.701428219
  0
LINE
  5
2B0
100
AcDbEntity
  8
CURVE
100
AcDbLine
 62
250
  6
CONTINUOUS
 10
1.9661159934
 20
-14.7834214915
 11
2.8411702467
 21
-15.8262518949
  0
LINE
  5
2B1
100
AcDbEntity
  8
CURVE
100
AcDbLine
 62
250
  6
CONTINUOUS
 10
3.6769504114
 20
-16.0443264391
 11
2.5648735888
 21
-14.7193427155
  0
LINE
  5
2B2
100
AcDbEntity
  8
CURVE
100
AcDbLine
 62
7
  6
CONTINUOUS
 10
1.342697983
 20
11.456837291
 11
1.8425813379
 21
11.9567206459
  0
LINE
  5
2B3
100
AcDbEntity
  8
CURVE
100
AcDbLine
 62
7
  6
CONTINUOUS
 10
3.5668516283
 20
13.6809909363
 11
3.674194335
 21
13.788333643
  0
LINE
  5
2B4
100
AcDbEntity
  8
CURVE
100
AcDbLine
 62
7
  6
CONTINUOUS
 10
1.762719411
 20
11.456837291
 11
2.2626027659
 21
11.9567206459
  0
LINE
  5
2B5
100
AcDbEntity
  8
CURVE
100
AcDbLine
 62
7
  6
CONTINUOUS
 10
2.1827408391
 20
11.456837291
 11
2.682624194
 21
11.9567206459
  0
LINE
  5
2B6
100
AcDbEntity
  8
CURVE
100
AcDbLine
 62
7
  6
CONTINUOUS
 10
2.6027622671
 20
11.456837291
 11
3.0971318817
 21
11.9512069055
  0
LINE
  5
2B7
100
AcDbEntity
  8
CURVE
100
AcDbLine
 62
7
  6
CONTINUOUS
 10
3.0227836951
 20
11.456837291
 11
3.1274576815
 21
11.5615112774
  0
LWPOLYLINE
  5
2B8
100
AcDbEntity
  8
CURVE
100
AcDbPolyline
 62
250
  6
CONTINUOUS
 90
55
 70
0
 10
-3.4227023646
 20
-18.4514146547
 10
-3.4226484042
 20
-18.45403666
 10
-3.4224880096
 20
-18.4566681921
 10
-3.4222234108
 20
-18.459307021
 10
-3.421856838
 20
-18.4619509167
 10
-3.421390521
 20
-18.4645976491
 10
-3.4208266899
 20
-18.4672449883
 10
-3.4201675748
 20
-18.4698907042
 10
-3.4194154055
 20
-18.4725325668
 10
-3.4185724123
 20
-18.4751683461
 10
-3.417640825
 20
-18.4777958121
 10
-3.4166228738
 20
-18.4804127347
 10
-3.4155207885
 20
-18.4830168839
 10
-3.4143367994
 20
-18.4856060297
 10
-3.4130731362
 20
-18.4881779422
 10
-3.4117320291
 20
-18.4907303911
 10
-3.4103157082
 20
-18.4932611467
 10
-3.4088264033
 20
-18.4957679787
 10
-3.4072663446
 20
-18.4982486573
 10
-3.4056377621
 20
-18.5007009524
 10
-3.4039428857
 20
-18.5031226339
 10
-3.4021839455
 20
-18.5055114719
 10
-3.4003631715
 20
-18.5078652364
 10
-3.3984827937
 20
-18.5101816972
 10
-3.3965450422
 20
-18.5124586245
 10
-3.3945521469
 20
-18.5146937881
 10
-3.392506338
 20
-18.5168849581
 10
-3.3904098453
 20
-18.5190299045
 10
-3.388264899
 20
-18.5211263971
 10
-3.386073729
 20
-18.5231722061
 10
-3.3838385653
 20
-18.5251651013
 10
-3.3815616381
 20
-18.5271028529
 10
-3.3792451772
 20
-18.5289832306
 10
-3.3768914128
 20
-18.5308040046
 10
-3.3745025748
 20
-18.5325629448
 10
-3.3720808932
 20
-18.5342578212
 10
-3.3696285982
 20
-18.5358864038
 10
-3.3671479196
 20
-18.5374464625
 10
-3.3646410875
 20
-18.5389357673
 10
-3.362110332
 20
-18.5403520883
 10
-3.359557883
 20
-18.5416931954
 10
-3.3569859706
 20
-18.5429568585
 10
-3.3543968248
 20
-18.5441408477
 10
-3.3517926755
 20
-18.5452429329
 10
-3.3491757529
 20
-18.5462608842
 10
-3.346548287
 20
-18.5471924715
 10
-3.3439125077
 20
-18.5480354647
 10
-3.3412706451
 20
-18.5487876339
 10
-3.3386249292
 20
-18.5494467491
 10
-3.33597759
 20
-18.5500105801
 10
-3.3333308575
 20
-18.5504768971
 10
-3.3306869619
 20
-18.55084347
 10
-3.3280481329
 20
-18.5511080687
 10
-3.3254166008
 20
-18.5512684633
 10
-3.3227945955
 20
-18.5513224237
  0
LWPOLYLINE
  5
2B9
100
AcDbEntity
  8
CURVE
100
AcDbPolyline
 62
250
  6
CONTINUOUS
 90
55
 70
0
 10
-3.422357855
 20
11.5569173148
 10
-3.4223039356
 20
11.5542929607
 10
-3.422143661
 20
11.551658901
 10
-3.4218792565
 20
11.5490173742
 10
-3.4215129475
 20
11.5463706188
 10
-3.4210469594
 20
11.5437208732
 10
-3.4204835176
 20
11.5410703761
 10
-3.4198248474
 20
11.5384213659
 10
-3.4190731742
 20
11.5357760811
 10
-3.4182307235
 20
11.5331367602
 10
-3.4172997205
 20
11.5305056417
 10
-3.4162823906
 20
11.5278849641
 10
-3.4151809593
 20
11.5252769659
 10
-3.4139976519
 20
11.5226838857
 10
-3.4127346937
 20
11.5201079619
 10
-3.4113943102
 20
11.517551433
 10
-3.4099787267
 20
11.5150165375
 10
-3.4084901687
 20
11.512505514
 10
-3.4069308614
 20
11.5100206009
 10
-3.4053030302
 20
11.5075640368
 10
-3.4036089006
 20
11.5051380601
 10
-3.4018506979
 20
11.5027449093
 10
-3.4000306474
 20
11.500386823
 10
-3.3981509747
 20
11.4980660397
 10
-3.3962139049
 20
11.4957847977
 10
-3.3942216636
 20
11.4935453358
 10
-3.392176476
 20
11.4913498923
 10
-3.3900805676
 20
11.4892007058
 10
-3.3879361638
 20
11.4871000147
 10
-3.3857454898
 20
11.4850500576
 10
-3.3835107712
 20
11.483053073
 10
-3.3812342332
 20
11.4811112993
 10
-3.3789181012
 20
11.4792269752
 10
-3.3765646006
 20
11.477402339
 10
-3.3741759569
 20
11.4756396293
 10
-3.3717543953
 20
11.4739410845
 10
-3.3693021412
 20
11.4723089433
 10
-3.3668214201
 20
11.4707454441
 10
-3.3643144572
 20
11.4692528253
 10
-3.361783478
 20
11.4678333256
 10
-3.3592307079
 20
11.4664891833
 10
-3.3566583722
 20
11.4652226371
 10
-3.3540686963
 20
11.4640359253
 10
-3.3514639055
 20
11.4629312866
 10
-3.3488462253
 20
11.4619109594
 10
-3.346217881
 20
11.4609771822
 10
-3.343581098
 20
11.4601321935
 10
-3.3409381017
 20
11.4593782318
 10
-3.3382911175
 20
11.4587175357
 10
-3.3356423706
 20
11.4581523435
 10
-3.3329940866
 20
11.457684894
 10
-3.3303484907
 20
11.4573174254
 10
-3.3277078084
 20
11.4570521764
 10
-3.325074265
 20
11.4568913854
 10
-3.322450086
 20
11.456837291
  0
LINE
  5
2BA
100
AcDbEntity
  8
CURVE
100
AcDbLine
 62
250
  6
CONTINUOUS
 10
-3.4227023646
 20
-14.1216186488
 11
-3.4227023646
 21
-18.4514146547
  0
LINE
  5
2BB
100
AcDbEntity
  8
CURVE
100
AcDbLine
 62
250
  6
CONTINUOUS
 10
-3.422357855
 20
15.8865410659
 11
-3.422357855
 21
11.5569173148
  0
LINE
  5
2BC
100
AcDbEntity
  8
CURVE
100
AcDbLine
 62
250
  6
CONTINUOUS
 10
-2.9228190097
 20
11.9567206459
 11
-2.9228190097
 21
15.7104966866
  0
LINE
  5
2BD
100
AcDbEntity
  8
CURVE
100
AcDbLine
 62
250
  6
CONTINUOUS
 10
-2.9221299906
 20
-18.0514390688
 11
-2.9221299906
 21
-14.2976630281
  0
LINE
  5
2BE
100
AcDbEntity
  8
0
100
AcDbLine
 62
7
  6
CONTINUOUS
 10
-1.0
 20
0.9
 11
-1.0
 21
-0.9
  0
LINE
  5
2BF
100
AcDbEntity
  8
DRAFT
100
AcDbLine
 62
7
  6
CONTINUOUS
 10
-1.0
 20
0.9
 11
-1.0
 21
-0.9
  0
LINE
  5
2C0
100
AcDbEntity
  8
ASSI
100
AcDbLine
 62
7
  6
CONTINUOUS
 10
-1.0
 20
0.9
 11
-1.0
 21
-0.9
  0
LINE
  5
2C1
100
AcDbEntity
  8
0
100
AcDbLine
 62
7
  6
CONTINUOUS
 10
-0.9
 20
-1.0
 11
0.9
 21
-1.0
  0
LINE
  5
2C2
100
AcDbEntity
  8
DRAFT
100
AcDbLine
 62
7
  6
CONTINUOUS
 10
-0.9
 20
-1.0
 11
0.9
 21
-1.0
  0
LINE
  5
2C3
100
AcDbEntity
  8
ASSI
100
AcDbLine
 62
7
  6
CONTINUOUS
 10
-0.9
 20
-1.0
 11
0.9
 21
-1.0
  0
LWPOLYLINE
  5
2C4
100
AcDbEntity
  8
CURVE
100
AcDbPolyline
 62
250
  6
CONTINUOUS
 90
55
 70
0
 10
0.6597357854
 20
-16.2761813653
 10
0.6597627656
 20
-16.2774923679
 10
0.6598429629
 20
-16.278808134
 10
0.6599752623
 20
-16.2801275485
 10
0.6601585487
 20
-16.2814494963
 10
0.6603917072
 20
-16.2827728625
 10
0.6606736228
 20
-16.2840965321
 10
0.6610031803
 20
-16.2854193901
 10
0.661379265
 20
-16.2867403214
 10
0.6618007616
 20
-16.288058211
 10
0.6622665552
 20
-16.289371944
 10
0.6627755308
 20
-16.2906804053
 10
0.6633265734
 20
-16.2919824799
 10
0.663918568
 20
-16.2932770528
 10
0.6645503996
 20
-16.294563009
 10
0.6652209531
 20
-16.2958392335
 10
0.6659291136
 20
-16.2971046113
 10
0.6666737661
 20
-16.2983580273
 10
0.6674537954
 20
-16.2995983666
 10
0.6682680867
 20
-16.3008245141
 10
0.6691155249
 20
-16.3020353549
 10
0.669994995
 20
-16.3032297739
 10
0.670905382
 20
-16.3044066561
 10
0.6718455709
 20
-16.3055648866
 10
0.6728144466
 20
-16.3067033502
 10
0.6738108943
 20
-16.307820932
 10
0.6748337987
 20
-16.308916517
 10
0.6758820451
 20
-16.3099889902
 10
0.6769545182
 20
-16.3110372365
 10
0.6780501032
 20
-16.312060141
 10
0.6791676851
 20
-16.3130565886
 10
0.6803061487
 20
-16.3140254644
 10
0.6814643791
 20
-16.3149656533
 10
0.6826412613
 20
-16.3158760403
 10
0.6838356803
 20
-16.3167555104
 10
0.6850465211
 20
-16.3176029485
 10
0.6862726686
 20
-16.3184172398
 10
0.6875130079
 20
-16.3191972692
 10
0.688766424
 20
-16.3199419216
 10
0.6900318017
 20
-16.3206500821
 10
0.6913080262
 20
-16.3213206356
 10
0.6925939824
 20
-16.3219524672
 10
0.6938885553
 20
-16.3225444618
 10
0.69519063
 20
-16.3230955044
 10
0.6964990913
 20
-16.32360448
 10
0.6978128242
 20
-16.3240702737
 10
0.6991307139
 20
-16.3244917703
 10
0.7004516452
 20
-16.3248678549
 10
0.7017745031
 20
-16.3251974125
 10
0.7030981727
 20
-16.325479328
 10
0.704421539
 20
-16.3257124865
 10
0.7057434868
 20
-16.3258957729
 10
0.7070629013
 20
-16.3260280723
 10
0.7083786673
 20
-16.3261082696
 10
0.70968967
 20
-16.3261352498
  0
LINE
  5
2C5
100
AcDbEntity
  8
CURVE
100
AcDbLine
 62
250
  6
CONTINUOUS
 10
0.6597357854
 20
-15.8762057794
 11
0.6597357854
 21
-16.2761813653
  0
LINE
  5
2C6
100
AcDbEntity
  8
0
100
AcDbLine
 62
7
  6
CONTINUOUS
 10
1.0
 20
-0.9
 11
1.0
 21
0.9
  0
LINE
  5
2C7
100
AcDbEntity
  8
DRAFT
100
AcDbLine
 62
7
  6
CONTINUOUS
 10
1.0
 20
-0.9
 11
1.0
 21
0.9
  0
LINE
  5
2C8
100
AcDbEntity
  8
ASSI
100
AcDbLine
 62
7
  6
CONTINUOUS
 10
1.0
 20
-0.9
 11
1.0
 21
0.9
  0
LINE
  5
2C9
100
AcDbEntity
  8
0
100
AcDbLine
 62
7
  6
CONTINUOUS
 10
0.9
 20
1.0
 11
-0.9
 21
1.0
  0
LINE
  5
2CA
100
AcDbEntity
  8
DRAFT
100
AcDbLine
 62
7
  6
CONTINUOUS
 10
0.9
 20
1.0
 11
-0.9
 21
1.0
  0
LINE
  5
2CB
100
AcDbEntity
  8
ASSI
100
AcDbLine
 62
7
  6
CONTINUOUS
 10
0.9
 20
1.0
 11
-0.9
 21
1.0
  0
LWPOLYLINE
  5
2CC
100
AcDbEntity
  8
0
100
AcDbPolyline
 62
7
  6
CONTINUOUS
 90
4
 70
0
 43
0.3500000006
 10
17.9928576164
 20
1.928571373
 10
17.34999963
 20
1.928571373
 10
17.34999963
 20
3.4285718307
 10
20.3499994125
 20
2.5714293594
  0
LWPOLYLINE
  5
2CD
100
AcDbEntity
  8
CURVE
100
AcDbPolyline
 62
250
  6
CONTINUOUS
 90
55
 70
0
 10
3.1274576815
 20
-18.1013929534
 10
3.1274307013
 20
-18.1000819507
 10
3.127350504
 20
-18.0987661847
 10
3.1272182046
 20
-18.0974467702
 10
3.1270349182
 20
-18.0961248224
 10
3.1268017597
 20
-18.0948014561
 10
3.1265198442
 20
-18.0934777865
 10
3.1261902866
 20
-18.0921549286
 10
3.125814202
 20
-18.0908339973
 10
3.1253927054
 20
-18.0895161076
 10
3.1249269117
 20
-18.0882023747
 10
3.1244179361
 20
-18.0868939134
 10
3.1238668935
 20
-18.0855918388
 10
3.1232748989
 20
-18.0842972658
 10
3.1226430673
 20
-18.0830113096
 10
3.1219725138
 20
-18.0817350851
 10
3.1212643533
 20
-18.0804697074
 10
3.1205197009
 20
-18.0792162913
 10
3.1197396715
 20
-18.077975952
 10
3.1189253802
 20
-18.0767498045
 10
3.118077942
 20
-18.0755389637
 10
3.1171984719
 20
-18.0743445447
 10
3.1162880849
 20
-18.0731676625
 10
3.1153478961
 20
-18.0720094321
 10
3.1143790203
 20
-18.0708709685
 10
3.1133825727
 20
-18.0697533866
 10
3.1123596682
 20
-18.0686578016
 10
3.1113114219
 20
-18.0675853285
 10
3.1102389487
 20
-18.0665370822
 10
3.1091433637
 20
-18.0655141777
 10
3.1080257819
 20
-18.06451773
 10
3.1068873183
 20
-18.0635488543
 10
3.1057290878
 20
-18.0626086654
 10
3.1045522056
 20
-18.0616982784
 10
3.1033577866
 20
-18.0608188083
 10
3.1021469458
 20
-18.0599713701
 10
3.1009207983
 20
-18.0591570788
 10
3.099680459
 20
-18.0583770495
 10
3.098427043
 20
-18.057632397
 10
3.0971616652
 20
-18.0569242366
 10
3.0958854407
 20
-18.056253683
 10
3.0945994845
 20
-18.0556218515
 10
3.0933049116
 20
-18.0550298569
 10
3.092002837
 20
-18.0544788142
 10
3.0906943757
 20
-18.0539698386
 10
3.0893806427
 20
-18.053504045
 10
3.0880627531
 20
-18.0530825484
 10
3.0867418218
 20
-18.0527064638
 10
3.0854189638
 20
-18.0523769062
 10
3.0840952942
 20
-18.0520949906
 10
3.082771928
 20
-18.0518618322
 10
3.0814499801
 20
-18.0516785457
 10
3.0801305657
 20
-18.0515462463
 10
3.0788147996
 20
-18.0514660491
 10
3.077503797
 20
-18.0514390688
  0
LWPOLYLINE
  5
2CE
100
AcDbEntity
  8
CURVE
100
AcDbPolyline
 62
250
  6
CONTINUOUS
 90
55
 70
0
 10
3.1274576815
 20
11.9067667614
 10
3.1274307013
 20
11.908077764
 10
3.127350504
 20
11.9093935301
 10
3.1272182046
 20
11.9107129445
 10
3.1270349182
 20
11.9120348924
 10
3.1268017597
 20
11.9133582586
 10
3.1265198442
 20
11.9146819282
 10
3.1261902866
 20
11.9160047861
 10
3.125814202
 20
11.9173257174
 10
3.1253927054
 20
11.9186436071
 10
3.1249269117
 20
11.9199573401
 10
3.1244179361
 20
11.9212658014
 10
3.1238668935
 20
11.922567876
 10
3.1232748989
 20
11.9238624489
 10
3.1226430673
 20
11.9251484051
 10
3.1219725138
 20
11.9264246296
 10
3.1212643533
 20
11.9276900073
 10
3.1205197009
 20
11.9289434234
 10
3.1197396715
 20
11.9301837627
 10
3.1189253802
 20
11.9314099102
 10
3.118077942
 20
11.932620751
 10
3.1171984719
 20
11.93381517
 10
3.1162880849
 20
11.9349920522
 10
3.1153478961
 20
11.9361502826
 10
3.1143790203
 20
11.9372887463
 10
3.1133825727
 20
11.9384063281
 10
3.1123596682
 20
11.9395019131
 10
3.1113114219
 20
11.9405743862
 10
3.1102389487
 20
11.9416226326
 10
3.1091433637
 20
11.9426455371
 10
3.1080257819
 20
11.9436419847
 10
3.1068873183
 20
11.9446108604
 10
3.1057290878
 20
11.9455510493
 10
3.1045522056
 20
11.9464614363
 10
3.1033577866
 20
11.9473409064
 10
3.1021469458
 20
11.9481883446
 10
3.1009207983
 20
11.9490026359
 10
3.099680459
 20
11.9497826652
 10
3.098427043
 20
11.9505273177
 10
3.0971616652
 20
11.9512354782
 10
3.0958854407
 20
11.9519060317
 10
3.0945994845
 20
11.9525378633
 10
3.0933049116
 20
11.9531298579
 10
3.092002837
 20
11.9536809005
 10
3.0906943757
 20
11.9541898761
 10
3.0893806427
 20
11.9546556697
 10
3.0880627531
 20
11.9550771664
 10
3.0867418218
 20
11.955453251
 10
3.0854189638
 20
11.9557828085
 10
3.0840952942
 20
11.9560647241
 10
3.082771928
 20
11.9562978826
 10
3.0814499801
 20
11.956481169
 10
3.0801305657
 20
11.9566134684
 10
3.0788147996
 20
11.9566936657
 10
3.077503797
 20
11.9567206459
  0
LWPOLYLINE
  5
2CF
100
AcDbEntity
  8
CURVE
100
AcDbPolyline
 62
250
  6
CONTINUOUS
 90
55
 70
0
 10
3.674194335
 20
14.1305758971
 10
3.6741673548
 20
14.1318868997
 10
3.6740871575
 20
14.1332026658
 10
3.6739548581
 20
14.1345220802
 10
3.6737715717
 20
14.1358440281
 10
3.6735384132
 20
14.1371673943
 10
3.6732564977
 20
14.1384910639
 10
3.6729269401
 20
14.1398139219
 10
3.6725508555
 20
14.1411348532
 10
3.6721293589
 20
14.1424527428
 10
3.6716635652
 20
14.1437664758
 10
3.6711545896
 20
14.1450749371
 10
3.670603547
 20
14.1463770117
 10
3.6700115524
 20
14.1476715846
 10
3.6693797208
 20
14.1489575408
 10
3.6687091673
 20
14.1502337653
 10
3.6680010068
 20
14.1514991431
 10
3.6672563544
 20
14.1527525591
 10
3.666476325
 20
14.1539928984
 10
3.6656620337
 20
14.1552190459
 10
3.6648145956
 20
14.1564298867
 10
3.6639351254
 20
14.1576243057
 10
3.6630247385
 20
14.1588011879
 10
3.6620845496
 20
14.1599594184
 10
3.6611156738
 20
14.161097882
 10
3.6601192262
 20
14.1622154638
 10
3.6590963217
 20
14.1633110488
 10
3.6580480754
 20
14.164383522
 10
3.6569756022
 20
14.1654317683
 10
3.6558800172
 20
14.1664546728
 10
3.6547624354
 20
14.1674511204
 10
3.6536239718
 20
14.1684199962
 10
3.6524657413
 20
14.169360185
 10
3.6512888591
 20
14.170270572
 10
3.6500944401
 20
14.1711500421
 10
3.6488835993
 20
14.1719974803
 10
3.6476574518
 20
14.1728117716
 10
3.6464171125
 20
14.173591801
 10
3.6451636965
 20
14.1743364534
 10
3.6438983187
 20
14.1750446139
 10
3.6426220942
 20
14.1757151674
 10
3.641336138
 20
14.176346999
 10
3.6400415651
 20
14.1769389936
 10
3.6387394905
 20
14.1774900362
 10
3.6374310292
 20
14.1779990118
 10
3.6361172962
 20
14.1784648055
 10
3.6347994066
 20
14.1788863021
 10
3.6334784753
 20
14.1792623867
 10
3.6321556173
 20
14.1795919443
 10
3.6308319477
 20
14.1798738598
 10
3.6295085815
 20
14.1801070183
 10
3.6281866336
 20
14.1802903047
 10
3.6268672192
 20
14.1804226041
 10
3.6255514531
 20
14.1805028014
 10
3.6242404505
 20
14.1805297816
  0
LINE
  5
2D0
100
AcDbEntity
  8
CURVE
100
AcDbLine
 62
250
  6
CONTINUOUS
 10
3.1274576815
 20
-18.5013685392
 11
3.1274576815
 21
-18.1013929534
  0
LINE
  5
2D1
100
AcDbEntity
  8
CURVE
100
AcDbLine
 62
250
  6
CONTINUOUS
 10
3.1274576815
 20
11.5067911755
 11
3.1274576815
 21
11.9067667614
  0
LINE
  5
2D2
100
AcDbEntity
  8
CURVE
100
AcDbLine
 62
250
  6
CONTINUOUS
 10
3.674194335
 20
13.7309448208
 11
3.674194335
 21
14.1305758971
  0
LINE
  5
2D3
100
AcDbEntity
  8
CURVE
100
AcDbLine
 62
7
  6
CONTINUOUS
 10
-3.4227023646
 20
-14.3096344579
 11
-0.6926304063
 21
-11.5795624996
  0
LWPOLYLINE
  5
2D4
100
AcDbEntity
  8
0
100
AcDbPolyline
 62
7
  6
CONTINUOUS
 90
3
 70
0
 43
0.3500000006
 10
20.0642860107
 20
0.9285710678
 10
20.2785704956
 20
0.8571421509
 10
20.5642861633
 20
0.7142865829
  0
LINE
  5
2D5
100
AcDbEntity
  8
CURVE
100
AcDbLine
 62
7
  6
CONTINUOUS
 10
-3.4227023646
 20
-14.7296558859
 11
0.1688956975
 21
-11.1380578238
  0
LINE
  5
2D6
100
AcDbEntity
  8
CURVE
100
AcDbLine
 62
7
  6
CONTINUOUS
 10
-3.4227023646
 20
-15.1496773139
 11
-2.9221299906
 21
-14.6491049399
  0
LINE
  5
2D7
100
AcDbEntity
  8
CURVE
100
AcDbLine
 62
7
  6
CONTINUOUS
 10
0.0341827471
 20
-11.6927922023
 11
0.3880781312
 21
-11.3388968182
  0
LINE
  5
2D8
100
AcDbEntity
  8
CURVE
100
AcDbLine
 62
7
  6
CONTINUOUS
 10
-3.4227023646
 20
-15.5696987419
 11
-2.9221299906
 21
-15.0691263679
  0
LINE
  5
2D9
100
AcDbEntity
  8
CURVE
100
AcDbLine
 62
7
  6
CONTINUOUS
 10
0.2533617728
 20
-11.8936346045
 11
0.6072605648
 21
-11.5397358126
  0
LINE
  5
2DA
100
AcDbEntity
  8
CURVE
100
AcDbLine
 62
7
  6
CONTINUOUS
 10
-3.4227023646
 20
-15.98972017
 11
-2.9221299906
 21
-15.489147796
  0
LINE
  5
2DB
100
AcDbEntity
  8
CURVE
100
AcDbLine
 62
7
  6
CONTINUOUS
 10
0.4725407986
 20
-12.0944770068
 11
0.8264429984
 21
-11.7405748069
  0
LINE
  5
2DC
100
AcDbEntity
  8
CURVE
100
AcDbLine
 62
7
  6
CONTINUOUS
 10
-3.4227023646
 20
-16.409741598
 11
-2.9221299906
 21
-15.909169224
  0
LINE
  5
2DD
100
AcDbEntity
  8
CURVE
100
AcDbLine
 62
7
  6
CONTINUOUS
 10
0.6917198244
 20
-12.295319409
 11
1.0456254321
 21
-11.9414138013
  0
LINE
  5
2DE
100
AcDbEntity
  8
CURVE
100
AcDbLine
 62
7
  6
CONTINUOUS
 10
-3.4227023646
 20
-16.829763026
 11
-2.9221299906
 21
-16.329190652
  0
LINE
  5
2DF
100
AcDbEntity
  8
CURVE
100
AcDbLine
 62
7
  6
CONTINUOUS
 10
0.9108988501
 20
-12.4961618113
 11
1.2648078657
 21
-12.1422527957
  0
LINE
  5
2E0
100
AcDbEntity
  8
CURVE
100
AcDbLine
 62
7
  6
CONTINUOUS
 10
-3.4227023646
 20
-17.249784454
 11
-2.9221299906
 21
-16.74921208
  0
LINE
  5
2E1
100
AcDbEntity
  8
CURVE
100
AcDbLine
 62
7
  6
CONTINUOUS
 10
1.1300778759
 20
-12.6970042135
 11
1.4839902994
 21
-12.3430917901
  0
LWPOLYLINE
  5
2E2
100
AcDbEntity
  8
CURVE
100
AcDbPolyline
 62
250
  6
CONTINUOUS
 90
36
 70
0
 10
-3.390318467
 20
-14.0478936054
 10
-3.3919966944
 20
-14.0494739231
 10
-3.3936389561
 20
-14.0511044524
 10
-3.395244495
 20
-14.052783442
 10
-3.3968125543
 20
-14.0545091408
 10
-3.3983423768
 20
-14.0562797974
 10
-3.3998332057
 20
-14.0580936605
 10
-3.401284284
 20
-14.059948979
 10
-3.4026948546
 20
-14.0618440016
 10
-3.4040641606
 20
-14.0637769769
 10
-3.405391445
 20
-14.0657461538
 10
-3.4066759508
 20
-14.067749781
 10
-3.4079169211
 20
-14.0697861073
 10
-3.4091135988
 20
-14.0718533813
 10
-3.410265227
 20
-14.0739498518
 10
-3.4113710487
 20
-14.0760737675
 10
-3.4124303069
 20
-14.0782233773
 10
-3.4134422447
 20
-14.0803969298
 10
-3.414406105
 20
-14.0825926738
 10
-3.4153211308
 20
-14.084808858
 10
-3.4161865653
 20
-14.0870437312
 10
-3.4170016513
 20
-14.0892955421
 10
-3.417765632
 20
-14.0915625394
 10
-3.4184777503
 20
-14.0938429719
 10
-3.4191372493
 20
-14.0961350884
 10
-3.419743372
 20
-14.0984371375
 10
-3.4202953613
 20
-14.100747368
 10
-3.4207924604
 20
-14.1030640287
 10
-3.4212339121
 20
-14.1053853683
 10
-3.4216189597
 20
-14.1077096355
 10
-3.421946846
 20
-14.1100350791
 10
-3.4222168141
 20
-14.1123599478
 10
-3.4224281069
 20
-14.1146824904
 10
-3.4225799677
 20
-14.1170009556
 10
-3.4226716392
 20
-14.1193135922
 10
-3.4227023646
 20
-14.1216186488
  0
LINE
  5
2E3
100
AcDbEntity
  8
CURVE
100
AcDbLine
 62
250
  6
CONTINUOUS
 10
-0.0878499349
 20
-11.0262003553
 11
-3.390318467
 21
-14.0478936054
  0
LINE
  5
2E4
100
AcDbEntity
  8
CURVE
100
AcDbLine
 62
250
  6
CONTINUOUS
 10
-2.9221299906
 20
-14.2976630281
 11
-0.0206705729
 21
-11.6425279376
  0
LWPOLYLINE
  5
2E5
100
AcDbEntity
  8
0
100
AcDbPolyline
 62
7
  6
CONTINUOUS
 90
10
 70
0
 43
0.3500000006
 10
19.8499992599
 20
0.8571421509
 10
19.9928570938
 20
0.9285710678
 10
20.0642860107
 20
0.9285710678
 10
20.2071438446
 20
0.7857132339
 10
20.2071438446
 20
0.7142865829
 10
20.1357149277
 20
0.642857666
 10
20.0642860107
 20
0.642857666
 10
19.9214281769
 20
0.7142865829
 10
19.8499992599
 20
0.7857132339
 10
19.8499992599
 20
0.8571421509
  0
LWPOLYLINE
  5
2E6
100
AcDbEntity
  8
CURVE
100
AcDbPolyline
 62
250
  6
CONTINUOUS
 90
37
 70
0
 10
1.7697929962
 20
12.5728624679
 10
1.7705563447
 20
12.5720050416
 10
1.7713456876
 20
12.5711653408
 10
1.7721601351
 20
12.5703437382
 10
1.7729987973
 20
12.5695406065
 10
1.7738607846
 20
12.5687563182
 10
1.7747452072
 20
12.567991246
 10
1.7756511753
 20
12.5672457625
 10
1.7765777992
 20
12.5665202403
 10
1.777524189
 20
12.565815052
 10
1.7784894552
 20
12.5651305703
 10
1.7794727078
 20
12.5644671678
 10
1.7804730571
 20
12.563825217
 10
1.7814896135
 20
12.5632050907
 10
1.782521487
 20
12.5626071614
 10
1.783567788
 20
12.5620318018
 10
1.7846276267
 20
12.5614793844
 10
1.7857001134
 20
12.560950282
 10
1.7867843583
 20
12.560444867
 10
1.7878794715
 20
12.5599635122
 10
1.7889845635
 20
12.5595065902
 10
1.7900987444
 20
12.5590744735
 10
1.7912211244
 20
12.5586675348
 10
1.7923508138
 20
12.5582861468
 10
1.7934869229
 20
12.557930682
 10
1.7946285618
 20
12.557601513
 10
1.7957748409
 20
12.5572990126
 10
1.7969248703
 20
12.5570235532
 10
1.7980777603
 20
12.5567755076
 10
1.7992326212
 20
12.5565552482
 10
1.8003885632
 20
12.5563631479
 10
1.8015446965
 20
12.5561995791
 10
1.8027001314
 20
12.5560649146
 10
1.8038539781
 20
12.5559595268
 10
1.8050053469
 20
12.5558837886
 10
1.806153348
 20
12.5558380723
 10
1.8072970916
 20
12.5558227508
  0
LINE
  5
2E7
100
AcDbEntity
  8
CURVE
100
AcDbLine
 62
250
  6
CONTINUOUS
 10
0.6562906899
 20
13.8985487161
 11
1.7690565317
 21
12.5737372473
  0
LINE
  5
2E8
100
AcDbEntity
  8
COPY_PUBLISH
100
AcDbLine
 62
250
  6
CONTINUOUS
 10
10.5134150626
 20
26.3132437251
 11
10.5134150626
 21
-26.3132437251
  0
LINE
  5
2E9
100
AcDbEntity
  8
ASSI
100
AcDbLine
 62
250
  6
CONTINUOUS
 10
10.5134150626
 20
26.3132437251
 11
10.5134150626
 21
-26.3132437251
  0
LINE
  5
2EA
100
AcDbEntity
  8
COPY_PUBLISH
100
AcDbLine
 62
250
  6
CONTINUOUS
 10
11.0132437251
 20
25.8134150626
 11
11.0132437251
 21
-25.8134150626
  0
LINE
  5
2EB
100
AcDbEntity
  8
ASSI
100
AcDbLine
 62
250
  6
CONTINUOUS
 10
11.0132437251
 20
25.8134150626
 11
11.0132437251
 21
-25.8134150626
  0
LINE
  5
2EC
100
AcDbEntity
  8
0
100
AcDbLine
 62
7
  6
CONTINUOUS
 10
11.0345351961
 20
-25.8347065336
 11
11.0345351961
 21
25.8347065336
  0
LINE
  5
2ED
100
AcDbEntity
  8
ASSI
100
AcDbLine
 62
7
  6
CONTINUOUS
 10
11.0345351961
 20
-25.8347065336
 11
11.0345351961
 21
25.8347065336
  0
LINE
  5
2EE
100
AcDbEntity
  8
CURVE
100
AcDbLine
 62
7
  6
CONTINUOUS
 10
-3.4227023646
 20
-17.6698058821
 11
-2.9221299906
 21
-17.1692335081
  0
LINE
  5
2EF
100
AcDbEntity
  8
CURVE
100
AcDbLine
 62
7
  6
CONTINUOUS
 10
1.3492569017
 20
-12.8978466158
 11
1.703172733
 21
-12.5439307845
  0
LINE
  5
2F0
100
AcDbEntity
  8
CURVE
100
AcDbLine
 62
7
  6
CONTINUOUS
 10
-3.4227023646
 20
-18.0898273101
 11
-2.9221299906
 21
-17.5892549361
  0
LINE
  5
2F1
100
AcDbEntity
  8
CURVE
100
AcDbLine
 62
7
  6
CONTINUOUS
 10
1.5684359275
 20
-13.098689018
 11
1.9223551666
 21
-12.7447697789
  0
LINE
  5
2F2
100
AcDbEntity
  8
0
100
AcDbLine
 62
250
  6
CONTINUOUS
 10
-11.0345351961
 20
-25.8347065336
 11
-11.0132437251
 21
-25.8134150626
  0
LINE
  5
2F3
100
AcDbEntity
  8
ASSI
100
AcDbLine
 62
250
  6
CONTINUOUS
 10
-11.0345351961
 20
-25.8347065336
 11
-11.0132437251
 21
-25.8134150626
  0
LINE
  5
2F4
100
AcDbEntity
  8
CURVE
100
AcDbLine
 62
7
  6
CONTINUOUS
 10
-3.4086859929
 20
-18.4958323665
 11
-2.9221299906
 21
-18.0092763641
  0
LINE
  5
2F5
100
AcDbEntity
  8
CURVE
100
AcDbLine
 62
7
  6
CONTINUOUS
 10
1.7876149532
 20
-13.2995314203
 11
2.1415376003
 21
-12.9456087732
  0
LINE
  5
2F6
100
AcDbEntity
  8
CURVE
100
AcDbLine
 62
7
  6
CONTINUOUS
 10
-3.0441546222
 20
-18.5513224237
 11
-2.5442712673
 21
-18.0514390688
  0
LINE
  5
2F7
100
AcDbEntity
  8
CURVE
100
AcDbLine
 62
7
  6
CONTINUOUS
 10
2.006793979
 20
-13.5003738225
 11
2.3607200339
 21
-13.1464477676
  0
LINE
  5
2F8
100
AcDbEntity
  8
0
100
AcDbLine
 62
250
  6
CONTINUOUS
 10
-10.5347065336
 20
-26.3345351961
 11
-10.5134150626
 21
-26.3132437251
  0
LINE
  5
2F9
100
AcDbEntity
  8
ASSI
100
AcDbLine
 62
250
  6
CONTINUOUS
 10
-10.5347065336
 20
-26.3345351961
 11
-10.5134150626
 21
-26.3132437251
  0
LINE
  5
2FA
100
AcDbEntity
  8
CURVE
100
AcDbLine
 62
7
  6
CONTINUOUS
 10
-2.6241331942
 20
-18.5513224237
 11
-2.1242498393
 21
-18.0514390688
  0
LINE
  5
2FB
100
AcDbEntity
  8
CURVE
100
AcDbLine
 62
7
  6
CONTINUOUS
 10
2.2259730048
 20
-13.7012162248
 11
2.5799024676
 21
-13.347286762
  0
LINE
  5
2FC
100
AcDbEntity
  8
CURVE
100
AcDbLine
 62
7
  6
CONTINUOUS
 10
-2.2041117661
 20
-18.5513224237
 11
-1.7042284112
 21
-18.0514390688
  0
LINE
  5
2FD
100
AcDbEntity
  8
CURVE
100
AcDbLine
 62
7
  6
CONTINUOUS
 10
2.4451520305
 20
-13.9020586271
 11
2.7990849012
 21
-13.5481257564
  0
LWPOLYLINE
  5
2FE
100
AcDbEntity
  8
CURVE
100
AcDbPolyline
 62
250
  6
CONTINUOUS
 90
55
 70
0
 10
3.077503797
 20
11.456837291
 10
3.0788147996
 20
11.4568642712
 10
3.0801305657
 20
11.4569444685
 10
3.0814499801
 20
11.4570767678
 10
3.082771928
 20
11.4572600543
 10
3.0840952942
 20
11.4574932128
 10
3.0854189638
 20
11.4577751283
 10
3.0867418218
 20
11.4581046859
 10
3.0880627531
 20
11.4584807705
 10
3.0893806427
 20
11.4589022671
 10
3.0906943757
 20
11.4593680607
 10
3.092002837
 20
11.4598770364
 10
3.0933049116
 20
11.460428079
 10
3.0945994845
 20
11.4610200736
 10
3.0958854407
 20
11.4616519052
 10
3.0971616652
 20
11.4623224587
 10
3.098427043
 20
11.4630306192
 10
3.099680459
 20
11.4637752716
 10
3.1009207983
 20
11.464555301
 10
3.1021469458
 20
11.4653695922
 10
3.1033577866
 20
11.4662170304
 10
3.1045522056
 20
11.4670965005
 10
3.1057290878
 20
11.4680068875
 10
3.1068873183
 20
11.4689470764
 10
3.1080257819
 20
11.4699159522
 10
3.1091433637
 20
11.4709123998
 10
3.1102389487
 20
11.4719353043
 10
3.1113114219
 20
11.4729835506
 10
3.1123596682
 20
11.4740560238
 10
3.1133825727
 20
11.4751516088
 10
3.1143790203
 20
11.4762691906
 10
3.1153478961
 20
11.4774076542
 10
3.1162880849
 20
11.4785658847
 10
3.1171984719
 20
11.4797427669
 10
3.118077942
 20
11.4809371859
 10
3.1189253802
 20
11.4821480266
 10
3.1197396715
 20
11.4833741742
 10
3.1205197009
 20
11.4846145135
 10
3.1212643533
 20
11.4858679295
 10
3.1219725138
 20
11.4871333073
 10
3.1226430673
 20
11.4884095318
 10
3.1232748989
 20
11.489695488
 10
3.1238668935
 20
11.4909900609
 10
3.1244179361
 20
11.4922921355
 10
3.1249269117
 20
11.4936005968
 10
3.1253927054
 20
11.4949143298
 10
3.125814202
 20
11.4962322194
 10
3.1261902866
 20
11.4975531507
 10
3.1265198442
 20
11.4988760087
 10
3.1268017597
 20
11.5001996783
 10
3.1270349182
 20
11.5015230445
 10
3.1272182046
 20
11.5028449923
 10
3.127350504
 20
11.5041644068
 10
3.1274307013
 20
11.5054801729
 10
3.1274576815
 20
11.5067911755
  0
LINE
  5
2FF
100
AcDbEntity
  8
CURVE
100
AcDbLine
 62
250
  6
CONTINUOUS
 10
-3.322450086
 20
11.456837291
 11
3.077503797
 21
11.456837291
  0
LINE
  5
300
100
AcDbEntity
  8
0
100
AcDbLine
 62
250
  6
CONTINUOUS
 10
-11.0132437251
 20
25.8134150626
 11
-11.0345351961
 21
25.8347065336
  0
LINE
  5
301
100
AcDbEntity
  8
ASSI
100
AcDbLine
 62
250
  6
CONTINUOUS
 10
-11.0132437251
 20
25.8134150626
 11
-11.0345351961
 21
25.8347065336
  0
LINE
  5
302
100
AcDbEntity
  8
0
100
AcDbLine
 62
250
  6
CONTINUOUS
 10
-10.5134150626
 20
26.3132437251
 11
-10.5347065336
 21
26.3345351961
  0
LINE
  5
303
100
AcDbEntity
  8
ASSI
100
AcDbLine
 62
250
  6
CONTINUOUS
 10
-10.5134150626
 20
26.3132437251
 11
-10.5347065336
 21
26.3345351961
  0
LINE
  5
304
100
AcDbEntity
  8
CURVE
100
AcDbLine
 62
250
  6
CONTINUOUS
 10
2.367814127
 20
12.6379882781
 11
1.4927598738
 21
13.6809909363
  0
LWPOLYLINE
  5
305
100
AcDbEntity
  8
COPY_PUBLISH
100
AcDbPolyline
 62
250
  6
CONTINUOUS
 90
16
 70
0
 10
11.0132437251
 20
25.8134150626
 10
11.01045539
 20
25.8657975315
 10
11.0021929183
 20
25.9176029172
 10
10.9885473613
 20
25.9682606712
 10
10.9696665657
 20
26.0172184586
 10
10.9457598445
 20
26.0639310247
 10
10.9171013786
 20
26.1078690436
 10
10.8840193212
 20
26.1485433419
 10
10.8468760531
 20
26.1855204357
 10
10.8060702069
 20
26.2184079346
 10
10.761986418
 20
26.2468816807
 10
10.7151656414
 20
26.2705791398
 10
10.6663188279
 20
26.2891770144
 10
10.6160695894
 20
26.3025182528
 10
10.5649154114
 20
26.3105481619
 10
10.5134150624
 20
26.3132437249
  0
LWPOLYLINE
  5
306
100
AcDbEntity
  8
ASSI
100
AcDbPolyline
 62
250
  6
CONTINUOUS
 90
16
 70
0
 10
11.0132437251
 20
25.8134150626
 10
11.01045539
 20
25.8657975315
 10
11.0021929183
 20
25.9176029172
 10
10.9885473613
 20
25.9682606712
 10
10.9696665657
 20
26.0172184586
 10
10.9457598445
 20
26.0639310247
 10
10.9171013786
 20
26.1078690436
 10
10.8840193212
 20
26.1485433419
 10
10.8468760531
 20
26.1855204357
 10
10.8060702069
 20
26.2184079346
 10
10.761986418
 20
26.2468816807
 10
10.7151656414
 20
26.2705791398
 10
10.6663188279
 20
26.2891770144
 10
10.6160695894
 20
26.3025182528
 10
10.5649154114
 20
26.3105481619
 10
10.5134150624
 20
26.3132437249
  0
LWPOLYLINE
  5
307
100
AcDbEntity
  8
COPY_PUBLISH
100
AcDbPolyline
 62
250
  6
CONTINUOUS
 90
16
 70
0
 10
11.0132437251
 20
-25.8134150626
 10
11.0104557606
 20
-25.8657940376
 10
11.0021943512
 20
-25.9175962153
 10
10.9885504711
 20
-25.9682511464
 10
10.9696717815
 20
-26.0172067959
 10
10.9457675487
 20
-26.0639177387
 10
10.9171122688
 20
-26.1078541194
 10
10.8840348897
 20
-26.1485261269
 10
10.8468972612
 20
-26.1855014262
 10
10.8060959292
 20
-26.2183893375
 10
10.762014426
 20
-26.2468656055
 10
10.7151938467
 20
-26.270566676
 10
10.6663444548
 20
-26.2891687618
 10
10.6160895555
 20
-26.3025140488
 10
10.5649267792
 20
-26.3105469765
 10
10.5134150626
 20
-26.3132437251
  0
LWPOLYLINE
  5
308
100
AcDbEntity
  8
ASSI
100
AcDbPolyline
 62
250
  6
CONTINUOUS
 90
16
 70
0
 10
11.0132437251
 20
-25.8134150626
 10
11.0104557606
 20
-25.8657940376
 10
11.0021943512
 20
-25.9175962153
 10
10.9885504711
 20
-25.9682511464
 10
10.9696717815
 20
-26.0172067959
 10
10.9457675487
 20
-26.0639177387
 10
10.9171122688
 20
-26.1078541194
 10
10.8840348897
 20
-26.1485261269
 10
10.8468972612
 20
-26.1855014262
 10
10.8060959292
 20
-26.2183893375
 10
10.762014426
 20
-26.2468656055
 10
10.7151938467
 20
-26.270566676
 10
10.6663444548
 20
-26.2891687618
 10
10.6160895555
 20
-26.3025140488
 10
10.5649267792
 20
-26.3105469765
 10
10.5134150626
 20
-26.3132437251
  0
LWPOLYLINE
  5
309
100
AcDbEntity
  8
CURVE
100
AcDbPolyline
 62
250
  6
CONTINUOUS
 90
50
 70
0
 10
3.6769504114
 20
-16.1084052152
 10
3.6777705144
 20
-16.1073822841
 10
3.6785564463
 20
-16.1063237532
 10
3.6793082074
 20
-16.1052311373
 10
3.6800257975
 20
-16.1041059513
 10
3.6807092166
 20
-16.1029497101
 10
3.6813584647
 20
-16.1017639285
 10
3.6819735419
 20
-16.1005501215
 10
3.6825544482
 20
-16.0993098039
 10
3.6831011835
 20
-16.0980444907
 10
3.6836137478
 20
-16.0967556967
 10
3.6840921412
 20
-16.0954449368
 10
3.6845363637
 20
-16.0941137259
 10
3.6849464151
 20
-16.0927635789
 10
3.6853222956
 20
-16.0913960106
 10
3.6856640052
 20
-16.0900125361
 10
3.6859715438
 20
-16.0886146701
 10
3.6862449115
 20
-16.0872039275
 10
3.6864841082
 20
-16.0857818233
 10
3.6866891339
 20
-16.0843498723
 10
3.6868599887
 20
-16.0829095894
 10
3.6869966725
 20
-16.0814624895
 10
3.6870991854
 20
-16.0800100874
 10
3.6871675273
 20
-16.0785538982
 10
3.6872016982
 20
-16.0770954366
 10
3.6872016982
 20
-16.0756362176
 10
3.6871675273
 20
-16.0741777561
 10
3.6870991854
 20
-16.0727215668
 10
3.6869966725
 20
-16.0712691648
 10
3.6868599887
 20
-16.0698220649
 10
3.6866891339
 20
-16.068381782
 10
3.6864841082
 20
-16.066949831
 10
3.6862449115
 20
-16.0655277268
 10
3.6859715438
 20
-16.0641169842
 10
3.6856640052
 20
-16.0627191182
 10
3.6853222956
 20
-16.0613356436
 10
3.6849464151
 20
-16.0599680754
 10
3.6845363637
 20
-16.0586179284
 10
3.6840921412
 20
-16.0572867175
 10
3.6836137478
 20
-16.0559759576
 10
3.6831011835
 20
-16.0546871636
 10
3.6825544482
 20
-16.0534218504
 10
3.6819735419
 20
-16.0521815328
 10
3.6813584647
 20
-16.0509677258
 10
3.6807092166
 20
-16.0497819442
 10
3.6800257975
 20
-16.048625703
 10
3.6793082074
 20
-16.047500517
 10
3.6785564463
 20
-16.046407901
 10
3.6777705144
 20
-16.0453493701
 10
3.6769504114
 20
-16.0443264391
  0
LWPOLYLINE
  5
30A
100
AcDbEntity
  8
CURVE
100
AcDbPolyline
 62
250
  6
CONTINUOUS
 90
65
 70
0
 10
1.9661159934
 20
-17.3696546723
 10
1.9650665004
 20
-17.3709614823
 10
1.964064893
 20
-17.3723163706
 10
1.9631117646
 20
-17.3737167949
 10
1.9622077082
 20
-17.3751602128
 10
1.9613533171
 20
-17.3766440817
 10
1.9605491845
 20
-17.3781658595
 10
1.9597959036
 20
-17.3797230036
 10
1.9590940677
 20
-17.3813129716
 10
1.9584442698
 20
-17.3829332212
 10
1.9578471032
 20
-17.3845812099
 10
1.9573031611
 20
-17.3862543953
 10
1.9568130368
 20
-17.3879502351
 10
1.9563773234
 20
-17.3896661868
 10
1.9559966141
 20
-17.3913997081
 10
1.9556715021
 20
-17.3931482565
 10
1.9554025806
 20
-17.3949092896
 10
1.9551904429
 20
-17.396680265
 10
1.9550356821
 20
-17.3984586404
 10
1.9549388914
 20
-17.4002418733
 10
1.9549006641
 20
-17.4020274213
 10
1.9549215933
 20
-17.403812742
 10
1.9550022722
 20
-17.4055952931
 10
1.9551432942
 20
-17.4073725321
 10
1.9553452522
 20
-17.4091419166
 10
1.9556087396
 20
-17.4109009042
 10
1.9559343496
 20
-17.4126469525
 10
1.9563226753
 20
-17.4143775191
 10
1.95677431
 20
-17.4160900616
 10
1.9572898469
 20
-17.4177820377
 10
1.9578698791
 20
-17.4194509048
 10
1.9585149999
 20
-17.4210941206
 10
1.9592258025
 20
-17.4227091428
 10
1.9600040854
 20
-17.4242969349
 10
1.9608465777
 20
-17.4258526595
 10
1.9617509362
 20
-17.4273751141
 10
1.9627148178
 20
-17.4288630959
 10
1.9637358791
 20
-17.4303154023
 10
1.9648117772
 20
-17.4317308307
 10
1.9659401687
 20
-17.4331081785
 10
1.9671187105
 20
-17.4344462429
 10
1.9683450595
 20
-17.4357438215
 10
1.9696168725
 20
-17.4369997114
 10
1.9709318062
 20
-17.4382127102
 10
1.9722875175
 20
-17.4393816151
 10
1.9736816633
 20
-17.4405052236
 10
1.9751119004
 20
-17.4415823329
 10
1.9765758855
 20
-17.4426117405
 10
1.9780712756
 20
-17.4435922437
 10
1.9795957274
 20
-17.4445226398
 10
1.9811468977
 20
-17.4454017263
 10
1.9827224434
 20
-17.4462283005
 10
1.9843200214
 20
-17.4470011597
 10
1.9859372884
 20
-17.4477191014
 10
1.9875719012
 20
-17.4483809228
 10
1.9892215167
 20
-17.4489854214
 10
1.9908837918
 20
-17.4495313945
 10
1.9925563831
 20
-17.4500176394
 10
1.9942369477
 20
-17.4504429536
 10
1.9959231422
 20
-17.4508061344
 10
1.9976126235
 20
-17.4511059791
 10
1.9993030484
 20
-17.4513412852
 10
2.0009920738
 20
-17.4515108499
 10
2.0026773565
 20
-17.4516134707
 10
2.0043565533
 20
-17.4516479449
  0
LINE
  5
30B
100
AcDbEntity
  8
CURVE
100
AcDbLine
 62
250
  6
CONTINUOUS
 10
2.8411702467
 20
-16.3261352498
 11
1.9661159934
 21
-17.3696546723
  0
LINE
  5
30C
100
AcDbEntity
  8
CURVE
100
AcDbLine
 62
250
  6
CONTINUOUS
 10
2.5641845697
 20
-17.4337334483
 11
3.6769504114
 21
-16.1084052152
  0
LINE
  5
30D
100
AcDbEntity
  8
CURVE
100
AcDbLine
 62
7
  6
CONTINUOUS
 10
-1.7840903381
 20
-18.5513224237
 11
-1.2842069832
 21
-18.0514390688
  0
LINE
  5
30E
100
AcDbEntity
  8
CURVE
100
AcDbLine
 62
7
  6
CONTINUOUS
 10
0.6597357854
 20
-16.1074963002
 11
0.9409801907
 21
-15.8262518949
  0
LINE
  5
30F
100
AcDbEntity
  8
CURVE
100
AcDbLine
 62
7
  6
CONTINUOUS
 10
1.9741893338
 20
-14.7930427519
 11
2.0658038666
 21
-14.701428219
  0
LINE
  5
310
100
AcDbEntity
  8
CURVE
100
AcDbLine
 62
7
  6
CONTINUOUS
 10
2.7796276512
 20
-13.9876044344
 11
3.0182673348
 21
-13.7489647508
  0
LINE
  5
311
100
AcDbEntity
  8
CURVE
100
AcDbLine
 62
7
  6
CONTINUOUS
 10
-1.3640689101
 20
-18.5513224237
 11
-0.8641855552
 21
-18.0514390688
  0
LINE
  5
312
100
AcDbEntity
  8
CURVE
100
AcDbLine
 62
7
  6
CONTINUOUS
 10
0.8611182638
 20
-16.3261352498
 11
1.3610016187
 21
-15.8262518949
  0
LINE
  5
313
100
AcDbEntity
  8
CURVE
100
AcDbLine
 62
7
  6
CONTINUOUS
 10
2.1658283543
 20
-15.0214251594
 11
2.4858252947
 21
-14.701428219
  0
LINE
  5
314
100
AcDbEntity
  8
CURVE
100
AcDbLine
 62
7
  6
CONTINUOUS
 10
-0.9440474821
 20
-18.5513224237
 11
-0.4441641272
 21
-18.0514390688
  0
LINE
  5
315
100
AcDbEntity
  8
CURVE
100
AcDbLine
 62
7
  6
CONTINUOUS
 10
1.2811396919
 20
-16.3261352498
 11
1.7810230468
 21
-15.8262518949
  0
LINE
  5
316
100
AcDbEntity
  8
CURVE
100
AcDbLine
 62
7
  6
CONTINUOUS
 10
2.3574673748
 20
-15.2498075669
 11
2.7122913555
 21
-14.8949835862
  0
LINE
  5
317
100
AcDbEntity
  8
CURVE
100
AcDbLine
 62
7
  6
CONTINUOUS
 10
-0.524026054
 20
-18.5513224237
 11
-0.0241426991
 21
-18.0514390688
  0
LINE
  5
318
100
AcDbEntity
  8
CURVE
100
AcDbLine
 62
7
  6
CONTINUOUS
 10
1.7011611199
 20
-16.3261352498
 11
2.2010444748
 21
-15.8262518949
  0
LINE
  5
319
100
AcDbEntity
  8
CURVE
100
AcDbLine
 62
7
  6
CONTINUOUS
 10
2.5491063953
 20
-15.4781899744
 11
2.9039550775
 21
-15.1233412922
  0
LINE
  5
31A
100
AcDbEntity
  8
CURVE
100
AcDbLine
 62
7
  6
CONTINUOUS
 10
-0.104004626
 20
-18.5513224237
 11
0.3958787289
 21
-18.0514390688
  0
LINE
  5
31B
100
AcDbEntity
  8
CURVE
100
AcDbLine
 62
7
  6
CONTINUOUS
 10
2.1211825479
 20
-16.3261352498
 11
2.6210659028
 21
-15.8262518949
  0
LINE
  5
31C
100
AcDbEntity
  8
CURVE
100
AcDbLine
 62
7
  6
CONTINUOUS
 10
2.7407454158
 20
-15.7065723819
 11
3.0956187995
 21
-15.3516989982
  0
LINE
  5
31D
100
AcDbEntity
  8
CURVE
100
AcDbLine
 62
7
  6
CONTINUOUS
 10
0.316016802
 20
-18.5513224237
 11
0.8159001569
 21
-18.0514390688
  0
LINE
  5
31E
100
AcDbEntity
  8
CURVE
100
AcDbLine
 62
7
  6
CONTINUOUS
 10
2.5412039759
 20
-16.3261352498
 11
3.2872825216
 21
-15.5800567042
  0
LWPOLYLINE
  5
31F
100
AcDbEntity
  8
CURVE
100
AcDbPolyline
 62
250
  6
CONTINUOUS
 90
65
 70
0
 10
2.3295735671
 20
12.5558227508
 10
2.331252778
 20
12.5558572809
 10
2.3329381012
 20
12.5559600624
 10
2.3346271909
 20
12.5561298817
 10
2.336317701
 20
12.5563655253
 10
2.3380072857
 20
12.5566657799
 10
2.339693599
 20
12.5570294319
 10
2.3413742952
 20
12.5574552679
 10
2.3430470282
 20
12.5579420743
 10
2.3447094521
 20
12.5584886378
 10
2.3463592211
 20
12.5590937448
 10
2.3479939893
 20
12.5597561819
 10
2.3496114107
 20
12.5604747356
 10
2.3512091393
 20
12.5612481924
 10
2.3527848294
 20
12.5620753389
 10
2.3543361351
 20
12.5629549616
 10
2.3558607103
 20
12.563885847
 10
2.3573562092
 20
12.5648667817
 10
2.3588202858
 20
12.5658965522
 10
2.3602505944
 20
12.566973945
 10
2.3616447889
 20
12.5680977466
 10
2.3630005235
 20
12.5692667436
 10
2.3643154522
 20
12.5704797225
 10
2.3655872292
 20
12.5717354698
 10
2.3668135085
 20
12.5730327721
 10
2.3679919442
 20
12.5743704159
 10
2.3691201905
 20
12.5757471878
 10
2.3701959013
 20
12.5771618741
 10
2.3712167309
 20
12.5786132616
 10
2.3721803332
 20
12.5801001367
 10
2.3730843625
 20
12.5816212859
 10
2.3739264727
 20
12.5831754958
 10
2.374704318
 20
12.5847615528
 10
2.3754167933
 20
12.5863798183
 10
2.3760631385
 20
12.5880262582
 10
2.3766439809
 20
12.5896983459
 10
2.3771599477
 20
12.5913935546
 10
2.3776116662
 20
12.5931093578
 10
2.3779997636
 20
12.5948432287
 10
2.3783248671
 20
12.5965926406
 10
2.378587604
 20
12.598355067
 10
2.3787886015
 20
12.6001279811
 10
2.3789284868
 20
12.6019088563
 10
2.3790078873
 20
12.6036951658
 10
2.3790274301
 20
12.6054843831
 10
2.3789877425
 20
12.6072739814
 10
2.3788894516
 20
12.6090614341
 10
2.3787331849
 20
12.6108442145
 10
2.3785195694
 20
12.6126197959
 10
2.3782492325
 20
12.6143856518
 10
2.3779228014
 20
12.6161392553
 10
2.3775409033
 20
12.6178780798
 10
2.3771041654
 20
12.6195995988
 10
2.3766132151
 20
12.6213012854
 10
2.3760686795
 20
12.622980613
 10
2.3754711858
 20
12.624635055
 10
2.3748213614
 20
12.6262620846
 10
2.3741198335
 20
12.6278591753
 10
2.3733672292
 20
12.6294238003
 10
2.3725641759
 20
12.630953433
 10
2.3717113008
 20
12.6324455467
 10
2.3708092311
 20
12.6338976147
 10
2.3698585941
 20
12.6353071104
 10
2.368860017
 20
12.6366715071
 10
2.367814127
 20
12.6379882781
  0
LWPOLYLINE
  5
320
100
AcDbEntity
  8
CURVE
100
AcDbPolyline
 62
250
  6
CONTINUOUS
 90
55
 70
0
 10
3.6242404505
 20
13.6809909363
 10
3.6255514531
 20
13.6810179165
 10
3.6268672192
 20
13.6810981138
 10
3.6281866336
 20
13.6812304131
 10
3.6295085815
 20
13.6814136996
 10
3.6308319477
 20
13.6816468581
 10
3.6321556173
 20
13.6819287736
 10
3.6334784753
 20
13.6822583312
 10
3.6347994066
 20
13.6826344158
 10
3.6361172962
 20
13.6830559124
 10
3.6374310292
 20
13.683521706
 10
3.6387394905
 20
13.6840306817
 10
3.6400415651
 20
13.6845817243
 10
3.641336138
 20
13.6851737189
 10
3.6426220942
 20
13.6858055504
 10
3.6438983187
 20
13.686476104
 10
3.6451636965
 20
13.6871842645
 10
3.6464171125
 20
13.6879289169
 10
3.6476574518
 20
13.6887089462
 10
3.6488835993
 20
13.6895232375
 10
3.6500944401
 20
13.6903706757
 10
3.6512888591
 20
13.6912501458
 10
3.6524657413
 20
13.6921605328
 10
3.6536239718
 20
13.6931007217
 10
3.6547624354
 20
13.6940695975
 10
3.6558800172
 20
13.6950660451
 10
3.6569756022
 20
13.6960889496
 10
3.6580480754
 20
13.6971371959
 10
3.6590963217
 20
13.6982096691
 10
3.6601192262
 20
13.6993052541
 10
3.6611156738
 20
13.7004228359
 10
3.6620845496
 20
13.7015612995
 10
3.6630247385
 20
13.7027195299
 10
3.6639351254
 20
13.7038964122
 10
3.6648145956
 20
13.7050908312
 10
3.6656620337
 20
13.7063016719
 10
3.666476325
 20
13.7075278195
 10
3.6672563544
 20
13.7087681588
 10
3.6680010068
 20
13.7100215748
 10
3.6687091673
 20
13.7112869526
 10
3.6693797208
 20
13.712563177
 10
3.6700115524
 20
13.7138491333
 10
3.670603547
 20
13.7151437062
 10
3.6711545896
 20
13.7164457808
 10
3.6716635652
 20
13.7177542421
 10
3.6721293589
 20
13.7190679751
 10
3.6725508555
 20
13.7203858647
 10
3.6729269401
 20
13.721706796
 10
3.6732564977
 20
13.723029654
 10
3.6735384132
 20
13.7243533236
 10
3.6737715717
 20
13.7256766898
 10
3.6739548581
 20
13.7269986376
 10
3.6740871575
 20
13.7283180521
 10
3.6741673548
 20
13.7296338181
 10
3.674194335
 20
13.7309448208
  0
LINE
  5
321
100
AcDbEntity
  8
CURVE
100
AcDbLine
 62
250
  6
CONTINUOUS
 10
3.077503797
 20
11.9567206459
 11
-2.9228190097
 21
11.9567206459
  0
LINE
  5
322
100
AcDbEntity
  8
CURVE
100
AcDbLine
 62
250
  6
CONTINUOUS
 10
1.8072970916
 20
12.5558227508
 11
2.3295735671
 21
12.5558227508
  0
LINE
  5
323
100
AcDbEntity
  8
CURVE
100
AcDbLine
 62
250
  6
CONTINUOUS
 10
-0.0206705729
 20
18.3656317771
 11
2.524221462
 21
16.0336466431
  0
LINE
  5
324
100
AcDbEntity
  8
CURVE
100
AcDbLine
 62
7
  6
CONTINUOUS
 10
0.73603823
 20
-18.5513224237
 11
1.2359215849
 21
-18.0514390688
  0
LINE
  5
325
100
AcDbEntity
  8
CURVE
100
AcDbLine
 62
7
  6
CONTINUOUS
 10
2.2175708613
 20
-17.0697897925
 11
3.4789462436
 21
-15.8084144102
  0
LINE
  5
326
100
AcDbEntity
  8
CURVE
100
AcDbLine
 62
7
  6
CONTINUOUS
 10
1.1560596581
 20
-18.5513224237
 11
1.655943013
 21
-18.0514390688
  0
LINE
  5
327
100
AcDbEntity
  8
CURVE
100
AcDbLine
 62
7
  6
CONTINUOUS
 10
2.2557341369
 20
-17.4516479449
 11
3.6706099656
 21
-16.0367721162
  0
LINE
  5
328
100
AcDbEntity
  8
CURVE
100
AcDbLine
 62
7
  6
CONTINUOUS
 10
1.5760810861
 20
-18.5513224237
 11
2.075964441
 21
-18.0514390688
  0
LINE
  5
329
100
AcDbEntity
  8
CURVE
100
AcDbLine
 62
7
  6
CONTINUOUS
 10
1.9961025141
 20
-18.5513224237
 11
2.495985869
 21
-18.0514390688
  0
LINE
  5
32A
100
AcDbEntity
  8
CURVE
100
AcDbLine
 62
7
  6
CONTINUOUS
 10
2.4161239421
 20
-18.5513224237
 11
2.916007297
 21
-18.0514390688
  0
LINE
  5
32B
100
AcDbEntity
  8
CURVE
100
AcDbLine
 62
7
  6
CONTINUOUS
 10
2.8361453701
 20
-18.5513224237
 11
3.1274576815
 21
-18.2600101124
  0
LWPOLYLINE
  5
32C
100
AcDbEntity
  8
CURVE
100
AcDbPolyline
 62
250
  6
CONTINUOUS
 90
37
 70
0
 10
1.8072970916
 20
15.3070760053
 10
1.806153348
 20
15.3070606837
 10
1.8050053469
 20
15.3070149675
 10
1.8038539781
 20
15.3069392292
 10
1.8027001314
 20
15.3068338415
 10
1.8015446965
 20
15.3066991769
 10
1.8003885632
 20
15.3065356082
 10
1.7992326212
 20
15.3063435078
 10
1.7980777603
 20
15.3061232485
 10
1.7969248703
 20
15.3058752029
 10
1.7957748409
 20
15.3055997435
 10
1.7946285618
 20
15.305297243
 10
1.7934869229
 20
15.3049680741
 10
1.7923508138
 20
15.3046126093
 10
1.7912211244
 20
15.3042312212
 10
1.7900987444
 20
15.3038242826
 10
1.7889845635
 20
15.3033921659
 10
1.7878794715
 20
15.3029352438
 10
1.7867843583
 20
15.302453889
 10
1.7857001134
 20
15.3019484741
 10
1.7846276267
 20
15.3014193716
 10
1.783567788
 20
15.3008669543
 10
1.782521487
 20
15.3002915947
 10
1.7814896135
 20
15.2996936654
 10
1.7804730571
 20
15.299073539
 10
1.7794727078
 20
15.2984315883
 10
1.7784894552
 20
15.2977681858
 10
1.777524189
 20
15.2970837041
 10
1.7765777991
 20
15.2963785158
 10
1.7756511753
 20
15.2956529936
 10
1.7747452072
 20
15.2949075101
 10
1.7738607846
 20
15.2941424379
 10
1.7729987973
 20
15.2933581496
 10
1.7721601351
 20
15.2925550178
 10
1.7713456876
 20
15.2917334153
 10
1.7705563447
 20
15.2908937145
 10
1.7697929962
 20
15.2900362881
  0
LINE
  5
32D
100
AcDbEntity
  8
CURVE
100
AcDbLine
 62
250
  6
CONTINUOUS
 10
1.4927598738
 20
13.6809909363
 11
3.6242404505
 21
13.6809909363
  0
LINE
  5
32E
100
AcDbEntity
  8
CURVE
100
AcDbLine
 62
250
  6
CONTINUOUS
 10
3.6242404505
 20
14.1805297816
 11
1.4924153642
 21
14.1805297816
  0
LINE
  5
32F
100
AcDbEntity
  8
CURVE
100
AcDbLine
 62
250
  6
CONTINUOUS
 10
2.3299180767
 20
15.3070760053
 11
1.8072970916
 21
15.3070760053
  0
LWPOLYLINE
  5
330
100
AcDbEntity
  8
CURVE
100
AcDbPolyline
 62
250
  6
CONTINUOUS
 90
52
 70
0
 10
0.0471978081
 20
18.9817871046
 10
0.0452033572
 20
18.9835389894
 10
0.0431304809
 20
18.9852207987
 10
0.0409823804
 20
18.9868325327
 10
0.0387622567
 20
18.9883741912
 10
0.0364733108
 20
18.9898457744
 10
0.0341187438
 20
18.9912472822
 10
0.0317017566
 20
18.9925787146
 10
0.0292255503
 20
18.9938400716
 10
0.026693326
 20
18.9950313532
 10
0.0241082847
 20
18.9961525594
 10
0.0214736274
 20
18.9972036903
 10
0.0187925551
 20
18.9981847457
 10
0.0160682689
 20
18.9990957258
 10
0.0133039697
 20
18.9999366304
 10
0.0105028588
 20
19.0007074597
 10
0.0076681369
 20
19.0014082136
 10
0.0048030053
 20
19.0020388921
 10
0.0019106649
 20
19.0025994952
 10
-0.0010056832
 20
19.003090023
 10
-0.003942838
 20
19.0035104753
 10
-0.0068975985
 20
19.0038608522
 10
-0.0098667637
 20
19.0041411538
 10
-0.0128471324
 20
19.00435138
 10
-0.0158355038
 20
19.0044915307
 10
-0.0188286767
 20
19.0045616061
 10
-0.0218234501
 20
19.0045616061
 10
-0.024816623
 20
19.0044915307
 10
-0.0278049943
 20
19.00435138
 10
-0.0307853631
 20
19.0041411538
 10
-0.0337545282
 20
19.0038608522
 10
-0.0367092887
 20
19.0035104753
 10
-0.0396464435
 20
19.003090023
 10
-0.0425627917
 20
19.0025994952
 10
-0.0454551321
 20
19.0020388921
 10
-0.0483202637
 20
19.0014082136
 10
-0.0511549855
 20
19.0007074597
 10
-0.0539560965
 20
18.9999366304
 10
-0.0567203956
 20
18.9990957258
 10
-0.0594446818
 20
18.9981847457
 10
-0.0621257541
 20
18.9972036903
 10
-0.0647604114
 20
18.9961525594
 10
-0.0673454528
 20
18.9950313532
 10
-0.0698776771
 20
18.9938400716
 10
-0.0723538833
 20
18.9925787146
 10
-0.0747708705
 20
18.9912472822
 10
-0.0771254375
 20
18.9898457744
 10
-0.0794143834
 20
18.9883741912
 10
-0.0816345072
 20
18.9868325327
 10
-0.0837826076
 20
18.9852207987
 10
-0.0858554839
 20
18.9835389894
 10
-0.0878499349
 20
18.9817871046
  0
LWPOLYLINE
  5
331
100
AcDbEntity
  8
CURVE
100
AcDbPolyline
 62
250
  6
CONTINUOUS
 90
34
 70
0
 10
2.524221462
 20
16.0336466431
 10
2.5250444672
 20
16.032917939
 10
2.5258877343
 20
16.0322067945
 10
2.5267505129
 20
16.0315135182
 10
2.5276320522
 20
16.0308384188
 10
2.5285316015
 20
16.0301818052
 10
2.5294484103
 20
16.029543986
 10
2.5303817278
 20
16.0289252701
 10
2.5313308034
 20
16.028325966
 10
2.5322948864
 20
16.0277463826
 10
2.5332732263
 20
16.0271868285
 10
2.5342650722
 20
16.0266476126
 10
2.5352696736
 20
16.0261290435
 10
2.5362862798
 20
16.0256314301
 10
2.5373141401
 20
16.0251550809
 10
2.5383525039
 20
16.0247003047
 10
2.5394006206
 20
16.0242674104
 10
2.5404577394
 20
16.0238567065
 10
2.5415231097
 20
16.0234685019
 10
2.5425959808
 20
16.0231031053
 10
2.5436756022
 20
16.0227608254
 10
2.5447612231
 20
16.0224419709
 10
2.5458520929
 20
16.0221468506
 10
2.5469474608
 20
16.0218757732
 10
2.5480465764
 20
16.0216290474
 10
2.5491486888
 20
16.021406982
 10
2.5502530475
 20
16.0212098858
 10
2.5513589018
 20
16.0210380673
 10
2.552465501
 20
16.0208918354
 10
2.5535720944
 20
16.0207714989
 10
2.5546779315
 20
16.0206773663
 10
2.5557822615
 20
16.0206097466
 10
2.5568843339
 20
16.0205689483
 10
2.5579833978
 20
16.0205552803
  0
LINE
  5
332
100
AcDbEntity
  8
CURVE
100
AcDbLine
 62
250
  6
CONTINUOUS
 10
3.184301757
 20
16.1073716865
 11
0.0471978081
 21
18.9817871046
  0
LWPOLYLINE
  5
333
100
AcDbEntity
  8
CURVE
100
AcDbPolyline
 62
250
  6
CONTINUOUS
 90
67
 70
0
 10
3.1505398213
 20
16.0205552803
 10
3.1522525943
 20
16.0205918367
 10
3.1539723364
 20
16.0207005942
 10
3.1556965382
 20
16.0208801852
 10
3.1574226899
 20
16.0211292421
 10
3.159148282
 20
16.0214463975
 10
3.1608708049
 20
16.0218302837
 10
3.1625877488
 20
16.0222795332
 10
3.1642966043
 20
16.0227927785
 10
3.1659948616
 20
16.0233686519
 10
3.1676800113
 20
16.0240057859
 10
3.1693495436
 20
16.024702813
 10
3.1710009489
 20
16.0254583656
 10
3.1726317177
 20
16.0262710761
 10
3.1742393403
 20
16.027139577
 10
3.1758213072
 20
16.0280625008
 10
3.1773751086
 20
16.0290384797
 10
3.178898235
 20
16.0300661464
 10
3.1803881768
 20
16.0311441333
 10
3.1818424243
 20
16.0322710727
 10
3.183258468
 20
16.0334455972
 10
3.1846337982
 20
16.0346663391
 10
3.1859659053
 20
16.0359319309
 10
3.1872522798
 20
16.0372410051
 10
3.1884904119
 20
16.0385921941
 10
3.189677792
 20
16.0399841303
 10
3.1908119107
 20
16.0414154462
 10
3.1918902582
 20
16.0428847742
 10
3.1929103249
 20
16.0443907468
 10
3.1938696012
 20
16.0459319964
 10
3.1947655775
 20
16.0475071554
 10
3.1955957442
 20
16.0491148563
 10
3.1963575917
 20
16.0507537315
 10
3.1970486103
 20
16.0524224135
 10
3.1976671687
 20
16.0541202085
 10
3.1982132484
 20
16.0558437803
 10
3.198687786
 20
16.0575904368
 10
3.1990917179
 20
16.0593574859
 10
3.1994259806
 20
16.0611422356
 10
3.1996915105
 20
16.0629419936
 10
3.1998892442
 20
16.064754068
 10
3.2000201182
 20
16.0665757666
 10
3.2000850689
 20
16.0684043973
 10
3.2000850328
 20
16.0702372679
 10
3.2000209464
 20
16.0720716865
 10
3.1998937461
 20
16.0739049608
 10
3.1997043686
 20
16.0757343988
 10
3.1994537501
 20
16.0775573083
 10
3.1991428273
 20
16.0793709974
 10
3.1987725366
 20
16.0811727737
 10
3.1983438144
 20
16.0829599453
 10
3.1978575973
 20
16.0847298201
 10
3.1973148218
 20
16.0864797059
 10
3.1967164243
 20
16.0882069106
 10
3.1960633413
 20
16.0899087422
 10
3.1953565093
 20
16.0915825084
 10
3.1945968648
 20
16.0932255173
 10
3.1937853443
 20
16.0948350767
 10
3.1929228842
 20
16.0964084945
 10
3.192010421
 20
16.0979430786
 10
3.1910488912
 20
16.0994361369
 10
3.1900392313
 20
16.1008849772
 10
3.1889823778
 20
16.1022869075
 10
3.1878792671
 20
16.1036392357
 10
3.1867308358
 20
16.1049392697
 10
3.1855380202
 20
16.1061843173
 10
3.184301757
 20
16.1073716865
  0
LINE
  5
334
100
AcDbEntity
  8
CURVE
100
AcDbLine
 62
250
  6
CONTINUOUS
 10
2.5579833978
 20
16.0205552803
 11
3.1505398213
 21
16.0205552803
  0
LWPOLYLINE
  5
335
100
AcDbEntity
  8
0
100
AcDbPolyline
 62
7
  6
CONTINUOUS
 90
10
 70
0
 43
0.3500000006
 10
1.2857142735
 20
37.6500021057
 10
1.3571429071
 20
37.5071442719
 10
1.3571429071
 20
37.435713089
 10
1.2142857814
 20
37.2928552551
 10
1.1428571477
 20
37.2928552551
 10
1.0714285848
 20
37.364286438
 10
1.0714285848
 20
37.435713089
 10
1.1428571477
 20
37.5785709229
 10
1.2142857814
 20
37.6500021057
 10
1.2857142735
 20
37.6500021057
  0
LWPOLYLINE
  5
336
100
AcDbEntity
  8
0
100
AcDbPolyline
 62
7
  6
CONTINUOUS
 90
7
 70
0
 43
0.3500000006
 10
20.3499994125
 20
-0.642856041
 10
20.3499994125
 20
-2.1428576317
 10
18.2071432343
 20
-0.642856041
 10
17.7785708656
 20
-0.642856041
 10
17.34999963
 20
-1.0714295425
 10
17.34999963
 20
-1.7142852631
 10
17.9928576164
 20
-2.1428576317
  0
LWPOLYLINE
  5
337
100
AcDbEntity
  8
0
100
AcDbPolyline
 62
7
  6
CONTINUOUS
 90
8
 70
0
 43
0.3500000006
 10
20.3499994125
 20
-4.28571381
 10
20.3499994125
 20
-3.4285713387
 10
19.9214281769
 20
-3.000000103
 10
19.0642857056
 20
-3.000000103
 10
18.6357144699
 20
-3.4285713387
 10
18.6357144699
 20
-4.28571381
 10
17.34999963
 20
-4.28571381
 10
17.34999963
 20
-3.000000103
  0
LINE
  5
338
100
AcDbEntity
  8
COPY_PUBLISH
100
AcDbLine
 62
250
  6
CONTINUOUS
 10
11.0132437251
 20
25.8134150626
 11
-11.0132437251
 21
25.8134150626
  0
LINE
  5
339
100
AcDbEntity
  8
ASSI
100
AcDbLine
 62
250
  6
CONTINUOUS
 10
11.0132437251
 20
25.8134150626
 11
-11.0132437251
 21
25.8134150626
  0
LINE
  5
33A
100
AcDbEntity
  8
COPY_PUBLISH
100
AcDbLine
 62
250
  6
CONTINUOUS
 10
10.5134150626
 20
26.3132437251
 11
-10.5134150626
 21
26.3132437251
  0
LINE
  5
33B
100
AcDbEntity
  8
ASSI
100
AcDbLine
 62
250
  6
CONTINUOUS
 10
10.5134150626
 20
26.3132437251
 11
-10.5134150626
 21
26.3132437251
  0
LINE
  5
33C
100
AcDbEntity
  8
0
100
AcDbLine
 62
7
  6
CONTINUOUS
 10
10.5347065336
 20
26.3345351961
 11
-10.5347065336
 21
26.3345351961
  0
LINE
  5
33D
100
AcDbEntity
  8
ASSI
100
AcDbLine
 62
7
  6
CONTINUOUS
 10
10.5347065336
 20
26.3345351961
 11
-10.5347065336
 21
26.3345351961
  0
LWPOLYLINE
  5
33E
100
AcDbEntity
  8
0
100
AcDbPolyline
 62
7
  6
CONTINUOUS
 90
7
 70
0
 43
0.3500000006
 10
-0.2142857063
 20
37.1500019531
 10
-1.7142856507
 20
37.1500019531
 10
-0.2142857063
 20
39.2928558655
 10
-0.2142857063
 20
39.7214293671
 10
-0.6428571367
 20
40.1499983368
 10
-1.2857142735
 20
40.1499983368
 10
-1.7142856507
 20
39.5071448822
  0
LWPOLYLINE
  5
33F
100
AcDbEntity
  8
0
100
AcDbPolyline
 62
7
  6
CONTINUOUS
 90
7
 70
0
 43
0.3500000006
 10
-2.5714285469
 20
37.1500019531
 10
-4.0714284382
 20
37.1500019531
 10
-2.5714285469
 20
39.2928558655
 10
-2.5714285469
 20
39.7214293671
 10
-3.0000000658
 20
40.1499983368
 10
-3.6428572025
 20
40.1499983368
 10
-4.0714284382
 20
39.5071448822
  0
LWPOLYLINE
  5
340
100
AcDbEntity
  8
0
100
AcDbPolyline
 62
7
  6
CONTINUOUS
 90
3
 70
0
 43
0.3500000006
 10
-32.616875267
 20
44.0382257538
 10
-32.688301918
 20
43.8239412689
 10
-32.8311597519
 20
43.5382256012
  0
LWPOLYLINE
  5
341
100
AcDbEntity
  8
0
100
AcDbPolyline
 62
7
  6
CONTINUOUS
 90
5
 70
0
 43
0.3500000006
 10
-30.7597324905
 20
45.4667950287
 10
-30.4025879059
 20
45.6810840454
 10
-30.4025879059
 20
46.3239375
 10
-30.7597324905
 20
46.7525110016
 10
-31.6168749619
 20
46.7525110016
  0
LINE
  5
342
100
AcDbEntity
  8
0
100
AcDbLine
 62
7
  6
CONTINUOUS
 10
-21.7094633097
 20
-26.3132437251
 11
-20.8963748355
 21
-26.3345351961
  0
LINE
  5
343
100
AcDbEntity
  8
ASSI
100
AcDbLine
 62
7
  6
CONTINUOUS
 10
-21.7094633097
 20
-26.3132437251
 11
-20.8963748355
 21
-26.3345351961
  0
LINE
  5
344
100
AcDbEntity
  8
RACCORDO
100
AcDbLine
 62
7
  6
CONTINUOUS
 10
-20.1963748355
 20
-26.2216232767
 11
-20.8963748355
 21
-26.2828653412
  0
LINE
  5
345
100
AcDbEntity
  8
ASSI
100
AcDbLine
 62
7
  6
CONTINUOUS
 10
-20.1963748355
 20
-26.2216232767
 11
-20.8963748355
 21
-26.2828653412
  0
LINE
  5
346
100
AcDbEntity
  8
RACCORDO
100
AcDbLine
 62
250
  6
CONTINUOUS
 10
-20.1963748355
 20
-25.7709349336
 11
-20.8963748355
 21
-25.8321769981
  0
LINE
  5
347
100
AcDbEntity
  8
ASSI
100
AcDbLine
 62
250
  6
CONTINUOUS
 10
-20.1963748355
 20
-25.7709349336
 11
-20.8963748355
 21
-25.8321769981
  0
LINE
  5
348
100
AcDbEntity
  8
COPY_PUBLISH
100
AcDbLine
 62
250
  6
CONTINUOUS
 10
-21.7094633097
 20
-25.8134150626
 11
-22.1963748355
 21
-25.8134150626
  0
LINE
  5
349
100
AcDbEntity
  8
ASSI
100
AcDbLine
 62
250
  6
CONTINUOUS
 10
-21.7094633097
 20
-25.8134150626
 11
-22.1963748355
 21
-25.8134150626
  0
LINE
  5
34A
100
AcDbEntity
  8
0
100
AcDbLine
 62
250
  6
CONTINUOUS
 10
-21.7094633097
 20
-25.8134150626
 11
-20.8963748355
 21
-25.8347065336
  0
LINE
  5
34B
100
AcDbEntity
  8
ASSI
100
AcDbLine
 62
250
  6
CONTINUOUS
 10
-21.7094633097
 20
-25.8134150626
 11
-20.8963748355
 21
-25.8347065336
  0
LINE
  5
34C
100
AcDbEntity
  8
DRAFT
100
AcDbLine
 62
7
  6
CONTINUOUS
 10
-20.8963748355
 20
-15.75
 11
-20.1963748355
 21
-15.75
  0
LINE
  5
34D
100
AcDbEntity
  8
ASSI
100
AcDbLine
 62
7
  6
CONTINUOUS
 10
-20.8963748355
 20
-15.75
 11
-20.1963748355
 21
-15.75
  0
LINE
  5
34E
100
AcDbEntity
  8
DRAFT
100
AcDbLine
 62
7
  6
CONTINUOUS
 10
-19.0963748355
 20
-14.8954050818
 11
-20.1963748355
 21
-15.05
  0
LINE
  5
34F
100
AcDbEntity
  8
RACCORDO
100
AcDbLine
 62
7
  6
CONTINUOUS
 10
-17.275440453
 20
-14.6969203156
 11
-17.3076997009
 21
-14.6986109511
  0
LINE
  5
350
100
AcDbEntity
  8
DRAFT
100
AcDbLine
 62
7
  6
CONTINUOUS
 10
-17.3076997009
 20
-14.6986109511
 11
-18.0463748355
 21
-14.7373232745
  0
LINE
  5
351
100
AcDbEntity
  8
RACCORDO
100
AcDbLine
 62
7
  6
CONTINUOUS
 10
-18.0463748355
 20
-14.7373232745
 11
-20.1963748355
 21
-14.85
  0
LINE
  5
352
100
AcDbEntity
  8
RACCORDO
100
AcDbLine
 62
250
  6
CONTINUOUS
 10
-20.1963748355
 20
-15.55
 11
-20.8963748355
 21
-15.55
  0
LINE
  5
353
100
AcDbEntity
  8
ASSI
100
AcDbLine
 62
250
  6
CONTINUOUS
 10
-20.1963748355
 20
-15.55
 11
-20.8963748355
 21
-15.55
  0
LINE
  5
354
100
AcDbEntity
  8
RACCORDO
100
AcDbLine
 62
250
  6
CONTINUOUS
 10
-20.1963748355
 20
-10.95
 11
-20.8963748355
 21
-10.95
  0
LINE
  5
355
100
AcDbEntity
  8
ASSI
100
AcDbLine
 62
250
  6
CONTINUOUS
 10
-20.1963748355
 20
-10.95
 11
-20.8963748355
 21
-10.95
  0
LINE
  5
356
100
AcDbEntity
  8
DRAFT
100
AcDbLine
 62
7
  6
CONTINUOUS
 10
-20.8963748355
 20
-10.75
 11
-20.1963748355
 21
-10.75
  0
LINE
  5
357
100
AcDbEntity
  8
ASSI
100
AcDbLine
 62
7
  6
CONTINUOUS
 10
-20.8963748355
 20
-10.75
 11
-20.1963748355
 21
-10.75
  0
LINE
  5
358
100
AcDbEntity
  8
RACCORDO
100
AcDbLine
 62
7
  6
CONTINUOUS
 10
-17.275440453
 20
-11.8030796844
 11
-17.3076997009
 21
-11.8013890489
  0
LINE
  5
359
100
AcDbEntity
  8
DRAFT
100
AcDbLine
 62
7
  6
CONTINUOUS
 10
-17.3076997009
 20
-11.8013890489
 11
-18.0463748355
 21
-11.7626767255
  0
LINE
  5
35A
100
AcDbEntity
  8
RACCORDO
100
AcDbLine
 62
7
  6
CONTINUOUS
 10
-18.0463748355
 20
-11.7626767255
 11
-20.1963748355
 21
-11.65
  0
LINE
  5
35B
100
AcDbEntity
  8
DRAFT
100
AcDbLine
 62
7
  6
CONTINUOUS
 10
-19.0963748355
 20
-11.6045949182
 11
-20.1963748355
 21
-11.45
  0
LINE
  5
35C
100
AcDbEntity
  8
COPY_PUBLISH
100
AcDbLine
 62
250
  6
CONTINUOUS
 10
-21.7094633097
 20
25.8134150626
 11
-21.7119021891
 21
25.9176029172
  0
LINE
  5
35D
100
AcDbEntity
  8
ASSI
100
AcDbLine
 62
250
  6
CONTINUOUS
 10
-21.7094633097
 20
25.8134150626
 11
-21.7119021891
 21
25.9176029172
  0
LINE
  5
35E
100
AcDbEntity
  8
COPY_PUBLISH
100
AcDbLine
 62
250
  6
CONTINUOUS
 10
-21.7119021891
 20
25.9176029172
 11
-21.7136589813
 21
26.0172184586
  0
LINE
  5
35F
100
AcDbEntity
  8
ASSI
100
AcDbLine
 62
250
  6
CONTINUOUS
 10
-21.7119021891
 20
25.9176029172
 11
-21.7136589813
 21
26.0172184586
  0
LWPOLYLINE
  5
360
100
AcDbEntity
  8
COPY_PUBLISH
100
AcDbPolyline
 62
250
  6
CONTINUOUS
 90
11
 70
0
 10
-21.7136589813
 20
26.0172184586
 10
-21.7146562826
 20
26.1078690436
 10
-21.7148550924
 20
26.1485433419
 10
-21.714850741
 20
26.1855204357
 10
-21.7146433918
 20
26.2184079346
 10
-21.7142346282
 20
26.2468816807
 10
-21.7136291225
 20
26.2705791398
 10
-21.7128370267
 20
26.2891770144
 10
-21.7118705582
 20
26.3025182528
 10
-21.7107413116
 20
26.3105481619
 10
-21.7094633163
 20
26.3132437249
  0
LWPOLYLINE
  5
361
100
AcDbEntity
  8
ASSI
100
AcDbPolyline
 62
250
  6
CONTINUOUS
 90
11
 70
0
 10
-21.7136589813
 20
26.0172184586
 10
-21.7146562826
 20
26.1078690436
 10
-21.7148550924
 20
26.1485433419
 10
-21.714850741
 20
26.1855204357
 10
-21.7146433918
 20
26.2184079346
 10
-21.7142346282
 20
26.2468816807
 10
-21.7136291225
 20
26.2705791398
 10
-21.7128370267
 20
26.2891770144
 10
-21.7118705582
 20
26.3025182528
 10
-21.7107413116
 20
26.3105481619
 10
-21.7094633163
 20
26.3132437249
  0
LINE
  5
362
100
AcDbEntity
  8
COPY_PUBLISH
100
AcDbLine
 62
7
  6
CONTINUOUS
 10
-22.1963748355
 20
25.8134150626
 11
-22.1963748355
 21
-25.8134150626
  0
LINE
  5
363
100
AcDbEntity
  8
ASSI
100
AcDbLine
 62
7
  6
CONTINUOUS
 10
-22.1963748355
 20
25.8134150626
 11
-22.1963748355
 21
-25.8134150626
  0
LWPOLYLINE
  5
364
100
AcDbEntity
  8
COPY_PUBLISH
100
AcDbPolyline
 62
250
  6
CONTINUOUS
 90
9
 70
0
 10
-21.7148550493
 20
-26.1485261269
 10
-21.7148507986
 20
-26.1855014262
 10
-21.7146435783
 20
-26.2183893375
 10
-21.7142349409
 20
-26.2468656055
 10
-21.7136295352
 20
-26.270566676
 10
-21.7128374816
 20
-26.2891687618
 10
-21.7118709694
 20
-26.3025140488
 10
-21.7107415746
 20
-26.3105469765
 10
-21.7094633097
 20
-26.3132437251
  0
LWPOLYLINE
  5
365
100
AcDbEntity
  8
ASSI
100
AcDbPolyline
 62
250
  6
CONTINUOUS
 90
9
 70
0
 10
-21.7148550493
 20
-26.1485261269
 10
-21.7148507986
 20
-26.1855014262
 10
-21.7146435783
 20
-26.2183893375
 10
-21.7142349409
 20
-26.2468656055
 10
-21.7136295352
 20
-26.270566676
 10
-21.7128374816
 20
-26.2891687618
 10
-21.7118709694
 20
-26.3025140488
 10
-21.7107415746
 20
-26.3105469765
 10
-21.7094633097
 20
-26.3132437251
  0
LINE
  5
366
100
AcDbEntity
  8
COPY_PUBLISH
100
AcDbLine
 62
250
  6
CONTINUOUS
 10
-21.7094633097
 20
25.8134150626
 11
-21.7094633097
 21
-25.8134150626
  0
LINE
  5
367
100
AcDbEntity
  8
ASSI
100
AcDbLine
 62
250
  6
CONTINUOUS
 10
-21.7094633097
 20
25.8134150626
 11
-21.7094633097
 21
-25.8134150626
  0
LINE
  5
368
100
AcDbEntity
  8
RACCORDO
100
AcDbLine
 62
7
  6
CONTINUOUS
 10
-20.8963748355
 20
-26.3345351961
 11
-20.8963748355
 21
-25.8347065336
  0
LINE
  5
369
100
AcDbEntity
  8
0
100
AcDbLine
 62
7
  6
CONTINUOUS
 10
-20.8963748355
 20
-25.8347065336
 11
-20.8963748355
 21
25.8347065336
  0
LINE
  5
36A
100
AcDbEntity
  8
RACCORDO
100
AcDbLine
 62
7
  6
CONTINUOUS
 10
-20.8963748355
 20
25.8347065336
 11
-20.8963748355
 21
26.3345351961
  0
LINE
  5
36B
100
AcDbEntity
  8
ASSI
100
AcDbLine
 62
7
  6
CONTINUOUS
 10
-20.8963748355
 20
-26.3345351961
 11
-20.8963748355
 21
26.3345351961
  0
LINE
  5
36C
100
AcDbEntity
  8
COPY_PUBLISH
100
AcDbLine
 62
250
  6
CONTINUOUS
 10
-21.7142560272
 20
-26.0639177387
 11
-21.7148550493
 21
-26.1485261269
  0
LINE
  5
36D
100
AcDbEntity
  8
ASSI
100
AcDbLine
 62
250
  6
CONTINUOUS
 10
-21.7142560272
 20
-26.0639177387
 11
-21.7148550493
 21
-26.1485261269
  0
LINE
  5
36E
100
AcDbEntity
  8
COPY_PUBLISH
100
AcDbLine
 62
250
  6
CONTINUOUS
 10
-21.7128712196
 20
-25.9682511464
 11
-21.7142560272
 21
-26.0639177387
  0
LINE
  5
36F
100
AcDbEntity
  8
ASSI
100
AcDbLine
 62
250
  6
CONTINUOUS
 10
-21.7128712196
 20
-25.9682511464
 11
-21.7142560272
 21
-26.0639177387
  0
LWPOLYLINE
  5
370
100
AcDbEntity
  8
COPY_PUBLISH
100
AcDbPolyline
 62
250
  6
CONTINUOUS
 90
3
 70
0
 10
-21.7094633097
 20
-25.8134150626
 10
-21.710761896
 20
-25.8657940376
 10
-21.7128712196
 20
-25.9682511464
  0
LWPOLYLINE
  5
371
100
AcDbEntity
  8
ASSI
100
AcDbPolyline
 62
250
  6
CONTINUOUS
 90
3
 70
0
 10
-21.7094633097
 20
-25.8134150626
 10
-21.710761896
 20
-25.8657940376
 10
-21.7128712196
 20
-25.9682511464
  0
LINE
  5
372
100
AcDbEntity
  8
RACCORDO
100
AcDbLine
 62
7
  6
CONTINUOUS
 10
-20.0724220622
 20
-1.9781437817
 11
-18.6095507467
 21
-1.7202000995
  0
LINE
  5
373
100
AcDbEntity
  8
ASSI
100
AcDbLine
 62
7
  6
CONTINUOUS
 10
-20.0724220622
 20
-1.9781437817
 11
-18.6095507467
 21
-1.7202000995
  0
LINE
  5
374
100
AcDbEntity
  8
RACCORDO
100
AcDbLine
 62
7
  6
CONTINUOUS
 10
-20.1963748355
 20
-26.2216232767
 11
-20.1963748355
 21
-2.1258649447
  0
LINE
  5
375
100
AcDbEntity
  8
ASSI
100
AcDbLine
 62
7
  6
CONTINUOUS
 10
-20.1963748355
 20
-26.2216232767
 11
-20.1963748355
 21
-2.1258649447
  0
LINE
  5
376
100
AcDbEntity
  8
RACCORDO
100
AcDbLine
 62
7
  6
CONTINUOUS
 10
-20.1963748355
 20
2.1258649447
 11
-20.1963748355
 21
26.2216232767
  0
LINE
  5
377
100
AcDbEntity
  8
ASSI
100
AcDbLine
 62
7
  6
CONTINUOUS
 10
-20.1963748355
 20
2.1258649447
 11
-20.1963748355
 21
26.2216232767
  0
LINE
  5
378
100
AcDbEntity
  8
RACCORDO
100
AcDbLine
 62
250
  6
CONTINUOUS
 10
-19.9289357171
 20
14.8359841097
 11
-19.9289357171
 21
11.6640158903
  0
LINE
  5
379
100
AcDbEntity
  8
RACCORDO
100
AcDbLine
 62
250
  6
CONTINUOUS
 10
-19.9289357171
 20
-11.6640158903
 11
-19.9289357171
 21
-14.8359841097
  0
LINE
  5
37A
100
AcDbEntity
  8
DRAFT
100
AcDbLine
 62
7
  6
CONTINUOUS
 10
-19.0963748355
 20
14.8954050818
 11
-19.0963748355
 21
14.7923514428
  0
LINE
  5
37B
100
AcDbEntity
  8
DRAFT
100
AcDbLine
 62
7
  6
CONTINUOUS
 10
-19.0963748355
 20
11.7076485572
 11
-19.0963748355
 21
11.6045949182
  0
LINE
  5
37C
100
AcDbEntity
  8
DRAFT
100
AcDbLine
 62
7
  6
CONTINUOUS
 10
-19.0963748355
 20
-11.6045949182
 11
-19.0963748355
 21
-11.7076485572
  0
LINE
  5
37D
100
AcDbEntity
  8
DRAFT
100
AcDbLine
 62
7
  6
CONTINUOUS
 10
-19.0963748355
 20
-14.7923514428
 11
-19.0963748355
 21
-14.8954050818
  0
LINE
  5
37E
100
AcDbEntity
  8
RACCORDO
100
AcDbLine
 62
7
  6
CONTINUOUS
 10
-18.1963748355
 20
1.227796223
 11
-18.1963748355
 21
-1.227796223
  0
LINE
  5
37F
100
AcDbEntity
  8
ASSI
100
AcDbLine
 62
7
  6
CONTINUOUS
 10
-18.1963748355
 20
1.227796223
 11
-18.1963748355
 21
-1.227796223
  0
LINE
  5
380
100
AcDbEntity
  8
DRAFT
100
AcDbLine
 62
7
  6
CONTINUOUS
 10
-18.0463748355
 20
14.7373232745
 11
-18.0463748355
 21
11.7626767255
  0
LINE
  5
381
100
AcDbEntity
  8
DRAFT
100
AcDbLine
 62
7
  6
CONTINUOUS
 10
-18.0463748355
 20
-14.7373232745
 11
-18.0463748355
 21
-11.7626767255
  0
LINE
  5
382
100
AcDbEntity
  8
DRAFT
100
AcDbLine
 62
7
  6
CONTINUOUS
 10
-17.7576997009
 20
14.7221944518
 11
-17.7576997009
 21
11.7778055482
  0
LINE
  5
383
100
AcDbEntity
  8
DRAFT
100
AcDbLine
 62
7
  6
CONTINUOUS
 10
-17.7576997009
 20
-14.7221944518
 11
-17.7576997009
 21
-11.7778055482
  0
LINE
  5
384
100
AcDbEntity
  8
RACCORDO
100
AcDbLine
 62
7
  6
CONTINUOUS
 10
-20.0724220622
 20
1.9781437817
 11
-18.6095507467
 21
1.7202000995
  0
LINE
  5
385
100
AcDbEntity
  8
ASSI
100
AcDbLine
 62
7
  6
CONTINUOUS
 10
-20.0724220622
 20
1.9781437817
 11
-18.6095507467
 21
1.7202000995
  0
LINE
  5
386
100
AcDbEntity
  8
DRAFT
100
AcDbLine
 62
7
  6
CONTINUOUS
 10
-17.3076997009
 20
14.6986109511
 11
-17.3076997009
 21
11.8013890489
  0
LINE
  5
387
100
AcDbEntity
  8
DRAFT
100
AcDbLine
 62
7
  6
CONTINUOUS
 10
-17.3076997009
 20
-14.6986109511
 11
-17.3076997009
 21
-11.8013890489
  0
LINE
  5
388
100
AcDbEntity
  8
RACCORDO
100
AcDbLine
 62
7
  6
CONTINUOUS
 10
-16.8963748355
 20
14.2974685017
 11
-16.8963748355
 21
12.2025314983
  0
LINE
  5
389
100
AcDbEntity
  8
RACCORDO
100
AcDbLine
 62
7
  6
CONTINUOUS
 10
-16.8963748355
 20
-14.2974685017
 11
-16.8963748355
 21
-12.2025314983
  0
LWPOLYLINE
  5
38A
100
AcDbEntity
  8
0
100
AcDbPolyline
 62
7
  6
CONTINUOUS
 90
10
 70
0
 43
0.3500000006
 10
-32.688301918
 20
44.2525102386
 10
-32.616875267
 20
44.1096524048
 10
-32.616875267
 20
44.0382257538
 10
-32.759730835
 20
43.8953679199
 10
-32.8311597519
 20
43.8953679199
 10
-32.9025886688
 20
43.9667945709
 10
-32.9025886688
 20
44.0382257538
 10
-32.8311597519
 20
44.1810835876
 10
-32.759730835
 20
44.2525102386
 10
-32.688301918
 20
44.2525102386
  0
LINE
  5
38B
100
AcDbEntity
  8
DRAFT
100
AcDbLine
 62
7
  6
CONTINUOUS
 10
-20.8963748355
 20
10.75
 11
-20.1963748355
 21
10.75
  0
LINE
  5
38C
100
AcDbEntity
  8
ASSI
100
AcDbLine
 62
7
  6
CONTINUOUS
 10
-20.8963748355
 20
10.75
 11
-20.1963748355
 21
10.75
  0
LINE
  5
38D
100
AcDbEntity
  8
DRAFT
100
AcDbLine
 62
7
  6
CONTINUOUS
 10
-19.0963748355
 20
11.6045949182
 11
-20.1963748355
 21
11.45
  0
LINE
  5
38E
100
AcDbEntity
  8
RACCORDO
100
AcDbLine
 62
7
  6
CONTINUOUS
 10
-17.275440453
 20
11.8030796844
 11
-17.3076997009
 21
11.8013890489
  0
LINE
  5
38F
100
AcDbEntity
  8
DRAFT
100
AcDbLine
 62
7
  6
CONTINUOUS
 10
-17.3076997009
 20
11.8013890489
 11
-18.0463748355
 21
11.7626767255
  0
LINE
  5
390
100
AcDbEntity
  8
RACCORDO
100
AcDbLine
 62
7
  6
CONTINUOUS
 10
-18.0463748355
 20
11.7626767255
 11
-20.1963748355
 21
11.65
  0
LINE
  5
391
100
AcDbEntity
  8
RACCORDO
100
AcDbLine
 62
250
  6
CONTINUOUS
 10
-20.1963748355
 20
10.95
 11
-20.8963748355
 21
10.95
  0
LINE
  5
392
100
AcDbEntity
  8
ASSI
100
AcDbLine
 62
250
  6
CONTINUOUS
 10
-20.1963748355
 20
10.95
 11
-20.8963748355
 21
10.95
  0
LINE
  5
393
100
AcDbEntity
  8
RACCORDO
100
AcDbLine
 62
250
  6
CONTINUOUS
 10
-20.1963748355
 20
15.55
 11
-20.8963748355
 21
15.55
  0
LINE
  5
394
100
AcDbEntity
  8
ASSI
100
AcDbLine
 62
250
  6
CONTINUOUS
 10
-20.1963748355
 20
15.55
 11
-20.8963748355
 21
15.55
  0
LINE
  5
395
100
AcDbEntity
  8
DRAFT
100
AcDbLine
 62
7
  6
CONTINUOUS
 10
-20.8963748355
 20
15.75
 11
-20.1963748355
 21
15.75
  0
LINE
  5
396
100
AcDbEntity
  8
ASSI
100
AcDbLine
 62
7
  6
CONTINUOUS
 10
-20.8963748355
 20
15.75
 11
-20.1963748355
 21
15.75
  0
LINE
  5
397
100
AcDbEntity
  8
RACCORDO
100
AcDbLine
 62
7
  6
CONTINUOUS
 10
-17.275440453
 20
14.6969203156
 11
-17.3076997009
 21
14.6986109511
  0
LINE
  5
398
100
AcDbEntity
  8
DRAFT
100
AcDbLine
 62
7
  6
CONTINUOUS
 10
-17.3076997009
 20
14.6986109511
 11
-18.0463748355
 21
14.7373232745
  0
LINE
  5
399
100
AcDbEntity
  8
RACCORDO
100
AcDbLine
 62
7
  6
CONTINUOUS
 10
-18.0463748355
 20
14.7373232745
 11
-20.1963748355
 21
14.85
  0
LINE
  5
39A
100
AcDbEntity
  8
DRAFT
100
AcDbLine
 62
7
  6
CONTINUOUS
 10
-19.0963748355
 20
14.8954050818
 11
-20.1963748355
 21
15.05
  0
LINE
  5
39B
100
AcDbEntity
  8
0
100
AcDbLine
 62
250
  6
CONTINUOUS
 10
-20.8963748355
 20
25.8347065336
 11
-21.7094633097
 21
25.8134150626
  0
LINE
  5
39C
100
AcDbEntity
  8
ASSI
100
AcDbLine
 62
250
  6
CONTINUOUS
 10
-20.8963748355
 20
25.8347065336
 11
-21.7094633097
 21
25.8134150626
  0
LINE
  5
39D
100
AcDbEntity
  8
0
100
AcDbLine
 62
7
  6
CONTINUOUS
 10
-20.8963748355
 20
26.3345351961
 11
-21.7094633097
 21
26.3132437251
  0
LINE
  5
39E
100
AcDbEntity
  8
ASSI
100
AcDbLine
 62
7
  6
CONTINUOUS
 10
-20.8963748355
 20
26.3345351961
 11
-21.7094633097
 21
26.3132437251
  0
LINE
  5
39F
100
AcDbEntity
  8
COPY_PUBLISH
100
AcDbLine
 62
250
  6
CONTINUOUS
 10
-21.7094633097
 20
25.8134150626
 11
-22.1963748355
 21
25.8134150626
  0
LINE
  5
3A0
100
AcDbEntity
  8
ASSI
100
AcDbLine
 62
250
  6
CONTINUOUS
 10
-21.7094633097
 20
25.8134150626
 11
-22.1963748355
 21
25.8134150626
  0
LWPOLYLINE
  5
3A1
100
AcDbEntity
  8
0
100
AcDbPolyline
 62
7
  6
CONTINUOUS
 90
7
 70
0
 43
0.3500000006
 10
-33.4785178757
 20
37.2806962738
 10
-34.9785183334
 20
37.2806962738
 10
-33.4785178757
 20
39.4235501862
 10
-33.4785178757
 20
39.8521236877
 10
-33.9070891113
 20
40.2806926575
 10
-34.5499470978
 20
40.2806926575
 10
-34.9785183334
 20
39.6378392029
  0
LWPOLYLINE
  5
3A2
100
AcDbEntity
  8
0
100
AcDbPolyline
 62
7
  6
CONTINUOUS
 90
8
 70
0
 43
0.3500000006
 10
-35.4740160828
 20
43.7525100861
 10
-34.6168736115
 20
43.7525100861
 10
-34.1883023758
 20
44.1810835876
 10
-34.1883023758
 20
45.038226059
 10
-34.6168736115
 20
45.4667950287
 10
-35.4740160828
 20
45.4667950287
 10
-35.4740160828
 20
46.7525110016
 10
-34.1883023758
 20
46.7525110016
  0
LWPOLYLINE
  5
3A3
100
AcDbEntity
  8
0
100
AcDbPolyline
 62
7
  6
CONTINUOUS
 90
6
 70
0
 43
0.3500000006
 10
-31.6168749619
 20
43.7525100861
 10
-30.5454457397
 20
43.7525100861
 10
-30.331158989
 20
43.9667945709
 10
-30.331158989
 20
45.038226059
 10
-30.7597324905
 20
45.4667950287
 10
-31.1883037262
 20
45.4667950287
  0
LINE
  5
3A4
100
AcDbEntity
  8
RACCORDO
100
AcDbLine
 62
250
  6
CONTINUOUS
 10
-20.1963748355
 20
25.7709349336
 11
-20.8963748355
 21
25.8321769981
  0
LINE
  5
3A5
100
AcDbEntity
  8
ASSI
100
AcDbLine
 62
250
  6
CONTINUOUS
 10
-20.1963748355
 20
25.7709349336
 11
-20.8963748355
 21
25.8321769981
  0
LINE
  5
3A6
100
AcDbEntity
  8
RACCORDO
100
AcDbLine
 62
7
  6
CONTINUOUS
 10
-20.1963748355
 20
26.2216232767
 11
-20.8963748355
 21
26.2828653412
  0
LINE
  5
3A7
100
AcDbEntity
  8
ASSI
100
AcDbLine
 62
7
  6
CONTINUOUS
 10
-20.1963748355
 20
26.2216232767
 11
-20.8963748355
 21
26.2828653412
  0
ARC
  5
3A8
100
AcDbEntity
  8
0
100
AcDbCircle
 62
7
  6
CONTINUOUS
 10
0.9
 20
-0.9
 40
0.1
100
AcDbArc
 50
270.0
 51
360.0
  0
ARC
  5
3A9
100
AcDbEntity
  8
0
100
AcDbCircle
 62
7
  6
CONTINUOUS
 10
-0.9
 20
-0.9
 40
0.1
100
AcDbArc
 50
180.0
 51
270.0
  0
ARC
  5
3AA
100
AcDbEntity
  8
0
100
AcDbCircle
 62
7
  6
CONTINUOUS
 10
-0.9
 20
0.9
 40
0.1
100
AcDbArc
 50
90.0
 51
179.9999999999
  0
ARC
  5
3AB
100
AcDbEntity
  8
0
100
AcDbCircle
 62
7
  6
CONTINUOUS
 10
0.9
 20
0.9
 40
0.1
100
AcDbArc
 50
0.0
 51
90.0
  0
ARC
  5
3AC
100
AcDbEntity
  8
DRAFT
100
AcDbCircle
 62
7
  6
CONTINUOUS
 10
0.9
 20
0.9
 40
0.1
100
AcDbArc
 50
0.0
 51
90.0
  0
ARC
  5
3AD
100
AcDbEntity
  8
DRAFT
100
AcDbCircle
 62
7
  6
CONTINUOUS
 10
-0.9
 20
0.9
 40
0.1
100
AcDbArc
 50
90.0
 51
180.0
  0
ARC
  5
3AE
100
AcDbEntity
  8
DRAFT
100
AcDbCircle
 62
7
  6
CONTINUOUS
 10
-0.9
 20
-0.9
 40
0.1
100
AcDbArc
 50
180.0
 51
270.0
  0
ARC
  5
3AF
100
AcDbEntity
  8
DRAFT
100
AcDbCircle
 62
7
  6
CONTINUOUS
 10
0.9
 20
-0.9
 40
0.1
100
AcDbArc
 50
270.0
 51
360.0
  0
ARC
  5
3B0
100
AcDbEntity
  8
ASSI
100
AcDbCircle
 62
7
  6
CONTINUOUS
 10
0.9
 20
0.9
 40
0.1
100
AcDbArc
 50
0.0
 51
90.0
  0
ARC
  5
3B1
100
AcDbEntity
  8
ASSI
100
AcDbCircle
 62
7
  6
CONTINUOUS
 10
-0.9
 20
0.9
 40
0.1
100
AcDbArc
 50
90.0
 51
180.0
  0
ARC
  5
3B2
100
AcDbEntity
  8
ASSI
100
AcDbCircle
 62
7
  6
CONTINUOUS
 10
-0.9
 20
-0.9
 40
0.1
100
AcDbArc
 50
180.0
 51
270.0
  0
ARC
  5
3B3
100
AcDbEntity
  8
ASSI
100
AcDbCircle
 62
7
  6
CONTINUOUS
 10
0.9
 20
-0.9
 40
0.1
100
AcDbArc
 50
270.0
 51
360.0
  0
ARC
  5
3B4
100
AcDbEntity
  8
COPY_PUBLISH
100
AcDbCircle
 62
7
  6
CONTINUOUS
 10
-21.6963748355
 20
25.8134150626
 40
0.5
100
AcDbArc
 50
91.5
 51
180.0
  0
ARC
  5
3B5
100
AcDbEntity
  8
COPY_PUBLISH
100
AcDbCircle
 62
7
  6
CONTINUOUS
 10
-21.6963748355
 20
-25.8134150626
 40
0.5
100
AcDbArc
 50
180.0
 51
268.5
  0
ARC
  5
3B6
100
AcDbEntity
  8
RACCORDO
100
AcDbCircle
 62
7
  6
CONTINUOUS
 10
-18.6963748355
 20
-1.227796223
 40
0.5
100
AcDbArc
 50
280.0
 51
360.0
  0
ARC
  5
3B7
100
AcDbEntity
  8
RACCORDO
100
AcDbCircle
 62
7
  6
CONTINUOUS
 10
-18.6963748355
 20
1.227796223
 40
0.5
100
AcDbArc
 50
0.0
 51
80.0
  0
ARC
  5
3B8
100
AcDbEntity
  8
ASSI
100
AcDbCircle
 62
7
  6
CONTINUOUS
 10
-21.6963748355
 20
25.8134150626
 40
0.5
100
AcDbArc
 50
91.5
 51
180.0
  0
ARC
  5
3B9
100
AcDbEntity
  8
ASSI
100
AcDbCircle
 62
7
  6
CONTINUOUS
 10
-21.6963748355
 20
-25.8134150626
 40
0.5
100
AcDbArc
 50
180.0
 51
268.5
  0
ARC
  5
3BA
100
AcDbEntity
  8
ASSI
100
AcDbCircle
 62
7
  6
CONTINUOUS
 10
-18.6963748355
 20
-1.227796223
 40
0.5
100
AcDbArc
 50
280.0
 51
360.0
  0
ARC
  5
3BB
100
AcDbEntity
  8
ASSI
100
AcDbCircle
 62
7
  6
CONTINUOUS
 10
-18.6963748355
 20
1.227796223
 40
0.5
100
AcDbArc
 50
0.0
 51
80.0
  0
ARC
  5
3BC
100
AcDbEntity
  8
RACCORDO
100
AcDbCircle
 62
7
  6
CONTINUOUS
 10
-17.2963748355
 20
14.2974685017
 40
0.4
100
AcDbArc
 50
0.0
 51
87.0
  0
ARC
  5
3BD
100
AcDbEntity
  8
RACCORDO
100
AcDbCircle
 62
7
  6
CONTINUOUS
 10
-17.2963748355
 20
12.2025314983
 40
0.4
100
AcDbArc
 50
273.0
 51
360.0
  0
ARC
  5
3BE
100
AcDbEntity
  8
RACCORDO
100
AcDbCircle
 62
7
  6
CONTINUOUS
 10
-17.2963748355
 20
-12.2025314983
 40
0.4
100
AcDbArc
 50
0.0
 51
87.0
  0
ARC
  5
3BF
100
AcDbEntity
  8
RACCORDO
100
AcDbCircle
 62
7
  6
CONTINUOUS
 10
-17.2963748355
 20
-14.2974685017
 40
0.4
100
AcDbArc
 50
273.0
 51
360.0
  0
ARC
  5
3C0
100
AcDbEntity
  8
RACCORDO
100
AcDbCircle
 62
7
  6
CONTINUOUS
 10
-19.9963748355
 20
11.4602070867
 40
0.2
100
AcDbArc
 50
93.0
 51
180.0
  0
ARC
  5
3C1
100
AcDbEntity
  8
RACCORDO
100
AcDbCircle
 62
7
  6
CONTINUOUS
 10
-19.9963748355
 20
15.0397929133
 40
0.2
100
AcDbArc
 50
180.0
 51
267.0
  0
ARC
  5
3C2
100
AcDbEntity
  8
RACCORDO
100
AcDbCircle
 62
7
  6
CONTINUOUS
 10
-19.9963748355
 20
-11.4602070867
 40
0.2
100
AcDbArc
 50
180.0
 51
267.0
  0
ARC
  5
3C3
100
AcDbEntity
  8
RACCORDO
100
AcDbCircle
 62
7
  6
CONTINUOUS
 10
-19.9963748355
 20
-15.0397929133
 40
0.2
100
AcDbArc
 50
93.0
 51
180.0
  0
ARC
  5
3C4
100
AcDbEntity
  8
RACCORDO
100
AcDbCircle
 62
7
  6
CONTINUOUS
 10
-20.0463748355
 20
2.1258649447
 40
0.15
100
AcDbArc
 50
180.0
 51
260.0
  0
ARC
  5
3C5
100
AcDbEntity
  8
RACCORDO
100
AcDbCircle
 62
7
  6
CONTINUOUS
 10
-20.0463748355
 20
-2.1258649447
 40
0.15
100
AcDbArc
 50
100.0
 51
180.0
  0
ARC
  5
3C6
100
AcDbEntity
  8
ASSI
100
AcDbCircle
 62
7
  6
CONTINUOUS
 10
-20.0463748355
 20
2.1258649447
 40
0.15
100
AcDbArc
 50
180.0
 51
260.0
  0
ARC
  5
3C7
100
AcDbEntity
  8
ASSI
100
AcDbCircle
 62
7
  6
CONTINUOUS
 10
-20.0463748355
 20
-2.1258649447
 40
0.15
100
AcDbArc
 50
100.0
 51
180.0
  0
ELLIPSE
  5
3C8
100
AcDbEntity
  8
RACCORDO
100
AcDbEllipse
 62
7
  6
CONTINUOUS
 10
-10.5343637998
 20
-25.8343637998
 30
0.0
 11
-0.35379574
 21
-0.35379574
 31
0.0
 40
0.999315002
 41
-0.7850555471
 42
0.7850555471
  0
ELLIPSE
  5
3C9
100
AcDbEntity
  8
RACCORDO
100
AcDbEllipse
 62
7
  6
CONTINUOUS
 10
-10.5343637998
 20
25.8343637998
 30
0.0
 11
0.35379574
 21
-0.35379574
 31
0.0
 40
0.999315002
 41
2.3565371065
 42
3.9266482006
  0
ELLIPSE
  5
3CA
100
AcDbEntity
  8
RACCORDO
100
AcDbEllipse
 62
7
  6
CONTINUOUS
 10
10.5343637998
 20
25.8343637998
 30
0.0
 11
0.35379574
 21
0.35379574
 31
0.0
 40
0.999315002
 41
-0.7850555471
 42
0.7850555471
  0
ELLIPSE
  5
3CB
100
AcDbEntity
  8
RACCORDO
100
AcDbEllipse
 62
7
  6
CONTINUOUS
 10
10.5343637998
 20
-25.8343637998
 30
0.0
 11
-0.35379574
 21
0.35379574
 31
0.0
 40
0.999315002
 41
2.3565371065
 42
3.9266482006
  0
ELLIPSE
  5
3CC
100
AcDbEntity
  8
ASSI
100
AcDbEllipse
 62
7
  6
CONTINUOUS
 10
10.5343637998
 20
-25.8343637998
 30
0.0
 11
-0.35379574
 21
0.35379574
 31
0.0
 40
0.999315002
 41
2.3565371065
 42
3.9266482006
  0
ELLIPSE
  5
3CD
100
AcDbEntity
  8
ASSI
100
AcDbEllipse
 62
7
  6
CONTINUOUS
 10
10.5343637998
 20
25.8343637998
 30
0.0
 11
0.35379574
 21
0.35379574
 31
0.0
 40
0.999315002
 41
-0.7850555471
 42
0.7850555471
  0
ELLIPSE
  5
3CE
100
AcDbEntity
  8
ASSI
100
AcDbEllipse
 62
7
  6
CONTINUOUS
 10
-10.5343637998
 20
25.8343637998
 30
0.0
 11
0.35379574
 21
-0.35379574
 31
0.0
 40
0.999315002
 41
2.3565371065
 42
3.9266482006
  0
ELLIPSE
  5
3CF
100
AcDbEntity
  8
ASSI
100
AcDbEllipse
 62
7
  6
CONTINUOUS
 10
-10.5343637998
 20
-25.8343637998
 30
0.0
 11
-0.35379574
 21
-0.35379574
 31
0.0
 40
0.999315002
 41
-0.7850555471
 42
0.7850555471
  0
ENDSEC
  0
SECTION
  2
OBJECTS
  0
DICTIONARY
  5
C
100
AcDbDictionary
280
0
281
1
  3
ACAD_GROUP
350
D
  3
ACAD_MLINESTYLE
350
17
  3
ACAD_LAYOUT
350
1A
  3
ACAD_PLOTSETTINGS
350
19
  3
ACAD_PLOTSTYLENAME
350
E
  0
DICTIONARY
  5
D
102
{ACAD_REACTORS
330
C
102
}
100
AcDbDictionary
280
0
281
1
  0
ACDBDICTIONARYWDFLT
  5
E
102
{ACAD_REACTORS
330
C
102
}
100
AcDbDictionary
281
1
  3
Normal
350
F
100
AcDbDictionaryWithDefault
340
F
  0
DICTIONARY
  5
17
102
{ACAD_REACTORS
330
C
102
}
100
AcDbDictionary
280
0
281
1
  3
Standard
350
18
  0
DICTIONARY
  5
19
102
{ACAD_REACTORS
330
C
102
}
100
AcDbDictionary
281
1
  0
DICTIONARY
  5
1A
102
{ACAD_REACTORS
330
C
102
}
100
AcDbDictionary
281
1
  3
Model
350
3D0
  3
Layout1
350
3D1
  0
ACDBPLACEHOLDER
  5
F
102
{ACAD_REACTORS
330
E
102
}
  0
MLINESTYLE
  5
18
102
{ACAD_REACTORS
330
17
102
}
100
AcDbMlineStyle
  2
STANDARD
 70
0
  3

 62
256
 51
90.0
 52
90.0
 71
2
 49
0.5
 62
256
  6
BYLAYER
 49
-0.5
 62
256
  6
BYLAYER
  0
LAYOUT
  5
3D0
102
{ACAD_REACTORS
330
1A
102
}
100
AcDbPlotSettings
  1

  2
none_device
  4
ISO_A4_(297.00_x_210.00_MM)
  6

 40
0.0
 41
0.0
 42
0.0
 43
0.0
 44
297.0
 45
210.0
 46
0.0
 47
0.0
 48
0.0
 49
0.0
140
0.0
141
0.0
142
1.0
143
1.0
 70
1024
 72
1
 73
0
 74
0
  7

 75
0
147
1.0
148
0.0
149
0.0
100
AcDbLayout
  1
Model
 70
0
 71
0
 10
0.0
 20
0.0
 11
297.0
 21
210.0
 12
0.0
 22
0.0
 32
0.0
 14
0.0
 24
0.0
 34
0.0
 15
0.0
 25
0.0
 35
0.0
146
0.0
 13
0.0
 23
0.0
 33
0.0
 16
1.0
 26
0.0
 36
0.0
 17
0.0
 27
1.0
 37
0.0
 76
0
330
21A
345
0
346
0
  0
LAYOUT
  5
3D1
102
{ACAD_REACTORS
330
1A
102
}
100
AcDbPlotSettings
  1

  2
none_device
  4
ISO_A4_(297.00_x_210.00_MM)
  6

 40
0.0
 41
0.0
 42
0.0
 43
0.0
 44
297.0
 45
210.0
 46
0.0
 47
0.0
 48
0.0
 49
0.0
140
0.0
141
0.0
142
1.0
143
1.0
 70
0
 72
1
 73
0
 74
0
  7

 75
0
147
1.0
148
0.0
149
0.0
100
AcDbLayout
  1
Layout1
 70
0
 71
1
 10
0.0
 20
0.0
 11
297.0
 21
210.0
 12
0.0
 22
0.0
 32
0.0
 14
0.0
 24
0.0
 34
0.0
 15
0.0
 25
0.0
 35
0.0
146
0.0
 13
0.0
 23
0.0
 33
0.0
 16
1.0
 26
0.0
 36
0.0
 17
0.0
 27
1.0
 37
0.0
 76
0
330
21B
345
0
346
0
  0
ENDSEC
  0
EOF
