  0
SECTION
  2
HEADER
  9
$ACADVER
  1
AC1024
  9
$DWGCODEPAGE
  3
ANSI_1252
  9
$EXTMAX
 10
297.0
 20
210.0
 30
0.0
  9
$EXTMIN
 10
0.0
 20
0.0
 30
0.0
  9
$LIMMIN
 10
0.0
 20
0.0
  9
$LIMMAX
 10
297.0
 20
210.0
  9
$VIEWCTR
 10
148.5
 20
105.0
  9
$VIEWSIZE
 40
210.0
  9
$CLAYER
  8
0
  9
$LTSCALE
 40
16.335
  9
$CELTYPE
  6
BYLAYER
  9
$DIMSCALE
 40
1.0
  9
$DIMASZ
 40
3.0
  9
$DIMEXO
 40
0.5
  9
$DIMDLI
 40
11.286
  9
$DIMEXE
 40
1.5
  9
$DIMCEN
 40
2.673
  9
$DIMLFAC
 40
1.0
  9
$DIMBLK
  1
_FILLED
  9
$DIMALT
 70
0
  9
$DIMALTF
 40
0.0393700787
  9
$DIMTXT
 40
3.0
  9
$DIMTOL
 70
1
  9
$DIMLIM
 70
0
  9
$DIMTFAC
 40
1.0
  9
$DIMTP
 40
0.01
  9
$DIMTM
 40
0.01
  9
$DIMGAP
 40
0.625
  9
$DIMDSEP
 70
44
  9
$AUNITS
 70
0
  9
$PDMODE
 70
3
  9
$PDSIZE
 40
3.0
  9
$HANDSEED
  5
3CC
  9
$TILEMODE
 70
1
  9
$MEASUREMENT
 70
1
  9
$INSUNITS
 70
4
  0
ENDSEC
  0
SECTION
  2
CLASSES
  0
CLASS
  1
ACDBDICTIONARYWDFLT
  2
AcDbDictionaryWithDefault
  3
AutoCAD 2000
 90
0
 91
1
280
0
281
0
  0
CLASS
  1
ACDBPLACEHOLDER
  2
AcDbPlaceHolder
  3
AutoCAD 2000
 90
0
 91
1
280
0
281
0
  0
CLASS
  1
LAYOUT
  2
AcDbLayout
  3
AutoCAD 2000
 90
0
 91
0
280
0
281
0
  0
ENDSEC
  0
SECTION
  2
TABLES
  0
TABLE
  2
VPORT
  5
8
100
AcDbSymbolTable
 70
2
  0
VPORT
  5
1F4
100
AcDbSymbolTableRecord
100
AcDbViewportTableRecord
  2
*ACTIVE
 70
0
 10
0.0
 20
0.0
 11
1.0
 21
1.0
 12
148.5
 22
105.0
 13
0.0
 23
0.0
 14
1.0
 24
1.0
 15
0.0
 25
0.0
 16
0.0
 26
0.0
 36
1.0
 17
0.0
 27
0.0
 37
0.0
 40
210.0
 41
1.4142857143
 42
50.0
 43
0.0
 44
0.0
 50
0.0
 51
0.0
 71
0
 72
100
 73
1
 74
1
 75
0
 76
0
 77
0
 78
0
  0
ENDTAB
  0
TABLE
  2
LTYPE
  5
5
100
AcDbSymbolTable
 70
6
  0
LTYPE
  5
14
100
AcDbSymbolTableRecord
100
AcDbLinetypeTableRecord
  2
BYBLOCK
 70
0
  3

 72
65
 73
0
 40
0.0
  0
LTYPE
  5
15
100
AcDbSymbolTableRecord
100
AcDbLinetypeTableRecord
  2
BYLAYER
 70
0
  3

 72
65
 73
0
 40
0.0
  0
LTYPE
  5
16
100
AcDbSymbolTableRecord
100
AcDbLinetypeTableRecord
  2
CONTINUOUS
 70
64
  3
Solid line
 72
65
 73
0
 40
0.0
  0
LTYPE
  5
1F5
100
AcDbSymbolTableRecord
100
AcDbLinetypeTableRecord
  2
CENTER
 70
64
  3
____ _ ____ _ ____ _ ____ _ ____ _ ____ _ ____
 72
65
 73
4
 40
0.6
 49
0.375
 74
0
 49
-0.075
 74
0
 49
0.075
 74
0
 49
-0.075
 74
0
  0
LTYPE
  5
1F6
100
AcDbSymbolTableRecord
100
AcDbLinetypeTableRecord
  2
HIDDEN
 70
64
  3
- - - - - - - - - - - - - - - - - - - -
 72
65
 73
2
 40
0.2
 49
0.1
 74
0
 49
-0.1
 74
0
  0
LTYPE
  5
1F7
100
AcDbSymbolTableRecord
100
AcDbLinetypeTableRecord
  2
PHANTOM
 70
64
  3
_____ _ _ _____ _ _ _____ _ _ _____
 72
65
 73
6
 40
0.8
 49
0.45
 74
0
 49
-0.05
 74
0
 49
0.1
 74
0
 49
-0.05
 74
0
 49
0.1
 74
0
 49
-0.05
 74
0
  0
LTYPE
  5
1F8
100
AcDbSymbolTableRecord
100
AcDbLinetypeTableRecord
  2
DOT
 70
64
  3
. . . . . . . . . . . . . . . . . . . .
 72
65
 73
2
 40
0.2
 49
0.1
 74
0
 49
-0.1
 74
0
  0
LTYPE
  5
1F9
100
AcDbSymbolTableRecord
100
AcDbLinetypeTableRecord
  2
DASHED
 70
64
  3
- - - - - - - - - - - - - - - - - - - -
 72
65
 73
2
 40
0.2
 49
0.1
 74
0
 49
-0.1
 74
0
  0
ENDTAB
  0
TABLE
  2
LAYER
  5
2
100
AcDbSymbolTable
 70
36
  0
LAYER
  5
10
100
AcDbSymbolTableRecord
100
AcDbLayerTableRecord
  2
0
 70
0
 62
7
  6
CONTINUOUS
370
-3
390
F
  0
LAYER
  5
1FA
100
AcDbSymbolTableRecord
100
AcDbLayerTableRecord
  2
DEFAULT_1
 70
0
 62
7
  6
CENTER
370
-3
390
F
  0
LAYER
  5
1FB
100
AcDbSymbolTableRecord
100
AcDbLayerTableRecord
  2
DEFAULT_2
 70
0
 62
7
  6
HIDDEN
370
-3
390
F
  0
LAYER
  5
1FC
100
AcDbSymbolTableRecord
100
AcDbLayerTableRecord
  2
DEFAULT_3
 70
0
 62
7
  6
PHANTOM
370
-3
390
F
  0
LAYER
  5
1FD
100
AcDbSymbolTableRecord
100
AcDbLayerTableRecord
  2
ASSI
 70
0
 62
7
  6
CONTINUOUS
370
-3
390
F
  0
LAYER
  5
1FE
100
AcDbSymbolTableRecord
100
AcDbLayerTableRecord
  2
COORDINATE
 70
0
 62
7
  6
CONTINUOUS
370
-3
390
F
  0
LAYER
  5
1FF
100
AcDbSymbolTableRecord
100
AcDbLayerTableRecord
  2
COPY_PUBLISH
 70
0
 62
7
  6
CONTINUOUS
370
-3
390
F
  0
LAYER
  5
200
100
AcDbSymbolTableRecord
100
AcDbLayerTableRecord
  2
COSMETICI
 70
0
 62
7
  6
CONTINUOUS
370
-3
390
F
  0
LAYER
  5
201
100
AcDbSymbolTableRecord
100
AcDbLayerTableRecord
  2
CURVE
 70
0
 62
7
  6
CONTINUOUS
370
-3
390
F
  0
LAYER
  5
202
100
AcDbSymbolTableRecord
100
AcDbLayerTableRecord
  2
DRAFT
 70
0
 62
7
  6
CONTINUOUS
370
-3
390
F
  0
LAYER
  5
203
100
AcDbSymbolTableRecord
100
AcDbLayerTableRecord
  2
IMPORT_IGES
 70
0
 62
7
  6
CONTINUOUS
370
-3
390
F
  0
LAYER
  5
204
100
AcDbSymbolTableRecord
100
AcDbLayerTableRecord
  2
INTF_10
 70
0
 62
7
  6
CONTINUOUS
370
-3
390
F
  0
LAYER
  5
205
100
AcDbSymbolTableRecord
100
AcDbLayerTableRecord
  2
INTF_2
 70
0
 62
7
  6
CONTINUOUS
370
-3
390
F
  0
LAYER
  5
206
100
AcDbSymbolTableRecord
100
AcDbLayerTableRecord
  2
INTF_3
 70
0
 62
7
  6
CONTINUOUS
370
-3
390
F
  0
LAYER
  5
207
100
AcDbSymbolTableRecord
100
AcDbLayerTableRecord
  2
INTF_4
 70
0
 62
7
  6
CONTINUOUS
370
-3
390
F
  0
LAYER
  5
208
100
AcDbSymbolTableRecord
100
AcDbLayerTableRecord
  2
INTF_5
 70
0
 62
7
  6
CONTINUOUS
370
-3
390
F
  0
LAYER
  5
209
100
AcDbSymbolTableRecord
100
AcDbLayerTableRecord
  2
INTF_6
 70
0
 62
7
  6
CONTINUOUS
370
-3
390
F
  0
LAYER
  5
20A
100
AcDbSymbolTableRecord
100
AcDbLayerTableRecord
  2
INTF_7
 70
0
 62
7
  6
CONTINUOUS
370
-3
390
F
  0
LAYER
  5
20B
100
AcDbSymbolTableRecord
100
AcDbLayerTableRecord
  2
INTF_9
 70
0
 62
7
  6
CONTINUOUS
370
-3
390
F
  0
LAYER
  5
20C
100
AcDbSymbolTableRecord
100
AcDbLayerTableRecord
  2
INTF_BLANK
 70
0
 62
7
  6
CONTINUOUS
370
-3
390
F
  0
LAYER
  5
20D
100
AcDbSymbolTableRecord
100
AcDbLayerTableRecord
  2
INTF_RED
 70
0
 62
7
  6
CONTINUOUS
370
-3
390
F
  0
LAYER
  5
20E
100
AcDbSymbolTableRecord
100
AcDbLayerTableRecord
  2
NOTE
 70
0
 62
7
  6
CONTINUOUS
370
-3
390
F
  0
LAYER
  5
20F
100
AcDbSymbolTableRecord
100
AcDbLayerTableRecord
  2
PIANI
 70
0
 62
7
  6
CONTINUOUS
370
-3
390
F
  0
LAYER
  5
210
100
AcDbSymbolTableRecord
100
AcDbLayerTableRecord
  2
PUNTI
 70
0
 62
7
  6
CONTINUOUS
370
-3
390
F
  0
LAYER
  5
211
100
AcDbSymbolTableRecord
100
AcDbLayerTableRecord
  2
RACCORDO
 70
0
 62
7
  6
CONTINUOUS
370
-3
390
F
  0
LAYER
  5
212
100
AcDbSymbolTableRecord
100
AcDbLayerTableRecord
  2
RGB____0____0____0__
 70
0
 62
7
  6
CONTINUOUS
370
-3
390
F
  0
LAYER
  5
213
100
AcDbSymbolTableRecord
100
AcDbLayerTableRecord
  2
SIMBOLI
 70
0
 62
7
  6
CONTINUOUS
370
-3
390
F
  0
LAYER
  5
214
100
AcDbSymbolTableRecord
100
AcDbLayerTableRecord
  2
SMUSSO
 70
0
 62
7
  6
CONTINUOUS
370
-3
390
F
  0
LAYER
  5
215
100
AcDbSymbolTableRecord
100
AcDbLayerTableRecord
  2
SNAPLINE
 70
0
 62
7
  6
CONTINUOUS
370
-3
390
F
  0
LAYER
  5
216
100
AcDbSymbolTableRecord
100
AcDbLayerTableRecord
  2
SUPERFICI
 70
0
 62
7
  6
CONTINUOUS
370
-3
390
F
  0
LAYER
  5
217
100
AcDbSymbolTableRecord
100
AcDbLayerTableRecord
  2
TRASH
 70
0
 62
7
  6
CONTINUOUS
370
-3
390
F
  0
ENDTAB
  0
TABLE
  2
STYLE
  5
3
100
AcDbSymbolTable
 70
1
  0
STYLE
  5
11
100
AcDbSymbolTableRecord
100
AcDbTextStyleTableRecord
  2
STANDARD
 70
0
 40
0.0
 41
0.8
 50
0.0
 71
0
 42
0.2
  3
txt
  4

  0
STYLE
  5
218
100
AcDbSymbolTableRecord
100
AcDbTextStyleTableRecord
  2
TEXTSTYLE_1
 70
0
 40
0.0
 41
0.8
 50
0.0
 71
0
 42
0.2
  3
gdt
  4

  0
ENDTAB
  0
TABLE
  2
VIEW
  5
6
100
AcDbSymbolTable
 70
0
  0
ENDTAB
  0
TABLE
  2
UCS
  5
7
100
AcDbSymbolTable
 70
0
  0
ENDTAB
  0
TABLE
  2
APPID
  5
9
100
AcDbSymbolTable
 70
1
  0
APPID
  5
219
100
AcDbSymbolTableRecord
100
AcDbRegAppTableRecord
  2
ACAD
 70
0
  0
ENDTAB
  0
TABLE
  2
BLOCK_RECORD
  5
1
100
AcDbSymbolTable
 70
0
  0
BLOCK_RECORD
  5
21A
100
AcDbSymbolTableRecord
100
AcDbBlockTableRecord
  2
*Model_Space
  0
BLOCK_RECORD
  5
21B
100
AcDbSymbolTableRecord
100
AcDbBlockTableRecord
  2
*Paper_Space
  0
BLOCK_RECORD
  5
21C
100
AcDbSymbolTableRecord
100
AcDbBlockTableRecord
  2
_FILLED
  0
BLOCK_RECORD
  5
21D
100
AcDbSymbolTableRecord
100
AcDbBlockTableRecord
  2
*D0
  0
BLOCK_RECORD
  5
21E
100
AcDbSymbolTableRecord
100
AcDbBlockTableRecord
  2
*D1
  0
BLOCK_RECORD
  5
21F
100
AcDbSymbolTableRecord
100
AcDbBlockTableRecord
  2
*D2
  0
BLOCK_RECORD
  5
220
100
AcDbSymbolTableRecord
100
AcDbBlockTableRecord
  2
*D3
  0
ENDTAB
  0
TABLE
  2
DIMSTYLE
  5
A
100
AcDbSymbolTable
 70
1
100
AcDbDimStyleTable
 71
0
  0
DIMSTYLE
105
221
100
AcDbSymbolTableRecord
100
AcDbDimStyleTableRecord
  2
STANDARD
 70
0
  3

  4

 40
1.0
 41
3.0
 42
0.5
 43
0.38
 44
1.5
 45
0.0
 46
0.0
 47
0.01
 48
0.01
140
3.0
141
0.09
142
0.0
143
25.4
144
1.0
145
0.0
146
1.0
147
0.625
 71
1
 72
0
 73
0
 74
0
 75
0
 76
0
 77
1
 78
8
 79
2
170
0
171
1
172
0
173
0
174
0
175
0
176
0
177
0
178
0
270
2
179
2
271
2
272
2
273
2
274
2
275
0
280
0
281
0
282
0
283
1
284
8
285
0
286
0
287
3
288
0
340
11
278
44
341
21C
342
21C
343
21C
344
21C
  0
DIMSTYLE
105
222
100
AcDbSymbolTableRecord
100
AcDbDimStyleTableRecord
  2
DIMSTYLE_1
 70
0
  3

  4

 40
1.0
 41
3.0
 42
0.5
 43
0.38
 44
1.5
 45
0.0
 46
0.0
 47
0.0
 48
0.0
140
3.0
141
0.09
142
0.0
143
25.4
144
1.0
145
0.0
146
1.0
147
0.75
 71
0
 72
0
 73
0
 74
0
 75
0
 76
0
 77
1
 78
8
 79
2
170
0
171
1
172
0
173
0
174
0
175
0
176
0
177
0
178
0
270
2
179
2
271
1
272
1
273
2
274
2
275
0
280
0
281
0
282
0
283
1
284
8
285
0
286
0
287
3
288
0
340
11
278
44
341
21C
342
21C
343
21C
344
21C
  0
ENDTAB
  0
ENDSEC
  0
SECTION
  2
BLOCKS
  0
BLOCK
  5
20
100
AcDbEntity
  8
0
100
AcDbBlockBegin
  2
*Model_Space
 70
0
 10
0.0
 20
0.0
 30
0.0
  3
*Model_Space
  1

  0
ENDBLK
  5
21
100
AcDbEntity
  8
0
100
AcDbBlockEnd
  0
BLOCK
  5
1C
100
AcDbEntity
  8
0
100
AcDbBlockBegin
  2
*Paper_Space
 70
0
 10
0.0
 20
0.0
 30
0.0
  3
*Paper_Space
  1

  0
ENDBLK
  5
1D
100
AcDbEntity
  8
0
100
AcDbBlockEnd
  0
BLOCK
  5
223
100
AcDbEntity
  8
0
100
AcDbBlockBegin
  2
_FILLED
 70
64
 10
0.0
 20
0.0
  3
_FILLED
  1

  0
SOLID
  5
224
100
AcDbEntity
  8
0
  6
BYBLOCK
 62
0
100
AcDbTrace
 10
0.0
 20
0.0
 11
-1.0
 21
0.3166666667
 12
-1.0
 22
-0.3166666667
 13
-1.0
 23
-0.3166666667
  0
ENDBLK
  5
225
100
AcDbEntity
  8
0
  6
BYBLOCK
 62
0
100
AcDbBlockEnd
  0
BLOCK
  5
226
100
AcDbEntity
  8
0
100
AcDbBlockBegin
 62
7
  6
CONTINUOUS
  2
*D0
 70
65
 10
0.0
 20
0.0
  3
*D0
  1

  0
LINE
  5
227
100
AcDbEntity
  8
0
100
AcDbLine
 62
7
  6
CONTINUOUS
 10
-11.0528653412
 20
26.3530366787
 11
-11.0528653412
 21
38.030851124
  0
LINE
  5
228
100
AcDbEntity
  8
0
100
AcDbLine
 62
7
  6
CONTINUOUS
 10
11.0528653412
 20
26.3530366787
 11
11.0528653412
 21
38.030851124
  0
LINE
  5
229
100
AcDbEntity
  8
0
100
AcDbLine
 62
7
  6
CONTINUOUS
 10
-11.0528653412
 20
36.530851124
 11
0.0
 21
36.530851124
  0
LINE
  5
22A
100
AcDbEntity
  8
0
100
AcDbLine
 62
7
  6
CONTINUOUS
 10
11.0528653412
 20
36.530851124
 11
0.0
 21
36.530851124
  0
INSERT
  5
22B
100
AcDbEntity
  8
0
100
AcDbBlockReference
 62
7
  6
CONTINUOUS
  2
_FILLED
 10
-11.0528653412
 20
36.530851124
 41
3.0
 42
3.0
 43
3.0
 50
180.0
  0
INSERT
  5
22C
100
AcDbEntity
  8
0
100
AcDbBlockReference
 62
7
  6
CONTINUOUS
  2
_FILLED
 10
11.0528653412
 20
36.530851124
 41
3.0
 42
3.0
 43
3.0
  0
ENDBLK
  5
22D
100
AcDbEntity
  8
0
  6
BYBLOCK
 62
0
100
AcDbBlockEnd
  0
BLOCK
  5
22E
100
AcDbEntity
  8
0
100
AcDbBlockBegin
 62
7
  6
CONTINUOUS
  2
*D1
 70
65
 10
0.0
 20
0.0
  3
*D1
  1

  0
LINE
  5
22F
100
AcDbEntity
  8
0
100
AcDbLine
 62
7
  6
CONTINUOUS
 10
11.0530366787
 20
26.3528653412
 11
22.730851124
 21
26.3528653412
  0
LINE
  5
230
100
AcDbEntity
  8
0
100
AcDbLine
 62
7
  6
CONTINUOUS
 10
11.0530366787
 20
-26.3528653412
 11
22.730851124
 21
-26.3528653412
  0
LINE
  5
231
100
AcDbEntity
  8
0
100
AcDbLine
 62
7
  6
CONTINUOUS
 10
21.230851124
 20
26.3528653412
 11
21.230851124
 21
0.0
  0
LINE
  5
232
100
AcDbEntity
  8
0
100
AcDbLine
 62
7
  6
CONTINUOUS
 10
21.230851124
 20
-26.3528653412
 11
21.230851124
 21
0.0
  0
INSERT
  5
233
100
AcDbEntity
  8
0
100
AcDbBlockReference
 62
7
  6
CONTINUOUS
  2
_FILLED
 10
21.230851124
 20
26.3528653412
 41
3.0
 42
3.0
 43
3.0
 50
90.0
  0
INSERT
  5
234
100
AcDbEntity
  8
0
100
AcDbBlockReference
 62
7
  6
CONTINUOUS
  2
_FILLED
 10
21.230851124
 20
-26.3528653412
 41
3.0
 42
3.0
 43
3.0
 50
270.0
  0
ENDBLK
  5
235
100
AcDbEntity
  8
0
  6
BYBLOCK
 62
0
100
AcDbBlockEnd
  0
BLOCK
  5
236
100
AcDbEntity
  8
0
100
AcDbBlockBegin
 62
7
  6
CONTINUOUS
  2
*D2
 70
65
 10
0.0
 20
0.0
  3
*D2
  1

  0
LINE
  5
237
100
AcDbEntity
  8
0
100
AcDbLine
 62
7
  6
CONTINUOUS
 10
-31.1789714962
 20
26.3530366787
 11
-31.1789714962
 21
38.030851124
  0
LINE
  5
238
100
AcDbEntity
  8
0
100
AcDbLine
 62
7
  6
CONTINUOUS
 10
-35.8487190248
 20
-24.7044218162
 11
-35.8487190248
 21
38.030851124
  0
LINE
  5
239
100
AcDbEntity
  8
0
100
AcDbLine
 62
7
  6
CONTINUOUS
 10
-31.1789714962
 20
36.530851124
 11
-27.1789714962
 21
36.530851124
  0
LINE
  5
23A
100
AcDbEntity
  8
0
100
AcDbLine
 62
7
  6
CONTINUOUS
 10
-27.1789714962
 20
36.530851124
 11
-33.5138452605
 21
36.530851124
  0
LINE
  5
23B
100
AcDbEntity
  8
0
100
AcDbLine
 62
7
  6
CONTINUOUS
 10
-35.8487190248
 20
36.530851124
 11
-47.4080622429
 21
36.530851124
  0
LINE
  5
23C
100
AcDbEntity
  8
0
100
AcDbLine
 62
7
  6
CONTINUOUS
 10
-47.4080622429
 20
36.530851124
 11
-33.5138452605
 21
36.530851124
  0
INSERT
  5
23D
100
AcDbEntity
  8
0
100
AcDbBlockReference
 62
7
  6
CONTINUOUS
  2
_FILLED
 10
-31.1789714962
 20
36.530851124
 41
3.0
 42
3.0
 43
3.0
 50
180.0
  0
INSERT
  5
23E
100
AcDbEntity
  8
0
100
AcDbBlockReference
 62
7
  6
CONTINUOUS
  2
_FILLED
 10
-35.8487190248
 20
36.530851124
 41
3.0
 42
3.0
 43
3.0
  0
ENDBLK
  5
23F
100
AcDbEntity
  8
0
  6
BYBLOCK
 62
0
100
AcDbBlockEnd
  0
BLOCK
  5
240
100
AcDbEntity
  8
0
100
AcDbBlockBegin
 62
7
  6
CONTINUOUS
  2
*D3
 70
65
 10
0.0
 20
0.0
  3
*D3
  1

  0
LINE
  5
241
100
AcDbEntity
  8
0
100
AcDbLine
 62
7
  6
CONTINUOUS
 10
-27.8789714962
 20
-11.4387125896
 11
-27.8789714962
 21
48.1871256503
  0
LINE
  5
242
100
AcDbEntity
  8
0
100
AcDbLine
 62
7
  6
CONTINUOUS
 10
-35.8487190248
 20
-24.7044218162
 11
-35.8487190248
 21
48.1871256503
  0
LINE
  5
243
100
AcDbEntity
  8
0
100
AcDbLine
 62
7
  6
CONTINUOUS
 10
-27.8789714962
 20
46.6871256503
 11
-23.8789714962
 21
46.6871256503
  0
LINE
  5
244
100
AcDbEntity
  8
0
100
AcDbLine
 62
7
  6
CONTINUOUS
 10
-23.8789714962
 20
46.6871256503
 11
-31.8638452605
 21
46.6871256503
  0
LINE
  5
245
100
AcDbEntity
  8
0
100
AcDbLine
 62
7
  6
CONTINUOUS
 10
-35.8487190248
 20
46.6871256503
 11
-39.8487190248
 21
46.6871256503
  0
LINE
  5
246
100
AcDbEntity
  8
0
100
AcDbLine
 62
7
  6
CONTINUOUS
 10
-39.8487190248
 20
46.6871256503
 11
-31.8638452605
 21
46.6871256503
  0
INSERT
  5
247
100
AcDbEntity
  8
0
100
AcDbBlockReference
 62
7
  6
CONTINUOUS
  2
_FILLED
 10
-27.8789714962
 20
46.6871256503
 41
3.0
 42
3.0
 43
3.0
 50
180.0
  0
INSERT
  5
248
100
AcDbEntity
  8
0
100
AcDbBlockReference
 62
7
  6
CONTINUOUS
  2
_FILLED
 10
-35.8487190248
 20
46.6871256503
 41
3.0
 42
3.0
 43
3.0
 50
0.0
  0
ENDBLK
  5
249
100
AcDbEntity
  8
0
  6
BYBLOCK
 62
0
100
AcDbBlockEnd
  0
ENDSEC
  0
SECTION
  2
ENTITIES
  0
DIMENSION
  5
24A
100
AcDbEntity
  8
0
100
AcDbDimension
 62
7
  6
CONTINUOUS
  2
*D0
 10
11.0528653412
 20
36.530851124
 11
-4.0714285714
 21
36.530851124
 70
160
 71
2
 72
2
 41
0.9
 42
22.1057306824
  3
DIMSTYLE_1
100
AcDbAlignedDimension
 13
-11.0528653412
 23
25.8530366787
 14
11.0528653412
 24
25.8530366787
100
AcDbRotatedDimension
  0
DIMENSION
  5
24B
100
AcDbEntity
  8
0
100
AcDbDimension
 62
7
  6
CONTINUOUS
  2
*D1
 10
21.230851124
 20
-26.3528653412
 11
21.230851124
 21
-4.2857142857
 70
160
 71
2
 72
2
 41
0.9
 42
52.7057306824
  3
DIMSTYLE_1
100
AcDbAlignedDimension
 13
10.5530366787
 23
26.3528653412
 14
10.5530366787
 24
-26.3528653412
 50
270.0
100
AcDbRotatedDimension
  0
DIMENSION
  5
24C
100
AcDbEntity
  8
0
100
AcDbDimension
 62
7
  6
CONTINUOUS
  2
*D2
 10
-35.8487190248
 20
36.530851124
 11
-47.4080622429
 21
36.530851124
 70
160
 71
3
 72
2
 41
0.9
 42
4.6697475287
  3
DIMSTYLE_1
100
AcDbAlignedDimension
 13
-31.1789714962
 23
25.8530366787
 14
-35.8487190248
 24
-25.2044218162
 50
180.0
100
AcDbRotatedDimension
  0
DIMENSION
  5
24D
100
AcDbEntity
  8
0
100
AcDbDimension
 62
7
  6
CONTINUOUS
  2
*D3
 10
-35.8487190248
 20
46.6871256503
 11
-33.0424166891
 21
46.6871256503
 70
160
 71
2
 72
2
 41
0.9
 42
7.9697475287
  3
DIMSTYLE_1
100
AcDbAlignedDimension
 13
-27.8789714962
 23
-11.9387125896
 14
-35.8487190248
 24
-25.2044218162
 50
180.0
100
AcDbRotatedDimension
  0
LWPOLYLINE
  5
24E
100
AcDbEntity
  8
0
100
AcDbPolyline
 62
7
  6
CONTINUOUS
 90
3
 70
0
 43
0.3500000006
 10
2.3571427875
 20
39.4237088013
 10
3.2142856836
 20
40.2808512726
 10
3.2142856836
 20
37.2808503571
  0
LINE
  5
24F
100
AcDbEntity
  8
RACCORDO
100
AcDbLine
 62
7
  6
CONTINUOUS
 10
-10.5530366787
 20
-26.3528653412
 11
10.5530366787
 21
-26.3528653412
  0
LINE
  5
250
100
AcDbEntity
  8
RACCORDO
100
AcDbLine
 62
250
  6
CONTINUOUS
 10
10.5205507771
 20
-26.3203794396
 11
-10.5205507771
 21
-26.3203794396
  0
LINE
  5
251
100
AcDbEntity
  8
RACCORDO
100
AcDbLine
 62
250
  6
CONTINUOUS
 10
10.5181743647
 20
-26.2989189342
 11
-10.5181743647
 21
-26.2989189342
  0
LINE
  5
252
100
AcDbEntity
  8
RACCORDO
100
AcDbLine
 62
7
  6
CONTINUOUS
 10
-5.2350322096
 20
-26.1432757417
 11
5.2350322096
 21
-26.1432757417
  0
LINE
  5
253
100
AcDbEntity
  8
RACCORDO
100
AcDbLine
 62
7
  6
CONTINUOUS
 10
-5.1324694425
 20
-25.895948064
 11
5.1324694425
 21
-25.895948064
  0
LINE
  5
254
100
AcDbEntity
  8
RACCORDO
100
AcDbLine
 62
250
  6
CONTINUOUS
 10
10.4435052632
 20
-25.693520226
 11
-10.4435052632
 21
-25.693520226
  0
LINE
  5
255
100
AcDbEntity
  8
RACCORDO
100
AcDbLine
 62
250
  6
CONTINUOUS
 10
10.4435052632
 20
-25.1521575846
 11
-10.4435052632
 21
-25.1521575846
  0
LWPOLYLINE
  5
256
100
AcDbEntity
  8
RACCORDO
100
AcDbPolyline
 62
250
  6
CONTINUOUS
 90
16
 70
0
 10
-10.9433339257
 20
-25.2044218162
 10
-10.9403172627
 20
-25.2554986701
 10
-10.9318678214
 20
-25.3060168721
 10
-10.9180780343
 20
-25.3554239968
 10
-10.8990967774
 20
-25.4031840203
 10
-10.8751326966
 20
-25.4487700506
 10
-10.8464563506
 20
-25.4916722423
 10
-10.8133911019
 20
-25.531417366
 10
-10.7762969302
 20
-25.5675818588
 10
-10.7355711985
 20
-25.5997816616
 10
-10.6916052492
 20
-25.6276957687
 10
-10.6449261703
 20
-25.6509787774
 10
-10.5962079785
 20
-25.669324231
 10
-10.5460551182
 20
-25.682570091
 10
-10.4949692497
 20
-25.6906470494
 10
-10.4435052632
 20
-25.693520226
  0
LWPOLYLINE
  5
257
100
AcDbEntity
  8
RACCORDO
100
AcDbPolyline
 62
250
  6
CONTINUOUS
 90
16
 70
0
 10
-11.0180030272
 20
-25.8098205244
 10
-11.0150007584
 20
-25.8607696861
 10
-11.0065927345
 20
-25.9111644918
 10
-10.9928704398
 20
-25.9604566172
 10
-10.9739831805
 20
-26.0081097358
 10
-10.9501364609
 20
-26.0536053546
 10
-10.9215897469
 20
-26.0964484551
 10
-10.8886536431
 20
-26.13617288
 10
-10.8516865131
 20
-26.1723464048
 10
-10.8110905803
 20
-26.2045754409
 10
-10.7673075518
 20
-26.232509318
 10
-10.7208138118
 20
-26.2558440995
 10
-10.6721152389
 20
-26.2743258897
 10
-10.6217417014
 20
-26.2877535961
 10
-10.570241292
 20
-26.2959811177
 10
-10.5181743647
 20
-26.2989189342
  0
LWPOLYLINE
  5
258
100
AcDbEntity
  8
RACCORDO
100
AcDbPolyline
 62
250
  6
CONTINUOUS
 90
16
 70
0
 10
-11.0203794396
 20
-25.8205507771
 10
-11.0176079341
 20
-25.8727743335
 10
-11.0093953246
 20
-25.9244262286
 10
-10.9958315081
 20
-25.9749410473
 10
-10.9770649595
 20
-26.0237658213
 10
-10.9533011065
 20
-26.0703660817
 10
-10.9248000809
 20
-26.1142317096
 10
-10.8918738706
 20
-26.1548825217
 10
-10.8548829053
 20
-26.1918735251
 10
-10.8142321118
 20
-26.2247997886
 10
-10.7703664787
 20
-26.2533008771
 10
-10.7237661873
 20
-26.2770647964
 10
-10.6749413572
 20
-26.2958314073
 10
-10.6244264579
 20
-26.3093952757
 10
-10.5727744586
 20
-26.3176079208
 10
-10.5205507771
 20
-26.3203794396
  0
LWPOLYLINE
  5
259
100
AcDbEntity
  8
RACCORDO
100
AcDbPolyline
 62
250
  6
CONTINUOUS
 90
16
 70
0
 10
-11.0132437251
 20
25.8134150626
 10
-11.0104557606
 20
25.8657940376
 10
-11.0021943512
 20
25.9175962153
 10
-10.9885504711
 20
25.9682511464
 10
-10.9696717815
 20
26.0172067959
 10
-10.9457675487
 20
26.0639177387
 10
-10.9171122688
 20
26.1078541194
 10
-10.8840348897
 20
26.1485261269
 10
-10.8468972612
 20
26.1855014262
 10
-10.8060959292
 20
26.2183893375
 10
-10.762014426
 20
26.2468656055
 10
-10.7151938467
 20
26.270566676
 10
-10.6663444548
 20
26.2891687618
 10
-10.6160895555
 20
26.3025140488
 10
-10.5649267792
 20
26.3105469765
 10
-10.5134150626
 20
26.3132437251
  0
LINE
  5
25A
100
AcDbEntity
  8
RACCORDO
100
AcDbLine
 62
250
  6
CONTINUOUS
 10
-10.9433339257
 20
-25.2044218162
 11
-10.9989098678
 21
-4.5181639701
  0
LINE
  5
25B
100
AcDbEntity
  8
RACCORDO
100
AcDbLine
 62
250
  6
CONTINUOUS
 10
-10.9989098678
 20
-4.5181639701
 11
-11.0071224426
 21
-0.0397154717
  0
LINE
  5
25C
100
AcDbEntity
  8
RACCORDO
100
AcDbLine
 62
250
  6
CONTINUOUS
 10
-10.4990812053
 20
-4.4763487861
 11
-10.5072937801
 21
-0.0125804815
  0
LINE
  5
25D
100
AcDbEntity
  8
RACCORDO
100
AcDbLine
 62
250
  6
CONTINUOUS
 10
-11.0071224426
 20
-0.0397154717
 11
-11.0122265547
 21
5.6041845376
  0
LINE
  5
25E
100
AcDbEntity
  8
RACCORDO
100
AcDbLine
 62
250
  6
CONTINUOUS
 10
-10.5072937801
 20
-0.0125804815
 11
-10.5123978922
 21
5.6129760211
  0
LINE
  5
25F
100
AcDbEntity
  8
RACCORDO
100
AcDbLine
 62
7
  6
CONTINUOUS
 10
-11.0528653412
 20
25.8530366787
 11
-11.0528653412
 21
-25.8530366787
  0
LINE
  5
260
100
AcDbEntity
  8
RACCORDO
100
AcDbLine
 62
250
  6
CONTINUOUS
 10
-11.0122265547
 20
5.6041845376
 11
-11.0132437251
 21
25.8134150626
  0
LINE
  5
261
100
AcDbEntity
  8
RACCORDO
100
AcDbLine
 62
250
  6
CONTINUOUS
 10
-10.5123978922
 20
5.6129760211
 11
-10.5134150626
 21
26.3132437251
  0
LINE
  5
262
100
AcDbEntity
  8
RACCORDO
100
AcDbLine
 62
250
  6
CONTINUOUS
 10
-10.4435052632
 20
-25.693520226
 11
-10.4990812053
 21
-4.4763487861
  0
LWPOLYLINE
  5
263
100
AcDbEntity
  8
0
100
AcDbPolyline
 62
7
  6
CONTINUOUS
 90
3
 70
0
 43
0.3500000006
 10
1.3571429071
 20
37.5665660248
 10
1.2857142735
 20
37.3522815399
 10
1.1428571477
 20
37.0665658722
  0
LINE
  5
264
100
AcDbEntity
  8
RACCORDO
100
AcDbLine
 62
250
  6
CONTINUOUS
 10
10.5530366787
 20
26.3528653412
 11
10.5134150626
 21
26.3132437251
  0
LINE
  5
265
100
AcDbEntity
  8
RACCORDO
100
AcDbLine
 62
250
  6
CONTINUOUS
 10
11.0528653412
 20
25.8530366787
 11
11.0132437251
 21
25.8134150626
  0
LINE
  5
266
100
AcDbEntity
  8
RACCORDO
100
AcDbLine
 62
250
  6
CONTINUOUS
 10
-10.4845635678
 20
-10.2340775349
 11
10.4845635678
 21
-10.2340775349
  0
LINE
  5
267
100
AcDbEntity
  8
RACCORDO
100
AcDbLine
 62
250
  6
CONTINUOUS
 10
10.5205507771
 20
-26.3203794396
 11
10.5530366787
 21
-26.3528653412
  0
LINE
  5
268
100
AcDbEntity
  8
RACCORDO
100
AcDbLine
 62
250
  6
CONTINUOUS
 10
11.0203794396
 20
-25.8205507771
 11
11.0528653412
 21
-25.8530366787
  0
LINE
  5
269
100
AcDbEntity
  8
RACCORDO
100
AcDbLine
 62
250
  6
CONTINUOUS
 10
-11.0180030272
 20
-25.8098205244
 11
-10.9433339257
 21
-25.2044218162
  0
LINE
  5
26A
100
AcDbEntity
  8
RACCORDO
100
AcDbLine
 62
7
  6
CONTINUOUS
 10
5.4312985743
 20
-26.0954029818
 11
5.3320678951
 21
-25.9328753679
  0
LINE
  5
26B
100
AcDbEntity
  8
RACCORDO
100
AcDbLine
 62
250
  6
CONTINUOUS
 10
-10.5181743647
 20
-26.2989189342
 11
-10.4435052632
 21
-25.693520226
  0
LWPOLYLINE
  5
26C
100
AcDbEntity
  8
RACCORDO
100
AcDbPolyline
 62
250
  6
CONTINUOUS
 90
16
 70
0
 10
10.9433339257
 20
-25.2044218162
 10
10.9393312939
 20
-25.1990339521
 10
10.9300488962
 20
-25.1937034715
 10
10.9155856079
 20
-25.188487135
 10
10.8960935739
 20
-25.1834400599
 10
10.8717814469
 20
-25.1786164539
 10
10.8429162406
 20
-25.174068828
 10
10.8098145094
 20
-25.1698460291
 10
10.7728270646
 20
-25.1659919171
 10
10.732339879
 20
-25.1625463821
 10
10.6887315399
 20
-25.1595428203
 10
10.6425117017
 20
-25.1570174294
 10
10.5943317402
 20
-25.1550027631
 10
10.5447740511
 20
-25.1535164674
 10
10.4943206487
 20
-25.1525665296
 10
10.4435052632
 20
-25.1521575846
  0
LINE
  5
26D
100
AcDbEntity
  8
RACCORDO
100
AcDbLine
 62
250
  6
CONTINUOUS
 10
-5.223997205
 20
-25.9006190923
 11
-5.2350322096
 21
-26.1432757417
  0
LWPOLYLINE
  5
26E
100
AcDbEntity
  8
RACCORDO
100
AcDbPolyline
 62
250
  6
CONTINUOUS
 90
16
 70
0
 10
-10.9843922303
 20
-10.2863417665
 10
-10.9804059056
 20
-10.2809671473
 10
-10.9711654667
 20
-10.2756494702
 10
-10.9567688298
 20
-10.2704450841
 10
-10.9373685479
 20
-10.2654091371
 10
-10.9131701939
 20
-10.260594992
 10
-10.8844301826
 20
-10.2560536602
 10
-10.8514530538
 20
-10.251833263
 10
-10.814588245
 20
-10.2479785215
 10
-10.7742263877
 20
-10.2445302818
 10
-10.7307951703
 20
-10.241525082
 10
-10.6847548046
 20
-10.2389947662
 10
-10.6365931486
 20
-10.236966147
 10
-10.5868205387
 20
-10.2354607201
 10
-10.5359643823
 20
-10.2344944367
 10
-10.4845635678
 20
-10.2340775349
  0
LINE
  5
26F
100
AcDbEntity
  8
RACCORDO
100
AcDbLine
 62
7
  6
CONTINUOUS
 10
5.4312985743
 20
-26.0954029818
 11
5.4328585756
 21
-26.1005388103
  0
LWPOLYLINE
  5
270
100
AcDbEntity
  8
RACCORDO
100
AcDbPolyline
 62
250
  6
CONTINUOUS
 90
10
 70
0
 10
-10.5205507771
 20
-26.3203794396
 10
-10.5202845047
 20
-26.3196404454
 10
-10.5200187372
 20
-26.3184885034
 10
-10.5197534745
 20
-26.3169242192
 10
-10.5194886477
 20
-26.3149486684
 10
-10.5192243257
 20
-26.3125626092
 10
-10.5189607157
 20
-26.3097659174
 10
-10.5186978867
 20
-26.3065589014
 10
-10.5184357697
 20
-26.3029428668
 10
-10.5181743647
 20
-26.2989189342
  0
LWPOLYLINE
  5
271
100
AcDbEntity
  8
0
100
AcDbPolyline
 62
7
  6
CONTINUOUS
 90
4
 70
0
 43
0.3500000006
 10
18.1237082863
 20
1.928571373
 10
17.4808514328
 20
1.928571373
 10
17.4808514328
 20
3.4285718307
 10
20.4808500824
 20
2.5714293594
  0
LINE
  5
272
100
AcDbEntity
  8
RACCORDO
100
AcDbLine
 62
250
  6
CONTINUOUS
 10
5.2350322096
 20
-26.1432757417
 11
5.223997205
 21
-25.9006190923
  0
LINE
  5
273
100
AcDbEntity
  8
RACCORDO
100
AcDbLine
 62
7
  6
CONTINUOUS
 10
-5.4328585756
 20
-26.1005388103
 11
-5.4312985743
 21
-26.0954029818
  0
LWPOLYLINE
  5
274
100
AcDbEntity
  8
RACCORDO
100
AcDbPolyline
 62
250
  6
CONTINUOUS
 90
16
 70
0
 10
10.9843922303
 20
-10.2863417665
 10
10.9804059091
 20
-10.2809670748
 10
10.9711654778
 20
-10.275649335
 10
10.9567688511
 20
-10.2704448958
 10
10.9373685806
 20
-10.2654089052
 10
10.9131702378
 20
-10.260594726
 10
10.8844302365
 20
-10.2560533711
 10
10.8514531153
 20
-10.251832962
 10
10.8145883106
 20
-10.2479782197
 10
10.7742264543
 20
-10.2445299903
 10
10.7307952338
 20
-10.2415248123
 10
10.6847548609
 20
-10.2389945297
 10
10.6365931945
 20
-10.2369659541
 10
10.5868205718
 20
-10.235460581
 10
10.5359644
 20
-10.2344943618
 10
10.4845635678
 20
-10.2340775349
  0
LWPOLYLINE
  5
275
100
AcDbEntity
  8
RACCORDO
100
AcDbPolyline
 62
250
  6
CONTINUOUS
 90
10
 70
0
 10
-11.0203794396
 20
-25.8205507771
 10
-11.0201131795
 20
-25.8201806337
 10
-11.0198474182
 20
-25.8196047637
 10
-11.0195821555
 20
-25.8188231669
 10
-11.0193173184
 20
-25.8178355767
 10
-11.01905298
 20
-25.8166422597
 10
-11.0187893598
 20
-25.815244016
 10
-11.0185265308
 20
-25.8136411122
 10
-11.0182644199
 20
-25.8118332817
 10
-11.0180030272
 20
-25.8098205244
  0
LWPOLYLINE
  5
276
100
AcDbEntity
  8
RACCORDO
100
AcDbPolyline
 62
250
  6
CONTINUOUS
 90
16
 70
0
 10
-10.9433339257
 20
-25.2044218162
 10
-10.9393316134
 20
-25.1990342099
 10
-10.9300500132
 20
-25.1937039677
 10
-10.9155879501
 20
-25.188487843
 10
-10.8960974507
 20
-25.1834409335
 10
-10.8717871367
 20
-25.1786174566
 10
-10.8429242053
 20
-25.1740699552
 10
-10.8098257096
 20
-25.1698473198
 10
-10.7728420995
 20
-25.1659933337
 10
-10.7323579692
 20
-25.1625477696
 10
-10.6887512201
 20
-25.1595440317
 10
-10.642531571
 20
-25.1570183847
 10
-10.5943498356
 20
-25.1550034108
 10
-10.5447881607
 20
-25.1535168108
 10
-10.4943286886
 20
-25.1525666373
 10
-10.4435052632
 20
-25.1521575846
  0
LWPOLYLINE
  5
277
100
AcDbEntity
  8
0
100
AcDbPolyline
 62
7
  6
CONTINUOUS
 90
3
 70
0
 43
0.3500000006
 10
20.1951366806
 20
0.9285710678
 10
20.4094234314
 20
0.8571421509
 10
20.6951368332
 20
0.7142865829
  0
LWPOLYLINE
  5
278
100
AcDbEntity
  8
RACCORDO
100
AcDbPolyline
 62
250
  6
CONTINUOUS
 90
10
 70
0
 10
11.0180030272
 20
-25.8098205244
 10
11.0182641283
 20
-25.8118314461
 10
11.0185260202
 20
-25.8136380283
 10
11.0187887029
 20
-25.8152402711
 10
11.0190522491
 20
-25.8166386123
 10
11.019316586
 20
-25.8178326141
 10
11.0195814954
 20
-25.8188209628
 10
11.0198469044
 20
-25.8196032206
 10
11.0201128858
 20
-25.8201798254
 10
11.0203794396
 20
-25.8205507771
  0
LINE
  5
279
100
AcDbEntity
  8
RACCORDO
100
AcDbLine
 62
250
  6
CONTINUOUS
 10
10.4435052632
 20
-25.693520226
 11
10.5181743647
 21
-26.2989189342
  0
LINE
  5
27A
100
AcDbEntity
  8
RACCORDO
100
AcDbLine
 62
250
  6
CONTINUOUS
 10
10.9433339257
 20
-25.2044218162
 11
11.0180030272
 21
-25.8098205244
  0
LWPOLYLINE
  5
27B
100
AcDbEntity
  8
RACCORDO
100
AcDbPolyline
 62
250
  6
CONTINUOUS
 90
10
 70
0
 10
10.5181743647
 20
-26.2989189342
 10
10.5184354781
 20
-26.3029386317
 10
10.5186973761
 20
-26.3065522816
 10
10.5189600588
 20
-26.3097584276
 10
10.5192235947
 20
-26.312555427
 10
10.5194879152
 20
-26.3149426285
 10
10.5197528144
 20
-26.3169198111
 10
10.5200182234
 20
-26.3184858739
 10
10.5202842109
 20
-26.3196393998
 10
10.5205507771
 20
-26.3203794396
  0
LINE
  5
27C
100
AcDbEntity
  8
RACCORDO
100
AcDbLine
 62
7
  6
CONTINUOUS
 10
-5.4312985743
 20
-26.0954029818
 11
-5.3320678951
 21
-25.9328753679
  0
LWPOLYLINE
  5
27D
100
AcDbEntity
  8
0
100
AcDbPolyline
 62
7
  6
CONTINUOUS
 90
10
 70
0
 43
0.3500000006
 10
19.9808521957
 20
0.8571421509
 10
20.1237077637
 20
0.9285710678
 10
20.1951366806
 20
0.9285710678
 10
20.3379945145
 20
0.7857132339
 10
20.3379945145
 20
0.7142865829
 10
20.2665655975
 20
0.642857666
 10
20.1951366806
 20
0.642857666
 10
20.0522788467
 20
0.7142865829
 10
19.9808521957
 20
0.7857132339
 10
19.9808521957
 20
0.8571421509
  0
LINE
  5
27E
100
AcDbEntity
  8
RACCORDO
100
AcDbLine
 62
7
  6
CONTINUOUS
 10
11.0528653412
 20
25.8530366787
 11
11.0528653412
 21
-25.8530366787
  0
LINE
  5
27F
100
AcDbEntity
  8
RACCORDO
100
AcDbLine
 62
250
  6
CONTINUOUS
 10
10.5134150626
 20
26.3132437251
 11
10.5131061475
 21
7.7187544808
  0
LINE
  5
280
100
AcDbEntity
  8
RACCORDO
100
AcDbLine
 62
250
  6
CONTINUOUS
 10
11.0132437251
 20
25.8134150626
 11
11.01293481
 21
7.7145018651
  0
LINE
  5
281
100
AcDbEntity
  8
RACCORDO
100
AcDbLine
 62
250
  6
CONTINUOUS
 10
10.5131061475
 20
7.7187544808
 11
10.5104481924
 21
2.7111061977
  0
LINE
  5
282
100
AcDbEntity
  8
RACCORDO
100
AcDbLine
 62
250
  6
CONTINUOUS
 10
11.01293481
 20
7.7145018651
 11
11.0102768549
 21
2.6939222906
  0
LINE
  5
283
100
AcDbEntity
  8
RACCORDO
100
AcDbLine
 62
250
  6
CONTINUOUS
 10
10.5104481924
 20
2.7111061977
 11
10.4999047379
 21
-4.0984209729
  0
LINE
  5
284
100
AcDbEntity
  8
RACCORDO
100
AcDbLine
 62
250
  6
CONTINUOUS
 10
11.0102768549
 20
2.6939222906
 11
10.9997334003
 21
-4.1392137694
  0
LINE
  5
285
100
AcDbEntity
  8
RACCORDO
100
AcDbLine
 62
250
  6
CONTINUOUS
 10
10.4999047379
 20
-4.0984209729
 11
10.4845635678
 21
-10.2340775349
  0
LINE
  5
286
100
AcDbEntity
  8
RACCORDO
100
AcDbLine
 62
250
  6
CONTINUOUS
 10
10.4845635678
 20
-10.2340775349
 11
10.4435052632
 21
-25.693520226
  0
LINE
  5
287
100
AcDbEntity
  8
RACCORDO
100
AcDbLine
 62
250
  6
CONTINUOUS
 10
10.9997334003
 20
-4.1392137694
 11
10.9843922303
 21
-10.2863417665
  0
LINE
  5
288
100
AcDbEntity
  8
RACCORDO
100
AcDbLine
 62
250
  6
CONTINUOUS
 10
10.9843922303
 20
-10.2863417665
 11
10.9433339257
 21
-25.2044218162
  0
LINE
  5
289
100
AcDbEntity
  8
RACCORDO
100
AcDbLine
 62
250
  6
CONTINUOUS
 10
-11.0528653412
 20
-25.8530366787
 11
-11.0203794396
 21
-25.8205507771
  0
LINE
  5
28A
100
AcDbEntity
  8
RACCORDO
100
AcDbLine
 62
250
  6
CONTINUOUS
 10
-10.5530366787
 20
-26.3528653412
 11
-10.5205507771
 21
-26.3203794396
  0
LINE
  5
28B
100
AcDbEntity
  8
RACCORDO
100
AcDbLine
 62
250
  6
CONTINUOUS
 10
11.0132437251
 20
10.7371426949
 11
-11.0132437251
 21
10.7371426949
  0
LINE
  5
28C
100
AcDbEntity
  8
RACCORDO
100
AcDbLine
 62
250
  6
CONTINUOUS
 10
-11.0132437251
 20
25.8134150626
 11
-11.0528653412
 21
25.8530366787
  0
LINE
  5
28D
100
AcDbEntity
  8
RACCORDO
100
AcDbLine
 62
250
  6
CONTINUOUS
 10
-10.5134150626
 20
26.3132437251
 11
-10.5530366787
 21
26.3528653412
  0
LWPOLYLINE
  5
28E
100
AcDbEntity
  8
RACCORDO
100
AcDbPolyline
 62
250
  6
CONTINUOUS
 90
16
 70
0
 10
11.0132437251
 20
25.8134150626
 10
11.01045539
 20
25.8657975315
 10
11.0021929183
 20
25.9176029172
 10
10.9885473613
 20
25.9682606712
 10
10.9696665657
 20
26.0172184586
 10
10.9457598445
 20
26.0639310247
 10
10.9171013786
 20
26.1078690436
 10
10.8840193212
 20
26.1485433419
 10
10.8468760531
 20
26.1855204357
 10
10.8060702069
 20
26.2184079346
 10
10.761986418
 20
26.2468816807
 10
10.7151656414
 20
26.2705791398
 10
10.6663188279
 20
26.2891770144
 10
10.6160695894
 20
26.3025182528
 10
10.5649154114
 20
26.3105481619
 10
10.5134150624
 20
26.3132437249
  0
LWPOLYLINE
  5
28F
100
AcDbEntity
  8
RACCORDO
100
AcDbPolyline
 62
250
  6
CONTINUOUS
 90
16
 70
0
 10
11.0203794396
 20
-25.8205507771
 10
11.0176079267
 20
-25.8727744031
 10
11.0093952977
 20
-25.9244263548
 10
10.9958314533
 20
-25.9749412157
 10
10.9770648724
 20
-26.0237660168
 10
10.9533009864
 20
-26.0703662895
 10
10.9247999305
 20
-26.1142319165
 10
10.8918736961
 20
-26.1548827155
 10
10.8548827155
 20
-26.1918736961
 10
10.8142319165
 20
-26.2247999305
 10
10.7703662895
 20
-26.2533009864
 10
10.7237660168
 20
-26.2770648724
 10
10.6749412157
 20
-26.2958314533
 10
10.6244263548
 20
-26.3093952977
 10
10.5727744031
 20
-26.3176079267
 10
10.5205507771
 20
-26.3203794396
  0
LWPOLYLINE
  5
290
100
AcDbEntity
  8
RACCORDO
100
AcDbPolyline
 62
250
  6
CONTINUOUS
 90
16
 70
0
 10
11.0180030272
 20
-25.8098205244
 10
11.0150007609
 20
-25.8607696639
 10
11.0065927434
 20
-25.9111644516
 10
10.9928704578
 20
-25.9604565636
 10
10.9739832091
 20
-26.0081096736
 10
10.9501365002
 20
-26.0536052883
 10
10.9215897961
 20
-26.0964483891
 10
10.8886537001
 20
-26.1361728181
 10
10.8516865751
 20
-26.1723463501
 10
10.8110906441
 20
-26.2045753954
 10
10.7673076135
 20
-26.2325092829
 10
10.7208138675
 20
-26.255844075
 10
10.6721152852
 20
-26.2743258748
 10
10.6217417351
 20
-26.287753589
 10
10.5702413102
 20
-26.2959811157
 10
10.5181743647
 20
-26.2989189342
  0
LWPOLYLINE
  5
291
100
AcDbEntity
  8
RACCORDO
100
AcDbPolyline
 62
250
  6
CONTINUOUS
 90
16
 70
0
 10
10.9433339257
 20
-25.2044218162
 10
10.9403175415
 20
-25.2554961999
 10
10.931868878
 20
-25.3060121244
 10
10.9180803147
 20
-25.3554172351
 10
10.8991006016
 20
-25.4031757077
 10
10.875138351
 20
-25.4487605458
 10
10.8464643264
 20
-25.4916615662
 10
10.8134024313
 20
-25.5314051079
 10
10.7763122712
 20
-25.5675683813
 10
10.7355897486
 20
-25.5997684925
 10
10.6916254495
 20
-25.6276843587
 10
10.6449465439
 20
-25.6509698906
 10
10.5962265146
 20
-25.6693183126
 10
10.5460695682
 20
-25.6825670499
 10
10.4949774808
 20
-25.6906461718
 10
10.4435052632
 20
-25.693520226
  0
LWPOLYLINE
  5
292
100
AcDbEntity
  8
0
100
AcDbPolyline
 62
7
  6
CONTINUOUS
 90
10
 70
0
 43
0.3500000006
 10
1.2857142735
 20
37.7808505096
 10
1.3571429071
 20
37.6379926758
 10
1.3571429071
 20
37.5665660248
 10
1.2142857814
 20
37.4237081909
 10
1.1428571477
 20
37.4237081909
 10
1.0714285848
 20
37.4951348419
 10
1.0714285848
 20
37.5665660248
 10
1.1428571477
 20
37.7094238586
 10
1.2142857814
 20
37.7808505096
 10
1.2857142735
 20
37.7808505096
  0
LWPOLYLINE
  5
293
100
AcDbEntity
  8
0
100
AcDbPolyline
 62
7
  6
CONTINUOUS
 90
7
 70
0
 43
0.3500000006
 10
20.4808500824
 20
-0.642856041
 10
20.4808500824
 20
-2.1428576317
 10
18.3379939041
 20
-0.642856041
 10
17.9094226685
 20
-0.642856041
 10
17.4808514328
 20
-1.0714295425
 10
17.4808514328
 20
-1.7142852631
 10
18.1237082863
 20
-2.1428576317
  0
LWPOLYLINE
  5
294
100
AcDbEntity
  8
0
100
AcDbPolyline
 62
7
  6
CONTINUOUS
 90
8
 70
0
 43
0.3500000006
 10
20.4808500824
 20
-4.28571381
 10
20.4808500824
 20
-3.4285713387
 10
20.0522788467
 20
-3.000000103
 10
19.1951363754
 20
-3.000000103
 10
18.7665651398
 20
-3.4285713387
 10
18.7665651398
 20
-4.28571381
 10
17.4808514328
 20
-4.28571381
 10
17.4808514328
 20
-3.000000103
  0
LINE
  5
295
100
AcDbEntity
  8
RACCORDO
100
AcDbLine
 62
250
  6
CONTINUOUS
 10
11.0132437251
 20
25.8134150626
 11
-11.0132437251
 21
25.8134150626
  0
LINE
  5
296
100
AcDbEntity
  8
RACCORDO
100
AcDbLine
 62
250
  6
CONTINUOUS
 10
10.5134150626
 20
26.3132437251
 11
-10.5134150626
 21
26.3132437251
  0
LINE
  5
297
100
AcDbEntity
  8
RACCORDO
100
AcDbLine
 62
7
  6
CONTINUOUS
 10
-10.5530366787
 20
26.3528653412
 11
10.5530366787
 21
26.3528653412
  0
LWPOLYLINE
  5
298
100
AcDbEntity
  8
0
100
AcDbPolyline
 62
7
  6
CONTINUOUS
 90
7
 70
0
 43
0.3500000006
 10
-0.2142857063
 20
37.2808503571
 10
-1.7142856507
 20
37.2808503571
 10
-0.2142857063
 20
39.4237088013
 10
-0.2142857063
 20
39.852277771
 10
-0.6428571367
 20
40.2808512726
 10
-1.2857142735
 20
40.2808512726
 10
-1.7142856507
 20
39.6379932861
  0
LWPOLYLINE
  5
299
100
AcDbEntity
  8
0
100
AcDbPolyline
 62
7
  6
CONTINUOUS
 90
7
 70
0
 43
0.3500000006
 10
-2.5714285469
 20
37.2808503571
 10
-4.0714284382
 20
37.2808503571
 10
-2.5714285469
 20
39.4237088013
 10
-2.5714285469
 20
39.852277771
 10
-3.0000000658
 20
40.2808512726
 10
-3.6428572025
 20
40.2808512726
 10
-4.0714284382
 20
39.6379932861
  0
LWPOLYLINE
  5
29A
100
AcDbEntity
  8
0
100
AcDbPolyline
 62
7
  6
CONTINUOUS
 90
3
 70
0
 43
0.3500000006
 10
-44.3366354828
 20
37.5665660248
 10
-44.4080621338
 20
37.3522815399
 10
-44.5509199677
 20
37.0665658722
  0
LINE
  5
29B
100
AcDbEntity
  8
RACCORDO
100
AcDbLine
 62
7
  6
CONTINUOUS
 10
-32.4195580279
 20
-26.3203794396
 11
-31.1789714962
 21
-26.3528653412
  0
LINE
  5
29C
100
AcDbEntity
  8
RACCORDO
100
AcDbLine
 62
250
  6
CONTINUOUS
 10
-32.4195580279
 20
-25.8205507771
 11
-31.1789714962
 21
-25.8530366787
  0
LINE
  5
29D
100
AcDbEntity
  8
RACCORDO
100
AcDbLine
 62
250
  6
CONTINUOUS
 10
-35.361807499
 20
-25.2044218162
 11
-35.7821356246
 21
-25.1595428203
  0
LWPOLYLINE
  5
29E
100
AcDbEntity
  8
RACCORDO
100
AcDbPolyline
 62
250
  6
CONTINUOUS
 90
5
 70
0
 10
-35.7821356246
 20
-25.1595428203
 10
-35.8228594376
 20
-25.1550027631
 10
-35.8357028829
 20
-25.1535164674
 10
-35.8434197686
 20
-25.1525665296
 10
-35.8459799725
 20
-25.1521575846
  0
LWPOLYLINE
  5
29F
100
AcDbEntity
  8
RACCORDO
100
AcDbPolyline
 62
250
  6
CONTINUOUS
 90
10
 70
0
 10
-32.5103095533
 20
-25.8098205244
 10
-32.5003385038
 20
-25.8118314461
 10
-32.4903372563
 20
-25.8136380283
 10
-32.4803058108
 20
-25.8152402711
 10
-32.4702413876
 20
-25.8166386123
 10
-32.4601467664
 20
-25.8178326141
 10
-32.450030286
 20
-25.8188209628
 10
-32.4398947259
 20
-25.8196032206
 10
-32.4297373065
 20
-25.8201798254
 10
-32.4195580279
 20
-25.8205507771
  0
LINE
  5
2A0
100
AcDbEntity
  8
RACCORDO
100
AcDbLine
 62
7
  6
CONTINUOUS
 10
-35.4525590244
 20
-25.693520226
 11
-32.6010610788
 21
-26.2989189342
  0
LINE
  5
2A1
100
AcDbEntity
  8
RACCORDO
100
AcDbLine
 62
250
  6
CONTINUOUS
 10
-35.361807499
 20
-25.2044218162
 11
-32.5103095533
 21
-25.8098205244
  0
LWPOLYLINE
  5
2A2
100
AcDbEntity
  8
0
100
AcDbPolyline
 62
7
  6
CONTINUOUS
 90
2
 70
0
 43
0.3500000006
 10
-46.4080627441
 20
37.2808503571
 10
-46.4080627441
 20
38.7808508148
  0
LWPOLYLINE
  5
2A3
100
AcDbEntity
  8
RACCORDO
100
AcDbPolyline
 62
7
  6
CONTINUOUS
 90
10
 70
0
 10
-29.6276625158
 20
20.4406379675
 10
-29.6012253341
 20
20.4604856831
 10
-29.5758756622
 20
20.4776308998
 10
-29.5523619646
 20
20.4922682596
 10
-29.5314368984
 20
20.504587965
 10
-29.5135336507
 20
20.5149936793
 10
-29.4989035377
 20
20.5240049394
 10
-29.4879885124
 20
20.5320064146
 10
-29.4812545928
 20
20.5393243154
 10
-29.4789714962
 20
20.54638706
  0
LINE
  5
2A4
100
AcDbEntity
  8
RACCORDO
100
AcDbLine
 62
250
  6
CONTINUOUS
 10
-29.8494597624
 20
21.4184470327
 11
-29.8768890778
 21
21.3909122847
  0
LINE
  5
2A5
100
AcDbEntity
  8
RACCORDO
100
AcDbLine
 62
250
  6
CONTINUOUS
 10
-29.6380172117
 20
21.2032804361
 11
-29.6654471808
 21
21.1757450649
  0
LINE
  5
2A6
100
AcDbEntity
  8
RACCORDO
100
AcDbLine
 62
250
  6
CONTINUOUS
 10
-29.8768890778
 20
21.3909122847
 11
-29.9637719002
 21
21.3047213878
  0
LINE
  5
2A7
100
AcDbEntity
  8
RACCORDO
100
AcDbLine
 62
250
  6
CONTINUOUS
 10
-29.6654471808
 20
21.1757450649
 11
-29.752330301
 21
21.0895538651
  0
LINE
  5
2A8
100
AcDbEntity
  8
RACCORDO
100
AcDbLine
 62
250
  6
CONTINUOUS
 10
-29.9637719002
 20
21.3047213878
 11
-30.0451465702
 21
21.2245543143
  0
LINE
  5
2A9
100
AcDbEntity
  8
RACCORDO
100
AcDbLine
 62
250
  6
CONTINUOUS
 10
-29.752330301
 20
21.0895538651
 11
-29.8337034457
 21
21.0093882276
  0
LINE
  5
2AA
100
AcDbEntity
  8
DRAFT
100
AcDbLine
 62
7
  6
CONTINUOUS
 10
-31.1789714962
 20
-15.05
 11
-29.9789714962
 21
-14.7729581706
  0
LWPOLYLINE
  5
2AB
100
AcDbEntity
  8
RACCORDO
100
AcDbPolyline
 62
250
  6
CONTINUOUS
 90
13
 70
0
 10
-28.5393550345
 20
-14.6190634835
 10
-28.5262302156
 20
-14.6167260345
 10
-28.5135193172
 20
-14.6120652722
 10
-28.5014230952
 20
-14.6051548748
 10
-28.4901326381
 20
-14.5961040964
 10
-28.4798261895
 20
-14.5850559164
 10
-28.4706663822
 20
-14.5721846897
 10
-28.4627978874
 20
-14.5576936409
 10
-28.4563450305
 20
-14.5418116578
 10
-28.4514097291
 20
-14.5247894662
 10
-28.4480699827
 20
-14.5068958619
 10
-28.4463786088
 20
-14.48841349
 10
-28.4463623787
 20
-11.8890723196
  0
LWPOLYLINE
  5
2AC
100
AcDbEntity
  8
RACCORDO
100
AcDbPolyline
 62
250
  6
CONTINUOUS
 90
16
 70
0
 10
-28.242400969
 20
-14.4517899677
 10
-28.2102503221
 20
-14.4470967909
 10
-28.1796747201
 20
-14.4401949623
 10
-28.1506741632
 20
-14.4310844819
 10
-28.1232004223
 20
-14.4195685819
 10
-28.0973017264
 20
-14.40584403
 10
-28.073122762
 20
-14.3905011302
 10
-28.0506894128
 20
-14.3735884203
 10
-28.0299757952
 20
-14.3550573626
 10
-28.0110489447
 20
-14.335352647
 10
-27.993976745
 20
-14.3147392673
 10
-27.9786913124
 20
-14.2929522299
 10
-27.9650560307
 20
-14.2696412432
 10
-27.952829761
 20
-14.2444654689
 10
-27.9422536422
 20
-14.2177657453
 10
-27.9339144745
 20
-14.1902142966
  0
LINE
  5
2AD
100
AcDbEntity
  8
RACCORDO
100
AcDbLine
 62
7
  6
CONTINUOUS
 10
-28.3353936248
 20
-14.6012191724
 11
-28.9986452568
 21
-14.6592461713
  0
LINE
  5
2AE
100
AcDbEntity
  8
DRAFT
100
AcDbLine
 62
7
  6
CONTINUOUS
 10
-28.9986452568
 20
-14.6592461713
 11
-31.1789714962
 21
-14.85
  0
LINE
  5
2AF
100
AcDbEntity
  8
RACCORDO
100
AcDbLine
 62
250
  6
CONTINUOUS
 10
-28.4463623787
 20
-14.4696342788
 11
-28.242400969
 21
-14.4517899677
  0
LINE
  5
2B0
100
AcDbEntity
  8
RACCORDO
100
AcDbLine
 62
250
  6
CONTINUOUS
 10
-28.6832349215
 20
-14.4810783669
 11
-28.5524283959
 21
-14.4696342788
  0
LINE
  5
2B1
100
AcDbEntity
  8
RACCORDO
100
AcDbLine
 62
250
  6
CONTINUOUS
 10
-28.5524283959
 20
-14.4696342788
 11
-28.4463623787
 21
-14.4696342788
  0
LWPOLYLINE
  5
2B2
100
AcDbEntity
  8
0
100
AcDbPolyline
 62
7
  6
CONTINUOUS
 90
4
 70
0
 43
0.3500000006
 10
-43.3366351776
 20
39.6379932861
 10
-43.3366351776
 20
40.2808512726
 10
-41.8366347198
 20
40.2808512726
 10
-42.6937771912
 20
37.2808503571
  0
LWPOLYLINE
  5
2B3
100
AcDbEntity
  8
RACCORDO
100
AcDbPolyline
 62
250
  6
CONTINUOUS
 90
4
 70
0
 10
-29.8337893961
 20
21.4348270936
 10
-29.8354383088
 20
21.4328722283
 10
-29.8406914887
 20
21.4273811373
 10
-29.8494597624
 20
21.4184470327
  0
LWPOLYLINE
  5
2B4
100
AcDbEntity
  8
RACCORDO
100
AcDbPolyline
 62
250
  6
CONTINUOUS
 90
4
 70
0
 10
-29.6223462716
 20
21.2196610069
 10
-29.6239952688
 20
21.21770608
 10
-29.6292486535
 20
21.2122148058
 10
-29.6380172117
 20
21.2032804361
  0
LINE
  5
2B5
100
AcDbEntity
  8
RACCORDO
100
AcDbLine
 62
250
  6
CONTINUOUS
 10
-27.922905479
 20
-14.1031218234
 11
-27.8789714962
 21
-14.1031218234
  0
LINE
  5
2B6
100
AcDbEntity
  8
RACCORDO
100
AcDbLine
 62
7
  6
CONTINUOUS
 10
-27.8789714962
 20
-11.9387125896
 11
-28.7359884868
 21
-11.8637333185
  0
LINE
  5
2B7
100
AcDbEntity
  8
DRAFT
100
AcDbLine
 62
7
  6
CONTINUOUS
 10
-28.7359884868
 20
-11.8637333185
 11
-31.1789714962
 21
-11.65
  0
LINE
  5
2B8
100
AcDbEntity
  8
RACCORDO
100
AcDbLine
 62
250
  6
CONTINUOUS
 10
-33.8952394394
 20
-10.275649335
 11
-34.2136182688
 21
-10.2415248123
  0
LWPOLYLINE
  5
2B9
100
AcDbEntity
  8
RACCORDO
100
AcDbPolyline
 62
250
  6
CONTINUOUS
 90
5
 70
0
 10
-34.2136182688
 20
-10.2415248123
 10
-34.2545261405
 20
-10.2369659541
 10
-34.267545467
 20
-10.235460581
 10
-34.2754067127
 20
-10.2344943618
 10
-34.2780265773
 20
-10.2340775349
  0
LINE
  5
2BA
100
AcDbEntity
  8
DRAFT
100
AcDbLine
 62
7
  6
CONTINUOUS
 10
-31.1789714962
 20
-11.45
 11
-29.9789714962
 21
-11.7270418294
  0
LINE
  5
2BB
100
AcDbEntity
  8
RACCORDO
100
AcDbLine
 62
250
  6
CONTINUOUS
 10
-33.7938541037
 20
-10.2863417665
 11
-33.8952394394
 21
-10.275649335
  0
LWPOLYLINE
  5
2BC
100
AcDbEntity
  8
0
100
AcDbPolyline
 62
7
  6
CONTINUOUS
 90
3
 70
0
 10
-30.9039297039
 20
5.9329629113
 10
-31.0657763993
 20
5.8495147643
 10
-31.1789714962
 20
5.7904224481
  0
LWPOLYLINE
  5
2BD
100
AcDbEntity
  8
0
100
AcDbPolyline
 62
7
  6
CONTINUOUS
 90
8
 70
0
 10
-30.1894593741
 20
-5.6315522393
 10
-30.1834854117
 20
-5.6303603439
 10
-30.1776062173
 20
-5.6285441678
 10
-30.1719058376
 20
-5.6261037111
 10
-30.1664602867
 20
-5.6229803749
 10
-30.1613529471
 20
-5.619232758
 10
-30.156669763
 20
-5.6150366569
 10
-30.1524976452
 20
-5.6104088952
  0
LWPOLYLINE
  5
2BE
100
AcDbEntity
  8
0
100
AcDbPolyline
 62
7
  6
CONTINUOUS
 90
7
 70
0
 10
-30.1894593741
 20
-5.6315522392
 10
-30.190461083
 20
-5.6316724914
 10
-30.1914685914
 20
-5.631772674
 10
-30.1924818993
 20
-5.6318527869
 10
-30.1935010067
 20
-5.6319128301
 10
-30.1945259137
 20
-5.6319528036
 10
-30.1955566201
 20
-5.6319727075
  0
LWPOLYLINE
  5
2BF
100
AcDbEntity
  8
0
100
AcDbPolyline
 62
7
  6
CONTINUOUS
 90
7
 70
0
 10
-30.5441271142
 20
-5.6350146361
 10
-30.5413439702
 20
-5.6349166384
 10
-30.5385739944
 20
-5.6346664999
 10
-30.5358171866
 20
-5.6342642205
 10
-30.533073547
 20
-5.6337098003
 10
-30.5303430754
 20
-5.6330032392
 10
-30.527625772
 20
-5.6321445373
  0
LINE
  5
2C0
100
AcDbEntity
  8
0
100
AcDbLine
 62
7
  6
CONTINUOUS
 10
-30.1955566201
 20
-5.6319727075
 11
-30.6239714962
 21
-5.6357114275
  0
LINE
  5
2C1
100
AcDbEntity
  8
0
100
AcDbLine
 62
250
  6
CONTINUOUS
 10
-30.1402584453
 20
-5.5819214015
 11
-30.493970291
 21
-5.5850061643
  0
LINE
  5
2C2
100
AcDbEntity
  8
0
100
AcDbLine
 62
250
  6
CONTINUOUS
 10
-30.1894588812
 20
-6.1196643796
 11
-30.1402584416
 21
-6.1196643879
  0
LINE
  5
2C3
100
AcDbEntity
  8
0
100
AcDbLine
 62
7
  6
CONTINUOUS
 10
-30.6239714962
 20
-5.6357114275
 11
-31.1789714962
 21
-5.578159179
  0
LINE
  5
2C4
100
AcDbEntity
  8
0
100
AcDbLine
 62
7
  6
CONTINUOUS
 10
-30.527625772
 20
-5.6321445373
 11
-31.1789714962
 21
-5.5646014545
  0
LINE
  5
2C5
100
AcDbEntity
  8
0
100
AcDbLine
 62
250
  6
CONTINUOUS
 10
-30.1894584024
 20
-6.1196644211
 11
-30.1551237427
 21
-6.1359687878
  0
LWPOLYLINE
  5
2C6
100
AcDbEntity
  8
0
100
AcDbPolyline
 62
250
  6
CONTINUOUS
 90
4
 70
0
 10
-30.1551237427
 20
-6.1359687878
 10
-30.1473635251
 20
-6.1396989026
 10
-30.1453568661
 20
-6.1406820034
 10
-30.1446906926
 20
-6.1410325066
  0
LWPOLYLINE
  5
2C7
100
AcDbEntity
  8
RACCORDO
100
AcDbPolyline
 62
250
  6
CONTINUOUS
 90
5
 70
0
 10
-30.0025338839
 20
23.21211859
 10
-30.0007267974
 20
23.223527437
 10
-29.9994787919
 20
23.2318302053
 10
-29.99881118
 20
23.236885106
 10
-29.9987353629
 20
23.2386058148
  0
LINE
  5
2C8
100
AcDbEntity
  8
RACCORDO
100
AcDbLine
 62
250
  6
CONTINUOUS
 10
-30.0076928386
 20
23.1808117075
 11
-30.0025338839
 21
23.21211859
  0
LINE
  5
2C9
100
AcDbEntity
  8
RACCORDO
100
AcDbLine
 62
250
  6
CONTINUOUS
 10
-30.0185749882
 20
23.1169493301
 11
-30.0076928386
 21
23.1808117075
  0
LINE
  5
2CA
100
AcDbEntity
  8
RACCORDO
100
AcDbLine
 62
250
  6
CONTINUOUS
 10
-30.0317196913
 20
23.0416442642
 11
-30.0185749882
 21
23.1169493301
  0
LINE
  5
2CB
100
AcDbEntity
  8
DRAFT
100
AcDbLine
 62
7
  6
CONTINUOUS
 10
-30.2713513708
 20
5.77
 11
-29.8973610822
 21
5.9809392305
  0
LINE
  5
2CC
100
AcDbEntity
  8
0
100
AcDbLine
 62
250
  6
CONTINUOUS
 10
-30.9935007248
 20
4.4660090851
 11
-31.1789714962
 21
4.3703208792
  0
LINE
  5
2CD
100
AcDbEntity
  8
0
100
AcDbLine
 62
250
  6
CONTINUOUS
 10
-31.0219740337
 20
4.5531128244
 11
-31.1789714962
 21
4.4722738202
  0
LINE
  5
2CE
100
AcDbEntity
  8
0
100
AcDbLine
 62
250
  6
CONTINUOUS
 10
-30.8700230653
 20
4.5289508524
 11
-30.9935007248
 21
4.4660090851
  0
LINE
  5
2CF
100
AcDbEntity
  8
0
100
AcDbLine
 62
250
  6
CONTINUOUS
 10
-30.8917024532
 20
4.6193396114
 11
-31.0219740337
 21
4.5531128244
  0
LINE
  5
2D0
100
AcDbEntity
  8
0
100
AcDbLine
 62
250
  6
CONTINUOUS
 10
-30.7870082969
 20
4.5706838213
 11
-30.8700230653
 21
4.5289508524
  0
LINE
  5
2D1
100
AcDbEntity
  8
0
100
AcDbLine
 62
250
  6
CONTINUOUS
 10
-30.8037984902
 20
4.6633092267
 11
-30.8917024532
 21
4.6193396114
  0
LINE
  5
2D2
100
AcDbEntity
  8
0
100
AcDbLine
 62
250
  6
CONTINUOUS
 10
-30.7034668535
 20
4.611998383
 11
-30.7870082969
 21
4.5706838213
  0
LWPOLYLINE
  5
2D3
100
AcDbEntity
  8
0
100
AcDbPolyline
 62
250
  6
CONTINUOUS
 90
4
 70
0
 10
-30.5627235707
 20
3.679744841
 10
-30.651067991
 20
3.6360680067
 10
-30.6946996113
 20
3.6148451529
 10
-30.7376708152
 20
3.5942249699
  0
LINE
  5
2D4
100
AcDbEntity
  8
0
100
AcDbLine
 62
250
  6
CONTINUOUS
 10
-30.7152806255
 20
4.7068041468
 11
-30.8037984902
 21
4.6633092267
  0
LINE
  5
2D5
100
AcDbEntity
  8
0
100
AcDbLine
 62
250
  6
CONTINUOUS
 10
-30.619555047
 20
4.6527428705
 11
-30.7034668535
 21
4.611998383
  0
LINE
  5
2D6
100
AcDbEntity
  8
0
100
AcDbLine
 62
7
  6
CONTINUOUS
 10
-31.1789714962
 20
3.4954877707
 11
-31.1151648129
 21
3.5262463243
  0
LINE
  5
2D7
100
AcDbEntity
  8
0
100
AcDbLine
 62
250
  6
CONTINUOUS
 10
-30.6264310977
 20
4.7495582239
 11
-30.7152806255
 21
4.7068041468
  0
LWPOLYLINE
  5
2D8
100
AcDbEntity
  8
0
100
AcDbPolyline
 62
250
  6
CONTINUOUS
 90
3
 70
0
 10
-31.049815348
 20
3.4471315331
 10
-31.0968218035
 20
3.4246478355
 10
-31.1789714962
 20
3.3846605708
  0
LINE
  5
2D9
100
AcDbEntity
  8
0
100
AcDbLine
 62
7
  6
CONTINUOUS
 10
-31.0428630013
 20
3.5605534376
 11
-31.1446289698
 21
3.5121241975
  0
LWPOLYLINE
  5
2DA
100
AcDbEntity
  8
0
100
AcDbPolyline
 62
250
  6
CONTINUOUS
 90
3
 70
0
 10
-30.7376708152
 20
3.5942249699
 10
-30.8673721738
 20
3.5329808557
 10
-31.049815348
 20
3.4471315331
  0
LINE
  5
2DB
100
AcDbEntity
  8
0
100
AcDbLine
 62
7
  6
CONTINUOUS
 10
-30.9439719694
 20
3.6070216284
 11
-31.0729336819
 21
3.546335556
  0
LWPOLYLINE
  5
2DC
100
AcDbEntity
  8
0
100
AcDbPolyline
 62
250
  6
CONTINUOUS
 90
3
 70
0
 10
-30.4939714962
 20
4.7122281172
 10
-30.5358130148
 20
4.6926061025
 10
-30.619555047
 20
4.6527428705
  0
LWPOLYLINE
  5
2DD
100
AcDbEntity
  8
0
100
AcDbPolyline
 62
250
  6
CONTINUOUS
 90
3
 70
0
 10
-30.4939714705
 20
4.8117155624
 10
-30.5380433666
 20
4.7912354098
 10
-30.6264310977
 20
4.7495582239
  0
LINE
  5
2DE
100
AcDbEntity
  8
0
100
AcDbLine
 62
250
  6
CONTINUOUS
 10
-31.1762947731
 20
3.994780834
 11
-31.1789714962
 21
3.9935903366
  0
LWPOLYLINE
  5
2DF
100
AcDbEntity
  8
0
100
AcDbPolyline
 62
250
  6
CONTINUOUS
 90
4
 70
0
 10
-30.5575583862
 20
4.2615331461
 10
-30.6447983711
 20
4.2225723926
 10
-30.6877509223
 20
4.2037100004
 10
-30.7299615154
 20
4.1854302654
  0
LINE
  5
2E0
100
AcDbEntity
  8
0
100
AcDbLine
 62
250
  6
CONTINUOUS
 10
-31.0823458392
 20
4.0357597429
 11
-31.1762947731
 21
3.994780834
  0
LINE
  5
2E1
100
AcDbEntity
  8
0
100
AcDbLine
 62
7
  6
CONTINUOUS
 10
-31.1789714962
 20
4.102382919
 11
-31.1073933461
 21
4.1333938753
  0
LINE
  5
2E2
100
AcDbEntity
  8
0
100
AcDbLine
 62
7
  6
CONTINUOUS
 10
-31.1386809725
 20
4.1199178636
 11
-31.0260579005
 21
4.168060012
  0
LINE
  5
2E3
100
AcDbEntity
  8
0
100
AcDbLine
 62
250
  6
CONTINUOUS
 10
-30.9895125236
 20
4.075369129
 11
-31.0823458392
 21
4.0357597429
  0
LWPOLYLINE
  5
2E4
100
AcDbEntity
  8
0
100
AcDbPolyline
 62
250
  6
CONTINUOUS
 90
3
 70
0
 10
-30.7299615154
 20
4.1854302654
 10
-30.8567457815
 20
4.1314638886
 10
-30.9895125236
 20
4.075369129
  0
LINE
  5
2E5
100
AcDbEntity
  8
0
100
AcDbLine
 62
7
  6
CONTINUOUS
 10
-30.9439715813
 20
4.2027484866
 11
-31.0399629675
 21
4.1621624884
  0
LINE
  5
2E6
100
AcDbEntity
  8
0
100
AcDbLine
 62
250
  6
CONTINUOUS
 10
-30.5923255561
 20
4.9103588619
 11
-30.6680159523
 21
4.8794965848
  0
LINE
  5
2E7
100
AcDbEntity
  8
0
100
AcDbLine
 62
7
  6
CONTINUOUS
 10
-30.669348931
 20
4.8881300972
 11
-30.7716182293
 21
4.8476050777
  0
LINE
  5
2E8
100
AcDbEntity
  8
0
100
AcDbLine
 62
250
  6
CONTINUOUS
 10
-30.6680159523
 20
4.8794965848
 11
-30.7443556931
 21
4.8491071948
  0
LINE
  5
2E9
100
AcDbEntity
  8
0
100
AcDbLine
 62
7
  6
CONTINUOUS
 10
-31.0953501192
 20
4.7227179156
 11
-31.1789714962
 21
4.6897210408
  0
LINE
  5
2EA
100
AcDbEntity
  8
0
100
AcDbLine
 62
250
  6
CONTINUOUS
 10
-31.0895341279
 20
4.7160206661
 11
-31.1789714962
 21
4.6809890852
  0
LWPOLYLINE
  5
2EB
100
AcDbEntity
  8
0
100
AcDbPolyline
 62
7
  6
CONTINUOUS
 90
10
 70
0
 10
-30.6693489343
 20
4.8881301056
 10
-30.6619714608
 20
4.891002861
 10
-30.6543136893
 20
4.893790211
 10
-30.6463683876
 20
4.8964870867
 10
-30.6381242398
 20
4.8990930118
 10
-30.6295786777
 20
4.9016007018
 10
-30.6207350182
 20
4.903990814
 10
-30.6115866858
 20
4.9062497123
 10
-30.6021202029
 20
4.9083748774
 10
-30.5923260351
 20
4.9103598558
  0
LINE
  5
2EC
100
AcDbEntity
  8
0
100
AcDbLine
 62
250
  6
CONTINUOUS
 10
-30.7443556931
 20
4.8491071948
 11
-30.8223899157
 21
4.8186899073
  0
LINE
  5
2ED
100
AcDbEntity
  8
0
100
AcDbLine
 62
7
  6
CONTINUOUS
 10
-30.7716182293
 20
4.8476050777
 11
-31.0953501192
 21
4.7227179156
  0
LINE
  5
2EE
100
AcDbEntity
  8
0
100
AcDbLine
 62
250
  6
CONTINUOUS
 10
-30.8223899157
 20
4.8186899073
 11
-31.0895341279
 21
4.7160206661
  0
LINE
  5
2EF
100
AcDbEntity
  8
RACCORDO
100
AcDbLine
 62
250
  6
CONTINUOUS
 10
-32.6920599703
 20
25.8134150626
 11
-32.6944988497
 21
25.9176029172
  0
LINE
  5
2F0
100
AcDbEntity
  8
RACCORDO
100
AcDbLine
 62
250
  6
CONTINUOUS
 10
-32.6944988497
 20
25.9176029172
 11
-32.696255642
 21
26.0172184586
  0
LWPOLYLINE
  5
2F1
100
AcDbEntity
  8
RACCORDO
100
AcDbPolyline
 62
250
  6
CONTINUOUS
 90
11
 70
0
 10
-32.696255642
 20
26.0172184586
 10
-32.6972529432
 20
26.1078690436
 10
-32.6974517531
 20
26.1485433419
 10
-32.6974474016
 20
26.1855204357
 10
-32.6972400524
 20
26.2184079346
 10
-32.6968312888
 20
26.2468816807
 10
-32.6962257832
 20
26.2705791398
 10
-32.6954336873
 20
26.2891770144
 10
-32.6944672188
 20
26.3025182528
 10
-32.6933379723
 20
26.3105481619
 10
-32.6920599769
 20
26.3132437249
  0
LWPOLYLINE
  5
2F2
100
AcDbEntity
  8
0
100
AcDbPolyline
 62
7
  6
CONTINUOUS
 90
4
 70
0
 43
0.3500000006
 10
-33.042416954
 20
47.8656990509
 10
-33.042416954
 20
48.7228415222
 10
-32.6138457184
 20
49.1514104919
 10
-31.9709877319
 20
49.1514104919
  0
LWPOLYLINE
  5
2F3
100
AcDbEntity
  8
RACCORDO
100
AcDbPolyline
 62
250
  6
CONTINUOUS
 90
9
 70
0
 10
-32.4249477765
 20
-26.1548827155
 10
-32.4249477765
 20
-26.1918736961
 10
-32.4247455017
 20
-26.2247999305
 10
-32.4243431662
 20
-26.2533009864
 10
-32.4237451744
 20
-26.2770648724
 10
-32.4229580722
 20
-26.2958314533
 10
-32.4219904758
 20
-26.3093952977
 10
-32.4208529771
 20
-26.3176079267
 10
-32.4195580279
 20
-26.3203794396
  0
LINE
  5
2F4
100
AcDbEntity
  8
RACCORDO
100
AcDbLine
 62
7
  6
CONTINUOUS
 10
-33.1789714962
 20
25.8134150626
 11
-33.1802389622
 21
9.6945220854
  0
LINE
  5
2F5
100
AcDbEntity
  8
RACCORDO
100
AcDbLine
 62
250
  6
CONTINUOUS
 10
-32.6920599703
 20
25.8134150626
 11
-32.6933071008
 21
9.6932827069
  0
LINE
  5
2F6
100
AcDbEntity
  8
RACCORDO
100
AcDbLine
 62
250
  6
CONTINUOUS
 10
-32.6933071008
 20
9.6932827069
 11
-32.6972052696
 21
8.6864860721
  0
LINE
  5
2F7
100
AcDbEntity
  8
RACCORDO
100
AcDbLine
 62
7
  6
CONTINUOUS
 10
-33.1796024325
 20
9.9958672007
 11
-33.1870628933
 21
8.2005026792
  0
LINE
  5
2F8
100
AcDbEntity
  8
RACCORDO
100
AcDbLine
 62
250
  6
CONTINUOUS
 10
-32.6972052696
 20
8.6864860721
 11
-32.7038569608
 21
7.7145018651
  0
LINE
  5
2F9
100
AcDbEntity
  8
RACCORDO
100
AcDbLine
 62
250
  6
CONTINUOUS
 10
-32.4243431662
 20
-26.0703662895
 11
-32.4249477765
 21
-26.1548827155
  0
LINE
  5
2FA
100
AcDbEntity
  8
RACCORDO
100
AcDbLine
 62
7
  6
CONTINUOUS
 10
-33.1845805246
 20
8.6024214572
 11
-33.1952106237
 21
7.2438994681
  0
LINE
  5
2FB
100
AcDbEntity
  8
RACCORDO
100
AcDbLine
 62
250
  6
CONTINUOUS
 10
-32.7038569608
 20
7.7145018651
 11
-32.71358727
 21
6.7698242066
  0
LINE
  5
2FC
100
AcDbEntity
  8
RACCORDO
100
AcDbLine
 62
7
  6
CONTINUOUS
 10
-33.1943209504
 20
7.3317081224
 11
-33.2136248792
 21
5.8539126251
  0
LINE
  5
2FD
100
AcDbEntity
  8
RACCORDO
100
AcDbLine
 62
250
  6
CONTINUOUS
 10
-32.71358727
 20
6.7698242066
 11
-32.7267895729
 21
5.8457157783
  0
LINE
  5
2FE
100
AcDbEntity
  8
RACCORDO
100
AcDbLine
 62
250
  6
CONTINUOUS
 10
-32.4229580722
 20
-25.9749412157
 11
-32.4243431662
 21
-26.0703662895
  0
LINE
  5
2FF
100
AcDbEntity
  8
RACCORDO
100
AcDbLine
 62
7
  6
CONTINUOUS
 10
-33.2087976772
 20
6.1620909439
 11
-33.230534267
 21
4.9481910185
  0
LINE
  5
300
100
AcDbEntity
  8
RACCORDO
100
AcDbLine
 62
250
  6
CONTINUOUS
 10
-32.7267895729
 20
5.8457157783
 11
-32.7437331754
 21
4.9376828289
  0
LINE
  5
301
100
AcDbEntity
  8
RACCORDO
100
AcDbLine
 62
7
  6
CONTINUOUS
 10
-33.227774922
 20
5.0817197745
 11
-33.2515917579
 21
4.0519842831
  0
LINE
  5
302
100
AcDbEntity
  8
RACCORDO
100
AcDbLine
 62
250
  6
CONTINUOUS
 10
-32.7437331754
 20
4.9376828289
 11
-32.7648252674
 21
4.038965987
  0
LWPOLYLINE
  5
303
100
AcDbEntity
  8
RACCORDO
100
AcDbPolyline
 62
250
  6
CONTINUOUS
 90
3
 70
0
 10
-32.4195580279
 20
-25.8205507771
 10
-32.4208529771
 20
-25.8727744031
 10
-32.4229580722
 20
-25.9749412157
  0
LINE
  5
304
100
AcDbEntity
  8
RACCORDO
100
AcDbLine
 62
250
  6
CONTINUOUS
 10
-32.7648252674
 20
4.038965987
 11
-32.7906265142
 21
3.1423483244
  0
LINE
  5
305
100
AcDbEntity
  8
RACCORDO
100
AcDbLine
 62
7
  6
CONTINUOUS
 10
-33.2785622522
 20
3.1174361951
 11
-33.2510516745
 21
4.0727693819
  0
LINE
  5
306
100
AcDbEntity
  8
RACCORDO
100
AcDbLine
 62
7
  6
CONTINUOUS
 10
-33.277276665
 20
3.1580875214
 11
-33.3080452686
 21
2.2638005874
  0
LINE
  5
307
100
AcDbEntity
  8
RACCORDO
100
AcDbLine
 62
250
  6
CONTINUOUS
 10
-32.7906265142
 20
3.1423483244
 11
-32.8214828689
 21
2.2451189316
  0
LINE
  5
308
100
AcDbEntity
  8
RACCORDO
100
AcDbLine
 62
7
  6
CONTINUOUS
 10
-33.3279254144
 20
1.7559963009
 11
-33.2938442207
 21
2.6576477526
  0
LWPOLYLINE
  5
309
100
AcDbEntity
  8
RACCORDO
100
AcDbPolyline
 62
250
  6
CONTINUOUS
 90
7
 70
0
 10
-32.8214828689
 20
2.2451189316
 10
-32.8579806141
 20
1.3447258286
 10
-32.8783533259
 20
0.8959536647
 10
-32.9001461454
 20
0.4500052345
 10
-32.9233682826
 20
0.0056698544
 10
-32.9480876425
 20
-0.4386941504
 10
-32.9742264654
 20
-0.8817244159
  0
LINE
  5
30A
100
AcDbEntity
  8
RACCORDO
100
AcDbLine
 62
7
  6
CONTINUOUS
 10
-33.325508293
 20
1.8153531225
 11
-33.3647116025
 21
0.9194684065
  0
LINE
  5
30B
100
AcDbEntity
  8
RACCORDO
100
AcDbLine
 62
7
  6
CONTINUOUS
 10
-33.3886837599
 20
0.4298418583
 11
-33.3467150137
 21
1.3141327873
  0
LINE
  5
30C
100
AcDbEntity
  8
RACCORDO
100
AcDbLine
 62
7
  6
CONTINUOUS
 10
-33.3863836325
 20
0.4752246861
 11
-33.4341767353
 21
-0.4100278538
  0
LINE
  5
30D
100
AcDbEntity
  8
RACCORDO
100
AcDbLine
 62
7
  6
CONTINUOUS
 10
-33.4119597554
 20
-0.0125804815
 11
-33.4602587612
 21
-0.8514181907
  0
LINE
  5
30E
100
AcDbEntity
  8
RACCORDO
100
AcDbLine
 62
7
  6
CONTINUOUS
 10
-33.4915352234
 20
-1.3513713625
 11
-33.4368541862
 21
-0.4565082431
  0
LINE
  5
30F
100
AcDbEntity
  8
RACCORDO
100
AcDbLine
 62
250
  6
CONTINUOUS
 10
-32.9742264654
 20
-0.8817244159
 11
-33.0312969631
 21
-1.7735995881
  0
LINE
  5
310
100
AcDbEntity
  8
RACCORDO
100
AcDbLine
 62
7
  6
CONTINUOUS
 10
-33.4877829297
 20
-1.292879026
 11
-33.5481736802
 21
-2.1931216932
  0
LINE
  5
311
100
AcDbEntity
  8
RACCORDO
100
AcDbLine
 62
250
  6
CONTINUOUS
 10
-33.0312969631
 20
-1.7735995881
 11
-33.0954315224
 21
-2.688383485
  0
LINE
  5
312
100
AcDbEntity
  8
RACCORDO
100
AcDbLine
 62
7
  6
CONTINUOUS
 10
-33.5839573277
 20
-2.6915950919
 11
-33.5210549583
 21
-1.7991027211
  0
LINE
  5
313
100
AcDbEntity
  8
RACCORDO
100
AcDbLine
 62
7
  6
CONTINUOUS
 10
-33.5810489762
 20
-2.6519030685
 11
-33.6535593802
 21
-3.6045549957
  0
LINE
  5
314
100
AcDbEntity
  8
RACCORDO
100
AcDbLine
 62
250
  6
CONTINUOUS
 10
-33.0954315224
 20
-2.688383485
 11
-33.1681982308
 21
-3.6439339493
  0
LINE
  5
315
100
AcDbEntity
  8
RACCORDO
100
AcDbLine
 62
7
  6
CONTINUOUS
 10
-33.6518668716
 20
-3.5831137685
 11
-33.7358623921
 21
-4.6098801089
  0
LINE
  5
316
100
AcDbEntity
  8
RACCORDO
100
AcDbLine
 62
250
  6
CONTINUOUS
 10
-33.1681982308
 20
-3.6439339493
 11
-33.2507323644
 21
-4.6520502927
  0
LINE
  5
317
100
AcDbEntity
  8
RACCORDO
100
AcDbLine
 62
7
  6
CONTINUOUS
 10
-33.7246078423
 20
-4.4763487861
 11
-33.8298796464
 21
-5.6855624097
  0
LINE
  5
318
100
AcDbEntity
  8
RACCORDO
100
AcDbLine
 62
250
  6
CONTINUOUS
 10
-33.2507323644
 20
-4.6520502927
 11
-33.3449667063
 21
-5.7304088336
  0
LINE
  5
319
100
AcDbEntity
  8
RACCORDO
100
AcDbLine
 62
7
  6
CONTINUOUS
 10
-33.885722615
 20
-6.2963043877
 11
-33.8024534285
 21
-5.3784906711
  0
LINE
  5
31A
100
AcDbEntity
  8
RACCORDO
100
AcDbLine
 62
250
  6
CONTINUOUS
 10
-33.3449667063
 20
-5.7304088336
 11
-33.4530219662
 21
-6.8965979989
  0
LINE
  5
31B
100
AcDbEntity
  8
RACCORDO
100
AcDbLine
 62
7
  6
CONTINUOUS
 10
-33.8819570006
 20
-6.2556817226
 11
-33.9970524136
 21
-7.4663847312
  0
LINE
  5
31C
100
AcDbEntity
  8
RACCORDO
100
AcDbLine
 62
250
  6
CONTINUOUS
 10
-33.4530219662
 20
-6.8965979989
 11
-33.5762463806
 21
-8.1623346272
  0
LINE
  5
31D
100
AcDbEntity
  8
RACCORDO
100
AcDbLine
 62
7
  6
CONTINUOUS
 10
-34.0693039506
 20
-8.1991638306
 11
-33.9745510465
 21
-7.2342834016
  0
LINE
  5
31E
100
AcDbEntity
  8
RACCORDO
100
AcDbLine
 62
7
  6
CONTINUOUS
 10
-34.060700489
 20
-8.1128232289
 11
-34.2012577365
 21
-9.4976489884
  0
LINE
  5
31F
100
AcDbEntity
  8
RACCORDO
100
AcDbLine
 62
250
  6
CONTINUOUS
 10
-33.5762463806
 20
-8.1623346272
 11
-33.7170362771
 21
-9.5490658448
  0
LINE
  5
320
100
AcDbEntity
  8
RACCORDO
100
AcDbLine
 62
7
  6
CONTINUOUS
 10
-34.1704386007
 20
-9.1983523216
 11
-35.8459799725
 21
-25.1521575846
  0
LINE
  5
321
100
AcDbEntity
  8
RACCORDO
100
AcDbLine
 62
250
  6
CONTINUOUS
 10
-33.7170362771
 20
-9.5490658448
 11
-35.361807499
 21
-25.2044218162
  0
LINE
  5
322
100
AcDbEntity
  8
0
100
AcDbLine
 62
250
  6
CONTINUOUS
 10
-30.9498135105
 20
1.5114722713
 11
-31.1789714962
 21
1.3372841592
  0
LWPOLYLINE
  5
323
100
AcDbEntity
  8
0
100
AcDbPolyline
 62
250
  6
CONTINUOUS
 90
3
 70
0
 10
-30.9368935174
 20
2.2289302619
 10
-31.0232864063
 20
2.1723591665
 10
-31.0662809655
 20
2.1445095831
  0
LINE
  5
324
100
AcDbEntity
  8
0
100
AcDbLine
 62
250
  6
CONTINUOUS
 10
-31.0662809655
 20
2.1445095831
 11
-31.1789714962
 21
2.0725861432
  0
LINE
  5
325
100
AcDbEntity
  8
0
100
AcDbLine
 62
250
  6
CONTINUOUS
 10
-31.1786023179
 20
2.7485737888
 11
-31.1789714962
 21
2.7483680775
  0
LWPOLYLINE
  5
326
100
AcDbEntity
  8
0
100
AcDbPolyline
 62
250
  6
CONTINUOUS
 90
3
 70
0
 10
-30.576582304
 20
3.072799786
 10
-30.6483871784
 20
3.0328699368
 10
-30.6832539241
 20
3.0137402611
  0
LINE
  5
327
100
AcDbEntity
  8
0
100
AcDbLine
 62
250
  6
CONTINUOUS
 10
-31.1128825866
 20
2.7846123775
 11
-31.1786023179
 21
2.7485737888
  0
LINE
  5
328
100
AcDbEntity
  8
0
100
AcDbLine
 62
7
  6
CONTINUOUS
 10
-31.1433213108
 20
2.8813059639
 11
-31.1789714962
 21
2.8619240185
  0
LINE
  5
329
100
AcDbEntity
  8
0
100
AcDbLine
 62
250
  6
CONTINUOUS
 10
-31.046676082
 20
2.8203172643
 11
-31.1128825866
 21
2.7846123775
  0
LINE
  5
32A
100
AcDbEntity
  8
0
100
AcDbLine
 62
250
  6
CONTINUOUS
 10
-30.6832539241
 20
3.0137402611
 11
-30.7506398902
 21
2.9773652457
  0
LINE
  5
32B
100
AcDbEntity
  8
0
100
AcDbLine
 62
7
  6
CONTINUOUS
 10
-31.078067174
 20
2.9163520205
 11
-31.1433213108
 21
2.8813059639
  0
LINE
  5
32C
100
AcDbEntity
  8
0
100
AcDbLine
 62
250
  6
CONTINUOUS
 10
-30.7506398902
 20
2.9773652457
 11
-30.8490706013
 21
2.9250128221
  0
LINE
  5
32D
100
AcDbEntity
  8
0
100
AcDbLine
 62
7
  6
CONTINUOUS
 10
-30.9487119105
 20
2.9849024224
 11
-31.078067174
 21
2.9163520205
  0
LINE
  5
32E
100
AcDbEntity
  8
0
100
AcDbLine
 62
250
  6
CONTINUOUS
 10
-30.8490706013
 20
2.9250128221
 11
-31.046676082
 21
2.8203172643
  0
LINE
  5
32F
100
AcDbEntity
  8
RACCORDO
100
AcDbLine
 62
7
  6
CONTINUOUS
 10
-29.9539714962
 20
-1.7839994486
 11
-28.5921474073
 21
-1.5438731188
  0
LINE
  5
330
100
AcDbEntity
  8
RACCORDO
100
AcDbLine
 62
250
  6
CONTINUOUS
 10
-29.9539714962
 20
-1.5809141263
 11
-28.6268770429
 21
-1.3469115682
  0
LINE
  5
331
100
AcDbEntity
  8
SMUSSO
100
AcDbLine
 62
7
  6
CONTINUOUS
 10
-30.4873788675
 20
5.9531951251
 11
-30.4713513708
 21
5.77
  0
LINE
  5
332
100
AcDbEntity
  8
RACCORDO
100
AcDbLine
 62
250
  6
CONTINUOUS
 10
-30.1850932934
 20
21.5441537208
 11
-30.1849671729
 21
21.4964786504
  0
LINE
  5
333
100
AcDbEntity
  8
RACCORDO
100
AcDbLine
 62
7
  6
CONTINUOUS
 10
-31.1789714962
 20
26.3528653412
 11
-31.1789714962
 21
-26.3528653412
  0
LINE
  5
334
100
AcDbEntity
  8
0
100
AcDbLine
 62
7
  6
CONTINUOUS
 10
-30.4939702911
 20
-5.5850061646
 11
-30.4939714962
 21
5.952879129
  0
LINE
  5
335
100
AcDbEntity
  8
0
100
AcDbLine
 62
250
  6
CONTINUOUS
 10
-30.1894588812
 20
-6.119665434
 11
-30.1894593741
 21
-5.6315522392
  0
LINE
  5
336
100
AcDbEntity
  8
RACCORDO
100
AcDbLine
 62
7
  6
CONTINUOUS
 10
-30.1631248425
 20
22.4146201039
 11
-30.1631248425
 21
22.5853798961
  0
LINE
  5
337
100
AcDbEntity
  8
0
100
AcDbLine
 62
250
  6
CONTINUOUS
 10
-30.1402584416
 20
-6.1196643879
 11
-30.1402584453
 21
-5.5819214015
  0
LINE
  5
338
100
AcDbEntity
  8
0
100
AcDbLine
 62
250
  6
CONTINUOUS
 10
-30.1296715079
 20
-0.0
 11
-30.1296715081
 21
3.4368264488
  0
LINE
  5
339
100
AcDbEntity
  8
0
100
AcDbLine
 62
7
  6
CONTINUOUS
 10
-30.1058015775
 20
3.3941975915
 11
-30.1058015775
 21
0.0
  0
LINE
  5
33A
100
AcDbEntity
  8
DRAFT
100
AcDbLine
 62
7
  6
CONTINUOUS
 10
-29.9789714962
 20
-11.7270418294
 11
-29.9789714962
 21
-11.7549863962
  0
LINE
  5
33B
100
AcDbEntity
  8
DRAFT
100
AcDbLine
 62
7
  6
CONTINUOUS
 10
-29.9789714962
 20
-14.7450136038
 11
-29.9789714962
 21
-14.7729581706
  0
LINE
  5
33C
100
AcDbEntity
  8
0
100
AcDbLine
 62
7
  6
CONTINUOUS
 10
-29.9539714962
 20
-5.7264730972
 11
-29.9539714962
 21
0.0
  0
LINE
  5
33D
100
AcDbEntity
  8
RACCORDO
100
AcDbLine
 62
250
  6
CONTINUOUS
 10
-30.1849671729
 20
21.4964786504
 11
-30.1852489522
 21
21.3991580958
  0
LINE
  5
33E
100
AcDbEntity
  8
RACCORDO
100
AcDbLine
 62
250
  6
CONTINUOUS
 10
-30.1852489522
 20
21.3991580958
 11
-30.1860513529
 21
21.284364846
  0
LINE
  5
33F
100
AcDbEntity
  8
0
100
AcDbLine
 62
7
  6
CONTINUOUS
 10
-29.9933105066
 20
0.0294462748
 11
-29.9929714962
 21
0.0642885725
  0
LINE
  5
340
100
AcDbEntity
  8
0
100
AcDbLine
 62
7
  6
CONTINUOUS
 10
-29.9941405034
 20
0.0
 11
-29.9933105066
 21
0.0294462748
  0
LINE
  5
341
100
AcDbEntity
  8
0
100
AcDbLine
 62
7
  6
CONTINUOUS
 10
-30.4945570478
 20
-5.592134475
 11
-30.4939702911
 21
-5.5850061646
  0
LWPOLYLINE
  5
342
100
AcDbEntity
  8
DRAFT
100
AcDbPolyline
 62
7
  6
CONTINUOUS
 90
25
 70
0
 10
-29.3789714962
 20
6.0807768746
 10
-29.3798353864
 20
6.0759362293
 10
-29.3824178984
 20
6.0710625464
 10
-29.3867009187
 20
6.0661558261
 10
-29.3926595943
 20
6.0611964568
 10
-29.4002650452
 20
6.05620405
 10
-29.4094870028
 20
6.0512374403
 10
-29.4202878545
 20
6.0462953228
 10
-29.4326244374
 20
6.0413790023
 10
-29.4464544907
 20
6.0365512278
 10
-29.4617267424
 20
6.0318119404
 10
-29.4783858954
 20
6.0271611989
 10
-29.4963803617
 20
6.0226619287
 10
-29.5156453545
 20
6.0183154792
 10
-29.5361164039
 20
6.0141205009
 10
-29.5577409551
 20
6.0101358706
 10
-29.5804477933
 20
6.0063632864
 10
-29.6041614544
 20
6.0028010502
 10
-29.6288224953
 20
5.9995029453
 10
-29.6543532738
 20
5.996471595
 10
-29.6806680451
 20
5.9937043761
 10
-29.7076934416
 20
5.9912472019
 10
-29.7353453407
 20
5.9891153768
 10
-29.7635279891
 20
5.9872935963
 10
-29.7921474073
 20
5.9857818606
  0
LWPOLYLINE
  5
343
100
AcDbEntity
  8
RACCORDO
100
AcDbPolyline
 62
250
  6
CONTINUOUS
 90
9
 70
0
 10
-35.4278266223
 20
-25.5314051079
 10
-35.434533171
 20
-25.5675683813
 10
-35.440303188
 20
-25.5997684925
 10
-35.4450787323
 20
-25.6276843587
 10
-35.4488001304
 20
-25.6509698906
 10
-35.4514198868
 20
-25.6693183126
 10
-35.4529193073
 20
-25.6825670499
 10
-35.4532966843
 20
-25.6906461718
 10
-35.4525590244
 20
-25.693520226
  0
LINE
  5
344
100
AcDbEntity
  8
RACCORDO
100
AcDbLine
 62
250
  6
CONTINUOUS
 10
-35.411897049
 20
-25.4487605458
 11
-35.4278266223
 21
-25.5314051079
  0
LINE
  5
345
100
AcDbEntity
  8
RACCORDO
100
AcDbLine
 62
250
  6
CONTINUOUS
 10
-35.3932038979
 20
-25.3554172351
 11
-35.411897049
 21
-25.4487605458
  0
LWPOLYLINE
  5
346
100
AcDbEntity
  8
RACCORDO
100
AcDbPolyline
 62
250
  6
CONTINUOUS
 90
3
 70
0
 10
-35.361807499
 20
-25.2044218162
 10
-35.3725720641
 20
-25.2554961999
 10
-35.3932038979
 20
-25.3554172351
  0
LINE
  5
347
100
AcDbEntity
  8
0
100
AcDbLine
 62
250
  6
CONTINUOUS
 10
-30.9670170464
 20
0.7013617256
 11
-31.1789714962
 21
0.507035215
  0
LWPOLYLINE
  5
348
100
AcDbEntity
  8
0
100
AcDbPolyline
 62
7
  6
CONTINUOUS
 90
5
 70
0
 10
-30.9670170464
 20
0.7013617256
 10
-31.1494644995
 20
0.6358015223
 10
-31.1618873067
 20
0.6312650646
 10
-31.1735744085
 20
0.6271296719
 10
-31.1789714962
 20
0.6252577702
  0
LINE
  5
349
100
AcDbEntity
  8
RACCORDO
100
AcDbLine
 62
250
  6
CONTINUOUS
 10
-28.3789714962
 20
-1.0514692423
 11
-28.1789714962
 21
-1.0514692423
  0
LINE
  5
34A
100
AcDbEntity
  8
0
100
AcDbLine
 62
7
  6
CONTINUOUS
 10
-29.9539714962
 20
0.0
 11
-30.4939714962
 21
0.0
  0
LWPOLYLINE
  5
34B
100
AcDbEntity
  8
0
100
AcDbPolyline
 62
7
  6
CONTINUOUS
 90
20
 70
0
 10
-30.1058015775
 20
0.7114530112
 10
-30.0956620035
 20
0.6804390546
 10
-30.0852723408
 20
0.6471803219
 10
-30.0753385987
 20
0.6137811162
 10
-30.0658795481
 20
0.5802439308
 10
-30.0569142429
 20
0.5465722148
 10
-30.0484617375
 20
0.5127694189
 10
-30.0405410862
 20
0.4788389936
 10
-30.033171338
 20
0.4447844008
 10
-30.0263709106
 20
0.4106104827
 10
-30.0201569949
 20
0.3763247621
 10
-30.0145465998
 20
0.3419350978
 10
-30.0095554406
 20
0.3074502319
 10
-30.005197709
 20
0.2728799462
 10
-30.0014872696
 20
0.2382341726
 10
-29.9984347376
 20
0.203524067
 10
-29.996050075
 20
0.1687617623
 10
-29.9943440083
 20
0.1339596904
 10
-29.9933105066
 20
0.0991308703
 10
-29.9929714962
 20
0.0642885725
  0
LINE
  5
34C
100
AcDbEntity
  8
RACCORDO
100
AcDbLine
 62
250
  6
CONTINUOUS
 10
-28.5524283959
 20
-14.4696342788
 11
-28.5393550344
 21
-14.6190634835
  0
LINE
  5
34D
100
AcDbEntity
  8
RACCORDO
100
AcDbLine
 62
7
  6
CONTINUOUS
 10
-28.7359884868
 20
-11.8637333185
 11
-28.6832349215
 21
-14.4810783669
  0
LINE
  5
34E
100
AcDbEntity
  8
DRAFT
100
AcDbLine
 62
7
  6
CONTINUOUS
 10
-29.0270742042
 20
-11.8382666181
 11
-28.9986452568
 21
-14.6592461713
  0
LINE
  5
34F
100
AcDbEntity
  8
DRAFT
100
AcDbLine
 62
250
  6
CONTINUOUS
 10
-29.7921474073
 20
6.5568676258
 11
-29.7921474073
 21
5.9857818606
  0
LINE
  5
350
100
AcDbEntity
  8
RACCORDO
100
AcDbLine
 62
250
  6
CONTINUOUS
 10
-29.7763535355
 20
20.8692063748
 11
-29.7763535355
 21
20.3852199614
  0
LINE
  5
351
100
AcDbEntity
  8
RACCORDO
100
AcDbLine
 62
250
  6
CONTINUOUS
 10
-29.6276625158
 20
19.8205195626
 11
-29.6276625158
 21
20.4406379675
  0
LINE
  5
352
100
AcDbEntity
  8
RACCORDO
100
AcDbLine
 62
7
  6
CONTINUOUS
 10
-29.4789714962
 20
19.9705138511
 11
-29.4789714962
 21
20.8692063748
  0
LINE
  5
353
100
AcDbEntity
  8
DRAFT
100
AcDbLine
 62
7
  6
CONTINUOUS
 10
-29.3789714962
 20
6.7425204057
 11
-29.3789714962
 21
6.0807768746
  0
LINE
  5
354
100
AcDbEntity
  8
RACCORDO
100
AcDbLine
 62
250
  6
CONTINUOUS
 10
-28.5524283959
 20
-14.4696342788
 11
-28.5524283959
 21
-11.8797927455
  0
LINE
  5
355
100
AcDbEntity
  8
RACCORDO
100
AcDbLine
 62
250
  6
CONTINUOUS
 10
-28.3789714962
 20
-1.0514692423
 11
-28.3789714962
 21
1.0514692423
  0
LINE
  5
356
100
AcDbEntity
  8
RACCORDO
100
AcDbLine
 62
7
  6
CONTINUOUS
 10
-28.1789714962
 20
-1.0514692423
 11
-28.1789714962
 21
1.0514692423
  0
LINE
  5
357
100
AcDbEntity
  8
0
100
AcDbLine
 62
250
  6
CONTINUOUS
 10
-31.1789714962
 20
-10.7923553733
 11
-30.7703848468
 21
-7.4646841546
  0
LINE
  5
358
100
AcDbEntity
  8
0
100
AcDbLine
 62
7
  6
CONTINUOUS
 10
-31.1589714962
 20
-11.0361903007
 11
-30.702922291
 21
-7.3219675852
  0
LINE
  5
359
100
AcDbEntity
  8
RACCORDO
100
AcDbLine
 62
250
  6
CONTINUOUS
 10
-28.6268770429
 20
1.3469115682
 11
-28.5921474073
 21
1.5438731188
  0
LINE
  5
35A
100
AcDbEntity
  8
0
100
AcDbLine
 62
7
  6
CONTINUOUS
 10
-31.1589714962
 20
-11.0361903007
 11
-31.1789714962
 21
-11.117670134
  0
LINE
  5
35B
100
AcDbEntity
  8
0
100
AcDbLine
 62
7
  6
CONTINUOUS
 10
-30.9498135105
 20
1.5114722713
 11
-31.1296236734
 21
1.4613804581
  0
LWPOLYLINE
  5
35C
100
AcDbEntity
  8
0
100
AcDbPolyline
 62
7
  6
CONTINUOUS
 90
5
 70
0
 10
-31.1296236734
 20
1.4613804581
 10
-31.1438881504
 20
1.4574685588
 10
-31.1572291775
 20
1.4536925812
 10
-31.1698407609
 20
1.4502714735
 10
-31.1789714962
 20
1.4478525836
  0
LINE
  5
35D
100
AcDbEntity
  8
RACCORDO
100
AcDbLine
 62
250
  6
CONTINUOUS
 10
-28.3789714962
 20
1.0514692423
 11
-28.1789714962
 21
1.0514692423
  0
LINE
  5
35E
100
AcDbEntity
  8
0
100
AcDbLine
 62
250
  6
CONTINUOUS
 10
-31.1789714962
 20
0.7126684976
 11
-30.9670170464
 21
0.7013617256
  0
LINE
  5
35F
100
AcDbEntity
  8
0
100
AcDbLine
 62
250
  6
CONTINUOUS
 10
-31.1789714962
 20
1.536411422
 11
-30.9498135105
 21
1.5114722713
  0
LINE
  5
360
100
AcDbEntity
  8
RACCORDO
100
AcDbLine
 62
250
  6
CONTINUOUS
 10
-28.6268770429
 20
1.3469115682
 11
-30.1058015775
 21
1.6076858661
  0
LINE
  5
361
100
AcDbEntity
  8
RACCORDO
100
AcDbLine
 62
7
  6
CONTINUOUS
 10
-28.5921474073
 20
1.5438731188
 11
-30.1058015775
 21
1.8107711885
  0
LINE
  5
362
100
AcDbEntity
  8
RACCORDO
100
AcDbLine
 62
250
  6
CONTINUOUS
 10
-28.6268770429
 20
-1.3469115682
 11
-28.5921474022
 21
-1.5438731179
  0
LINE
  5
363
100
AcDbEntity
  8
RACCORDO
100
AcDbLine
 62
250
  6
CONTINUOUS
 10
-27.922905479
 20
-14.1031218234
 11
-27.922905479
 21
-11.9348688642
  0
LINE
  5
364
100
AcDbEntity
  8
RACCORDO
100
AcDbLine
 62
7
  6
CONTINUOUS
 10
-27.8789714962
 20
-14.1031218234
 11
-27.8789714962
 21
-11.9387125896
  0
LWPOLYLINE
  5
365
100
AcDbEntity
  8
RACCORDO
100
AcDbPolyline
 62
250
  6
CONTINUOUS
 90
10
 70
0
 10
-28.242400969
 20
-14.4517899677
 10
-28.2427956714
 20
-14.4767772252
 10
-28.2461546685
 20
-14.5010633946
 10
-28.2523836853
 20
-14.5239672164
 10
-28.2613079419
 20
-14.5448462303
 10
-28.2726770561
 20
-14.5631147851
 10
-28.2861720652
 20
-14.5782604687
 10
-28.3014143845
 20
-14.5898584929
 10
-28.3179764337
 20
-14.5975835996
 10
-28.3353936247
 20
-14.6012191724
  0
LWPOLYLINE
  5
366
100
AcDbEntity
  8
RACCORDO
100
AcDbPolyline
 62
250
  6
CONTINUOUS
 90
9
 70
0
 10
-32.5762099547
 20
-26.1361728181
 10
-32.5829219032
 20
-26.1723463501
 10
-32.5887013781
 20
-26.2045753954
 10
-32.5934854951
 20
-26.2325092829
 10
-32.5972222001
 20
-26.255844075
 10
-32.5998708355
 20
-26.2743258748
 10
-32.6014025824
 20
-26.287753589
 10
-32.6018007744
 20
-26.2959811157
 10
-32.6010610788
 20
-26.2989189342
  0
LINE
  5
367
100
AcDbEntity
  8
RACCORDO
100
AcDbLine
 62
250
  6
CONTINUOUS
 10
-32.5602901079
 20
-26.0536052883
 11
-32.5762099547
 21
-26.1361728181
  0
LINE
  5
368
100
AcDbEntity
  8
RACCORDO
100
AcDbLine
 62
250
  6
CONTINUOUS
 10
-32.5416328223
 20
-25.9604565636
 11
-32.5602901079
 21
-26.0536052883
  0
LWPOLYLINE
  5
369
100
AcDbEntity
  8
RACCORDO
100
AcDbPolyline
 62
250
  6
CONTINUOUS
 90
3
 70
0
 10
-32.5103095533
 20
-25.8098205244
 10
-32.5210478976
 20
-25.8607696639
 10
-32.5416328223
 20
-25.9604565636
  0
LWPOLYLINE
  5
36A
100
AcDbEntity
  8
0
100
AcDbPolyline
 62
7
  6
CONTINUOUS
 90
6
 70
0
 10
-29.9588267982
 20
-5.7478387258
 10
-29.9569081606
 20
-5.7431874171
 10
-29.95546564
 20
-5.7383622399
 10
-29.9545158456
 20
-5.7334161375
 10
-29.9540684924
 20
-5.7283992048
 10
-29.9540313689
 20
-5.7264728959
  0
LWPOLYLINE
  5
36B
100
AcDbEntity
  8
0
100
AcDbPolyline
 62
250
  6
CONTINUOUS
 90
10
 70
0
 10
-30.1446907163
 20
-6.1410324954
 10
-30.1437061724
 20
-6.1387991025
 10
-30.1428405279
 20
-6.1365164524
 10
-30.1420960114
 20
-6.1341904209
 10
-30.1414745391
 20
-6.1318269957
 10
-30.140977711
 20
-6.1294322609
 10
-30.1406068063
 20
-6.1270123815
 10
-30.1403627798
 20
-6.124573587
 10
-30.1402462596
 20
-6.1221221552
 10
-30.1402575457
 20
-6.1196643966
  0
LINE
  5
36C
100
AcDbEntity
  8
0
100
AcDbLine
 62
250
  6
CONTINUOUS
 10
-31.1789714962
 20
-8.2129725152
 11
-30.1894588812
 21
-6.119665434
  0
LINE
  5
36D
100
AcDbEntity
  8
0
100
AcDbLine
 62
7
  6
CONTINUOUS
 10
-31.1789714962
 20
-8.3290463806
 11
-29.9588267982
 21
-5.7478387258
  0
LWPOLYLINE
  5
36E
100
AcDbEntity
  8
0
100
AcDbPolyline
 62
250
  6
CONTINUOUS
 90
3
 70
0
 10
-30.1402584416
 20
-6.1196643888
 10
-29.9722717518
 20
-5.7649302962
 10
-29.958852874
 20
-5.7364003972
  0
LINE
  5
36F
100
AcDbEntity
  8
0
100
AcDbLine
 62
250
  6
CONTINUOUS
 10
-29.958852874
 20
-5.7364003972
 11
-29.9540350331
 21
-5.7266630236
  0
LWPOLYLINE
  5
370
100
AcDbEntity
  8
0
100
AcDbPolyline
 62
7
  6
CONTINUOUS
 90
4
 70
0
 10
-30.5014504123
 20
-5.6111658809
 10
-30.4982603827
 20
-5.6051704655
 10
-30.4959870783
 20
-5.5988559086
 10
-30.4945570478
 20
-5.592134475
  0
LWPOLYLINE
  5
371
100
AcDbEntity
  8
0
100
AcDbPolyline
 62
7
  6
CONTINUOUS
 90
6
 70
0
 10
-30.1524976452
 20
-5.6104088952
 10
-30.1488587337
 20
-5.6053326492
 10
-30.1457530644
 20
-5.5999332444
 10
-30.1432358066
 20
-5.5942524556
 10
-30.1413863722
 20
-5.588248508
 10
-30.1402584453
 20
-5.5819214015
  0
LINE
  5
372
100
AcDbEntity
  8
0
100
AcDbLine
 62
7
  6
CONTINUOUS
 10
-30.6239714962
 20
-5.6357114275
 11
-31.1789714962
 21
-6.1907114275
  0
LINE
  5
373
100
AcDbEntity
  8
0
100
AcDbLine
 62
7
  6
CONTINUOUS
 10
-30.576582304
 20
3.072799786
 11
-30.6628231879
 21
3.0518944211
  0
LWPOLYLINE
  5
374
100
AcDbEntity
  8
0
100
AcDbPolyline
 62
7
  6
CONTINUOUS
 90
3
 70
0
 10
-30.6628231879
 20
3.0518944211
 10
-30.8813325254
 20
3.0006373222
 10
-30.8942365535
 20
2.9975957701
  0
LWPOLYLINE
  5
375
100
AcDbEntity
  8
0
100
AcDbPolyline
 62
7
  6
CONTINUOUS
 90
6
 70
0
 10
-30.8942365535
 20
2.9975957701
 10
-30.918374313
 20
2.9922480035
 10
-30.9285330038
 20
2.9896342166
 10
-30.9368440708
 20
2.9872096682
 10
-30.9435748744
 20
2.9854870136
 10
-30.9487118273
 20
2.9849024663
  0
LINE
  5
376
100
AcDbEntity
  8
0
100
AcDbLine
 62
7
  6
CONTINUOUS
 10
-30.9368935174
 20
2.2289302619
 11
-31.0320784945
 21
2.2084815838
  0
LINE
  5
377
100
AcDbEntity
  8
0
100
AcDbLine
 62
7
  6
CONTINUOUS
 10
-31.0320784945
 20
2.2084815838
 11
-31.1789714962
 21
2.1776754919
  0
LINE
  5
378
100
AcDbEntity
  8
0
100
AcDbLine
 62
7
  6
CONTINUOUS
 10
-30.5627235707
 20
3.679744841
 11
-30.652639057
 21
3.6620469459
  0
LINE
  5
379
100
AcDbEntity
  8
0
100
AcDbLine
 62
7
  6
CONTINUOUS
 10
-30.652639057
 20
3.6620469459
 11
-30.760533709
 21
3.6413998306
  0
LWPOLYLINE
  5
37A
100
AcDbEntity
  8
0
100
AcDbPolyline
 62
7
  6
CONTINUOUS
 90
7
 70
0
 10
-30.9218869228
 20
3.6111934006
 10
-30.9316542318
 20
3.6093515346
 10
-30.9358028009
 20
3.6085938898
 10
-30.939141626
 20
3.6079483179
 10
-30.9415673843
 20
3.6074408321
 10
-30.943178216
 20
3.6071192773
 10
-30.9439714962
 20
3.6070218503
  0
LINE
  5
37B
100
AcDbEntity
  8
0
100
AcDbLine
 62
7
  6
CONTINUOUS
 10
-30.760533709
 20
3.6413998306
 11
-30.9218869228
 21
3.6111934006
  0
LINE
  5
37C
100
AcDbEntity
  8
0
100
AcDbLine
 62
7
  6
CONTINUOUS
 10
-31.1789714962
 20
2.9924026582
 11
-30.948711909
 21
2.984902469
  0
LINE
  5
37D
100
AcDbEntity
  8
0
100
AcDbLine
 62
250
  6
CONTINUOUS
 10
-31.1789714962
 20
3.0924212617
 11
-30.576582304
 21
3.072799786
  0
LINE
  5
37E
100
AcDbEntity
  8
0
100
AcDbLine
 62
7
  6
CONTINUOUS
 10
-31.1789714962
 20
3.6239481669
 11
-30.943971951
 21
3.6070218831
  0
LINE
  5
37F
100
AcDbEntity
  8
0
100
AcDbLine
 62
250
  6
CONTINUOUS
 10
-31.1789714962
 20
3.7241312557
 11
-30.5627235707
 21
3.679744841
  0
LINE
  5
380
100
AcDbEntity
  8
0
100
AcDbLine
 62
250
  6
CONTINUOUS
 10
-31.1789714962
 20
2.2676595632
 11
-30.9368935174
 21
2.2289302619
  0
LINE
  5
381
100
AcDbEntity
  8
0
100
AcDbLine
 62
7
  6
CONTINUOUS
 10
-30.4929740049
 20
3.6569559881
 11
-30.1296715081
 21
3.4368264488
  0
LINE
  5
382
100
AcDbEntity
  8
RACCORDO
100
AcDbLine
 62
250
  6
CONTINUOUS
 10
-30.0227999576
 20
21.9074289372
 11
-30.0109571992
 21
21.8385551725
  0
LWPOLYLINE
  5
383
100
AcDbEntity
  8
RACCORDO
100
AcDbPolyline
 62
250
  6
CONTINUOUS
 90
7
 70
0
 10
-30.0109571992
 20
21.8385551725
 10
-30.0048696081
 20
21.8022040056
 10
-30.0025341775
 20
21.7878832032
 10
-30.0007269747
 20
21.7764736745
 10
-29.9994788749
 20
21.7681703372
 10
-29.9988112013
 20
21.7631150413
 10
-29.9987353676
 20
21.7613941844
  0
LWPOLYLINE
  5
384
100
AcDbEntity
  8
RACCORDO
100
AcDbPolyline
 62
250
  6
CONTINUOUS
 90
5
 70
0
 10
-30.1860513529
 20
21.584353423
 10
-30.1857320935
 20
21.5817841407
 10
-30.1854630853
 20
21.5741262487
 10
-30.1852489307
 20
21.5615108159
 10
-30.1850932934
 20
21.5441537208
  0
LWPOLYLINE
  5
385
100
AcDbEntity
  8
RACCORDO
100
AcDbPolyline
 62
250
  6
CONTINUOUS
 90
4
 70
0
 10
-27.9339144745
 20
-14.1902142966
 10
-27.9280078582
 20
-14.1620351974
 10
-27.924338193
 20
-14.133004373
 10
-27.922905479
 20
-14.1031218234
  0
LWPOLYLINE
  5
386
100
AcDbEntity
  8
0
100
AcDbPolyline
 62
7
  6
CONTINUOUS
 90
6
 70
0
 10
-30.527625772
 20
-5.6321445373
 10
-30.5211742413
 20
-5.6293240663
 10
-30.5153456303
 20
-5.6258335122
 10
-30.510139939
 20
-5.6216728751
 10
-30.5054837158
 20
-5.6167544195
 10
-30.5014504123
 20
-5.6111658809
  0
LINE
  5
387
100
AcDbEntity
  8
0
100
AcDbLine
 62
7
  6
CONTINUOUS
 10
-30.5575583862
 20
4.2615331461
 11
-30.648996245
 21
4.2470726603
  0
LINE
  5
388
100
AcDbEntity
  8
0
100
AcDbLine
 62
7
  6
CONTINUOUS
 10
-30.648996245
 20
4.2470726603
 11
-30.7579639617
 21
4.2304250712
  0
LWPOLYLINE
  5
389
100
AcDbEntity
  8
0
100
AcDbPolyline
 62
7
  6
CONTINUOUS
 90
7
 70
0
 10
-30.9219735349
 20
4.2060488361
 10
-30.9315002659
 20
4.2046202188
 10
-30.9356196483
 20
4.2040306109
 10
-30.9389626079
 20
4.2035092692
 10
-30.941419762
 20
4.2030831398
 10
-30.9430910205
 20
4.2028140756
 10
-30.9439714962
 20
4.2027485225
  0
LINE
  5
38A
100
AcDbEntity
  8
0
100
AcDbLine
 62
7
  6
CONTINUOUS
 10
-30.7579639617
 20
4.2304250712
 11
-30.9219735349
 21
4.2060488361
  0
LINE
  5
38B
100
AcDbEntity
  8
0
100
AcDbLine
 62
7
  6
CONTINUOUS
 10
-31.1789714962
 20
4.2280976004
 11
-30.9439715765
 21
4.2027485312
  0
LINE
  5
38C
100
AcDbEntity
  8
0
100
AcDbLine
 62
250
  6
CONTINUOUS
 10
-31.1789714962
 20
4.3285639942
 11
-30.5575583862
 21
4.2615331461
  0
LINE
  5
38D
100
AcDbEntity
  8
0
100
AcDbLine
 62
7
  6
CONTINUOUS
 10
-31.1789714962
 20
4.8136895668
 11
-30.9439714962
 21
4.7810704105
  0
LINE
  5
38E
100
AcDbEntity
  8
0
100
AcDbLine
 62
250
  6
CONTINUOUS
 10
-30.9637431354
 20
4.9617095295
 11
-30.5923255561
 21
4.9103588619
  0
LINE
  5
38F
100
AcDbEntity
  8
0
100
AcDbLine
 62
250
  6
CONTINUOUS
 10
-31.1789714962
 20
4.9919917632
 11
-30.9637431354
 21
4.9617095295
  0
LWPOLYLINE
  5
390
100
AcDbEntity
  8
0
100
AcDbPolyline
 62
7
  6
CONTINUOUS
 90
10
 70
0
 43
0.3500000006
 10
-44.4080621338
 20
37.7808505096
 10
-44.3366354828
 20
37.6379926758
 10
-44.3366354828
 20
37.5665660248
 10
-44.4794887848
 20
37.4237081909
 10
-44.5509199677
 20
37.4237081909
 10
-44.6223466187
 20
37.4951348419
 10
-44.6223466187
 20
37.5665660248
 10
-44.5509199677
 20
37.7094238586
 10
-44.4794887848
 20
37.7808505096
 10
-44.4080621338
 20
37.7808505096
  0
LINE
  5
391
100
AcDbEntity
  8
RACCORDO
100
AcDbLine
 62
250
  6
CONTINUOUS
 10
-30.0317196913
 20
21.9583557358
 11
-30.0227999576
 21
21.9074289372
  0
LINE
  5
392
100
AcDbEntity
  8
0
100
AcDbLine
 62
7
  6
CONTINUOUS
 10
-30.4713513708
 20
5.77
 11
-30.2713513708
 21
5.77
  0
LWPOLYLINE
  5
393
100
AcDbEntity
  8
DRAFT
100
AcDbPolyline
 62
7
  6
CONTINUOUS
 90
25
 70
0
 10
-29.7921474073
 20
6.5568676258
 10
-29.7635852676
 20
6.5554925268
 10
-29.7354074714
 20
6.5544745025
 10
-29.7077103382
 20
6.5538135529
 10
-29.68058393
 20
6.5535148304
 10
-29.6541262643
 20
6.5535731825
 10
-29.6284417108
 20
6.5539731523
 10
-29.6036179941
 20
6.5547200482
 10
-29.5797383119
 20
6.5558085618
 10
-29.5568932441
 20
6.5572073097
 10
-29.5351600262
 20
6.558920049
 10
-29.5146083052
 20
6.5609430228
 10
-29.4953091968
 20
6.5632335768
 10
-29.4773274384
 20
6.5657934557
 10
-29.4607170448
 20
6.5686209148
 10
-29.4455263697
 20
6.5716680663
 10
-29.431804589
 20
6.5749353895
 10
-29.4195942884
 20
6.578422405
 10
-29.4089294144
 20
6.5820797872
 10
-29.3998454238
 20
6.5859069007
 10
-29.3923711607
 20
6.589904381
 10
-29.3865276513
 20
6.5940248088
 10
-29.3823359492
 20
6.5982523778
 10
-29.3798136802
 20
6.6026028942
 10
-29.3789714962
 20
6.6070763582
  0
LINE
  5
394
100
AcDbEntity
  8
DRAFT
100
AcDbLine
 62
7
  6
CONTINUOUS
 10
-31.1789714962
 20
6.9
 11
-29.3789714962
 21
6.7425204057
  0
LINE
  5
395
100
AcDbEntity
  8
RACCORDO
100
AcDbLine
 62
250
  6
CONTINUOUS
 10
-32.6920599703
 20
10.7371426949
 11
-33.1789714962
 21
10.7371426949
  0
LWPOLYLINE
  5
396
100
AcDbEntity
  8
RACCORDO
100
AcDbPolyline
 62
250
  6
CONTINUOUS
 90
10
 70
0
 10
-29.8337034457
 20
21.0093882276
 10
-29.8228120837
 20
20.9975149198
 10
-29.8129638632
 20
20.984697594
 10
-29.804158784
 20
20.9709362501
 10
-29.7962813181
 20
20.9562063488
 10
-29.7894469935
 20
20.9405324294
 10
-29.7840023945
 20
20.9239881105
 10
-29.7800630493
 20
20.9065979315
 10
-29.7775134296
 20
20.8883373529
 10
-29.7763535355
 20
20.8692063748
  0
LINE
  5
397
100
AcDbEntity
  8
RACCORDO
100
AcDbLine
 62
250
  6
CONTINUOUS
 10
-30.0451465702
 20
21.2245543143
 11
-29.8337034457
 21
21.0093882276
  0
LINE
  5
398
100
AcDbEntity
  8
RACCORDO
100
AcDbLine
 62
7
  6
CONTINUOUS
 10
-29.8337893961
 20
21.4348270936
 11
-29.6223462716
 21
21.2196610069
  0
LINE
  5
399
100
AcDbEntity
  8
RACCORDO
100
AcDbLine
 62
7
  6
CONTINUOUS
 10
-29.6276625158
 20
19.8205195626
 11
-31.1789714962
 21
19.8069814942
  0
LINE
  5
39A
100
AcDbEntity
  8
RACCORDO
100
AcDbLine
 62
250
  6
CONTINUOUS
 10
-29.6276625158
 20
20.1039102054
 11
-31.1789714962
 21
20.1117480706
  0
LWPOLYLINE
  5
39B
100
AcDbEntity
  8
RACCORDO
100
AcDbPolyline
 62
250
  6
CONTINUOUS
 90
13
 70
0
 10
-29.6276625158
 20
20.1039102054
 10
-29.608203558
 20
20.1030771334
 10
-29.5890960136
 20
20.1007887552
 10
-29.5706632006
 20
20.0970837924
 10
-29.5532170199
 20
20.0920249366
 10
-29.5370526776
 20
20.0856977884
 10
-29.5224436898
 20
20.0782094093
 10
-29.5096372547
 20
20.0696865098
 10
-29.4988500693
 20
20.0602733055
 10
-29.4902646633
 20
20.0501290768
 10
-29.4840263099
 20
20.039425474
 10
-29.4802405681
 20
20.0283436121
 10
-29.4789714962
 20
20.0170710069
  0
LWPOLYLINE
  5
39C
100
AcDbEntity
  8
RACCORDO
100
AcDbPolyline
 62
250
  6
CONTINUOUS
 90
34
 70
0
 10
-30.0317196913
 20
21.9583557358
 10
-29.9816623956
 20
21.969871372
 10
-29.9338617058
 20
21.9852856098
 10
-29.888317622
 20
22.0045984492
 10
-29.8448270455
 20
22.0279916184
 10
-29.8035930749
 20
22.0552833892
 10
-29.7652250063
 20
22.0859285766
 10
-29.7296483602
 20
22.1200557001
 10
-29.6969376161
 20
22.1575362401
 10
-29.6679255084
 20
22.1974394528
 10
-29.6427210789
 20
22.2398123386
 10
-29.6212152858
 20
22.2846078971
 10
-29.6039137384
 20
22.3307543828
 10
-29.5909132429
 20
22.3782669338
 10
-29.582116993
 20
22.427130412
 10
-29.5777401785
 20
22.4762276584
 10
-29.5779125777
 20
22.5256452008
 10
-29.5825044123
 20
22.5752965113
 10
-29.5913415376
 20
22.6238048478
 10
-29.6048145855
 20
22.6713504743
 10
-29.6225329242
 20
22.7177531268
 10
-29.6431505137
 20
22.7610952709
 10
-29.6668041772
 20
22.8008963759
 10
-29.6933570917
 20
22.8376369724
 10
-29.7210527476
 20
22.8708411189
 10
-29.749259368
 20
22.8999802386
 10
-29.77860873
 20
22.9255829082
 10
-29.8092396553
 20
22.9487589156
 10
-29.8407723437
 20
22.9697830187
 10
-29.8735865954
 20
22.9883804597
 10
-29.9089606338
 20
23.0048367532
 10
-29.9473205331
 20
23.0192470709
 10
-29.9882402189
 20
23.0315162412
 10
-30.0317196913
 20
23.0416442642
  0
LINE
  5
39D
100
AcDbEntity
  8
RACCORDO
100
AcDbLine
 62
7
  6
CONTINUOUS
 10
-31.1789714962
 20
21.5532867113
 11
-29.9987353629
 21
21.7613941852
  0
LINE
  5
39E
100
AcDbEntity
  8
RACCORDO
100
AcDbLine
 62
250
  6
CONTINUOUS
 10
-31.1789714962
 20
21.756064289
 11
-30.0317196913
 21
21.9583557358
  0
LINE
  5
39F
100
AcDbEntity
  8
RACCORDO
100
AcDbLine
 62
250
  6
CONTINUOUS
 10
-29.4789714962
 20
20.8692063748
 11
-29.7763535355
 21
20.8692063748
  0
LINE
  5
3A0
100
AcDbEntity
  8
RACCORDO
100
AcDbLine
 62
7
  6
CONTINUOUS
 10
-31.1789714962
 20
20.389123652
 11
-29.7763535355
 21
20.3852199614
  0
LINE
  5
3A1
100
AcDbEntity
  8
RACCORDO
100
AcDbLine
 62
250
  6
CONTINUOUS
 10
-31.1789714962
 20
21.2930299288
 11
-30.1860513529
 21
21.284364846
  0
LINE
  5
3A2
100
AcDbEntity
  8
RACCORDO
100
AcDbLine
 62
7
  6
CONTINUOUS
 10
-30.9642675343
 20
21.5911448127
 11
-30.1860513529
 21
21.584353423
  0
LWPOLYLINE
  5
3A3
100
AcDbEntity
  8
RACCORDO
100
AcDbPolyline
 62
250
  6
CONTINUOUS
 90
13
 70
0
 10
-30.1860513529
 20
21.284364846
 10
-30.1718059713
 20
21.2835761831
 10
-30.1581674094
 20
21.2820444327
 10
-30.1451356673
 20
21.2797695947
 10
-30.13280921
 20
21.2767375152
 10
-30.1210895723
 20
21.2729623481
 10
-30.1096813593
 20
21.2684865559
 10
-30.0985614627
 20
21.2634150071
 10
-30.0877529907
 20
21.2576428332
 10
-30.0770298726
 20
21.2508978913
 10
-30.0663167513
 20
21.243089467
 10
-30.0556889838
 20
21.2343082747
 10
-30.0451465702
 20
21.2245543143
  0
LINE
  5
3A4
100
AcDbEntity
  8
RACCORDO
100
AcDbLine
 62
7
  6
CONTINUOUS
 10
-31.1789714962
 20
22.2069814942
 11
-30.4466969441
 21
22.2133719574
  0
LINE
  5
3A5
100
AcDbEntity
  8
RACCORDO
100
AcDbLine
 62
250
  6
CONTINUOUS
 10
-31.1789714962
 20
22.4057549444
 11
-30.1631248425
 21
22.4146201039
  0
LINE
  5
3A6
100
AcDbEntity
  8
RACCORDO
100
AcDbLine
 62
250
  6
CONTINUOUS
 10
-30.1631248425
 20
22.5853798961
 11
-31.1789714962
 21
22.5942450556
  0
LINE
  5
3A7
100
AcDbEntity
  8
RACCORDO
100
AcDbLine
 62
7
  6
CONTINUOUS
 10
-30.4466969441
 20
22.7866280426
 11
-31.1789714962
 21
22.7930185058
  0
LINE
  5
3A8
100
AcDbEntity
  8
RACCORDO
100
AcDbLine
 62
250
  6
CONTINUOUS
 10
-30.0317196913
 20
23.0416442642
 11
-31.1789714962
 21
23.243935711
  0
LINE
  5
3A9
100
AcDbEntity
  8
RACCORDO
100
AcDbLine
 62
7
  6
CONTINUOUS
 10
-29.9987353629
 20
23.2386058148
 11
-31.1789714962
 21
23.4467132887
  0
LINE
  5
3AA
100
AcDbEntity
  8
RACCORDO
100
AcDbLine
 62
250
  6
CONTINUOUS
 10
-31.1789714962
 20
25.8530366787
 11
-32.6920599703
 21
25.8134150626
  0
LINE
  5
3AB
100
AcDbEntity
  8
RACCORDO
100
AcDbLine
 62
7
  6
CONTINUOUS
 10
-31.1789714962
 20
26.3528653412
 11
-32.6920599703
 21
26.3132437251
  0
LINE
  5
3AC
100
AcDbEntity
  8
RACCORDO
100
AcDbLine
 62
250
  6
CONTINUOUS
 10
-32.6920599703
 20
25.8134150626
 11
-33.1789714962
 21
25.8134150626
  0
LWPOLYLINE
  5
3AD
100
AcDbEntity
  8
0
100
AcDbPolyline
 62
7
  6
CONTINUOUS
 90
3
 70
0
 43
0.3500000006
 10
-45.9080625916
 20
37.9237083435
 10
-47.4080630493
 20
37.9237083435
 10
-46.7652050629
 20
40.2808512726
  0
LWPOLYLINE
  5
3AE
100
AcDbEntity
  8
0
100
AcDbPolyline
 62
7
  6
CONTINUOUS
 90
13
 70
0
 43
0.3500000006
 10
-32.6138457184
 20
49.1514104919
 10
-32.8995591202
 20
49.3656949768
 10
-32.8995591202
 20
50.0085529633
 10
-32.6138457184
 20
50.4371264648
 10
-31.9709877319
 20
50.4371264648
 10
-31.6852743301
 20
50.0085529633
 10
-31.6852743301
 20
49.3656949768
 10
-31.9709877319
 20
49.1514104919
 10
-31.5424164963
 20
48.7228415222
 10
-31.5424164963
 20
47.8656990509
 10
-31.9709877319
 20
47.4371255493
 10
-32.6138457184
 20
47.4371255493
 10
-33.042416954
 20
47.8656990509
  0
ARC
  5
3AF
100
AcDbEntity
  8
RACCORDO
100
AcDbCircle
 62
7
  6
CONTINUOUS
 10
-32.3933810796
 20
-25.3207221146
 40
1.0
100
AcDbArc
 50
258.0135711831
 51
268.5
  0
ARC
  5
3B0
100
AcDbEntity
  8
RACCORDO
100
AcDbCircle
 62
7
  6
CONTINUOUS
 10
-35.3487190248
 20
-25.2044218162
 40
0.5
100
AcDbArc
 50
174.0
 51
258.0135711831
  0
ARC
  5
3B1
100
AcDbEntity
  8
RACCORDO
100
AcDbCircle
 62
7
  6
CONTINUOUS
 10
-32.6789714962
 20
25.8134150626
 40
0.5
100
AcDbArc
 50
91.5
 51
180.0
  0
ARC
  5
3B2
100
AcDbEntity
  8
RACCORDO
100
AcDbCircle
 62
7
  6
CONTINUOUS
 10
-28.3789714962
 20
-14.1031218234
 40
0.5
100
AcDbArc
 50
275.0
 51
360.0
  0
ARC
  5
3B3
100
AcDbEntity
  8
RACCORDO
100
AcDbCircle
 62
7
  6
CONTINUOUS
 10
-28.6789714962
 20
-1.0514692423
 40
0.5
100
AcDbArc
 50
280.0
 51
360.0
  0
ARC
  5
3B4
100
AcDbEntity
  8
RACCORDO
100
AcDbCircle
 62
250
  6
CONTINUOUS
 10
-28.6789714962
 20
-1.0514692423
 40
0.3
100
AcDbArc
 50
280.0
 51
360.0
  0
ARC
  5
3B5
100
AcDbEntity
  8
RACCORDO
100
AcDbCircle
 62
7
  6
CONTINUOUS
 10
-30.1289714962
 20
22.5
 40
0.75
100
AcDbArc
 50
280.0
 51
80.0
  0
ARC
  5
3B6
100
AcDbEntity
  8
RACCORDO
100
AcDbCircle
 62
7
  6
CONTINUOUS
 10
-30.1904146206
 20
21.0843724614
 40
0.5
100
AcDbArc
 50
44.5
 51
89.5
  0
ARC
  5
3B7
100
AcDbEntity
  8
RACCORDO
100
AcDbCircle
 62
7
  6
CONTINUOUS
 10
-29.9789714962
 20
20.8692063748
 40
0.5
100
AcDbArc
 50
0.0
 51
44.5
  0
ARC
  5
3B8
100
AcDbEntity
  8
RACCORDO
100
AcDbCircle
 62
7
  6
CONTINUOUS
 10
-28.6789714962
 20
1.0514692423
 40
0.5
100
AcDbArc
 50
0.0
 51
80.0
  0
ARC
  5
3B9
100
AcDbEntity
  8
RACCORDO
100
AcDbCircle
 62
250
  6
CONTINUOUS
 10
-28.6789714962
 20
1.0514692423
 40
0.3
100
AcDbArc
 50
0.0
 51
80.0
  0
ARC
  5
3BA
100
AcDbEntity
  8
RACCORDO
100
AcDbCircle
 62
7
  6
CONTINUOUS
 10
-29.6289714962
 20
19.9705138511
 40
0.15
100
AcDbArc
 50
270.5
 51
360.0
  0
ARC
  5
3BB
100
AcDbEntity
  8
0
100
AcDbCircle
 62
7
  6
CONTINUOUS
 10
-30.1558015775
 20
3.3941975915
 40
0.05
100
AcDbArc
 50
0.0
 51
58.4930902443
  0
ELLIPSE
  5
3BC
100
AcDbEntity
  8
RACCORDO
100
AcDbEllipse
 62
7
  6
CONTINUOUS
 10
-5.1335724144
 20
-25.9380002389
 30
0.0
 11
0.2001246081
 21
0.0002424734
 31
0.0
 40
0.2101264618
 41
1.5650302815
 42
3.0136535606
  0
ELLIPSE
  5
3BD
100
AcDbEntity
  8
RACCORDO
100
AcDbEllipse
 62
7
  6
CONTINUOUS
 10
5.1335724144
 20
-25.9380002389
 30
0.0
 11
0.2001246081
 21
-0.0002424734
 31
0.0
 40
0.2101264618
 41
0.127939093
 42
1.5765623721
  0
ELLIPSE
  5
3BE
100
AcDbEntity
  8
RACCORDO
100
AcDbEllipse
 62
7
  6
CONTINUOUS
 10
10.5526939449
 20
-25.8526939449
 30
0.0
 11
-0.35379574
 21
0.35379574
 31
0.0
 40
0.999315002
 41
-3.9266482006
 42
-2.3565371065
  0
ELLIPSE
  5
3BF
100
AcDbEntity
  8
RACCORDO
100
AcDbEllipse
 62
7
  6
CONTINUOUS
 10
10.5526939449
 20
25.8526939449
 30
0.0
 11
0.35379574
 21
0.35379574
 31
0.0
 40
0.999315002
 41
-0.7850555471
 42
0.7850555471
  0
ELLIPSE
  5
3C0
100
AcDbEntity
  8
RACCORDO
100
AcDbEllipse
 62
7
  6
CONTINUOUS
 10
-10.5526939449
 20
25.8526939449
 30
0.0
 11
0.35379574
 21
-0.35379574
 31
0.0
 40
0.999315002
 41
2.3565371065
 42
3.9266482006
  0
ELLIPSE
  5
3C1
100
AcDbEntity
  8
RACCORDO
100
AcDbEllipse
 62
7
  6
CONTINUOUS
 10
-10.5526939449
 20
-25.8526939449
 30
0.0
 11
0.35379574
 21
0.35379574
 31
0.0
 40
0.999315002
 41
-3.9266482006
 42
-2.3565371065
  0
ELLIPSE
  5
3C2
100
AcDbEntity
  8
RACCORDO
100
AcDbEllipse
 62
7
  6
CONTINUOUS
 10
-5.2327681997
 20
-26.1004707009
 30
0.0
 11
0.2002192177
 21
0.0005072039
 31
0.0
 40
0.2137758614
 41
3.131328897
 42
4.7005395399
  0
ELLIPSE
  5
3C3
100
AcDbEntity
  8
RACCORDO
100
AcDbEllipse
 62
7
  6
CONTINUOUS
 10
5.2327681997
 20
-26.1004707009
 30
0.0
 11
0.2002192177
 21
-0.0005072039
 31
0.0
 40
0.2137758614
 41
-1.5589468863
 42
0.0102637566
  0
ELLIPSE
  5
3C4
100
AcDbEntity
  8
DRAFT
100
AcDbEllipse
 62
7
  6
CONTINUOUS
 10
-13.8688593105
 20
-4.8
 30
0.0
 11
63.2804152257
 21
0.0
 31
0.0
 40
0.1761108909
 41
1.8251610131
 42
1.8478741742
  0
ELLIPSE
  5
3C5
100
AcDbEntity
  8
RACCORDO
100
AcDbEllipse
 62
7
  6
CONTINUOUS
 10
-29.7789714962
 20
20.8077476833
 30
0.0
 11
-0.0064728562
 21
0.4225035608
 31
0.0
 40
0.7098878919
 41
-3.154443869
 42
-2.6345261014
  0
ELLIPSE
  5
3C6
100
AcDbEntity
  8
RACCORDO
100
AcDbEllipse
 62
7
  6
CONTINUOUS
 10
-30.4484576164
 20
22.586635792
 30
0.0
 11
0.2853275264
 21
-0.0024688431
 31
0.0
 40
0.7009226047
 41
0.0060647732
 42
1.5706904684
  0
ELLIPSE
  5
3C7
100
AcDbEntity
  8
RACCORDO
100
AcDbEllipse
 62
7
  6
CONTINUOUS
 10
-30.4484576164
 20
22.413364208
 30
0.0
 11
0.2853275264
 21
0.0024688431
 31
0.0
 40
0.7009226047
 41
-1.5706904684
 42
-0.0060647732
  0
ELLIPSE
  5
3C8
100
AcDbEntity
  8
RACCORDO
100
AcDbEllipse
 62
7
  6
CONTINUOUS
 10
-28.7696850186
 20
-14.4886417704
 30
0.0
 11
0.0019692578
 21
0.1504938457
 31
0.0
 40
0.5746463893
 41
-3.0837963866
 42
-1.5130000598
  0
ELLIPSE
  5
3C9
100
AcDbEntity
  8
DRAFT
100
AcDbEllipse
 62
7
  6
CONTINUOUS
 10
-56.0456974508
 20
-4.8
 30
0.0
 11
78.6921919963
 21
0.0
 31
0.0
 40
0.153091273
 41
1.2306518275
 42
1.2492859392
  0
ENDSEC
  0
SECTION
  2
OBJECTS
  0
DICTIONARY
  5
C
100
AcDbDictionary
280
0
281
1
  3
ACAD_GROUP
350
D
  3
ACAD_MLINESTYLE
350
17
  3
ACAD_LAYOUT
350
1A
  3
ACAD_PLOTSETTINGS
350
19
  3
ACAD_PLOTSTYLENAME
350
E
  0
DICTIONARY
  5
D
102
{ACAD_REACTORS
330
C
102
}
100
AcDbDictionary
280
0
281
1
  0
ACDBDICTIONARYWDFLT
  5
E
102
{ACAD_REACTORS
330
C
102
}
100
AcDbDictionary
281
1
  3
Normal
350
F
100
AcDbDictionaryWithDefault
340
F
  0
DICTIONARY
  5
17
102
{ACAD_REACTORS
330
C
102
}
100
AcDbDictionary
280
0
281
1
  3
Standard
350
18
  0
DICTIONARY
  5
19
102
{ACAD_REACTORS
330
C
102
}
100
AcDbDictionary
281
1
  0
DICTIONARY
  5
1A
102
{ACAD_REACTORS
330
C
102
}
100
AcDbDictionary
281
1
  3
Model
350
3CA
  3
Layout1
350
3CB
  0
ACDBPLACEHOLDER
  5
F
102
{ACAD_REACTORS
330
E
102
}
  0
MLINESTYLE
  5
18
102
{ACAD_REACTORS
330
17
102
}
100
AcDbMlineStyle
  2
STANDARD
 70
0
  3

 62
256
 51
90.0
 52
90.0
 71
2
 49
0.5
 62
256
  6
BYLAYER
 49
-0.5
 62
256
  6
BYLAYER
  0
LAYOUT
  5
3CA
102
{ACAD_REACTORS
330
1A
102
}
100
AcDbPlotSettings
  1

  2
none_device
  4
ISO_A4_(297.00_x_210.00_MM)
  6

 40
0.0
 41
0.0
 42
0.0
 43
0.0
 44
297.0
 45
210.0
 46
0.0
 47
0.0
 48
0.0
 49
0.0
140
0.0
141
0.0
142
1.0
143
1.0
 70
1024
 72
1
 73
0
 74
0
  7

 75
0
147
1.0
148
0.0
149
0.0
100
AcDbLayout
  1
Model
 70
0
 71
0
 10
0.0
 20
0.0
 11
297.0
 21
210.0
 12
0.0
 22
0.0
 32
0.0
 14
0.0
 24
0.0
 34
0.0
 15
0.0
 25
0.0
 35
0.0
146
0.0
 13
0.0
 23
0.0
 33
0.0
 16
1.0
 26
0.0
 36
0.0
 17
0.0
 27
1.0
 37
0.0
 76
0
330
21A
345
0
346
0
  0
LAYOUT
  5
3CB
102
{ACAD_REACTORS
330
1A
102
}
100
AcDbPlotSettings
  1

  2
none_device
  4
ISO_A4_(297.00_x_210.00_MM)
  6

 40
0.0
 41
0.0
 42
0.0
 43
0.0
 44
297.0
 45
210.0
 46
0.0
 47
0.0
 48
0.0
 49
0.0
140
0.0
141
0.0
142
1.0
143
1.0
 70
0
 72
1
 73
0
 74
0
  7

 75
0
147
1.0
148
0.0
149
0.0
100
AcDbLayout
  1
Layout1
 70
0
 71
1
 10
0.0
 20
0.0
 11
297.0
 21
210.0
 12
0.0
 22
0.0
 32
0.0
 14
0.0
 24
0.0
 34
0.0
 15
0.0
 25
0.0
 35
0.0
146
0.0
 13
0.0
 23
0.0
 33
0.0
 16
1.0
 26
0.0
 36
0.0
 17
0.0
 27
1.0
 37
0.0
 76
0
330
21B
345
0
346
0
  0
ENDSEC
  0
EOF
