  0
SECTION
  2
HEADER
  9
$ACADVER
  1
AC1024
  9
$DWGCODEPAGE
  3
ANSI_1252
  9
$EXTMAX
 10
210.0
 20
297.0
 30
0.0
  9
$EXTMIN
 10
0.0
 20
0.0
 30
0.0
  9
$LIMMIN
 10
0.0
 20
0.0
  9
$LIMMAX
 10
210.0
 20
297.0
  9
$VIEWCTR
 10
105.0
 20
148.5
  9
$VIEWSIZE
 40
297.0
  9
$CLAYER
  8
0
  9
$LTSCALE
 40
19.36
  9
$CELTYPE
  6
BYLAYER
  9
$DIMSCALE
 40
1.0
  9
$DIMASZ
 40
3.0
  9
$DIMEXO
 40
0.5
  9
$DIMDLI
 40
13.376
  9
$DIMEXE
 40
1.5
  9
$DIMCEN
 40
3.168
  9
$DIMLFAC
 40
1.0
  9
$DIMBLK
  1
_FILLED
  9
$DIMALT
 70
0
  9
$DIMALTF
 40
0.0393700787
  9
$DIMTXT
 40
3.0
  9
$DIMTOL
 70
1
  9
$DIMLIM
 70
0
  9
$DIMTFAC
 40
1.0
  9
$DIMTP
 40
0.01
  9
$DIMTM
 40
0.01
  9
$DIMGAP
 40
0.625
  9
$DIMDSEP
 70
44
  9
$AUNITS
 70
0
  9
$PDMODE
 70
3
  9
$PDSIZE
 40
3.0
  9
$HANDSEED
  5
2DA
  9
$TILEMODE
 70
1
  9
$MEASUREMENT
 70
1
  9
$INSUNITS
 70
4
  0
ENDSEC
  0
SECTION
  2
CLASSES
  0
CLASS
  1
ACDBDICTIONARYWDFLT
  2
AcDbDictionaryWithDefault
  3
AutoCAD 2000
 90
0
 91
1
280
0
281
0
  0
CLASS
  1
ACDBPLACEHOLDER
  2
AcDbPlaceHolder
  3
AutoCAD 2000
 90
0
 91
1
280
0
281
0
  0
CLASS
  1
LAYOUT
  2
AcDbLayout
  3
AutoCAD 2000
 90
0
 91
0
280
0
281
0
  0
ENDSEC
  0
SECTION
  2
TABLES
  0
TABLE
  2
VPORT
  5
8
100
AcDbSymbolTable
 70
2
  0
VPORT
  5
1F4
100
AcDbSymbolTableRecord
100
AcDbViewportTableRecord
  2
*ACTIVE
 70
0
 10
0.0
 20
0.0
 11
1.0
 21
1.0
 12
105.0
 22
148.5
 13
0.0
 23
0.0
 14
1.0
 24
1.0
 15
0.0
 25
0.0
 16
0.0
 26
0.0
 36
1.0
 17
0.0
 27
0.0
 37
0.0
 40
297.0
 41
0.7070707071
 42
50.0
 43
0.0
 44
0.0
 50
0.0
 51
0.0
 71
0
 72
100
 73
1
 74
1
 75
0
 76
0
 77
0
 78
0
  0
ENDTAB
  0
TABLE
  2
LTYPE
  5
5
100
AcDbSymbolTable
 70
6
  0
LTYPE
  5
14
100
AcDbSymbolTableRecord
100
AcDbLinetypeTableRecord
  2
BYBLOCK
 70
0
  3

 72
65
 73
0
 40
0.0
  0
LTYPE
  5
15
100
AcDbSymbolTableRecord
100
AcDbLinetypeTableRecord
  2
BYLAYER
 70
0
  3

 72
65
 73
0
 40
0.0
  0
LTYPE
  5
16
100
AcDbSymbolTableRecord
100
AcDbLinetypeTableRecord
  2
CONTINUOUS
 70
64
  3
Solid line
 72
65
 73
0
 40
0.0
  0
LTYPE
  5
1F5
100
AcDbSymbolTableRecord
100
AcDbLinetypeTableRecord
  2
CENTER
 70
64
  3
____ _ ____ _ ____ _ ____ _ ____ _ ____ _ ____
 72
65
 73
4
 40
0.6
 49
0.375
 74
0
 49
-0.075
 74
0
 49
0.075
 74
0
 49
-0.075
 74
0
  0
LTYPE
  5
1F6
100
AcDbSymbolTableRecord
100
AcDbLinetypeTableRecord
  2
HIDDEN
 70
64
  3
- - - - - - - - - - - - - - - - - - - -
 72
65
 73
2
 40
0.2
 49
0.1
 74
0
 49
-0.1
 74
0
  0
LTYPE
  5
1F7
100
AcDbSymbolTableRecord
100
AcDbLinetypeTableRecord
  2
PHANTOM
 70
64
  3
_____ _ _ _____ _ _ _____ _ _ _____
 72
65
 73
6
 40
0.8
 49
0.45
 74
0
 49
-0.05
 74
0
 49
0.1
 74
0
 49
-0.05
 74
0
 49
0.1
 74
0
 49
-0.05
 74
0
  0
LTYPE
  5
1F8
100
AcDbSymbolTableRecord
100
AcDbLinetypeTableRecord
  2
DOT
 70
64
  3
. . . . . . . . . . . . . . . . . . . .
 72
65
 73
2
 40
0.2
 49
0.1
 74
0
 49
-0.1
 74
0
  0
LTYPE
  5
1F9
100
AcDbSymbolTableRecord
100
AcDbLinetypeTableRecord
  2
DASHED
 70
64
  3
- - - - - - - - - - - - - - - - - - - -
 72
65
 73
2
 40
0.2
 49
0.1
 74
0
 49
-0.1
 74
0
  0
ENDTAB
  0
TABLE
  2
LAYER
  5
2
100
AcDbSymbolTable
 70
36
  0
LAYER
  5
10
100
AcDbSymbolTableRecord
100
AcDbLayerTableRecord
  2
0
 70
0
 62
7
  6
CONTINUOUS
370
-3
390
F
  0
LAYER
  5
1FA
100
AcDbSymbolTableRecord
100
AcDbLayerTableRecord
  2
DEFAULT_1
 70
0
 62
7
  6
CENTER
370
-3
390
F
  0
LAYER
  5
1FB
100
AcDbSymbolTableRecord
100
AcDbLayerTableRecord
  2
DEFAULT_2
 70
0
 62
7
  6
HIDDEN
370
-3
390
F
  0
LAYER
  5
1FC
100
AcDbSymbolTableRecord
100
AcDbLayerTableRecord
  2
DEFAULT_3
 70
0
 62
7
  6
PHANTOM
370
-3
390
F
  0
LAYER
  5
1FD
100
AcDbSymbolTableRecord
100
AcDbLayerTableRecord
  2
ASSI
 70
0
 62
7
  6
CONTINUOUS
370
-3
390
F
  0
LAYER
  5
1FE
100
AcDbSymbolTableRecord
100
AcDbLayerTableRecord
  2
COORDINATE
 70
0
 62
7
  6
CONTINUOUS
370
-3
390
F
  0
LAYER
  5
1FF
100
AcDbSymbolTableRecord
100
AcDbLayerTableRecord
  2
COPY_PUBLISH
 70
0
 62
7
  6
CONTINUOUS
370
-3
390
F
  0
LAYER
  5
200
100
AcDbSymbolTableRecord
100
AcDbLayerTableRecord
  2
COSMETICI
 70
0
 62
7
  6
CONTINUOUS
370
-3
390
F
  0
LAYER
  5
201
100
AcDbSymbolTableRecord
100
AcDbLayerTableRecord
  2
CURVE
 70
0
 62
7
  6
CONTINUOUS
370
-3
390
F
  0
LAYER
  5
202
100
AcDbSymbolTableRecord
100
AcDbLayerTableRecord
  2
DRAFT
 70
0
 62
7
  6
CONTINUOUS
370
-3
390
F
  0
LAYER
  5
203
100
AcDbSymbolTableRecord
100
AcDbLayerTableRecord
  2
IMPORT_IGES
 70
0
 62
7
  6
CONTINUOUS
370
-3
390
F
  0
LAYER
  5
204
100
AcDbSymbolTableRecord
100
AcDbLayerTableRecord
  2
INTF_1
 70
0
 62
7
  6
CONTINUOUS
370
-3
390
F
  0
LAYER
  5
205
100
AcDbSymbolTableRecord
100
AcDbLayerTableRecord
  2
INTF_2
 70
0
 62
7
  6
CONTINUOUS
370
-3
390
F
  0
LAYER
  5
206
100
AcDbSymbolTableRecord
100
AcDbLayerTableRecord
  2
INTF_4
 70
0
 62
7
  6
CONTINUOUS
370
-3
390
F
  0
LAYER
  5
207
100
AcDbSymbolTableRecord
100
AcDbLayerTableRecord
  2
NOTE
 70
0
 62
7
  6
CONTINUOUS
370
-3
390
F
  0
LAYER
  5
208
100
AcDbSymbolTableRecord
100
AcDbLayerTableRecord
  2
PIANI
 70
0
 62
7
  6
CONTINUOUS
370
-3
390
F
  0
LAYER
  5
209
100
AcDbSymbolTableRecord
100
AcDbLayerTableRecord
  2
PUNTI
 70
0
 62
7
  6
CONTINUOUS
370
-3
390
F
  0
LAYER
  5
20A
100
AcDbSymbolTableRecord
100
AcDbLayerTableRecord
  2
RACCORDO
 70
0
 62
7
  6
CONTINUOUS
370
-3
390
F
  0
LAYER
  5
20B
100
AcDbSymbolTableRecord
100
AcDbLayerTableRecord
  2
SIMBOLI
 70
0
 62
7
  6
CONTINUOUS
370
-3
390
F
  0
LAYER
  5
20C
100
AcDbSymbolTableRecord
100
AcDbLayerTableRecord
  2
SMUSSO
 70
0
 62
7
  6
CONTINUOUS
370
-3
390
F
  0
LAYER
  5
20D
100
AcDbSymbolTableRecord
100
AcDbLayerTableRecord
  2
SNAPLINE
 70
0
 62
7
  6
CONTINUOUS
370
-3
390
F
  0
LAYER
  5
20E
100
AcDbSymbolTableRecord
100
AcDbLayerTableRecord
  2
SUPERFICI
 70
0
 62
7
  6
CONTINUOUS
370
-3
390
F
  0
LAYER
  5
20F
100
AcDbSymbolTableRecord
100
AcDbLayerTableRecord
  2
TRASH
 70
0
 62
7
  6
CONTINUOUS
370
-3
390
F
  0
ENDTAB
  0
TABLE
  2
STYLE
  5
3
100
AcDbSymbolTable
 70
1
  0
STYLE
  5
11
100
AcDbSymbolTableRecord
100
AcDbTextStyleTableRecord
  2
STANDARD
 70
0
 40
0.0
 41
0.8
 50
0.0
 71
0
 42
0.2
  3
txt
  4

  0
STYLE
  5
210
100
AcDbSymbolTableRecord
100
AcDbTextStyleTableRecord
  2
TEXTSTYLE_1
 70
0
 40
0.0
 41
0.8
 50
0.0
 71
0
 42
0.2
  3
gdt
  4

  0
ENDTAB
  0
TABLE
  2
VIEW
  5
6
100
AcDbSymbolTable
 70
0
  0
ENDTAB
  0
TABLE
  2
UCS
  5
7
100
AcDbSymbolTable
 70
0
  0
ENDTAB
  0
TABLE
  2
APPID
  5
9
100
AcDbSymbolTable
 70
1
  0
APPID
  5
211
100
AcDbSymbolTableRecord
100
AcDbRegAppTableRecord
  2
ACAD
 70
0
  0
ENDTAB
  0
TABLE
  2
BLOCK_RECORD
  5
1
100
AcDbSymbolTable
 70
0
  0
BLOCK_RECORD
  5
212
100
AcDbSymbolTableRecord
100
AcDbBlockTableRecord
  2
*Model_Space
  0
BLOCK_RECORD
  5
213
100
AcDbSymbolTableRecord
100
AcDbBlockTableRecord
  2
*Paper_Space
  0
BLOCK_RECORD
  5
214
100
AcDbSymbolTableRecord
100
AcDbBlockTableRecord
  2
_FILLED
  0
BLOCK_RECORD
  5
215
100
AcDbSymbolTableRecord
100
AcDbBlockTableRecord
  2
*D0
  0
BLOCK_RECORD
  5
216
100
AcDbSymbolTableRecord
100
AcDbBlockTableRecord
  2
*D1
  0
BLOCK_RECORD
  5
217
100
AcDbSymbolTableRecord
100
AcDbBlockTableRecord
  2
*D2
  0
ENDTAB
  0
TABLE
  2
DIMSTYLE
  5
A
100
AcDbSymbolTable
 70
1
100
AcDbDimStyleTable
 71
0
  0
DIMSTYLE
105
218
100
AcDbSymbolTableRecord
100
AcDbDimStyleTableRecord
  2
STANDARD
 70
0
  3

  4

 40
1.0
 41
3.0
 42
0.5
 43
0.38
 44
1.5
 45
0.0
 46
0.0
 47
0.01
 48
0.01
140
3.0
141
0.09
142
0.0
143
25.4
144
1.0
145
0.0
146
1.0
147
0.625
 71
1
 72
0
 73
0
 74
0
 75
0
 76
0
 77
1
 78
8
 79
2
170
0
171
1
172
0
173
0
174
0
175
0
176
0
177
0
178
0
270
2
179
2
271
2
272
2
273
2
274
2
275
0
280
0
281
0
282
0
283
1
284
8
285
0
286
0
287
3
288
0
340
11
278
44
341
214
342
214
343
214
344
214
  0
DIMSTYLE
105
219
100
AcDbSymbolTableRecord
100
AcDbDimStyleTableRecord
  2
DIMSTYLE_1
 70
0
  3

  4

 40
1.0
 41
3.0
 42
0.5
 43
0.38
 44
1.5
 45
0.0
 46
0.0
 47
0.0
 48
0.0
140
3.0
141
0.09
142
0.0
143
25.4
144
1.0
145
0.0
146
1.0
147
0.75
 71
0
 72
0
 73
0
 74
0
 75
0
 76
0
 77
1
 78
8
 79
2
170
0
171
1
172
0
173
0
174
0
175
0
176
0
177
0
178
0
270
2
179
2
271
2
272
2
273
2
274
2
275
0
280
0
281
0
282
0
283
1
284
8
285
0
286
0
287
3
288
0
340
11
278
44
341
214
342
214
343
214
344
214
  0
DIMSTYLE
105
21A
100
AcDbSymbolTableRecord
100
AcDbDimStyleTableRecord
  2
DIMSTYLE_2
 70
0
  3

  4

 40
1.0
 41
3.0
 42
0.5
 43
0.38
 44
1.5
 45
0.0
 46
0.0
 47
0.0
 48
0.0
140
3.0
141
0.09
142
0.0
143
25.4
144
1.0
145
0.0
146
1.0
147
0.75
 71
0
 72
0
 73
0
 74
0
 75
0
 76
0
 77
1
 78
8
 79
2
170
0
171
1
172
0
173
0
174
0
175
0
176
0
177
0
178
0
270
2
179
2
271
1
272
1
273
2
274
2
275
0
280
0
281
0
282
0
283
1
284
8
285
0
286
0
287
3
288
0
340
11
278
44
341
214
342
214
343
214
344
214
  0
ENDTAB
  0
ENDSEC
  0
SECTION
  2
BLOCKS
  0
BLOCK
  5
20
100
AcDbEntity
  8
0
100
AcDbBlockBegin
  2
*Model_Space
 70
0
 10
0.0
 20
0.0
 30
0.0
  3
*Model_Space
  1

  0
ENDBLK
  5
21
100
AcDbEntity
  8
0
100
AcDbBlockEnd
  0
BLOCK
  5
1C
100
AcDbEntity
  8
0
100
AcDbBlockBegin
  2
*Paper_Space
 70
0
 10
0.0
 20
0.0
 30
0.0
  3
*Paper_Space
  1

  0
ENDBLK
  5
1D
100
AcDbEntity
  8
0
100
AcDbBlockEnd
  0
BLOCK
  5
21B
100
AcDbEntity
  8
0
100
AcDbBlockBegin
  2
_FILLED
 70
64
 10
0.0
 20
0.0
  3
_FILLED
  1

  0
SOLID
  5
21C
100
AcDbEntity
  8
0
  6
BYBLOCK
 62
0
100
AcDbTrace
 10
0.0
 20
0.0
 11
-1.0
 21
0.3166666667
 12
-1.0
 22
-0.3166666667
 13
-1.0
 23
-0.3166666667
  0
ENDBLK
  5
21D
100
AcDbEntity
  8
0
  6
BYBLOCK
 62
0
100
AcDbBlockEnd
  0
BLOCK
  5
21E
100
AcDbEntity
  8
0
100
AcDbBlockBegin
 62
7
  6
CONTINUOUS
  2
*D0
 70
65
 10
0.0
 20
0.0
  3
*D0
  1

  0
LINE
  5
21F
100
AcDbEntity
  8
0
100
AcDbLine
 62
7
  6
CONTINUOUS
 10
-22.4915059287
 20
22.8262444765
 11
-22.4915059287
 21
35.8678945854
  0
LINE
  5
220
100
AcDbEntity
  8
0
100
AcDbLine
 62
7
  6
CONTINUOUS
 10
22.2084940713
 20
22.8262444765
 11
22.2084940713
 21
35.8678945854
  0
LINE
  5
221
100
AcDbEntity
  8
0
100
AcDbLine
 62
7
  6
CONTINUOUS
 10
-22.4915059287
 20
34.3678945854
 11
-0.1415059287
 21
34.3678945854
  0
LINE
  5
222
100
AcDbEntity
  8
0
100
AcDbLine
 62
7
  6
CONTINUOUS
 10
22.2084940713
 20
34.3678945854
 11
-0.1415059287
 21
34.3678945854
  0
INSERT
  5
223
100
AcDbEntity
  8
0
100
AcDbBlockReference
 62
7
  6
CONTINUOUS
  2
_FILLED
 10
-22.4915059287
 20
34.3678945854
 41
3.0
 42
3.0
 43
3.0
 50
180.0
  0
INSERT
  5
224
100
AcDbEntity
  8
0
100
AcDbBlockReference
 62
7
  6
CONTINUOUS
  2
_FILLED
 10
22.2084940713
 20
34.3678945854
 41
3.0
 42
3.0
 43
3.0
  0
ENDBLK
  5
225
100
AcDbEntity
  8
0
  6
BYBLOCK
 62
0
100
AcDbBlockEnd
  0
BLOCK
  5
226
100
AcDbEntity
  8
0
100
AcDbBlockBegin
 62
7
  6
CONTINUOUS
  2
*D1
 70
65
 10
0.0
 20
0.0
  3
*D1
  1

  0
LINE
  5
227
100
AcDbEntity
  8
0
100
AcDbLine
 62
7
  6
CONTINUOUS
 10
22.1807949755
 20
26.3642002919
 11
31.7181545594
 21
26.3642002919
  0
LINE
  5
228
100
AcDbEntity
  8
0
100
AcDbLine
 62
7
  6
CONTINUOUS
 10
22.1807949755
 20
-26.3800588414
 11
31.7181545594
 21
-26.3800588414
  0
LINE
  5
229
100
AcDbEntity
  8
0
100
AcDbLine
 62
7
  6
CONTINUOUS
 10
30.2181545594
 20
26.3642002919
 11
30.2181545594
 21
-0.0079292747
  0
LINE
  5
22A
100
AcDbEntity
  8
0
100
AcDbLine
 62
7
  6
CONTINUOUS
 10
30.2181545594
 20
-26.3800588414
 11
30.2181545594
 21
-0.0079292747
  0
INSERT
  5
22B
100
AcDbEntity
  8
0
100
AcDbBlockReference
 62
7
  6
CONTINUOUS
  2
_FILLED
 10
30.2181545594
 20
26.3642002919
 41
3.0
 42
3.0
 43
3.0
 50
90.0
  0
INSERT
  5
22C
100
AcDbEntity
  8
0
100
AcDbBlockReference
 62
7
  6
CONTINUOUS
  2
_FILLED
 10
30.2181545594
 20
-26.3800588414
 41
3.0
 42
3.0
 43
3.0
 50
270.0
  0
ENDBLK
  5
22D
100
AcDbEntity
  8
0
  6
BYBLOCK
 62
0
100
AcDbBlockEnd
  0
BLOCK
  5
22E
100
AcDbEntity
  8
0
100
AcDbBlockBegin
 62
7
  6
CONTINUOUS
  2
*D2
 70
65
 10
0.0
 20
0.0
  3
*D2
  1

  0
LINE
  5
22F
100
AcDbEntity
  8
0
100
AcDbLine
 62
7
  6
CONTINUOUS
 10
-43.2770252887
 20
26.3054857878
 11
-43.2770252887
 21
35.9121318575
  0
LINE
  5
230
100
AcDbEntity
  8
0
100
AcDbLine
 62
7
  6
CONTINUOUS
 10
-39.4770252887
 20
22.8262444765
 11
-39.4770252887
 21
35.9121318575
  0
LINE
  5
231
100
AcDbEntity
  8
0
100
AcDbLine
 62
7
  6
CONTINUOUS
 10
-43.2770252887
 20
34.4121318575
 11
-47.2770252887
 21
34.4121318575
  0
LINE
  5
232
100
AcDbEntity
  8
0
100
AcDbLine
 62
7
  6
CONTINUOUS
 10
-47.2770252887
 20
34.4121318575
 11
-41.3770252887
 21
34.4121318575
  0
LINE
  5
233
100
AcDbEntity
  8
0
100
AcDbLine
 62
7
  6
CONTINUOUS
 10
-39.4770252887
 20
34.4121318575
 11
-27.6924427134
 21
34.4121318575
  0
LINE
  5
234
100
AcDbEntity
  8
0
100
AcDbLine
 62
7
  6
CONTINUOUS
 10
-27.6924427134
 20
34.4121318575
 11
-41.3770252887
 21
34.4121318575
  0
INSERT
  5
235
100
AcDbEntity
  8
0
100
AcDbBlockReference
 62
7
  6
CONTINUOUS
  2
_FILLED
 10
-43.2770252887
 20
34.4121318575
 41
3.0
 42
3.0
 43
3.0
  0
INSERT
  5
236
100
AcDbEntity
  8
0
100
AcDbBlockReference
 62
7
  6
CONTINUOUS
  2
_FILLED
 10
-39.4770252887
 20
34.4121318575
 41
3.0
 42
3.0
 43
3.0
 50
180.0
  0
ENDBLK
  5
237
100
AcDbEntity
  8
0
  6
BYBLOCK
 62
0
100
AcDbBlockEnd
  0
ENDSEC
  0
SECTION
  2
ENTITIES
  0
DIMENSION
  5
238
100
AcDbEntity
  8
0
100
AcDbDimension
 62
7
  6
CONTINUOUS
  2
*D0
 10
22.2084940713
 20
34.3678945854
 11
-4.5343630715
 21
34.3678945854
 70
160
 71
2
 72
2
 41
0.9
 42
44.7
  3
DIMSTYLE_1
100
AcDbAlignedDimension
 13
-22.4915059287
 23
22.3262444765
 14
22.2084940713
 24
22.3262444765
100
AcDbRotatedDimension
  0
DIMENSION
  5
239
100
AcDbEntity
  8
0
100
AcDbDimension
 62
7
  6
CONTINUOUS
  2
*D1
 10
30.2181545594
 20
-26.3800588414
 11
30.2181545594
 21
-4.2936435605
 70
160
 71
2
 72
2
 41
0.9
 42
52.7442591333
  3
DIMSTYLE_2
100
AcDbAlignedDimension
 13
21.6807949755
 23
26.3642002919
 14
21.6807949755
 24
-26.3800588414
 50
270.0
100
AcDbRotatedDimension
  0
DIMENSION
  5
23A
100
AcDbEntity
  8
0
100
AcDbDimension
 62
7
  6
CONTINUOUS
  2
*D2
 10
-39.4770252887
 20
34.4121318575
 11
-33.9067284277
 21
34.4121318575
 70
160
 71
1
 72
2
 41
0.9
 42
3.8
  3
DIMSTYLE_1
100
AcDbAlignedDimension
 13
-43.2770252887
 23
25.8054857878
 14
-39.4770252887
 24
22.3262444765
100
AcDbRotatedDimension
  0
LWPOLYLINE
  5
23B
100
AcDbEntity
  8
ASSI
100
AcDbPolyline
 62
250
  6
CONTINUOUS
 90
16
 70
0
 10
21.6219091339
 20
-26.3211729998
 10
21.6734094821
 20
-26.3184774368
 10
21.7245636595
 20
-26.3104475279
 10
21.7748128976
 20
-26.2971062897
 10
21.8236597109
 20
-26.2785084153
 10
21.8704804877
 20
-26.2548109564
 10
21.9145642767
 20
-26.2263372104
 10
21.9553701232
 20
-26.1934497115
 10
21.9925133915
 20
-26.1564726177
 10
22.0255954492
 20
-26.1157983193
 10
22.0542539153
 20
-26.0718603003
 10
22.0781606367
 20
-26.0251477341
 10
22.0970414324
 20
-25.9761899466
 10
22.1106869895
 20
-25.9255321924
 10
22.1189494613
 20
-25.8737268065
 10
22.1217377964
 20
-25.8213443373
  0
LWPOLYLINE
  5
23C
100
AcDbEntity
  8
ASSI
100
AcDbPolyline
 62
250
  6
CONTINUOUS
 90
16
 70
0
 10
-21.9049209913
 20
-26.3211729998
 10
-21.9564327088
 20
-26.3184762512
 10
-22.0075954858
 20
-26.3104433232
 10
-22.0578503855
 20
-26.2970980359
 10
-22.1066997773
 20
-26.2784959498
 10
-22.1535203563
 20
-26.2547948793
 10
-22.1976018592
 20
-26.2263186113
 10
-22.2384031909
 20
-26.1934307
 10
-22.2755408192
 20
-26.1564554007
 10
-22.3086181982
 20
-26.1157833932
 10
-22.3372734779
 20
-26.0718470126
 10
-22.3611777105
 20
-26.0251360699
 10
-22.3800564
 20
-25.9761804206
 10
-22.39370028
 20
-25.9255254896
 10
-22.4019616893
 20
-25.8737233122
 10
-22.4047496537
 20
-25.8213443373
  0
LINE
  5
23D
100
AcDbEntity
  8
ASSI
100
AcDbLine
 62
7
  6
CONTINUOUS
 10
-21.9638068328
 20
-26.3800588414
 11
21.6807949755
 21
-26.3800588414
  0
LINE
  5
23E
100
AcDbEntity
  8
ASSI
100
AcDbLine
 62
250
  6
CONTINUOUS
 10
-21.9049209913
 20
-26.3211729998
 11
21.6219091339
 21
-26.3211729998
  0
LINE
  5
23F
100
AcDbEntity
  8
ASSI
100
AcDbLine
 62
250
  6
CONTINUOUS
 10
-22.4047496537
 20
-25.8213443373
 11
22.1217377964
 21
-25.8213443373
  0
LWPOLYLINE
  5
240
100
AcDbEntity
  8
ASSI
100
AcDbPolyline
 62
250
  6
CONTINUOUS
 90
16
 70
0
 10
-22.4047496537
 20
0.7305480321
 10
-22.4019721309
 20
0.6781447189
 10
-22.3937180745
 20
0.6263189651
 10
-22.3800784828
 20
0.5756417807
 10
-22.3612011384
 20
0.5266658025
 10
-22.3372954374
 20
0.4799368663
 10
-22.3086359377
 20
0.4359850756
 10
-22.2755512543
 20
0.3953000856
 10
-22.2384039039
 20
0.3583153132
 10
-22.197592482
 20
0.3254230295
 10
-22.1535006174
 20
0.2969468509
 10
-22.1066706238
 20
0.2732504033
 10
-22.0578174645
 20
0.2546582109
 10
-22.0075666619
 20
0.2413263904
 10
-21.9564148787
 20
0.2333078253
 10
-21.9049209913
 20
0.2306241845
  0
LINE
  5
241
100
AcDbEntity
  8
ASSI
100
AcDbLine
 62
7
  6
CONTINUOUS
 10
-22.4910597969
 20
-22.4715125485
 11
-22.4671181057
 21
-25.8837127893
  0
LINE
  5
242
100
AcDbEntity
  8
ASSI
100
AcDbLine
 62
7
  6
CONTINUOUS
 10
-22.4915059287
 20
22.3262444765
 11
-22.4915059287
 21
0.6727178577
  0
LINE
  5
243
100
AcDbEntity
  8
ASSI
100
AcDbLine
 62
7
  6
CONTINUOUS
 10
-22.4915059287
 20
-0.6885764072
 11
-22.4915059287
 21
-22.3421030259
  0
LINE
  5
244
100
AcDbEntity
  8
ASSI
100
AcDbLine
 62
250
  6
CONTINUOUS
 10
-22.4047496537
 20
25.8054857878
 11
-22.4047496537
 21
0.7305480321
  0
LINE
  5
245
100
AcDbEntity
  8
ASSI
100
AcDbLine
 62
250
  6
CONTINUOUS
 10
-22.4047496537
 20
-0.7464065816
 11
-22.4047496537
 21
-25.8213443373
  0
LINE
  5
246
100
AcDbEntity
  8
ASSI
100
AcDbLine
 62
250
  6
CONTINUOUS
 10
-21.9049209913
 20
0.2306241845
 11
-21.9049209913
 21
26.3053144503
  0
LINE
  5
247
100
AcDbEntity
  8
ASSI
100
AcDbLine
 62
250
  6
CONTINUOUS
 10
-21.9049209913
 20
-0.246482734
 11
-21.9049209913
 21
-26.3211729998
  0
LINE
  5
248
100
AcDbEntity
  8
ASSI
100
AcDbLine
 62
7
  6
CONTINUOUS
 10
-22.4910597969
 20
22.455653999
 11
-22.4671181057
 21
25.8678542398
  0
LINE
  5
249
100
AcDbEntity
  8
CURVE
100
AcDbLine
 62
7
  6
CONTINUOUS
 10
-12.3402852253
 20
15.0888516611
 11
-11.4882868645
 21
15.9408500219
  0
LINE
  5
24A
100
AcDbEntity
  8
CURVE
100
AcDbLine
 62
7
  6
CONTINUOUS
 10
-12.3402852253
 20
14.0932453132
 11
-10.4926805166
 21
15.9408500219
  0
LINE
  5
24B
100
AcDbEntity
  8
CURVE
100
AcDbLine
 62
7
  6
CONTINUOUS
 10
-11.3946327619
 20
14.0432914286
 11
-10.442726632
 21
14.9951975585
  0
LINE
  5
24C
100
AcDbEntity
  8
CURVE
100
AcDbLine
 62
250
  6
CONTINUOUS
 10
-10.4926805166
 20
-15.9567085714
 11
-12.2903313408
 21
-15.9567085714
  0
LINE
  5
24D
100
AcDbEntity
  8
ASSI
100
AcDbLine
 62
7
  6
CONTINUOUS
 10
-21.4829307127
 20
0.1814453699
 11
-21.4723053573
 21
0.1920707253
  0
LWPOLYLINE
  5
24E
100
AcDbEntity
  8
CURVE
100
AcDbPolyline
 62
250
  6
CONTINUOUS
 90
55
 70
0
 10
-10.4926805166
 20
-15.9567085714
 10
-10.4913695139
 20
-15.9566815912
 10
-10.4900537479
 20
-15.9566013939
 10
-10.4887343334
 20
-15.9564690945
 10
-10.4874123856
 20
-15.9562858081
 10
-10.4860890193
 20
-15.9560526496
 10
-10.4847653498
 20
-15.955770734
 10
-10.4834424918
 20
-15.9554411765
 10
-10.4821215605
 20
-15.9550650918
 10
-10.4808036709
 20
-15.9546435952
 10
-10.4794899379
 20
-15.9541778016
 10
-10.4781814766
 20
-15.953668826
 10
-10.476879402
 20
-15.9531177834
 10
-10.4755848291
 20
-15.9525257888
 10
-10.4742988728
 20
-15.9518939572
 10
-10.4730226483
 20
-15.9512234037
 10
-10.4717572706
 20
-15.9505152432
 10
-10.4705038545
 20
-15.9497705907
 10
-10.4692635153
 20
-15.9489905614
 10
-10.4680373677
 20
-15.9481762701
 10
-10.4668265269
 20
-15.9473288319
 10
-10.4656321079
 20
-15.9464493618
 10
-10.4644552257
 20
-15.9455389748
 10
-10.4632969953
 20
-15.9445987859
 10
-10.4621585317
 20
-15.9436299102
 10
-10.4610409499
 20
-15.9426334625
 10
-10.4599453649
 20
-15.9416105581
 10
-10.4588728917
 20
-15.9405623117
 10
-10.4578246454
 20
-15.9394898386
 10
-10.4568017409
 20
-15.9383942536
 10
-10.4558052933
 20
-15.9372766717
 10
-10.4548364175
 20
-15.9361382081
 10
-10.4538962286
 20
-15.9349799777
 10
-10.4529858416
 20
-15.9338030955
 10
-10.4521063715
 20
-15.9326086765
 10
-10.4512589333
 20
-15.9313978357
 10
-10.450444642
 20
-15.9301716882
 10
-10.4496646127
 20
-15.9289313489
 10
-10.4489199603
 20
-15.9276779328
 10
-10.4482117998
 20
-15.9264125551
 10
-10.4475412462
 20
-15.9251363306
 10
-10.4469094147
 20
-15.9238503744
 10
-10.4463174201
 20
-15.9225558015
 10
-10.4457663775
 20
-15.9212537268
 10
-10.4452574018
 20
-15.9199452655
 10
-10.4447916082
 20
-15.9186315326
 10
-10.4443701116
 20
-15.9173136429
 10
-10.443994027
 20
-15.9159927116
 10
-10.4436644694
 20
-15.9146698537
 10
-10.4433825539
 20
-15.9133461841
 10
-10.4431493954
 20
-15.9120228178
 10
-10.4429661089
 20
-15.91070087
 10
-10.4428338096
 20
-15.9093814555
 10
-10.4427536123
 20
-15.9080656895
 10
-10.442726632
 20
-15.9067546868
  0
LWPOLYLINE
  5
24F
100
AcDbEntity
  8
CURVE
100
AcDbPolyline
 62
250
  6
CONTINUOUS
 90
55
 70
0
 10
-12.2903313408
 20
-14.0591499781
 10
-12.2916423434
 20
-14.0591769583
 10
-12.2929581095
 20
-14.0592571556
 10
-12.294277524
 20
-14.059389455
 10
-12.2955994718
 20
-14.0595727414
 10
-12.296922838
 20
-14.0598058999
 10
-12.2982465076
 20
-14.0600878154
 10
-12.2995693656
 20
-14.060417373
 10
-12.3008902969
 20
-14.0607934576
 10
-12.3022081865
 20
-14.0612149542
 10
-12.3035219195
 20
-14.0616807479
 10
-12.3048303808
 20
-14.0621897235
 10
-12.3061324554
 20
-14.0627407661
 10
-12.3074270283
 20
-14.0633327607
 10
-12.3087129845
 20
-14.0639645923
 10
-12.309989209
 20
-14.0646351458
 10
-12.3112545868
 20
-14.0653433063
 10
-12.3125080028
 20
-14.0660879587
 10
-12.3137483421
 20
-14.0668679881
 10
-12.3149744896
 20
-14.0676822794
 10
-12.3161853304
 20
-14.0685297176
 10
-12.3173797494
 20
-14.0694091877
 10
-12.3185566316
 20
-14.0703195747
 10
-12.3197148621
 20
-14.0712597635
 10
-12.3208533257
 20
-14.0722286393
 10
-12.3219709075
 20
-14.0732250869
 10
-12.3230664925
 20
-14.0742479914
 10
-12.3241389657
 20
-14.0752962377
 10
-12.325187212
 20
-14.0763687109
 10
-12.3262101165
 20
-14.0774642959
 10
-12.3272065641
 20
-14.0785818777
 10
-12.3281754399
 20
-14.0797203414
 10
-12.3291156288
 20
-14.0808785718
 10
-12.3300260158
 20
-14.082055454
 10
-12.3309054859
 20
-14.083249873
 10
-12.331752924
 20
-14.0844607138
 10
-12.3325672153
 20
-14.0856868613
 10
-12.3333472447
 20
-14.0869272006
 10
-12.3340918971
 20
-14.0881806166
 10
-12.3348000576
 20
-14.0894459944
 10
-12.3354706111
 20
-14.0907222189
 10
-12.3361024427
 20
-14.0920081751
 10
-12.3366944373
 20
-14.093302748
 10
-12.3372454799
 20
-14.0946048226
 10
-12.3377544555
 20
-14.0959132839
 10
-12.3382202492
 20
-14.0972270169
 10
-12.3386417458
 20
-14.0985449065
 10
-12.3390178304
 20
-14.0998658379
 10
-12.339347388
 20
-14.1011886958
 10
-12.3396293035
 20
-14.1025123654
 10
-12.339862462
 20
-14.1038357316
 10
-12.3400457484
 20
-14.1051576795
 10
-12.3401780478
 20
-14.1064770939
 10
-12.3402582451
 20
-14.10779286
 10
-12.3402852253
 20
-14.1091038626
  0
LINE
  5
250
100
AcDbEntity
  8
CURVE
100
AcDbLine
 62
250
  6
CONTINUOUS
 10
-12.2903313408
 20
-14.0591499781
 11
-10.4926805166
 21
-14.0591499781
  0
LINE
  5
251
100
AcDbEntity
  8
ASSI
100
AcDbLine
 62
7
  6
CONTINUOUS
 10
-21.4829307127
 20
-0.1973039193
 11
-21.4723053573
 21
-0.2079292747
  0
LWPOLYLINE
  5
252
100
AcDbEntity
  8
CURVE
100
AcDbPolyline
 62
250
  6
CONTINUOUS
 90
55
 70
0
 10
-12.3402852253
 20
-15.9067546868
 10
-12.3402582451
 20
-15.9080656895
 10
-12.3401780478
 20
-15.9093814555
 10
-12.3400457484
 20
-15.91070087
 10
-12.339862462
 20
-15.9120228178
 10
-12.3396293035
 20
-15.9133461841
 10
-12.339347388
 20
-15.9146698537
 10
-12.3390178304
 20
-15.9159927116
 10
-12.3386417458
 20
-15.9173136429
 10
-12.3382202492
 20
-15.9186315326
 10
-12.3377544555
 20
-15.9199452655
 10
-12.3372454799
 20
-15.9212537268
 10
-12.3366944373
 20
-15.9225558015
 10
-12.3361024427
 20
-15.9238503744
 10
-12.3354706111
 20
-15.9251363306
 10
-12.3348000576
 20
-15.9264125551
 10
-12.3340918971
 20
-15.9276779328
 10
-12.3333472447
 20
-15.9289313489
 10
-12.3325672153
 20
-15.9301716882
 10
-12.331752924
 20
-15.9313978357
 10
-12.3309054859
 20
-15.9326086765
 10
-12.3300260158
 20
-15.9338030955
 10
-12.3291156288
 20
-15.9349799777
 10
-12.3281754399
 20
-15.9361382081
 10
-12.3272065641
 20
-15.9372766717
 10
-12.3262101165
 20
-15.9383942536
 10
-12.325187212
 20
-15.9394898386
 10
-12.3241389657
 20
-15.9405623117
 10
-12.3230664925
 20
-15.9416105581
 10
-12.3219709075
 20
-15.9426334625
 10
-12.3208533257
 20
-15.9436299102
 10
-12.3197148621
 20
-15.9445987859
 10
-12.3185566316
 20
-15.9455389748
 10
-12.3173797494
 20
-15.9464493618
 10
-12.3161853304
 20
-15.9473288319
 10
-12.3149744896
 20
-15.9481762701
 10
-12.3137483421
 20
-15.9489905614
 10
-12.3125080028
 20
-15.9497705907
 10
-12.3112545868
 20
-15.9505152432
 10
-12.309989209
 20
-15.9512234037
 10
-12.3087129845
 20
-15.9518939572
 10
-12.3074270283
 20
-15.9525257888
 10
-12.3061324554
 20
-15.9531177834
 10
-12.3048303808
 20
-15.953668826
 10
-12.3035219195
 20
-15.9541778016
 10
-12.3022081865
 20
-15.9546435952
 10
-12.3008902969
 20
-15.9550650918
 10
-12.2995693656
 20
-15.9554411765
 10
-12.2982465076
 20
-15.955770734
 10
-12.296922838
 20
-15.9560526496
 10
-12.2955994718
 20
-15.9562858081
 10
-12.294277524
 20
-15.9564690945
 10
-12.2929581095
 20
-15.9566013939
 10
-12.2916423434
 20
-15.9566815912
 10
-12.2903313408
 20
-15.9567085714
  0
LWPOLYLINE
  5
253
100
AcDbEntity
  8
CURVE
100
AcDbPolyline
 62
250
  6
CONTINUOUS
 90
55
 70
0
 10
-12.3402852253
 20
14.0932453132
 10
-12.3402582451
 20
14.0919343105
 10
-12.3401780478
 20
14.0906185445
 10
-12.3400457484
 20
14.08929913
 10
-12.339862462
 20
14.0879771822
 10
-12.3396293035
 20
14.0866538159
 10
-12.339347388
 20
14.0853301463
 10
-12.3390178304
 20
14.0840072884
 10
-12.3386417458
 20
14.0826863571
 10
-12.3382202492
 20
14.0813684674
 10
-12.3377544555
 20
14.0800547345
 10
-12.3372454799
 20
14.0787462732
 10
-12.3366944373
 20
14.0774441985
 10
-12.3361024427
 20
14.0761496256
 10
-12.3354706111
 20
14.0748636694
 10
-12.3348000576
 20
14.0735874449
 10
-12.3340918971
 20
14.0723220672
 10
-12.3333472447
 20
14.0710686511
 10
-12.3325672153
 20
14.0698283118
 10
-12.331752924
 20
14.0686021643
 10
-12.3309054859
 20
14.0673913235
 10
-12.3300260158
 20
14.0661969045
 10
-12.3291156288
 20
14.0650200223
 10
-12.3281754399
 20
14.0638617919
 10
-12.3272065641
 20
14.0627233283
 10
-12.3262101165
 20
14.0616057464
 10
-12.325187212
 20
14.0605101614
 10
-12.3241389657
 20
14.0594376883
 10
-12.3230664925
 20
14.0583894419
 10
-12.3219709075
 20
14.0573665375
 10
-12.3208533257
 20
14.0563700898
 10
-12.3197148621
 20
14.0554012141
 10
-12.3185566316
 20
14.0544610252
 10
-12.3173797494
 20
14.0535506382
 10
-12.3161853304
 20
14.0526711681
 10
-12.3149744896
 20
14.0518237299
 10
-12.3137483421
 20
14.0510094386
 10
-12.3125080028
 20
14.0502294093
 10
-12.3112545868
 20
14.0494847568
 10
-12.309989209
 20
14.0487765963
 10
-12.3087129845
 20
14.0481060428
 10
-12.3074270283
 20
14.0474742112
 10
-12.3061324554
 20
14.0468822166
 10
-12.3048303808
 20
14.046331174
 10
-12.3035219195
 20
14.0458221984
 10
-12.3022081865
 20
14.0453564048
 10
-12.3008902969
 20
14.0449349082
 10
-12.2995693656
 20
14.0445588235
 10
-12.2982465076
 20
14.044229266
 10
-12.296922838
 20
14.0439473504
 10
-12.2955994718
 20
14.0437141919
 10
-12.294277524
 20
14.0435309055
 10
-12.2929581095
 20
14.0433986061
 10
-12.2916423434
 20
14.0433184088
 10
-12.2903313408
 20
14.0432914286
  0
LINE
  5
254
100
AcDbEntity
  8
CURVE
100
AcDbLine
 62
250
  6
CONTINUOUS
 10
-12.3402852253
 20
-15.9067546868
 11
-12.3402852253
 21
-14.1091038626
  0
LINE
  5
255
100
AcDbEntity
  8
CURVE
100
AcDbLine
 62
250
  6
CONTINUOUS
 10
-12.3402852253
 20
14.0932453132
 11
-12.3402852253
 21
15.8908961374
  0
LINE
  5
256
100
AcDbEntity
  8
ASSI
100
AcDbLine
 62
250
  6
CONTINUOUS
 10
-22.4915059287
 20
0.6727178577
 11
-22.4047496537
 21
0.7305480321
  0
LINE
  5
257
100
AcDbEntity
  8
ASSI
100
AcDbLine
 62
250
  6
CONTINUOUS
 10
-21.9915630361
 20
0.1728701538
 11
-21.9049209913
 21
0.2306241845
  0
LINE
  5
258
100
AcDbEntity
  8
ASSI
100
AcDbLine
 62
250
  6
CONTINUOUS
 10
-22.4047496537
 20
-0.7464065816
 11
-22.4915059287
 21
-0.6885764072
  0
LINE
  5
259
100
AcDbEntity
  8
ASSI
100
AcDbLine
 62
250
  6
CONTINUOUS
 10
-21.9049209913
 20
-0.246482734
 11
-21.9915630361
 21
-0.1887287033
  0
LWPOLYLINE
  5
25A
100
AcDbEntity
  8
CURVE
100
AcDbPolyline
 62
250
  6
CONTINUOUS
 90
55
 70
0
 10
-10.442726632
 20
-14.1091038626
 10
-10.4427536123
 20
-14.10779286
 10
-10.4428338096
 20
-14.1064770939
 10
-10.4429661089
 20
-14.1051576795
 10
-10.4431493954
 20
-14.1038357316
 10
-10.4433825539
 20
-14.1025123654
 10
-10.4436644694
 20
-14.1011886958
 10
-10.443994027
 20
-14.0998658379
 10
-10.4443701116
 20
-14.0985449065
 10
-10.4447916082
 20
-14.0972270169
 10
-10.4452574018
 20
-14.0959132839
 10
-10.4457663775
 20
-14.0946048226
 10
-10.4463174201
 20
-14.093302748
 10
-10.4469094147
 20
-14.0920081751
 10
-10.4475412462
 20
-14.0907222189
 10
-10.4482117998
 20
-14.0894459944
 10
-10.4489199603
 20
-14.0881806166
 10
-10.4496646127
 20
-14.0869272006
 10
-10.450444642
 20
-14.0856868613
 10
-10.4512589333
 20
-14.0844607138
 10
-10.4521063715
 20
-14.083249873
 10
-10.4529858416
 20
-14.082055454
 10
-10.4538962286
 20
-14.0808785718
 10
-10.4548364175
 20
-14.0797203414
 10
-10.4558052933
 20
-14.0785818777
 10
-10.4568017409
 20
-14.0774642959
 10
-10.4578246454
 20
-14.0763687109
 10
-10.4588728917
 20
-14.0752962377
 10
-10.4599453649
 20
-14.0742479914
 10
-10.4610409499
 20
-14.0732250869
 10
-10.4621585317
 20
-14.0722286393
 10
-10.4632969953
 20
-14.0712597635
 10
-10.4644552257
 20
-14.0703195747
 10
-10.4656321079
 20
-14.0694091877
 10
-10.4668265269
 20
-14.0685297176
 10
-10.4680373677
 20
-14.0676822794
 10
-10.4692635153
 20
-14.0668679881
 10
-10.4705038545
 20
-14.0660879587
 10
-10.4717572706
 20
-14.0653433063
 10
-10.4730226483
 20
-14.0646351458
 10
-10.4742988728
 20
-14.0639645923
 10
-10.4755848291
 20
-14.0633327607
 10
-10.476879402
 20
-14.0627407661
 10
-10.4781814766
 20
-14.0621897235
 10
-10.4794899379
 20
-14.0616807479
 10
-10.4808036709
 20
-14.0612149542
 10
-10.4821215605
 20
-14.0607934576
 10
-10.4834424918
 20
-14.060417373
 10
-10.4847653498
 20
-14.0600878154
 10
-10.4860890193
 20
-14.0598058999
 10
-10.4874123856
 20
-14.0595727414
 10
-10.4887343334
 20
-14.059389455
 10
-10.4900537479
 20
-14.0592571556
 10
-10.4913695139
 20
-14.0591769583
 10
-10.4926805166
 20
-14.0591499781
  0
LWPOLYLINE
  5
25B
100
AcDbEntity
  8
CURVE
100
AcDbPolyline
 62
250
  6
CONTINUOUS
 90
55
 70
0
 10
-10.442726632
 20
15.8908961374
 10
-10.4427536123
 20
15.89220714
 10
-10.4428338096
 20
15.8935229061
 10
-10.4429661089
 20
15.8948423205
 10
-10.4431493954
 20
15.8961642684
 10
-10.4433825539
 20
15.8974876346
 10
-10.4436644694
 20
15.8988113042
 10
-10.443994027
 20
15.9001341621
 10
-10.4443701116
 20
15.9014550935
 10
-10.4447916082
 20
15.9027729831
 10
-10.4452574018
 20
15.9040867161
 10
-10.4457663775
 20
15.9053951774
 10
-10.4463174201
 20
15.906697252
 10
-10.4469094147
 20
15.9079918249
 10
-10.4475412462
 20
15.9092777811
 10
-10.4482117998
 20
15.9105540056
 10
-10.4489199603
 20
15.9118193834
 10
-10.4496646127
 20
15.9130727994
 10
-10.450444642
 20
15.9143131387
 10
-10.4512589333
 20
15.9155392862
 10
-10.4521063715
 20
15.916750127
 10
-10.4529858416
 20
15.917944546
 10
-10.4538962286
 20
15.9191214282
 10
-10.4548364175
 20
15.9202796586
 10
-10.4558052933
 20
15.9214181223
 10
-10.4568017409
 20
15.9225357041
 10
-10.4578246454
 20
15.9236312891
 10
-10.4588728917
 20
15.9247037623
 10
-10.4599453649
 20
15.9257520086
 10
-10.4610409499
 20
15.9267749131
 10
-10.4621585317
 20
15.9277713607
 10
-10.4632969953
 20
15.9287402365
 10
-10.4644552257
 20
15.9296804253
 10
-10.4656321079
 20
15.9305908123
 10
-10.4668265269
 20
15.9314702824
 10
-10.4680373677
 20
15.9323177206
 10
-10.4692635153
 20
15.9331320119
 10
-10.4705038545
 20
15.9339120413
 10
-10.4717572706
 20
15.9346566937
 10
-10.4730226483
 20
15.9353648542
 10
-10.4742988728
 20
15.9360354077
 10
-10.4755848291
 20
15.9366672393
 10
-10.476879402
 20
15.9372592339
 10
-10.4781814766
 20
15.9378102765
 10
-10.4794899379
 20
15.9383192521
 10
-10.4808036709
 20
15.9387850458
 10
-10.4821215605
 20
15.9392065424
 10
-10.4834424918
 20
15.939582627
 10
-10.4847653498
 20
15.9399121846
 10
-10.4860890193
 20
15.9401941001
 10
-10.4874123856
 20
15.9404272586
 10
-10.4887343334
 20
15.940610545
 10
-10.4900537479
 20
15.9407428444
 10
-10.4913695139
 20
15.9408230417
 10
-10.4926805166
 20
15.9408500219
  0
LINE
  5
25C
100
AcDbEntity
  8
CURVE
100
AcDbLine
 62
250
  6
CONTINUOUS
 10
-10.442726632
 20
15.8908961374
 11
-10.442726632
 21
14.0932453132
  0
LINE
  5
25D
100
AcDbEntity
  8
CURVE
100
AcDbLine
 62
250
  6
CONTINUOUS
 10
-10.442726632
 20
-14.1091038626
 11
-10.442726632
 21
-15.9067546868
  0
LWPOLYLINE
  5
25E
100
AcDbEntity
  8
0
100
AcDbPolyline
 62
7
  6
CONTINUOUS
 90
3
 70
0
 43
0.3500000019
 10
0.8942060547
 20
35.4036101074
 10
0.82278125
 20
35.1893222656
 10
0.6799208984
 20
34.9036096191
  0
LWPOLYLINE
  5
25F
100
AcDbEntity
  8
0
100
AcDbPolyline
 62
7
  6
CONTINUOUS
 90
2
 70
0
 43
0.3500000019
 10
-3.534362793
 20
35.1178947754
 10
-3.534362793
 20
36.6178935547
  0
LINE
  5
260
100
AcDbEntity
  8
ASSI
100
AcDbLine
 62
250
  6
CONTINUOUS
 10
21.6219091339
 20
26.3053144503
 11
21.6807949755
 21
26.3642002919
  0
LINE
  5
261
100
AcDbEntity
  8
ASSI
100
AcDbLine
 62
250
  6
CONTINUOUS
 10
22.1217377964
 20
25.8054857878
 11
22.1841062483
 21
25.8678542398
  0
LINE
  5
262
100
AcDbEntity
  8
ASSI
100
AcDbLine
 62
250
  6
CONTINUOUS
 10
21.6807949755
 20
-26.3800588414
 11
21.6219091339
 21
-26.3211729998
  0
LINE
  5
263
100
AcDbEntity
  8
ASSI
100
AcDbLine
 62
250
  6
CONTINUOUS
 10
22.1841062483
 20
-25.8837127893
 11
22.1217377964
 21
-25.8213443373
  0
LWPOLYLINE
  5
264
100
AcDbEntity
  8
0
100
AcDbPolyline
 62
7
  6
CONTINUOUS
 90
2
 70
0
 43
0.3500000019
 10
-1.1772207031
 20
35.1178947754
 10
-1.1772207031
 20
36.6178935547
  0
LWPOLYLINE
  5
265
100
AcDbEntity
  8
ASSI
100
AcDbPolyline
 62
250
  6
CONTINUOUS
 90
16
 70
0
 10
21.6219091339
 20
0.2306241845
 10
21.6741403216
 20
0.2333850948
 10
21.7257995859
 20
0.2415898611
 10
21.7763212661
 20
0.2551486426
 10
21.8251521578
 20
0.2739129729
 10
21.8717575702
 20
0.2976773853
 10
21.9156271814
 20
0.3261816633
 10
21.9562806262
 20
0.3591136896
 10
21.9932727556
 20
0.3961128636
 10
22.0261985117
 20
0.4367740502
 10
22.0546973625
 20
0.4806520158
 10
22.0784572502
 20
0.5272663036
 10
22.0972180077
 20
0.5761064943
 10
22.1107742077
 20
0.6266377957
 10
22.1189774118
 20
0.6783068978
 10
22.1217377964
 20
0.7305480321
  0
LINE
  5
266
100
AcDbEntity
  8
ASSI
100
AcDbLine
 62
250
  6
CONTINUOUS
 10
-22.4047496537
 20
-0.7464065816
 11
22.1217377964
 21
-0.7464065816
  0
LINE
  5
267
100
AcDbEntity
  8
ASSI
100
AcDbLine
 62
250
  6
CONTINUOUS
 10
21.6219091339
 20
-0.246482734
 11
-21.9049209913
 21
-0.246482734
  0
LINE
  5
268
100
AcDbEntity
  8
ASSI
100
AcDbLine
 62
7
  6
CONTINUOUS
 10
-21.4723053573
 20
-0.2079292747
 11
21.1892934999
 21
-0.2079292747
  0
LINE
  5
269
100
AcDbEntity
  8
ASSI
100
AcDbLine
 62
7
  6
CONTINUOUS
 10
-21.9915630361
 20
-0.1887287033
 11
-21.9828545602
 21
-0.1887287033
  0
LINE
  5
26A
100
AcDbEntity
  8
ASSI
100
AcDbLine
 62
7
  6
CONTINUOUS
 10
21.6998427029
 20
-0.1887287033
 11
21.7085511787
 21
-0.1887287033
  0
LINE
  5
26B
100
AcDbEntity
  8
ASSI
100
AcDbLine
 62
7
  6
CONTINUOUS
 10
21.7085511787
 20
0.1728701538
 11
21.6998427029
 21
0.1728701538
  0
LINE
  5
26C
100
AcDbEntity
  8
ASSI
100
AcDbLine
 62
7
  6
CONTINUOUS
 10
-21.9828545602
 20
0.1728701538
 11
-21.9915630361
 21
0.1728701538
  0
LINE
  5
26D
100
AcDbEntity
  8
ASSI
100
AcDbLine
 62
7
  6
CONTINUOUS
 10
21.1892934999
 20
0.1920707253
 11
-21.4723053573
 21
0.1920707253
  0
LINE
  5
26E
100
AcDbEntity
  8
ASSI
100
AcDbLine
 62
250
  6
CONTINUOUS
 10
-21.9049209913
 20
0.2306241845
 11
21.6219091339
 21
0.2306241845
  0
LWPOLYLINE
  5
26F
100
AcDbEntity
  8
0
100
AcDbPolyline
 62
7
  6
CONTINUOUS
 90
4
 70
0
 43
0.3500000019
 10
1.8942070313
 20
37.4750368652
 10
1.8942070313
 20
38.1178950195
 10
3.3942084961
 20
38.1178950195
 10
2.5370678711
 20
35.1178947754
  0
LINE
  5
270
100
AcDbEntity
  8
CURVE
100
AcDbLine
 62
7
  6
CONTINUOUS
 10
-12.3402852253
 20
-14.9111483389
 11
-11.4882868645
 21
-14.0591499781
  0
LINE
  5
271
100
AcDbEntity
  8
ASSI
100
AcDbLine
 62
250
  6
CONTINUOUS
 10
-22.4047496537
 20
-25.8213443373
 11
-22.4671181057
 21
-25.8837127893
  0
LWPOLYLINE
  5
272
100
AcDbEntity
  8
ASSI
100
AcDbPolyline
 62
250
  6
CONTINUOUS
 90
16
 70
0
 10
-21.9049209913
 20
-0.246482734
 10
-21.9571521789
 20
-0.2492436442
 10
-22.0088114433
 20
-0.2574484106
 10
-22.0593331235
 20
-0.2710071921
 10
-22.1081640151
 20
-0.2897715223
 10
-22.1547694275
 20
-0.3135359347
 10
-22.1986390388
 20
-0.3420402128
 10
-22.2392924836
 20
-0.3749722391
 10
-22.276284613
 20
-0.4119714131
 10
-22.3092103691
 20
-0.4526325997
 10
-22.3377092199
 20
-0.4965105653
 10
-22.3614691076
 20
-0.5431248531
 10
-22.3802298651
 20
-0.5919650438
 10
-22.3937860651
 20
-0.6424963451
 10
-22.4019892692
 20
-0.6941654473
 10
-22.4047496537
 20
-0.7464065816
  0
LINE
  5
273
100
AcDbEntity
  8
ASSI
100
AcDbLine
 62
250
  6
CONTINUOUS
 10
-22.4047496537
 20
0.7305480321
 11
22.1217377964
 21
0.7305480321
  0
LWPOLYLINE
  5
274
100
AcDbEntity
  8
0
100
AcDbPolyline
 62
7
  6
CONTINUOUS
 90
4
 70
0
 43
0.3500000019
 10
27.1110087891
 20
1.9206421967
 10
26.4681533203
 20
1.9206421967
 10
26.4681533203
 20
3.4206421509
 10
29.46815625
 20
2.5634993439
  0
LINE
  5
275
100
AcDbEntity
  8
ASSI
100
AcDbLine
 62
250
  6
CONTINUOUS
 10
-22.4671181057
 20
25.8678542398
 11
-22.4047496537
 21
25.8054857878
  0
LINE
  5
276
100
AcDbEntity
  8
CURVE
100
AcDbLine
 62
7
  6
CONTINUOUS
 10
-12.3402852253
 20
-15.9067546868
 11
-10.4926805166
 21
-14.0591499781
  0
LINE
  5
277
100
AcDbEntity
  8
ASSI
100
AcDbLine
 62
250
  6
CONTINUOUS
 10
-21.9049209913
 20
-26.3211729998
 11
-21.9638068328
 21
-26.3800588414
  0
LINE
  5
278
100
AcDbEntity
  8
CURVE
100
AcDbLine
 62
7
  6
CONTINUOUS
 10
-11.3946327619
 20
-15.9567085714
 11
-10.442726632
 21
-15.0048024415
  0
LINE
  5
279
100
AcDbEntity
  8
ASSI
100
AcDbLine
 62
250
  6
CONTINUOUS
 10
-21.9638068328
 20
26.3642002919
 11
-21.9049209913
 21
26.3053144503
  0
LWPOLYLINE
  5
27A
100
AcDbEntity
  8
0
100
AcDbPolyline
 62
7
  6
CONTINUOUS
 90
3
 70
0
 43
0.3500000019
 10
29.1824355469
 20
0.9206421432
 10
29.3967207031
 20
0.849213562
 10
29.6824414063
 20
0.7063563995
  0
LINE
  5
27B
100
AcDbEntity
  8
ASSI
100
AcDbLine
 62
250
  6
CONTINUOUS
 10
21.7085511787
 20
-0.1887287033
 11
21.6219091339
 21
-0.246482734
  0
LINE
  5
27C
100
AcDbEntity
  8
ASSI
100
AcDbLine
 62
250
  6
CONTINUOUS
 10
22.2084940713
 20
-0.6885764072
 11
22.1217377964
 21
-0.7464065816
  0
LWPOLYLINE
  5
27D
100
AcDbEntity
  8
0
100
AcDbPolyline
 62
7
  6
CONTINUOUS
 90
10
 70
0
 43
0.3500000019
 10
28.9681503906
 20
0.849213562
 10
29.1110107422
 20
0.9206421432
 10
29.1824355469
 20
0.9206421432
 10
29.3252958984
 20
0.7777849808
 10
29.3252958984
 20
0.7063563995
 10
29.2538710938
 20
0.6349278603
 10
29.1824355469
 20
0.6349278603
 10
29.0395859375
 20
0.7063563995
 10
28.9681503906
 20
0.7777849808
 10
28.9681503906
 20
0.849213562
  0
LINE
  5
27E
100
AcDbEntity
  8
CURVE
100
AcDbLine
 62
250
  6
CONTINUOUS
 10
-10.4926805166
 20
14.0432914286
 11
-12.2903313408
 21
14.0432914286
  0
LINE
  5
27F
100
AcDbEntity
  8
ASSI
100
AcDbLine
 62
250
  6
CONTINUOUS
 10
21.6219091339
 20
0.2306241845
 11
21.7085511787
 21
0.1728701538
  0
LINE
  5
280
100
AcDbEntity
  8
ASSI
100
AcDbLine
 62
250
  6
CONTINUOUS
 10
22.1217377964
 20
0.7305480321
 11
22.2084940713
 21
0.6727178577
  0
LINE
  5
281
100
AcDbEntity
  8
ASSI
100
AcDbLine
 62
7
  6
CONTINUOUS
 10
21.1999188553
 20
-0.1973039193
 11
21.1892934999
 21
-0.2079292747
  0
LWPOLYLINE
  5
282
100
AcDbEntity
  8
CURVE
100
AcDbPolyline
 62
250
  6
CONTINUOUS
 90
55
 70
0
 10
-10.4926805166
 20
14.0432914286
 10
-10.4913695139
 20
14.0433184088
 10
-10.4900537479
 20
14.0433986061
 10
-10.4887343334
 20
14.0435309055
 10
-10.4874123856
 20
14.0437141919
 10
-10.4860890193
 20
14.0439473504
 10
-10.4847653498
 20
14.044229266
 10
-10.4834424918
 20
14.0445588235
 10
-10.4821215605
 20
14.0449349082
 10
-10.4808036709
 20
14.0453564048
 10
-10.4794899379
 20
14.0458221984
 10
-10.4781814766
 20
14.046331174
 10
-10.476879402
 20
14.0468822166
 10
-10.4755848291
 20
14.0474742112
 10
-10.4742988728
 20
14.0481060428
 10
-10.4730226483
 20
14.0487765963
 10
-10.4717572706
 20
14.0494847568
 10
-10.4705038545
 20
14.0502294093
 10
-10.4692635153
 20
14.0510094386
 10
-10.4680373677
 20
14.0518237299
 10
-10.4668265269
 20
14.0526711681
 10
-10.4656321079
 20
14.0535506382
 10
-10.4644552257
 20
14.0544610252
 10
-10.4632969953
 20
14.0554012141
 10
-10.4621585317
 20
14.0563700898
 10
-10.4610409499
 20
14.0573665375
 10
-10.4599453649
 20
14.0583894419
 10
-10.4588728917
 20
14.0594376883
 10
-10.4578246454
 20
14.0605101614
 10
-10.4568017409
 20
14.0616057464
 10
-10.4558052933
 20
14.0627233283
 10
-10.4548364175
 20
14.0638617919
 10
-10.4538962286
 20
14.0650200223
 10
-10.4529858416
 20
14.0661969045
 10
-10.4521063715
 20
14.0673913235
 10
-10.4512589333
 20
14.0686021643
 10
-10.450444642
 20
14.0698283118
 10
-10.4496646127
 20
14.0710686511
 10
-10.4489199603
 20
14.0723220672
 10
-10.4482117998
 20
14.0735874449
 10
-10.4475412462
 20
14.0748636694
 10
-10.4469094147
 20
14.0761496256
 10
-10.4463174201
 20
14.0774441985
 10
-10.4457663775
 20
14.0787462732
 10
-10.4452574018
 20
14.0800547345
 10
-10.4447916082
 20
14.0813684674
 10
-10.4443701116
 20
14.0826863571
 10
-10.443994027
 20
14.0840072884
 10
-10.4436644694
 20
14.0853301463
 10
-10.4433825539
 20
14.0866538159
 10
-10.4431493954
 20
14.0879771822
 10
-10.4429661089
 20
14.08929913
 10
-10.4428338096
 20
14.0906185445
 10
-10.4427536123
 20
14.0919343105
 10
-10.442726632
 20
14.0932453132
  0
LWPOLYLINE
  5
283
100
AcDbEntity
  8
CURVE
100
AcDbPolyline
 62
250
  6
CONTINUOUS
 90
55
 70
0
 10
-12.2903313408
 20
15.9408500219
 10
-12.2916423434
 20
15.9408230417
 10
-12.2929581095
 20
15.9407428444
 10
-12.294277524
 20
15.940610545
 10
-12.2955994718
 20
15.9404272586
 10
-12.296922838
 20
15.9401941001
 10
-12.2982465076
 20
15.9399121846
 10
-12.2995693656
 20
15.939582627
 10
-12.3008902969
 20
15.9392065424
 10
-12.3022081865
 20
15.9387850458
 10
-12.3035219195
 20
15.9383192521
 10
-12.3048303808
 20
15.9378102765
 10
-12.3061324554
 20
15.9372592339
 10
-12.3074270283
 20
15.9366672393
 10
-12.3087129845
 20
15.9360354077
 10
-12.309989209
 20
15.9353648542
 10
-12.3112545868
 20
15.9346566937
 10
-12.3125080028
 20
15.9339120413
 10
-12.3137483421
 20
15.9331320119
 10
-12.3149744896
 20
15.9323177206
 10
-12.3161853304
 20
15.9314702824
 10
-12.3173797494
 20
15.9305908123
 10
-12.3185566316
 20
15.9296804253
 10
-12.3197148621
 20
15.9287402365
 10
-12.3208533257
 20
15.9277713607
 10
-12.3219709075
 20
15.9267749131
 10
-12.3230664925
 20
15.9257520086
 10
-12.3241389657
 20
15.9247037623
 10
-12.325187212
 20
15.9236312891
 10
-12.3262101165
 20
15.9225357041
 10
-12.3272065641
 20
15.9214181223
 10
-12.3281754399
 20
15.9202796586
 10
-12.3291156288
 20
15.9191214282
 10
-12.3300260158
 20
15.917944546
 10
-12.3309054859
 20
15.916750127
 10
-12.331752924
 20
15.9155392862
 10
-12.3325672153
 20
15.9143131387
 10
-12.3333472447
 20
15.9130727994
 10
-12.3340918971
 20
15.9118193834
 10
-12.3348000576
 20
15.9105540056
 10
-12.3354706111
 20
15.9092777811
 10
-12.3361024427
 20
15.9079918249
 10
-12.3366944373
 20
15.906697252
 10
-12.3372454799
 20
15.9053951774
 10
-12.3377544555
 20
15.9040867161
 10
-12.3382202492
 20
15.9027729831
 10
-12.3386417458
 20
15.9014550935
 10
-12.3390178304
 20
15.9001341621
 10
-12.339347388
 20
15.8988113042
 10
-12.3396293035
 20
15.8974876346
 10
-12.339862462
 20
15.8961642684
 10
-12.3400457484
 20
15.8948423205
 10
-12.3401780478
 20
15.8935229061
 10
-12.3402582451
 20
15.89220714
 10
-12.3402852253
 20
15.8908961374
  0
LINE
  5
284
100
AcDbEntity
  8
CURVE
100
AcDbLine
 62
250
  6
CONTINUOUS
 10
-12.2903313408
 20
15.9408500219
 11
-10.4926805166
 21
15.9408500219
  0
LINE
  5
285
100
AcDbEntity
  8
ASSI
100
AcDbLine
 62
7
  6
CONTINUOUS
 10
21.1999188553
 20
0.1814453699
 11
21.1892934999
 21
0.1920707253
  0
LWPOLYLINE
  5
286
100
AcDbEntity
  8
0
100
AcDbPolyline
 62
7
  6
CONTINUOUS
 90
10
 70
0
 43
0.3500000019
 10
0.82278125
 20
35.6178952637
 10
0.8942060547
 20
35.4750375977
 10
0.8942060547
 20
35.4036101074
 10
0.7513510742
 20
35.2607524414
 10
0.6799208984
 20
35.2607524414
 10
0.6084960938
 20
35.3321799316
 10
0.6084960938
 20
35.4036101074
 10
0.6799208984
 20
35.5464650879
 10
0.7513510742
 20
35.6178952637
 10
0.82278125
 20
35.6178952637
  0
LWPOLYLINE
  5
287
100
AcDbEntity
  8
ASSI
100
AcDbPolyline
 62
250
  6
CONTINUOUS
 90
16
 70
0
 10
22.1217377964
 20
-0.7464065816
 10
22.1189602736
 20
-0.6940032683
 10
22.1107062171
 20
-0.6421775145
 10
22.0970666255
 20
-0.5915003302
 10
22.0781892811
 20
-0.542524352
 10
22.05428358
 20
-0.4957954158
 10
22.0256240804
 20
-0.4518436251
 10
21.992539397
 20
-0.411158635
 10
21.9553920465
 20
-0.3741738627
 10
21.9145806247
 20
-0.3412815789
 10
21.87048876
 20
-0.3128054004
 10
21.8236587664
 20
-0.2891089528
 10
21.7748056071
 20
-0.2705167603
 10
21.7245548046
 20
-0.2571849398
 10
21.6734030213
 20
-0.2491663748
 10
21.6219091339
 20
-0.246482734
  0
LINE
  5
288
100
AcDbEntity
  8
ASSI
100
AcDbLine
 62
7
  6
CONTINUOUS
 10
22.2080479395
 20
22.455653999
 11
22.1841062483
 21
25.8678542398
  0
LINE
  5
289
100
AcDbEntity
  8
ASSI
100
AcDbLine
 62
250
  6
CONTINUOUS
 10
21.6219091339
 20
-0.246482734
 11
21.6219091339
 21
-26.3211729998
  0
LINE
  5
28A
100
AcDbEntity
  8
ASSI
100
AcDbLine
 62
250
  6
CONTINUOUS
 10
21.6219091339
 20
0.2306241845
 11
21.6219091339
 21
26.3053144503
  0
LINE
  5
28B
100
AcDbEntity
  8
ASSI
100
AcDbLine
 62
250
  6
CONTINUOUS
 10
22.1217377964
 20
-25.8213443373
 11
22.1217377964
 21
-0.7464065816
  0
LINE
  5
28C
100
AcDbEntity
  8
ASSI
100
AcDbLine
 62
250
  6
CONTINUOUS
 10
22.1217377964
 20
0.7305480321
 11
22.1217377964
 21
25.8054857878
  0
LINE
  5
28D
100
AcDbEntity
  8
ASSI
100
AcDbLine
 62
7
  6
CONTINUOUS
 10
22.2084940713
 20
-22.3421030259
 11
22.2084940713
 21
-0.6885764072
  0
LINE
  5
28E
100
AcDbEntity
  8
ASSI
100
AcDbLine
 62
7
  6
CONTINUOUS
 10
22.2084940713
 20
0.6727178577
 11
22.2084940713
 21
22.3262444765
  0
LINE
  5
28F
100
AcDbEntity
  8
ASSI
100
AcDbLine
 62
7
  6
CONTINUOUS
 10
22.2080479395
 20
-22.4715125485
 11
22.1841062483
 21
-25.8837127893
  0
LWPOLYLINE
  5
290
100
AcDbEntity
  8
ASSI
100
AcDbPolyline
 62
250
  6
CONTINUOUS
 90
16
 70
0
 10
-21.9049209913
 20
26.3053144503
 10
-21.9564213394
 20
26.3026188873
 10
-22.0075755168
 20
26.2945889784
 10
-22.057824755
 20
26.2812477402
 10
-22.1066715683
 20
26.2626498658
 10
-22.153492345
 20
26.2389524069
 10
-22.1975761341
 20
26.2104786609
 10
-22.2383819806
 20
26.1775911621
 10
-22.2755252489
 20
26.1406140682
 10
-22.3086073066
 20
26.0999397698
 10
-22.3372657727
 20
26.0560017509
 10
-22.361172494
 20
26.0092891846
 10
-22.3800532897
 20
25.9603313971
 10
-22.3936988469
 20
25.9096736429
 10
-22.4019613187
 20
25.857868257
 10
-22.4047496537
 20
25.8054857878
  0
LINE
  5
291
100
AcDbEntity
  8
ASSI
100
AcDbLine
 62
250
  6
CONTINUOUS
 10
-22.4047496537
 20
25.8054857878
 11
22.1217377964
 21
25.8054857878
  0
LINE
  5
292
100
AcDbEntity
  8
ASSI
100
AcDbLine
 62
250
  6
CONTINUOUS
 10
21.6219091339
 20
26.3053144503
 11
-21.9049209913
 21
26.3053144503
  0
LINE
  5
293
100
AcDbEntity
  8
ASSI
100
AcDbLine
 62
7
  6
CONTINUOUS
 10
21.6807949755
 20
26.3642002919
 11
-21.9638068328
 21
26.3642002919
  0
LWPOLYLINE
  5
294
100
AcDbEntity
  8
ASSI
100
AcDbPolyline
 62
250
  6
CONTINUOUS
 90
16
 70
0
 10
21.6219091339
 20
26.3053144503
 10
21.6734208515
 20
26.3026177017
 10
21.7245836284
 20
26.2945847737
 10
21.7748385281
 20
26.2812394864
 10
21.8236879199
 20
26.2626374004
 10
21.8705084989
 20
26.2389363298
 10
21.9145900018
 20
26.2104600618
 10
21.9553913336
 20
26.1775721505
 10
21.9925289619
 20
26.1405968512
 10
22.0256063408
 20
26.0999248438
 10
22.0542616205
 20
26.0559884631
 10
22.0781658531
 20
26.0092775204
 10
22.0970445426
 20
25.9603218712
 10
22.1106884226
 20
25.9096669402
 10
22.1189498319
 20
25.8578647627
 10
22.1217377964
 20
25.8054857878
  0
LWPOLYLINE
  5
295
100
AcDbEntity
  8
0
100
AcDbPolyline
 62
7
  6
CONTINUOUS
 90
8
 70
0
 43
0.3500000019
 10
29.46815625
 20
-4.2936436157
 10
29.46815625
 20
-3.4365006409
 10
29.0395859375
 20
-3.0079293213
 10
28.1824453125
 20
-3.0079293213
 10
27.7538642578
 20
-3.4365006409
 10
27.7538642578
 20
-4.2936436157
 10
26.4681533203
 20
-4.2936436157
 10
26.4681533203
 20
-3.0079293213
  0
LWPOLYLINE
  5
296
100
AcDbEntity
  8
0
100
AcDbPolyline
 62
7
  6
CONTINUOUS
 90
7
 70
0
 43
0.3500000019
 10
29.46815625
 20
-0.6507864342
 10
29.46815625
 20
-2.1507863464
 10
27.3252939453
 20
-0.6507864342
 10
26.8967236328
 20
-0.6507864342
 10
26.4681533203
 20
-1.0793578796
 10
26.4681533203
 20
-1.7222150269
 10
27.1110087891
 20
-2.1507863464
  0
LWPOLYLINE
  5
297
100
AcDbEntity
  8
0
100
AcDbPolyline
 62
7
  6
CONTINUOUS
 90
3
 70
0
 43
0.3500000019
 10
-0.6772202148
 20
35.7607529297
 10
-2.1772216797
 20
35.7607529297
 10
-1.5343608398
 20
38.1178950195
  0
LWPOLYLINE
  5
298
100
AcDbEntity
  8
0
100
AcDbPolyline
 62
7
  6
CONTINUOUS
 90
3
 70
0
 43
0.3500000019
 10
-3.0343623047
 20
35.7607529297
 10
-4.5343637695
 20
35.7607529297
 10
-3.8915083008
 20
38.1178950195
  0
LWPOLYLINE
  5
299
100
AcDbEntity
  8
0
100
AcDbPolyline
 62
7
  6
CONTINUOUS
 90
5
 70
0
 43
0.3500000019
 10
-33.0495864258
 20
36.8764177246
 10
-32.6924436035
 20
37.0907028809
 10
-32.6924436035
 20
37.7335610352
 10
-33.0495864258
 20
38.1621313477
 10
-33.9067297363
 20
38.1621313477
  0
LINE
  5
29A
100
AcDbEntity
  8
ASSI
100
AcDbLine
 62
7
  6
CONTINUOUS
 10
-40.5413541983
 20
-26.3800588414
 11
-42.7901137628
 21
-26.3211729998
  0
LINE
  5
29B
100
AcDbEntity
  8
ASSI
100
AcDbLine
 62
250
  6
CONTINUOUS
 10
-43.2770252887
 20
-25.8213443373
 11
-42.7901137628
 21
-25.8213443373
  0
LINE
  5
29C
100
AcDbEntity
  8
ASSI
100
AcDbLine
 62
250
  6
CONTINUOUS
 10
-40.4083586745
 20
-25.8837127893
 11
-42.7901137628
 21
-25.8213443373
  0
LWPOLYLINE
  5
29D
100
AcDbEntity
  8
ASSI
100
AcDbPolyline
 62
250
  6
CONTINUOUS
 90
10
 70
0
 10
-42.7901137628
 20
26.3053144503
 10
-42.7913920278
 20
26.3026177017
 10
-42.7925214226
 20
26.2945847737
 10
-42.7934879348
 20
26.2812394864
 10
-42.7942799884
 20
26.2626374004
 10
-42.7948853941
 20
26.2389363298
 10
-42.7952940315
 20
26.2104600618
 10
-42.7955012517
 20
26.1775721505
 10
-42.7955055025
 20
26.1405968512
 10
-42.7949064804
 20
26.0559884631
  0
LWPOLYLINE
  5
29E
100
AcDbEntity
  8
ASSI
100
AcDbPolyline
 62
250
  6
CONTINUOUS
 90
9
 70
0
 10
-42.7901137628
 20
-26.3211729998
 10
-42.7913917611
 20
-26.3184774368
 10
-42.7925210098
 20
-26.3104475279
 10
-42.7934874798
 20
-26.2971062897
 10
-42.7942795762
 20
-26.2785084153
 10
-42.7948850815
 20
-26.2548109564
 10
-42.7952938449
 20
-26.2263372104
 10
-42.7955011941
 20
-26.1934497115
 10
-42.7955055456
 20
-26.1564726177
  0
LINE
  5
29F
100
AcDbEntity
  8
ASSI
100
AcDbLine
 62
250
  6
CONTINUOUS
 10
-42.7935216728
 20
25.9603218712
 11
-42.7914123491
 21
25.8578647627
  0
LINE
  5
2A0
100
AcDbEntity
  8
ASSI
100
AcDbLine
 62
250
  6
CONTINUOUS
 10
-42.7901137628
 20
-0.7464065816
 11
-42.7916442159
 21
-0.6421775145
  0
LINE
  5
2A1
100
AcDbEntity
  8
ASSI
100
AcDbLine
 62
250
  6
CONTINUOUS
 10
-42.7949064804
 20
26.0559884631
 11
-42.7935216728
 21
25.9603218712
  0
LINE
  5
2A2
100
AcDbEntity
  8
ASSI
100
AcDbLine
 62
250
  6
CONTINUOUS
 10
-42.7916442159
 20
-0.6421775145
 11
-42.7925321824
 21
-0.542524352
  0
LWPOLYLINE
  5
2A3
100
AcDbEntity
  8
ASSI
100
AcDbPolyline
 62
250
  6
CONTINUOUS
 90
11
 70
0
 10
-42.7925321824
 20
-0.542524352
 10
-42.7927385521
 20
-0.4518436251
 10
-42.7925823584
 20
-0.411158635
 10
-42.7922551924
 20
-0.3741738627
 10
-42.7917606446
 20
-0.3412815789
 10
-42.791103112
 20
-0.3128054004
 10
-42.7902904485
 20
-0.2891089528
 10
-42.7893357115
 20
-0.2705167603
 10
-42.7882525557
 20
-0.2571849398
 10
-42.7870530637
 20
-0.2491663748
 10
-42.7857514919
 20
-0.246482734
  0
LINE
  5
2A4
100
AcDbEntity
  8
ASSI
100
AcDbLine
 62
7
  6
CONTINUOUS
 10
-43.2770252887
 20
-25.8213443373
 11
-43.2770252887
 21
-0.7464065816
  0
LINE
  5
2A5
100
AcDbEntity
  8
ASSI
100
AcDbLine
 62
7
  6
CONTINUOUS
 10
-43.2770252887
 20
0.7305480321
 11
-43.2770252887
 21
25.8054857878
  0
LINE
  5
2A6
100
AcDbEntity
  8
ASSI
100
AcDbLine
 62
250
  6
CONTINUOUS
 10
-42.7901137628
 20
-25.8213443373
 11
-42.7901137628
 21
-0.7464065816
  0
LINE
  5
2A7
100
AcDbEntity
  8
ASSI
100
AcDbLine
 62
250
  6
CONTINUOUS
 10
-42.7901137628
 20
0.7305480321
 11
-42.7901137628
 21
25.8054857878
  0
LINE
  5
2A8
100
AcDbEntity
  8
ASSI
100
AcDbLine
 62
250
  6
CONTINUOUS
 10
-42.7925873749
 20
0.3961128636
 11
-42.7927201985
 21
0.4806520158
  0
LINE
  5
2A9
100
AcDbEntity
  8
ASSI
100
AcDbLine
 62
250
  6
CONTINUOUS
 10
-42.7927201985
 20
0.4806520158
 11
-42.7921674766
 21
0.5761064943
  0
LINE
  5
2AA
100
AcDbEntity
  8
ASSI
100
AcDbLine
 62
250
  6
CONTINUOUS
 10
-42.7955055456
 20
-26.1564726177
 11
-42.7949066266
 21
-26.0718603003
  0
LWPOLYLINE
  5
2AB
100
AcDbEntity
  8
ASSI
100
AcDbPolyline
 62
250
  6
CONTINUOUS
 90
3
 70
0
 10
-42.7921674766
 20
0.5761064943
 10
-42.790953352
 20
0.6783068978
 10
-42.7901137628
 20
0.7305480321
  0
LINE
  5
2AC
100
AcDbEntity
  8
ASSI
100
AcDbLine
 62
250
  6
CONTINUOUS
 10
-42.7949066266
 20
-26.0718603003
 11
-42.7935218408
 21
-25.9761899466
  0
LWPOLYLINE
  5
2AD
100
AcDbEntity
  8
ASSI
100
AcDbPolyline
 62
250
  6
CONTINUOUS
 90
3
 70
0
 10
-42.7935218408
 20
-25.9761899466
 10
-42.7914124309
 20
-25.8737268065
 10
-42.7901137628
 20
-25.8213443373
  0
LWPOLYLINE
  5
2AE
100
AcDbEntity
  8
0
100
AcDbPolyline
 62
7
  6
CONTINUOUS
 90
3
 70
0
 43
0.3500000019
 10
-31.0495844727
 20
35.4478464355
 10
-31.1210146484
 20
35.2335612793
 10
-31.2638723145
 20
34.9478459473
  0
LWPOLYLINE
  5
2AF
100
AcDbEntity
  8
ASSI
100
AcDbPolyline
 62
250
  6
CONTINUOUS
 90
9
 70
0
 10
-42.7857514919
 20
0.2306241845
 10
-42.7870710218
 20
0.2333850948
 10
-42.7882805525
 20
0.2415898611
 10
-42.7893668399
 20
0.2551486426
 10
-42.7903179892
 20
0.2739129729
 10
-42.7911235855
 20
0.2976773853
 10
-42.7917748077
 20
0.3261816633
 10
-42.7922645249
 20
0.3591136896
 10
-42.7925873749
 20
0.3961128636
  0
LINE
  5
2B0
100
AcDbEntity
  8
ASSI
100
AcDbLine
 62
250
  6
CONTINUOUS
 10
-42.7914123491
 20
25.8578647627
 11
-42.7901137628
 21
25.8054857878
  0
LINE
  5
2B1
100
AcDbEntity
  8
ASSI
100
AcDbLine
 62
250
  6
CONTINUOUS
 10
-39.4770252887
 20
-0.6885764072
 11
-42.7901137628
 21
-0.7464065816
  0
LINE
  5
2B2
100
AcDbEntity
  8
ASSI
100
AcDbLine
 62
7
  6
CONTINUOUS
 10
-39.4770252887
 20
-0.1887287033
 11
-42.7857514919
 21
-0.246482734
  0
LINE
  5
2B3
100
AcDbEntity
  8
ASSI
100
AcDbLine
 62
250
  6
CONTINUOUS
 10
-43.2770252887
 20
-0.7464065816
 11
-42.7901137628
 21
-0.7464065816
  0
LINE
  5
2B4
100
AcDbEntity
  8
ASSI
100
AcDbLine
 62
7
  6
CONTINUOUS
 10
-42.7857514919
 20
0.2306241845
 11
-39.4770252887
 21
0.1728701538
  0
LINE
  5
2B5
100
AcDbEntity
  8
ASSI
100
AcDbLine
 62
7
  6
CONTINUOUS
 10
-39.4770252887
 20
-0.1887287033
 11
-39.4770252887
 21
-22.3421030259
  0
LINE
  5
2B6
100
AcDbEntity
  8
ASSI
100
AcDbLine
 62
7
  6
CONTINUOUS
 10
-39.4770252887
 20
0.1728701538
 11
-39.4770252887
 21
22.3262444765
  0
LINE
  5
2B7
100
AcDbEntity
  8
ASSI
100
AcDbLine
 62
250
  6
CONTINUOUS
 10
-42.7901137628
 20
0.7305480321
 11
-43.2770252887
 21
0.7305480321
  0
LINE
  5
2B8
100
AcDbEntity
  8
ASSI
100
AcDbLine
 62
250
  6
CONTINUOUS
 10
-42.7901137628
 20
0.7305480321
 11
-39.4770252887
 21
0.6727178577
  0
LINE
  5
2B9
100
AcDbEntity
  8
ASSI
100
AcDbLine
 62
7
  6
CONTINUOUS
 10
-39.4940623755
 20
-22.4715125485
 11
-40.5413541983
 21
-26.3800588414
  0
LINE
  5
2BA
100
AcDbEntity
  8
ASSI
100
AcDbLine
 62
7
  6
CONTINUOUS
 10
-39.4940623755
 20
22.455653999
 11
-40.5413541983
 21
26.3642002919
  0
LWPOLYLINE
  5
2BB
100
AcDbEntity
  8
0
100
AcDbPolyline
 62
7
  6
CONTINUOUS
 90
4
 70
0
 43
0.3500000019
 10
-30.0495861816
 20
35.5907041016
 10
-30.0495861816
 20
36.4478474121
 10
-29.6210131836
 20
36.8764177246
 10
-28.9781577148
 20
36.8764177246
  0
LINE
  5
2BC
100
AcDbEntity
  8
ASSI
100
AcDbLine
 62
250
  6
CONTINUOUS
 10
-42.7901137628
 20
25.8054857878
 11
-40.4083586745
 21
25.8678542398
  0
LINE
  5
2BD
100
AcDbEntity
  8
ASSI
100
AcDbLine
 62
7
  6
CONTINUOUS
 10
-42.7901137628
 20
26.3053144503
 11
-40.5413541983
 21
26.3642002919
  0
LINE
  5
2BE
100
AcDbEntity
  8
ASSI
100
AcDbLine
 62
250
  6
CONTINUOUS
 10
-43.2770252887
 20
25.8054857878
 11
-42.7901137628
 21
25.8054857878
  0
LWPOLYLINE
  5
2BF
100
AcDbEntity
  8
0
100
AcDbPolyline
 62
7
  6
CONTINUOUS
 90
6
 70
0
 43
0.3500000019
 10
-33.9067297363
 20
35.1621311035
 10
-32.835298584
 20
35.1621311035
 10
-32.6210134277
 20
35.3764162598
 10
-32.6210134277
 20
36.4478474121
 10
-33.0495864258
 20
36.8764177246
 10
-33.4781567383
 20
36.8764177246
  0
LWPOLYLINE
  5
2C0
100
AcDbEntity
  8
0
100
AcDbPolyline
 62
7
  6
CONTINUOUS
 90
13
 70
0
 43
0.3500000019
 10
-29.6210131836
 20
36.8764177246
 10
-29.9067285156
 20
37.0907028809
 10
-29.9067285156
 20
37.7335610352
 10
-29.6210131836
 20
38.1621313477
 10
-28.9781577148
 20
38.1621313477
 10
-28.6924423828
 20
37.7335610352
 10
-28.6924423828
 20
37.0907028809
 10
-28.9781577148
 20
36.8764177246
 10
-28.5495847168
 20
36.4478474121
 10
-28.5495847168
 20
35.5907041016
 10
-28.9781577148
 20
35.1621311035
 10
-29.6210131836
 20
35.1621311035
 10
-30.0495861816
 20
35.5907041016
  0
LWPOLYLINE
  5
2C1
100
AcDbEntity
  8
0
100
AcDbPolyline
 62
7
  6
CONTINUOUS
 90
10
 70
0
 43
0.3500000019
 10
-31.1210146484
 20
35.6621315918
 10
-31.0495844727
 20
35.5192739258
 10
-31.0495844727
 20
35.4478464355
 10
-31.1924421387
 20
35.3049887695
 10
-31.2638723145
 20
35.3049887695
 10
-31.3352998047
 20
35.3764162598
 10
-31.3352998047
 20
35.4478464355
 10
-31.2638723145
 20
35.5907041016
 10
-31.1924421387
 20
35.6621315918
 10
-31.1210146484
 20
35.6621315918
  0
ARC
  5
2C2
100
AcDbEntity
  8
ASSI
100
AcDbCircle
 62
7
  6
CONTINUOUS
 10
-39.9770252887
 20
22.3262444765
 40
0.5
100
AcDbArc
 50
0.0
 51
15.0
  0
ARC
  5
2C3
100
AcDbEntity
  8
ASSI
100
AcDbCircle
 62
7
  6
CONTINUOUS
 10
-42.7770252887
 20
25.8054857878
 40
0.5
100
AcDbArc
 50
91.5
 51
180.0
  0
ARC
  5
2C4
100
AcDbEntity
  8
ASSI
100
AcDbCircle
 62
7
  6
CONTINUOUS
 10
-42.7770252887
 20
0.7305480321
 40
0.5
100
AcDbArc
 50
180.0
 51
269.0
  0
ARC
  5
2C5
100
AcDbEntity
  8
ASSI
100
AcDbCircle
 62
7
  6
CONTINUOUS
 10
-39.9770252887
 20
-22.3421030259
 40
0.5
100
AcDbArc
 50
345.0
 51
360.0
  0
ARC
  5
2C6
100
AcDbEntity
  8
ASSI
100
AcDbCircle
 62
7
  6
CONTINUOUS
 10
-42.7770252887
 20
-25.8213443373
 40
0.5
100
AcDbArc
 50
180.0
 51
268.5
  0
ARC
  5
2C7
100
AcDbEntity
  8
ASSI
100
AcDbCircle
 62
7
  6
CONTINUOUS
 10
-42.7770252887
 20
-0.7464065816
 40
0.5
100
AcDbArc
 50
91.0
 51
180.0
  0
ELLIPSE
  5
2C8
100
AcDbEntity
  8
ASSI
100
AcDbEllipse
 62
7
  6
CONTINUOUS
 10
-21.9913345324
 20
0.6729463179
 30
0.0
 11
0.416247366
 21
0.2774630169
 31
0.0
 40
0.9995051766
 41
2.5538770461
 42
4.1242165221
  0
ELLIPSE
  5
2C9
100
AcDbEntity
  8
ASSI
100
AcDbEllipse
 62
7
  6
CONTINUOUS
 10
21.7083226751
 20
0.6729463179
 30
0.0
 11
0.416247366
 21
-0.2774630169
 31
0.0
 40
0.9995051766
 41
-0.9826238685
 42
0.5877156075
  0
ELLIPSE
  5
2CA
100
AcDbEntity
  8
ASSI
100
AcDbEllipse
 62
7
  6
CONTINUOUS
 10
-21.9669490975
 20
25.8675138941
 30
0.0
 11
0.4677351297
 21
0.1788908786
 31
0.0
 40
0.9906298547
 41
1.202347637
 42
2.7724587311
  0
ELLIPSE
  5
2CB
100
AcDbEntity
  8
ASSI
100
AcDbEllipse
 62
7
  6
CONTINUOUS
 10
21.6839372401
 20
25.8675138941
 30
0.0
 11
0.4677351297
 21
-0.1788908786
 31
0.0
 40
0.9906298547
 41
0.3691339225
 42
1.9392450166
  0
ELLIPSE
  5
2CC
100
AcDbEntity
  8
ASSI
100
AcDbEllipse
 62
7
  6
CONTINUOUS
 10
22.1954011105
 20
22.3262444765
 30
0.0
 11
0.0
 21
0.5
 31
0.0
 40
0.0261859216
 41
-1.5707963268
 42
-1.308996939
  0
ELLIPSE
  5
2CD
100
AcDbEntity
  8
ASSI
100
AcDbEllipse
 62
7
  6
CONTINUOUS
 10
-22.4784129679
 20
22.3262444765
 30
0.0
 11
0.0
 21
0.5
 31
0.0
 40
0.0261859216
 41
1.308996939
 42
1.5707963268
  0
ELLIPSE
  5
2CE
100
AcDbEntity
  8
ASSI
100
AcDbEllipse
 62
7
  6
CONTINUOUS
 10
21.6998427029
 20
0.1815976863
 30
0.0
 11
0.5
 21
0.0
 31
0.0
 40
0.0174550649
 41
-3.1241393611
 42
-1.5707963268
  0
ELLIPSE
  5
2CF
100
AcDbEntity
  8
ASSI
100
AcDbEllipse
 62
7
  6
CONTINUOUS
 10
-21.9828545602
 20
0.1815976863
 30
0.0
 11
0.5
 21
0.0
 31
0.0
 40
0.0174550649
 41
-1.5707963268
 42
-0.0174532925
  0
ELLIPSE
  5
2D0
100
AcDbEntity
  8
ASSI
100
AcDbEllipse
 62
7
  6
CONTINUOUS
 10
21.7083226751
 20
-0.6888048673
 30
0.0
 11
0.416247366
 21
0.2774630169
 31
0.0
 40
0.9995051766
 41
-0.5877156075
 42
0.9826238685
  0
ELLIPSE
  5
2D1
100
AcDbEntity
  8
ASSI
100
AcDbEllipse
 62
7
  6
CONTINUOUS
 10
-21.9913345324
 20
-0.6888048673
 30
0.0
 11
0.416247366
 21
-0.2774630169
 31
0.0
 40
0.9995051766
 41
2.1589687851
 42
3.7293082611
  0
ELLIPSE
  5
2D2
100
AcDbEntity
  8
ASSI
100
AcDbEllipse
 62
7
  6
CONTINUOUS
 10
21.6839372401
 20
-25.8833724435
 30
0.0
 11
0.4677351297
 21
0.1788908786
 31
0.0
 40
0.9906298547
 41
-1.9392450166
 42
-0.3691339225
  0
ELLIPSE
  5
2D3
100
AcDbEntity
  8
ASSI
100
AcDbEllipse
 62
7
  6
CONTINUOUS
 10
-21.9669490975
 20
-25.8833724435
 30
0.0
 11
0.4677351297
 21
-0.1788908786
 31
0.0
 40
0.9906298547
 41
-2.7724587311
 42
-1.202347637
  0
ELLIPSE
  5
2D4
100
AcDbEntity
  8
ASSI
100
AcDbEllipse
 62
7
  6
CONTINUOUS
 10
-22.4784129679
 20
-22.3421030259
 30
0.0
 11
0.0
 21
0.5
 31
0.0
 40
0.0261859216
 41
-4.7123889804
 42
-4.4505895926
  0
ELLIPSE
  5
2D5
100
AcDbEntity
  8
ASSI
100
AcDbEllipse
 62
7
  6
CONTINUOUS
 10
22.1954011105
 20
-22.3421030259
 30
0.0
 11
0.0
 21
0.5
 31
0.0
 40
0.0261859216
 41
-1.8325957146
 42
-1.5707963268
  0
ELLIPSE
  5
2D6
100
AcDbEntity
  8
ASSI
100
AcDbEllipse
 62
7
  6
CONTINUOUS
 10
-21.9828545602
 20
-0.1974562358
 30
0.0
 11
0.5
 21
0.0
 31
0.0
 40
0.0174550649
 41
0.0174532925
 42
1.5707963268
  0
ELLIPSE
  5
2D7
100
AcDbEntity
  8
ASSI
100
AcDbEllipse
 62
7
  6
CONTINUOUS
 10
21.6998427029
 20
-0.1974562358
 30
0.0
 11
0.5
 21
0.0
 31
0.0
 40
0.0174550649
 41
1.5707963268
 42
3.1241393611
  0
ENDSEC
  0
SECTION
  2
OBJECTS
  0
DICTIONARY
  5
C
100
AcDbDictionary
280
0
281
1
  3
ACAD_GROUP
350
D
  3
ACAD_MLINESTYLE
350
17
  3
ACAD_LAYOUT
350
1A
  3
ACAD_PLOTSETTINGS
350
19
  3
ACAD_PLOTSTYLENAME
350
E
  0
DICTIONARY
  5
D
102
{ACAD_REACTORS
330
C
102
}
100
AcDbDictionary
280
0
281
1
  0
ACDBDICTIONARYWDFLT
  5
E
102
{ACAD_REACTORS
330
C
102
}
100
AcDbDictionary
281
1
  3
Normal
350
F
100
AcDbDictionaryWithDefault
340
F
  0
DICTIONARY
  5
17
102
{ACAD_REACTORS
330
C
102
}
100
AcDbDictionary
280
0
281
1
  3
Standard
350
18
  0
DICTIONARY
  5
19
102
{ACAD_REACTORS
330
C
102
}
100
AcDbDictionary
281
1
  0
DICTIONARY
  5
1A
102
{ACAD_REACTORS
330
C
102
}
100
AcDbDictionary
281
1
  3
Model
350
2D8
  3
Layout1
350
2D9
  0
ACDBPLACEHOLDER
  5
F
102
{ACAD_REACTORS
330
E
102
}
  0
MLINESTYLE
  5
18
102
{ACAD_REACTORS
330
17
102
}
100
AcDbMlineStyle
  2
STANDARD
 70
0
  3

 62
256
 51
90.0
 52
90.0
 71
2
 49
0.5
 62
256
  6
BYLAYER
 49
-0.5
 62
256
  6
BYLAYER
  0
LAYOUT
  5
2D8
102
{ACAD_REACTORS
330
1A
102
}
100
AcDbPlotSettings
  1

  2
none_device
  4

  6

 40
0.0
 41
0.0
 42
0.0
 43
0.0
 44
210.0
 45
297.0
 46
0.0
 47
0.0
 48
0.0
 49
0.0
140
0.0
141
0.0
142
1.0
143
1.0
 70
1024
 72
1
 73
0
 74
0
  7

 75
0
147
1.0
148
0.0
149
0.0
100
AcDbLayout
  1
Model
 70
0
 71
0
 10
0.0
 20
0.0
 11
210.0
 21
297.0
 12
0.0
 22
0.0
 32
0.0
 14
0.0
 24
0.0
 34
0.0
 15
0.0
 25
0.0
 35
0.0
146
0.0
 13
0.0
 23
0.0
 33
0.0
 16
1.0
 26
0.0
 36
0.0
 17
0.0
 27
1.0
 37
0.0
 76
0
330
212
345
0
346
0
  0
LAYOUT
  5
2D9
102
{ACAD_REACTORS
330
1A
102
}
100
AcDbPlotSettings
  1

  2
none_device
  4

  6

 40
0.0
 41
0.0
 42
0.0
 43
0.0
 44
210.0
 45
297.0
 46
0.0
 47
0.0
 48
0.0
 49
0.0
140
0.0
141
0.0
142
1.0
143
1.0
 70
0
 72
1
 73
0
 74
0
  7

 75
0
147
1.0
148
0.0
149
0.0
100
AcDbLayout
  1
Layout1
 70
0
 71
1
 10
0.0
 20
0.0
 11
210.0
 21
297.0
 12
0.0
 22
0.0
 32
0.0
 14
0.0
 24
0.0
 34
0.0
 15
0.0
 25
0.0
 35
0.0
146
0.0
 13
0.0
 23
0.0
 33
0.0
 16
1.0
 26
0.0
 36
0.0
 17
0.0
 27
1.0
 37
0.0
 76
0
330
213
345
0
346
0
  0
ENDSEC
  0
EOF
