  0
SECTION
  2
HEADER
  9
$ACADVER
  1
AC1024
  9
$DWGCODEPAGE
  3
ANSI_1252
  9
$EXTMAX
 10
210.0
 20
297.0
 30
0.0
  9
$EXTMIN
 10
0.0
 20
0.0
 30
0.0
  9
$LIMMIN
 10
0.0
 20
0.0
  9
$LIMMAX
 10
210.0
 20
297.0
  9
$VIEWCTR
 10
105.0
 20
148.5
  9
$VIEWSIZE
 40
297.0
  9
$CLAYER
  8
0
  9
$LTSCALE
 40
19.36
  9
$CELTYPE
  6
BYLAYER
  9
$DIMSCALE
 40
1.0
  9
$DIMASZ
 40
3.0
  9
$DIMEXO
 40
0.5
  9
$DIMDLI
 40
13.376
  9
$DIMEXE
 40
1.5
  9
$DIMCEN
 40
3.168
  9
$DIMLFAC
 40
1.0
  9
$DIMBLK
  1
_FILLED
  9
$DIMALT
 70
0
  9
$DIMALTF
 40
0.0393700787
  9
$DIMTXT
 40
3.0
  9
$DIMTOL
 70
1
  9
$DIMLIM
 70
0
  9
$DIMTFAC
 40
1.0
  9
$DIMTP
 40
0.01
  9
$DIMTM
 40
0.01
  9
$DIMGAP
 40
0.625
  9
$DIMDSEP
 70
44
  9
$AUNITS
 70
0
  9
$PDMODE
 70
3
  9
$PDSIZE
 40
3.0
  9
$HANDSEED
  5
2E1
  9
$TILEMODE
 70
1
  9
$MEASUREMENT
 70
1
  9
$INSUNITS
 70
4
  0
ENDSEC
  0
SECTION
  2
CLASSES
  0
CLASS
  1
ACDBDICTIONARYWDFLT
  2
AcDbDictionaryWithDefault
  3
AutoCAD 2000
 90
0
 91
1
280
0
281
0
  0
CLASS
  1
ACDBPLACEHOLDER
  2
AcDbPlaceHolder
  3
AutoCAD 2000
 90
0
 91
1
280
0
281
0
  0
CLASS
  1
LAYOUT
  2
AcDbLayout
  3
AutoCAD 2000
 90
0
 91
0
280
0
281
0
  0
ENDSEC
  0
SECTION
  2
TABLES
  0
TABLE
  2
VPORT
  5
8
100
AcDbSymbolTable
 70
2
  0
VPORT
  5
1F4
100
AcDbSymbolTableRecord
100
AcDbViewportTableRecord
  2
*ACTIVE
 70
0
 10
0.0
 20
0.0
 11
1.0
 21
1.0
 12
105.0
 22
148.5
 13
0.0
 23
0.0
 14
1.0
 24
1.0
 15
0.0
 25
0.0
 16
0.0
 26
0.0
 36
1.0
 17
0.0
 27
0.0
 37
0.0
 40
297.0
 41
0.7070707071
 42
50.0
 43
0.0
 44
0.0
 50
0.0
 51
0.0
 71
0
 72
100
 73
1
 74
1
 75
0
 76
0
 77
0
 78
0
  0
ENDTAB
  0
TABLE
  2
LTYPE
  5
5
100
AcDbSymbolTable
 70
6
  0
LTYPE
  5
14
100
AcDbSymbolTableRecord
100
AcDbLinetypeTableRecord
  2
BYBLOCK
 70
0
  3

 72
65
 73
0
 40
0.0
  0
LTYPE
  5
15
100
AcDbSymbolTableRecord
100
AcDbLinetypeTableRecord
  2
BYLAYER
 70
0
  3

 72
65
 73
0
 40
0.0
  0
LTYPE
  5
16
100
AcDbSymbolTableRecord
100
AcDbLinetypeTableRecord
  2
CONTINUOUS
 70
64
  3
Solid line
 72
65
 73
0
 40
0.0
  0
LTYPE
  5
1F5
100
AcDbSymbolTableRecord
100
AcDbLinetypeTableRecord
  2
CENTER
 70
64
  3
____ _ ____ _ ____ _ ____ _ ____ _ ____ _ ____
 72
65
 73
4
 40
0.6
 49
0.375
 74
0
 49
-0.075
 74
0
 49
0.075
 74
0
 49
-0.075
 74
0
  0
LTYPE
  5
1F6
100
AcDbSymbolTableRecord
100
AcDbLinetypeTableRecord
  2
HIDDEN
 70
64
  3
- - - - - - - - - - - - - - - - - - - -
 72
65
 73
2
 40
0.2
 49
0.1
 74
0
 49
-0.1
 74
0
  0
LTYPE
  5
1F7
100
AcDbSymbolTableRecord
100
AcDbLinetypeTableRecord
  2
PHANTOM
 70
64
  3
_____ _ _ _____ _ _ _____ _ _ _____
 72
65
 73
6
 40
0.8
 49
0.45
 74
0
 49
-0.05
 74
0
 49
0.1
 74
0
 49
-0.05
 74
0
 49
0.1
 74
0
 49
-0.05
 74
0
  0
LTYPE
  5
1F8
100
AcDbSymbolTableRecord
100
AcDbLinetypeTableRecord
  2
DOT
 70
64
  3
. . . . . . . . . . . . . . . . . . . .
 72
65
 73
2
 40
0.2
 49
0.1
 74
0
 49
-0.1
 74
0
  0
LTYPE
  5
1F9
100
AcDbSymbolTableRecord
100
AcDbLinetypeTableRecord
  2
DASHED
 70
64
  3
- - - - - - - - - - - - - - - - - - - -
 72
65
 73
2
 40
0.2
 49
0.1
 74
0
 49
-0.1
 74
0
  0
ENDTAB
  0
TABLE
  2
LAYER
  5
2
100
AcDbSymbolTable
 70
36
  0
LAYER
  5
10
100
AcDbSymbolTableRecord
100
AcDbLayerTableRecord
  2
0
 70
0
 62
7
  6
CONTINUOUS
370
-3
390
F
  0
LAYER
  5
1FA
100
AcDbSymbolTableRecord
100
AcDbLayerTableRecord
  2
DEFAULT_1
 70
0
 62
7
  6
CENTER
370
-3
390
F
  0
LAYER
  5
1FB
100
AcDbSymbolTableRecord
100
AcDbLayerTableRecord
  2
DEFAULT_2
 70
0
 62
7
  6
HIDDEN
370
-3
390
F
  0
LAYER
  5
1FC
100
AcDbSymbolTableRecord
100
AcDbLayerTableRecord
  2
DEFAULT_3
 70
0
 62
7
  6
PHANTOM
370
-3
390
F
  0
LAYER
  5
1FD
100
AcDbSymbolTableRecord
100
AcDbLayerTableRecord
  2
ASSI
 70
0
 62
7
  6
CONTINUOUS
370
-3
390
F
  0
LAYER
  5
1FE
100
AcDbSymbolTableRecord
100
AcDbLayerTableRecord
  2
COORDINATE
 70
0
 62
7
  6
CONTINUOUS
370
-3
390
F
  0
LAYER
  5
1FF
100
AcDbSymbolTableRecord
100
AcDbLayerTableRecord
  2
COPY_PUBLISH
 70
0
 62
7
  6
CONTINUOUS
370
-3
390
F
  0
LAYER
  5
200
100
AcDbSymbolTableRecord
100
AcDbLayerTableRecord
  2
COSMETICI
 70
0
 62
7
  6
CONTINUOUS
370
-3
390
F
  0
LAYER
  5
201
100
AcDbSymbolTableRecord
100
AcDbLayerTableRecord
  2
CURVE
 70
0
 62
7
  6
CONTINUOUS
370
-3
390
F
  0
LAYER
  5
202
100
AcDbSymbolTableRecord
100
AcDbLayerTableRecord
  2
DRAFT
 70
0
 62
7
  6
CONTINUOUS
370
-3
390
F
  0
LAYER
  5
203
100
AcDbSymbolTableRecord
100
AcDbLayerTableRecord
  2
IMPORT_IGES
 70
0
 62
7
  6
CONTINUOUS
370
-3
390
F
  0
LAYER
  5
204
100
AcDbSymbolTableRecord
100
AcDbLayerTableRecord
  2
INTF_1
 70
0
 62
7
  6
CONTINUOUS
370
-3
390
F
  0
LAYER
  5
205
100
AcDbSymbolTableRecord
100
AcDbLayerTableRecord
  2
INTF_2
 70
0
 62
7
  6
CONTINUOUS
370
-3
390
F
  0
LAYER
  5
206
100
AcDbSymbolTableRecord
100
AcDbLayerTableRecord
  2
INTF_4
 70
0
 62
7
  6
CONTINUOUS
370
-3
390
F
  0
LAYER
  5
207
100
AcDbSymbolTableRecord
100
AcDbLayerTableRecord
  2
NOTE
 70
0
 62
7
  6
CONTINUOUS
370
-3
390
F
  0
LAYER
  5
208
100
AcDbSymbolTableRecord
100
AcDbLayerTableRecord
  2
PIANI
 70
0
 62
7
  6
CONTINUOUS
370
-3
390
F
  0
LAYER
  5
209
100
AcDbSymbolTableRecord
100
AcDbLayerTableRecord
  2
PUNTI
 70
0
 62
7
  6
CONTINUOUS
370
-3
390
F
  0
LAYER
  5
20A
100
AcDbSymbolTableRecord
100
AcDbLayerTableRecord
  2
RACCORDO
 70
0
 62
7
  6
CONTINUOUS
370
-3
390
F
  0
LAYER
  5
20B
100
AcDbSymbolTableRecord
100
AcDbLayerTableRecord
  2
SIMBOLI
 70
0
 62
7
  6
CONTINUOUS
370
-3
390
F
  0
LAYER
  5
20C
100
AcDbSymbolTableRecord
100
AcDbLayerTableRecord
  2
SMUSSO
 70
0
 62
7
  6
CONTINUOUS
370
-3
390
F
  0
LAYER
  5
20D
100
AcDbSymbolTableRecord
100
AcDbLayerTableRecord
  2
SNAPLINE
 70
0
 62
7
  6
CONTINUOUS
370
-3
390
F
  0
LAYER
  5
20E
100
AcDbSymbolTableRecord
100
AcDbLayerTableRecord
  2
SUPERFICI
 70
0
 62
7
  6
CONTINUOUS
370
-3
390
F
  0
LAYER
  5
20F
100
AcDbSymbolTableRecord
100
AcDbLayerTableRecord
  2
TRASH
 70
0
 62
7
  6
CONTINUOUS
370
-3
390
F
  0
ENDTAB
  0
TABLE
  2
STYLE
  5
3
100
AcDbSymbolTable
 70
1
  0
STYLE
  5
11
100
AcDbSymbolTableRecord
100
AcDbTextStyleTableRecord
  2
STANDARD
 70
0
 40
0.0
 41
0.8
 50
0.0
 71
0
 42
0.2
  3
txt
  4

  0
STYLE
  5
210
100
AcDbSymbolTableRecord
100
AcDbTextStyleTableRecord
  2
TEXTSTYLE_1
 70
0
 40
0.0
 41
0.8
 50
0.0
 71
0
 42
0.2
  3
gdt
  4

  0
ENDTAB
  0
TABLE
  2
VIEW
  5
6
100
AcDbSymbolTable
 70
0
  0
ENDTAB
  0
TABLE
  2
UCS
  5
7
100
AcDbSymbolTable
 70
0
  0
ENDTAB
  0
TABLE
  2
APPID
  5
9
100
AcDbSymbolTable
 70
1
  0
APPID
  5
211
100
AcDbSymbolTableRecord
100
AcDbRegAppTableRecord
  2
ACAD
 70
0
  0
ENDTAB
  0
TABLE
  2
BLOCK_RECORD
  5
1
100
AcDbSymbolTable
 70
0
  0
BLOCK_RECORD
  5
212
100
AcDbSymbolTableRecord
100
AcDbBlockTableRecord
  2
*Model_Space
  0
BLOCK_RECORD
  5
213
100
AcDbSymbolTableRecord
100
AcDbBlockTableRecord
  2
*Paper_Space
  0
BLOCK_RECORD
  5
214
100
AcDbSymbolTableRecord
100
AcDbBlockTableRecord
  2
_FILLED
  0
BLOCK_RECORD
  5
215
100
AcDbSymbolTableRecord
100
AcDbBlockTableRecord
  2
*D0
  0
BLOCK_RECORD
  5
216
100
AcDbSymbolTableRecord
100
AcDbBlockTableRecord
  2
*D1
  0
BLOCK_RECORD
  5
217
100
AcDbSymbolTableRecord
100
AcDbBlockTableRecord
  2
*D2
  0
ENDTAB
  0
TABLE
  2
DIMSTYLE
  5
A
100
AcDbSymbolTable
 70
1
100
AcDbDimStyleTable
 71
0
  0
DIMSTYLE
105
218
100
AcDbSymbolTableRecord
100
AcDbDimStyleTableRecord
  2
STANDARD
 70
0
  3

  4

 40
1.0
 41
3.0
 42
0.5
 43
0.38
 44
1.5
 45
0.0
 46
0.0
 47
0.01
 48
0.01
140
3.0
141
0.09
142
0.0
143
25.4
144
1.0
145
0.0
146
1.0
147
0.625
 71
1
 72
0
 73
0
 74
0
 75
0
 76
0
 77
1
 78
8
 79
2
170
0
171
1
172
0
173
0
174
0
175
0
176
0
177
0
178
0
270
2
179
2
271
2
272
2
273
2
274
2
275
0
280
0
281
0
282
0
283
1
284
8
285
0
286
0
287
3
288
0
340
11
278
44
341
214
342
214
343
214
344
214
  0
DIMSTYLE
105
219
100
AcDbSymbolTableRecord
100
AcDbDimStyleTableRecord
  2
DIMSTYLE_1
 70
0
  3

  4

 40
1.0
 41
3.0
 42
0.5
 43
0.38
 44
1.5
 45
0.0
 46
0.0
 47
0.0
 48
0.0
140
3.0
141
0.09
142
0.0
143
25.4
144
1.0
145
0.0
146
1.0
147
0.75
 71
0
 72
0
 73
0
 74
0
 75
0
 76
0
 77
1
 78
8
 79
2
170
0
171
1
172
0
173
0
174
0
175
0
176
0
177
0
178
0
270
2
179
2
271
2
272
2
273
2
274
2
275
0
280
0
281
0
282
0
283
1
284
8
285
0
286
0
287
3
288
0
340
11
278
44
341
214
342
214
343
214
344
214
  0
DIMSTYLE
105
21A
100
AcDbSymbolTableRecord
100
AcDbDimStyleTableRecord
  2
DIMSTYLE_2
 70
0
  3

  4

 40
1.0
 41
3.0
 42
0.5
 43
0.38
 44
1.5
 45
0.0
 46
0.0
 47
0.0
 48
0.0
140
3.0
141
0.09
142
0.0
143
25.4
144
1.0
145
0.0
146
1.0
147
0.75
 71
0
 72
0
 73
0
 74
0
 75
0
 76
0
 77
1
 78
8
 79
2
170
0
171
1
172
0
173
0
174
0
175
0
176
0
177
0
178
0
270
2
179
2
271
1
272
1
273
2
274
2
275
0
280
0
281
0
282
0
283
1
284
8
285
0
286
0
287
3
288
0
340
11
278
44
341
214
342
214
343
214
344
214
  0
ENDTAB
  0
ENDSEC
  0
SECTION
  2
BLOCKS
  0
BLOCK
  5
20
100
AcDbEntity
  8
0
100
AcDbBlockBegin
  2
*Model_Space
 70
0
 10
0.0
 20
0.0
 30
0.0
  3
*Model_Space
  1

  0
ENDBLK
  5
21
100
AcDbEntity
  8
0
100
AcDbBlockEnd
  0
BLOCK
  5
1C
100
AcDbEntity
  8
0
100
AcDbBlockBegin
  2
*Paper_Space
 70
0
 10
0.0
 20
0.0
 30
0.0
  3
*Paper_Space
  1

  0
ENDBLK
  5
1D
100
AcDbEntity
  8
0
100
AcDbBlockEnd
  0
BLOCK
  5
21B
100
AcDbEntity
  8
0
100
AcDbBlockBegin
  2
_FILLED
 70
64
 10
0.0
 20
0.0
  3
_FILLED
  1

  0
SOLID
  5
21C
100
AcDbEntity
  8
0
  6
BYBLOCK
 62
0
100
AcDbTrace
 10
0.0
 20
0.0
 11
-1.0
 21
0.3166666667
 12
-1.0
 22
-0.3166666667
 13
-1.0
 23
-0.3166666667
  0
ENDBLK
  5
21D
100
AcDbEntity
  8
0
  6
BYBLOCK
 62
0
100
AcDbBlockEnd
  0
BLOCK
  5
21E
100
AcDbEntity
  8
0
100
AcDbBlockBegin
 62
7
  6
CONTINUOUS
  2
*D0
 70
65
 10
0.0
 20
0.0
  3
*D0
  1

  0
LINE
  5
21F
100
AcDbEntity
  8
0
100
AcDbLine
 62
7
  6
CONTINUOUS
 10
-22.5547553442
 20
22.8354372868
 11
-22.5547553442
 21
35.9337196774
  0
LINE
  5
220
100
AcDbEntity
  8
0
100
AcDbLine
 62
7
  6
CONTINUOUS
 10
22.1452446558
 20
22.8354372868
 11
22.1452446558
 21
35.9337196774
  0
LINE
  5
221
100
AcDbEntity
  8
0
100
AcDbLine
 62
7
  6
CONTINUOUS
 10
-22.5547553442
 20
34.4337196774
 11
-0.2047553442
 21
34.4337196774
  0
LINE
  5
222
100
AcDbEntity
  8
0
100
AcDbLine
 62
7
  6
CONTINUOUS
 10
22.1452446558
 20
34.4337196774
 11
-0.2047553442
 21
34.4337196774
  0
INSERT
  5
223
100
AcDbEntity
  8
0
100
AcDbBlockReference
 62
7
  6
CONTINUOUS
  2
_FILLED
 10
-22.5547553442
 20
34.4337196774
 41
3.0
 42
3.0
 43
3.0
 50
180.0
  0
INSERT
  5
224
100
AcDbEntity
  8
0
100
AcDbBlockReference
 62
7
  6
CONTINUOUS
  2
_FILLED
 10
22.1452446558
 20
34.4337196774
 41
3.0
 42
3.0
 43
3.0
  0
ENDBLK
  5
225
100
AcDbEntity
  8
0
  6
BYBLOCK
 62
0
100
AcDbBlockEnd
  0
BLOCK
  5
226
100
AcDbEntity
  8
0
100
AcDbBlockBegin
 62
7
  6
CONTINUOUS
  2
*D1
 70
65
 10
0.0
 20
0.0
  3
*D1
  1

  0
LINE
  5
227
100
AcDbEntity
  8
0
100
AcDbLine
 62
7
  6
CONTINUOUS
 10
22.11754556
 20
26.3733931022
 11
31.6872300964
 21
26.3733931022
  0
LINE
  5
228
100
AcDbEntity
  8
0
100
AcDbLine
 62
7
  6
CONTINUOUS
 10
22.11754556
 20
-26.3708660311
 11
31.6872300964
 21
-26.3708660311
  0
LINE
  5
229
100
AcDbEntity
  8
0
100
AcDbLine
 62
7
  6
CONTINUOUS
 10
30.1872300964
 20
26.3733931022
 11
30.1872300964
 21
0.0012635356
  0
LINE
  5
22A
100
AcDbEntity
  8
0
100
AcDbLine
 62
7
  6
CONTINUOUS
 10
30.1872300964
 20
-26.3708660311
 11
30.1872300964
 21
0.0012635356
  0
INSERT
  5
22B
100
AcDbEntity
  8
0
100
AcDbBlockReference
 62
7
  6
CONTINUOUS
  2
_FILLED
 10
30.1872300964
 20
26.3733931022
 41
3.0
 42
3.0
 43
3.0
 50
90.0
  0
INSERT
  5
22C
100
AcDbEntity
  8
0
100
AcDbBlockReference
 62
7
  6
CONTINUOUS
  2
_FILLED
 10
30.1872300964
 20
-26.3708660311
 41
3.0
 42
3.0
 43
3.0
 50
270.0
  0
ENDBLK
  5
22D
100
AcDbEntity
  8
0
  6
BYBLOCK
 62
0
100
AcDbBlockEnd
  0
BLOCK
  5
22E
100
AcDbEntity
  8
0
100
AcDbBlockBegin
 62
7
  6
CONTINUOUS
  2
*D2
 70
65
 10
0.0
 20
0.0
  3
*D2
  1

  0
LINE
  5
22F
100
AcDbEntity
  8
0
100
AcDbLine
 62
7
  6
CONTINUOUS
 10
-44.7223763968
 20
26.3146785981
 11
-44.7223763968
 21
35.9179475197
  0
LINE
  5
230
100
AcDbEntity
  8
0
100
AcDbLine
 62
7
  6
CONTINUOUS
 10
-40.9223763968
 20
22.8354372868
 11
-40.9223763968
 21
35.9179475197
  0
LINE
  5
231
100
AcDbEntity
  8
0
100
AcDbLine
 62
7
  6
CONTINUOUS
 10
-44.7223763968
 20
34.4179475197
 11
-48.7223763968
 21
34.4179475197
  0
LINE
  5
232
100
AcDbEntity
  8
0
100
AcDbLine
 62
7
  6
CONTINUOUS
 10
-48.7223763968
 20
34.4179475197
 11
-42.8223763968
 21
34.4179475197
  0
LINE
  5
233
100
AcDbEntity
  8
0
100
AcDbLine
 62
7
  6
CONTINUOUS
 10
-40.9223763968
 20
34.4179475197
 11
-29.2292809785
 21
34.4179475197
  0
LINE
  5
234
100
AcDbEntity
  8
0
100
AcDbLine
 62
7
  6
CONTINUOUS
 10
-29.2292809785
 20
34.4179475197
 11
-42.8223763968
 21
34.4179475197
  0
INSERT
  5
235
100
AcDbEntity
  8
0
100
AcDbBlockReference
 62
7
  6
CONTINUOUS
  2
_FILLED
 10
-44.7223763968
 20
34.4179475197
 41
3.0
 42
3.0
 43
3.0
  0
INSERT
  5
236
100
AcDbEntity
  8
0
100
AcDbBlockReference
 62
7
  6
CONTINUOUS
  2
_FILLED
 10
-40.9223763968
 20
34.4179475197
 41
3.0
 42
3.0
 43
3.0
 50
180.0
  0
ENDBLK
  5
237
100
AcDbEntity
  8
0
  6
BYBLOCK
 62
0
100
AcDbBlockEnd
  0
ENDSEC
  0
SECTION
  2
ENTITIES
  0
DIMENSION
  5
238
100
AcDbEntity
  8
0
100
AcDbDimension
 62
7
  6
CONTINUOUS
  2
*D0
 10
22.1452446558
 20
34.4337196774
 11
-4.5976124871
 21
34.4337196774
 70
160
 71
2
 72
2
 41
0.9
 42
44.7
  3
DIMSTYLE_1
100
AcDbAlignedDimension
 13
-22.5547553442
 23
22.3354372868
 14
22.1452446558
 24
22.3354372868
100
AcDbRotatedDimension
  0
DIMENSION
  5
239
100
AcDbEntity
  8
0
100
AcDbDimension
 62
7
  6
CONTINUOUS
  2
*D1
 10
30.1872300964
 20
-26.3708660311
 11
30.1872300964
 21
-4.2844507502
 70
160
 71
2
 72
2
 41
0.9
 42
52.7442591333
  3
DIMSTYLE_2
100
AcDbAlignedDimension
 13
21.61754556
 23
26.3733931022
 14
21.61754556
 24
-26.3708660311
 50
270.0
100
AcDbRotatedDimension
  0
DIMENSION
  5
23A
100
AcDbEntity
  8
0
100
AcDbDimension
 62
7
  6
CONTINUOUS
  2
*D2
 10
-40.9223763968
 20
34.4179475197
 11
-35.4435666928
 21
34.4179475197
 70
160
 71
1
 72
2
 41
0.9
 42
3.8
  3
DIMSTYLE_1
100
AcDbAlignedDimension
 13
-44.7223763968
 23
25.8146785981
 14
-40.9223763968
 24
22.3354372868
100
AcDbRotatedDimension
  0
LWPOLYLINE
  5
23B
100
AcDbEntity
  8
ASSI
100
AcDbPolyline
 62
250
  6
CONTINUOUS
 90
16
 70
0
 10
21.5586597184
 20
-26.3119801895
 10
21.6101600665
 20
-26.3092846265
 10
21.6613142439
 20
-26.3012547176
 10
21.7115634821
 20
-26.2879134794
 10
21.7604102954
 20
-26.269315605
 10
21.8072310721
 20
-26.2456181461
 10
21.8513148612
 20
-26.2171444001
 10
21.8921207077
 20
-26.1842569012
 10
21.929263976
 20
-26.1472798074
 10
21.9623460337
 20
-26.106605509
 10
21.9910044998
 20
-26.06266749
 10
22.0149112211
 20
-26.0159549238
 10
22.0337920168
 20
-25.9669971363
 10
22.047437574
 20
-25.9163393821
 10
22.0557000458
 20
-25.8645339962
 10
22.0584883809
 20
-25.812151527
  0
LWPOLYLINE
  5
23C
100
AcDbEntity
  8
ASSI
100
AcDbPolyline
 62
250
  6
CONTINUOUS
 90
16
 70
0
 10
-21.9681704068
 20
-26.3119801895
 10
-22.0196821244
 20
-26.3092834409
 10
-22.0708449013
 20
-26.3012505129
 10
-22.121099801
 20
-26.2879052256
 10
-22.1699491928
 20
-26.2693031395
 10
-22.2167697718
 20
-26.245602069
 10
-22.2608512747
 20
-26.217125801
 10
-22.3016526065
 20
-26.1842378897
 10
-22.3387902348
 20
-26.1472625904
 10
-22.3718676137
 20
-26.1065905829
 10
-22.4005228934
 20
-26.0626542023
 10
-22.424427126
 20
-26.0159432596
 10
-22.4433058155
 20
-25.9669876103
 10
-22.4569496955
 20
-25.9163326793
 10
-22.4652111048
 20
-25.8645305019
 10
-22.4679990693
 20
-25.812151527
  0
LINE
  5
23D
100
AcDbEntity
  8
ASSI
100
AcDbLine
 62
7
  6
CONTINUOUS
 10
-22.0270562484
 20
-26.3708660311
 11
21.61754556
 21
-26.3708660311
  0
LINE
  5
23E
100
AcDbEntity
  8
ASSI
100
AcDbLine
 62
250
  6
CONTINUOUS
 10
-21.9681704068
 20
-26.3119801895
 11
21.5586597184
 21
-26.3119801895
  0
LINE
  5
23F
100
AcDbEntity
  8
ASSI
100
AcDbLine
 62
250
  6
CONTINUOUS
 10
-22.4679990693
 20
-25.812151527
 11
22.0584883809
 21
-25.812151527
  0
LWPOLYLINE
  5
240
100
AcDbEntity
  8
ASSI
100
AcDbPolyline
 62
250
  6
CONTINUOUS
 90
16
 70
0
 10
-22.4679990693
 20
0.7397408424
 10
-22.4652215465
 20
0.6873375292
 10
-22.45696749
 20
0.6355117754
 10
-22.4433278984
 20
0.584834591
 10
-22.4244505539
 20
0.5358586128
 10
-22.4005448529
 20
0.4891296766
 10
-22.3718853533
 20
0.4451778859
 10
-22.3388006699
 20
0.4044928959
 10
-22.3016533194
 20
0.3675081235
 10
-22.2608418976
 20
0.3346158398
 10
-22.2167500329
 20
0.3061396612
 10
-22.1699200393
 20
0.2824432136
 10
-22.12106688
 20
0.2638510212
 10
-22.0708160774
 20
0.2505192007
 10
-22.0196642942
 20
0.2425006356
 10
-21.9681704068
 20
0.2398169948
  0
LINE
  5
241
100
AcDbEntity
  8
ASSI
100
AcDbLine
 62
7
  6
CONTINUOUS
 10
-22.5543092124
 20
-22.4623197382
 11
-22.5303675212
 21
-25.874519979
  0
LINE
  5
242
100
AcDbEntity
  8
ASSI
100
AcDbLine
 62
7
  6
CONTINUOUS
 10
-22.5547553442
 20
22.3354372868
 11
-22.5547553442
 21
0.681910668
  0
LINE
  5
243
100
AcDbEntity
  8
ASSI
100
AcDbLine
 62
7
  6
CONTINUOUS
 10
-22.5547553442
 20
-0.6793835969
 11
-22.5547553442
 21
-22.3329102156
  0
LINE
  5
244
100
AcDbEntity
  8
ASSI
100
AcDbLine
 62
250
  6
CONTINUOUS
 10
-22.4679990693
 20
25.8146785981
 11
-22.4679990693
 21
0.7397408424
  0
LINE
  5
245
100
AcDbEntity
  8
ASSI
100
AcDbLine
 62
250
  6
CONTINUOUS
 10
-22.4679990693
 20
-0.7372137713
 11
-22.4679990693
 21
-25.812151527
  0
LINE
  5
246
100
AcDbEntity
  8
ASSI
100
AcDbLine
 62
250
  6
CONTINUOUS
 10
-21.9681704068
 20
0.2398169948
 11
-21.9681704068
 21
26.3145072606
  0
LINE
  5
247
100
AcDbEntity
  8
ASSI
100
AcDbLine
 62
250
  6
CONTINUOUS
 10
-21.9681704068
 20
-0.2372899237
 11
-21.9681704068
 21
-26.3119801895
  0
LINE
  5
248
100
AcDbEntity
  8
ASSI
100
AcDbLine
 62
7
  6
CONTINUOUS
 10
-22.5543092124
 20
22.4648468093
 11
-22.5303675212
 21
25.8770470501
  0
LINE
  5
249
100
AcDbEntity
  8
CURVE
100
AcDbLine
 62
7
  6
CONTINUOUS
 10
-15.4548553442
 20
13.6983028835
 11
-14.7766490296
 21
14.3765091981
  0
LINE
  5
24A
100
AcDbEntity
  8
CURVE
100
AcDbLine
 62
7
  6
CONTINUOUS
 10
-13.6963426002
 20
14.4612092796
 11
-11.4551003442
 21
16.7024515356
  0
LINE
  5
24B
100
AcDbEntity
  8
CURVE
100
AcDbLine
 62
7
  6
CONTINUOUS
 10
-11.26465086
 20
15.8972946719
 11
-10.8695384933
 21
16.2924070386
  0
LINE
  5
24C
100
AcDbEntity
  8
CURVE
100
AcDbLine
 62
7
  6
CONTINUOUS
 10
-10.6790890951
 20
15.4872500888
 11
-10.2839766423
 21
15.8823625416
  0
LINE
  5
24D
100
AcDbEntity
  8
CURVE
100
AcDbLine
 62
250
  6
CONTINUOUS
 10
-11.4551003442
 20
16.7024515356
 11
-15.4548553442
 21
13.9015895356
  0
LINE
  5
24E
100
AcDbEntity
  8
CURVE
100
AcDbLine
 62
250
  6
CONTINUOUS
 10
-15.4548553442
 20
13.2297955356
 11
-11.4551003442
 21
16.0306585356
  0
LINE
  5
24F
100
AcDbEntity
  8
CURVE
100
AcDbLine
 62
250
  6
CONTINUOUS
 10
-15.4541663442
 20
-13.8990624644
 11
-11.4544103442
 21
-16.6999244644
  0
LINE
  5
250
100
AcDbEntity
  8
CURVE
100
AcDbLine
 62
250
  6
CONTINUOUS
 10
-11.4544103442
 20
-16.0281314644
 11
-15.4541663442
 21
-13.2272684644
  0
LINE
  5
251
100
AcDbEntity
  8
CURVE
100
AcDbLine
 62
7
  6
CONTINUOUS
 10
-10.0935273303
 20
15.0772055058
 11
-9.6984147914
 21
15.4723180447
  0
LINE
  5
252
100
AcDbEntity
  8
CURVE
100
AcDbLine
 62
7
  6
CONTINUOUS
 10
-9.5079655654
 20
14.6671609227
 11
-9.1128529404
 21
15.0622735477
  0
LINE
  5
253
100
AcDbEntity
  8
CURVE
100
AcDbLine
 62
7
  6
CONTINUOUS
 10
-8.9224038006
 20
14.2571163397
 11
-8.5272910895
 21
14.6522290508
  0
LINE
  5
254
100
AcDbEntity
  8
CURVE
100
AcDbLine
 62
250
  6
CONTINUOUS
 10
-15.4548553442
 20
13.9015895356
 11
-15.4548553442
 21
13.2297955356
  0
LINE
  5
255
100
AcDbEntity
  8
CURVE
100
AcDbLine
 62
250
  6
CONTINUOUS
 10
-15.4541663442
 20
-13.2272684644
 11
-15.4541663442
 21
-13.8990624644
  0
LINE
  5
256
100
AcDbEntity
  8
CURVE
100
AcDbLine
 62
7
  6
CONTINUOUS
 10
-8.3368420357
 20
13.8470717566
 11
-7.9417292385
 21
14.2421845538
  0
LINE
  5
257
100
AcDbEntity
  8
ASSI
100
AcDbLine
 62
7
  6
CONTINUOUS
 10
-21.5461801282
 20
0.1906381802
 11
-21.5355547728
 21
0.2012635356
  0
LINE
  5
258
100
AcDbEntity
  8
CURVE
100
AcDbLine
 62
7
  6
CONTINUOUS
 10
-7.7512802709
 20
13.4370271735
 11
-7.4553443442
 21
13.7329631002
  0
LINE
  5
259
100
AcDbEntity
  8
ASSI
100
AcDbLine
 62
7
  6
CONTINUOUS
 10
-21.5461801282
 20
-0.188111109
 11
-21.5355547728
 21
-0.1987364644
  0
LINE
  5
25A
100
AcDbEntity
  8
ASSI
100
AcDbLine
 62
250
  6
CONTINUOUS
 10
-22.5547553442
 20
0.681910668
 11
-22.4679990693
 21
0.7397408424
  0
LINE
  5
25B
100
AcDbEntity
  8
ASSI
100
AcDbLine
 62
250
  6
CONTINUOUS
 10
-22.0548124516
 20
0.1820629641
 11
-21.9681704068
 21
0.2398169948
  0
LINE
  5
25C
100
AcDbEntity
  8
ASSI
100
AcDbLine
 62
250
  6
CONTINUOUS
 10
-22.4679990693
 20
-0.7372137713
 11
-22.5547553442
 21
-0.6793835969
  0
LINE
  5
25D
100
AcDbEntity
  8
ASSI
100
AcDbLine
 62
250
  6
CONTINUOUS
 10
-21.9681704068
 20
-0.2372899237
 11
-22.0548124516
 21
-0.179535893
  0
LWPOLYLINE
  5
25E
100
AcDbEntity
  8
0
100
AcDbPolyline
 62
7
  6
CONTINUOUS
 90
3
 70
0
 43
0.3500000019
 10
0.8309614258
 20
35.4694328613
 10
0.75953125
 20
35.2551477051
 10
0.6166708984
 20
34.9694350586
  0
LINE
  5
25F
100
AcDbEntity
  8
CURVE
100
AcDbLine
 62
250
  6
CONTINUOUS
 10
-7.4553443442
 20
13.2297955356
 11
-7.4553443442
 21
13.9015895356
  0
LINE
  5
260
100
AcDbEntity
  8
CURVE
100
AcDbLine
 62
250
  6
CONTINUOUS
 10
-7.4546553442
 20
-13.8990624644
 11
-7.4546553442
 21
-13.2272684644
  0
LWPOLYLINE
  5
261
100
AcDbEntity
  8
0
100
AcDbPolyline
 62
7
  6
CONTINUOUS
 90
2
 70
0
 43
0.3500000019
 10
-3.597612793
 20
35.1837202148
 10
-3.597612793
 20
36.6837189941
  0
LINE
  5
262
100
AcDbEntity
  8
ASSI
100
AcDbLine
 62
250
  6
CONTINUOUS
 10
21.5586597184
 20
26.3145072606
 11
21.61754556
 21
26.3733931022
  0
LINE
  5
263
100
AcDbEntity
  8
ASSI
100
AcDbLine
 62
250
  6
CONTINUOUS
 10
22.0584883809
 20
25.8146785981
 11
22.1208568328
 21
25.8770470501
  0
LINE
  5
264
100
AcDbEntity
  8
ASSI
100
AcDbLine
 62
250
  6
CONTINUOUS
 10
21.61754556
 20
-26.3708660311
 11
21.5586597184
 21
-26.3119801895
  0
LINE
  5
265
100
AcDbEntity
  8
ASSI
100
AcDbLine
 62
250
  6
CONTINUOUS
 10
22.1208568328
 20
-25.874519979
 11
22.0584883809
 21
-25.812151527
  0
LWPOLYLINE
  5
266
100
AcDbEntity
  8
0
100
AcDbPolyline
 62
7
  6
CONTINUOUS
 90
2
 70
0
 43
0.3500000019
 10
-1.2404707031
 20
35.1837202148
 10
-1.2404707031
 20
36.6837189941
  0
LINE
  5
267
100
AcDbEntity
  8
CURVE
100
AcDbLine
 62
7
  6
CONTINUOUS
 10
-15.4337810778
 20
-13.9133374147
 11
-15.038668212
 21
-13.518224549
  0
LINE
  5
268
100
AcDbEntity
  8
CURVE
100
AcDbLine
 62
7
  6
CONTINUOUS
 10
-14.8482192268
 20
-14.3233819117
 11
-14.4531064472
 21
-13.9282691321
  0
LWPOLYLINE
  5
269
100
AcDbEntity
  8
ASSI
100
AcDbPolyline
 62
250
  6
CONTINUOUS
 90
16
 70
0
 10
21.5586597184
 20
0.2398169948
 10
21.610890906
 20
0.2425779051
 10
21.6625501704
 20
0.2507826714
 10
21.7130718506
 20
0.2643414529
 10
21.7619027422
 20
0.2831057831
 10
21.8085081547
 20
0.3068701956
 10
21.8523777659
 20
0.3353744736
 10
21.8930312107
 20
0.3683064999
 10
21.9300233401
 20
0.4053056739
 10
21.9629490962
 20
0.4459668605
 10
21.991447947
 20
0.4898448261
 10
22.0152078347
 20
0.5364591139
 10
22.0339685922
 20
0.5852993046
 10
22.0475247922
 20
0.635830606
 10
22.0557279963
 20
0.6874997081
 10
22.0584883809
 20
0.7397408424
  0
LINE
  5
26A
100
AcDbEntity
  8
ASSI
100
AcDbLine
 62
250
  6
CONTINUOUS
 10
-22.4679990693
 20
-0.7372137713
 11
22.0584883809
 21
-0.7372137713
  0
LINE
  5
26B
100
AcDbEntity
  8
ASSI
100
AcDbLine
 62
250
  6
CONTINUOUS
 10
21.5586597184
 20
-0.2372899237
 11
-21.9681704068
 21
-0.2372899237
  0
LINE
  5
26C
100
AcDbEntity
  8
ASSI
100
AcDbLine
 62
7
  6
CONTINUOUS
 10
-21.5355547728
 20
-0.1987364644
 11
21.1260440844
 21
-0.1987364644
  0
LINE
  5
26D
100
AcDbEntity
  8
ASSI
100
AcDbLine
 62
7
  6
CONTINUOUS
 10
-22.0548124516
 20
-0.179535893
 11
-22.0461039758
 21
-0.179535893
  0
LINE
  5
26E
100
AcDbEntity
  8
ASSI
100
AcDbLine
 62
7
  6
CONTINUOUS
 10
21.6365932873
 20
-0.179535893
 11
21.6453017632
 21
-0.179535893
  0
LINE
  5
26F
100
AcDbEntity
  8
ASSI
100
AcDbLine
 62
7
  6
CONTINUOUS
 10
21.6453017632
 20
0.1820629641
 11
21.6365932873
 21
0.1820629641
  0
LINE
  5
270
100
AcDbEntity
  8
ASSI
100
AcDbLine
 62
7
  6
CONTINUOUS
 10
-22.0461039758
 20
0.1820629641
 11
-22.0548124516
 21
0.1820629641
  0
LINE
  5
271
100
AcDbEntity
  8
ASSI
100
AcDbLine
 62
7
  6
CONTINUOUS
 10
21.1260440844
 20
0.2012635356
 11
-21.5355547728
 21
0.2012635356
  0
LINE
  5
272
100
AcDbEntity
  8
ASSI
100
AcDbLine
 62
250
  6
CONTINUOUS
 10
-21.9681704068
 20
0.2398169948
 11
21.5586597184
 21
0.2398169948
  0
LWPOLYLINE
  5
273
100
AcDbEntity
  8
0
100
AcDbPolyline
 62
7
  6
CONTINUOUS
 90
4
 70
0
 43
0.3500000019
 10
1.8309570313
 20
37.5408623047
 10
1.8309570313
 20
38.183720459
 10
3.3309584961
 20
38.183720459
 10
2.4738178711
 20
35.1837202148
  0
LINE
  5
274
100
AcDbEntity
  8
CURVE
100
AcDbLine
 62
7
  6
CONTINUOUS
 10
-14.2626573759
 20
-14.7334264087
 11
-13.8675446824
 21
-14.3383137151
  0
LINE
  5
275
100
AcDbEntity
  8
CURVE
100
AcDbLine
 62
7
  6
CONTINUOUS
 10
-13.6770955249
 20
-15.1434709056
 11
-13.2819829175
 21
-14.7483582982
  0
LINE
  5
276
100
AcDbEntity
  8
CURVE
100
AcDbLine
 62
7
  6
CONTINUOUS
 10
-13.091533674
 20
-15.5535154026
 11
-12.6964211527
 21
-15.1584028812
  0
LINE
  5
277
100
AcDbEntity
  8
ASSI
100
AcDbLine
 62
250
  6
CONTINUOUS
 10
-22.4679990693
 20
-25.812151527
 11
-22.5303675212
 21
-25.874519979
  0
LINE
  5
278
100
AcDbEntity
  8
CURVE
100
AcDbLine
 62
7
  6
CONTINUOUS
 10
-12.505971823
 20
-15.9635598995
 11
-12.1108593878
 21
-15.5684474643
  0
LWPOLYLINE
  5
279
100
AcDbEntity
  8
ASSI
100
AcDbPolyline
 62
250
  6
CONTINUOUS
 90
16
 70
0
 10
-21.9681704068
 20
-0.2372899237
 10
-22.0204015945
 20
-0.2400508339
 10
-22.0720608588
 20
-0.2482556003
 10
-22.122582539
 20
-0.2618143818
 10
-22.1714134307
 20
-0.280578712
 10
-22.2180188431
 20
-0.3043431244
 10
-22.2618884543
 20
-0.3328474025
 10
-22.3025418991
 20
-0.3657794288
 10
-22.3395340285
 20
-0.4027786028
 10
-22.3724597846
 20
-0.4434397894
 10
-22.4009586354
 20
-0.487317755
 10
-22.4247185231
 20
-0.5339320428
 10
-22.4434792806
 20
-0.5827722335
 10
-22.4570354806
 20
-0.6333035349
 10
-22.4652386847
 20
-0.684972637
 10
-22.4679990693
 20
-0.7372137713
  0
LINE
  5
27A
100
AcDbEntity
  8
ASSI
100
AcDbLine
 62
250
  6
CONTINUOUS
 10
-22.4679990693
 20
0.7397408424
 11
22.0584883809
 21
0.7397408424
  0
LWPOLYLINE
  5
27B
100
AcDbEntity
  8
0
100
AcDbPolyline
 62
7
  6
CONTINUOUS
 90
4
 70
0
 43
0.3500000019
 10
27.0800820313
 20
1.9298349915
 10
26.4372265625
 20
1.9298349915
 10
26.4372265625
 20
3.4298351135
 10
29.4372294922
 20
2.5726921387
  0
LINE
  5
27C
100
AcDbEntity
  8
ASSI
100
AcDbLine
 62
250
  6
CONTINUOUS
 10
-22.5303675212
 20
25.8770470501
 11
-22.4679990693
 21
25.8146785981
  0
LINE
  5
27D
100
AcDbEntity
  8
ASSI
100
AcDbLine
 62
250
  6
CONTINUOUS
 10
-21.9681704068
 20
-26.3119801895
 11
-22.0270562484
 21
-26.3708660311
  0
LINE
  5
27E
100
AcDbEntity
  8
CURVE
100
AcDbLine
 62
7
  6
CONTINUOUS
 10
-11.9204099721
 20
-16.3736043965
 11
-11.525297623
 21
-15.9784920474
  0
LINE
  5
27F
100
AcDbEntity
  8
CURVE
100
AcDbLine
 62
7
  6
CONTINUOUS
 10
-10.7762040296
 20
-16.2250048019
 11
-8.534961208
 21
-13.9837619803
  0
LINE
  5
280
100
AcDbEntity
  8
ASSI
100
AcDbLine
 62
250
  6
CONTINUOUS
 10
-22.0270562484
 20
26.3733931022
 11
-21.9681704068
 21
26.3145072606
  0
LINE
  5
281
100
AcDbEntity
  8
CURVE
100
AcDbLine
 62
250
  6
CONTINUOUS
 10
-7.4546553442
 20
-13.2272684644
 11
-11.4544103442
 21
-16.0281314644
  0
LINE
  5
282
100
AcDbEntity
  8
CURVE
100
AcDbLine
 62
250
  6
CONTINUOUS
 10
-11.4551003442
 20
16.0306585356
 11
-7.4553443442
 21
13.2297955356
  0
LINE
  5
283
100
AcDbEntity
  8
CURVE
100
AcDbLine
 62
250
  6
CONTINUOUS
 10
-11.4544103442
 20
-16.6999244644
 11
-7.4546553442
 21
-13.8990624644
  0
LINE
  5
284
100
AcDbEntity
  8
CURVE
100
AcDbLine
 62
250
  6
CONTINUOUS
 10
-7.4553443442
 20
13.9015895356
 11
-11.4551003442
 21
16.7024515356
  0
LWPOLYLINE
  5
285
100
AcDbEntity
  8
0
100
AcDbPolyline
 62
7
  6
CONTINUOUS
 90
3
 70
0
 43
0.3500000019
 10
29.1515195313
 20
0.929834938
 10
29.3658046875
 20
0.8584063568
 10
29.6515146484
 20
0.7155492783
  0
LINE
  5
286
100
AcDbEntity
  8
ASSI
100
AcDbLine
 62
250
  6
CONTINUOUS
 10
21.6453017632
 20
-0.179535893
 11
21.5586597184
 21
-0.2372899237
  0
LINE
  5
287
100
AcDbEntity
  8
ASSI
100
AcDbLine
 62
250
  6
CONTINUOUS
 10
22.1452446558
 20
-0.6793835969
 11
22.0584883809
 21
-0.7372137713
  0
LWPOLYLINE
  5
288
100
AcDbEntity
  8
0
100
AcDbPolyline
 62
7
  6
CONTINUOUS
 90
10
 70
0
 43
0.3500000019
 10
28.937234375
 20
0.8584063568
 10
29.0800839844
 20
0.929834938
 10
29.1515195313
 20
0.929834938
 10
29.2943691406
 20
0.7869778595
 10
29.2943691406
 20
0.7155492783
 10
29.2229443359
 20
0.644120697
 10
29.1515195313
 20
0.644120697
 10
29.0086591797
 20
0.7155492783
 10
28.937234375
 20
0.7869778595
 10
28.937234375
 20
0.8584063568
  0
LINE
  5
289
100
AcDbEntity
  8
ASSI
100
AcDbLine
 62
250
  6
CONTINUOUS
 10
21.5586597184
 20
0.2398169948
 11
21.6453017632
 21
0.1820629641
  0
LINE
  5
28A
100
AcDbEntity
  8
ASSI
100
AcDbLine
 62
250
  6
CONTINUOUS
 10
22.0584883809
 20
0.7397408424
 11
22.1452446558
 21
0.681910668
  0
LINE
  5
28B
100
AcDbEntity
  8
ASSI
100
AcDbLine
 62
7
  6
CONTINUOUS
 10
21.1366694398
 20
-0.188111109
 11
21.1260440844
 21
-0.1987364644
  0
LINE
  5
28C
100
AcDbEntity
  8
ASSI
100
AcDbLine
 62
7
  6
CONTINUOUS
 10
21.1366694398
 20
0.1906381802
 11
21.1260440844
 21
0.2012635356
  0
LWPOLYLINE
  5
28D
100
AcDbEntity
  8
0
100
AcDbPolyline
 62
7
  6
CONTINUOUS
 90
10
 70
0
 43
0.3500000019
 10
0.75953125
 20
35.6837207031
 10
0.8309614258
 20
35.5408630371
 10
0.8309614258
 20
35.4694328613
 10
0.6881010742
 20
35.3265778809
 10
0.6166708984
 20
35.3265778809
 10
0.5452460938
 20
35.3980053711
 10
0.5452460938
 20
35.4694328613
 10
0.6166708984
 20
35.6122905273
 10
0.6881010742
 20
35.6837207031
 10
0.75953125
 20
35.6837207031
  0
LWPOLYLINE
  5
28E
100
AcDbEntity
  8
ASSI
100
AcDbPolyline
 62
250
  6
CONTINUOUS
 90
16
 70
0
 10
22.0584883809
 20
-0.7372137713
 10
22.055710858
 20
-0.684810458
 10
22.0474568016
 20
-0.6329847042
 10
22.0338172099
 20
-0.5823075199
 10
22.0149398655
 20
-0.5333315417
 10
21.9910341645
 20
-0.4866026055
 10
21.9623746648
 20
-0.4426508148
 10
21.9292899815
 20
-0.4019658248
 10
21.892142631
 20
-0.3649810524
 10
21.8513312091
 20
-0.3320887686
 10
21.8072393445
 20
-0.3036125901
 10
21.7604093509
 20
-0.2799161425
 10
21.7115561916
 20
-0.2613239501
 10
21.661305389
 20
-0.2479921295
 10
21.6101536058
 20
-0.2399735645
 10
21.5586597184
 20
-0.2372899237
  0
LINE
  5
28F
100
AcDbEntity
  8
ASSI
100
AcDbLine
 62
7
  6
CONTINUOUS
 10
22.144798524
 20
22.4648468093
 11
22.1208568328
 21
25.8770470501
  0
LINE
  5
290
100
AcDbEntity
  8
ASSI
100
AcDbLine
 62
250
  6
CONTINUOUS
 10
21.5586597184
 20
-0.2372899237
 11
21.5586597184
 21
-26.3119801895
  0
LINE
  5
291
100
AcDbEntity
  8
ASSI
100
AcDbLine
 62
250
  6
CONTINUOUS
 10
21.5586597184
 20
0.2398169948
 11
21.5586597184
 21
26.3145072606
  0
LINE
  5
292
100
AcDbEntity
  8
ASSI
100
AcDbLine
 62
250
  6
CONTINUOUS
 10
22.0584883809
 20
-25.812151527
 11
22.0584883809
 21
-0.7372137713
  0
LINE
  5
293
100
AcDbEntity
  8
ASSI
100
AcDbLine
 62
250
  6
CONTINUOUS
 10
22.0584883809
 20
0.7397408424
 11
22.0584883809
 21
25.8146785981
  0
LINE
  5
294
100
AcDbEntity
  8
ASSI
100
AcDbLine
 62
7
  6
CONTINUOUS
 10
22.1452446558
 20
-22.3329102156
 11
22.1452446558
 21
-0.6793835969
  0
LINE
  5
295
100
AcDbEntity
  8
ASSI
100
AcDbLine
 62
7
  6
CONTINUOUS
 10
22.1452446558
 20
0.681910668
 11
22.1452446558
 21
22.3354372868
  0
LINE
  5
296
100
AcDbEntity
  8
ASSI
100
AcDbLine
 62
7
  6
CONTINUOUS
 10
22.144798524
 20
-22.4623197382
 11
22.1208568328
 21
-25.874519979
  0
LWPOLYLINE
  5
297
100
AcDbEntity
  8
ASSI
100
AcDbPolyline
 62
250
  6
CONTINUOUS
 90
16
 70
0
 10
-21.9681704068
 20
26.3145072606
 10
-22.019670755
 20
26.3118116976
 10
-22.0708249324
 20
26.3037817887
 10
-22.1210741705
 20
26.2904405505
 10
-22.1699209838
 20
26.2718426761
 10
-22.2167417606
 20
26.2481452172
 10
-22.2608255496
 20
26.2196714712
 10
-22.3016313961
 20
26.1867839724
 10
-22.3387746644
 20
26.1498068785
 10
-22.3718567221
 20
26.1091325801
 10
-22.4005151882
 20
26.0651945611
 10
-22.4244219095
 20
26.0184819949
 10
-22.4433027053
 20
25.9695242074
 10
-22.4569482624
 20
25.9188664532
 10
-22.4652107342
 20
25.8670610673
 10
-22.4679990693
 20
25.8146785981
  0
LINE
  5
298
100
AcDbEntity
  8
ASSI
100
AcDbLine
 62
250
  6
CONTINUOUS
 10
-22.4679990693
 20
25.8146785981
 11
22.0584883809
 21
25.8146785981
  0
LINE
  5
299
100
AcDbEntity
  8
ASSI
100
AcDbLine
 62
250
  6
CONTINUOUS
 10
21.5586597184
 20
26.3145072606
 11
-21.9681704068
 21
26.3145072606
  0
LINE
  5
29A
100
AcDbEntity
  8
ASSI
100
AcDbLine
 62
7
  6
CONTINUOUS
 10
21.61754556
 20
26.3733931022
 11
-22.0270562484
 21
26.3733931022
  0
LWPOLYLINE
  5
29B
100
AcDbEntity
  8
ASSI
100
AcDbPolyline
 62
250
  6
CONTINUOUS
 90
16
 70
0
 10
21.5586597184
 20
26.3145072606
 10
21.610171436
 20
26.311810512
 10
21.6613342129
 20
26.303777584
 10
21.7115891126
 20
26.2904322967
 10
21.7604385044
 20
26.2718302107
 10
21.8072590834
 20
26.2481291401
 10
21.8513405863
 20
26.2196528721
 10
21.892141918
 20
26.1867649608
 10
21.9292795463
 20
26.1497896615
 10
21.9623569253
 20
26.1091176541
 10
21.991012205
 20
26.0651812734
 10
22.0149164376
 20
26.0184703307
 10
22.0337951271
 20
25.9695146815
 10
22.0474390071
 20
25.9188597505
 10
22.0557004164
 20
25.867057573
 10
22.0584883809
 20
25.8146785981
  0
LWPOLYLINE
  5
29C
100
AcDbEntity
  8
0
100
AcDbPolyline
 62
7
  6
CONTINUOUS
 90
8
 70
0
 43
0.3500000019
 10
29.4372294922
 20
-4.2844506531
 10
29.4372294922
 20
-3.4273080139
 10
29.0086591797
 20
-2.9987363586
 10
28.1515185547
 20
-2.9987363586
 10
27.7229482422
 20
-3.4273080139
 10
27.7229482422
 20
-4.2844506531
 10
26.4372265625
 20
-4.2844506531
 10
26.4372265625
 20
-2.9987363586
  0
LWPOLYLINE
  5
29D
100
AcDbEntity
  8
0
100
AcDbPolyline
 62
7
  6
CONTINUOUS
 90
7
 70
0
 43
0.3500000019
 10
29.4372294922
 20
-0.6415935974
 10
29.4372294922
 20
-2.1415935516
 10
27.2943779297
 20
-0.6415935974
 10
26.865796875
 20
-0.6415935974
 10
26.4372265625
 20
-1.0701650009
 10
26.4372265625
 20
-1.7130222321
 10
27.0800820313
 20
-2.1415935516
  0
LWPOLYLINE
  5
29E
100
AcDbEntity
  8
0
100
AcDbPolyline
 62
7
  6
CONTINUOUS
 90
3
 70
0
 43
0.3500000019
 10
-0.7404702148
 20
35.8265756836
 10
-2.2404716797
 20
35.8265756836
 10
-1.5976108398
 20
38.183720459
  0
LWPOLYLINE
  5
29F
100
AcDbEntity
  8
0
100
AcDbPolyline
 62
7
  6
CONTINUOUS
 90
3
 70
0
 43
0.3500000019
 10
-3.0976123047
 20
35.8265756836
 10
-4.5976137695
 20
35.8265756836
 10
-3.9547529297
 20
38.183720459
  0
LWPOLYLINE
  5
2A0
100
AcDbEntity
  8
0
100
AcDbPolyline
 62
7
  6
CONTINUOUS
 90
5
 70
0
 43
0.3500000019
 10
-34.5864228516
 20
36.8822319336
 10
-34.2292800293
 20
37.0965197754
 10
-34.2292800293
 20
37.7393752441
 10
-34.5864228516
 20
38.1679482422
 10
-35.4435661621
 20
38.1679482422
  0
LINE
  5
2A1
100
AcDbEntity
  8
ASSI
100
AcDbLine
 62
7
  6
CONTINUOUS
 10
-41.9867053065
 20
-26.3708660311
 11
-44.235464871
 21
-26.3119801895
  0
LINE
  5
2A2
100
AcDbEntity
  8
ASSI
100
AcDbLine
 62
250
  6
CONTINUOUS
 10
-44.7223763968
 20
-25.812151527
 11
-44.235464871
 21
-25.812151527
  0
LINE
  5
2A3
100
AcDbEntity
  8
ASSI
100
AcDbLine
 62
250
  6
CONTINUOUS
 10
-41.8537097826
 20
-25.874519979
 11
-44.235464871
 21
-25.812151527
  0
LWPOLYLINE
  5
2A4
100
AcDbEntity
  8
ASSI
100
AcDbPolyline
 62
250
  6
CONTINUOUS
 90
10
 70
0
 10
-44.235464871
 20
26.3145072606
 10
-44.2367431359
 20
26.311810512
 10
-44.2378725308
 20
26.303777584
 10
-44.238839043
 20
26.2904322967
 10
-44.2396310966
 20
26.2718302107
 10
-44.2402365022
 20
26.2481291401
 10
-44.2406451397
 20
26.2196528721
 10
-44.2408523599
 20
26.1867649608
 10
-44.2408566106
 20
26.1497896615
 10
-44.2402575886
 20
26.0651812734
  0
LWPOLYLINE
  5
2A5
100
AcDbEntity
  8
ASSI
100
AcDbPolyline
 62
250
  6
CONTINUOUS
 90
9
 70
0
 10
-44.235464871
 20
-26.3119801895
 10
-44.2367428693
 20
-26.3092846265
 10
-44.237872118
 20
-26.3012547176
 10
-44.238838588
 20
-26.2879134794
 10
-44.2396306843
 20
-26.269315605
 10
-44.2402361897
 20
-26.2456181461
 10
-44.2406449531
 20
-26.2171444001
 10
-44.2408523023
 20
-26.1842569012
 10
-44.2408566537
 20
-26.1472798074
  0
LINE
  5
2A6
100
AcDbEntity
  8
ASSI
100
AcDbLine
 62
250
  6
CONTINUOUS
 10
-44.2388727809
 20
25.9695146815
 11
-44.2367634573
 21
25.867057573
  0
LINE
  5
2A7
100
AcDbEntity
  8
ASSI
100
AcDbLine
 62
250
  6
CONTINUOUS
 10
-44.235464871
 20
-0.7372137713
 11
-44.2369953241
 21
-0.6329847042
  0
LINE
  5
2A8
100
AcDbEntity
  8
ASSI
100
AcDbLine
 62
250
  6
CONTINUOUS
 10
-44.2402575886
 20
26.0651812734
 11
-44.2388727809
 21
25.9695146815
  0
LINE
  5
2A9
100
AcDbEntity
  8
ASSI
100
AcDbLine
 62
250
  6
CONTINUOUS
 10
-44.2369953241
 20
-0.6329847042
 11
-44.2378832905
 21
-0.5333315417
  0
LWPOLYLINE
  5
2AA
100
AcDbEntity
  8
ASSI
100
AcDbPolyline
 62
250
  6
CONTINUOUS
 90
11
 70
0
 10
-44.2378832905
 20
-0.5333315417
 10
-44.2380896603
 20
-0.4426508148
 10
-44.2379334665
 20
-0.4019658248
 10
-44.2376063005
 20
-0.3649810524
 10
-44.2371117528
 20
-0.3320887686
 10
-44.2364542202
 20
-0.3036125901
 10
-44.2356415567
 20
-0.2799161425
 10
-44.2346868196
 20
-0.2613239501
 10
-44.2336036638
 20
-0.2479921295
 10
-44.2324041718
 20
-0.2399735645
 10
-44.2311026001
 20
-0.2372899237
  0
LINE
  5
2AB
100
AcDbEntity
  8
ASSI
100
AcDbLine
 62
7
  6
CONTINUOUS
 10
-44.7223763968
 20
-25.812151527
 11
-44.7223763968
 21
-0.7372137713
  0
LINE
  5
2AC
100
AcDbEntity
  8
ASSI
100
AcDbLine
 62
7
  6
CONTINUOUS
 10
-44.7223763968
 20
0.7397408424
 11
-44.7223763968
 21
25.8146785981
  0
LINE
  5
2AD
100
AcDbEntity
  8
ASSI
100
AcDbLine
 62
250
  6
CONTINUOUS
 10
-44.235464871
 20
-25.812151527
 11
-44.235464871
 21
-0.7372137713
  0
LINE
  5
2AE
100
AcDbEntity
  8
ASSI
100
AcDbLine
 62
250
  6
CONTINUOUS
 10
-44.235464871
 20
0.7397408424
 11
-44.235464871
 21
25.8146785981
  0
LINE
  5
2AF
100
AcDbEntity
  8
ASSI
100
AcDbLine
 62
250
  6
CONTINUOUS
 10
-44.2379384831
 20
0.4053056739
 11
-44.2380713066
 21
0.4898448261
  0
LINE
  5
2B0
100
AcDbEntity
  8
ASSI
100
AcDbLine
 62
250
  6
CONTINUOUS
 10
-44.2380713066
 20
0.4898448261
 11
-44.2375185848
 21
0.5852993046
  0
LINE
  5
2B1
100
AcDbEntity
  8
ASSI
100
AcDbLine
 62
250
  6
CONTINUOUS
 10
-44.2408566537
 20
-26.1472798074
 11
-44.2402577347
 21
-26.06266749
  0
LWPOLYLINE
  5
2B2
100
AcDbEntity
  8
ASSI
100
AcDbPolyline
 62
250
  6
CONTINUOUS
 90
3
 70
0
 10
-44.2375185848
 20
0.5852993046
 10
-44.2363044602
 20
0.6874997081
 10
-44.235464871
 20
0.7397408424
  0
LINE
  5
2B3
100
AcDbEntity
  8
ASSI
100
AcDbLine
 62
250
  6
CONTINUOUS
 10
-44.2402577347
 20
-26.06266749
 11
-44.2388729489
 21
-25.9669971363
  0
LWPOLYLINE
  5
2B4
100
AcDbEntity
  8
ASSI
100
AcDbPolyline
 62
250
  6
CONTINUOUS
 90
3
 70
0
 10
-44.2388729489
 20
-25.9669971363
 10
-44.2367635391
 20
-25.8645339962
 10
-44.235464871
 20
-25.812151527
  0
LWPOLYLINE
  5
2B5
100
AcDbEntity
  8
0
100
AcDbPolyline
 62
7
  6
CONTINUOUS
 90
3
 70
0
 43
0.3500000019
 10
-32.586423584
 20
35.4536606445
 10
-32.6578510742
 20
35.2393754883
 10
-32.8007087402
 20
34.9536628418
  0
LWPOLYLINE
  5
2B6
100
AcDbEntity
  8
ASSI
100
AcDbPolyline
 62
250
  6
CONTINUOUS
 90
9
 70
0
 10
-44.2311026001
 20
0.2398169948
 10
-44.23242213
 20
0.2425779051
 10
-44.2336316607
 20
0.2507826714
 10
-44.234717948
 20
0.2643414529
 10
-44.2356690973
 20
0.2831057831
 10
-44.2364746936
 20
0.3068701956
 10
-44.2371259158
 20
0.3353744736
 10
-44.2376156331
 20
0.3683064999
 10
-44.2379384831
 20
0.4053056739
  0
LINE
  5
2B7
100
AcDbEntity
  8
ASSI
100
AcDbLine
 62
250
  6
CONTINUOUS
 10
-44.2367634573
 20
25.867057573
 11
-44.235464871
 21
25.8146785981
  0
LINE
  5
2B8
100
AcDbEntity
  8
ASSI
100
AcDbLine
 62
250
  6
CONTINUOUS
 10
-40.9223763968
 20
-0.6793835969
 11
-44.235464871
 21
-0.7372137713
  0
LINE
  5
2B9
100
AcDbEntity
  8
ASSI
100
AcDbLine
 62
7
  6
CONTINUOUS
 10
-40.9223763968
 20
-0.179535893
 11
-44.2311026001
 21
-0.2372899237
  0
LINE
  5
2BA
100
AcDbEntity
  8
ASSI
100
AcDbLine
 62
250
  6
CONTINUOUS
 10
-44.7223763968
 20
-0.7372137713
 11
-44.235464871
 21
-0.7372137713
  0
LINE
  5
2BB
100
AcDbEntity
  8
ASSI
100
AcDbLine
 62
7
  6
CONTINUOUS
 10
-44.2311026001
 20
0.2398169948
 11
-40.9223763968
 21
0.1820629641
  0
LINE
  5
2BC
100
AcDbEntity
  8
ASSI
100
AcDbLine
 62
7
  6
CONTINUOUS
 10
-40.9223763968
 20
-0.179535893
 11
-40.9223763968
 21
-22.3329102156
  0
LINE
  5
2BD
100
AcDbEntity
  8
ASSI
100
AcDbLine
 62
7
  6
CONTINUOUS
 10
-40.9223763968
 20
0.1820629641
 11
-40.9223763968
 21
22.3354372868
  0
LINE
  5
2BE
100
AcDbEntity
  8
ASSI
100
AcDbLine
 62
250
  6
CONTINUOUS
 10
-44.235464871
 20
0.7397408424
 11
-44.7223763968
 21
0.7397408424
  0
LINE
  5
2BF
100
AcDbEntity
  8
ASSI
100
AcDbLine
 62
250
  6
CONTINUOUS
 10
-44.235464871
 20
0.7397408424
 11
-40.9223763968
 21
0.681910668
  0
LINE
  5
2C0
100
AcDbEntity
  8
ASSI
100
AcDbLine
 62
7
  6
CONTINUOUS
 10
-40.9394134837
 20
-22.4623197382
 11
-41.9867053065
 21
-26.3708660311
  0
LINE
  5
2C1
100
AcDbEntity
  8
ASSI
100
AcDbLine
 62
7
  6
CONTINUOUS
 10
-40.9394134837
 20
22.4648468093
 11
-41.9867053065
 21
26.3733931022
  0
LWPOLYLINE
  5
2C2
100
AcDbEntity
  8
0
100
AcDbPolyline
 62
7
  6
CONTINUOUS
 90
4
 70
0
 43
0.3500000019
 10
-31.5864226074
 20
35.5965183105
 10
-31.5864226074
 20
36.4536616211
 10
-31.1578522949
 20
36.8822319336
 10
-30.5149941406
 20
36.8822319336
  0
LINE
  5
2C3
100
AcDbEntity
  8
ASSI
100
AcDbLine
 62
250
  6
CONTINUOUS
 10
-44.235464871
 20
25.8146785981
 11
-41.8537097826
 21
25.8770470501
  0
LINE
  5
2C4
100
AcDbEntity
  8
ASSI
100
AcDbLine
 62
7
  6
CONTINUOUS
 10
-44.235464871
 20
26.3145072606
 11
-41.9867053065
 21
26.3733931022
  0
LINE
  5
2C5
100
AcDbEntity
  8
ASSI
100
AcDbLine
 62
250
  6
CONTINUOUS
 10
-44.7223763968
 20
25.8146785981
 11
-44.235464871
 21
25.8146785981
  0
LWPOLYLINE
  5
2C6
100
AcDbEntity
  8
0
100
AcDbPolyline
 62
7
  6
CONTINUOUS
 90
6
 70
0
 43
0.3500000019
 10
-35.4435661621
 20
35.167947998
 10
-34.3721376953
 20
35.167947998
 10
-34.1578525391
 20
35.3822331543
 10
-34.1578525391
 20
36.4536616211
 10
-34.5864228516
 20
36.8822319336
 10
-35.0149958496
 20
36.8822319336
  0
LWPOLYLINE
  5
2C7
100
AcDbEntity
  8
0
100
AcDbPolyline
 62
7
  6
CONTINUOUS
 90
13
 70
0
 43
0.3500000019
 10
-31.1578522949
 20
36.8822319336
 10
-31.443567627
 20
37.0965197754
 10
-31.443567627
 20
37.7393752441
 10
-31.1578522949
 20
38.1679482422
 10
-30.5149941406
 20
38.1679482422
 10
-30.2292814941
 20
37.7393752441
 10
-30.2292814941
 20
37.0965197754
 10
-30.5149941406
 20
36.8822319336
 10
-30.0864238281
 20
36.4536616211
 10
-30.0864238281
 20
35.5965183105
 10
-30.5149941406
 20
35.167947998
 10
-31.1578522949
 20
35.167947998
 10
-31.5864226074
 20
35.5965183105
  0
LWPOLYLINE
  5
2C8
100
AcDbEntity
  8
0
100
AcDbPolyline
 62
7
  6
CONTINUOUS
 90
10
 70
0
 43
0.3500000019
 10
-32.6578510742
 20
35.6679484863
 10
-32.586423584
 20
35.5250908203
 10
-32.586423584
 20
35.4536606445
 10
-32.72928125
 20
35.3108056641
 10
-32.8007087402
 20
35.3108056641
 10
-32.872138916
 20
35.3822331543
 10
-32.872138916
 20
35.4536606445
 10
-32.8007087402
 20
35.5965183105
 10
-32.72928125
 20
35.6679484863
 10
-32.6578510742
 20
35.6679484863
  0
ARC
  5
2C9
100
AcDbEntity
  8
ASSI
100
AcDbCircle
 62
7
  6
CONTINUOUS
 10
-41.4223763968
 20
22.3354372868
 40
0.5
100
AcDbArc
 50
0.0
 51
15.0
  0
ARC
  5
2CA
100
AcDbEntity
  8
ASSI
100
AcDbCircle
 62
7
  6
CONTINUOUS
 10
-44.2223763968
 20
25.8146785981
 40
0.5
100
AcDbArc
 50
91.5
 51
180.0
  0
ARC
  5
2CB
100
AcDbEntity
  8
ASSI
100
AcDbCircle
 62
7
  6
CONTINUOUS
 10
-44.2223763968
 20
0.7397408424
 40
0.5
100
AcDbArc
 50
180.0
 51
269.0
  0
ARC
  5
2CC
100
AcDbEntity
  8
ASSI
100
AcDbCircle
 62
7
  6
CONTINUOUS
 10
-41.4223763968
 20
-22.3329102156
 40
0.5
100
AcDbArc
 50
345.0
 51
360.0
  0
ARC
  5
2CD
100
AcDbEntity
  8
ASSI
100
AcDbCircle
 62
7
  6
CONTINUOUS
 10
-44.2223763968
 20
-25.812151527
 40
0.5
100
AcDbArc
 50
180.0
 51
268.5
  0
ARC
  5
2CE
100
AcDbEntity
  8
ASSI
100
AcDbCircle
 62
7
  6
CONTINUOUS
 10
-44.2223763968
 20
-0.7372137713
 40
0.5
100
AcDbArc
 50
91.0
 51
180.0
  0
ELLIPSE
  5
2CF
100
AcDbEntity
  8
ASSI
100
AcDbEllipse
 62
7
  6
CONTINUOUS
 10
-22.054583948
 20
0.6821391282
 30
0.0
 11
0.416247366
 21
0.2774630169
 31
0.0
 40
0.9995051766
 41
2.5538770461
 42
4.1242165221
  0
ELLIPSE
  5
2D0
100
AcDbEntity
  8
ASSI
100
AcDbEllipse
 62
7
  6
CONTINUOUS
 10
21.6450732595
 20
0.6821391282
 30
0.0
 11
0.416247366
 21
-0.2774630169
 31
0.0
 40
0.9995051766
 41
-0.9826238685
 42
0.5877156075
  0
ELLIPSE
  5
2D1
100
AcDbEntity
  8
ASSI
100
AcDbEllipse
 62
7
  6
CONTINUOUS
 10
-22.030198513
 20
25.8767067044
 30
0.0
 11
0.4677351297
 21
0.1788908786
 31
0.0
 40
0.9906298547
 41
1.202347637
 42
2.7724587311
  0
ELLIPSE
  5
2D2
100
AcDbEntity
  8
ASSI
100
AcDbEllipse
 62
7
  6
CONTINUOUS
 10
21.6206878246
 20
25.8767067044
 30
0.0
 11
0.4677351297
 21
-0.1788908786
 31
0.0
 40
0.9906298547
 41
0.3691339225
 42
1.9392450166
  0
ELLIPSE
  5
2D3
100
AcDbEntity
  8
ASSI
100
AcDbEllipse
 62
7
  6
CONTINUOUS
 10
22.132151695
 20
22.3354372868
 30
0.0
 11
0.0
 21
0.5
 31
0.0
 40
0.0261859216
 41
-1.5707963268
 42
-1.308996939
  0
ELLIPSE
  5
2D4
100
AcDbEntity
  8
ASSI
100
AcDbEllipse
 62
7
  6
CONTINUOUS
 10
-22.5416623834
 20
22.3354372868
 30
0.0
 11
0.0
 21
0.5
 31
0.0
 40
0.0261859216
 41
1.308996939
 42
1.5707963268
  0
ELLIPSE
  5
2D5
100
AcDbEntity
  8
ASSI
100
AcDbEllipse
 62
7
  6
CONTINUOUS
 10
21.6365932873
 20
0.1907904966
 30
0.0
 11
0.5
 21
0.0
 31
0.0
 40
0.0174550649
 41
-3.1241393611
 42
-1.5707963268
  0
ELLIPSE
  5
2D6
100
AcDbEntity
  8
ASSI
100
AcDbEllipse
 62
7
  6
CONTINUOUS
 10
-22.0461039758
 20
0.1907904966
 30
0.0
 11
0.5
 21
0.0
 31
0.0
 40
0.0174550649
 41
-1.5707963268
 42
-0.0174532925
  0
ELLIPSE
  5
2D7
100
AcDbEntity
  8
ASSI
100
AcDbEllipse
 62
7
  6
CONTINUOUS
 10
21.6450732595
 20
-0.679612057
 30
0.0
 11
0.416247366
 21
0.2774630169
 31
0.0
 40
0.9995051766
 41
-0.5877156075
 42
0.9826238685
  0
ELLIPSE
  5
2D8
100
AcDbEntity
  8
ASSI
100
AcDbEllipse
 62
7
  6
CONTINUOUS
 10
-22.054583948
 20
-0.679612057
 30
0.0
 11
0.416247366
 21
-0.2774630169
 31
0.0
 40
0.9995051766
 41
2.1589687851
 42
3.7293082611
  0
ELLIPSE
  5
2D9
100
AcDbEntity
  8
ASSI
100
AcDbEllipse
 62
7
  6
CONTINUOUS
 10
21.6206878246
 20
-25.8741796332
 30
0.0
 11
0.4677351297
 21
0.1788908786
 31
0.0
 40
0.9906298547
 41
-1.9392450166
 42
-0.3691339225
  0
ELLIPSE
  5
2DA
100
AcDbEntity
  8
ASSI
100
AcDbEllipse
 62
7
  6
CONTINUOUS
 10
-22.030198513
 20
-25.8741796332
 30
0.0
 11
0.4677351297
 21
-0.1788908786
 31
0.0
 40
0.9906298547
 41
-2.7724587311
 42
-1.202347637
  0
ELLIPSE
  5
2DB
100
AcDbEntity
  8
ASSI
100
AcDbEllipse
 62
7
  6
CONTINUOUS
 10
-22.5416623834
 20
-22.3329102156
 30
0.0
 11
0.0
 21
0.5
 31
0.0
 40
0.0261859216
 41
-4.7123889804
 42
-4.4505895926
  0
ELLIPSE
  5
2DC
100
AcDbEntity
  8
ASSI
100
AcDbEllipse
 62
7
  6
CONTINUOUS
 10
22.132151695
 20
-22.3329102156
 30
0.0
 11
0.0
 21
0.5
 31
0.0
 40
0.0261859216
 41
-1.8325957146
 42
-1.5707963268
  0
ELLIPSE
  5
2DD
100
AcDbEntity
  8
ASSI
100
AcDbEllipse
 62
7
  6
CONTINUOUS
 10
-22.0461039758
 20
-0.1882634255
 30
0.0
 11
0.5
 21
0.0
 31
0.0
 40
0.0174550649
 41
0.0174532925
 42
1.5707963268
  0
ELLIPSE
  5
2DE
100
AcDbEntity
  8
ASSI
100
AcDbEllipse
 62
7
  6
CONTINUOUS
 10
21.6365932873
 20
-0.1882634255
 30
0.0
 11
0.5
 21
0.0
 31
0.0
 40
0.0174550649
 41
1.5707963268
 42
3.1241393611
  0
ENDSEC
  0
SECTION
  2
OBJECTS
  0
DICTIONARY
  5
C
100
AcDbDictionary
280
0
281
1
  3
ACAD_GROUP
350
D
  3
ACAD_MLINESTYLE
350
17
  3
ACAD_LAYOUT
350
1A
  3
ACAD_PLOTSETTINGS
350
19
  3
ACAD_PLOTSTYLENAME
350
E
  0
DICTIONARY
  5
D
102
{ACAD_REACTORS
330
C
102
}
100
AcDbDictionary
280
0
281
1
  0
ACDBDICTIONARYWDFLT
  5
E
102
{ACAD_REACTORS
330
C
102
}
100
AcDbDictionary
281
1
  3
Normal
350
F
100
AcDbDictionaryWithDefault
340
F
  0
DICTIONARY
  5
17
102
{ACAD_REACTORS
330
C
102
}
100
AcDbDictionary
280
0
281
1
  3
Standard
350
18
  0
DICTIONARY
  5
19
102
{ACAD_REACTORS
330
C
102
}
100
AcDbDictionary
281
1
  0
DICTIONARY
  5
1A
102
{ACAD_REACTORS
330
C
102
}
100
AcDbDictionary
281
1
  3
Model
350
2DF
  3
Layout1
350
2E0
  0
ACDBPLACEHOLDER
  5
F
102
{ACAD_REACTORS
330
E
102
}
  0
MLINESTYLE
  5
18
102
{ACAD_REACTORS
330
17
102
}
100
AcDbMlineStyle
  2
STANDARD
 70
0
  3

 62
256
 51
90.0
 52
90.0
 71
2
 49
0.5
 62
256
  6
BYLAYER
 49
-0.5
 62
256
  6
BYLAYER
  0
LAYOUT
  5
2DF
102
{ACAD_REACTORS
330
1A
102
}
100
AcDbPlotSettings
  1

  2
none_device
  4

  6

 40
0.0
 41
0.0
 42
0.0
 43
0.0
 44
210.0
 45
297.0
 46
0.0
 47
0.0
 48
0.0
 49
0.0
140
0.0
141
0.0
142
1.0
143
1.0
 70
1024
 72
1
 73
0
 74
0
  7

 75
0
147
1.0
148
0.0
149
0.0
100
AcDbLayout
  1
Model
 70
0
 71
0
 10
0.0
 20
0.0
 11
210.0
 21
297.0
 12
0.0
 22
0.0
 32
0.0
 14
0.0
 24
0.0
 34
0.0
 15
0.0
 25
0.0
 35
0.0
146
0.0
 13
0.0
 23
0.0
 33
0.0
 16
1.0
 26
0.0
 36
0.0
 17
0.0
 27
1.0
 37
0.0
 76
0
330
212
345
0
346
0
  0
LAYOUT
  5
2E0
102
{ACAD_REACTORS
330
1A
102
}
100
AcDbPlotSettings
  1

  2
none_device
  4

  6

 40
0.0
 41
0.0
 42
0.0
 43
0.0
 44
210.0
 45
297.0
 46
0.0
 47
0.0
 48
0.0
 49
0.0
140
0.0
141
0.0
142
1.0
143
1.0
 70
0
 72
1
 73
0
 74
0
  7

 75
0
147
1.0
148
0.0
149
0.0
100
AcDbLayout
  1
Layout1
 70
0
 71
1
 10
0.0
 20
0.0
 11
210.0
 21
297.0
 12
0.0
 22
0.0
 32
0.0
 14
0.0
 24
0.0
 34
0.0
 15
0.0
 25
0.0
 35
0.0
146
0.0
 13
0.0
 23
0.0
 33
0.0
 16
1.0
 26
0.0
 36
0.0
 17
0.0
 27
1.0
 37
0.0
 76
0
330
213
345
0
346
0
  0
ENDSEC
  0
EOF
