  0
SECTION
  2
HEADER
  9
$ACADVER
  1
AC1024
  9
$DWGCODEPAGE
  3
ANSI_1252
  9
$EXTMAX
 10
210.0
 20
297.0
 30
0.0
  9
$EXTMIN
 10
0.0
 20
0.0
 30
0.0
  9
$LIMMIN
 10
0.0
 20
0.0
  9
$LIMMAX
 10
210.0
 20
297.0
  9
$VIEWCTR
 10
105.0
 20
148.5
  9
$VIEWSIZE
 40
297.0
  9
$CLAYER
  8
0
  9
$LTSCALE
 40
19.36
  9
$CELTYPE
  6
BYLAYER
  9
$DIMSCALE
 40
1.0
  9
$DIMASZ
 40
3.0
  9
$DIMEXO
 40
0.5
  9
$DIMDLI
 40
13.376
  9
$DIMEXE
 40
1.5
  9
$DIMCEN
 40
3.168
  9
$DIMLFAC
 40
1.0
  9
$DIMBLK
  1
_FILLED
  9
$DIMALT
 70
0
  9
$DIMALTF
 40
0.0393700787
  9
$DIMTXT
 40
3.0
  9
$DIMTOL
 70
1
  9
$DIMLIM
 70
0
  9
$DIMTFAC
 40
1.0
  9
$DIMTP
 40
0.01
  9
$DIMTM
 40
0.01
  9
$DIMGAP
 40
0.625
  9
$DIMDSEP
 70
44
  9
$AUNITS
 70
0
  9
$PDMODE
 70
3
  9
$PDSIZE
 40
3.0
  9
$HANDSEED
  5
2DE
  9
$TILEMODE
 70
1
  9
$MEASUREMENT
 70
1
  9
$INSUNITS
 70
4
  0
ENDSEC
  0
SECTION
  2
CLASSES
  0
CLASS
  1
ACDBDICTIONARYWDFLT
  2
AcDbDictionaryWithDefault
  3
AutoCAD 2000
 90
0
 91
1
280
0
281
0
  0
CLASS
  1
ACDBPLACEHOLDER
  2
AcDbPlaceHolder
  3
AutoCAD 2000
 90
0
 91
1
280
0
281
0
  0
CLASS
  1
LAYOUT
  2
AcDbLayout
  3
AutoCAD 2000
 90
0
 91
0
280
0
281
0
  0
ENDSEC
  0
SECTION
  2
TABLES
  0
TABLE
  2
VPORT
  5
8
100
AcDbSymbolTable
 70
2
  0
VPORT
  5
1F4
100
AcDbSymbolTableRecord
100
AcDbViewportTableRecord
  2
*ACTIVE
 70
0
 10
0.0
 20
0.0
 11
1.0
 21
1.0
 12
105.0
 22
148.5
 13
0.0
 23
0.0
 14
1.0
 24
1.0
 15
0.0
 25
0.0
 16
0.0
 26
0.0
 36
1.0
 17
0.0
 27
0.0
 37
0.0
 40
297.0
 41
0.7070707071
 42
50.0
 43
0.0
 44
0.0
 50
0.0
 51
0.0
 71
0
 72
100
 73
1
 74
1
 75
0
 76
0
 77
0
 78
0
  0
ENDTAB
  0
TABLE
  2
LTYPE
  5
5
100
AcDbSymbolTable
 70
6
  0
LTYPE
  5
14
100
AcDbSymbolTableRecord
100
AcDbLinetypeTableRecord
  2
BYBLOCK
 70
0
  3

 72
65
 73
0
 40
0.0
  0
LTYPE
  5
15
100
AcDbSymbolTableRecord
100
AcDbLinetypeTableRecord
  2
BYLAYER
 70
0
  3

 72
65
 73
0
 40
0.0
  0
LTYPE
  5
16
100
AcDbSymbolTableRecord
100
AcDbLinetypeTableRecord
  2
CONTINUOUS
 70
64
  3
Solid line
 72
65
 73
0
 40
0.0
  0
LTYPE
  5
1F5
100
AcDbSymbolTableRecord
100
AcDbLinetypeTableRecord
  2
CENTER
 70
64
  3
____ _ ____ _ ____ _ ____ _ ____ _ ____ _ ____
 72
65
 73
4
 40
0.6
 49
0.375
 74
0
 49
-0.075
 74
0
 49
0.075
 74
0
 49
-0.075
 74
0
  0
LTYPE
  5
1F6
100
AcDbSymbolTableRecord
100
AcDbLinetypeTableRecord
  2
HIDDEN
 70
64
  3
- - - - - - - - - - - - - - - - - - - -
 72
65
 73
2
 40
0.2
 49
0.1
 74
0
 49
-0.1
 74
0
  0
LTYPE
  5
1F7
100
AcDbSymbolTableRecord
100
AcDbLinetypeTableRecord
  2
PHANTOM
 70
64
  3
_____ _ _ _____ _ _ _____ _ _ _____
 72
65
 73
6
 40
0.8
 49
0.45
 74
0
 49
-0.05
 74
0
 49
0.1
 74
0
 49
-0.05
 74
0
 49
0.1
 74
0
 49
-0.05
 74
0
  0
LTYPE
  5
1F8
100
AcDbSymbolTableRecord
100
AcDbLinetypeTableRecord
  2
DOT
 70
64
  3
. . . . . . . . . . . . . . . . . . . .
 72
65
 73
2
 40
0.2
 49
0.1
 74
0
 49
-0.1
 74
0
  0
LTYPE
  5
1F9
100
AcDbSymbolTableRecord
100
AcDbLinetypeTableRecord
  2
DASHED
 70
64
  3
- - - - - - - - - - - - - - - - - - - -
 72
65
 73
2
 40
0.2
 49
0.1
 74
0
 49
-0.1
 74
0
  0
ENDTAB
  0
TABLE
  2
LAYER
  5
2
100
AcDbSymbolTable
 70
36
  0
LAYER
  5
10
100
AcDbSymbolTableRecord
100
AcDbLayerTableRecord
  2
0
 70
0
 62
7
  6
CONTINUOUS
370
-3
390
F
  0
LAYER
  5
1FA
100
AcDbSymbolTableRecord
100
AcDbLayerTableRecord
  2
DEFAULT_1
 70
0
 62
7
  6
CENTER
370
-3
390
F
  0
LAYER
  5
1FB
100
AcDbSymbolTableRecord
100
AcDbLayerTableRecord
  2
DEFAULT_2
 70
0
 62
7
  6
HIDDEN
370
-3
390
F
  0
LAYER
  5
1FC
100
AcDbSymbolTableRecord
100
AcDbLayerTableRecord
  2
DEFAULT_3
 70
0
 62
7
  6
PHANTOM
370
-3
390
F
  0
LAYER
  5
1FD
100
AcDbSymbolTableRecord
100
AcDbLayerTableRecord
  2
ASSI
 70
0
 62
7
  6
CONTINUOUS
370
-3
390
F
  0
LAYER
  5
1FE
100
AcDbSymbolTableRecord
100
AcDbLayerTableRecord
  2
COORDINATE
 70
0
 62
7
  6
CONTINUOUS
370
-3
390
F
  0
LAYER
  5
1FF
100
AcDbSymbolTableRecord
100
AcDbLayerTableRecord
  2
COPY_PUBLISH
 70
0
 62
7
  6
CONTINUOUS
370
-3
390
F
  0
LAYER
  5
200
100
AcDbSymbolTableRecord
100
AcDbLayerTableRecord
  2
COSMETICI
 70
0
 62
7
  6
CONTINUOUS
370
-3
390
F
  0
LAYER
  5
201
100
AcDbSymbolTableRecord
100
AcDbLayerTableRecord
  2
CURVE
 70
0
 62
7
  6
CONTINUOUS
370
-3
390
F
  0
LAYER
  5
202
100
AcDbSymbolTableRecord
100
AcDbLayerTableRecord
  2
DRAFT
 70
0
 62
7
  6
CONTINUOUS
370
-3
390
F
  0
LAYER
  5
203
100
AcDbSymbolTableRecord
100
AcDbLayerTableRecord
  2
IMPORT_IGES
 70
0
 62
7
  6
CONTINUOUS
370
-3
390
F
  0
LAYER
  5
204
100
AcDbSymbolTableRecord
100
AcDbLayerTableRecord
  2
INTF_1
 70
0
 62
7
  6
CONTINUOUS
370
-3
390
F
  0
LAYER
  5
205
100
AcDbSymbolTableRecord
100
AcDbLayerTableRecord
  2
INTF_2
 70
0
 62
7
  6
CONTINUOUS
370
-3
390
F
  0
LAYER
  5
206
100
AcDbSymbolTableRecord
100
AcDbLayerTableRecord
  2
INTF_4
 70
0
 62
7
  6
CONTINUOUS
370
-3
390
F
  0
LAYER
  5
207
100
AcDbSymbolTableRecord
100
AcDbLayerTableRecord
  2
NOTE
 70
0
 62
7
  6
CONTINUOUS
370
-3
390
F
  0
LAYER
  5
208
100
AcDbSymbolTableRecord
100
AcDbLayerTableRecord
  2
PIANI
 70
0
 62
7
  6
CONTINUOUS
370
-3
390
F
  0
LAYER
  5
209
100
AcDbSymbolTableRecord
100
AcDbLayerTableRecord
  2
PUNTI
 70
0
 62
7
  6
CONTINUOUS
370
-3
390
F
  0
LAYER
  5
20A
100
AcDbSymbolTableRecord
100
AcDbLayerTableRecord
  2
RACCORDO
 70
0
 62
7
  6
CONTINUOUS
370
-3
390
F
  0
LAYER
  5
20B
100
AcDbSymbolTableRecord
100
AcDbLayerTableRecord
  2
SIMBOLI
 70
0
 62
7
  6
CONTINUOUS
370
-3
390
F
  0
LAYER
  5
20C
100
AcDbSymbolTableRecord
100
AcDbLayerTableRecord
  2
SMUSSO
 70
0
 62
7
  6
CONTINUOUS
370
-3
390
F
  0
LAYER
  5
20D
100
AcDbSymbolTableRecord
100
AcDbLayerTableRecord
  2
SNAPLINE
 70
0
 62
7
  6
CONTINUOUS
370
-3
390
F
  0
LAYER
  5
20E
100
AcDbSymbolTableRecord
100
AcDbLayerTableRecord
  2
SUPERFICI
 70
0
 62
7
  6
CONTINUOUS
370
-3
390
F
  0
LAYER
  5
20F
100
AcDbSymbolTableRecord
100
AcDbLayerTableRecord
  2
TRASH
 70
0
 62
7
  6
CONTINUOUS
370
-3
390
F
  0
ENDTAB
  0
TABLE
  2
STYLE
  5
3
100
AcDbSymbolTable
 70
1
  0
STYLE
  5
11
100
AcDbSymbolTableRecord
100
AcDbTextStyleTableRecord
  2
STANDARD
 70
0
 40
0.0
 41
0.8
 50
0.0
 71
0
 42
0.2
  3
txt
  4

  0
STYLE
  5
210
100
AcDbSymbolTableRecord
100
AcDbTextStyleTableRecord
  2
TEXTSTYLE_1
 70
0
 40
0.0
 41
0.8
 50
0.0
 71
0
 42
0.2
  3
gdt
  4

  0
ENDTAB
  0
TABLE
  2
VIEW
  5
6
100
AcDbSymbolTable
 70
0
  0
ENDTAB
  0
TABLE
  2
UCS
  5
7
100
AcDbSymbolTable
 70
0
  0
ENDTAB
  0
TABLE
  2
APPID
  5
9
100
AcDbSymbolTable
 70
1
  0
APPID
  5
211
100
AcDbSymbolTableRecord
100
AcDbRegAppTableRecord
  2
ACAD
 70
0
  0
ENDTAB
  0
TABLE
  2
BLOCK_RECORD
  5
1
100
AcDbSymbolTable
 70
0
  0
BLOCK_RECORD
  5
212
100
AcDbSymbolTableRecord
100
AcDbBlockTableRecord
  2
*Model_Space
  0
BLOCK_RECORD
  5
213
100
AcDbSymbolTableRecord
100
AcDbBlockTableRecord
  2
*Paper_Space
  0
BLOCK_RECORD
  5
214
100
AcDbSymbolTableRecord
100
AcDbBlockTableRecord
  2
_FILLED
  0
BLOCK_RECORD
  5
215
100
AcDbSymbolTableRecord
100
AcDbBlockTableRecord
  2
*D0
  0
BLOCK_RECORD
  5
216
100
AcDbSymbolTableRecord
100
AcDbBlockTableRecord
  2
*D1
  0
BLOCK_RECORD
  5
217
100
AcDbSymbolTableRecord
100
AcDbBlockTableRecord
  2
*D2
  0
ENDTAB
  0
TABLE
  2
DIMSTYLE
  5
A
100
AcDbSymbolTable
 70
1
100
AcDbDimStyleTable
 71
0
  0
DIMSTYLE
105
218
100
AcDbSymbolTableRecord
100
AcDbDimStyleTableRecord
  2
STANDARD
 70
0
  3

  4

 40
1.0
 41
3.0
 42
0.5
 43
0.38
 44
1.5
 45
0.0
 46
0.0
 47
0.01
 48
0.01
140
3.0
141
0.09
142
0.0
143
25.4
144
1.0
145
0.0
146
1.0
147
0.625
 71
1
 72
0
 73
0
 74
0
 75
0
 76
0
 77
1
 78
8
 79
2
170
0
171
1
172
0
173
0
174
0
175
0
176
0
177
0
178
0
270
2
179
2
271
2
272
2
273
2
274
2
275
0
280
0
281
0
282
0
283
1
284
8
285
0
286
0
287
3
288
0
340
11
278
44
341
214
342
214
343
214
344
214
  0
DIMSTYLE
105
219
100
AcDbSymbolTableRecord
100
AcDbDimStyleTableRecord
  2
DIMSTYLE_1
 70
0
  3

  4

 40
1.0
 41
3.0
 42
0.5
 43
0.38
 44
1.5
 45
0.0
 46
0.0
 47
0.0
 48
0.0
140
3.0
141
0.09
142
0.0
143
25.4
144
1.0
145
0.0
146
1.0
147
0.75
 71
0
 72
0
 73
0
 74
0
 75
0
 76
0
 77
1
 78
8
 79
2
170
0
171
1
172
0
173
0
174
0
175
0
176
0
177
0
178
0
270
2
179
2
271
2
272
2
273
2
274
2
275
0
280
0
281
0
282
0
283
1
284
8
285
0
286
0
287
3
288
0
340
11
278
44
341
214
342
214
343
214
344
214
  0
DIMSTYLE
105
21A
100
AcDbSymbolTableRecord
100
AcDbDimStyleTableRecord
  2
DIMSTYLE_2
 70
0
  3

  4

 40
1.0
 41
3.0
 42
0.5
 43
0.38
 44
1.5
 45
0.0
 46
0.0
 47
0.0
 48
0.0
140
3.0
141
0.09
142
0.0
143
25.4
144
1.0
145
0.0
146
1.0
147
0.75
 71
0
 72
0
 73
0
 74
0
 75
0
 76
0
 77
1
 78
8
 79
2
170
0
171
1
172
0
173
0
174
0
175
0
176
0
177
0
178
0
270
2
179
2
271
1
272
1
273
2
274
2
275
0
280
0
281
0
282
0
283
1
284
8
285
0
286
0
287
3
288
0
340
11
278
44
341
214
342
214
343
214
344
214
  0
ENDTAB
  0
ENDSEC
  0
SECTION
  2
BLOCKS
  0
BLOCK
  5
20
100
AcDbEntity
  8
0
100
AcDbBlockBegin
  2
*Model_Space
 70
0
 10
0.0
 20
0.0
 30
0.0
  3
*Model_Space
  1

  0
ENDBLK
  5
21
100
AcDbEntity
  8
0
100
AcDbBlockEnd
  0
BLOCK
  5
1C
100
AcDbEntity
  8
0
100
AcDbBlockBegin
  2
*Paper_Space
 70
0
 10
0.0
 20
0.0
 30
0.0
  3
*Paper_Space
  1

  0
ENDBLK
  5
1D
100
AcDbEntity
  8
0
100
AcDbBlockEnd
  0
BLOCK
  5
21B
100
AcDbEntity
  8
0
100
AcDbBlockBegin
  2
_FILLED
 70
64
 10
0.0
 20
0.0
  3
_FILLED
  1

  0
SOLID
  5
21C
100
AcDbEntity
  8
0
  6
BYBLOCK
 62
0
100
AcDbTrace
 10
0.0
 20
0.0
 11
-1.0
 21
0.3166666667
 12
-1.0
 22
-0.3166666667
 13
-1.0
 23
-0.3166666667
  0
ENDBLK
  5
21D
100
AcDbEntity
  8
0
  6
BYBLOCK
 62
0
100
AcDbBlockEnd
  0
BLOCK
  5
21E
100
AcDbEntity
  8
0
100
AcDbBlockBegin
 62
7
  6
CONTINUOUS
  2
*D0
 70
65
 10
0.0
 20
0.0
  3
*D0
  1

  0
LINE
  5
21F
100
AcDbEntity
  8
0
100
AcDbLine
 62
7
  6
CONTINUOUS
 10
-11.2894600401
 20
22.9919007107
 11
-11.2894600401
 21
36.0765327554
  0
LINE
  5
220
100
AcDbEntity
  8
0
100
AcDbLine
 62
7
  6
CONTINUOUS
 10
10.9105399599
 20
22.9919007107
 11
10.9105399599
 21
36.0765327554
  0
LINE
  5
221
100
AcDbEntity
  8
0
100
AcDbLine
 62
7
  6
CONTINUOUS
 10
-11.2894600401
 20
34.5765327554
 11
-0.1894600401
 21
34.5765327554
  0
LINE
  5
222
100
AcDbEntity
  8
0
100
AcDbLine
 62
7
  6
CONTINUOUS
 10
10.9105399599
 20
34.5765327554
 11
-0.1894600401
 21
34.5765327554
  0
INSERT
  5
223
100
AcDbEntity
  8
0
100
AcDbBlockReference
 62
7
  6
CONTINUOUS
  2
_FILLED
 10
-11.2894600401
 20
34.5765327554
 41
3.0
 42
3.0
 43
3.0
 50
180.0
  0
INSERT
  5
224
100
AcDbEntity
  8
0
100
AcDbBlockReference
 62
7
  6
CONTINUOUS
  2
_FILLED
 10
10.9105399599
 20
34.5765327554
 41
3.0
 42
3.0
 43
3.0
  0
ENDBLK
  5
225
100
AcDbEntity
  8
0
  6
BYBLOCK
 62
0
100
AcDbBlockEnd
  0
BLOCK
  5
226
100
AcDbEntity
  8
0
100
AcDbBlockBegin
 62
7
  6
CONTINUOUS
  2
*D1
 70
65
 10
0.0
 20
0.0
  3
*D1
  1

  0
LINE
  5
227
100
AcDbEntity
  8
0
100
AcDbLine
 62
7
  6
CONTINUOUS
 10
10.882840864
 20
26.5298565261
 11
20.4226009045
 21
26.5298565261
  0
LINE
  5
228
100
AcDbEntity
  8
0
100
AcDbLine
 62
7
  6
CONTINUOUS
 10
10.882840864
 20
-26.2144026072
 11
20.4226009045
 21
-26.2144026072
  0
LINE
  5
229
100
AcDbEntity
  8
0
100
AcDbLine
 62
7
  6
CONTINUOUS
 10
18.9226009045
 20
26.5298565261
 11
18.9226009045
 21
0.1577269595
  0
LINE
  5
22A
100
AcDbEntity
  8
0
100
AcDbLine
 62
7
  6
CONTINUOUS
 10
18.9226009045
 20
-26.2144026072
 11
18.9226009045
 21
0.1577269595
  0
INSERT
  5
22B
100
AcDbEntity
  8
0
100
AcDbBlockReference
 62
7
  6
CONTINUOUS
  2
_FILLED
 10
18.9226009045
 20
26.5298565261
 41
3.0
 42
3.0
 43
3.0
 50
90.0
  0
INSERT
  5
22C
100
AcDbEntity
  8
0
100
AcDbBlockReference
 62
7
  6
CONTINUOUS
  2
_FILLED
 10
18.9226009045
 20
-26.2144026072
 41
3.0
 42
3.0
 43
3.0
 50
270.0
  0
ENDBLK
  5
22D
100
AcDbEntity
  8
0
  6
BYBLOCK
 62
0
100
AcDbBlockEnd
  0
BLOCK
  5
22E
100
AcDbEntity
  8
0
100
AcDbBlockBegin
 62
7
  6
CONTINUOUS
  2
*D2
 70
65
 10
0.0
 20
0.0
  3
*D2
  1

  0
LINE
  5
22F
100
AcDbEntity
  8
0
100
AcDbLine
 62
7
  6
CONTINUOUS
 10
-29.4506600401
 20
26.471142022
 11
-29.4506600401
 21
36.0626860705
  0
LINE
  5
230
100
AcDbEntity
  8
0
100
AcDbLine
 62
7
  6
CONTINUOUS
 10
-25.6506600401
 20
19.1477269595
 11
-25.6506600401
 21
36.0626860705
  0
LINE
  5
231
100
AcDbEntity
  8
0
100
AcDbLine
 62
7
  6
CONTINUOUS
 10
-29.4506600401
 20
34.5626860705
 11
-33.4506600401
 21
34.5626860705
  0
LINE
  5
232
100
AcDbEntity
  8
0
100
AcDbLine
 62
7
  6
CONTINUOUS
 10
-33.4506600401
 20
34.5626860705
 11
-27.5506600401
 21
34.5626860705
  0
LINE
  5
233
100
AcDbEntity
  8
0
100
AcDbLine
 62
7
  6
CONTINUOUS
 10
-25.6506600401
 20
34.5626860705
 11
-14.4570858758
 21
34.5626860705
  0
LINE
  5
234
100
AcDbEntity
  8
0
100
AcDbLine
 62
7
  6
CONTINUOUS
 10
-14.4570858758
 20
34.5626860705
 11
-27.5506600401
 21
34.5626860705
  0
INSERT
  5
235
100
AcDbEntity
  8
0
100
AcDbBlockReference
 62
7
  6
CONTINUOUS
  2
_FILLED
 10
-29.4506600401
 20
34.5626860705
 41
3.0
 42
3.0
 43
3.0
  0
INSERT
  5
236
100
AcDbEntity
  8
0
100
AcDbBlockReference
 62
7
  6
CONTINUOUS
  2
_FILLED
 10
-25.6506600401
 20
34.5626860705
 41
3.0
 42
3.0
 43
3.0
 50
180.0
  0
ENDBLK
  5
237
100
AcDbEntity
  8
0
  6
BYBLOCK
 62
0
100
AcDbBlockEnd
  0
ENDSEC
  0
SECTION
  2
ENTITIES
  0
DIMENSION
  5
238
100
AcDbEntity
  8
0
100
AcDbDimension
 62
7
  6
CONTINUOUS
  2
*D0
 10
10.9105399599
 20
34.5765327554
 11
-4.582317183
 21
34.5765327554
 70
160
 71
2
 72
2
 41
0.9
 42
22.2
  3
DIMSTYLE_1
100
AcDbAlignedDimension
 13
-11.2894600401
 23
22.4919007107
 14
10.9105399599
 24
22.4919007107
100
AcDbRotatedDimension
  0
DIMENSION
  5
239
100
AcDbEntity
  8
0
100
AcDbDimension
 62
7
  6
CONTINUOUS
  2
*D1
 10
18.9226009045
 20
-26.2144026072
 11
18.9226009045
 21
-4.1279873263
 70
160
 71
2
 72
2
 41
0.9
 42
52.7442591333
  3
DIMSTYLE_2
100
AcDbAlignedDimension
 13
10.382840864
 23
26.5298565261
 14
10.382840864
 24
-26.2144026072
 50
270.0
100
AcDbRotatedDimension
  0
DIMENSION
  5
23A
100
AcDbEntity
  8
0
100
AcDbDimension
 62
7
  6
CONTINUOUS
  2
*D2
 10
-25.6506600401
 20
34.5626860705
 11
-20.6713715901
 21
34.5626860705
 70
160
 71
1
 72
2
 41
0.9
 42
3.8
  3
DIMSTYLE_1
100
AcDbAlignedDimension
 13
-29.4506600401
 23
25.971142022
 14
-25.6506600401
 24
18.6477269595
100
AcDbRotatedDimension
  0
LWPOLYLINE
  5
23B
100
AcDbEntity
  8
ASSI
100
AcDbPolyline
 62
250
  6
CONTINUOUS
 90
16
 70
0
 10
10.3239550225
 20
-26.1555167656
 10
10.375097285
 20
-26.1528584108
 10
10.4259569375
 20
-26.1449282387
 10
10.4759824111
 20
-26.1317313597
 10
10.5246478645
 20
-26.1133180926
 10
10.5713650742
 20
-26.0898191417
 10
10.6155055489
 20
-26.0614772667
 10
10.6565906316
 20
-26.028531605
 10
10.6940930878
 20
-25.9913311363
 10
10.7274185989
 20
-25.9504470766
 10
10.7561599166
 20
-25.9064451419
 10
10.7800938687
 20
-25.8597432069
 10
10.7990073217
 20
-25.8107785102
 10
10.8126937542
 20
-25.7600587719
 10
10.8209846756
 20
-25.7081711129
 10
10.8237836849
 20
-25.6556881031
  0
LWPOLYLINE
  5
23C
100
AcDbEntity
  8
ASSI
100
AcDbPolyline
 62
250
  6
CONTINUOUS
 90
16
 70
0
 10
-10.7028751027
 20
-26.1555167656
 10
-10.7543954591
 20
-26.1528191159
 10
-10.8055645986
 20
-26.1447839298
 10
-10.8558234708
 20
-26.1314356905
 10
-10.9046740713
 20
-26.1128307958
 10
-10.9514936824
 20
-26.0891276154
 10
-10.9955733856
 20
-26.0606497848
 10
-11.0363724511
 20
-26.0277608861
 10
-11.0735073012
 20
-25.9907854866
 10
-11.106581893
 20
-25.9501140249
 10
-11.1352345501
 20
-25.9061787734
 10
-11.1591363988
 20
-25.8594696012
 10
-11.1780131401
 20
-25.8105161349
 10
-11.1916555877
 20
-25.7598636599
 10
-11.1999161064
 20
-25.7080641954
 10
-11.2027037652
 20
-25.6556881031
  0
LINE
  5
23D
100
AcDbEntity
  8
ASSI
100
AcDbLine
 62
7
  6
CONTINUOUS
 10
-10.7617609443
 20
-26.2144026072
 11
10.382840864
 21
-26.2144026072
  0
LINE
  5
23E
100
AcDbEntity
  8
ASSI
100
AcDbLine
 62
250
  6
CONTINUOUS
 10
-10.7028751027
 20
-26.1555167656
 11
10.3239550225
 21
-26.1555167656
  0
LINE
  5
23F
100
AcDbEntity
  8
ASSI
100
AcDbLine
 62
250
  6
CONTINUOUS
 10
-11.2027037652
 20
-25.6556881031
 11
10.8237836849
 21
-25.6556881031
  0
LINE
  5
240
100
AcDbEntity
  8
CURVE
100
AcDbLine
 62
250
  6
CONTINUOUS
 10
-0.1898050401
 20
16.8589149595
 11
-4.1895600401
 21
14.0580529595
  0
LINE
  5
241
100
AcDbEntity
  8
CURVE
100
AcDbLine
 62
250
  6
CONTINUOUS
 10
-4.1895600401
 20
13.3862589595
 11
-0.1898050401
 21
16.1871219595
  0
LINE
  5
242
100
AcDbEntity
  8
CURVE
100
AcDbLine
 62
250
  6
CONTINUOUS
 10
-4.1888710401
 20
-13.7425990405
 11
-0.1891150401
 21
-16.5434610405
  0
LINE
  5
243
100
AcDbEntity
  8
CURVE
100
AcDbLine
 62
250
  6
CONTINUOUS
 10
-0.1891150401
 20
-15.8716680405
 11
-4.1888710401
 21
-13.0708050405
  0
LINE
  5
244
100
AcDbEntity
  8
ASSI
100
AcDbLine
 62
7
  6
CONTINUOUS
 10
-11.2890139083
 20
-22.3058563143
 11
-11.2650722171
 21
-25.7180565551
  0
LINE
  5
245
100
AcDbEntity
  8
ASSI
100
AcDbLine
 62
7
  6
CONTINUOUS
 10
-11.2890139083
 20
22.6213102332
 11
-11.2650722171
 21
26.033510474
  0
LINE
  5
246
100
AcDbEntity
  8
CURVE
100
AcDbLine
 62
7
  6
CONTINUOUS
 10
-3.1092541764
 20
14.1427524753
 11
-0.8680113547
 21
16.3839952969
  0
LINE
  5
247
100
AcDbEntity
  8
CURVE
100
AcDbLine
 62
7
  6
CONTINUOUS
 10
-0.1189177614
 20
16.1374825424
 11
0.2761945878
 21
16.5325948915
  0
LWPOLYLINE
  5
248
100
AcDbEntity
  8
ASSI
100
AcDbPolyline
 62
250
  6
CONTINUOUS
 90
16
 70
0
 10
-11.2027037652
 20
0.8962042663
 10
-11.1999160285
 20
0.8437045398
 10
-11.1916346124
 20
0.7917994404
 10
-11.1779555044
 20
0.7410619551
 10
-11.1590469367
 20
0.6920799145
 10
-11.1351150909
 20
0.6453612992
 10
-11.1063724455
 20
0.6013432766
 10
-11.0730406097
 20
0.560443079
 10
-11.0355275924
 20
0.5232288803
 10
-10.9944316041
 20
0.4902755502
 10
-10.9502818502
 20
0.4619321733
 10
-10.9035569537
 20
0.4384364716
 10
-10.8548873846
 20
0.4200308027
 10
-10.8048624179
 20
0.4068446145
 10
-10.7540077881
 20
0.3989266088
 10
-10.7028751027
 20
0.3962804187
  0
LINE
  5
249
100
AcDbEntity
  8
ASSI
100
AcDbLine
 62
7
  6
CONTINUOUS
 10
-11.2894600401
 20
22.4919007107
 11
-11.2894600401
 21
0.8383740919
  0
LINE
  5
24A
100
AcDbEntity
  8
ASSI
100
AcDbLine
 62
7
  6
CONTINUOUS
 10
-11.2894600401
 20
-0.522920173
 11
-11.2894600401
 21
-22.1764467917
  0
LINE
  5
24B
100
AcDbEntity
  8
ASSI
100
AcDbLine
 62
250
  6
CONTINUOUS
 10
-11.2027037652
 20
25.971142022
 11
-11.2027037652
 21
0.8962042663
  0
LINE
  5
24C
100
AcDbEntity
  8
ASSI
100
AcDbLine
 62
250
  6
CONTINUOUS
 10
-11.2027037652
 20
-0.5807503474
 11
-11.2027037652
 21
-25.6556881031
  0
LINE
  5
24D
100
AcDbEntity
  8
ASSI
100
AcDbLine
 62
250
  6
CONTINUOUS
 10
-10.7028751027
 20
0.3962804187
 11
-10.7028751027
 21
26.4709706845
  0
LINE
  5
24E
100
AcDbEntity
  8
ASSI
100
AcDbLine
 62
250
  6
CONTINUOUS
 10
-10.7028751027
 20
-0.0808264998
 11
-10.7028751027
 21
-26.1555167656
  0
LWPOLYLINE
  5
24F
100
AcDbEntity
  8
0
100
AcDbPolyline
 62
7
  6
CONTINUOUS
 90
3
 70
0
 43
0.3500000019
 10
0.8462529297
 20
35.6122475586
 10
0.774828125
 20
35.3979624023
 10
0.6319677734
 20
35.1122470703
  0
LINE
  5
250
100
AcDbEntity
  8
ASSI
100
AcDbLine
 62
250
  6
CONTINUOUS
 10
10.3239550225
 20
26.4709706845
 11
10.382840864
 21
26.5298565261
  0
LINE
  5
251
100
AcDbEntity
  8
CURVE
100
AcDbLine
 62
7
  6
CONTINUOUS
 10
0.4666440035
 20
15.7274379593
 11
0.8617564387
 21
16.1225503945
  0
LINE
  5
252
100
AcDbEntity
  8
ASSI
100
AcDbLine
 62
250
  6
CONTINUOUS
 10
10.8237836849
 20
25.971142022
 11
10.8861521369
 21
26.033510474
  0
LINE
  5
253
100
AcDbEntity
  8
CURVE
100
AcDbLine
 62
7
  6
CONTINUOUS
 10
1.0522057683
 20
15.3173933763
 11
1.4473182897
 21
15.7125058976
  0
LINE
  5
254
100
AcDbEntity
  8
ASSI
100
AcDbLine
 62
250
  6
CONTINUOUS
 10
10.382840864
 20
-26.2144026072
 11
10.3239550225
 21
-26.1555167656
  0
LINE
  5
255
100
AcDbEntity
  8
ASSI
100
AcDbLine
 62
250
  6
CONTINUOUS
 10
10.8861521369
 20
-25.7180565551
 11
10.8237836849
 21
-25.6556881031
  0
LINE
  5
256
100
AcDbEntity
  8
CURVE
100
AcDbLine
 62
7
  6
CONTINUOUS
 10
1.6377675332
 20
14.9073487932
 11
2.0328801406
 21
15.3024614006
  0
LINE
  5
257
100
AcDbEntity
  8
CURVE
100
AcDbLine
 62
7
  6
CONTINUOUS
 10
2.223329298
 20
14.4973042101
 11
2.6184419916
 21
14.8924169037
  0
LINE
  5
258
100
AcDbEntity
  8
CURVE
100
AcDbLine
 62
7
  6
CONTINUOUS
 10
2.8088910629
 20
14.0872596271
 11
3.2040038425
 21
14.4823724067
  0
LINE
  5
259
100
AcDbEntity
  8
ASSI
100
AcDbLine
 62
7
  6
CONTINUOUS
 10
-10.2808848241
 20
0.3471016041
 11
-10.2702594687
 21
0.3577269595
  0
LINE
  5
25A
100
AcDbEntity
  8
CURVE
100
AcDbLine
 62
7
  6
CONTINUOUS
 10
3.3944528277
 20
13.677215044
 11
3.7895656935
 21
14.0723279097
  0
LINE
  5
25B
100
AcDbEntity
  8
ASSI
100
AcDbLine
 62
250
  6
CONTINUOUS
 10
-11.2894600401
 20
0.8383740919
 11
-11.2027037652
 21
0.8962042663
  0
LINE
  5
25C
100
AcDbEntity
  8
ASSI
100
AcDbLine
 62
250
  6
CONTINUOUS
 10
-10.7895171475
 20
0.338526388
 11
-10.7028751027
 21
0.3962804187
  0
LINE
  5
25D
100
AcDbEntity
  8
ASSI
100
AcDbLine
 62
250
  6
CONTINUOUS
 10
-11.2027037652
 20
-0.5807503474
 11
-11.2894600401
 21
-0.522920173
  0
LINE
  5
25E
100
AcDbEntity
  8
ASSI
100
AcDbLine
 62
250
  6
CONTINUOUS
 10
-10.7028751027
 20
-0.0808264998
 11
-10.7895171475
 21
-0.0230724691
  0
LINE
  5
25F
100
AcDbEntity
  8
ASSI
100
AcDbLine
 62
7
  6
CONTINUOUS
 10
-10.2808848241
 20
-0.0316476851
 11
-10.2702594687
 21
-0.0422730405
  0
LINE
  5
260
100
AcDbEntity
  8
CURVE
100
AcDbLine
 62
250
  6
CONTINUOUS
 10
-4.1895600401
 20
14.0580529595
 11
-4.1895600401
 21
13.3862589595
  0
LINE
  5
261
100
AcDbEntity
  8
CURVE
100
AcDbLine
 62
250
  6
CONTINUOUS
 10
-4.1888710401
 20
-13.0708050405
 11
-4.1888710401
 21
-13.7425990405
  0
LWPOLYLINE
  5
262
100
AcDbEntity
  8
ASSI
100
AcDbPolyline
 62
250
  6
CONTINUOUS
 90
16
 70
0
 10
10.3239550225
 20
0.3962804187
 10
10.3761862101
 20
0.399041329
 10
10.4278454745
 20
0.4072460953
 10
10.4783671547
 20
0.4208048768
 10
10.5271980463
 20
0.439569207
 10
10.5738034587
 20
0.4633336195
 10
10.61767307
 20
0.4918378975
 10
10.6583265148
 20
0.5247699238
 10
10.6953186442
 20
0.5617690978
 10
10.7282444003
 20
0.6024302844
 10
10.7567432511
 20
0.64630825
 10
10.7805031388
 20
0.6929225378
 10
10.7992638963
 20
0.7417627285
 10
10.8128200963
 20
0.7922940299
 10
10.8210233004
 20
0.843963132
 10
10.8237836849
 20
0.8962042663
  0
LINE
  5
263
100
AcDbEntity
  8
ASSI
100
AcDbLine
 62
250
  6
CONTINUOUS
 10
-11.2027037652
 20
-0.5807503474
 11
10.8237836849
 21
-0.5807503474
  0
LINE
  5
264
100
AcDbEntity
  8
ASSI
100
AcDbLine
 62
250
  6
CONTINUOUS
 10
10.3239550225
 20
-0.0808264998
 11
-10.7028751027
 21
-0.0808264998
  0
LINE
  5
265
100
AcDbEntity
  8
ASSI
100
AcDbLine
 62
7
  6
CONTINUOUS
 10
-10.2702594687
 20
-0.0422730405
 11
9.8913393885
 21
-0.0422730405
  0
LINE
  5
266
100
AcDbEntity
  8
ASSI
100
AcDbLine
 62
7
  6
CONTINUOUS
 10
-10.7895171475
 20
-0.0230724691
 11
-10.7808086717
 21
-0.0230724691
  0
LINE
  5
267
100
AcDbEntity
  8
ASSI
100
AcDbLine
 62
7
  6
CONTINUOUS
 10
10.4018885914
 20
-0.0230724691
 11
10.4105970673
 21
-0.0230724691
  0
LINE
  5
268
100
AcDbEntity
  8
ASSI
100
AcDbLine
 62
7
  6
CONTINUOUS
 10
10.4105970673
 20
0.338526388
 11
10.4018885914
 21
0.338526388
  0
LINE
  5
269
100
AcDbEntity
  8
ASSI
100
AcDbLine
 62
7
  6
CONTINUOUS
 10
-10.7808086717
 20
0.338526388
 11
-10.7895171475
 21
0.338526388
  0
LINE
  5
26A
100
AcDbEntity
  8
ASSI
100
AcDbLine
 62
7
  6
CONTINUOUS
 10
9.8913393885
 20
0.3577269595
 11
-10.2702594687
 21
0.3577269595
  0
LINE
  5
26B
100
AcDbEntity
  8
ASSI
100
AcDbLine
 62
250
  6
CONTINUOUS
 10
-10.7028751027
 20
0.3962804187
 11
10.3239550225
 21
0.3962804187
  0
LWPOLYLINE
  5
26C
100
AcDbEntity
  8
ASSI
100
AcDbPolyline
 62
250
  6
CONTINUOUS
 90
16
 70
0
 10
-10.7028751027
 20
-0.0808264998
 10
-10.7551062904
 20
-0.0835874101
 10
-10.8067655547
 20
-0.0917921764
 10
-10.8572872349
 20
-0.1053509579
 10
-10.9061181266
 20
-0.1241152881
 10
-10.952723539
 20
-0.1478797005
 10
-10.9965931502
 20
-0.1763839786
 10
-11.037246595
 20
-0.2093160049
 10
-11.0742387244
 20
-0.2463151789
 10
-11.1071644805
 20
-0.2869763655
 10
-11.1356633313
 20
-0.3308543311
 10
-11.159423219
 20
-0.3774686189
 10
-11.1781839765
 20
-0.4263088096
 10
-11.1917401765
 20
-0.476840111
 10
-11.1999433806
 20
-0.5285092131
 10
-11.2027037652
 20
-0.5807503474
  0
LINE
  5
26D
100
AcDbEntity
  8
ASSI
100
AcDbLine
 62
250
  6
CONTINUOUS
 10
-11.2027037652
 20
0.8962042663
 11
10.8237836849
 21
0.8962042663
  0
LWPOLYLINE
  5
26E
100
AcDbEntity
  8
0
100
AcDbPolyline
 62
7
  6
CONTINUOUS
 90
4
 70
0
 43
0.3500000019
 10
15.8154589844
 20
2.0862983093
 10
15.1726035156
 20
2.0862983093
 10
15.1726035156
 20
3.5862984314
 10
18.1726010742
 20
2.7291554565
  0
LINE
  5
26F
100
AcDbEntity
  8
CURVE
100
AcDbLine
 62
250
  6
CONTINUOUS
 10
3.8099509599
 20
13.3862589595
 11
3.8099509599
 21
14.0580529595
  0
LINE
  5
270
100
AcDbEntity
  8
CURVE
100
AcDbLine
 62
250
  6
CONTINUOUS
 10
3.8106399599
 20
-13.7425990405
 11
3.8106399599
 21
-13.0708050405
  0
LINE
  5
271
100
AcDbEntity
  8
CURVE
100
AcDbLine
 62
7
  6
CONTINUOUS
 10
-3.773372908
 20
-13.3617611251
 11
-4.1684857737
 21
-13.7568739908
  0
LINE
  5
272
100
AcDbEntity
  8
ASSI
100
AcDbLine
 62
7
  6
CONTINUOUS
 10
9.9019647439
 20
-0.0316476851
 11
9.8913393885
 21
-0.0422730405
  0
LINE
  5
273
100
AcDbEntity
  8
CURVE
100
AcDbLine
 62
7
  6
CONTINUOUS
 10
-3.1878111431
 20
-13.7718057082
 11
-3.5829239227
 21
-14.1669184878
  0
LINE
  5
274
100
AcDbEntity
  8
ASSI
100
AcDbLine
 62
250
  6
CONTINUOUS
 10
10.4105970673
 20
-0.0230724691
 11
10.3239550225
 21
-0.0808264998
  0
LINE
  5
275
100
AcDbEntity
  8
ASSI
100
AcDbLine
 62
250
  6
CONTINUOUS
 10
10.9105399599
 20
-0.522920173
 11
10.8237836849
 21
-0.5807503474
  0
LWPOLYLINE
  5
276
100
AcDbEntity
  8
0
100
AcDbPolyline
 62
7
  6
CONTINUOUS
 90
10
 70
0
 43
0.3500000019
 10
17.6726005859
 20
1.0148698425
 10
17.8154555664
 20
1.0862984238
 10
17.8868857422
 20
1.0862984238
 10
18.0297460938
 20
0.9434412613
 10
18.0297460938
 20
0.8720126801
 10
17.958315918
 20
0.8005840988
 10
17.8868857422
 20
0.8005840988
 10
17.7440307617
 20
0.8720126801
 10
17.6726005859
 20
0.9434412613
 10
17.6726005859
 20
1.0148698425
  0
LWPOLYLINE
  5
277
100
AcDbEntity
  8
0
100
AcDbPolyline
 62
7
  6
CONTINUOUS
 90
3
 70
0
 43
0.3500000019
 10
17.8868857422
 20
1.0862984238
 10
18.1011708984
 20
1.0148698425
 10
18.3868862305
 20
0.8720126801
  0
LINE
  5
278
100
AcDbEntity
  8
ASSI
100
AcDbLine
 62
250
  6
CONTINUOUS
 10
10.3239550225
 20
0.3962804187
 11
10.4105970673
 21
0.338526388
  0
LINE
  5
279
100
AcDbEntity
  8
ASSI
100
AcDbLine
 62
250
  6
CONTINUOUS
 10
10.8237836849
 20
0.8962042663
 11
10.9105399599
 21
0.8383740919
  0
LINE
  5
27A
100
AcDbEntity
  8
ASSI
100
AcDbLine
 62
7
  6
CONTINUOUS
 10
9.9019647439
 20
0.3471016041
 11
9.8913393885
 21
0.3577269595
  0
LINE
  5
27B
100
AcDbEntity
  8
CURVE
100
AcDbLine
 62
7
  6
CONTINUOUS
 10
-2.6022493783
 20
-14.1818502912
 11
-2.9973620718
 21
-14.5769629848
  0
LINE
  5
27C
100
AcDbEntity
  8
CURVE
100
AcDbLine
 62
7
  6
CONTINUOUS
 10
-2.0166876134
 20
-14.5918948743
 11
-2.4118002208
 21
-14.9870074817
  0
LWPOLYLINE
  5
27D
100
AcDbEntity
  8
ASSI
100
AcDbPolyline
 62
250
  6
CONTINUOUS
 90
16
 70
0
 10
10.8237836849
 20
-0.5807503474
 10
10.8209959483
 20
-0.5282506209
 10
10.8127145322
 20
-0.4763455215
 10
10.7990354242
 20
-0.4256080362
 10
10.7801268565
 20
-0.3766259956
 10
10.7561950107
 20
-0.3299073803
 10
10.7274523653
 20
-0.2858893576
 10
10.6941205295
 20
-0.2449891601
 10
10.6566075121
 20
-0.2077749614
 10
10.6155115239
 20
-0.1748216313
 10
10.57136177
 20
-0.1464782543
 10
10.5246368735
 20
-0.1229825527
 10
10.4759673044
 20
-0.1045768838
 10
10.4259423377
 20
-0.0913906956
 10
10.3750877079
 20
-0.0834726898
 10
10.3239550225
 20
-0.0808264998
  0
LINE
  5
27E
100
AcDbEntity
  8
ASSI
100
AcDbLine
 62
7
  6
CONTINUOUS
 10
10.9100938281
 20
22.6213102332
 11
10.8861521369
 21
26.033510474
  0
LINE
  5
27F
100
AcDbEntity
  8
ASSI
100
AcDbLine
 62
250
  6
CONTINUOUS
 10
10.3239550225
 20
-0.0808264998
 11
10.3239550225
 21
-26.1555167656
  0
LINE
  5
280
100
AcDbEntity
  8
ASSI
100
AcDbLine
 62
250
  6
CONTINUOUS
 10
10.3239550225
 20
0.3962804187
 11
10.3239550225
 21
26.4709706845
  0
LINE
  5
281
100
AcDbEntity
  8
ASSI
100
AcDbLine
 62
250
  6
CONTINUOUS
 10
10.8237836849
 20
-25.6556881031
 11
10.8237836849
 21
-0.5807503474
  0
LINE
  5
282
100
AcDbEntity
  8
ASSI
100
AcDbLine
 62
250
  6
CONTINUOUS
 10
10.8237836849
 20
0.8962042663
 11
10.8237836849
 21
25.971142022
  0
LINE
  5
283
100
AcDbEntity
  8
ASSI
100
AcDbLine
 62
7
  6
CONTINUOUS
 10
10.9105399599
 20
-22.1764467917
 11
10.9105399599
 21
-0.522920173
  0
LINE
  5
284
100
AcDbEntity
  8
ASSI
100
AcDbLine
 62
7
  6
CONTINUOUS
 10
10.9105399599
 20
0.8383740919
 11
10.9105399599
 21
22.4919007107
  0
LINE
  5
285
100
AcDbEntity
  8
ASSI
100
AcDbLine
 62
7
  6
CONTINUOUS
 10
10.9100938281
 20
-22.3058563143
 11
10.8861521369
 21
-25.7180565551
  0
LINE
  5
286
100
AcDbEntity
  8
CURVE
100
AcDbLine
 62
7
  6
CONTINUOUS
 10
-1.4311258486
 20
-15.0019394574
 11
-1.8262383699
 21
-15.3970519787
  0
LINE
  5
287
100
AcDbEntity
  8
ASSI
100
AcDbLine
 62
250
  6
CONTINUOUS
 10
-11.2027037652
 20
-25.6556881031
 11
-11.2650722171
 21
-25.7180565551
  0
LINE
  5
288
100
AcDbEntity
  8
CURVE
100
AcDbLine
 62
7
  6
CONTINUOUS
 10
-0.8455640837
 20
-15.4119840404
 11
-1.2406765189
 21
-15.8070964756
  0
LINE
  5
289
100
AcDbEntity
  8
ASSI
100
AcDbLine
 62
250
  6
CONTINUOUS
 10
-10.7028751027
 20
-26.1555167656
 11
-10.7617609443
 21
-26.2144026072
  0
LINE
  5
28A
100
AcDbEntity
  8
CURVE
100
AcDbLine
 62
7
  6
CONTINUOUS
 10
-0.2600023189
 20
-15.8220286235
 11
-0.655114668
 21
-16.2171409726
  0
LINE
  5
28B
100
AcDbEntity
  8
ASSI
100
AcDbLine
 62
250
  6
CONTINUOUS
 10
-11.2650722171
 20
26.033510474
 11
-11.2027037652
 21
25.971142022
  0
LINE
  5
28C
100
AcDbEntity
  8
ASSI
100
AcDbLine
 62
250
  6
CONTINUOUS
 10
-10.7617609443
 20
26.5298565261
 11
-10.7028751027
 21
26.4709706845
  0
LINE
  5
28D
100
AcDbEntity
  8
CURVE
100
AcDbLine
 62
7
  6
CONTINUOUS
 10
2.7303340961
 20
-13.8272985564
 11
0.4890912745
 21
-16.068541378
  0
LINE
  5
28E
100
AcDbEntity
  8
CURVE
100
AcDbLine
 62
250
  6
CONTINUOUS
 10
3.8106399599
 20
-13.0708050405
 11
-0.1891150401
 21
-15.8716680405
  0
LINE
  5
28F
100
AcDbEntity
  8
CURVE
100
AcDbLine
 62
250
  6
CONTINUOUS
 10
-0.1898050401
 20
16.1871219595
 11
3.8099509599
 21
13.3862589595
  0
LINE
  5
290
100
AcDbEntity
  8
CURVE
100
AcDbLine
 62
250
  6
CONTINUOUS
 10
-0.1891150401
 20
-16.5434610405
 11
3.8106399599
 21
-13.7425990405
  0
LINE
  5
291
100
AcDbEntity
  8
CURVE
100
AcDbLine
 62
250
  6
CONTINUOUS
 10
3.8099509599
 20
14.0580529595
 11
-0.1898050401
 21
16.8589149595
  0
LWPOLYLINE
  5
292
100
AcDbEntity
  8
0
100
AcDbPolyline
 62
7
  6
CONTINUOUS
 90
10
 70
0
 43
0.3500000019
 10
0.774828125
 20
35.8265327148
 10
0.8462529297
 20
35.6836750488
 10
0.8462529297
 20
35.6122475586
 10
0.7033979492
 20
35.4693898926
 10
0.6319677734
 20
35.4693898926
 10
0.5605375977
 20
35.5408173828
 10
0.5605375977
 20
35.6122475586
 10
0.6319677734
 20
35.7551052246
 10
0.7033979492
 20
35.8265327148
 10
0.774828125
 20
35.8265327148
  0
LWPOLYLINE
  5
293
100
AcDbEntity
  8
0
100
AcDbPolyline
 62
7
  6
CONTINUOUS
 90
8
 70
0
 43
0.3500000019
 10
18.1726010742
 20
-4.1279873352
 10
18.1726010742
 20
-3.2708443604
 10
17.7440307617
 20
-2.8422730408
 10
16.8868847656
 20
-2.8422730408
 10
16.4583144531
 20
-3.2708443604
 10
16.4583144531
 20
-4.1279873352
 10
15.1726035156
 20
-4.1279873352
 10
15.1726035156
 20
-2.8422730408
  0
LWPOLYLINE
  5
294
100
AcDbEntity
  8
0
100
AcDbPolyline
 62
7
  6
CONTINUOUS
 90
7
 70
0
 43
0.3500000019
 10
18.1726010742
 20
-0.4851301956
 10
18.1726010742
 20
-1.9851302338
 10
16.0297441406
 20
-0.4851301956
 10
15.6011738281
 20
-0.4851301956
 10
15.1726035156
 20
-0.9137015991
 10
15.1726035156
 20
-1.5565587463
 10
15.8154589844
 20
-1.9851302338
  0
LWPOLYLINE
  5
295
100
AcDbEntity
  8
ASSI
100
AcDbPolyline
 62
250
  6
CONTINUOUS
 90
16
 70
0
 10
-10.7028751027
 20
26.4709706845
 10
-10.7540173652
 20
26.4683123297
 10
-10.8048770177
 20
26.4603821576
 10
-10.8549024913
 20
26.4471852787
 10
-10.9035679448
 20
26.4287720115
 10
-10.9502851544
 20
26.4052730606
 10
-10.9944256292
 20
26.3769311856
 10
-11.0355107118
 20
26.3439855239
 10
-11.073013168
 20
26.3067850552
 10
-11.1063386791
 20
26.2659009955
 10
-11.1350799968
 20
26.2218990608
 10
-11.1590139489
 20
26.1751971258
 10
-11.1779274019
 20
26.1262324291
 10
-11.1916138345
 20
26.0755126908
 10
-11.1999047558
 20
26.0236250318
 10
-11.2027037652
 20
25.971142022
  0
LINE
  5
296
100
AcDbEntity
  8
ASSI
100
AcDbLine
 62
250
  6
CONTINUOUS
 10
-11.2027037652
 20
25.971142022
 11
10.8237836849
 21
25.971142022
  0
LINE
  5
297
100
AcDbEntity
  8
ASSI
100
AcDbLine
 62
250
  6
CONTINUOUS
 10
10.3239550225
 20
26.4709706845
 11
-10.7028751027
 21
26.4709706845
  0
LINE
  5
298
100
AcDbEntity
  8
ASSI
100
AcDbLine
 62
7
  6
CONTINUOUS
 10
10.382840864
 20
26.5298565261
 11
-10.7617609443
 21
26.5298565261
  0
LWPOLYLINE
  5
299
100
AcDbEntity
  8
0
100
AcDbPolyline
 62
7
  6
CONTINUOUS
 90
7
 70
0
 43
0.3500000019
 10
3.3462553711
 20
35.3265322266
 10
1.8462539063
 20
35.3265322266
 10
3.3462553711
 20
37.4693891602
 10
3.3462553711
 20
37.8979621582
 10
2.9176850586
 20
38.3265324707
 10
2.2748242188
 20
38.3265324707
 10
1.8462539063
 20
37.6836743164
  0
LWPOLYLINE
  5
29A
100
AcDbEntity
  8
0
100
AcDbPolyline
 62
7
  6
CONTINUOUS
 90
7
 70
0
 43
0.3500000019
 10
-0.7251733398
 20
35.3265322266
 10
-2.2251748047
 20
35.3265322266
 10
-0.7251733398
 20
37.4693891602
 10
-0.7251733398
 20
37.8979621582
 10
-1.1537436523
 20
38.3265324707
 10
-1.7966044922
 20
38.3265324707
 10
-2.2251748047
 20
37.6836743164
  0
LWPOLYLINE
  5
29B
100
AcDbEntity
  8
0
100
AcDbPolyline
 62
7
  6
CONTINUOUS
 90
7
 70
0
 43
0.3500000019
 10
-3.0823154297
 20
35.3265322266
 10
-4.5823168945
 20
35.3265322266
 10
-3.0823154297
 20
37.4693891602
 10
-3.0823154297
 20
37.8979621582
 10
-3.5108911133
 20
38.3265324707
 10
-4.153746582
 20
38.3265324707
 10
-4.5823168945
 20
37.6836743164
  0
LWPOLYLINE
  5
29C
100
AcDbEntity
  8
ASSI
100
AcDbPolyline
 62
250
  6
CONTINUOUS
 90
16
 70
0
 10
10.3239550225
 20
26.4709706845
 10
10.3754753788
 20
26.4682730348
 10
10.4266445184
 20
26.4602378487
 10
10.4769033906
 20
26.4468896094
 10
10.525753991
 20
26.4282847147
 10
10.5725736022
 20
26.4045815343
 10
10.6166533053
 20
26.3761037037
 10
10.6574523709
 20
26.3432148051
 10
10.6945872209
 20
26.3062394055
 10
10.7276618128
 20
26.2655679438
 10
10.7563144699
 20
26.2216326923
 10
10.7802163185
 20
26.1749235201
 10
10.7990930598
 20
26.1259700539
 10
10.8127355075
 20
26.0753175788
 10
10.8209960262
 20
26.0235181143
 10
10.8237836849
 20
25.971142022
  0
LWPOLYLINE
  5
29D
100
AcDbEntity
  8
0
100
AcDbPolyline
 62
7
  6
CONTINUOUS
 90
5
 70
0
 43
0.3500000019
 10
-19.8142285156
 20
37.026972168
 10
-19.4570883789
 20
37.2412573242
 10
-19.4570883789
 20
37.8841154785
 10
-19.8142285156
 20
38.312685791
 10
-20.6713691406
 20
38.312685791
  0
LINE
  5
29E
100
AcDbEntity
  8
ASSI
100
AcDbLine
 62
7
  6
CONTINUOUS
 10
-26.7149889497
 20
-26.2144026072
 11
-28.9637485143
 21
-26.1555167656
  0
LINE
  5
29F
100
AcDbEntity
  8
ASSI
100
AcDbLine
 62
250
  6
CONTINUOUS
 10
-29.4506600401
 20
-25.6556881031
 11
-28.9637485143
 21
-25.6556881031
  0
LINE
  5
2A0
100
AcDbEntity
  8
ASSI
100
AcDbLine
 62
250
  6
CONTINUOUS
 10
-26.5819934259
 20
-25.7180565551
 11
-28.9637485143
 21
-25.6556881031
  0
LWPOLYLINE
  5
2A1
100
AcDbEntity
  8
ASSI
100
AcDbPolyline
 62
250
  6
CONTINUOUS
 90
10
 70
0
 10
-28.9637485143
 20
26.4709706845
 10
-28.9650269818
 20
26.4682730348
 10
-28.9661564842
 20
26.4602378487
 10
-28.9671230231
 20
26.4468896094
 10
-28.9679150348
 20
26.4282847147
 10
-28.9685203598
 20
26.4045815343
 10
-28.9689289092
 20
26.3761037037
 10
-28.9691360442
 20
26.3432148051
 10
-28.9691402196
 20
26.3062394055
 10
-28.9685410997
 20
26.2216326923
  0
LWPOLYLINE
  5
2A2
100
AcDbEntity
  8
ASSI
100
AcDbPolyline
 62
250
  6
CONTINUOUS
 90
9
 70
0
 10
-28.9637485143
 20
-26.1555167656
 10
-28.9650181101
 20
-26.1528584108
 10
-28.9661422581
 20
-26.1449282387
 10
-28.9671066488
 20
-26.1317313597
 10
-28.9678988301
 20
-26.1133180926
 10
-28.9685068217
 20
-26.0898191417
 10
-28.9689205225
 20
-26.0614772667
 10
-28.9691336608
 20
-26.028531605
 10
-28.9691415686
 20
-25.9913311363
  0
LINE
  5
2A3
100
AcDbEntity
  8
ASSI
100
AcDbLine
 62
250
  6
CONTINUOUS
 10
-28.9671562822
 20
26.1259700539
 11
-28.9650470331
 21
26.0235181143
  0
LINE
  5
2A4
100
AcDbEntity
  8
ASSI
100
AcDbLine
 62
250
  6
CONTINUOUS
 10
-28.9637485143
 20
-0.5807503474
 11
-28.9652810513
 21
-0.4763455215
  0
LINE
  5
2A5
100
AcDbEntity
  8
ASSI
100
AcDbLine
 62
250
  6
CONTINUOUS
 10
-28.9685410997
 20
26.2216326923
 11
-28.9671562822
 21
26.1259700539
  0
LINE
  5
2A6
100
AcDbEntity
  8
ASSI
100
AcDbLine
 62
250
  6
CONTINUOUS
 10
-28.9652810513
 20
-0.4763455215
 11
-28.9661683238
 21
-0.3766259956
  0
LWPOLYLINE
  5
2A7
100
AcDbEntity
  8
ASSI
100
AcDbPolyline
 62
250
  6
CONTINUOUS
 90
11
 70
0
 10
-28.9661683238
 20
-0.3766259956
 10
-28.9663728076
 20
-0.2858893576
 10
-28.9662138984
 20
-0.2449891601
 10
-28.9658811617
 20
-0.2077749614
 10
-28.9653802279
 20
-0.1748216313
 10
-28.9647188614
 20
-0.1464782543
 10
-28.9639054459
 20
-0.1229825527
 10
-28.9629522605
 20
-0.1045768838
 10
-28.9618724764
 20
-0.0913906956
 10
-28.9606790104
 20
-0.0834726898
 10
-28.9593862433
 20
-0.0808264998
  0
LINE
  5
2A8
100
AcDbEntity
  8
ASSI
100
AcDbLine
 62
7
  6
CONTINUOUS
 10
-29.4506600401
 20
-25.6556881031
 11
-29.4506600401
 21
-0.5807503474
  0
LINE
  5
2A9
100
AcDbEntity
  8
ASSI
100
AcDbLine
 62
7
  6
CONTINUOUS
 10
-29.4506600401
 20
0.8962042663
 11
-29.4506600401
 21
25.971142022
  0
LINE
  5
2AA
100
AcDbEntity
  8
ASSI
100
AcDbLine
 62
250
  6
CONTINUOUS
 10
-28.9637485143
 20
-25.6556881031
 11
-28.9637485143
 21
-0.5807503474
  0
LINE
  5
2AB
100
AcDbEntity
  8
ASSI
100
AcDbLine
 62
250
  6
CONTINUOUS
 10
-28.9637485143
 20
0.8962042663
 11
-28.9637485143
 21
25.971142022
  0
LINE
  5
2AC
100
AcDbEntity
  8
ASSI
100
AcDbLine
 62
250
  6
CONTINUOUS
 10
-28.9662221264
 20
0.5617690978
 11
-28.9663549499
 21
0.64630825
  0
LINE
  5
2AD
100
AcDbEntity
  8
ASSI
100
AcDbLine
 62
250
  6
CONTINUOUS
 10
-28.9663549499
 20
0.64630825
 11
-28.9658022281
 21
0.7417627285
  0
LINE
  5
2AE
100
AcDbEntity
  8
ASSI
100
AcDbLine
 62
250
  6
CONTINUOUS
 10
-28.9691415686
 20
-25.9913311363
 11
-28.9685440277
 21
-25.9064451419
  0
LWPOLYLINE
  5
2AF
100
AcDbEntity
  8
ASSI
100
AcDbPolyline
 62
250
  6
CONTINUOUS
 90
3
 70
0
 10
-28.9658022281
 20
0.7417627285
 10
-28.9645881034
 20
0.843963132
 10
-28.9637485143
 20
0.8962042663
  0
LINE
  5
2B0
100
AcDbEntity
  8
ASSI
100
AcDbLine
 62
250
  6
CONTINUOUS
 10
-28.9685440277
 20
-25.9064451419
 11
-28.9671609076
 21
-25.8107785102
  0
LWPOLYLINE
  5
2B1
100
AcDbEntity
  8
ASSI
100
AcDbPolyline
 62
250
  6
CONTINUOUS
 90
3
 70
0
 10
-28.9671609076
 20
-25.8107785102
 10
-28.9650495356
 20
-25.7081711129
 10
-28.9637485143
 20
-25.6556881031
  0
LWPOLYLINE
  5
2B2
100
AcDbEntity
  8
0
100
AcDbPolyline
 62
7
  6
CONTINUOUS
 90
3
 70
0
 43
0.3500000019
 10
-17.8142265625
 20
35.5984008789
 10
-17.8856567383
 20
35.3841157227
 10
-18.0285170898
 20
35.0984003906
  0
LWPOLYLINE
  5
2B3
100
AcDbEntity
  8
ASSI
100
AcDbPolyline
 62
250
  6
CONTINUOUS
 90
9
 70
0
 10
-28.9593862433
 20
0.3962804187
 10
-28.9607057733
 20
0.399041329
 10
-28.961915304
 20
0.4072460953
 10
-28.9630015913
 20
0.4208048768
 10
-28.9639527406
 20
0.439569207
 10
-28.9647583369
 20
0.4633336195
 10
-28.9654095591
 20
0.4918378975
 10
-28.9658992764
 20
0.5247699238
 10
-28.9662221264
 20
0.5617690978
  0
LINE
  5
2B4
100
AcDbEntity
  8
ASSI
100
AcDbLine
 62
250
  6
CONTINUOUS
 10
-28.9650470331
 20
26.0235181143
 11
-28.9637485143
 21
25.971142022
  0
LINE
  5
2B5
100
AcDbEntity
  8
ASSI
100
AcDbLine
 62
250
  6
CONTINUOUS
 10
-25.6506600401
 20
-0.522920173
 11
-28.9637485143
 21
-0.5807503474
  0
LINE
  5
2B6
100
AcDbEntity
  8
ASSI
100
AcDbLine
 62
7
  6
CONTINUOUS
 10
-25.6506600401
 20
-0.0230724691
 11
-28.9593862433
 21
-0.0808264998
  0
LINE
  5
2B7
100
AcDbEntity
  8
ASSI
100
AcDbLine
 62
250
  6
CONTINUOUS
 10
-29.4506600401
 20
-0.5807503474
 11
-28.9637485143
 21
-0.5807503474
  0
LINE
  5
2B8
100
AcDbEntity
  8
ASSI
100
AcDbLine
 62
7
  6
CONTINUOUS
 10
-28.9593862433
 20
0.3962804187
 11
-25.6506600401
 21
0.338526388
  0
LINE
  5
2B9
100
AcDbEntity
  8
ASSI
100
AcDbLine
 62
7
  6
CONTINUOUS
 10
-25.6506600401
 20
-0.0230724691
 11
-25.6506600401
 21
-22.1764467917
  0
LINE
  5
2BA
100
AcDbEntity
  8
ASSI
100
AcDbLine
 62
7
  6
CONTINUOUS
 10
-25.6506600401
 20
0.338526388
 11
-25.6506600401
 21
22.4919007107
  0
LINE
  5
2BB
100
AcDbEntity
  8
ASSI
100
AcDbLine
 62
250
  6
CONTINUOUS
 10
-28.9637485143
 20
0.8962042663
 11
-29.4506600401
 21
0.8962042663
  0
LINE
  5
2BC
100
AcDbEntity
  8
ASSI
100
AcDbLine
 62
250
  6
CONTINUOUS
 10
-28.9637485143
 20
0.8962042663
 11
-25.6506600401
 21
0.8383740919
  0
LINE
  5
2BD
100
AcDbEntity
  8
ASSI
100
AcDbLine
 62
7
  6
CONTINUOUS
 10
-25.667697127
 20
-22.3058563143
 11
-26.7149889497
 21
-26.2144026072
  0
LINE
  5
2BE
100
AcDbEntity
  8
ASSI
100
AcDbLine
 62
7
  6
CONTINUOUS
 10
-25.667697127
 20
22.6213102332
 11
-26.7149889497
 21
26.5298565261
  0
LWPOLYLINE
  5
2BF
100
AcDbEntity
  8
0
100
AcDbPolyline
 62
7
  6
CONTINUOUS
 90
4
 70
0
 43
0.3500000019
 10
-16.814230957
 20
35.7412585449
 10
-16.814230957
 20
36.5983991699
 10
-16.3856552734
 20
37.026972168
 10
-15.7427998047
 20
37.026972168
  0
LINE
  5
2C0
100
AcDbEntity
  8
ASSI
100
AcDbLine
 62
250
  6
CONTINUOUS
 10
-28.9637485143
 20
25.971142022
 11
-26.5819934259
 21
26.033510474
  0
LINE
  5
2C1
100
AcDbEntity
  8
ASSI
100
AcDbLine
 62
7
  6
CONTINUOUS
 10
-28.9637485143
 20
26.4709706845
 11
-26.7149889497
 21
26.5298565261
  0
LINE
  5
2C2
100
AcDbEntity
  8
ASSI
100
AcDbLine
 62
250
  6
CONTINUOUS
 10
-29.4506600401
 20
25.971142022
 11
-28.9637485143
 21
25.971142022
  0
LWPOLYLINE
  5
2C3
100
AcDbEntity
  8
0
100
AcDbPolyline
 62
7
  6
CONTINUOUS
 90
6
 70
0
 43
0.3500000019
 10
-20.6713691406
 20
35.3126855469
 10
-19.5999433594
 20
35.3126855469
 10
-19.3856582031
 20
35.5269707031
 10
-19.3856582031
 20
36.5983991699
 10
-19.8142285156
 20
37.026972168
 10
-20.2427988281
 20
37.026972168
  0
LWPOLYLINE
  5
2C4
100
AcDbEntity
  8
0
100
AcDbPolyline
 62
7
  6
CONTINUOUS
 90
13
 70
0
 43
0.3500000019
 10
-16.3856552734
 20
37.026972168
 10
-16.6713706055
 20
37.2412573242
 10
-16.6713706055
 20
37.8841154785
 10
-16.3856552734
 20
38.312685791
 10
-15.7427998047
 20
38.312685791
 10
-15.4570844727
 20
37.8841154785
 10
-15.4570844727
 20
37.2412573242
 10
-15.7427998047
 20
37.026972168
 10
-15.3142294922
 20
36.5983991699
 10
-15.3142294922
 20
35.7412585449
 10
-15.7427998047
 20
35.3126855469
 10
-16.3856552734
 20
35.3126855469
 10
-16.814230957
 20
35.7412585449
  0
LWPOLYLINE
  5
2C5
100
AcDbEntity
  8
0
100
AcDbPolyline
 62
7
  6
CONTINUOUS
 90
10
 70
0
 43
0.3500000019
 10
-17.8856567383
 20
35.8126860352
 10
-17.8142265625
 20
35.6698283691
 10
-17.8142265625
 20
35.5984008789
 10
-17.9570869141
 20
35.4555432129
 10
-18.0285170898
 20
35.4555432129
 10
-18.0999418945
 20
35.5269707031
 10
-18.0999418945
 20
35.5984008789
 10
-18.0285170898
 20
35.7412585449
 10
-17.9570869141
 20
35.8126860352
 10
-17.8856567383
 20
35.8126860352
  0
ARC
  5
2C6
100
AcDbEntity
  8
ASSI
100
AcDbCircle
 62
7
  6
CONTINUOUS
 10
-26.1506600401
 20
22.4919007107
 40
0.5
100
AcDbArc
 50
0.0
 51
15.0
  0
ARC
  5
2C7
100
AcDbEntity
  8
ASSI
100
AcDbCircle
 62
7
  6
CONTINUOUS
 10
-28.9506600401
 20
25.971142022
 40
0.5
100
AcDbArc
 50
91.5
 51
180.0
  0
ARC
  5
2C8
100
AcDbEntity
  8
ASSI
100
AcDbCircle
 62
7
  6
CONTINUOUS
 10
-28.9506600401
 20
0.8962042663
 40
0.5
100
AcDbArc
 50
180.0
 51
269.0
  0
ARC
  5
2C9
100
AcDbEntity
  8
ASSI
100
AcDbCircle
 62
7
  6
CONTINUOUS
 10
-26.1506600401
 20
-22.1764467917
 40
0.5
100
AcDbArc
 50
345.0
 51
360.0
  0
ARC
  5
2CA
100
AcDbEntity
  8
ASSI
100
AcDbCircle
 62
7
  6
CONTINUOUS
 10
-28.9506600401
 20
-25.6556881031
 40
0.5
100
AcDbArc
 50
180.0
 51
268.5
  0
ARC
  5
2CB
100
AcDbEntity
  8
ASSI
100
AcDbCircle
 62
7
  6
CONTINUOUS
 10
-28.9506600401
 20
-0.5807503474
 40
0.5
100
AcDbArc
 50
91.0
 51
180.0
  0
ELLIPSE
  5
2CC
100
AcDbEntity
  8
ASSI
100
AcDbEllipse
 62
7
  6
CONTINUOUS
 10
10.3859831287
 20
-25.7177162093
 30
0.0
 11
0.4677351297
 21
0.1788908786
 31
0.0
 40
0.9906298547
 41
-1.9392450166
 42
-0.3691339225
  0
ELLIPSE
  5
2CD
100
AcDbEntity
  8
ASSI
100
AcDbEllipse
 62
7
  6
CONTINUOUS
 10
-10.7649032089
 20
-25.7177162093
 30
0.0
 11
0.4677351297
 21
-0.1788908786
 31
0.0
 40
0.9906298547
 41
-2.7724587311
 42
-1.202347637
  0
ELLIPSE
  5
2CE
100
AcDbEntity
  8
ASSI
100
AcDbEllipse
 62
7
  6
CONTINUOUS
 10
-11.2763670793
 20
-22.1764467917
 30
0.0
 11
0.0
 21
0.5
 31
0.0
 40
0.0261859216
 41
1.5707963268
 42
1.8325957146
  0
ELLIPSE
  5
2CF
100
AcDbEntity
  8
ASSI
100
AcDbEllipse
 62
7
  6
CONTINUOUS
 10
10.8974469991
 20
-22.1764467917
 30
0.0
 11
-0.0
 21
0.5
 31
0.0
 40
0.0261859216
 41
-1.8325957146
 42
-1.5707963268
  0
ELLIPSE
  5
2D0
100
AcDbEntity
  8
ASSI
100
AcDbEllipse
 62
7
  6
CONTINUOUS
 10
-10.7808086717
 20
-0.0318000016
 30
0.0
 11
0.5
 21
0.0
 31
0.0
 40
0.0174550649
 41
0.0174532925
 42
1.5707963268
  0
ELLIPSE
  5
2D1
100
AcDbEntity
  8
ASSI
100
AcDbEllipse
 62
7
  6
CONTINUOUS
 10
10.4018885914
 20
-0.0318000016
 30
0.0
 11
0.5
 21
0.0
 31
0.0
 40
0.0174550649
 41
1.5707963268
 42
3.1241393611
  0
ELLIPSE
  5
2D2
100
AcDbEntity
  8
ASSI
100
AcDbEllipse
 62
7
  6
CONTINUOUS
 10
-10.7892886439
 20
-0.5231486331
 30
0.0
 11
0.416247366
 21
-0.2774630169
 31
0.0
 40
0.9995051766
 41
2.1589687851
 42
3.7293082611
  0
ELLIPSE
  5
2D3
100
AcDbEntity
  8
ASSI
100
AcDbEllipse
 62
7
  6
CONTINUOUS
 10
10.4103685636
 20
-0.5231486331
 30
0.0
 11
0.416247366
 21
0.2774630169
 31
0.0
 40
0.9995051766
 41
-0.5877156075
 42
0.9826238685
  0
ELLIPSE
  5
2D4
100
AcDbEntity
  8
ASSI
100
AcDbEllipse
 62
7
  6
CONTINUOUS
 10
-10.7649032089
 20
26.0331701283
 30
0.0
 11
0.4677351297
 21
0.1788908786
 31
0.0
 40
0.9906298547
 41
1.202347637
 42
2.7724587311
  0
ELLIPSE
  5
2D5
100
AcDbEntity
  8
ASSI
100
AcDbEllipse
 62
7
  6
CONTINUOUS
 10
10.3859831287
 20
26.0331701283
 30
0.0
 11
0.4677351297
 21
-0.1788908786
 31
0.0
 40
0.9906298547
 41
0.3691339225
 42
1.9392450166
  0
ELLIPSE
  5
2D6
100
AcDbEntity
  8
ASSI
100
AcDbEllipse
 62
7
  6
CONTINUOUS
 10
10.8974469991
 20
22.4919007107
 30
0.0
 11
-0.0
 21
0.5
 31
0.0
 40
0.0261859216
 41
-1.5707963268
 42
-1.308996939
  0
ELLIPSE
  5
2D7
100
AcDbEntity
  8
ASSI
100
AcDbEllipse
 62
7
  6
CONTINUOUS
 10
-11.2763670793
 20
22.4919007107
 30
0.0
 11
0.0
 21
0.5
 31
0.0
 40
0.0261859216
 41
1.308996939
 42
1.5707963268
  0
ELLIPSE
  5
2D8
100
AcDbEntity
  8
ASSI
100
AcDbEllipse
 62
7
  6
CONTINUOUS
 10
10.4018885914
 20
0.3472539205
 30
0.0
 11
0.5
 21
0.0
 31
0.0
 40
0.0174550649
 41
-3.1241393611
 42
-1.5707963268
  0
ELLIPSE
  5
2D9
100
AcDbEntity
  8
ASSI
100
AcDbEllipse
 62
7
  6
CONTINUOUS
 10
-10.7808086717
 20
0.3472539205
 30
0.0
 11
0.5
 21
0.0
 31
0.0
 40
0.0174550649
 41
-1.5707963268
 42
-0.0174532925
  0
ELLIPSE
  5
2DA
100
AcDbEntity
  8
ASSI
100
AcDbEllipse
 62
7
  6
CONTINUOUS
 10
10.4103685636
 20
0.8386025521
 30
0.0
 11
0.416247366
 21
-0.2774630169
 31
0.0
 40
0.9995051766
 41
-0.9826238685
 42
0.5877156075
  0
ELLIPSE
  5
2DB
100
AcDbEntity
  8
ASSI
100
AcDbEllipse
 62
7
  6
CONTINUOUS
 10
-10.7892886439
 20
0.8386025521
 30
0.0
 11
0.416247366
 21
0.2774630169
 31
0.0
 40
0.9995051766
 41
2.5538770461
 42
4.1242165221
  0
ENDSEC
  0
SECTION
  2
OBJECTS
  0
DICTIONARY
  5
C
100
AcDbDictionary
280
0
281
1
  3
ACAD_GROUP
350
D
  3
ACAD_MLINESTYLE
350
17
  3
ACAD_LAYOUT
350
1A
  3
ACAD_PLOTSETTINGS
350
19
  3
ACAD_PLOTSTYLENAME
350
E
  0
DICTIONARY
  5
D
102
{ACAD_REACTORS
330
C
102
}
100
AcDbDictionary
280
0
281
1
  0
ACDBDICTIONARYWDFLT
  5
E
102
{ACAD_REACTORS
330
C
102
}
100
AcDbDictionary
281
1
  3
Normal
350
F
100
AcDbDictionaryWithDefault
340
F
  0
DICTIONARY
  5
17
102
{ACAD_REACTORS
330
C
102
}
100
AcDbDictionary
280
0
281
1
  3
Standard
350
18
  0
DICTIONARY
  5
19
102
{ACAD_REACTORS
330
C
102
}
100
AcDbDictionary
281
1
  0
DICTIONARY
  5
1A
102
{ACAD_REACTORS
330
C
102
}
100
AcDbDictionary
281
1
  3
Model
350
2DC
  3
Layout1
350
2DD
  0
ACDBPLACEHOLDER
  5
F
102
{ACAD_REACTORS
330
E
102
}
  0
MLINESTYLE
  5
18
102
{ACAD_REACTORS
330
17
102
}
100
AcDbMlineStyle
  2
STANDARD
 70
0
  3

 62
256
 51
90.0
 52
90.0
 71
2
 49
0.5
 62
256
  6
BYLAYER
 49
-0.5
 62
256
  6
BYLAYER
  0
LAYOUT
  5
2DC
102
{ACAD_REACTORS
330
1A
102
}
100
AcDbPlotSettings
  1

  2
none_device
  4

  6

 40
0.0
 41
0.0
 42
0.0
 43
0.0
 44
210.0
 45
297.0
 46
0.0
 47
0.0
 48
0.0
 49
0.0
140
0.0
141
0.0
142
1.0
143
1.0
 70
1024
 72
1
 73
0
 74
0
  7

 75
0
147
1.0
148
0.0
149
0.0
100
AcDbLayout
  1
Model
 70
0
 71
0
 10
0.0
 20
0.0
 11
210.0
 21
297.0
 12
0.0
 22
0.0
 32
0.0
 14
0.0
 24
0.0
 34
0.0
 15
0.0
 25
0.0
 35
0.0
146
0.0
 13
0.0
 23
0.0
 33
0.0
 16
1.0
 26
0.0
 36
0.0
 17
0.0
 27
1.0
 37
0.0
 76
0
330
212
345
0
346
0
  0
LAYOUT
  5
2DD
102
{ACAD_REACTORS
330
1A
102
}
100
AcDbPlotSettings
  1

  2
none_device
  4

  6

 40
0.0
 41
0.0
 42
0.0
 43
0.0
 44
210.0
 45
297.0
 46
0.0
 47
0.0
 48
0.0
 49
0.0
140
0.0
141
0.0
142
1.0
143
1.0
 70
0
 72
1
 73
0
 74
0
  7

 75
0
147
1.0
148
0.0
149
0.0
100
AcDbLayout
  1
Layout1
 70
0
 71
1
 10
0.0
 20
0.0
 11
210.0
 21
297.0
 12
0.0
 22
0.0
 32
0.0
 14
0.0
 24
0.0
 34
0.0
 15
0.0
 25
0.0
 35
0.0
146
0.0
 13
0.0
 23
0.0
 33
0.0
 16
1.0
 26
0.0
 36
0.0
 17
0.0
 27
1.0
 37
0.0
 76
0
330
213
345
0
346
0
  0
ENDSEC
  0
EOF
