  0
SECTION
  2
HEADER
  9
$ACADVER
  1
AC1024
  9
$DWGCODEPAGE
  3
ANSI_1252
  9
$EXTMAX
 10
210.0
 20
297.0
 30
0.0
  9
$EXTMIN
 10
0.0
 20
0.0
 30
0.0
  9
$LIMMIN
 10
0.0
 20
0.0
  9
$LIMMAX
 10
210.0
 20
297.0
  9
$VIEWCTR
 10
105.0
 20
148.5
  9
$VIEWSIZE
 40
297.0
  9
$CLAYER
  8
0
  9
$LTSCALE
 40
19.36
  9
$CELTYPE
  6
BYLAYER
  9
$DIMSCALE
 40
1.0
  9
$DIMASZ
 40
3.0
  9
$DIMEXO
 40
0.5
  9
$DIMDLI
 40
13.376
  9
$DIMEXE
 40
1.5
  9
$DIMCEN
 40
3.168
  9
$DIMLFAC
 40
1.0
  9
$DIMBLK
  1
_FILLED
  9
$DIMALT
 70
0
  9
$DIMALTF
 40
0.0393700787
  9
$DIMTXT
 40
3.0
  9
$DIMTOL
 70
1
  9
$DIMLIM
 70
0
  9
$DIMTFAC
 40
1.0
  9
$DIMTP
 40
0.01
  9
$DIMTM
 40
0.01
  9
$DIMGAP
 40
0.625
  9
$DIMDSEP
 70
44
  9
$AUNITS
 70
0
  9
$PDMODE
 70
3
  9
$PDSIZE
 40
3.0
  9
$HANDSEED
  5
31F
  9
$TILEMODE
 70
1
  9
$MEASUREMENT
 70
1
  9
$INSUNITS
 70
4
  0
ENDSEC
  0
SECTION
  2
CLASSES
  0
CLASS
  1
ACDBDICTIONARYWDFLT
  2
AcDbDictionaryWithDefault
  3
AutoCAD 2000
 90
0
 91
1
280
0
281
0
  0
CLASS
  1
ACDBPLACEHOLDER
  2
AcDbPlaceHolder
  3
AutoCAD 2000
 90
0
 91
1
280
0
281
0
  0
CLASS
  1
LAYOUT
  2
AcDbLayout
  3
AutoCAD 2000
 90
0
 91
0
280
0
281
0
  0
ENDSEC
  0
SECTION
  2
TABLES
  0
TABLE
  2
VPORT
  5
8
100
AcDbSymbolTable
 70
2
  0
VPORT
  5
1F4
100
AcDbSymbolTableRecord
100
AcDbViewportTableRecord
  2
*ACTIVE
 70
0
 10
0.0
 20
0.0
 11
1.0
 21
1.0
 12
105.0
 22
148.5
 13
0.0
 23
0.0
 14
1.0
 24
1.0
 15
0.0
 25
0.0
 16
0.0
 26
0.0
 36
1.0
 17
0.0
 27
0.0
 37
0.0
 40
297.0
 41
0.7070707071
 42
50.0
 43
0.0
 44
0.0
 50
0.0
 51
0.0
 71
0
 72
100
 73
1
 74
1
 75
0
 76
0
 77
0
 78
0
  0
ENDTAB
  0
TABLE
  2
LTYPE
  5
5
100
AcDbSymbolTable
 70
6
  0
LTYPE
  5
14
100
AcDbSymbolTableRecord
100
AcDbLinetypeTableRecord
  2
BYBLOCK
 70
0
  3

 72
65
 73
0
 40
0.0
  0
LTYPE
  5
15
100
AcDbSymbolTableRecord
100
AcDbLinetypeTableRecord
  2
BYLAYER
 70
0
  3

 72
65
 73
0
 40
0.0
  0
LTYPE
  5
16
100
AcDbSymbolTableRecord
100
AcDbLinetypeTableRecord
  2
CONTINUOUS
 70
64
  3
Solid line
 72
65
 73
0
 40
0.0
  0
LTYPE
  5
1F5
100
AcDbSymbolTableRecord
100
AcDbLinetypeTableRecord
  2
CENTER
 70
64
  3
____ _ ____ _ ____ _ ____ _ ____ _ ____ _ ____
 72
65
 73
4
 40
0.6
 49
0.375
 74
0
 49
-0.075
 74
0
 49
0.075
 74
0
 49
-0.075
 74
0
  0
LTYPE
  5
1F6
100
AcDbSymbolTableRecord
100
AcDbLinetypeTableRecord
  2
HIDDEN
 70
64
  3
- - - - - - - - - - - - - - - - - - - -
 72
65
 73
2
 40
0.2
 49
0.1
 74
0
 49
-0.1
 74
0
  0
LTYPE
  5
1F7
100
AcDbSymbolTableRecord
100
AcDbLinetypeTableRecord
  2
PHANTOM
 70
64
  3
_____ _ _ _____ _ _ _____ _ _ _____
 72
65
 73
6
 40
0.8
 49
0.45
 74
0
 49
-0.05
 74
0
 49
0.1
 74
0
 49
-0.05
 74
0
 49
0.1
 74
0
 49
-0.05
 74
0
  0
LTYPE
  5
1F8
100
AcDbSymbolTableRecord
100
AcDbLinetypeTableRecord
  2
DOT
 70
64
  3
. . . . . . . . . . . . . . . . . . . .
 72
65
 73
2
 40
0.2
 49
0.1
 74
0
 49
-0.1
 74
0
  0
LTYPE
  5
1F9
100
AcDbSymbolTableRecord
100
AcDbLinetypeTableRecord
  2
DASHED
 70
64
  3
- - - - - - - - - - - - - - - - - - - -
 72
65
 73
2
 40
0.2
 49
0.1
 74
0
 49
-0.1
 74
0
  0
ENDTAB
  0
TABLE
  2
LAYER
  5
2
100
AcDbSymbolTable
 70
36
  0
LAYER
  5
10
100
AcDbSymbolTableRecord
100
AcDbLayerTableRecord
  2
0
 70
0
 62
7
  6
CONTINUOUS
370
-3
390
F
  0
LAYER
  5
1FA
100
AcDbSymbolTableRecord
100
AcDbLayerTableRecord
  2
DEFAULT_1
 70
0
 62
7
  6
CENTER
370
-3
390
F
  0
LAYER
  5
1FB
100
AcDbSymbolTableRecord
100
AcDbLayerTableRecord
  2
DEFAULT_2
 70
0
 62
7
  6
HIDDEN
370
-3
390
F
  0
LAYER
  5
1FC
100
AcDbSymbolTableRecord
100
AcDbLayerTableRecord
  2
DEFAULT_3
 70
0
 62
7
  6
PHANTOM
370
-3
390
F
  0
LAYER
  5
1FD
100
AcDbSymbolTableRecord
100
AcDbLayerTableRecord
  2
ASSI
 70
0
 62
7
  6
CONTINUOUS
370
-3
390
F
  0
LAYER
  5
1FE
100
AcDbSymbolTableRecord
100
AcDbLayerTableRecord
  2
COORDINATE
 70
0
 62
7
  6
CONTINUOUS
370
-3
390
F
  0
LAYER
  5
1FF
100
AcDbSymbolTableRecord
100
AcDbLayerTableRecord
  2
COPY_PUBLISH
 70
0
 62
7
  6
CONTINUOUS
370
-3
390
F
  0
LAYER
  5
200
100
AcDbSymbolTableRecord
100
AcDbLayerTableRecord
  2
COSMETICI
 70
0
 62
7
  6
CONTINUOUS
370
-3
390
F
  0
LAYER
  5
201
100
AcDbSymbolTableRecord
100
AcDbLayerTableRecord
  2
CURVE
 70
0
 62
7
  6
CONTINUOUS
370
-3
390
F
  0
LAYER
  5
202
100
AcDbSymbolTableRecord
100
AcDbLayerTableRecord
  2
DRAFT
 70
0
 62
7
  6
CONTINUOUS
370
-3
390
F
  0
LAYER
  5
203
100
AcDbSymbolTableRecord
100
AcDbLayerTableRecord
  2
IMPORT_IGES
 70
0
 62
7
  6
CONTINUOUS
370
-3
390
F
  0
LAYER
  5
204
100
AcDbSymbolTableRecord
100
AcDbLayerTableRecord
  2
INTF_1
 70
0
 62
7
  6
CONTINUOUS
370
-3
390
F
  0
LAYER
  5
205
100
AcDbSymbolTableRecord
100
AcDbLayerTableRecord
  2
INTF_2
 70
0
 62
7
  6
CONTINUOUS
370
-3
390
F
  0
LAYER
  5
206
100
AcDbSymbolTableRecord
100
AcDbLayerTableRecord
  2
INTF_4
 70
0
 62
7
  6
CONTINUOUS
370
-3
390
F
  0
LAYER
  5
207
100
AcDbSymbolTableRecord
100
AcDbLayerTableRecord
  2
NOTE
 70
0
 62
7
  6
CONTINUOUS
370
-3
390
F
  0
LAYER
  5
208
100
AcDbSymbolTableRecord
100
AcDbLayerTableRecord
  2
PIANI
 70
0
 62
7
  6
CONTINUOUS
370
-3
390
F
  0
LAYER
  5
209
100
AcDbSymbolTableRecord
100
AcDbLayerTableRecord
  2
PUNTI
 70
0
 62
7
  6
CONTINUOUS
370
-3
390
F
  0
LAYER
  5
20A
100
AcDbSymbolTableRecord
100
AcDbLayerTableRecord
  2
RACCORDO
 70
0
 62
7
  6
CONTINUOUS
370
-3
390
F
  0
LAYER
  5
20B
100
AcDbSymbolTableRecord
100
AcDbLayerTableRecord
  2
SIMBOLI
 70
0
 62
7
  6
CONTINUOUS
370
-3
390
F
  0
LAYER
  5
20C
100
AcDbSymbolTableRecord
100
AcDbLayerTableRecord
  2
SMUSSO
 70
0
 62
7
  6
CONTINUOUS
370
-3
390
F
  0
LAYER
  5
20D
100
AcDbSymbolTableRecord
100
AcDbLayerTableRecord
  2
SNAPLINE
 70
0
 62
7
  6
CONTINUOUS
370
-3
390
F
  0
LAYER
  5
20E
100
AcDbSymbolTableRecord
100
AcDbLayerTableRecord
  2
SUPERFICI
 70
0
 62
7
  6
CONTINUOUS
370
-3
390
F
  0
LAYER
  5
20F
100
AcDbSymbolTableRecord
100
AcDbLayerTableRecord
  2
TRASH
 70
0
 62
7
  6
CONTINUOUS
370
-3
390
F
  0
ENDTAB
  0
TABLE
  2
STYLE
  5
3
100
AcDbSymbolTable
 70
1
  0
STYLE
  5
11
100
AcDbSymbolTableRecord
100
AcDbTextStyleTableRecord
  2
STANDARD
 70
0
 40
0.0
 41
0.8
 50
0.0
 71
0
 42
0.2
  3
txt
  4

  0
STYLE
  5
210
100
AcDbSymbolTableRecord
100
AcDbTextStyleTableRecord
  2
TEXTSTYLE_1
 70
0
 40
0.0
 41
0.8
 50
0.0
 71
0
 42
0.2
  3
gdt
  4

  0
ENDTAB
  0
TABLE
  2
VIEW
  5
6
100
AcDbSymbolTable
 70
0
  0
ENDTAB
  0
TABLE
  2
UCS
  5
7
100
AcDbSymbolTable
 70
0
  0
ENDTAB
  0
TABLE
  2
APPID
  5
9
100
AcDbSymbolTable
 70
1
  0
APPID
  5
211
100
AcDbSymbolTableRecord
100
AcDbRegAppTableRecord
  2
ACAD
 70
0
  0
ENDTAB
  0
TABLE
  2
BLOCK_RECORD
  5
1
100
AcDbSymbolTable
 70
0
  0
BLOCK_RECORD
  5
212
100
AcDbSymbolTableRecord
100
AcDbBlockTableRecord
  2
*Model_Space
  0
BLOCK_RECORD
  5
213
100
AcDbSymbolTableRecord
100
AcDbBlockTableRecord
  2
*Paper_Space
  0
BLOCK_RECORD
  5
214
100
AcDbSymbolTableRecord
100
AcDbBlockTableRecord
  2
_FILLED
  0
BLOCK_RECORD
  5
215
100
AcDbSymbolTableRecord
100
AcDbBlockTableRecord
  2
*D0
  0
BLOCK_RECORD
  5
216
100
AcDbSymbolTableRecord
100
AcDbBlockTableRecord
  2
*D1
  0
BLOCK_RECORD
  5
217
100
AcDbSymbolTableRecord
100
AcDbBlockTableRecord
  2
*D2
  0
ENDTAB
  0
TABLE
  2
DIMSTYLE
  5
A
100
AcDbSymbolTable
 70
1
100
AcDbDimStyleTable
 71
0
  0
DIMSTYLE
105
218
100
AcDbSymbolTableRecord
100
AcDbDimStyleTableRecord
  2
STANDARD
 70
0
  3

  4

 40
1.0
 41
3.0
 42
0.5
 43
0.38
 44
1.5
 45
0.0
 46
0.0
 47
0.01
 48
0.01
140
3.0
141
0.09
142
0.0
143
25.4
144
1.0
145
0.0
146
1.0
147
0.625
 71
1
 72
0
 73
0
 74
0
 75
0
 76
0
 77
1
 78
8
 79
2
170
0
171
1
172
0
173
0
174
0
175
0
176
0
177
0
178
0
270
2
179
2
271
2
272
2
273
2
274
2
275
0
280
0
281
0
282
0
283
1
284
8
285
0
286
0
287
3
288
0
340
11
278
44
341
214
342
214
343
214
344
214
  0
DIMSTYLE
105
219
100
AcDbSymbolTableRecord
100
AcDbDimStyleTableRecord
  2
DIMSTYLE_1
 70
0
  3

  4

 40
1.0
 41
3.0
 42
0.5
 43
0.38
 44
1.5
 45
0.0
 46
0.0
 47
0.0
 48
0.0
140
3.0
141
0.09
142
0.0
143
25.4
144
1.0
145
0.0
146
1.0
147
0.75
 71
0
 72
0
 73
0
 74
0
 75
0
 76
0
 77
1
 78
8
 79
2
170
0
171
1
172
0
173
0
174
0
175
0
176
0
177
0
178
0
270
2
179
2
271
2
272
2
273
2
274
2
275
0
280
0
281
0
282
0
283
1
284
8
285
0
286
0
287
3
288
0
340
11
278
44
341
214
342
214
343
214
344
214
  0
DIMSTYLE
105
21A
100
AcDbSymbolTableRecord
100
AcDbDimStyleTableRecord
  2
DIMSTYLE_2
 70
0
  3

  4

 40
1.0
 41
3.0
 42
0.5
 43
0.38
 44
1.5
 45
0.0
 46
0.0
 47
0.0
 48
0.0
140
3.0
141
0.09
142
0.0
143
25.4
144
1.0
145
0.0
146
1.0
147
0.75
 71
0
 72
0
 73
0
 74
0
 75
0
 76
0
 77
1
 78
8
 79
2
170
0
171
1
172
0
173
0
174
0
175
0
176
0
177
0
178
0
270
2
179
2
271
1
272
1
273
2
274
2
275
0
280
0
281
0
282
0
283
1
284
8
285
0
286
0
287
3
288
0
340
11
278
44
341
214
342
214
343
214
344
214
  0
ENDTAB
  0
ENDSEC
  0
SECTION
  2
BLOCKS
  0
BLOCK
  5
20
100
AcDbEntity
  8
0
100
AcDbBlockBegin
  2
*Model_Space
 70
0
 10
0.0
 20
0.0
 30
0.0
  3
*Model_Space
  1

  0
ENDBLK
  5
21
100
AcDbEntity
  8
0
100
AcDbBlockEnd
  0
BLOCK
  5
1C
100
AcDbEntity
  8
0
100
AcDbBlockBegin
  2
*Paper_Space
 70
0
 10
0.0
 20
0.0
 30
0.0
  3
*Paper_Space
  1

  0
ENDBLK
  5
1D
100
AcDbEntity
  8
0
100
AcDbBlockEnd
  0
BLOCK
  5
21B
100
AcDbEntity
  8
0
100
AcDbBlockBegin
  2
_FILLED
 70
64
 10
0.0
 20
0.0
  3
_FILLED
  1

  0
SOLID
  5
21C
100
AcDbEntity
  8
0
  6
BYBLOCK
 62
0
100
AcDbTrace
 10
0.0
 20
0.0
 11
-1.0
 21
0.3166666667
 12
-1.0
 22
-0.3166666667
 13
-1.0
 23
-0.3166666667
  0
ENDBLK
  5
21D
100
AcDbEntity
  8
0
  6
BYBLOCK
 62
0
100
AcDbBlockEnd
  0
BLOCK
  5
21E
100
AcDbEntity
  8
0
100
AcDbBlockBegin
 62
7
  6
CONTINUOUS
  2
*D0
 70
65
 10
0.0
 20
0.0
  3
*D0
  1

  0
LINE
  5
21F
100
AcDbEntity
  8
0
100
AcDbLine
 62
7
  6
CONTINUOUS
 10
-11.52453075
 20
23.0201504617
 11
-11.52453075
 21
36.1012916391
  0
LINE
  5
220
100
AcDbEntity
  8
0
100
AcDbLine
 62
7
  6
CONTINUOUS
 10
10.67546925
 20
23.0201504617
 11
10.67546925
 21
36.1012916391
  0
LINE
  5
221
100
AcDbEntity
  8
0
100
AcDbLine
 62
7
  6
CONTINUOUS
 10
-11.52453075
 20
34.6012916391
 11
-0.42453075
 21
34.6012916391
  0
LINE
  5
222
100
AcDbEntity
  8
0
100
AcDbLine
 62
7
  6
CONTINUOUS
 10
10.67546925
 20
34.6012916391
 11
-0.42453075
 21
34.6012916391
  0
INSERT
  5
223
100
AcDbEntity
  8
0
100
AcDbBlockReference
 62
7
  6
CONTINUOUS
  2
_FILLED
 10
-11.52453075
 20
34.6012916391
 41
3.0
 42
3.0
 43
3.0
 50
180.0
  0
INSERT
  5
224
100
AcDbEntity
  8
0
100
AcDbBlockReference
 62
7
  6
CONTINUOUS
  2
_FILLED
 10
10.67546925
 20
34.6012916391
 41
3.0
 42
3.0
 43
3.0
  0
ENDBLK
  5
225
100
AcDbEntity
  8
0
  6
BYBLOCK
 62
0
100
AcDbBlockEnd
  0
BLOCK
  5
226
100
AcDbEntity
  8
0
100
AcDbBlockBegin
 62
7
  6
CONTINUOUS
  2
*D1
 70
65
 10
0.0
 20
0.0
  3
*D1
  1

  0
LINE
  5
227
100
AcDbEntity
  8
0
100
AcDbLine
 62
7
  6
CONTINUOUS
 10
10.6477701542
 20
26.5581062772
 11
20.1800122979
 21
26.5581062772
  0
LINE
  5
228
100
AcDbEntity
  8
0
100
AcDbLine
 62
7
  6
CONTINUOUS
 10
10.6477701542
 20
-26.1861528561
 11
20.1800122979
 21
-26.1861528561
  0
LINE
  5
229
100
AcDbEntity
  8
0
100
AcDbLine
 62
7
  6
CONTINUOUS
 10
18.6800122979
 20
26.5581062772
 11
18.6800122979
 21
0.1859767105
  0
LINE
  5
22A
100
AcDbEntity
  8
0
100
AcDbLine
 62
7
  6
CONTINUOUS
 10
18.6800122979
 20
-26.1861528561
 11
18.6800122979
 21
0.1859767105
  0
INSERT
  5
22B
100
AcDbEntity
  8
0
100
AcDbBlockReference
 62
7
  6
CONTINUOUS
  2
_FILLED
 10
18.6800122979
 20
26.5581062772
 41
3.0
 42
3.0
 43
3.0
 50
90.0
  0
INSERT
  5
22C
100
AcDbEntity
  8
0
100
AcDbBlockReference
 62
7
  6
CONTINUOUS
  2
_FILLED
 10
18.6800122979
 20
-26.1861528561
 41
3.0
 42
3.0
 43
3.0
 50
270.0
  0
ENDBLK
  5
22D
100
AcDbEntity
  8
0
  6
BYBLOCK
 62
0
100
AcDbBlockEnd
  0
BLOCK
  5
22E
100
AcDbEntity
  8
0
100
AcDbBlockBegin
 62
7
  6
CONTINUOUS
  2
*D2
 70
65
 10
0.0
 20
0.0
  3
*D2
  1

  0
LINE
  5
22F
100
AcDbEntity
  8
0
100
AcDbLine
 62
7
  6
CONTINUOUS
 10
-30.9463606447
 20
23.0201504617
 11
-30.9463606447
 21
36.0928684918
  0
LINE
  5
230
100
AcDbEntity
  8
0
100
AcDbLine
 62
7
  6
CONTINUOUS
 10
-34.7463606447
 20
26.4993917731
 11
-34.7463606447
 21
36.0928684918
  0
LINE
  5
231
100
AcDbEntity
  8
0
100
AcDbLine
 62
7
  6
CONTINUOUS
 10
-30.9463606447
 20
34.5928684918
 11
-19.1877942569
 21
34.5928684918
  0
LINE
  5
232
100
AcDbEntity
  8
0
100
AcDbLine
 62
7
  6
CONTINUOUS
 10
-19.1877942569
 20
34.5928684918
 11
-32.8463606447
 21
34.5928684918
  0
LINE
  5
233
100
AcDbEntity
  8
0
100
AcDbLine
 62
7
  6
CONTINUOUS
 10
-34.7463606447
 20
34.5928684918
 11
-38.7463606447
 21
34.5928684918
  0
LINE
  5
234
100
AcDbEntity
  8
0
100
AcDbLine
 62
7
  6
CONTINUOUS
 10
-38.7463606447
 20
34.5928684918
 11
-32.8463606447
 21
34.5928684918
  0
INSERT
  5
235
100
AcDbEntity
  8
0
100
AcDbBlockReference
 62
7
  6
CONTINUOUS
  2
_FILLED
 10
-30.9463606447
 20
34.5928684918
 41
3.0
 42
3.0
 43
3.0
 50
180.0
  0
INSERT
  5
236
100
AcDbEntity
  8
0
100
AcDbBlockReference
 62
7
  6
CONTINUOUS
  2
_FILLED
 10
-34.7463606447
 20
34.5928684918
 41
3.0
 42
3.0
 43
3.0
  0
ENDBLK
  5
237
100
AcDbEntity
  8
0
  6
BYBLOCK
 62
0
100
AcDbBlockEnd
  0
ENDSEC
  0
SECTION
  2
ENTITIES
  0
DIMENSION
  5
238
100
AcDbEntity
  8
0
100
AcDbDimension
 62
7
  6
CONTINUOUS
  2
*D0
 10
10.67546925
 20
34.6012916391
 11
-4.8173878929
 21
34.6012916391
 70
160
 71
2
 72
2
 41
0.9
 42
22.2
  3
DIMSTYLE_1
100
AcDbAlignedDimension
 13
-11.52453075
 23
22.5201504617
 14
10.67546925
 24
22.5201504617
100
AcDbRotatedDimension
  0
DIMENSION
  5
239
100
AcDbEntity
  8
0
100
AcDbDimension
 62
7
  6
CONTINUOUS
  2
*D1
 10
18.6800122979
 20
-26.1861528561
 11
18.6800122979
 21
-4.0997375752
 70
160
 71
2
 72
2
 41
0.9
 42
52.7442591333
  3
DIMSTYLE_2
100
AcDbAlignedDimension
 13
10.1477701542
 23
26.5581062772
 14
10.1477701542
 24
-26.1861528561
 50
270.0
100
AcDbRotatedDimension
  0
DIMENSION
  5
23A
100
AcDbEntity
  8
0
100
AcDbDimension
 62
7
  6
CONTINUOUS
  2
*D2
 10
-34.7463606447
 20
34.5928684918
 11
-25.4020799712
 21
34.5928684918
 70
160
 71
1
 72
2
 41
0.9
 42
3.8
  3
DIMSTYLE_1
100
AcDbAlignedDimension
 13
-30.9463606447
 23
22.5201504617
 14
-34.7463606447
 24
25.9993917731
 50
180.0
100
AcDbRotatedDimension
  0
LWPOLYLINE
  5
23B
100
AcDbEntity
  8
ASSI
100
AcDbPolyline
 62
250
  6
CONTINUOUS
 90
16
 70
0
 10
10.0888843126
 20
-26.1272670145
 10
10.1400265751
 20
-26.1246086597
 10
10.1908862276
 20
-26.1166784876
 10
10.2409117012
 20
-26.1034816087
 10
10.2895771546
 20
-26.0850683415
 10
10.3362943643
 20
-26.0615693907
 10
10.380434839
 20
-26.0332275157
 10
10.4215199217
 20
-26.0002818539
 10
10.4590223779
 20
-25.9630813852
 10
10.492347889
 20
-25.9221973255
 10
10.5210892067
 20
-25.8781953908
 10
10.5450231588
 20
-25.8314934558
 10
10.5639366118
 20
-25.7825287591
 10
10.5776230443
 20
-25.7318090208
 10
10.5859139657
 20
-25.6799213618
 10
10.5887129751
 20
-25.627438352
  0
LWPOLYLINE
  5
23C
100
AcDbEntity
  8
ASSI
100
AcDbPolyline
 62
250
  6
CONTINUOUS
 90
16
 70
0
 10
-10.9379458126
 20
-26.1272670145
 10
-10.989466169
 20
-26.1245693648
 10
-11.0406353085
 20
-26.1165341787
 10
-11.0908941807
 20
-26.1031859394
 10
-11.1397447811
 20
-26.0845810447
 10
-11.1865643923
 20
-26.0608778643
 10
-11.2306440954
 20
-26.0324000337
 10
-11.271443161
 20
-25.9995111351
 10
-11.3085780111
 20
-25.9625357355
 10
-11.3416526029
 20
-25.9218642738
 10
-11.37030526
 20
-25.8779290224
 10
-11.3942071086
 20
-25.8312198502
 10
-11.41308385
 20
-25.7822663839
 10
-11.4267262976
 20
-25.7316139088
 10
-11.4349868163
 20
-25.6798144443
 10
-11.4377744751
 20
-25.627438352
  0
LINE
  5
23D
100
AcDbEntity
  8
ASSI
100
AcDbLine
 62
7
  6
CONTINUOUS
 10
-10.9968316542
 20
-26.1861528561
 11
10.1477701542
 21
-26.1861528561
  0
LINE
  5
23E
100
AcDbEntity
  8
ASSI
100
AcDbLine
 62
250
  6
CONTINUOUS
 10
-10.9379458126
 20
-26.1272670145
 11
10.0888843126
 21
-26.1272670145
  0
LINE
  5
23F
100
AcDbEntity
  8
ASSI
100
AcDbLine
 62
250
  6
CONTINUOUS
 10
-11.4377744751
 20
-25.627438352
 11
10.5887129751
 21
-25.627438352
  0
LINE
  5
240
100
AcDbEntity
  8
CURVE
100
AcDbLine
 62
250
  6
CONTINUOUS
 10
-0.67429975
 20
-17.2414372895
 11
-0.17441675
 21
-17.2414372895
  0
LINE
  5
241
100
AcDbEntity
  8
CURVE
100
AcDbLine
 62
250
  6
CONTINUOUS
 10
-0.17441675
 20
-16.1417632895
 11
-0.67429975
 21
-16.1417632895
  0
LINE
  5
242
100
AcDbEntity
  8
CURVE
100
AcDbLine
 62
250
  6
CONTINUOUS
 10
-3.07622075
 20
18.1914777105
 11
-3.42968775
 21
17.8380117105
  0
LINE
  5
243
100
AcDbEntity
  8
CURVE
100
AcDbLine
 62
7
  6
CONTINUOUS
 10
-3.0924912996
 20
17.5008972815
 11
-2.7390246804
 21
17.8543639007
  0
LINE
  5
244
100
AcDbEntity
  8
CURVE
100
AcDbLine
 62
7
  6
CONTINUOUS
 10
-4.42463075
 20
15.1731514832
 11
-4.1616915226
 21
15.4360907105
  0
LINE
  5
245
100
AcDbEntity
  8
CURVE
100
AcDbLine
 62
7
  6
CONTINUOUS
 10
-2.5946275742
 20
17.003154659
 11
-2.241160779
 21
17.3566214542
  0
LINE
  5
246
100
AcDbEntity
  8
CURVE
100
AcDbLine
 62
7
  6
CONTINUOUS
 10
-0.67447275
 20
18.9233094832
 11
-0.4117055226
 21
19.1860767105
  0
LINE
  5
247
100
AcDbEntity
  8
CURVE
100
AcDbLine
 62
250
  6
CONTINUOUS
 10
-0.67429975
 20
-13.4849052895
 11
-0.17441675
 21
-13.4849052895
  0
LINE
  5
248
100
AcDbEntity
  8
CURVE
100
AcDbLine
 62
250
  6
CONTINUOUS
 10
-2.65230175
 20
-13.8156342895
 11
-1.70007775
 21
-14.3654722895
  0
LINE
  5
249
100
AcDbEntity
  8
CURVE
100
AcDbLine
 62
250
  6
CONTINUOUS
 10
0.60107425
 20
-15.6939002895
 11
1.55329825
 21
-16.2437382895
  0
LINE
  5
24A
100
AcDbEntity
  8
ASSI
100
AcDbLine
 62
7
  6
CONTINUOUS
 10
-11.5240846182
 20
-22.2776065632
 11
-11.500142927
 21
-25.689806804
  0
LINE
  5
24B
100
AcDbEntity
  8
ASSI
100
AcDbLine
 62
7
  6
CONTINUOUS
 10
-11.5240846182
 20
22.6495599843
 11
-11.500142927
 21
26.061760225
  0
LINE
  5
24C
100
AcDbEntity
  8
CURVE
100
AcDbLine
 62
7
  6
CONTINUOUS
 10
-3.6659681747
 20
14.9362077105
 11
-3.1660851747
 21
15.4360907105
  0
LINE
  5
24D
100
AcDbEntity
  8
CURVE
100
AcDbLine
 62
7
  6
CONTINUOUS
 10
-2.0967638488
 20
16.5054120364
 11
-1.7432968776
 21
16.8588790077
  0
LINE
  5
24E
100
AcDbEntity
  8
CURVE
100
AcDbLine
 62
7
  6
CONTINUOUS
 10
-0.67447275
 20
17.9277031353
 11
-0.17458875
 21
18.4275871353
  0
LINE
  5
24F
100
AcDbEntity
  8
CURVE
100
AcDbLine
 62
250
  6
CONTINUOUS
 10
-2.01547575
 20
16.4241437105
 11
-1.66200875
 21
16.7776107105
  0
LINE
  5
250
100
AcDbEntity
  8
CURVE
100
AcDbLine
 62
7
  6
CONTINUOUS
 10
-2.6703618268
 20
14.9362077105
 11
-2.42440875
 21
15.1821607874
  0
LINE
  5
251
100
AcDbEntity
  8
CURVE
100
AcDbLine
 62
7
  6
CONTINUOUS
 10
-0.4200258268
 20
17.1865437105
 11
-0.17458875
 21
17.4319807874
  0
LINE
  5
252
100
AcDbEntity
  8
CURVE
100
AcDbLine
 62
7
  6
CONTINUOUS
 10
-1.4246419694
 20
15.1863212201
 11
-0.42453075
 21
16.1864324394
  0
LINE
  5
253
100
AcDbEntity
  8
CURVE
100
AcDbLine
 62
250
  6
CONTINUOUS
 10
-0.17441675
 20
-12.3852312895
 11
-0.67429975
 21
-12.3852312895
  0
LINE
  5
254
100
AcDbEntity
  8
CURVE
100
AcDbLine
 62
250
  6
CONTINUOUS
 10
1.80341225
 20
-15.8110342895
 11
0.85118825
 21
-15.2611962895
  0
LINE
  5
255
100
AcDbEntity
  8
CURVE
100
AcDbLine
 62
250
  6
CONTINUOUS
 10
-1.45013575
 20
-13.9327682895
 11
-2.40218775
 21
-13.3829302895
  0
LWPOLYLINE
  5
256
100
AcDbEntity
  8
ASSI
100
AcDbPolyline
 62
250
  6
CONTINUOUS
 90
16
 70
0
 10
-11.4377744751
 20
0.9244540174
 10
-11.4349867384
 20
0.8719542909
 10
-11.4267053223
 20
0.8200491915
 10
-11.4130262143
 20
0.7693117061
 10
-11.3941176466
 20
0.7203296656
 10
-11.3701858008
 20
0.6736110502
 10
-11.3414431554
 20
0.6295930276
 10
-11.3081113196
 20
0.5886928301
 10
-11.2705983022
 20
0.5514786314
 10
-11.229502314
 20
0.5185253013
 10
-11.1853525601
 20
0.4901819243
 10
-11.1386276636
 20
0.4666862227
 10
-11.0899580945
 20
0.4482805538
 10
-11.0399331278
 20
0.4350943656
 10
-10.989078498
 20
0.4271763598
 10
-10.9379458126
 20
0.4245301698
  0
LINE
  5
257
100
AcDbEntity
  8
ASSI
100
AcDbLine
 62
7
  6
CONTINUOUS
 10
-11.52453075
 20
22.5201504617
 11
-11.52453075
 21
0.866623843
  0
LINE
  5
258
100
AcDbEntity
  8
ASSI
100
AcDbLine
 62
7
  6
CONTINUOUS
 10
-11.52453075
 20
-0.4946704219
 11
-11.52453075
 21
-22.1481970407
  0
LINE
  5
259
100
AcDbEntity
  8
ASSI
100
AcDbLine
 62
250
  6
CONTINUOUS
 10
-11.4377744751
 20
25.9993917731
 11
-11.4377744751
 21
0.9244540174
  0
LINE
  5
25A
100
AcDbEntity
  8
ASSI
100
AcDbLine
 62
250
  6
CONTINUOUS
 10
-11.4377744751
 20
-0.5525005963
 11
-11.4377744751
 21
-25.627438352
  0
LINE
  5
25B
100
AcDbEntity
  8
ASSI
100
AcDbLine
 62
250
  6
CONTINUOUS
 10
-10.9379458126
 20
0.4245301698
 11
-10.9379458126
 21
26.4992204356
  0
LINE
  5
25C
100
AcDbEntity
  8
ASSI
100
AcDbLine
 62
250
  6
CONTINUOUS
 10
-10.9379458126
 20
-0.0525767488
 11
-10.9379458126
 21
-26.1272670145
  0
LWPOLYLINE
  5
25D
100
AcDbEntity
  8
0
100
AcDbPolyline
 62
7
  6
CONTINUOUS
 90
3
 70
0
 43
0.3500000019
 10
0.6111816406
 20
35.6370056152
 10
0.5397568359
 20
35.422720459
 10
0.3968964844
 20
35.137005127
  0
LINE
  5
25E
100
AcDbEntity
  8
ASSI
100
AcDbLine
 62
250
  6
CONTINUOUS
 10
10.0888843126
 20
26.4992204356
 11
10.1477701542
 21
26.5581062772
  0
LINE
  5
25F
100
AcDbEntity
  8
CURVE
100
AcDbLine
 62
250
  6
CONTINUOUS
 10
-2.01547575
 20
13.9491877105
 11
-3.42968775
 21
12.5346317105
  0
LINE
  5
260
100
AcDbEntity
  8
CURVE
100
AcDbLine
 62
7
  6
CONTINUOUS
 10
-3.2552064405
 20
12.360150401
 11
-1.8408224405
 21
13.774534401
  0
LINE
  5
261
100
AcDbEntity
  8
CURVE
100
AcDbLine
 62
7
  6
CONTINUOUS
 10
-1.1336381165
 20
14.4817187251
 11
0.2804099365
 21
15.895766778
  0
LINE
  5
262
100
AcDbEntity
  8
CURVE
100
AcDbLine
 62
7
  6
CONTINUOUS
 10
0.9876005595
 20
16.602957401
 11
2.4016403063
 21
18.0169971478
  0
LINE
  5
263
100
AcDbEntity
  8
ASSI
100
AcDbLine
 62
250
  6
CONTINUOUS
 10
10.5887129751
 20
25.9993917731
 11
10.651081427
 21
26.061760225
  0
LINE
  5
264
100
AcDbEntity
  8
CURVE
100
AcDbLine
 62
250
  6
CONTINUOUS
 10
-3.07622075
 20
12.1811647105
 11
-1.66200875
 21
13.5957207105
  0
LINE
  5
265
100
AcDbEntity
  8
CURVE
100
AcDbLine
 62
7
  6
CONTINUOUS
 10
-0.4327726072
 20
14.1869778864
 11
0.5751509342
 21
15.1949014279
  0
LINE
  5
266
100
AcDbEntity
  8
CURVE
100
AcDbLine
 62
250
  6
CONTINUOUS
 10
2.22715925
 20
18.1914777105
 11
0.81294725
 21
16.7776107105
  0
LINE
  5
267
100
AcDbEntity
  8
CURVE
100
AcDbLine
 62
250
  6
CONTINUOUS
 10
1.16641425
 20
16.4241437105
 11
2.58062625
 21
17.8380117105
  0
LINE
  5
268
100
AcDbEntity
  8
ASSI
100
AcDbLine
 62
250
  6
CONTINUOUS
 10
10.1477701542
 20
-26.1861528561
 11
10.0888843126
 21
-26.1272670145
  0
LINE
  5
269
100
AcDbEntity
  8
ASSI
100
AcDbLine
 62
250
  6
CONTINUOUS
 10
10.651081427
 20
-25.689806804
 11
10.5887129751
 21
-25.627438352
  0
LINE
  5
26A
100
AcDbEntity
  8
CURVE
100
AcDbLine
 62
250
  6
CONTINUOUS
 10
-2.65230175
 20
-15.8110342895
 11
-2.40218775
 21
-16.2437382895
  0
LINE
  5
26B
100
AcDbEntity
  8
CURVE
100
AcDbLine
 62
7
  6
CONTINUOUS
 10
-0.67447275
 20
12.9496713957
 11
-0.4380454352
 21
13.1860987105
  0
LINE
  5
26C
100
AcDbEntity
  8
CURVE
100
AcDbLine
 62
7
  6
CONTINUOUS
 10
1.57534725
 20
15.1994913957
 11
1.8119465648
 21
15.4360907105
  0
LINE
  5
26D
100
AcDbEntity
  8
CURVE
100
AcDbLine
 62
250
  6
CONTINUOUS
 10
1.16641425
 20
13.9491877105
 11
0.81294725
 21
13.5957207105
  0
LINE
  5
26E
100
AcDbEntity
  8
CURVE
100
AcDbLine
 62
7
  6
CONTINUOUS
 10
-0.67447275
 20
11.9540650478
 11
-0.17458875
 21
12.4539490478
  0
LINE
  5
26F
100
AcDbEntity
  8
CURVE
100
AcDbLine
 62
7
  6
CONTINUOUS
 10
0.8900557032
 20
13.518593501
 11
1.2435227032
 21
13.872060501
  0
LINE
  5
270
100
AcDbEntity
  8
CURVE
100
AcDbLine
 62
7
  6
CONTINUOUS
 10
2.3076699127
 20
14.9362077105
 11
2.8075529127
 21
15.4360907105
  0
LINE
  5
271
100
AcDbEntity
  8
CURVE
100
AcDbLine
 62
7
  6
CONTINUOUS
 10
-0.4463657394
 20
11.1865657105
 11
-0.17458875
 21
11.4583426999
  0
LINE
  5
272
100
AcDbEntity
  8
CURVE
100
AcDbLine
 62
7
  6
CONTINUOUS
 10
1.3877983405
 20
13.0207297904
 11
1.7412653405
 21
13.3741967904
  0
LINE
  5
273
100
AcDbEntity
  8
CURVE
100
AcDbLine
 62
7
  6
CONTINUOUS
 10
3.3032762606
 20
14.9362077105
 11
3.57556925
 21
15.2085006999
  0
LINE
  5
274
100
AcDbEntity
  8
CURVE
100
AcDbLine
 62
250
  6
CONTINUOUS
 10
-1.45013575
 20
-15.6939002895
 11
-1.70007775
 21
-15.2611962895
  0
LINE
  5
275
100
AcDbEntity
  8
ASSI
100
AcDbLine
 62
7
  6
CONTINUOUS
 10
-10.515955534
 20
0.3753513551
 11
-10.5053301786
 21
0.3859767105
  0
LINE
  5
276
100
AcDbEntity
  8
CURVE
100
AcDbLine
 62
7
  6
CONTINUOUS
 10
1.8855409777
 20
12.5228660797
 11
2.2390079777
 21
12.8763330797
  0
LINE
  5
277
100
AcDbEntity
  8
CURVE
100
AcDbLine
 62
250
  6
CONTINUOUS
 10
2.22715925
 20
12.1811647105
 11
2.58062625
 21
12.5346317105
  0
LINE
  5
278
100
AcDbEntity
  8
ASSI
100
AcDbLine
 62
250
  6
CONTINUOUS
 10
-11.52453075
 20
0.866623843
 11
-11.4377744751
 21
0.9244540174
  0
LINE
  5
279
100
AcDbEntity
  8
ASSI
100
AcDbLine
 62
250
  6
CONTINUOUS
 10
-11.0245878574
 20
0.3667761391
 11
-10.9379458126
 21
0.4245301698
  0
LINE
  5
27A
100
AcDbEntity
  8
ASSI
100
AcDbLine
 62
250
  6
CONTINUOUS
 10
-11.4377744751
 20
-0.5525005963
 11
-11.52453075
 21
-0.4946704219
  0
LINE
  5
27B
100
AcDbEntity
  8
ASSI
100
AcDbLine
 62
250
  6
CONTINUOUS
 10
-10.9379458126
 20
-0.0525767488
 11
-11.0245878574
 21
0.0051772819
  0
LINE
  5
27C
100
AcDbEntity
  8
ASSI
100
AcDbLine
 62
7
  6
CONTINUOUS
 10
-10.515955534
 20
-0.0033979341
 11
-10.5053301786
 21
-0.0140232895
  0
LINE
  5
27D
100
AcDbEntity
  8
CURVE
100
AcDbLine
 62
250
  6
CONTINUOUS
 10
0.60107425
 20
-13.9327682895
 11
0.85118825
 21
-14.3654722895
  0
LINE
  5
27E
100
AcDbEntity
  8
CURVE
100
AcDbLine
 62
250
  6
CONTINUOUS
 10
-4.42463075
 20
15.4360907105
 11
-4.42463075
 21
14.9362077105
  0
LINE
  5
27F
100
AcDbEntity
  8
CURVE
100
AcDbLine
 62
250
  6
CONTINUOUS
 10
1.80341225
 20
-13.8156342895
 11
1.55329825
 21
-13.3829302895
  0
LINE
  5
280
100
AcDbEntity
  8
CURVE
100
AcDbLine
 62
250
  6
CONTINUOUS
 10
-2.42440875
 20
14.9362077105
 11
-2.42440875
 21
15.4360907105
  0
LINE
  5
281
100
AcDbEntity
  8
CURVE
100
AcDbLine
 62
250
  6
CONTINUOUS
 10
-0.67447275
 20
19.1860767105
 11
-0.67447275
 21
17.1865437105
  0
LINE
  5
282
100
AcDbEntity
  8
CURVE
100
AcDbLine
 62
250
  6
CONTINUOUS
 10
-0.67447275
 20
13.1860987105
 11
-0.67447275
 21
11.1865657105
  0
LINE
  5
283
100
AcDbEntity
  8
CURVE
100
AcDbLine
 62
250
  6
CONTINUOUS
 10
-0.67429975
 20
-12.3852312895
 11
-0.67429975
 21
-13.4849052895
  0
LINE
  5
284
100
AcDbEntity
  8
CURVE
100
AcDbLine
 62
250
  6
CONTINUOUS
 10
-0.67429975
 20
-16.1417632895
 11
-0.67429975
 21
-17.2414372895
  0
LINE
  5
285
100
AcDbEntity
  8
CURVE
100
AcDbLine
 62
250
  6
CONTINUOUS
 10
-0.17458875
 20
11.1865657105
 11
-0.17458875
 21
13.1860987105
  0
LINE
  5
286
100
AcDbEntity
  8
CURVE
100
AcDbLine
 62
250
  6
CONTINUOUS
 10
-0.17458875
 20
17.1865437105
 11
-0.17458875
 21
19.1860767105
  0
LINE
  5
287
100
AcDbEntity
  8
CURVE
100
AcDbLine
 62
250
  6
CONTINUOUS
 10
-0.17441675
 20
-17.2414372895
 11
-0.17441675
 21
-16.1417632895
  0
LINE
  5
288
100
AcDbEntity
  8
CURVE
100
AcDbLine
 62
250
  6
CONTINUOUS
 10
-0.17441675
 20
-13.4849052895
 11
-0.17441675
 21
-12.3852312895
  0
LWPOLYLINE
  5
289
100
AcDbEntity
  8
ASSI
100
AcDbPolyline
 62
250
  6
CONTINUOUS
 90
16
 70
0
 10
10.0888843126
 20
0.4245301698
 10
10.1411155002
 20
0.42729108
 10
10.1927747646
 20
0.4354958464
 10
10.2432964448
 20
0.4490546279
 10
10.2921273364
 20
0.4678189581
 10
10.3387327489
 20
0.4915833705
 10
10.3826023601
 20
0.5200876486
 10
10.4232558049
 20
0.5530196749
 10
10.4602479343
 20
0.5900188489
 10
10.4931736904
 20
0.6306800355
 10
10.5216725412
 20
0.6745580011
 10
10.5454324289
 20
0.7211722888
 10
10.5641931864
 20
0.7700124796
 10
10.5777493864
 20
0.8205437809
 10
10.5859525905
 20
0.8722128831
 10
10.5887129751
 20
0.9244540174
  0
LINE
  5
28A
100
AcDbEntity
  8
ASSI
100
AcDbLine
 62
250
  6
CONTINUOUS
 10
-11.4377744751
 20
-0.5525005963
 11
10.5887129751
 21
-0.5525005963
  0
LINE
  5
28B
100
AcDbEntity
  8
ASSI
100
AcDbLine
 62
250
  6
CONTINUOUS
 10
10.0888843126
 20
-0.0525767488
 11
-10.9379458126
 21
-0.0525767488
  0
LINE
  5
28C
100
AcDbEntity
  8
ASSI
100
AcDbLine
 62
7
  6
CONTINUOUS
 10
-10.5053301786
 20
-0.0140232895
 11
9.6562686786
 21
-0.0140232895
  0
LINE
  5
28D
100
AcDbEntity
  8
ASSI
100
AcDbLine
 62
7
  6
CONTINUOUS
 10
-11.0245878574
 20
0.0051772819
 11
-11.0158793816
 21
0.0051772819
  0
LINE
  5
28E
100
AcDbEntity
  8
ASSI
100
AcDbLine
 62
7
  6
CONTINUOUS
 10
10.1668178816
 20
0.0051772819
 11
10.1755263574
 21
0.0051772819
  0
LINE
  5
28F
100
AcDbEntity
  8
ASSI
100
AcDbLine
 62
7
  6
CONTINUOUS
 10
10.1755263574
 20
0.3667761391
 11
10.1668178816
 21
0.3667761391
  0
LINE
  5
290
100
AcDbEntity
  8
ASSI
100
AcDbLine
 62
7
  6
CONTINUOUS
 10
-11.0158793816
 20
0.3667761391
 11
-11.0245878574
 21
0.3667761391
  0
LINE
  5
291
100
AcDbEntity
  8
ASSI
100
AcDbLine
 62
7
  6
CONTINUOUS
 10
9.6562686786
 20
0.3859767105
 11
-10.5053301786
 21
0.3859767105
  0
LINE
  5
292
100
AcDbEntity
  8
ASSI
100
AcDbLine
 62
250
  6
CONTINUOUS
 10
-10.9379458126
 20
0.4245301698
 11
10.0888843126
 21
0.4245301698
  0
LINE
  5
293
100
AcDbEntity
  8
CURVE
100
AcDbLine
 62
250
  6
CONTINUOUS
 10
1.57534725
 20
15.4360907105
 11
1.57534725
 21
14.9362077105
  0
LWPOLYLINE
  5
294
100
AcDbEntity
  8
ASSI
100
AcDbPolyline
 62
250
  6
CONTINUOUS
 90
16
 70
0
 10
-10.9379458126
 20
-0.0525767488
 10
-10.9901770002
 20
-0.055337659
 10
-11.0418362646
 20
-0.0635424253
 10
-11.0923579448
 20
-0.0771012068
 10
-11.1411888364
 20
-0.0958655371
 10
-11.1877942489
 20
-0.1196299495
 10
-11.2316638601
 20
-0.1481342275
 10
-11.2723173049
 20
-0.1810662538
 10
-11.3093094343
 20
-0.2180654278
 10
-11.3422351904
 20
-0.2587266145
 10
-11.3707340412
 20
-0.3026045801
 10
-11.3944939289
 20
-0.3492188678
 10
-11.4132546864
 20
-0.3980590585
 10
-11.4268108864
 20
-0.4485903599
 10
-11.4350140905
 20
-0.500259462
 10
-11.4377744751
 20
-0.5525005963
  0
LINE
  5
295
100
AcDbEntity
  8
ASSI
100
AcDbLine
 62
250
  6
CONTINUOUS
 10
-11.4377744751
 20
0.9244540174
 11
10.5887129751
 21
0.9244540174
  0
LWPOLYLINE
  5
296
100
AcDbEntity
  8
0
100
AcDbPolyline
 62
7
  6
CONTINUOUS
 90
4
 70
0
 43
0.3500000019
 10
15.5728681641
 20
2.1145480804
 10
14.9300126953
 20
2.1145480804
 10
14.9300126953
 20
3.6145480347
 10
17.9300102539
 20
2.7574052277
  0
LINE
  5
297
100
AcDbEntity
  8
CURVE
100
AcDbLine
 62
250
  6
CONTINUOUS
 10
3.57556925
 20
14.9362077105
 11
3.57556925
 21
15.4360907105
  0
LINE
  5
298
100
AcDbEntity
  8
CURVE
100
AcDbLine
 62
250
  6
CONTINUOUS
 10
-2.40218775
 20
-13.3829302895
 11
-2.65230175
 21
-13.8156342895
  0
LINE
  5
299
100
AcDbEntity
  8
CURVE
100
AcDbLine
 62
250
  6
CONTINUOUS
 10
-1.70007775
 20
-14.3654722895
 11
-1.45013575
 21
-13.9327682895
  0
LINE
  5
29A
100
AcDbEntity
  8
ASSI
100
AcDbLine
 62
7
  6
CONTINUOUS
 10
9.666894034
 20
-0.0033979341
 11
9.6562686786
 21
-0.0140232895
  0
LINE
  5
29B
100
AcDbEntity
  8
ASSI
100
AcDbLine
 62
250
  6
CONTINUOUS
 10
10.1755263574
 20
0.0051772819
 11
10.0888843126
 21
-0.0525767488
  0
LINE
  5
29C
100
AcDbEntity
  8
ASSI
100
AcDbLine
 62
250
  6
CONTINUOUS
 10
10.67546925
 20
-0.4946704219
 11
10.5887129751
 21
-0.5525005963
  0
LWPOLYLINE
  5
29D
100
AcDbEntity
  8
0
100
AcDbPolyline
 62
7
  6
CONTINUOUS
 90
10
 70
0
 43
0.3500000019
 10
17.4300097656
 20
1.0431195297
 10
17.5728701172
 20
1.114548111
 10
17.644300293
 20
1.114548111
 10
17.7871552734
 20
0.9716910324
 10
17.7871552734
 20
0.9002624512
 10
17.7157250977
 20
0.8288338699
 10
17.644300293
 20
0.8288338699
 10
17.5014399414
 20
0.9002624512
 10
17.4300097656
 20
0.9716910324
 10
17.4300097656
 20
1.0431195297
  0
LWPOLYLINE
  5
29E
100
AcDbEntity
  8
0
100
AcDbPolyline
 62
7
  6
CONTINUOUS
 90
3
 70
0
 43
0.3500000019
 10
17.644300293
 20
1.114548111
 10
17.8585854492
 20
1.0431195297
 10
18.1442954102
 20
0.9002624512
  0
LINE
  5
29F
100
AcDbEntity
  8
ASSI
100
AcDbLine
 62
250
  6
CONTINUOUS
 10
10.0888843126
 20
0.4245301698
 11
10.1755263574
 21
0.3667761391
  0
LINE
  5
2A0
100
AcDbEntity
  8
ASSI
100
AcDbLine
 62
250
  6
CONTINUOUS
 10
10.5887129751
 20
0.9244540174
 11
10.67546925
 21
0.866623843
  0
LINE
  5
2A1
100
AcDbEntity
  8
CURVE
100
AcDbLine
 62
250
  6
CONTINUOUS
 10
-3.42968775
 20
12.5346317105
 11
-3.07622075
 21
12.1811647105
  0
LINE
  5
2A2
100
AcDbEntity
  8
ASSI
100
AcDbLine
 62
7
  6
CONTINUOUS
 10
9.666894034
 20
0.3753513551
 11
9.6562686786
 21
0.3859767105
  0
LINE
  5
2A3
100
AcDbEntity
  8
CURVE
100
AcDbLine
 62
250
  6
CONTINUOUS
 10
0.85118825
 20
-15.2611962895
 11
0.60107425
 21
-15.6939002895
  0
LINE
  5
2A4
100
AcDbEntity
  8
CURVE
100
AcDbLine
 62
7
  6
CONTINUOUS
 10
-2.5063874538
 20
-13.5631986016
 11
-2.3539676602
 21
-13.410778808
  0
LINE
  5
2A5
100
AcDbEntity
  8
CURVE
100
AcDbLine
 62
7
  6
CONTINUOUS
 10
-2.0886711985
 20
-14.1410886943
 11
-1.7228501917
 21
-13.7752676874
  0
LINE
  5
2A6
100
AcDbEntity
  8
CURVE
100
AcDbLine
 62
7
  6
CONTINUOUS
 10
-0.67429975
 20
-12.7267172457
 11
-0.3328137937
 21
-12.3852312895
  0
LINE
  5
2A7
100
AcDbEntity
  8
CURVE
100
AcDbLine
 62
7
  6
CONTINUOUS
 10
-0.4368814458
 20
-13.4849052895
 11
-0.17441675
 21
-13.2224405937
  0
LINE
  5
2A8
100
AcDbEntity
  8
CURVE
100
AcDbLine
 62
250
  6
CONTINUOUS
 10
-1.66200875
 20
13.5957207105
 11
-2.01547575
 21
13.9491877105
  0
LWPOLYLINE
  5
2A9
100
AcDbEntity
  8
ASSI
100
AcDbPolyline
 62
250
  6
CONTINUOUS
 90
16
 70
0
 10
10.5887129751
 20
-0.5525005963
 10
10.5859252384
 20
-0.5000008698
 10
10.5776438223
 20
-0.4480957704
 10
10.5639647143
 20
-0.3973582851
 10
10.5450561466
 20
-0.3483762445
 10
10.5211243008
 20
-0.3016576292
 10
10.4923816554
 20
-0.2576396066
 10
10.4590498196
 20
-0.216739409
 10
10.4215368022
 20
-0.1795252103
 10
10.380440814
 20
-0.1465718802
 10
10.3362910601
 20
-0.1182285033
 10
10.2895661636
 20
-0.0947328016
 10
10.2408965945
 20
-0.0763271327
 10
10.1908716278
 20
-0.0631409445
 10
10.140016998
 20
-0.0552229388
 10
10.0888843126
 20
-0.0525767488
  0
LINE
  5
2AA
100
AcDbEntity
  8
ASSI
100
AcDbLine
 62
7
  6
CONTINUOUS
 10
10.6750231182
 20
22.6495599843
 11
10.651081427
 21
26.061760225
  0
LINE
  5
2AB
100
AcDbEntity
  8
ASSI
100
AcDbLine
 62
250
  6
CONTINUOUS
 10
10.0888843126
 20
-0.0525767488
 11
10.0888843126
 21
-26.1272670145
  0
LINE
  5
2AC
100
AcDbEntity
  8
ASSI
100
AcDbLine
 62
250
  6
CONTINUOUS
 10
10.0888843126
 20
0.4245301698
 11
10.0888843126
 21
26.4992204356
  0
LINE
  5
2AD
100
AcDbEntity
  8
ASSI
100
AcDbLine
 62
250
  6
CONTINUOUS
 10
10.5887129751
 20
-25.627438352
 11
10.5887129751
 21
-0.5525005963
  0
LINE
  5
2AE
100
AcDbEntity
  8
ASSI
100
AcDbLine
 62
250
  6
CONTINUOUS
 10
10.5887129751
 20
0.9244540174
 11
10.5887129751
 21
25.9993917731
  0
LINE
  5
2AF
100
AcDbEntity
  8
ASSI
100
AcDbLine
 62
7
  6
CONTINUOUS
 10
10.67546925
 20
-22.1481970407
 11
10.67546925
 21
-0.4946704219
  0
LINE
  5
2B0
100
AcDbEntity
  8
ASSI
100
AcDbLine
 62
7
  6
CONTINUOUS
 10
10.67546925
 20
0.866623843
 11
10.67546925
 21
22.5201504617
  0
LINE
  5
2B1
100
AcDbEntity
  8
ASSI
100
AcDbLine
 62
7
  6
CONTINUOUS
 10
10.6750231182
 20
-22.2776065632
 11
10.651081427
 21
-25.689806804
  0
LINE
  5
2B2
100
AcDbEntity
  8
CURVE
100
AcDbLine
 62
250
  6
CONTINUOUS
 10
1.55329825
 20
-16.2437382895
 11
1.80341225
 21
-15.8110342895
  0
LINE
  5
2B3
100
AcDbEntity
  8
CURVE
100
AcDbLine
 62
7
  6
CONTINUOUS
 10
-1.9238594548
 20
-15.9674896463
 11
-1.5234123519
 21
-15.5670425435
  0
LINE
  5
2B4
100
AcDbEntity
  8
CURVE
100
AcDbLine
 62
7
  6
CONTINUOUS
 10
-1.0232733374
 20
-15.066903529
 11
-0.1713055105
 21
-14.2149357021
  0
LINE
  5
2B5
100
AcDbEntity
  8
ASSI
100
AcDbLine
 62
250
  6
CONTINUOUS
 10
-11.4377744751
 20
-25.627438352
 11
-11.500142927
 21
-25.689806804
  0
LINE
  5
2B6
100
AcDbEntity
  8
CURVE
100
AcDbLine
 62
7
  6
CONTINUOUS
 10
-0.42453075
 20
-15.4637672895
 11
0.22555825
 21
-14.8136782895
  0
LINE
  5
2B7
100
AcDbEntity
  8
CURVE
100
AcDbLine
 62
7
  6
CONTINUOUS
 10
0.7861984191
 20
-14.2530381203
 11
1.5910297435
 21
-13.448206796
  0
LINE
  5
2B8
100
AcDbEntity
  8
ASSI
100
AcDbLine
 62
250
  6
CONTINUOUS
 10
-10.9379458126
 20
-26.1272670145
 11
-10.9968316542
 21
-26.1861528561
  0
LINE
  5
2B9
100
AcDbEntity
  8
CURVE
100
AcDbLine
 62
250
  6
CONTINUOUS
 10
-0.67447275
 20
11.1865657105
 11
-0.17458875
 21
11.1865657105
  0
LINE
  5
2BA
100
AcDbEntity
  8
CURVE
100
AcDbLine
 62
250
  6
CONTINUOUS
 10
-3.42968775
 20
17.8380117105
 11
-2.01547575
 21
16.4241437105
  0
LINE
  5
2BB
100
AcDbEntity
  8
ASSI
100
AcDbLine
 62
250
  6
CONTINUOUS
 10
-11.500142927
 20
26.061760225
 11
-11.4377744751
 21
25.9993917731
  0
LINE
  5
2BC
100
AcDbEntity
  8
CURVE
100
AcDbLine
 62
250
  6
CONTINUOUS
 10
-1.66200875
 20
16.7776107105
 11
-3.07622075
 21
18.1914777105
  0
LINE
  5
2BD
100
AcDbEntity
  8
ASSI
100
AcDbLine
 62
250
  6
CONTINUOUS
 10
-10.9968316542
 20
26.5581062772
 11
-10.9379458126
 21
26.4992204356
  0
LINE
  5
2BE
100
AcDbEntity
  8
CURVE
100
AcDbLine
 62
250
  6
CONTINUOUS
 10
0.81294725
 20
13.5957207105
 11
2.22715925
 21
12.1811647105
  0
LINE
  5
2BF
100
AcDbEntity
  8
CURVE
100
AcDbLine
 62
250
  6
CONTINUOUS
 10
2.58062625
 20
12.5346317105
 11
1.16641425
 21
13.9491877105
  0
LINE
  5
2C0
100
AcDbEntity
  8
CURVE
100
AcDbLine
 62
7
  6
CONTINUOUS
 10
-0.67429975
 20
-16.7091426374
 11
-0.17441675
 21
-16.2092596374
  0
LINE
  5
2C1
100
AcDbEntity
  8
CURVE
100
AcDbLine
 62
7
  6
CONTINUOUS
 10
-0.2109880542
 20
-17.2414372895
 11
-0.17441675
 21
-17.2048659853
  0
LINE
  5
2C2
100
AcDbEntity
  8
CURVE
100
AcDbLine
 62
7
  6
CONTINUOUS
 10
1.0673244159
 20
-15.9631248194
 11
1.4331903491
 21
-15.5972588862
  0
LINE
  5
2C3
100
AcDbEntity
  8
CURVE
100
AcDbLine
 62
250
  6
CONTINUOUS
 10
-2.40218775
 20
-16.2437382895
 11
-1.45013575
 21
-15.6939002895
  0
LINE
  5
2C4
100
AcDbEntity
  8
CURVE
100
AcDbLine
 62
250
  6
CONTINUOUS
 10
-1.70007775
 20
-15.2611962895
 11
-2.65230175
 21
-15.8110342895
  0
LINE
  5
2C5
100
AcDbEntity
  8
CURVE
100
AcDbLine
 62
250
  6
CONTINUOUS
 10
1.55329825
 20
-13.3829302895
 11
0.60107425
 21
-13.9327682895
  0
LINE
  5
2C6
100
AcDbEntity
  8
CURVE
100
AcDbLine
 62
250
  6
CONTINUOUS
 10
0.85118825
 20
-14.3654722895
 11
1.80341225
 21
-13.8156342895
  0
LINE
  5
2C7
100
AcDbEntity
  8
CURVE
100
AcDbLine
 62
250
  6
CONTINUOUS
 10
-0.17458875
 20
13.1860987105
 11
-0.67447275
 21
13.1860987105
  0
LINE
  5
2C8
100
AcDbEntity
  8
CURVE
100
AcDbLine
 62
250
  6
CONTINUOUS
 10
0.81294725
 20
16.7776107105
 11
1.16641425
 21
16.4241437105
  0
LWPOLYLINE
  5
2C9
100
AcDbEntity
  8
CURVE
100
AcDbPolyline
 62
250
  6
CONTINUOUS
 90
81
 70
0
 10
-0.4243124231
 20
14.1865545103
 10
-0.3837389264
 20
14.1873710062
 10
-0.3432335219
 20
14.1898110601
 10
-0.3028639821
 20
14.1938736556
 10
-0.2626980798
 20
14.1995577764
 10
-0.2228035876
 20
14.2068624061
 10
-0.1843922963
 20
14.2155022952
 10
-0.1463531497
 20
14.2256578008
 10
-0.1087385627
 20
14.2373179282
 10
-0.0716009501
 20
14.2504716829
 10
-0.0349927269
 20
14.2651080703
 10
0.000129717
 20
14.2807868553
 10
0.034648009
 20
14.2978306467
 10
0.0685107463
 20
14.3162063058
 10
0.1016665262
 20
14.3358806938
 10
0.1340639459
 20
14.3568206721
 10
0.1656516027
 20
14.3789931019
 10
0.1963780936
 20
14.4023648446
 10
0.2261920161
 20
14.4269027615
 10
0.2550419672
 20
14.4525737138
 10
0.2828765442
 20
14.4793445628
 10
0.3096408504
 20
14.5071720667
 10
0.3353057681
 20
14.5360144511
 10
0.3598381545
 20
14.5658203702
 10
0.3832048666
 20
14.5965384779
 10
0.4053727614
 20
14.6281174281
 10
0.426308696
 20
14.6605058748
 10
0.4459795274
 20
14.693652472
 10
0.4643521127
 20
14.7275058738
 10
0.4813933089
 20
14.7620147339
 10
0.497069973
 20
14.7971277065
 10
0.511698541
 20
14.8337101424
 10
0.5248458397
 20
14.8708215757
 10
0.5365004603
 20
14.9084096888
 10
0.5466509937
 20
14.9464221643
 10
0.5552860309
 20
14.9848066846
 10
0.5625901629
 20
15.0247020051
 10
0.5682719306
 20
15.0648690532
 10
0.572331076
 20
15.1052398946
 10
0.5747673415
 20
15.1457465951
 10
0.5755804694
 20
15.1863212201
 10
0.5747694449
 20
15.2269185129
 10
0.5723338497
 20
15.2674478902
 10
0.568274323
 20
15.3078414461
 10
0.5625915037
 20
15.3480312748
 10
0.5552860309
 20
15.3879494706
 10
0.5466510208
 20
15.4263508141
 10
0.5365007697
 20
15.4643802835
 10
0.524846418
 20
15.5019855244
 10
0.5116991057
 20
15.5391141825
 10
0.497069973
 20
15.5757139032
 10
0.4813951819
 20
15.6108369875
 10
0.4643555727
 20
15.6453561384
 10
0.4459842395
 20
15.6792199524
 10
0.4263142765
 20
15.712377026
 10
0.4053787778
 20
15.7447759557
 10
0.3832108376
 20
15.776365338
 10
0.35984355
 20
15.8070937694
 10
0.3353100092
 20
15.8369098464
 10
0.3096433092
 20
15.8657621655
 10
0.2828765442
 20
15.8935993232
 10
0.2550435121
 20
15.9203751203
 10
0.2261947427
 20
15.9460509612
 10
0.1963816462
 20
15.9705936312
 10
0.1656556329
 20
15.9939699154
 10
0.1340681131
 20
16.0161465992
 10
0.1016704968
 20
16.0370904679
 10
0.0685141945
 20
16.0567683067
 10
0.0346506163
 20
16.0751469008
 10
0.0001311724
 20
16.0921930357
 10
-0.0349927269
 20
16.1078734965
 10
-0.071600721
 20
16.1225101254
 10
-0.1087382851
 20
16.1356637591
 10
-0.1463529372
 20
16.1473236619
 10
-0.1843921952
 20
16.1574790984
 10
-0.222803577
 20
16.166119333
 10
-0.2627412627
 20
16.1734319258
 10
-0.3029507961
 20
16.1791208903
 10
-0.343364204
 20
16.183184869
 10
-0.383913513
 20
16.1856225045
 10
-0.42453075
 20
16.1864324394
  0
LINE
  5
2CA
100
AcDbEntity
  8
CURVE
100
AcDbLine
 62
250
  6
CONTINUOUS
 10
-4.42463075
 20
14.9362077105
 11
-2.42440875
 21
14.9362077105
  0
LINE
  5
2CB
100
AcDbEntity
  8
CURVE
100
AcDbLine
 62
250
  6
CONTINUOUS
 10
1.57534725
 20
14.9362077105
 11
3.57556925
 21
14.9362077105
  0
LINE
  5
2CC
100
AcDbEntity
  8
CURVE
100
AcDbLine
 62
250
  6
CONTINUOUS
 10
3.57556925
 20
15.4360907105
 11
1.57534725
 21
15.4360907105
  0
LINE
  5
2CD
100
AcDbEntity
  8
CURVE
100
AcDbLine
 62
250
  6
CONTINUOUS
 10
-2.42440875
 20
15.4360907105
 11
-4.42463075
 21
15.4360907105
  0
LINE
  5
2CE
100
AcDbEntity
  8
CURVE
100
AcDbLine
 62
250
  6
CONTINUOUS
 10
2.58062625
 20
17.8380117105
 11
2.22715925
 21
18.1914777105
  0
LWPOLYLINE
  5
2CF
100
AcDbEntity
  8
CURVE
100
AcDbPolyline
 62
250
  6
CONTINUOUS
 90
81
 70
0
 10
-0.42453075
 20
16.1864324394
 10
-0.4650887801
 20
16.1856160208
 10
-0.505578802
 20
16.183175893
 10
-0.5459328525
 20
16.1791126639
 10
-0.5860829686
 20
16.1734269413
 10
-0.6259611873
 20
16.166119333
 10
-0.6643447281
 20
16.1574778367
 10
-0.7023558728
 20
16.1473207298
 10
-0.7399424037
 20
16.1356597874
 10
-0.7770521031
 20
16.1225067846
 10
-0.8136327532
 20
16.1078734965
 10
-0.8487579842
 20
16.0921869263
 10
-0.8832788869
 20
16.0751360559
 10
-0.9171442962
 20
16.056754094
 10
-0.9503030469
 20
16.0370742491
 10
-0.9827039738
 20
16.01612973
 10
-1.0142959118
 20
15.9939537453
 10
-1.0450276956
 20
15.9705795036
 10
-1.0748481602
 20
15.9460402136
 10
-1.1037061404
 20
15.9203690839
 10
-1.131550471
 20
15.8935993232
 10
-1.1583373075
 20
15.8657624342
 10
-1.1840256421
 20
15.8369109418
 10
-1.2085821406
 20
15.8070960178
 10
-1.2319734685
 20
15.7763688341
 10
-1.2541662916
 20
15.7447805625
 10
-1.2751272755
 20
15.712382375
 10
-1.294823086
 20
15.6792254434
 10
-1.3132203886
 20
15.6453609397
 10
-1.3302858491
 20
15.6108400357
 10
-1.3459861331
 20
15.5757139032
 10
-1.3606379917
 20
15.5391168206
 10
-1.3738074724
 20
15.5019894535
 10
-1.3854829245
 20
15.4643841844
 10
-1.3956526972
 20
15.426353396
 10
-1.4043051401
 20
15.3879494706
 10
-1.4116250232
 20
15.3480327395
 10
-1.4173196067
 20
15.307843399
 10
-1.4213879316
 20
15.267449599
 10
-1.4238290388
 20
15.2269194894
 10
-1.4246419694
 20
15.1863212201
 10
-1.4238269303
 20
15.1457456182
 10
-1.421385151
 20
15.1052381852
 10
-1.4173172083
 20
15.0648670995
 10
-1.411623679
 20
15.0247005398
 10
-1.4043051401
 20
14.9848066846
 10
-1.3956526702
 20
14.9464195821
 10
-1.3854826145
 20
14.9084057876
 10
-1.3738068931
 20
14.8708176467
 10
-1.360637426
 20
14.8337075046
 10
-1.3459861331
 20
14.7971277065
 10
-1.3302839733
 20
14.7620116865
 10
-1.3132169244
 20
14.7275010738
 10
-1.2948183693
 20
14.6936469827
 10
-1.2751216907
 20
14.6605005277
 10
-1.2541602717
 20
14.6281128232
 10
-1.2319674951
 20
14.5965349836
 10
-1.2085767439
 20
14.5658181234
 10
-1.1840214008
 20
14.5360133569
 10
-1.1583348489
 20
14.5071717986
 10
-1.131550471
 20
14.4793445628
 10
-1.103704596
 20
14.4525797519
 10
-1.0748454344
 20
14.4269135119
 10
-1.0450241439
 20
14.4023789756
 10
-1.0142918824
 20
14.3790092757
 10
-0.9826998074
 20
14.3568375447
 10
-0.9502990769
 20
14.3358969155
 10
-0.9171408485
 20
14.3162205208
 10
-0.8832762799
 20
14.2978414932
 10
-0.8487565289
 20
14.2807929655
 10
-0.8136327532
 20
14.2651080703
 10
-0.7770518743
 20
14.2504750228
 10
-0.7399421267
 20
14.2373218987
 10
-0.7023556609
 20
14.2256607319
 10
-0.6643446273
 20
14.2155035564
 10
-0.6259611767
 20
14.2068624061
 10
-0.5860399905
 20
14.1995487835
 10
-0.5458463208
 20
14.1938609108
 10
-0.5054483688
 20
14.1897990598
 10
-0.4649143359
 20
14.1873635024
 10
-0.4243124231
 20
14.1865545103
  0
LINE
  5
2D0
100
AcDbEntity
  8
CURVE
100
AcDbLine
 62
250
  6
CONTINUOUS
 10
-0.67447275
 20
17.1865437105
 11
-0.17458875
 21
17.1865437105
  0
LWPOLYLINE
  5
2D1
100
AcDbEntity
  8
0
100
AcDbPolyline
 62
7
  6
CONTINUOUS
 90
10
 70
0
 43
0.3500000019
 10
0.5397568359
 20
35.8512907715
 10
0.6111816406
 20
35.708435791
 10
0.6111816406
 20
35.6370056152
 10
0.4683266602
 20
35.4941479492
 10
0.3968964844
 20
35.4941479492
 10
0.3254716797
 20
35.565578125
 10
0.3254716797
 20
35.6370056152
 10
0.3968964844
 20
35.7798632813
 10
0.4683266602
 20
35.8512907715
 10
0.5397568359
 20
35.8512907715
  0
LWPOLYLINE
  5
2D2
100
AcDbEntity
  8
0
100
AcDbPolyline
 62
7
  6
CONTINUOUS
 90
8
 70
0
 43
0.3500000019
 10
17.9300102539
 20
-4.0997377319
 10
17.9300102539
 20
-3.2425947571
 10
17.5014399414
 20
-2.8140232697
 10
16.6442993164
 20
-2.8140232697
 10
16.2157290039
 20
-3.2425947571
 10
16.2157290039
 20
-4.0997377319
 10
14.9300126953
 20
-4.0997377319
 10
14.9300126953
 20
-2.8140232697
  0
LWPOLYLINE
  5
2D3
100
AcDbEntity
  8
0
100
AcDbPolyline
 62
7
  6
CONTINUOUS
 90
7
 70
0
 43
0.3500000019
 10
17.9300102539
 20
-0.4568804245
 10
17.9300102539
 20
-1.9568804626
 10
15.7871533203
 20
-0.4568804245
 10
15.3585830078
 20
-0.4568804245
 10
14.9300126953
 20
-0.885451828
 10
14.9300126953
 20
-1.5283089752
 10
15.5728681641
 20
-1.9568804626
  0
LINE
  5
2D4
100
AcDbEntity
  8
CURVE
100
AcDbLine
 62
250
  6
CONTINUOUS
 10
-0.17458875
 20
19.1860767105
 11
-0.67447275
 21
19.1860767105
  0
LWPOLYLINE
  5
2D5
100
AcDbEntity
  8
ASSI
100
AcDbPolyline
 62
250
  6
CONTINUOUS
 90
16
 70
0
 10
-10.9379458126
 20
26.4992204356
 10
-10.9890880751
 20
26.4965620808
 10
-11.0399477276
 20
26.4886319087
 10
-11.0899732012
 20
26.4754350297
 10
-11.1386386546
 20
26.4570217626
 10
-11.1853558643
 20
26.4335228117
 10
-11.229496339
 20
26.4051809367
 10
-11.2705814217
 20
26.372235275
 10
-11.3080838779
 20
26.3350348063
 10
-11.341409389
 20
26.2941507466
 10
-11.3701507067
 20
26.2501488119
 10
-11.3940846588
 20
26.2034468769
 10
-11.4129981118
 20
26.1544821802
 10
-11.4266845443
 20
26.1037624418
 10
-11.4349754657
 20
26.0518747829
 10
-11.4377744751
 20
25.9993917731
  0
LINE
  5
2D6
100
AcDbEntity
  8
ASSI
100
AcDbLine
 62
250
  6
CONTINUOUS
 10
-11.4377744751
 20
25.9993917731
 11
10.5887129751
 21
25.9993917731
  0
LINE
  5
2D7
100
AcDbEntity
  8
ASSI
100
AcDbLine
 62
250
  6
CONTINUOUS
 10
10.0888843126
 20
26.4992204356
 11
-10.9379458126
 21
26.4992204356
  0
LINE
  5
2D8
100
AcDbEntity
  8
ASSI
100
AcDbLine
 62
7
  6
CONTINUOUS
 10
10.1477701542
 20
26.5581062772
 11
-10.9968316542
 21
26.5581062772
  0
LWPOLYLINE
  5
2D9
100
AcDbEntity
  8
0
100
AcDbPolyline
 62
7
  6
CONTINUOUS
 90
7
 70
0
 43
0.3500000019
 10
3.111184082
 20
35.3512929688
 10
1.6111826172
 20
35.3512929688
 10
3.111184082
 20
37.4941499023
 10
3.111184082
 20
37.9227202148
 10
2.6826137695
 20
38.3512905273
 10
2.0397529297
 20
38.3512905273
 10
1.6111826172
 20
37.7084350586
  0
LWPOLYLINE
  5
2DA
100
AcDbEntity
  8
0
100
AcDbPolyline
 62
7
  6
CONTINUOUS
 90
7
 70
0
 43
0.3500000019
 10
-0.9602446289
 20
35.3512929688
 10
-2.4602460937
 20
35.3512929688
 10
-0.9602446289
 20
37.4941499023
 10
-0.9602446289
 20
37.9227202148
 10
-1.3888149414
 20
38.3512905273
 10
-2.0316757812
 20
38.3512905273
 10
-2.4602460937
 20
37.7084350586
  0
LWPOLYLINE
  5
2DB
100
AcDbEntity
  8
0
100
AcDbPolyline
 62
7
  6
CONTINUOUS
 90
7
 70
0
 43
0.3500000019
 10
-3.3173867187
 20
35.3512929688
 10
-4.8173881836
 20
35.3512929688
 10
-3.3173867187
 20
37.4941499023
 10
-3.3173867187
 20
37.9227202148
 10
-3.7459570312
 20
38.3512905273
 10
-4.3888178711
 20
38.3512905273
 10
-4.8173881836
 20
37.7084350586
  0
LWPOLYLINE
  5
2DC
100
AcDbEntity
  8
ASSI
100
AcDbPolyline
 62
250
  6
CONTINUOUS
 90
16
 70
0
 10
10.0888843126
 20
26.4992204356
 10
10.140404669
 20
26.4965227859
 10
10.1915738085
 20
26.4884875998
 10
10.2418326807
 20
26.4751393605
 10
10.2906832811
 20
26.4565344658
 10
10.3375028923
 20
26.4328312854
 10
10.3815825954
 20
26.4043534548
 10
10.422381661
 20
26.3714645561
 10
10.4595165111
 20
26.3344891566
 10
10.4925911029
 20
26.2938176948
 10
10.52124376
 20
26.2498824434
 10
10.5451456086
 20
26.2031732712
 10
10.56402235
 20
26.1542198049
 10
10.5776647976
 20
26.1035673299
 10
10.5859253163
 20
26.0517678654
 10
10.5887129751
 20
25.9993917731
  0
LWPOLYLINE
  5
2DD
100
AcDbEntity
  8
0
100
AcDbPolyline
 62
7
  6
CONTINUOUS
 90
5
 70
0
 43
0.3500000019
 10
-24.5449375
 20
37.0571550293
 10
-24.1877919922
 20
37.2714401855
 10
-24.1877919922
 20
37.9142983398
 10
-24.5449375
 20
38.3428686523
 10
-25.402078125
 20
38.3428686523
  0
LINE
  5
2DE
100
AcDbEntity
  8
ASSI
100
AcDbLine
 62
7
  6
CONTINUOUS
 10
-32.0106895544
 20
-26.1861528561
 11
-34.2594491189
 21
-26.1272670145
  0
LINE
  5
2DF
100
AcDbEntity
  8
ASSI
100
AcDbLine
 62
250
  6
CONTINUOUS
 10
-34.7463606447
 20
-25.627438352
 11
-34.2594491189
 21
-25.627438352
  0
LINE
  5
2E0
100
AcDbEntity
  8
ASSI
100
AcDbLine
 62
250
  6
CONTINUOUS
 10
-31.8776940305
 20
-25.689806804
 11
-34.2594491189
 21
-25.627438352
  0
LWPOLYLINE
  5
2E1
100
AcDbEntity
  8
ASSI
100
AcDbPolyline
 62
250
  6
CONTINUOUS
 90
10
 70
0
 10
-34.2594491189
 20
26.4992204356
 10
-34.2607275865
 20
26.4965227859
 10
-34.2618570888
 20
26.4884875998
 10
-34.2628236277
 20
26.4751393605
 10
-34.2636156394
 20
26.4565344658
 10
-34.2642209644
 20
26.4328312854
 10
-34.2646295139
 20
26.4043534548
 10
-34.2648366489
 20
26.3714645561
 10
-34.2648408242
 20
26.3344891566
 10
-34.2642417044
 20
26.2498824434
  0
LWPOLYLINE
  5
2E2
100
AcDbEntity
  8
ASSI
100
AcDbPolyline
 62
250
  6
CONTINUOUS
 90
9
 70
0
 10
-34.2594491189
 20
-26.1272670145
 10
-34.2607187147
 20
-26.1246086597
 10
-34.2618428627
 20
-26.1166784876
 10
-34.2628072534
 20
-26.1034816087
 10
-34.2635994348
 20
-26.0850683415
 10
-34.2642074263
 20
-26.0615693907
 10
-34.2646211272
 20
-26.0332275157
 10
-34.2648342654
 20
-26.0002818539
 10
-34.2648421732
 20
-25.9630813852
  0
LINE
  5
2E3
100
AcDbEntity
  8
ASSI
100
AcDbLine
 62
250
  6
CONTINUOUS
 10
-34.2628568868
 20
26.1542198049
 11
-34.2607476377
 21
26.0517678654
  0
LINE
  5
2E4
100
AcDbEntity
  8
ASSI
100
AcDbLine
 62
250
  6
CONTINUOUS
 10
-34.2594491189
 20
-0.5525005963
 11
-34.2609816559
 21
-0.4480957704
  0
LINE
  5
2E5
100
AcDbEntity
  8
ASSI
100
AcDbLine
 62
250
  6
CONTINUOUS
 10
-34.2642417044
 20
26.2498824434
 11
-34.2628568868
 21
26.1542198049
  0
LINE
  5
2E6
100
AcDbEntity
  8
ASSI
100
AcDbLine
 62
250
  6
CONTINUOUS
 10
-34.2609816559
 20
-0.4480957704
 11
-34.2618689284
 21
-0.3483762445
  0
LWPOLYLINE
  5
2E7
100
AcDbEntity
  8
ASSI
100
AcDbPolyline
 62
250
  6
CONTINUOUS
 90
11
 70
0
 10
-34.2618689284
 20
-0.3483762445
 10
-34.2620734122
 20
-0.2576396066
 10
-34.261914503
 20
-0.216739409
 10
-34.2615817663
 20
-0.1795252103
 10
-34.2610808325
 20
-0.1465718802
 10
-34.260419466
 20
-0.1182285033
 10
-34.2596060505
 20
-0.0947328016
 10
-34.2586528652
 20
-0.0763271327
 10
-34.2575730811
 20
-0.0631409445
 10
-34.256379615
 20
-0.0552229388
 10
-34.255086848
 20
-0.0525767488
  0
LINE
  5
2E8
100
AcDbEntity
  8
ASSI
100
AcDbLine
 62
7
  6
CONTINUOUS
 10
-34.7463606447
 20
-25.627438352
 11
-34.7463606447
 21
-0.5525005963
  0
LINE
  5
2E9
100
AcDbEntity
  8
ASSI
100
AcDbLine
 62
7
  6
CONTINUOUS
 10
-34.7463606447
 20
0.9244540174
 11
-34.7463606447
 21
25.9993917731
  0
LINE
  5
2EA
100
AcDbEntity
  8
ASSI
100
AcDbLine
 62
250
  6
CONTINUOUS
 10
-34.2594491189
 20
-25.627438352
 11
-34.2594491189
 21
-0.5525005963
  0
LINE
  5
2EB
100
AcDbEntity
  8
ASSI
100
AcDbLine
 62
250
  6
CONTINUOUS
 10
-34.2594491189
 20
0.9244540174
 11
-34.2594491189
 21
25.9993917731
  0
LINE
  5
2EC
100
AcDbEntity
  8
ASSI
100
AcDbLine
 62
250
  6
CONTINUOUS
 10
-34.261922731
 20
0.5900188489
 11
-34.2620555545
 21
0.6745580011
  0
LINE
  5
2ED
100
AcDbEntity
  8
ASSI
100
AcDbLine
 62
250
  6
CONTINUOUS
 10
-34.2620555545
 20
0.6745580011
 11
-34.2615028327
 21
0.7700124796
  0
LINE
  5
2EE
100
AcDbEntity
  8
ASSI
100
AcDbLine
 62
250
  6
CONTINUOUS
 10
-34.2648421732
 20
-25.9630813852
 11
-34.2642446323
 21
-25.8781953908
  0
LWPOLYLINE
  5
2EF
100
AcDbEntity
  8
ASSI
100
AcDbPolyline
 62
250
  6
CONTINUOUS
 90
3
 70
0
 10
-34.2615028327
 20
0.7700124796
 10
-34.2602887081
 20
0.8722128831
 10
-34.2594491189
 20
0.9244540174
  0
LINE
  5
2F0
100
AcDbEntity
  8
ASSI
100
AcDbLine
 62
250
  6
CONTINUOUS
 10
-34.2642446323
 20
-25.8781953908
 11
-34.2628615122
 21
-25.7825287591
  0
LWPOLYLINE
  5
2F1
100
AcDbEntity
  8
ASSI
100
AcDbPolyline
 62
250
  6
CONTINUOUS
 90
3
 70
0
 10
-34.2628615122
 20
-25.7825287591
 10
-34.2607501402
 20
-25.6799213618
 10
-34.2594491189
 20
-25.627438352
  0
LWPOLYLINE
  5
2F2
100
AcDbEntity
  8
0
100
AcDbPolyline
 62
7
  6
CONTINUOUS
 90
3
 70
0
 43
0.3500000019
 10
-22.5449355469
 20
35.6285837402
 10
-22.6163657227
 20
35.4142958984
 10
-22.7592207031
 20
35.128583252
  0
LWPOLYLINE
  5
2F3
100
AcDbEntity
  8
ASSI
100
AcDbPolyline
 62
250
  6
CONTINUOUS
 90
9
 70
0
 10
-34.255086848
 20
0.4245301698
 10
-34.2564063779
 20
0.42729108
 10
-34.2576159086
 20
0.4354958464
 10
-34.2587021959
 20
0.4490546279
 10
-34.2596533452
 20
0.4678189581
 10
-34.2604589415
 20
0.4915833705
 10
-34.2611101637
 20
0.5200876486
 10
-34.261599881
 20
0.5530196749
 10
-34.261922731
 20
0.5900188489
  0
LINE
  5
2F4
100
AcDbEntity
  8
ASSI
100
AcDbLine
 62
250
  6
CONTINUOUS
 10
-34.2607476377
 20
26.0517678654
 11
-34.2594491189
 21
25.9993917731
  0
LINE
  5
2F5
100
AcDbEntity
  8
ASSI
100
AcDbLine
 62
250
  6
CONTINUOUS
 10
-30.9463606447
 20
-0.4946704219
 11
-34.2594491189
 21
-0.5525005963
  0
LINE
  5
2F6
100
AcDbEntity
  8
ASSI
100
AcDbLine
 62
7
  6
CONTINUOUS
 10
-30.9463606447
 20
0.0051772819
 11
-34.255086848
 21
-0.0525767488
  0
LINE
  5
2F7
100
AcDbEntity
  8
ASSI
100
AcDbLine
 62
250
  6
CONTINUOUS
 10
-34.7463606447
 20
-0.5525005963
 11
-34.2594491189
 21
-0.5525005963
  0
LINE
  5
2F8
100
AcDbEntity
  8
ASSI
100
AcDbLine
 62
7
  6
CONTINUOUS
 10
-34.255086848
 20
0.4245301698
 11
-30.9463606447
 21
0.3667761391
  0
LINE
  5
2F9
100
AcDbEntity
  8
ASSI
100
AcDbLine
 62
7
  6
CONTINUOUS
 10
-30.9463606447
 20
0.0051772819
 11
-30.9463606447
 21
-22.1481970407
  0
LINE
  5
2FA
100
AcDbEntity
  8
ASSI
100
AcDbLine
 62
7
  6
CONTINUOUS
 10
-30.9463606447
 20
0.3667761391
 11
-30.9463606447
 21
22.5201504617
  0
LINE
  5
2FB
100
AcDbEntity
  8
ASSI
100
AcDbLine
 62
250
  6
CONTINUOUS
 10
-34.2594491189
 20
0.9244540174
 11
-34.7463606447
 21
0.9244540174
  0
LINE
  5
2FC
100
AcDbEntity
  8
ASSI
100
AcDbLine
 62
250
  6
CONTINUOUS
 10
-34.2594491189
 20
0.9244540174
 11
-30.9463606447
 21
0.866623843
  0
LINE
  5
2FD
100
AcDbEntity
  8
ASSI
100
AcDbLine
 62
7
  6
CONTINUOUS
 10
-30.9633977316
 20
-22.2776065632
 11
-32.0106895544
 21
-26.1861528561
  0
LINE
  5
2FE
100
AcDbEntity
  8
ASSI
100
AcDbLine
 62
7
  6
CONTINUOUS
 10
-30.9633977316
 20
22.6495599843
 11
-32.0106895544
 21
26.5581062772
  0
LWPOLYLINE
  5
2FF
100
AcDbEntity
  8
0
100
AcDbPolyline
 62
7
  6
CONTINUOUS
 90
4
 70
0
 43
0.3500000019
 10
-21.5449345703
 20
35.7714387207
 10
-21.5449345703
 20
36.6285820313
 10
-21.1163642578
 20
37.0571550293
 10
-20.4735087891
 20
37.0571550293
  0
LINE
  5
300
100
AcDbEntity
  8
ASSI
100
AcDbLine
 62
250
  6
CONTINUOUS
 10
-34.2594491189
 20
25.9993917731
 11
-31.8776940305
 21
26.061760225
  0
LINE
  5
301
100
AcDbEntity
  8
ASSI
100
AcDbLine
 62
7
  6
CONTINUOUS
 10
-34.2594491189
 20
26.4992204356
 11
-32.0106895544
 21
26.5581062772
  0
LINE
  5
302
100
AcDbEntity
  8
ASSI
100
AcDbLine
 62
250
  6
CONTINUOUS
 10
-34.7463606447
 20
25.9993917731
 11
-34.2594491189
 21
25.9993917731
  0
LWPOLYLINE
  5
303
100
AcDbEntity
  8
0
100
AcDbPolyline
 62
7
  6
CONTINUOUS
 90
6
 70
0
 43
0.3500000019
 10
-25.402078125
 20
35.3428684082
 10
-24.3306523437
 20
35.3428684082
 10
-24.1163671875
 20
35.5571535645
 10
-24.1163671875
 20
36.6285820313
 10
-24.5449375
 20
37.0571550293
 10
-24.9735078125
 20
37.0571550293
  0
LWPOLYLINE
  5
304
100
AcDbEntity
  8
0
100
AcDbPolyline
 62
7
  6
CONTINUOUS
 90
13
 70
0
 43
0.3500000019
 10
-21.1163642578
 20
37.0571550293
 10
-21.4020795898
 20
37.2714401855
 10
-21.4020795898
 20
37.9142983398
 10
-21.1163642578
 20
38.3428686523
 10
-20.4735087891
 20
38.3428686523
 10
-20.187793457
 20
37.9142983398
 10
-20.187793457
 20
37.2714401855
 10
-20.4735087891
 20
37.0571550293
 10
-20.0449384766
 20
36.6285820313
 10
-20.0449384766
 20
35.7714387207
 10
-20.4735087891
 20
35.3428684082
 10
-21.1163642578
 20
35.3428684082
 10
-21.5449345703
 20
35.7714387207
  0
LWPOLYLINE
  5
305
100
AcDbEntity
  8
0
100
AcDbPolyline
 62
7
  6
CONTINUOUS
 90
10
 70
0
 43
0.3500000019
 10
-22.6163657227
 20
35.8428688965
 10
-22.5449355469
 20
35.7000112305
 10
-22.5449355469
 20
35.6285837402
 10
-22.6877958984
 20
35.4857260742
 10
-22.7592207031
 20
35.4857260742
 10
-22.8306508789
 20
35.5571535645
 10
-22.8306508789
 20
35.6285837402
 10
-22.7592207031
 20
35.7714387207
 10
-22.6877958984
 20
35.8428688965
 10
-22.6163657227
 20
35.8428688965
  0
CIRCLE
  5
306
100
AcDbEntity
  8
CURVE
100
AcDbCircle
 62
250
  6
CONTINUOUS
 10
-0.42453075
 20
-14.8136782895
 40
0.650089
  0
ARC
  5
307
100
AcDbEntity
  8
ASSI
100
AcDbCircle
 62
7
  6
CONTINUOUS
 10
-31.4463606447
 20
22.5201504617
 40
0.5
100
AcDbArc
 50
0.0
 51
15.0
  0
ARC
  5
308
100
AcDbEntity
  8
ASSI
100
AcDbCircle
 62
7
  6
CONTINUOUS
 10
-34.2463606447
 20
25.9993917731
 40
0.5
100
AcDbArc
 50
91.5
 51
180.0
  0
ARC
  5
309
100
AcDbEntity
  8
ASSI
100
AcDbCircle
 62
7
  6
CONTINUOUS
 10
-34.2463606447
 20
0.9244540174
 40
0.5
100
AcDbArc
 50
180.0
 51
269.0
  0
ARC
  5
30A
100
AcDbEntity
  8
ASSI
100
AcDbCircle
 62
7
  6
CONTINUOUS
 10
-31.4463606447
 20
-22.1481970407
 40
0.5
100
AcDbArc
 50
345.0
 51
360.0
  0
ARC
  5
30B
100
AcDbEntity
  8
ASSI
100
AcDbCircle
 62
7
  6
CONTINUOUS
 10
-34.2463606447
 20
-25.627438352
 40
0.5
100
AcDbArc
 50
180.0
 51
268.5
  0
ARC
  5
30C
100
AcDbEntity
  8
ASSI
100
AcDbCircle
 62
7
  6
CONTINUOUS
 10
-34.2463606447
 20
-0.5525005963
 40
0.5
100
AcDbArc
 50
91.0
 51
180.0
  0
ELLIPSE
  5
30D
100
AcDbEntity
  8
ASSI
100
AcDbEllipse
 62
7
  6
CONTINUOUS
 10
-10.9999739188
 20
26.0614198793
 30
0.0
 11
0.4677351297
 21
0.1788908786
 31
0.0
 40
0.9906298547
 41
1.202347637
 42
2.7724587311
  0
ELLIPSE
  5
30E
100
AcDbEntity
  8
ASSI
100
AcDbEllipse
 62
7
  6
CONTINUOUS
 10
10.1509124188
 20
26.0614198793
 30
0.0
 11
0.4677351297
 21
-0.1788908786
 31
0.0
 40
0.9906298547
 41
0.3691339225
 42
1.9392450166
  0
ELLIPSE
  5
30F
100
AcDbEntity
  8
ASSI
100
AcDbEllipse
 62
7
  6
CONTINUOUS
 10
10.6623762892
 20
22.5201504617
 30
0.0
 11
-0.0
 21
0.5
 31
0.0
 40
0.0261859216
 41
-1.5707963268
 42
-1.308996939
  0
ELLIPSE
  5
310
100
AcDbEntity
  8
ASSI
100
AcDbEllipse
 62
7
  6
CONTINUOUS
 10
-11.5114377892
 20
22.5201504617
 30
0.0
 11
0.0
 21
0.5
 31
0.0
 40
0.0261859216
 41
1.308996939
 42
1.5707963268
  0
ELLIPSE
  5
311
100
AcDbEntity
  8
ASSI
100
AcDbEllipse
 62
7
  6
CONTINUOUS
 10
10.1668178816
 20
0.3755036716
 30
0.0
 11
0.5
 21
0.0
 31
0.0
 40
0.0174550649
 41
-3.1241393611
 42
-1.5707963268
  0
ELLIPSE
  5
312
100
AcDbEntity
  8
ASSI
100
AcDbEllipse
 62
7
  6
CONTINUOUS
 10
-11.0158793816
 20
0.3755036716
 30
0.0
 11
0.5
 21
0.0
 31
0.0
 40
0.0174550649
 41
-1.5707963268
 42
-0.0174532925
  0
ELLIPSE
  5
313
100
AcDbEntity
  8
ASSI
100
AcDbEllipse
 62
7
  6
CONTINUOUS
 10
10.1752978538
 20
0.8668523031
 30
0.0
 11
0.416247366
 21
-0.2774630169
 31
0.0
 40
0.9995051766
 41
-0.9826238685
 42
0.5877156075
  0
ELLIPSE
  5
314
100
AcDbEntity
  8
ASSI
100
AcDbEllipse
 62
7
  6
CONTINUOUS
 10
-11.0243593538
 20
0.8668523031
 30
0.0
 11
0.416247366
 21
0.2774630169
 31
0.0
 40
0.9995051766
 41
2.5538770461
 42
4.1242165221
  0
ELLIPSE
  5
315
100
AcDbEntity
  8
ASSI
100
AcDbEllipse
 62
7
  6
CONTINUOUS
 10
10.1509124188
 20
-25.6894664583
 30
0.0
 11
0.4677351297
 21
0.1788908786
 31
0.0
 40
0.9906298547
 41
-1.9392450166
 42
-0.3691339225
  0
ELLIPSE
  5
316
100
AcDbEntity
  8
ASSI
100
AcDbEllipse
 62
7
  6
CONTINUOUS
 10
-10.9999739188
 20
-25.6894664583
 30
0.0
 11
0.4677351297
 21
-0.1788908786
 31
0.0
 40
0.9906298547
 41
-2.7724587311
 42
-1.202347637
  0
ELLIPSE
  5
317
100
AcDbEntity
  8
ASSI
100
AcDbEllipse
 62
7
  6
CONTINUOUS
 10
-11.5114377892
 20
-22.1481970407
 30
0.0
 11
0.0
 21
0.5
 31
0.0
 40
0.0261859216
 41
-4.7123889804
 42
-4.4505895926
  0
ELLIPSE
  5
318
100
AcDbEntity
  8
ASSI
100
AcDbEllipse
 62
7
  6
CONTINUOUS
 10
10.6623762892
 20
-22.1481970407
 30
0.0
 11
0.0
 21
0.5
 31
0.0
 40
0.0261859216
 41
-1.8325957146
 42
-1.5707963268
  0
ELLIPSE
  5
319
100
AcDbEntity
  8
ASSI
100
AcDbEllipse
 62
7
  6
CONTINUOUS
 10
-11.0158793816
 20
-0.0035502505
 30
0.0
 11
0.5
 21
0.0
 31
0.0
 40
0.0174550649
 41
0.0174532925
 42
1.5707963268
  0
ELLIPSE
  5
31A
100
AcDbEntity
  8
ASSI
100
AcDbEllipse
 62
7
  6
CONTINUOUS
 10
10.1668178816
 20
-0.0035502505
 30
0.0
 11
0.5
 21
0.0
 31
0.0
 40
0.0174550649
 41
1.5707963268
 42
3.1241393611
  0
ELLIPSE
  5
31B
100
AcDbEntity
  8
ASSI
100
AcDbEllipse
 62
7
  6
CONTINUOUS
 10
-11.0243593538
 20
-0.4948988821
 30
0.0
 11
0.416247366
 21
-0.2774630169
 31
0.0
 40
0.9995051766
 41
2.1589687851
 42
3.7293082611
  0
ELLIPSE
  5
31C
100
AcDbEntity
  8
ASSI
100
AcDbEllipse
 62
7
  6
CONTINUOUS
 10
10.1752978538
 20
-0.4948988821
 30
0.0
 11
0.416247366
 21
0.2774630169
 31
0.0
 40
0.9995051766
 41
-0.5877156075
 42
0.9826238685
  0
ENDSEC
  0
SECTION
  2
OBJECTS
  0
DICTIONARY
  5
C
100
AcDbDictionary
280
0
281
1
  3
ACAD_GROUP
350
D
  3
ACAD_MLINESTYLE
350
17
  3
ACAD_LAYOUT
350
1A
  3
ACAD_PLOTSETTINGS
350
19
  3
ACAD_PLOTSTYLENAME
350
E
  0
DICTIONARY
  5
D
102
{ACAD_REACTORS
330
C
102
}
100
AcDbDictionary
280
0
281
1
  0
ACDBDICTIONARYWDFLT
  5
E
102
{ACAD_REACTORS
330
C
102
}
100
AcDbDictionary
281
1
  3
Normal
350
F
100
AcDbDictionaryWithDefault
340
F
  0
DICTIONARY
  5
17
102
{ACAD_REACTORS
330
C
102
}
100
AcDbDictionary
280
0
281
1
  3
Standard
350
18
  0
DICTIONARY
  5
19
102
{ACAD_REACTORS
330
C
102
}
100
AcDbDictionary
281
1
  0
DICTIONARY
  5
1A
102
{ACAD_REACTORS
330
C
102
}
100
AcDbDictionary
281
1
  3
Model
350
31D
  3
Layout1
350
31E
  0
ACDBPLACEHOLDER
  5
F
102
{ACAD_REACTORS
330
E
102
}
  0
MLINESTYLE
  5
18
102
{ACAD_REACTORS
330
17
102
}
100
AcDbMlineStyle
  2
STANDARD
 70
0
  3

 62
256
 51
90.0
 52
90.0
 71
2
 49
0.5
 62
256
  6
BYLAYER
 49
-0.5
 62
256
  6
BYLAYER
  0
LAYOUT
  5
31D
102
{ACAD_REACTORS
330
1A
102
}
100
AcDbPlotSettings
  1

  2
none_device
  4

  6

 40
0.0
 41
0.0
 42
0.0
 43
0.0
 44
210.0
 45
297.0
 46
0.0
 47
0.0
 48
0.0
 49
0.0
140
0.0
141
0.0
142
1.0
143
1.0
 70
1024
 72
1
 73
0
 74
0
  7

 75
0
147
1.0
148
0.0
149
0.0
100
AcDbLayout
  1
Model
 70
0
 71
0
 10
0.0
 20
0.0
 11
210.0
 21
297.0
 12
0.0
 22
0.0
 32
0.0
 14
0.0
 24
0.0
 34
0.0
 15
0.0
 25
0.0
 35
0.0
146
0.0
 13
0.0
 23
0.0
 33
0.0
 16
1.0
 26
0.0
 36
0.0
 17
0.0
 27
1.0
 37
0.0
 76
0
330
212
345
0
346
0
  0
LAYOUT
  5
31E
102
{ACAD_REACTORS
330
1A
102
}
100
AcDbPlotSettings
  1

  2
none_device
  4

  6

 40
0.0
 41
0.0
 42
0.0
 43
0.0
 44
210.0
 45
297.0
 46
0.0
 47
0.0
 48
0.0
 49
0.0
140
0.0
141
0.0
142
1.0
143
1.0
 70
0
 72
1
 73
0
 74
0
  7

 75
0
147
1.0
148
0.0
149
0.0
100
AcDbLayout
  1
Layout1
 70
0
 71
1
 10
0.0
 20
0.0
 11
210.0
 21
297.0
 12
0.0
 22
0.0
 32
0.0
 14
0.0
 24
0.0
 34
0.0
 15
0.0
 25
0.0
 35
0.0
146
0.0
 13
0.0
 23
0.0
 33
0.0
 16
1.0
 26
0.0
 36
0.0
 17
0.0
 27
1.0
 37
0.0
 76
0
330
213
345
0
346
0
  0
ENDSEC
  0
EOF
