  0
SECTION
  2
HEADER
  9
$ACADVER
  1
AC1024
  9
$DWGCODEPAGE
  3
ANSI_1252
  9
$EXTMAX
 10
210.0
 20
297.0
 30
0.0
  9
$EXTMIN
 10
0.0
 20
0.0
 30
0.0
  9
$LIMMIN
 10
0.0
 20
0.0
  9
$LIMMAX
 10
210.0
 20
297.0
  9
$VIEWCTR
 10
105.0
 20
148.5
  9
$VIEWSIZE
 40
297.0
  9
$CLAYER
  8
0
  9
$LTSCALE
 40
19.36
  9
$CELTYPE
  6
BYLAYER
  9
$DIMSCALE
 40
1.0
  9
$DIMASZ
 40
3.0
  9
$DIMEXO
 40
0.5
  9
$DIMDLI
 40
13.376
  9
$DIMEXE
 40
1.5
  9
$DIMCEN
 40
3.168
  9
$DIMLFAC
 40
1.0
  9
$DIMBLK
  1
_FILLED
  9
$DIMALT
 70
0
  9
$DIMALTF
 40
0.0393700787
  9
$DIMTXT
 40
3.0
  9
$DIMTOL
 70
1
  9
$DIMLIM
 70
0
  9
$DIMTFAC
 40
1.0
  9
$DIMTP
 40
0.01
  9
$DIMTM
 40
0.01
  9
$DIMGAP
 40
0.625
  9
$DIMDSEP
 70
44
  9
$AUNITS
 70
0
  9
$PDMODE
 70
3
  9
$PDSIZE
 40
3.0
  9
$HANDSEED
  5
32C
  9
$TILEMODE
 70
1
  9
$MEASUREMENT
 70
1
  9
$INSUNITS
 70
4
  0
ENDSEC
  0
SECTION
  2
CLASSES
  0
CLASS
  1
ACDBDICTIONARYWDFLT
  2
AcDbDictionaryWithDefault
  3
AutoCAD 2000
 90
0
 91
1
280
0
281
0
  0
CLASS
  1
ACDBPLACEHOLDER
  2
AcDbPlaceHolder
  3
AutoCAD 2000
 90
0
 91
1
280
0
281
0
  0
CLASS
  1
LAYOUT
  2
AcDbLayout
  3
AutoCAD 2000
 90
0
 91
0
280
0
281
0
  0
ENDSEC
  0
SECTION
  2
TABLES
  0
TABLE
  2
VPORT
  5
8
100
AcDbSymbolTable
 70
2
  0
VPORT
  5
1F4
100
AcDbSymbolTableRecord
100
AcDbViewportTableRecord
  2
*ACTIVE
 70
0
 10
0.0
 20
0.0
 11
1.0
 21
1.0
 12
105.0
 22
148.5
 13
0.0
 23
0.0
 14
1.0
 24
1.0
 15
0.0
 25
0.0
 16
0.0
 26
0.0
 36
1.0
 17
0.0
 27
0.0
 37
0.0
 40
297.0
 41
0.7070707071
 42
50.0
 43
0.0
 44
0.0
 50
0.0
 51
0.0
 71
0
 72
100
 73
1
 74
1
 75
0
 76
0
 77
0
 78
0
  0
ENDTAB
  0
TABLE
  2
LTYPE
  5
5
100
AcDbSymbolTable
 70
6
  0
LTYPE
  5
14
100
AcDbSymbolTableRecord
100
AcDbLinetypeTableRecord
  2
BYBLOCK
 70
0
  3

 72
65
 73
0
 40
0.0
  0
LTYPE
  5
15
100
AcDbSymbolTableRecord
100
AcDbLinetypeTableRecord
  2
BYLAYER
 70
0
  3

 72
65
 73
0
 40
0.0
  0
LTYPE
  5
16
100
AcDbSymbolTableRecord
100
AcDbLinetypeTableRecord
  2
CONTINUOUS
 70
64
  3
Solid line
 72
65
 73
0
 40
0.0
  0
LTYPE
  5
1F5
100
AcDbSymbolTableRecord
100
AcDbLinetypeTableRecord
  2
CENTER
 70
64
  3
____ _ ____ _ ____ _ ____ _ ____ _ ____ _ ____
 72
65
 73
4
 40
0.6
 49
0.375
 74
0
 49
-0.075
 74
0
 49
0.075
 74
0
 49
-0.075
 74
0
  0
LTYPE
  5
1F6
100
AcDbSymbolTableRecord
100
AcDbLinetypeTableRecord
  2
HIDDEN
 70
64
  3
- - - - - - - - - - - - - - - - - - - -
 72
65
 73
2
 40
0.2
 49
0.1
 74
0
 49
-0.1
 74
0
  0
LTYPE
  5
1F7
100
AcDbSymbolTableRecord
100
AcDbLinetypeTableRecord
  2
PHANTOM
 70
64
  3
_____ _ _ _____ _ _ _____ _ _ _____
 72
65
 73
6
 40
0.8
 49
0.45
 74
0
 49
-0.05
 74
0
 49
0.1
 74
0
 49
-0.05
 74
0
 49
0.1
 74
0
 49
-0.05
 74
0
  0
LTYPE
  5
1F8
100
AcDbSymbolTableRecord
100
AcDbLinetypeTableRecord
  2
DOT
 70
64
  3
. . . . . . . . . . . . . . . . . . . .
 72
65
 73
2
 40
0.2
 49
0.1
 74
0
 49
-0.1
 74
0
  0
LTYPE
  5
1F9
100
AcDbSymbolTableRecord
100
AcDbLinetypeTableRecord
  2
DASHED
 70
64
  3
- - - - - - - - - - - - - - - - - - - -
 72
65
 73
2
 40
0.2
 49
0.1
 74
0
 49
-0.1
 74
0
  0
ENDTAB
  0
TABLE
  2
LAYER
  5
2
100
AcDbSymbolTable
 70
36
  0
LAYER
  5
10
100
AcDbSymbolTableRecord
100
AcDbLayerTableRecord
  2
0
 70
0
 62
7
  6
CONTINUOUS
370
-3
390
F
  0
LAYER
  5
1FA
100
AcDbSymbolTableRecord
100
AcDbLayerTableRecord
  2
DEFAULT_1
 70
0
 62
7
  6
CENTER
370
-3
390
F
  0
LAYER
  5
1FB
100
AcDbSymbolTableRecord
100
AcDbLayerTableRecord
  2
DEFAULT_2
 70
0
 62
7
  6
HIDDEN
370
-3
390
F
  0
LAYER
  5
1FC
100
AcDbSymbolTableRecord
100
AcDbLayerTableRecord
  2
DEFAULT_3
 70
0
 62
7
  6
PHANTOM
370
-3
390
F
  0
LAYER
  5
1FD
100
AcDbSymbolTableRecord
100
AcDbLayerTableRecord
  2
ASSI
 70
0
 62
7
  6
CONTINUOUS
370
-3
390
F
  0
LAYER
  5
1FE
100
AcDbSymbolTableRecord
100
AcDbLayerTableRecord
  2
COORDINATE
 70
0
 62
7
  6
CONTINUOUS
370
-3
390
F
  0
LAYER
  5
1FF
100
AcDbSymbolTableRecord
100
AcDbLayerTableRecord
  2
COPY_PUBLISH
 70
0
 62
7
  6
CONTINUOUS
370
-3
390
F
  0
LAYER
  5
200
100
AcDbSymbolTableRecord
100
AcDbLayerTableRecord
  2
COSMETICI
 70
0
 62
7
  6
CONTINUOUS
370
-3
390
F
  0
LAYER
  5
201
100
AcDbSymbolTableRecord
100
AcDbLayerTableRecord
  2
CURVE
 70
0
 62
7
  6
CONTINUOUS
370
-3
390
F
  0
LAYER
  5
202
100
AcDbSymbolTableRecord
100
AcDbLayerTableRecord
  2
DRAFT
 70
0
 62
7
  6
CONTINUOUS
370
-3
390
F
  0
LAYER
  5
203
100
AcDbSymbolTableRecord
100
AcDbLayerTableRecord
  2
IMPORT_IGES
 70
0
 62
7
  6
CONTINUOUS
370
-3
390
F
  0
LAYER
  5
204
100
AcDbSymbolTableRecord
100
AcDbLayerTableRecord
  2
INTF_1
 70
0
 62
7
  6
CONTINUOUS
370
-3
390
F
  0
LAYER
  5
205
100
AcDbSymbolTableRecord
100
AcDbLayerTableRecord
  2
INTF_2
 70
0
 62
7
  6
CONTINUOUS
370
-3
390
F
  0
LAYER
  5
206
100
AcDbSymbolTableRecord
100
AcDbLayerTableRecord
  2
INTF_4
 70
0
 62
7
  6
CONTINUOUS
370
-3
390
F
  0
LAYER
  5
207
100
AcDbSymbolTableRecord
100
AcDbLayerTableRecord
  2
INTF_9
 70
0
 62
7
  6
CONTINUOUS
370
-3
390
F
  0
LAYER
  5
208
100
AcDbSymbolTableRecord
100
AcDbLayerTableRecord
  2
NOTE
 70
0
 62
7
  6
CONTINUOUS
370
-3
390
F
  0
LAYER
  5
209
100
AcDbSymbolTableRecord
100
AcDbLayerTableRecord
  2
PIANI
 70
0
 62
7
  6
CONTINUOUS
370
-3
390
F
  0
LAYER
  5
20A
100
AcDbSymbolTableRecord
100
AcDbLayerTableRecord
  2
PUNTI
 70
0
 62
7
  6
CONTINUOUS
370
-3
390
F
  0
LAYER
  5
20B
100
AcDbSymbolTableRecord
100
AcDbLayerTableRecord
  2
RACCORDO
 70
0
 62
7
  6
CONTINUOUS
370
-3
390
F
  0
LAYER
  5
20C
100
AcDbSymbolTableRecord
100
AcDbLayerTableRecord
  2
SIMBOLI
 70
0
 62
7
  6
CONTINUOUS
370
-3
390
F
  0
LAYER
  5
20D
100
AcDbSymbolTableRecord
100
AcDbLayerTableRecord
  2
SMUSSO
 70
0
 62
7
  6
CONTINUOUS
370
-3
390
F
  0
LAYER
  5
20E
100
AcDbSymbolTableRecord
100
AcDbLayerTableRecord
  2
SNAPLINE
 70
0
 62
7
  6
CONTINUOUS
370
-3
390
F
  0
LAYER
  5
20F
100
AcDbSymbolTableRecord
100
AcDbLayerTableRecord
  2
SUPERFICI
 70
0
 62
7
  6
CONTINUOUS
370
-3
390
F
  0
LAYER
  5
210
100
AcDbSymbolTableRecord
100
AcDbLayerTableRecord
  2
TRASH
 70
0
 62
7
  6
CONTINUOUS
370
-3
390
F
  0
ENDTAB
  0
TABLE
  2
STYLE
  5
3
100
AcDbSymbolTable
 70
1
  0
STYLE
  5
11
100
AcDbSymbolTableRecord
100
AcDbTextStyleTableRecord
  2
STANDARD
 70
0
 40
0.0
 41
0.8
 50
0.0
 71
0
 42
0.2
  3
txt
  4

  0
STYLE
  5
211
100
AcDbSymbolTableRecord
100
AcDbTextStyleTableRecord
  2
TEXTSTYLE_1
 70
0
 40
0.0
 41
0.8
 50
0.0
 71
0
 42
0.2
  3
gdt
  4

  0
ENDTAB
  0
TABLE
  2
VIEW
  5
6
100
AcDbSymbolTable
 70
0
  0
ENDTAB
  0
TABLE
  2
UCS
  5
7
100
AcDbSymbolTable
 70
0
  0
ENDTAB
  0
TABLE
  2
APPID
  5
9
100
AcDbSymbolTable
 70
1
  0
APPID
  5
212
100
AcDbSymbolTableRecord
100
AcDbRegAppTableRecord
  2
ACAD
 70
0
  0
ENDTAB
  0
TABLE
  2
BLOCK_RECORD
  5
1
100
AcDbSymbolTable
 70
0
  0
BLOCK_RECORD
  5
213
100
AcDbSymbolTableRecord
100
AcDbBlockTableRecord
  2
*Model_Space
  0
BLOCK_RECORD
  5
214
100
AcDbSymbolTableRecord
100
AcDbBlockTableRecord
  2
*Paper_Space
  0
BLOCK_RECORD
  5
215
100
AcDbSymbolTableRecord
100
AcDbBlockTableRecord
  2
_FILLED
  0
BLOCK_RECORD
  5
216
100
AcDbSymbolTableRecord
100
AcDbBlockTableRecord
  2
*D0
  0
BLOCK_RECORD
  5
217
100
AcDbSymbolTableRecord
100
AcDbBlockTableRecord
  2
*D1
  0
BLOCK_RECORD
  5
218
100
AcDbSymbolTableRecord
100
AcDbBlockTableRecord
  2
*D2
  0
ENDTAB
  0
TABLE
  2
DIMSTYLE
  5
A
100
AcDbSymbolTable
 70
1
100
AcDbDimStyleTable
 71
0
  0
DIMSTYLE
105
219
100
AcDbSymbolTableRecord
100
AcDbDimStyleTableRecord
  2
STANDARD
 70
0
  3

  4

 40
1.0
 41
3.0
 42
0.5
 43
0.38
 44
1.5
 45
0.0
 46
0.0
 47
0.01
 48
0.01
140
3.0
141
0.09
142
0.0
143
25.4
144
1.0
145
0.0
146
1.0
147
0.625
 71
1
 72
0
 73
0
 74
0
 75
0
 76
0
 77
1
 78
8
 79
2
170
0
171
1
172
0
173
0
174
0
175
0
176
0
177
0
178
0
270
2
179
2
271
2
272
2
273
2
274
2
275
0
280
0
281
0
282
0
283
1
284
8
285
0
286
0
287
3
288
0
340
11
278
44
341
215
342
215
343
215
344
215
  0
DIMSTYLE
105
21A
100
AcDbSymbolTableRecord
100
AcDbDimStyleTableRecord
  2
DIMSTYLE_1
 70
0
  3

  4

 40
1.0
 41
3.0
 42
0.5
 43
0.38
 44
1.5
 45
0.0
 46
0.0
 47
0.0
 48
0.0
140
3.0
141
0.09
142
0.0
143
25.4
144
1.0
145
0.0
146
1.0
147
0.75
 71
0
 72
0
 73
0
 74
0
 75
0
 76
0
 77
1
 78
8
 79
2
170
0
171
1
172
0
173
0
174
0
175
0
176
0
177
0
178
0
270
2
179
2
271
2
272
2
273
2
274
2
275
0
280
0
281
0
282
0
283
1
284
8
285
0
286
0
287
3
288
0
340
11
278
44
341
215
342
215
343
215
344
215
  0
DIMSTYLE
105
21B
100
AcDbSymbolTableRecord
100
AcDbDimStyleTableRecord
  2
DIMSTYLE_2
 70
0
  3

  4

 40
1.0
 41
3.0
 42
0.5
 43
0.38
 44
1.5
 45
0.0
 46
0.0
 47
0.0
 48
0.0
140
3.0
141
0.09
142
0.0
143
25.4
144
1.0
145
0.0
146
1.0
147
0.75
 71
0
 72
0
 73
0
 74
0
 75
0
 76
0
 77
1
 78
8
 79
2
170
0
171
1
172
0
173
0
174
0
175
0
176
0
177
0
178
0
270
2
179
2
271
1
272
1
273
2
274
2
275
0
280
0
281
0
282
0
283
1
284
8
285
0
286
0
287
3
288
0
340
11
278
44
341
215
342
215
343
215
344
215
  0
ENDTAB
  0
ENDSEC
  0
SECTION
  2
BLOCKS
  0
BLOCK
  5
20
100
AcDbEntity
  8
0
100
AcDbBlockBegin
  2
*Model_Space
 70
0
 10
0.0
 20
0.0
 30
0.0
  3
*Model_Space
  1

  0
ENDBLK
  5
21
100
AcDbEntity
  8
0
100
AcDbBlockEnd
  0
BLOCK
  5
1C
100
AcDbEntity
  8
0
100
AcDbBlockBegin
  2
*Paper_Space
 70
0
 10
0.0
 20
0.0
 30
0.0
  3
*Paper_Space
  1

  0
ENDBLK
  5
1D
100
AcDbEntity
  8
0
100
AcDbBlockEnd
  0
BLOCK
  5
21C
100
AcDbEntity
  8
0
100
AcDbBlockBegin
  2
_FILLED
 70
64
 10
0.0
 20
0.0
  3
_FILLED
  1

  0
SOLID
  5
21D
100
AcDbEntity
  8
0
  6
BYBLOCK
 62
0
100
AcDbTrace
 10
0.0
 20
0.0
 11
-1.0
 21
0.3166666667
 12
-1.0
 22
-0.3166666667
 13
-1.0
 23
-0.3166666667
  0
ENDBLK
  5
21E
100
AcDbEntity
  8
0
  6
BYBLOCK
 62
0
100
AcDbBlockEnd
  0
BLOCK
  5
21F
100
AcDbEntity
  8
0
100
AcDbBlockBegin
 62
7
  6
CONTINUOUS
  2
*D0
 70
65
 10
0.0
 20
0.0
  3
*D0
  1

  0
LINE
  5
220
100
AcDbEntity
  8
0
100
AcDbLine
 62
7
  6
CONTINUOUS
 10
-11.354509989
 20
22.7068698035
 11
-11.354509989
 21
35.8268018612
  0
LINE
  5
221
100
AcDbEntity
  8
0
100
AcDbLine
 62
7
  6
CONTINUOUS
 10
10.845490011
 20
22.7068698035
 11
10.845490011
 21
35.8268018612
  0
LINE
  5
222
100
AcDbEntity
  8
0
100
AcDbLine
 62
7
  6
CONTINUOUS
 10
-11.354509989
 20
34.3268018612
 11
-0.254509989
 21
34.3268018612
  0
LINE
  5
223
100
AcDbEntity
  8
0
100
AcDbLine
 62
7
  6
CONTINUOUS
 10
10.845490011
 20
34.3268018612
 11
-0.254509989
 21
34.3268018612
  0
INSERT
  5
224
100
AcDbEntity
  8
0
100
AcDbBlockReference
 62
7
  6
CONTINUOUS
  2
_FILLED
 10
-11.354509989
 20
34.3268018612
 41
3.0
 42
3.0
 43
3.0
 50
180.0
  0
INSERT
  5
225
100
AcDbEntity
  8
0
100
AcDbBlockReference
 62
7
  6
CONTINUOUS
  2
_FILLED
 10
10.845490011
 20
34.3268018612
 41
3.0
 42
3.0
 43
3.0
  0
ENDBLK
  5
226
100
AcDbEntity
  8
0
  6
BYBLOCK
 62
0
100
AcDbBlockEnd
  0
BLOCK
  5
227
100
AcDbEntity
  8
0
100
AcDbBlockBegin
 62
7
  6
CONTINUOUS
  2
*D1
 70
65
 10
0.0
 20
0.0
  3
*D1
  1

  0
LINE
  5
228
100
AcDbEntity
  8
0
100
AcDbLine
 62
7
  6
CONTINUOUS
 10
10.8177909151
 20
26.2448256189
 11
20.3781070261
 21
26.2448256189
  0
LINE
  5
229
100
AcDbEntity
  8
0
100
AcDbLine
 62
7
  6
CONTINUOUS
 10
10.8177909151
 20
-26.4994335144
 11
20.3781070261
 21
-26.4994335144
  0
LINE
  5
22A
100
AcDbEntity
  8
0
100
AcDbLine
 62
7
  6
CONTINUOUS
 10
18.8781070261
 20
26.2448256189
 11
18.8781070261
 21
-0.1273039477
  0
LINE
  5
22B
100
AcDbEntity
  8
0
100
AcDbLine
 62
7
  6
CONTINUOUS
 10
18.8781070261
 20
-26.4994335144
 11
18.8781070261
 21
-0.1273039477
  0
INSERT
  5
22C
100
AcDbEntity
  8
0
100
AcDbBlockReference
 62
7
  6
CONTINUOUS
  2
_FILLED
 10
18.8781070261
 20
26.2448256189
 41
3.0
 42
3.0
 43
3.0
 50
90.0
  0
INSERT
  5
22D
100
AcDbEntity
  8
0
100
AcDbBlockReference
 62
7
  6
CONTINUOUS
  2
_FILLED
 10
18.8781070261
 20
-26.4994335144
 41
3.0
 42
3.0
 43
3.0
 50
270.0
  0
ENDBLK
  5
22E
100
AcDbEntity
  8
0
  6
BYBLOCK
 62
0
100
AcDbBlockEnd
  0
BLOCK
  5
22F
100
AcDbEntity
  8
0
100
AcDbBlockBegin
 62
7
  6
CONTINUOUS
  2
*D2
 70
65
 10
0.0
 20
0.0
  3
*D2
  1

  0
LINE
  5
230
100
AcDbEntity
  8
0
100
AcDbLine
 62
7
  6
CONTINUOUS
 10
-27.8750194627
 20
26.1861111149
 11
-27.8750194627
 21
35.7580005637
  0
LINE
  5
231
100
AcDbEntity
  8
0
100
AcDbLine
 62
7
  6
CONTINUOUS
 10
-24.0750194627
 20
22.7068698035
 11
-24.0750194627
 21
35.7580005637
  0
LINE
  5
232
100
AcDbEntity
  8
0
100
AcDbLine
 62
7
  6
CONTINUOUS
 10
-27.8750194627
 20
34.2580005637
 11
-31.8750194627
 21
34.2580005637
  0
LINE
  5
233
100
AcDbEntity
  8
0
100
AcDbLine
 62
7
  6
CONTINUOUS
 10
-31.8750194627
 20
34.2580005637
 11
-25.9750194627
 21
34.2580005637
  0
LINE
  5
234
100
AcDbEntity
  8
0
100
AcDbLine
 62
7
  6
CONTINUOUS
 10
-24.0750194627
 20
34.2580005637
 11
-13.8261567205
 21
34.2580005637
  0
LINE
  5
235
100
AcDbEntity
  8
0
100
AcDbLine
 62
7
  6
CONTINUOUS
 10
-13.8261567205
 20
34.2580005637
 11
-25.9750194627
 21
34.2580005637
  0
INSERT
  5
236
100
AcDbEntity
  8
0
100
AcDbBlockReference
 62
7
  6
CONTINUOUS
  2
_FILLED
 10
-27.8750194627
 20
34.2580005637
 41
3.0
 42
3.0
 43
3.0
  0
INSERT
  5
237
100
AcDbEntity
  8
0
100
AcDbBlockReference
 62
7
  6
CONTINUOUS
  2
_FILLED
 10
-24.0750194627
 20
34.2580005637
 41
3.0
 42
3.0
 43
3.0
 50
180.0
  0
ENDBLK
  5
238
100
AcDbEntity
  8
0
  6
BYBLOCK
 62
0
100
AcDbBlockEnd
  0
ENDSEC
  0
SECTION
  2
ENTITIES
  0
DIMENSION
  5
239
100
AcDbEntity
  8
0
100
AcDbDimension
 62
7
  6
CONTINUOUS
  2
*D0
 10
10.845490011
 20
34.3268018612
 11
-4.6473671319
 21
34.3268018612
 70
160
 71
2
 72
2
 41
0.9
 42
22.2
  3
DIMSTYLE_1
100
AcDbAlignedDimension
 13
-11.354509989
 23
22.2068698035
 14
10.845490011
 24
22.2068698035
100
AcDbRotatedDimension
  0
DIMENSION
  5
23A
100
AcDbEntity
  8
0
100
AcDbDimension
 62
7
  6
CONTINUOUS
  2
*D1
 10
18.8781070261
 20
-26.4994335144
 11
18.8781070261
 21
-4.4130182334
 70
160
 71
2
 72
2
 41
0.9
 42
52.7442591333
  3
DIMSTYLE_2
100
AcDbAlignedDimension
 13
10.3177909151
 23
26.2448256189
 14
10.3177909151
 24
-26.4994335144
 50
270.0
100
AcDbRotatedDimension
  0
DIMENSION
  5
23B
100
AcDbEntity
  8
0
100
AcDbDimension
 62
7
  6
CONTINUOUS
  2
*D2
 10
-24.0750194627
 20
34.2580005637
 11
-20.0404424348
 21
34.2580005637
 70
160
 71
1
 72
2
 41
0.9
 42
3.8
  3
DIMSTYLE_1
100
AcDbAlignedDimension
 13
-27.8750194627
 23
25.6861111149
 14
-24.0750194627
 24
22.2068698035
100
AcDbRotatedDimension
  0
LWPOLYLINE
  5
23C
100
AcDbEntity
  8
ASSI
100
AcDbPolyline
 62
250
  6
CONTINUOUS
 90
16
 70
0
 10
10.2589050735
 20
-26.4405476728
 10
10.310047336
 20
-26.4378893179
 10
10.3609069885
 20
-26.4299591459
 10
10.4109324621
 20
-26.4167622669
 10
10.4595979156
 20
-26.3983489998
 10
10.5063151253
 20
-26.3748500489
 10
10.5504556
 20
-26.3465081739
 10
10.5915406826
 20
-26.3135625122
 10
10.6290431388
 20
-26.2763620435
 10
10.6623686499
 20
-26.2354779838
 10
10.6911099676
 20
-26.191476049
 10
10.7150439198
 20
-26.1447741141
 10
10.7339573728
 20
-26.0958094173
 10
10.7476438053
 20
-26.045089679
 10
10.7559347267
 20
-25.9932020201
 10
10.758733736
 20
-25.9407190103
  0
LWPOLYLINE
  5
23D
100
AcDbEntity
  8
ASSI
100
AcDbPolyline
 62
250
  6
CONTINUOUS
 90
16
 70
0
 10
-10.7679250516
 20
-26.4405476728
 10
-10.819445408
 20
-26.4378500231
 10
-10.8706145476
 20
-26.4298148369
 10
-10.9208734197
 20
-26.4164665977
 10
-10.9697240202
 20
-26.3978617029
 10
-11.0165436313
 20
-26.3741585226
 10
-11.0606233345
 20
-26.345680692
 10
-11.1014224
 20
-26.3127917933
 10
-11.1385572501
 20
-26.2758163938
 10
-11.171631842
 20
-26.235144932
 10
-11.2002844991
 20
-26.1912096806
 10
-11.2241863477
 20
-26.1445005084
 10
-11.243063089
 20
-26.0955470421
 10
-11.2567055366
 20
-26.0448945671
 10
-11.2649660554
 20
-25.9930951026
 10
-11.2677537141
 20
-25.9407190103
  0
LINE
  5
23E
100
AcDbEntity
  8
ASSI
100
AcDbLine
 62
7
  6
CONTINUOUS
 10
-10.8268108932
 20
-26.4994335144
 11
10.3177909151
 21
-26.4994335144
  0
LINE
  5
23F
100
AcDbEntity
  8
ASSI
100
AcDbLine
 62
250
  6
CONTINUOUS
 10
-10.7679250516
 20
-26.4405476728
 11
10.2589050735
 21
-26.4405476728
  0
LINE
  5
240
100
AcDbEntity
  8
ASSI
100
AcDbLine
 62
250
  6
CONTINUOUS
 10
-11.2677537141
 20
-25.9407190103
 11
10.758733736
 21
-25.9407190103
  0
LWPOLYLINE
  5
241
100
AcDbEntity
  8
CURVE
100
AcDbPolyline
 62
250
  6
CONTINUOUS
 90
27
 70
0
 10
-3.193176438
 20
-17.3101164472
 10
-3.1731543758
 20
-17.3100277517
 10
-3.1531128995
 20
-17.3097550719
 10
-3.1330581513
 20
-17.3092885178
 10
-3.1129962738
 20
-17.3086181994
 10
-3.0929334092
 20
-17.3077342266
 10
-3.0728757001
 20
-17.3066267096
 10
-3.0528292887
 20
-17.3052857581
 10
-3.0328003177
 20
-17.3037014823
 10
-3.0127949292
 20
-17.3018639921
 10
-2.9928192658
 20
-17.2997633975
 10
-2.9728794699
 20
-17.2973898086
 10
-2.9529816839
 20
-17.2947333352
 10
-2.9331320501
 20
-17.2917840874
 10
-2.913336711
 20
-17.2885321752
 10
-2.893601809
 20
-17.2849677085
 10
-2.8739334865
 20
-17.2810807974
 10
-2.854337886
 20
-17.2768615518
 10
-2.8348211497
 20
-17.2723000818
 10
-2.8153894202
 20
-17.2673864972
 10
-2.8019905221
 20
-17.2637695667
 10
-2.7886487235
 20
-17.2599551143
 10
-2.7753774297
 20
-17.2559191514
 10
-2.7621900464
 20
-17.2516376895
 10
-2.749099979
 20
-17.2470867399
 10
-2.7361206329
 20
-17.2422423139
 10
-2.7232654138
 20
-17.2370804229
  0
LWPOLYLINE
  5
242
100
AcDbEntity
  8
CURVE
100
AcDbPolyline
 62
250
  6
CONTINUOUS
 90
26
 70
0
 10
-3.6947823406
 20
-17.2274341555
 10
-3.6766107887
 20
-17.2343961188
 10
-3.6582967363
 20
-17.2409904807
 10
-3.6398485612
 20
-17.2472254975
 10
-3.6212746414
 20
-17.2531094253
 10
-3.6025833547
 20
-17.2586505204
 10
-3.5837830788
 20
-17.2638570391
 10
-3.5648821917
 20
-17.2687372375
 10
-3.5458890711
 20
-17.2732993719
 10
-3.5268120949
 20
-17.2775516986
 10
-3.507659641
 20
-17.2815024737
 10
-3.4884400871
 20
-17.2851599536
 10
-3.4691618111
 20
-17.2885323944
 10
-3.4498331909
 20
-17.2916280524
 10
-3.4304626042
 20
-17.2944551839
 10
-3.411058429
 20
-17.297022045
 10
-3.3916290431
 20
-17.299336892
 10
-3.3721828242
 20
-17.3014079811
 10
-3.3527281502
 20
-17.3032435685
 10
-3.3332733991
 20
-17.3048519106
 10
-3.3101494448
 20
-17.3064783664
 10
-3.2870329052
 20
-17.3077994978
 10
-3.2639194593
 20
-17.3088195882
 10
-3.2408047864
 20
-17.309542921
 10
-3.2176845656
 20
-17.3099737795
 10
-3.1945544762
 20
-17.3101164472
  0
LWPOLYLINE
  5
243
100
AcDbEntity
  8
CURVE
100
AcDbPolyline
 62
250
  6
CONTINUOUS
 90
42
 70
0
 10
-2.7232654138
 20
-17.2370804229
 10
-2.7033352954
 20
-17.2317420561
 10
-2.6835846235
 20
-17.2258138081
 10
-2.6640162098
 20
-17.2193123478
 10
-2.6446328666
 20
-17.2122543439
 10
-2.6254374058
 20
-17.2046564652
 10
-2.6064326394
 20
-17.1965353805
 10
-2.5876213795
 20
-17.1879077588
 10
-2.5690064381
 20
-17.1787902686
 10
-2.5505906271
 20
-17.1691995789
 10
-2.5323767587
 20
-17.1591523585
 10
-2.5143676448
 20
-17.1486652762
 10
-2.4965660974
 20
-17.1377550008
 10
-2.4789749286
 20
-17.126438201
 10
-2.4615969504
 20
-17.1147315457
 10
-2.4444349748
 20
-17.1026517037
 10
-2.4274918138
 20
-17.0902153439
 10
-2.4107702795
 20
-17.0774391349
 10
-2.3942731839
 20
-17.0643397457
 10
-2.378003339
 20
-17.050933845
 10
-2.3619635567
 20
-17.0372381016
 10
-2.3461566492
 20
-17.0232691843
 10
-2.3298854852
 20
-17.0083881738
 10
-2.3138893207
 20
-16.9932278764
 10
-2.2981855503
 20
-16.9777893648
 10
-2.2827915683
 20
-16.9620737116
 10
-2.2677247693
 20
-16.9460819895
 10
-2.2530025475
 20
-16.9298152713
 10
-2.2386422975
 20
-16.9132746295
 10
-2.2246614137
 20
-16.8964611369
 10
-2.2110772905
 20
-16.8793758661
 10
-2.1979073223
 20
-16.8620198897
 10
-2.1851689035
 20
-16.8443942806
 10
-2.1728794286
 20
-16.8265001112
 10
-2.161056292
 20
-16.8083384544
 10
-2.1497168881
 20
-16.7899103827
 10
-2.1388786114
 20
-16.7712169689
 10
-2.1285588563
 20
-16.7522592856
 10
-2.1187750171
 20
-16.7330384055
 10
-2.1095444884
 20
-16.7135554013
 10
-2.1008846646
 20
-16.6938113456
 10
-2.09281294
 20
-16.673807311
  0
LINE
  5
244
100
AcDbEntity
  8
CURVE
100
AcDbLine
 62
250
  6
CONTINUOUS
 10
-0.1328981184
 20
-15.9424135395
 11
0.8909842598
 21
-15.9424135395
  0
LWPOLYLINE
  5
245
100
AcDbEntity
  8
CURVE
100
AcDbPolyline
 62
250
  6
CONTINUOUS
 90
25
 70
0
 10
-3.1945544762
 20
-16.8105776018
 10
-3.2092639403
 20
-16.8104879015
 10
-3.2239941597
 20
-16.8102169256
 10
-3.238739798
 20
-16.8097618614
 10
-3.2534955187
 20
-16.8091198964
 10
-3.2682559854
 20
-16.8082882179
 10
-3.2830158615
 20
-16.8072640133
 10
-3.2977698108
 20
-16.8060444701
 10
-3.3125124968
 20
-16.8046267755
 10
-3.3272385829
 20
-16.8030081171
 10
-3.3419427328
 20
-16.8011856821
 10
-3.35661961
 20
-16.799156658
 10
-3.3712638781
 20
-16.7969182322
 10
-3.3858702007
 20
-16.7944675921
 10
-3.4004332412
 20
-16.7918019249
 10
-3.4149476634
 20
-16.7889184183
 10
-3.4294081306
 20
-16.7858142594
 10
-3.4438093065
 20
-16.7824866358
 10
-3.4581458547
 20
-16.7789327348
 10
-3.4724124387
 20
-16.7751497439
 10
-3.486603722
 20
-16.7711348503
 10
-3.5007143683
 20
-16.7668852414
 10
-3.514739041
 20
-16.7623981048
 10
-3.5286724038
 20
-16.7576706278
 10
-3.5425091202
 20
-16.7526999977
  0
LWPOLYLINE
  5
246
100
AcDbEntity
  8
CURVE
100
AcDbPolyline
 62
250
  6
CONTINUOUS
 90
43
 70
0
 10
-3.5425091202
 20
-16.7526999977
 10
-3.5511039605
 20
-16.7503462561
 10
-3.5595867397
 20
-16.7476823196
 10
-3.5679591987
 20
-16.7447201115
 10
-3.5762230785
 20
-16.741471555
 10
-3.5843801198
 20
-16.7379485736
 10
-3.5924320636
 20
-16.7341630905
 10
-3.6003806508
 20
-16.7301270292
 10
-3.6082276222
 20
-16.7258523129
 10
-3.6159747188
 20
-16.721350865
 10
-3.6236236814
 20
-16.7166346088
 10
-3.631176251
 20
-16.7117154677
 10
-3.6386341684
 20
-16.706605365
 10
-3.6459991744
 20
-16.7013162241
 10
-3.6532730101
 20
-16.6958599682
 10
-3.6604574163
 20
-16.6902485208
 10
-3.6675541338
 20
-16.6844938052
 10
-3.6745649036
 20
-16.6786077446
 10
-3.6814914666
 20
-16.6726022625
 10
-3.6883355636
 20
-16.6664892822
 10
-3.6950989355
 20
-16.660280727
 10
-3.7017833233
 20
-16.6539885203
 10
-3.7083904678
 20
-16.6476245854
 10
-3.7172774337
 20
-16.6388464199
 10
-3.7260156978
 20
-16.6299552025
 10
-3.7345969769
 20
-16.6209491057
 10
-3.7430129878
 20
-16.611826302
 10
-3.7512554474
 20
-16.6025849638
 10
-3.7593160724
 20
-16.5932232637
 10
-3.7671865796
 20
-16.5837393742
 10
-3.7748586858
 20
-16.5741314678
 10
-3.7823241078
 20
-16.5643977171
 10
-3.7895745625
 20
-16.5545362944
 10
-3.7966017666
 20
-16.5445453724
 10
-3.8033974369
 20
-16.5344231235
 10
-3.8099532902
 20
-16.5241677202
 10
-3.8162610434
 20
-16.5137773352
 10
-3.8223124131
 20
-16.5032501407
 10
-3.8280991163
 20
-16.4925843095
 10
-3.8336128697
 20
-16.4817780139
 10
-3.8388453901
 20
-16.4708294265
 10
-3.8437883944
 20
-16.4597367198
 10
-3.8484335993
 20
-16.4484980663
  0
LINE
  5
247
100
AcDbEntity
  8
CURVE
100
AcDbLine
 62
7
  6
CONTINUOUS
 10
-4.507479989
 20
16.0685147044
 11
-4.007252989
 21
16.5687417044
  0
LINE
  5
248
100
AcDbEntity
  8
CURVE
100
AcDbLine
 62
7
  6
CONTINUOUS
 10
-4.507479989
 20
15.0729083565
 11
-4.007252989
 21
15.5731353565
  0
LWPOLYLINE
  5
249
100
AcDbEntity
  8
CURVE
100
AcDbPolyline
 62
250
  6
CONTINUOUS
 90
55
 70
0
 10
-0.1328981184
 20
-14.3111608273
 10
-0.1352217576
 20
-14.3112086474
 10
-0.1375538395
 20
-14.3113507902
 10
-0.1398923879
 20
-14.3115852794
 10
-0.1422354265
 20
-14.3119101388
 10
-0.144580979
 20
-14.3123233921
 10
-0.1469270693
 20
-14.3128230631
 10
-0.149271721
 20
-14.3134071755
 10
-0.1516129578
 20
-14.314073753
 10
-0.1539488036
 20
-14.3148208195
 10
-0.1562772821
 20
-14.3156463985
 10
-0.1585964169
 20
-14.3165485139
 10
-0.1609042319
 20
-14.3175251895
 10
-0.1631987508
 20
-14.3185744489
 10
-0.1654779973
 20
-14.3196943159
 10
-0.1677399952
 20
-14.3208828142
 10
-0.1699827682
 20
-14.3221379676
 10
-0.1722043401
 20
-14.3234577998
 10
-0.1744027346
 20
-14.3248403346
 10
-0.1765759754
 20
-14.3262835957
 10
-0.1787220863
 20
-14.3277856069
 10
-0.180839091
 20
-14.3293443918
 10
-0.1829250132
 20
-14.3309579743
 10
-0.1849778768
 20
-14.332624378
 10
-0.1869957055
 20
-14.3343416268
 10
-0.1889765229
 20
-14.3361077443
 10
-0.1909183529
 20
-14.3379207543
 10
-0.1928192191
 20
-14.3397786806
 10
-0.1946771453
 20
-14.3416795468
 10
-0.1964901554
 20
-14.3436213768
 10
-0.1982562729
 20
-14.3456021942
 10
-0.1999735216
 20
-14.3476200228
 10
-0.2016399254
 20
-14.3496728864
 10
-0.2032535078
 20
-14.3517588087
 10
-0.2048122928
 20
-14.3538758134
 10
-0.2063143039
 20
-14.3560219243
 10
-0.207757565
 20
-14.3581951651
 10
-0.2091400998
 20
-14.3603935596
 10
-0.2104599321
 20
-14.3626151314
 10
-0.2117150855
 20
-14.3648579044
 10
-0.2129035838
 20
-14.3671199023
 10
-0.2140234508
 20
-14.3693991488
 10
-0.2150727102
 20
-14.3716936677
 10
-0.2160493857
 20
-14.3740014827
 10
-0.2169515011
 20
-14.3763206176
 10
-0.2177770802
 20
-14.378649096
 10
-0.2185241466
 20
-14.3809849418
 10
-0.2191907242
 20
-14.3833261787
 10
-0.2197748365
 20
-14.3856708304
 10
-0.2202745075
 20
-14.3880169206
 10
-0.2206877609
 20
-14.3903624732
 10
-0.2210126203
 20
-14.3927055118
 10
-0.2212471095
 20
-14.3950440601
 10
-0.2213892523
 20
-14.397376142
 10
-0.2214370724
 20
-14.3996997812
  0
LINE
  5
24A
100
AcDbEntity
  8
CURVE
100
AcDbLine
 62
250
  6
CONTINUOUS
 10
0.8913287693
 20
-14.3111608273
 11
-0.1328981184
 21
-14.3111608273
  0
LWPOLYLINE
  5
24B
100
AcDbEntity
  8
CURVE
100
AcDbPolyline
 62
250
  6
CONTINUOUS
 90
26
 70
0
 10
-3.1938654571
 20
-13.4219816825
 10
-3.1799013799
 20
-13.4220559063
 10
-3.1659143225
 20
-13.4222812737
 10
-3.1519094287
 20
-13.4226618284
 10
-3.1378918424
 20
-13.4232016144
 10
-3.1238667075
 20
-13.4239046756
 10
-3.1098391679
 20
-13.4247750558
 10
-3.0958143676
 20
-13.4258167989
 10
-3.0817974504
 20
-13.4270339488
 10
-3.0677935603
 20
-13.4284305493
 10
-3.053807841
 20
-13.4300106444
 10
-3.0398454367
 20
-13.4317782779
 10
-3.025911491
 20
-13.4337374936
 10
-3.012011148
 20
-13.4358923355
 10
-2.9981495515
 20
-13.4382468475
 10
-2.9843318455
 20
-13.4408050733
 10
-2.9705631738
 20
-13.4435710569
 10
-2.9568486804
 20
-13.4465488421
 10
-2.9431935091
 20
-13.4497424729
 10
-2.9296028039
 20
-13.4531559931
 10
-2.9160817086
 20
-13.4567934465
 10
-2.9026353672
 20
-13.4606588771
 10
-2.8892689235
 20
-13.4647563287
 10
-2.8759875215
 20
-13.4690898453
 10
-2.8627963051
 20
-13.4736634705
 10
-2.8497004181
 20
-13.4784812485
  0
LWPOLYLINE
  5
24C
100
AcDbEntity
  8
CURVE
100
AcDbPolyline
 62
250
  6
CONTINUOUS
 90
44
 70
0
 10
-2.8497004181
 20
-13.4784812485
 10
-2.8410890766
 20
-13.4808193419
 10
-2.8325820481
 20
-13.4834525532
 10
-2.8241781269
 20
-13.4863702909
 10
-2.8158761071
 20
-13.4895619634
 10
-2.8076747831
 20
-13.4930169789
 10
-2.799572949
 20
-13.496724746
 10
-2.7915693991
 20
-13.5006746729
 10
-2.7836629276
 20
-13.504856168
 10
-2.7758523288
 20
-13.5092586397
 10
-2.768136397
 20
-13.5138714964
 10
-2.7605139262
 20
-13.5186841464
 10
-2.7529837109
 20
-13.5236859981
 10
-2.7455445452
 20
-13.52886646
 10
-2.7381952234
 20
-13.5342149403
 10
-2.7309345397
 20
-13.5397208474
 10
-2.7237612883
 20
-13.5453735898
 10
-2.7166742635
 20
-13.5511625758
 10
-2.7096722596
 20
-13.5570772137
 10
-2.7027540707
 20
-13.563106912
 10
-2.6959184912
 20
-13.569241079
 10
-2.6891643152
 20
-13.5754691231
 10
-2.682490337
 20
-13.5817804526
 10
-2.6758953509
 20
-13.588164476
 10
-2.6673602591
 20
-13.5966391738
 10
-2.658967188
 20
-13.6052225463
 10
-2.6507241961
 20
-13.6139163173
 10
-2.6426393423
 20
-13.6227222103
 10
-2.6347206853
 20
-13.6316419492
 10
-2.6269762837
 20
-13.6406772574
 10
-2.6194141964
 20
-13.6498298588
 10
-2.612042482
 20
-13.6591014769
 10
-2.6048691992
 20
-13.6684938353
 10
-2.5979024068
 20
-13.6780086579
 10
-2.5911501635
 20
-13.6876476682
 10
-2.584620528
 20
-13.6974125899
 10
-2.578321559
 20
-13.7073051466
 10
-2.5722613153
 20
-13.7173270621
 10
-2.5664478556
 20
-13.7274800599
 10
-2.5608892386
 20
-13.7377658638
 10
-2.5555935231
 20
-13.7481861974
 10
-2.5505687677
 20
-13.7587427843
 10
-2.5458230311
 20
-13.7694373483
 10
-2.5413643722
 20
-13.780271613
  0
LINE
  5
24D
100
AcDbEntity
  8
ASSI
100
AcDbLine
 62
7
  6
CONTINUOUS
 10
-11.3540638572
 20
-22.5908872215
 11
-11.3301221661
 21
-26.0030874622
  0
LINE
  5
24E
100
AcDbEntity
  8
ASSI
100
AcDbLine
 62
7
  6
CONTINUOUS
 10
-11.3540638572
 20
22.336279326
 11
-11.3301221661
 21
25.7484795668
  0
LINE
  5
24F
100
AcDbEntity
  8
CURVE
100
AcDbLine
 62
250
  6
CONTINUOUS
 10
-0.4057496809
 20
16.8598271282
 11
-1.5760486172
 21
15.6891836823
  0
LINE
  5
250
100
AcDbEntity
  8
CURVE
100
AcDbLine
 62
7
  6
CONTINUOUS
 10
-4.507479989
 20
14.0773020086
 11
-4.007252989
 21
14.5775290086
  0
LINE
  5
251
100
AcDbEntity
  8
CURVE
100
AcDbLine
 62
7
  6
CONTINUOUS
 10
-4.507479989
 20
13.0816956606
 11
-4.007252989
 21
13.5819226606
  0
LINE
  5
252
100
AcDbEntity
  8
CURVE
100
AcDbLine
 62
7
  6
CONTINUOUS
 10
-2.6891589685
 20
14.9000166812
 11
-1.8999919674
 21
15.6891836823
  0
LINE
  5
253
100
AcDbEntity
  8
CURVE
100
AcDbLine
 62
7
  6
CONTINUOUS
 10
-2.5356383318
 20
14.05793097
 11
-0.254509989
 21
16.3390593127
  0
LWPOLYLINE
  5
254
100
AcDbEntity
  8
CURVE
100
AcDbPolyline
 62
250
  6
CONTINUOUS
 90
42
 70
0
 10
-3.661709424
 20
-12.9934118041
 10
-3.6817449901
 20
-12.9988429809
 10
-3.7016029138
 20
-13.0048535251
 10
-3.7212803436
 20
-13.0114276101
 10
-3.740774428
 20
-13.0185494094
 10
-3.7600823155
 20
-13.0262030963
 10
-3.7792011548
 20
-13.0343728443
 10
-3.7981280943
 20
-13.0430428269
 10
-3.8168602825
 20
-13.0521972173
 10
-3.835394868
 20
-13.0618201891
 10
-3.8537289993
 20
-13.0718959156
 10
-3.8718598249
 20
-13.0824085702
 10
-3.8897844934
 20
-13.0933423264
 10
-3.9075001533
 20
-13.1046813576
 10
-3.9250039532
 20
-13.1164098373
 10
-3.9422930415
 20
-13.1285119387
 10
-3.9593645667
 20
-13.1409718353
 10
-3.9762156775
 20
-13.1537737006
 10
-3.9928435224
 20
-13.166901708
 10
-4.0092452498
 20
-13.1803400308
 10
-4.0254180083
 20
-13.1940728425
 10
-4.0413589464
 20
-13.2080843166
 10
-4.0575325587
 20
-13.22279571
 10
-4.0734385899
 20
-13.2377852507
 10
-4.0890584963
 20
-13.2530521609
 10
-4.1043737341
 20
-13.2685956626
 10
-4.1193657595
 20
-13.2844149779
 10
-4.134016029
 20
-13.3005093289
 10
-4.1483059986
 20
-13.3168779376
 10
-4.1622171246
 20
-13.3335200261
 10
-4.1757308634
 20
-13.3504348165
 10
-4.1888286711
 20
-13.3676215309
 10
-4.201492004
 20
-13.3850793913
 10
-4.2137023184
 20
-13.4028076198
 10
-4.2254410705
 20
-13.4208054385
 10
-4.2366897166
 20
-13.4390720695
 10
-4.2474297129
 20
-13.4576067348
 10
-4.2576425157
 20
-13.4764086565
 10
-4.2673095812
 20
-13.4954770567
 10
-4.2764123658
 20
-13.5148111575
 10
-4.2849323256
 20
-13.534410181
 10
-4.2928509169
 20
-13.5542733491
  0
LWPOLYLINE
  5
255
100
AcDbEntity
  8
CURVE
100
AcDbPolyline
 62
250
  6
CONTINUOUS
 90
43
 70
0
 10
-2.6957046499
 20
-13.0037470906
 10
-2.7184503419
 20
-12.9950807307
 10
-2.7413881312
 20
-12.9870763638
 10
-2.7645089939
 20
-12.9797085062
 10
-2.7878039065
 20
-12.9729516737
 10
-2.811263845
 20
-12.9667803824
 10
-2.8348797859
 20
-12.9611691484
 10
-2.8586427055
 20
-12.9560924875
 10
-2.8825435799
 20
-12.951524916
 10
-2.9065733854
 20
-12.9474409497
 10
-2.9307230985
 20
-12.9438151047
 10
-2.9549836952
 20
-12.940621897
 10
-2.979346152
 20
-12.9378358427
 10
-3.003801445
 20
-12.9354314577
 10
-3.0283405506
 20
-12.9333832581
 10
-3.0529544451
 20
-12.93166576
 10
-3.0776341047
 20
-12.9302534792
 10
-3.1023705057
 20
-12.9291209319
 10
-3.1271546243
 20
-12.9282426341
 10
-3.151977437
 20
-12.9275931017
 10
-3.1768299199
 20
-12.9271468509
 10
-3.2017030493
 20
-12.9268783976
 10
-3.2243011457
 20
-12.9267750107
 10
-3.2468980702
 20
-12.9268247252
 10
-3.2694830653
 20
-12.9270550246
 10
-3.2920453733
 20
-12.9274933926
 10
-3.3145742368
 20
-12.9281673129
 10
-3.3370588982
 20
-12.929104269
 10
-3.3594886
 20
-12.9303317448
 10
-3.3818525844
 20
-12.9318772237
 10
-3.4041400941
 20
-12.9337681895
 10
-3.4263403714
 20
-12.9360321259
 10
-3.4484426588
 20
-12.9386965164
 10
-3.4704361987
 20
-12.9417888447
 10
-3.4923102336
 20
-12.9453365945
 10
-3.5140540059
 20
-12.9493672494
 10
-3.535656758
 20
-12.9539082931
 10
-3.5571077324
 20
-12.9589872092
 10
-3.5783961715
 20
-12.9646314814
 10
-3.5995113178
 20
-12.9708685934
 10
-3.6204424137
 20
-12.9777260287
 10
-3.6411787016
 20
-12.9852312711
 10
-3.661709424
 20
-12.9934118041
  0
LWPOLYLINE
  5
256
100
AcDbEntity
  8
ASSI
100
AcDbPolyline
 62
250
  6
CONTINUOUS
 90
16
 70
0
 10
-11.2677537141
 20
0.6111733592
 10
-11.2649659775
 20
0.5586736326
 10
-11.2566845614
 20
0.5067685332
 10
-11.2430054534
 20
0.4560310479
 10
-11.2240968856
 20
0.4070490073
 10
-11.2001650399
 20
0.360330392
 10
-11.1714223944
 20
0.3163123694
 10
-11.1380905586
 20
0.2754121718
 10
-11.1005775413
 20
0.2381979731
 10
-11.059481553
 20
0.205244643
 10
-11.0153317992
 20
0.1769012661
 10
-10.9686069026
 20
0.1534055644
 10
-10.9199373335
 20
0.1349998955
 10
-10.8699123669
 20
0.1218137074
 10
-10.819057737
 20
0.1138957016
 10
-10.7679250516
 20
0.1112495116
  0
LINE
  5
257
100
AcDbEntity
  8
ASSI
100
AcDbLine
 62
7
  6
CONTINUOUS
 10
-11.354509989
 20
22.2068698035
 11
-11.354509989
 21
0.5533431847
  0
LINE
  5
258
100
AcDbEntity
  8
ASSI
100
AcDbLine
 62
7
  6
CONTINUOUS
 10
-11.354509989
 20
-0.8079510801
 11
-11.354509989
 21
-22.4614776989
  0
LINE
  5
259
100
AcDbEntity
  8
ASSI
100
AcDbLine
 62
250
  6
CONTINUOUS
 10
-11.2677537141
 20
25.6861111149
 11
-11.2677537141
 21
0.6111733592
  0
LINE
  5
25A
100
AcDbEntity
  8
ASSI
100
AcDbLine
 62
250
  6
CONTINUOUS
 10
-11.2677537141
 20
-0.8657812546
 11
-11.2677537141
 21
-25.9407190103
  0
LINE
  5
25B
100
AcDbEntity
  8
ASSI
100
AcDbLine
 62
250
  6
CONTINUOUS
 10
-10.7679250516
 20
0.1112495116
 11
-10.7679250516
 21
26.1859397774
  0
LINE
  5
25C
100
AcDbEntity
  8
ASSI
100
AcDbLine
 62
250
  6
CONTINUOUS
 10
-10.7679250516
 20
-0.365857407
 11
-10.7679250516
 21
-26.4405476728
  0
LWPOLYLINE
  5
25D
100
AcDbEntity
  8
0
100
AcDbPolyline
 62
7
  6
CONTINUOUS
 90
3
 70
0
 43
0.3500000019
 10
0.7812036133
 20
35.3625158691
 10
0.7097734375
 20
35.1482307129
 10
0.566918457
 20
34.8625153809
  0
LINE
  5
25E
100
AcDbEntity
  8
CURVE
100
AcDbLine
 62
250
  6
CONTINUOUS
 10
0.7025375368
 20
15.8287100494
 11
0.9485173544
 21
16.0781349626
  0
LINE
  5
25F
100
AcDbEntity
  8
CURVE
100
AcDbLine
 62
250
  6
CONTINUOUS
 10
1.5741466945
 20
16.7010082263
 11
1.8208155313
 21
16.9497441203
  0
LINE
  5
260
100
AcDbEntity
  8
CURVE
100
AcDbLine
 62
250
  6
CONTINUOUS
 10
2.4457558523
 20
17.5726173841
 11
2.692424689
 21
17.820664259
  0
LINE
  5
261
100
AcDbEntity
  8
ASSI
100
AcDbLine
 62
250
  6
CONTINUOUS
 10
10.2589050735
 20
26.1859397774
 11
10.3177909151
 21
26.2448256189
  0
LINE
  5
262
100
AcDbEntity
  8
CURVE
100
AcDbLine
 62
7
  6
CONTINUOUS
 10
-1.5582125553
 20
14.0397503986
 11
-0.254509989
 21
15.3434529648
  0
LINE
  5
263
100
AcDbEntity
  8
ASSI
100
AcDbLine
 62
250
  6
CONTINUOUS
 10
10.758733736
 20
25.6861111149
 11
10.821102188
 21
25.7484795668
  0
LINE
  5
264
100
AcDbEntity
  8
CURVE
100
AcDbLine
 62
7
  6
CONTINUOUS
 10
-1.0604093813
 20
13.5419472246
 11
-0.254509989
 21
14.3478466169
  0
LINE
  5
265
100
AcDbEntity
  8
CURVE
100
AcDbLine
 62
7
  6
CONTINUOUS
 10
0.9291134033
 20
15.5314700092
 11
1.183622703
 21
15.7859793089
  0
LINE
  5
266
100
AcDbEntity
  8
CURVE
100
AcDbLine
 62
7
  6
CONTINUOUS
 10
1.8162493866
 20
16.4186059926
 11
2.0660460103
 21
16.6684026163
  0
LINE
  5
267
100
AcDbEntity
  8
CURVE
100
AcDbLine
 62
7
  6
CONTINUOUS
 10
2.6957076081
 20
17.2980642141
 11
2.9430868017
 21
17.5454434077
  0
LINE
  5
268
100
AcDbEntity
  8
CURVE
100
AcDbLine
 62
7
  6
CONTINUOUS
 10
-0.5626062074
 20
13.0441440507
 11
-0.254509989
 21
13.352240269
  0
LINE
  5
269
100
AcDbEntity
  8
CURVE
100
AcDbLine
 62
7
  6
CONTINUOUS
 10
1.0898725521
 20
14.6966228102
 11
1.443383634
 21
15.0501338921
  0
LINE
  5
26A
100
AcDbEntity
  8
CURVE
100
AcDbLine
 62
7
  6
CONTINUOUS
 10
2.170046703
 20
15.776796961
 11
2.4392100408
 21
16.0459602988
  0
LINE
  5
26B
100
AcDbEntity
  8
CURVE
100
AcDbLine
 62
7
  6
CONTINUOUS
 10
3.097911486
 20
16.704661744
 11
3.3524915379
 21
16.959241796
  0
LWPOLYLINE
  5
26C
100
AcDbEntity
  8
CURVE
100
AcDbPolyline
 62
250
  6
CONTINUOUS
 90
67
 70
0
 10
2.0616277057
 20
-17.1130569854
 10
2.063784699
 20
-17.1151264234
 10
2.0660368575
 20
-17.1171180024
 10
2.0683796053
 20
-17.1190302763
 10
2.0708083666
 20
-17.1208617991
 10
2.0733185659
 20
-17.122611125
 10
2.0759056272
 20
-17.1242768077
 10
2.0785649749
 20
-17.1258574015
 10
2.0812920332
 20
-17.1273514603
 10
2.0840822264
 20
-17.128757538
 10
2.0869309787
 20
-17.1300741887
 10
2.0898337144
 20
-17.1312999665
 10
2.0927858577
 20
-17.1324334252
 10
2.0957828328
 20
-17.133473119
 10
2.0988200641
 20
-17.1344176018
 10
2.1018929758
 20
-17.1352654276
 10
2.1049969921
 20
-17.1360151505
 10
2.1081275373
 20
-17.1366653244
 10
2.1112800356
 20
-17.1372145034
 10
2.1144499113
 20
-17.1376612415
 10
2.1176325887
 20
-17.1380040926
 10
2.120823492
 20
-17.1382416108
 10
2.1240180454
 20
-17.1383723501
 10
2.1272116732
 20
-17.1383948645
 10
2.1303997997
 20
-17.138307708
 10
2.1335778491
 20
-17.1381094346
 10
2.1367412456
 20
-17.1377985983
 10
2.1398854136
 20
-17.1373737531
 10
2.1430057772
 20
-17.1368334531
 10
2.1460977608
 20
-17.1361762522
 10
2.1491567885
 20
-17.1354007044
 10
2.1521782847
 20
-17.1345053638
 10
2.1551576735
 20
-17.1334887844
 10
2.1580903793
 20
-17.1323495201
 10
2.1609790229
 20
-17.1310839219
 10
2.1638139314
 20
-17.129697883
 10
2.1665928732
 20
-17.1281956855
 10
2.1693136166
 20
-17.126581612
 10
2.1719739298
 20
-17.1248599445
 10
2.1745715812
 20
-17.1230349655
 10
2.1771043391
 20
-17.1211109571
 10
2.1795699717
 20
-17.1190922018
 10
2.1819662475
 20
-17.1169829818
 10
2.1842909347
 20
-17.1147875794
 10
2.1865418016
 20
-17.1125102768
 10
2.1887166165
 20
-17.1101553564
 10
2.1908131477
 20
-17.1077271004
 10
2.1928291636
 20
-17.1052297913
 10
2.1947624325
 20
-17.1026677111
 10
2.1966107226
 20
-17.1000451423
 10
2.1983718023
 20
-17.0973663671
 10
2.2000434398
 20
-17.0946356679
 10
2.2016234035
 20
-17.0918573268
 10
2.2031094617
 20
-17.0890356263
 10
2.2044993828
 20
-17.0861748485
 10
2.2057909349
 20
-17.0832792759
 10
2.2069818864
 20
-17.0803531906
 10
2.2080700057
 20
-17.0774008749
 10
2.209053061
 20
-17.0744266113
 10
2.2099288206
 20
-17.0714346819
 10
2.2106950529
 20
-17.068429369
 10
2.2113495261
 20
-17.065414955
 10
2.2118900086
 20
-17.0623957221
 10
2.2123142687
 20
-17.0593759526
 10
2.2126200747
 20
-17.0563599288
 10
2.2128051948
 20
-17.0533519331
 10
2.2128673975
 20
-17.0503562476
  0
LINE
  5
26D
100
AcDbEntity
  8
ASSI
100
AcDbLine
 62
250
  6
CONTINUOUS
 10
10.3177909151
 20
-26.4994335144
 11
10.2589050735
 21
-26.4405476728
  0
LINE
  5
26E
100
AcDbEntity
  8
ASSI
100
AcDbLine
 62
250
  6
CONTINUOUS
 10
10.821102188
 20
-26.0030874622
 11
10.758733736
 21
-25.9407190103
  0
LINE
  5
26F
100
AcDbEntity
  8
CURVE
100
AcDbLine
 62
250
  6
CONTINUOUS
 10
0.8909842598
 20
-15.9424135395
 11
2.0616277057
 21
-17.1130569854
  0
LWPOLYLINE
  5
270
100
AcDbEntity
  8
CURVE
100
AcDbPolyline
 62
250
  6
CONTINUOUS
 90
32
 70
0
 10
-3.8484335993
 20
-16.4484980663
 10
-3.8555720793
 20
-16.4339654673
 10
-3.8623730272
 20
-16.4192838177
 10
-3.8688539229
 20
-16.4044621011
 10
-3.8750322459
 20
-16.3895093008
 10
-3.8809254762
 20
-16.3744344003
 10
-3.8865510935
 20
-16.3592463831
 10
-3.8919265776
 20
-16.3439542324
 10
-3.8970694082
 20
-16.3285669318
 10
-3.9019970651
 20
-16.3130934647
 10
-3.9067270281
 20
-16.2975428145
 10
-3.9112767769
 20
-16.2819239646
 10
-3.9156637914
 20
-16.2662458986
 10
-3.9199055513
 20
-16.2505175997
 10
-3.9240195364
 20
-16.2347480514
 10
-3.9280232264
 20
-16.2189462371
 10
-3.9319341011
 20
-16.2031211404
 10
-3.9362668091
 20
-16.1851752689
 10
-3.9404834293
 20
-16.1672099461
 10
-3.9445645478
 20
-16.1492240699
 10
-3.9484907505
 20
-16.1312165383
 10
-3.9522426234
 20
-16.1131862491
 10
-3.9558007525
 20
-16.0951321002
 10
-3.9591457238
 20
-16.0770529897
 10
-3.9622581233
 20
-16.0589478154
 10
-3.9651185369
 20
-16.0408154752
 10
-3.9677075508
 20
-16.022654867
 10
-3.9700057508
 20
-16.0044648888
 10
-3.9719937229
 20
-15.9862444385
 10
-3.9736520532
 20
-15.967992414
 10
-3.9749613277
 20
-15.9497077132
 10
-3.9759021322
 20
-15.931389234
  0
LWPOLYLINE
  5
271
100
AcDbEntity
  8
CURVE
100
AcDbPolyline
 62
250
  6
CONTINUOUS
 90
43
 70
0
 10
-4.3045642415
 20
-16.6517586999
 10
-4.2961724203
 20
-16.6725573275
 10
-4.2872271464
 20
-16.6931102994
 10
-4.2777420292
 20
-16.7134160812
 10
-4.2677306779
 20
-16.7334731382
 10
-4.2572067019
 20
-16.753279936
 10
-4.2461837104
 20
-16.7728349401
 10
-4.2346753128
 20
-16.7921366159
 10
-4.2226951184
 20
-16.811183429
 10
-4.2102567365
 20
-16.8299738448
 10
-4.1973737763
 20
-16.8485063287
 10
-4.1840598471
 20
-16.8667793463
 10
-4.1703285584
 20
-16.8847913631
 10
-4.1561935193
 20
-16.9025408445
 10
-4.1416683392
 20
-16.920026256
 10
-4.1267666273
 20
-16.9372460631
 10
-4.111501993
 20
-16.9541987313
 10
-4.0958880456
 20
-16.9708827261
 10
-4.0799383944
 20
-16.9872965129
 10
-4.0636666487
 20
-17.0034385572
 10
-4.0470864177
 20
-17.0193073245
 10
-4.0331174315
 20
-17.0322501246
 10
-4.0189468577
 20
-17.0449854663
 10
-4.0045757225
 20
-17.0574947186
 10
-3.9900050521
 20
-17.0697592504
 10
-3.9752358728
 20
-17.0817604306
 10
-3.9602692107
 20
-17.093479628
 10
-3.945106092
 20
-17.1048982116
 10
-3.9297475429
 20
-17.1159975502
 10
-3.9141945897
 20
-17.1267590129
 10
-3.8984482585
 20
-17.1371639683
 10
-3.8825095756
 20
-17.1471937856
 10
-3.8663795671
 20
-17.1568298334
 10
-3.8500592592
 20
-17.1660534809
 10
-3.8335496782
 20
-17.1748460967
 10
-3.8168518502
 20
-17.1831890499
 10
-3.7999668015
 20
-17.1910637094
 10
-3.7828955582
 20
-17.198451444
 10
-3.7656391466
 20
-17.2053336226
 10
-3.7481985928
 20
-17.2116916142
 10
-3.7305749231
 20
-17.2175067876
 10
-3.7127691636
 20
-17.2227605118
 10
-3.6947823406
 20
-17.2274341555
  0
LWPOLYLINE
  5
272
100
AcDbEntity
  8
CURVE
100
AcDbPolyline
 62
250
  6
CONTINUOUS
 90
49
 70
0
 10
1.8208155313
 20
12.7977150415
 10
1.8875971073
 20
12.8662276675
 10
1.9522339454
 20
12.9370482439
 10
2.0146414644
 20
13.0100689706
 10
2.0747350836
 20
13.0851820476
 10
2.1324302219
 20
13.1622796749
 10
2.1876422985
 20
13.2412540524
 10
2.2402867323
 20
13.3219973799
 10
2.2902789425
 20
13.4044018576
 10
2.3375343482
 20
13.4883596853
 10
2.3819683684
 20
13.573763063
 10
2.4234964221
 20
13.6605041906
 10
2.4620339285
 20
13.7484752681
 10
2.4974159769
 20
13.8373228615
 10
2.5297418013
 20
13.9272061384
 10
2.5590131671
 20
14.0180448866
 10
2.5852318398
 20
14.1097588936
 10
2.6083995849
 20
14.2022679474
 10
2.6285181678
 20
14.2954918356
 10
2.6458297403
 20
14.3908075756
 10
2.6599969629
 20
14.486668696
 10
2.6710182172
 20
14.5829661012
 10
2.678891885
 20
14.6795906958
 10
2.6836163482
 20
14.7764333844
 10
2.6851899885
 20
14.8733850714
 10
2.6836124619
 20
14.9703143096
 10
2.6788856095
 20
15.0671344419
 10
2.6710110926
 20
15.1637364594
 10
2.6599905725
 20
15.260011353
 10
2.6458257105
 20
15.3558501139
 10
2.6285181678
 20
15.4511437331
 10
2.6083970357
 20
15.5443818429
 10
2.585226791
 20
15.6369051966
 10
2.5590063957
 20
15.7286338323
 10
2.5297348121
 20
15.819487788
 10
2.4974110023
 20
15.9093871016
 10
2.4620339285
 20
15.998251811
 10
2.4234899079
 20
16.0862742878
 10
2.381956688
 20
16.1730675975
 10
2.3375188008
 20
16.2585242294
 10
2.2902607779
 20
16.3425366724
 10
2.2402671513
 20
16.4249974159
 10
2.1876224527
 20
16.505798949
 10
2.1324112139
 20
16.5848337607
 10
2.0747179668
 20
16.6619943403
 10
2.0146272431
 20
16.737173177
 10
1.9522235748
 20
16.8102627597
 10
1.8875914936
 20
16.8811555778
 10
1.8208155313
 20
16.9497441203
  0
LWPOLYLINE
  5
273
100
AcDbEntity
  8
CURVE
100
AcDbPolyline
 62
250
  6
CONTINUOUS
 90
49
 70
0
 10
0.9485173544
 20
13.6686351802
 10
0.9874505052
 20
13.7083644786
 10
1.0251406233
 20
13.7494399978
 10
1.0615376164
 20
13.791799279
 10
1.0965913925
 20
13.8353798635
 10
1.1302518592
 20
13.8801192926
 10
1.1624689245
 20
13.9259551075
 10
1.1931924961
 20
13.9728248497
 10
1.222372482
 20
14.0206660603
 10
1.2499587899
 20
14.0694162806
 10
1.2759013276
 20
14.1190130521
 10
1.3001500031
 20
14.1693939158
 10
1.3226547241
 20
14.2204964132
 10
1.3432952347
 20
14.272054266
 10
1.362156072
 20
14.3242191509
 10
1.3792374224
 20
14.3769441378
 10
1.3945394724
 20
14.4301822966
 10
1.4080624084
 20
14.483886697
 10
1.4198064168
 20
14.5380104089
 10
1.4299067275
 20
14.593320147
 10
1.4381734996
 20
14.6489495389
 10
1.4446054398
 20
14.704834656
 10
1.4492012544
 20
14.7609115695
 10
1.4519596501
 20
14.8171163509
 10
1.4528793334
 20
14.8733850714
 10
1.4519596672
 20
14.9296457485
 10
1.4492015865
 20
14.9858424931
 10
1.4446061562
 20
15.0419113623
 10
1.4381744412
 20
15.097788413
 10
1.4299075064
 20
15.1534097023
 10
1.4198064168
 20
15.2087112873
 10
1.4080620294
 20
15.2628220633
 10
1.3945384927
 20
15.3165134405
 10
1.3792359003
 20
15.3697383978
 10
1.3621543457
 20
15.422449914
 10
1.3432939224
 20
15.4746009679
 10
1.3226547241
 20
15.5261445385
 10
1.3001433149
 20
15.5772521992
 10
1.2758880612
 20
15.6276376421
 10
1.249939387
 20
15.6772388892
 10
1.2223477162
 20
15.7259939627
 10
1.1931634729
 20
15.7738408849
 10
1.162437081
 20
15.8207176778
 10
1.1302189646
 20
15.8665623636
 10
1.0965595476
 20
15.9113129645
 10
1.0615092541
 20
15.9549075027
 10
1.0251185081
 20
15.9972840004
 10
0.9874377335
 20
16.0383804796
 10
0.9485173544
 20
16.0781349626
  0
LINE
  5
274
100
AcDbEntity
  8
CURVE
100
AcDbLine
 62
7
  6
CONTINUOUS
 10
2.3317758123
 20
14.9429197224
 11
2.6557581455
 21
15.2669020557
  0
LINE
  5
275
100
AcDbEntity
  8
CURVE
100
AcDbLine
 62
7
  6
CONTINUOUS
 10
3.3960584216
 20
16.0072023317
 11
3.6695112829
 21
16.280655193
  0
LINE
  5
276
100
AcDbEntity
  8
CURVE
100
AcDbLine
 62
7
  6
CONTINUOUS
 10
2.0149379949
 20
13.6304755571
 11
2.6113255495
 21
14.2268631117
  0
LINE
  5
277
100
AcDbEntity
  8
CURVE
100
AcDbLine
 62
7
  6
CONTINUOUS
 10
3.5534063568
 20
15.168943919
 11
3.868432873
 21
15.4839704352
  0
LINE
  5
278
100
AcDbEntity
  8
CURVE
100
AcDbLine
 62
7
  6
CONTINUOUS
 10
3.4914967466
 20
14.1114279609
 11
3.9006375693
 21
14.5205687837
  0
LINE
  5
279
100
AcDbEntity
  8
CURVE
100
AcDbLine
 62
250
  6
CONTINUOUS
 10
3.4158947409
 20
-16.3317093294
 11
3.1699149233
 21
-16.0822844162
  0
LWPOLYLINE
  5
27A
100
AcDbEntity
  8
CURVE
100
AcDbPolyline
 62
250
  6
CONTINUOUS
 90
49
 70
0
 10
3.1699149233
 20
-14.1716344601
 10
3.2008176281
 20
-14.2031471605
 10
3.2307366297
 20
-14.2357269667
 10
3.2596316797
 20
-14.2693246107
 10
3.2874625293
 20
-14.3038908247
 10
3.31418893
 20
-14.3393763406
 10
3.3397706331
 20
-14.3757318907
 10
3.3641673901
 20
-14.412908207
 10
3.3873389523
 20
-14.4508560216
 10
3.4092450712
 20
-14.4895260667
 10
3.4298454981
 20
-14.5288690742
 10
3.4490999844
 20
-14.5688357764
 10
3.4669682815
 20
-14.6093769052
 10
3.4833408906
 20
-14.6502455825
 10
3.4983009889
 20
-14.6915968839
 10
3.5118487624
 20
-14.7333933334
 10
3.5239843973
 20
-14.775597455
 10
3.5347080795
 20
-14.8181717729
 10
3.5440199952
 20
-14.8610788111
 10
3.5520276921
 20
-14.9049276029
 10
3.5585807071
 20
-14.9490298455
 10
3.5636784936
 20
-14.9933348446
 10
3.5673205054
 20
-15.037791906
 10
3.5695061959
 20
-15.0823503353
 10
3.5702350187
 20
-15.1269594382
 10
3.5695061597
 20
-15.1715846282
 10
3.567319838
 20
-15.2161591316
 10
3.5636770571
 20
-15.2606322823
 10
3.5585788207
 20
-15.3049534143
 10
3.5520261322
 20
-15.3490718617
 10
3.5440199952
 20
-15.3929369585
 10
3.5347088418
 20
-15.4358698661
 10
3.5239863654
 20
-15.4784702278
 10
3.5118518186
 20
-15.5207007505
 10
3.498304454
 20
-15.5625241411
 10
3.4833435241
 20
-15.6039031064
 10
3.4669682815
 20
-15.6448003533
 10
3.4491133521
 20
-15.6853311746
 10
3.4298720126
 20
-15.7252887416
 10
3.4092838488
 20
-15.7646228224
 10
3.3873884464
 20
-15.8032831851
 10
3.364225391
 20
-15.841219598
 10
3.3398342685
 20
-15.8783818291
 10
3.3142546646
 20
-15.9147196467
 10
3.2875261649
 20
-15.9501828188
 10
3.2596883552
 20
-15.9847211137
 10
3.2307808212
 20
-16.0182842994
 10
3.2008431487
 20
-16.0508221442
 10
3.1699149233
 20
-16.0822844162
  0
LWPOLYLINE
  5
27B
100
AcDbEntity
  8
CURVE
100
AcDbPolyline
 62
250
  6
CONTINUOUS
 90
32
 70
0
 10
-2.5413643722
 20
-13.780271613
 10
-2.5341274211
 20
-13.7949140655
 10
-2.5272234197
 20
-13.8097047248
 10
-2.5206356076
 20
-13.8246348794
 10
-2.5143472244
 20
-13.8396958178
 10
-2.5083415098
 20
-13.8548788284
 10
-2.5026017035
 20
-13.8701751997
 10
-2.4971110451
 20
-13.8855762201
 10
-2.4918527743
 20
-13.9010731782
 10
-2.4868101309
 20
-13.9166573624
 10
-2.4819663543
 20
-13.9323200612
 10
-2.4773046844
 20
-13.948052563
 10
-2.4728083608
 20
-13.9638461564
 10
-2.4684606232
 20
-13.9796921297
 10
-2.4642447111
 20
-13.9955817714
 10
-2.4601438644
 20
-14.01150637
 10
-2.4561413226
 20
-14.027457214
 10
-2.4517632299
 20
-14.0453387443
 10
-2.4475075631
 20
-14.063243015
 10
-2.443394527
 20
-14.0811707865
 10
-2.4394443262
 20
-14.0991228196
 10
-2.4356771655
 20
-14.1170998748
 10
-2.4321132496
 20
-14.1351027127
 10
-2.4287727832
 20
-14.153132094
 10
-2.425675971
 20
-14.1711887791
 10
-2.4228430178
 20
-14.1892735287
 10
-2.4202941283
 20
-14.2073871034
 10
-2.4180495072
 20
-14.2255302638
 10
-2.4161293592
 20
-14.2437037704
 10
-2.414553889
 20
-14.261908384
 10
-2.4133433014
 20
-14.2801448649
 10
-2.412517801
 20
-14.298413974
  0
LWPOLYLINE
  5
27C
100
AcDbEntity
  8
CURVE
100
AcDbPolyline
 62
250
  6
CONTINUOUS
 90
49
 70
0
 10
2.692424689
 20
11.9261058838
 10
2.78712751
 20
12.0234766714
 10
2.878782116
 20
12.1241186951
 10
2.9672695202
 20
12.2278787668
 10
3.0524707358
 20
12.3346036987
 10
3.1342667761
 20
12.4441403028
 10
3.2125386543
 20
12.5563353912
 10
3.2871673836
 20
12.671035776
 10
3.3580339773
 20
12.7880882693
 10
3.4250194486
 20
12.9073396831
 10
3.4880048106
 20
13.0286368296
 10
3.5468710768
 20
13.1518265208
 10
3.6014992602
 20
13.2767555687
 10
3.651652657
 20
13.4029125911
 10
3.697475983
 20
13.5305336888
 10
3.7389713009
 20
13.6595058459
 10
3.7761406734
 20
13.7897160467
 10
3.8089861631
 20
13.9210512754
 10
3.8375098328
 20
14.0533985163
 10
3.8620437401
 20
14.188647875
 10
3.8821239313
 20
14.3246690885
 10
3.8977472873
 20
14.4613077859
 10
3.9089106889
 20
14.5984095961
 10
3.9156110172
 20
14.7358201483
 10
3.9178451531
 20
14.8733850714
 10
3.9156110172
 20
15.0109499945
 10
3.9089106889
 20
15.1483605467
 10
3.8977472873
 20
15.2854623569
 10
3.8821239313
 20
15.4221010543
 10
3.8620437401
 20
15.5581222678
 10
3.8375098328
 20
15.6933716265
 10
3.8089861631
 20
15.8257188674
 10
3.7761406734
 20
15.9570540961
 10
3.7389713009
 20
16.0872642969
 10
3.697475983
 20
16.216236454
 10
3.651652657
 20
16.3438575516
 10
3.6014992602
 20
16.470014574
 10
3.5468710768
 20
16.594943622
 10
3.4880048106
 20
16.7181333132
 10
3.4250194486
 20
16.8394304597
 10
3.3580339773
 20
16.9586818735
 10
3.2871673836
 20
17.0757343668
 10
3.2125386543
 20
17.1904347516
 10
3.1342667761
 20
17.30262984
 10
3.0524707358
 20
17.4121664441
 10
2.9672695202
 20
17.518891376
 10
2.878782116
 20
17.6226514477
 10
2.78712751
 20
17.7232934713
 10
2.692424689
 20
17.820664259
  0
LINE
  5
27D
100
AcDbEntity
  8
ASSI
100
AcDbLine
 62
7
  6
CONTINUOUS
 10
-10.345934773
 20
0.0620706969
 11
-10.3353094176
 21
0.0726960523
  0
LINE
  5
27E
100
AcDbEntity
  8
CURVE
100
AcDbLine
 62
7
  6
CONTINUOUS
 10
2.4976469252
 20
12.1219717916
 11
3.5549119573
 21
13.1792368237
  0
LINE
  5
27F
100
AcDbEntity
  8
ASSI
100
AcDbLine
 62
250
  6
CONTINUOUS
 10
-11.354509989
 20
0.5533431847
 11
-11.2677537141
 21
0.6111733592
  0
LINE
  5
280
100
AcDbEntity
  8
ASSI
100
AcDbLine
 62
250
  6
CONTINUOUS
 10
-10.8545670965
 20
0.0534954809
 11
-10.7679250516
 21
0.1112495116
  0
LINE
  5
281
100
AcDbEntity
  8
ASSI
100
AcDbLine
 62
250
  6
CONTINUOUS
 10
-11.2677537141
 20
-0.8657812546
 11
-11.354509989
 21
-0.8079510801
  0
LINE
  5
282
100
AcDbEntity
  8
ASSI
100
AcDbLine
 62
250
  6
CONTINUOUS
 10
-10.7679250516
 20
-0.365857407
 11
-10.8545670965
 21
-0.3081033763
  0
LINE
  5
283
100
AcDbEntity
  8
ASSI
100
AcDbLine
 62
7
  6
CONTINUOUS
 10
-10.345934773
 20
-0.3166785923
 11
-10.3353094176
 21
-0.3273039477
  0
LWPOLYLINE
  5
284
100
AcDbEntity
  8
CURVE
100
AcDbPolyline
 62
250
  6
CONTINUOUS
 90
43
 70
0
 10
-2.0852337299
 20
-13.5770109794
 10
-2.0935622315
 20
-13.5563226337
 10
-2.1024502103
 20
-13.5358822981
 10
-2.1118834461
 20
-13.515691371
 10
-2.1218477186
 20
-13.4957512507
 10
-2.1323288076
 20
-13.4760633353
 10
-2.1433124927
 20
-13.4566290234
 10
-2.1547845539
 20
-13.437449713
 10
-2.1667307707
 20
-13.4185268025
 10
-2.179136923
 20
-13.3998616903
 10
-2.1919887904
 20
-13.3814557745
 10
-2.2052721528
 20
-13.3633104535
 10
-2.2189727898
 20
-13.3454271257
 10
-2.2330764813
 20
-13.3278071892
 10
-2.2475690069
 20
-13.3104520424
 10
-2.2624361464
 20
-13.2933630835
 10
-2.2776636796
 20
-13.2765417109
 10
-2.2932373861
 20
-13.2599893229
 10
-2.3091430458
 20
-13.2437073177
 10
-2.3253664384
 20
-13.2276970936
 10
-2.3418933436
 20
-13.211960049
 10
-2.3559392189
 20
-13.1990123877
 10
-2.3701863436
 20
-13.1862750009
 10
-2.3846336224
 20
-13.1737661109
 10
-2.3992799603
 20
-13.1615039399
 10
-2.414124262
 20
-13.14950671
 10
-2.4291654324
 20
-13.1377926433
 10
-2.4444023763
 20
-13.1263799622
 10
-2.4598339986
 20
-13.1152868888
 10
-2.4754592041
 20
-13.1045316452
 10
-2.4912768977
 20
-13.0941324537
 10
-2.5072859841
 20
-13.0841075365
 10
-2.5234853683
 20
-13.0744751156
 10
-2.539873955
 20
-13.0652534133
 10
-2.5564506492
 20
-13.0564606519
 10
-2.5732143556
 20
-13.0481150534
 10
-2.5901639791
 20
-13.04023484
 10
-2.6072984245
 20
-13.032838234
 10
-2.6246165967
 20
-13.0259434576
 10
-2.6421174005
 20
-13.0195687328
 10
-2.6597997407
 20
-13.0137322819
 10
-2.6776625222
 20
-13.0084523271
 10
-2.6957046499
 20
-13.0037470906
  0
LWPOLYLINE
  5
285
100
AcDbEntity
  8
CURVE
100
AcDbPolyline
 62
250
  6
CONTINUOUS
 90
19
 70
0
 10
-3.9759021322
 20
-15.931389234
 10
-3.9820315978
 20
-15.8596440104
 10
-3.9870587296
 20
-15.787808041
 10
-3.9911527816
 20
-15.7159037246
 10
-3.9944830073
 20
-15.6439534605
 10
-3.9972186605
 20
-15.5719796475
 10
-4.0005372229
 20
-15.4620283285
 10
-4.0028869192
 20
-15.3520641304
 10
-4.0043710378
 20
-15.2334895095
 10
-4.0048409343
 20
-15.114901604
 10
-4.0043453193
 20
-14.9957941129
 10
-4.0028061748
 20
-14.876700166
 10
-4.0003437481
 20
-14.7656813327
 10
-3.9968310873
 20
-14.6546799108
 10
-3.9938264362
 20
-14.5799526535
 10
-3.9901734821
 20
-14.5052524708
 10
-3.9857232523
 20
-14.4306012262
 10
-3.9803267742
 20
-14.3560207835
 10
-3.9738350749
 20
-14.2815330061
  0
LWPOLYLINE
  5
286
100
AcDbEntity
  8
CURVE
100
AcDbPolyline
 62
250
  6
CONTINUOUS
 90
32
 70
0
 10
-4.4744074489
 20
-15.9637731315
 10
-4.4733143533
 20
-15.9882417831
 10
-4.4717364112
 20
-16.0126713967
 10
-4.4696965196
 20
-16.037062373
 10
-4.4672175757
 20
-16.0614151127
 10
-4.4643224766
 20
-16.0857300161
 10
-4.4610341194
 20
-16.1100074841
 10
-4.4573754011
 20
-16.1342479172
 10
-4.4533692189
 20
-16.1584517159
 10
-4.4490384698
 20
-16.1826192808
 10
-4.444406051
 20
-16.2067510127
 10
-4.4394948596
 20
-16.230847312
 10
-4.4343277927
 20
-16.2549085793
 10
-4.4289277473
 20
-16.2789352153
 10
-4.4233176207
 20
-16.3029276206
 10
-4.4175203097
 20
-16.3268861957
 10
-4.4122921019
 20
-16.347876047
 10
-4.406916663
 20
-16.3688285834
 10
-4.4013732127
 20
-16.3897322202
 10
-4.3956409707
 20
-16.4105753731
 10
-4.3896991564
 20
-16.4313464575
 10
-4.3835269895
 20
-16.4520338889
 10
-4.3771036897
 20
-16.4726260829
 10
-4.3704084764
 20
-16.4931114549
 10
-4.3634205694
 20
-16.5134784204
 10
-4.3561191882
 20
-16.5337153949
 10
-4.3484835525
 20
-16.553810794
 10
-4.3404928818
 20
-16.5737530331
 10
-4.3321263957
 20
-16.5935305277
 10
-4.3233633139
 20
-16.6131316934
 10
-4.314182856
 20
-16.6325449457
 10
-4.3045642415
 20
-16.6517586999
  0
LINE
  5
287
100
AcDbEntity
  8
CURVE
100
AcDbLine
 62
250
  6
CONTINUOUS
 10
-4.507479989
 20
12.6633560523
 11
-4.507479989
 21
17.0641210523
  0
LINE
  5
288
100
AcDbEntity
  8
CURVE
100
AcDbLine
 62
250
  6
CONTINUOUS
 10
-4.007252989
 20
17.0641210523
 11
-4.007252989
 21
12.6633560523
  0
LWPOLYLINE
  5
289
100
AcDbEntity
  8
CURVE
100
AcDbPolyline
 62
250
  6
CONTINUOUS
 90
19
 70
0
 10
-2.412517801
 20
-14.298413974
 10
-2.4062487706
 20
-14.3699455756
 10
-2.4011098996
 20
-14.4415725733
 10
-2.3969265209
 20
-14.513271376
 10
-2.3935239674
 20
-14.5850183925
 10
-2.3907275721
 20
-14.6567900318
 10
-2.3873184259
 20
-14.7668702484
 10
-2.3849032075
 20
-14.8769639311
 10
-2.3833755273
 20
-14.9959257999
 10
-2.3828899798
 20
-15.114901604
 10
-2.3833830959
 20
-15.2337990239
 10
-2.3849139734
 20
-15.352683171
 10
-2.3873513303
 20
-15.4635242662
 10
-2.3908136995
 20
-15.5743481506
 10
-2.3937596794
 20
-15.6488110299
 10
-2.3973301972
 20
-15.7232482356
 10
-2.4016670372
 20
-15.7976395011
 10
-2.4069119834
 20
-15.8719645597
 10
-2.4132068201
 20
-15.9462031446
  0
LWPOLYLINE
  5
28A
100
AcDbEntity
  8
CURVE
100
AcDbPolyline
 62
250
  6
CONTINUOUS
 90
32
 70
0
 10
-1.9140124843
 20
-14.267063605
 10
-1.9149984297
 20
-14.2426368635
 10
-1.9164856865
 20
-14.2182483248
 10
-1.9184503331
 20
-14.193897819
 10
-1.9208684481
 20
-14.1695851764
 10
-1.9237161103
 20
-14.145310227
 10
-1.9269693981
 20
-14.1210728011
 10
-1.9306043902
 20
-14.0968727287
 10
-1.9345971652
 20
-14.0727098401
 10
-1.9389238017
 20
-14.0485839653
 10
-1.9435603783
 20
-14.0244949345
 10
-1.9484829736
 20
-14.0004425779
 10
-1.9536676662
 20
-13.9764267257
 10
-1.9590905347
 20
-13.9524472079
 10
-1.9647276578
 20
-13.9285038547
 10
-1.9705551139
 20
-13.9045964963
 10
-1.9758701106
 20
-13.8834232755
 10
-1.9813365093
 20
-13.8622897151
 10
-1.9869747928
 20
-13.8412072915
 10
-1.9928054442
 20
-13.8201874812
 10
-1.9988489463
 20
-13.7992417603
 10
-2.0051257821
 20
-13.7783816054
 10
-2.0116564344
 20
-13.7576184927
 10
-2.0184613861
 20
-13.7369638986
 10
-2.0255611202
 20
-13.7164292996
 10
-2.0329761197
 20
-13.6960261718
 10
-2.0407268672
 20
-13.6757659917
 10
-2.0488338459
 20
-13.6556602357
 10
-2.0573175386
 20
-13.6357203801
 10
-2.0661984283
 20
-13.6159579013
 10
-2.0754969977
 20
-13.5963842756
 10
-2.0852337299
 20
-13.5770109794
  0
LWPOLYLINE
  5
28B
100
AcDbEntity
  8
CURVE
100
AcDbPolyline
 62
250
  6
CONTINUOUS
 90
55
 70
0
 10
-2.6891589685
 20
14.146469924
 10
-2.6891111484
 20
14.1441462848
 10
-2.6889690056
 20
14.1418142029
 10
-2.6887345164
 20
14.1394756545
 10
-2.6884096569
 20
14.1371326159
 10
-2.6879964036
 20
14.1347870634
 10
-2.6874967326
 20
14.1324409731
 10
-2.6869126202
 20
14.1300963215
 10
-2.6862460427
 20
14.1277550846
 10
-2.6854989763
 20
14.1254192388
 10
-2.6846733972
 20
14.1230907604
 10
-2.6837712818
 20
14.1207716255
 10
-2.6827946063
 20
14.1184638105
 10
-2.6817453469
 20
14.1161692916
 10
-2.6806254799
 20
14.1138900451
 10
-2.6794369815
 20
14.1116280472
 10
-2.6781818281
 20
14.1093852742
 10
-2.6768619959
 20
14.1071637023
 10
-2.6754794611
 20
14.1049653079
 10
-2.6740362
 20
14.102792067
 10
-2.6725341889
 20
14.1006459562
 10
-2.6709754039
 20
14.0985289514
 10
-2.6693618215
 20
14.0964430292
 10
-2.6676954177
 20
14.0943901656
 10
-2.665978169
 20
14.0923723369
 10
-2.6642120514
 20
14.0903915195
 10
-2.6623990414
 20
14.0884496896
 10
-2.6605411152
 20
14.0865488233
 10
-2.6586402489
 20
14.0846908971
 10
-2.656698419
 20
14.0828778871
 10
-2.6547176016
 20
14.0811117695
 10
-2.6526997729
 20
14.0793945208
 10
-2.6506469093
 20
14.077728117
 10
-2.6485609871
 20
14.0761145346
 10
-2.6464439823
 20
14.0745557496
 10
-2.6442978715
 20
14.0730537385
 10
-2.6421246306
 20
14.0716104774
 10
-2.6399262362
 20
14.0702279426
 10
-2.6377046643
 20
14.0689081104
 10
-2.6354618913
 20
14.067652957
 10
-2.6331998934
 20
14.0664644586
 10
-2.6309206469
 20
14.0653445916
 10
-2.628626128
 20
14.0642953322
 10
-2.626318313
 20
14.0633186567
 10
-2.6239991781
 20
14.0624165413
 10
-2.6216706997
 20
14.0615909622
 10
-2.6193348539
 20
14.0608438958
 10
-2.616993617
 20
14.0601773183
 10
-2.6146489654
 20
14.0595932059
 10
-2.6123028751
 20
14.0590935349
 10
-2.6099573226
 20
14.0586802816
 10
-2.607614284
 20
14.0583554221
 10
-2.6052757356
 20
14.0581209329
 10
-2.6029436537
 20
14.0579787901
 10
-2.6006200145
 20
14.05793097
  0
LINE
  5
28C
100
AcDbEntity
  8
CURVE
100
AcDbLine
 62
250
  6
CONTINUOUS
 10
-2.6891589685
 20
15.6006447283
 11
-2.6891589685
 21
14.146469924
  0
LWPOLYLINE
  5
28D
100
AcDbEntity
  8
CURVE
100
AcDbPolyline
 62
250
  6
CONTINUOUS
 90
32
 70
0
 10
-3.9738350749
 20
-14.2815330061
 10
-3.9732219718
 20
-14.2651340182
 10
-3.9722392299
 20
-14.2487632307
 10
-3.9709059062
 20
-14.232420516
 10
-3.969241058
 20
-14.2161057466
 10
-3.9672637423
 20
-14.1998187949
 10
-3.9649930161
 20
-14.1835595335
 10
-3.9624479367
 20
-14.1673278348
 10
-3.9596475611
 20
-14.1511235712
 10
-3.9566109463
 20
-14.1349466153
 10
-3.9533571496
 20
-14.1187968395
 10
-3.9499052279
 20
-14.1026741163
 10
-3.9462742385
 20
-14.0865783181
 10
-3.9424832383
 20
-14.0705093175
 10
-3.9385512845
 20
-14.0544669869
 10
-3.9344974342
 20
-14.0384511988
 10
-3.9303407444
 20
-14.0224618256
 10
-3.9254839238
 20
-14.0042317296
 10
-3.9205012019
 20
-13.9860441057
 10
-3.9153759885
 20
-13.9679071287
 10
-3.9100916936
 20
-13.9498289732
 10
-3.9046317268
 20
-13.9318178141
 10
-3.898979498
 20
-13.9138818262
 10
-3.8931184172
 20
-13.8960291842
 10
-3.8870318941
 20
-13.8782680628
 10
-3.8807033385
 20
-13.860606637
 10
-3.8741161603
 20
-13.8430530813
 10
-3.8672537694
 20
-13.8256155706
 10
-3.8600995755
 20
-13.8083022797
 10
-3.8526369885
 20
-13.7911213833
 10
-3.8448494183
 20
-13.7740810563
 10
-3.8367202746
 20
-13.7571894732
  0
LWPOLYLINE
  5
28E
100
AcDbEntity
  8
CURVE
100
AcDbPolyline
 62
250
  6
CONTINUOUS
 90
21
 70
0
 10
-4.4726849012
 20
-14.2501826372
 10
-4.4785104134
 20
-14.3137424021
 10
-4.4834420712
 20
-14.37737994
 10
-4.4875911695
 20
-14.4410806588
 10
-4.4910690037
 20
-14.5048299666
 10
-4.4939868688
 20
-14.5686132714
 10
-4.49645606
 20
-14.6324159813
 10
-4.5001767325
 20
-14.7530230778
 10
-4.5027538746
 20
-14.8736427755
 10
-4.5042491668
 20
-14.9942704818
 10
-4.5047242892
 20
-15.114901604
 10
-4.5042308716
 20
-15.2346483607
 10
-4.5027517298
 20
-15.3543913909
 10
-4.5002456401
 20
-15.4741281276
 10
-4.4966713785
 20
-15.5938560038
 10
-4.494378416
 20
-15.6555995435
 10
-4.4916737909
 20
-15.7173258001
 10
-4.4884409423
 20
-15.7790205305
 10
-4.4845633096
 20
-15.8406694914
 10
-4.4799243321
 20
-15.9022584395
 10
-4.4744074489
 20
-15.9637731315
  0
LWPOLYLINE
  5
28F
100
AcDbEntity
  8
CURVE
100
AcDbPolyline
 62
250
  6
CONTINUOUS
 90
55
 70
0
 10
-0.2214370724
 20
-15.8538745856
 10
-0.2213892523
 20
-15.8561982247
 10
-0.2212471095
 20
-15.8585303066
 10
-0.2210126203
 20
-15.860868855
 10
-0.2206877609
 20
-15.8632118936
 10
-0.2202745075
 20
-15.8655574462
 10
-0.2197748365
 20
-15.8679035364
 10
-0.2191907242
 20
-15.8702481881
 10
-0.2185241466
 20
-15.872589425
 10
-0.2177770802
 20
-15.8749252707
 10
-0.2169515011
 20
-15.8772537492
 10
-0.2160493857
 20
-15.879572884
 10
-0.2150727102
 20
-15.881880699
 10
-0.2140234508
 20
-15.8841752179
 10
-0.2129035838
 20
-15.8864544645
 10
-0.2117150855
 20
-15.8887164624
 10
-0.2104599321
 20
-15.8909592354
 10
-0.2091400998
 20
-15.8931808072
 10
-0.207757565
 20
-15.8953792017
 10
-0.2063143039
 20
-15.8975524425
 10
-0.2048122928
 20
-15.8996985534
 10
-0.2032535078
 20
-15.9018155581
 10
-0.2016399254
 20
-15.9039014804
 10
-0.1999735216
 20
-15.905954344
 10
-0.1982562729
 20
-15.9079721726
 10
-0.1964901554
 20
-15.90995299
 10
-0.1946771453
 20
-15.91189482
 10
-0.1928192191
 20
-15.9137956862
 10
-0.1909183529
 20
-15.9156536125
 10
-0.1889765229
 20
-15.9174666225
 10
-0.1869957055
 20
-15.91923274
 10
-0.1849778768
 20
-15.9209499888
 10
-0.1829250132
 20
-15.9226163925
 10
-0.180839091
 20
-15.924229975
 10
-0.1787220863
 20
-15.9257887599
 10
-0.1765759754
 20
-15.9272907711
 10
-0.1744027346
 20
-15.9287340322
 10
-0.1722043401
 20
-15.930116567
 10
-0.1699827682
 20
-15.9314363992
 10
-0.1677399952
 20
-15.9326915526
 10
-0.1654779973
 20
-15.9338800509
 10
-0.1631987508
 20
-15.9349999179
 10
-0.1609042319
 20
-15.9360491773
 10
-0.1585964169
 20
-15.9370258528
 10
-0.1562772821
 20
-15.9379279683
 10
-0.1539488036
 20
-15.9387535473
 10
-0.1516129578
 20
-15.9395006137
 10
-0.149271721
 20
-15.9401671913
 10
-0.1469270693
 20
-15.9407513037
 10
-0.144580979
 20
-15.9412509747
 10
-0.1422354265
 20
-15.941664228
 10
-0.1398923879
 20
-15.9419890874
 10
-0.1375538395
 20
-15.9422235766
 10
-0.1352217576
 20
-15.9423657194
 10
-0.1328981184
 20
-15.9424135395
  0
LINE
  5
290
100
AcDbEntity
  8
CURVE
100
AcDbLine
 62
250
  6
CONTINUOUS
 10
-0.254509989
 20
12.949988262
 11
-0.254509989
 21
16.7971263903
  0
LINE
  5
291
100
AcDbEntity
  8
CURVE
100
AcDbLine
 62
250
  6
CONTINUOUS
 10
-0.2214370724
 20
-14.3996997812
 11
-0.2214370724
 21
-15.8538745856
  0
LWPOLYLINE
  5
292
100
AcDbEntity
  8
CURVE
100
AcDbPolyline
 62
250
  6
CONTINUOUS
 90
31
 70
0
 10
-2.4132068201
 20
-15.9462031446
 10
-2.4140331534
 20
-15.9638523605
 10
-2.415252059
 20
-15.9814684829
 10
-2.4168423346
 20
-15.9990519938
 10
-2.4187827778
 20
-16.0166033751
 10
-2.4210521864
 20
-16.0341231091
 10
-2.423629358
 20
-16.0516116776
 10
-2.4264930902
 20
-16.0690695629
 10
-2.4296221807
 20
-16.0864972468
 10
-2.4329954273
 20
-16.1038952116
 10
-2.4365916274
 20
-16.1212639392
 10
-2.4403895789
 20
-16.1386039117
 10
-2.4443680794
 20
-16.1559156112
 10
-2.4485059265
 20
-16.1731995197
 10
-2.4527819179
 20
-16.1904561192
 10
-2.4571748512
 20
-16.2076858919
 10
-2.4618917082
 20
-16.2257266483
 10
-2.4667316599
 20
-16.2437294037
 10
-2.4717124887
 20
-16.2616851363
 10
-2.4768519768
 20
-16.2795848241
 10
-2.4821679065
 20
-16.2974194452
 10
-2.4876780599
 20
-16.3151799778
 10
-2.4934002194
 20
-16.3328573998
 10
-2.4993521672
 20
-16.3504426894
 10
-2.5055516855
 20
-16.3679268247
 10
-2.5120165565
 20
-16.3853007837
 10
-2.5187645626
 20
-16.4025555445
 10
-2.525813486
 20
-16.4196820853
 10
-2.5331811089
 20
-16.436671384
 10
-2.5408852136
 20
-16.4535144188
 10
-2.5489435822
 20
-16.4702021679
  0
LWPOLYLINE
  5
293
100
AcDbEntity
  8
CURVE
100
AcDbPolyline
 62
250
  6
CONTINUOUS
 90
21
 70
0
 10
-1.9143569938
 20
-15.9789315517
 10
-1.9087340389
 20
-15.9152893502
 10
-1.9039689098
 20
-15.8515751902
 10
-1.8999553231
 20
-15.787802502
 10
-1.8965869952
 20
-15.7239847158
 10
-1.8937576425
 20
-15.6601352619
 10
-1.8913609815
 20
-15.5962675706
 10
-1.8877571178
 20
-15.4759394808
 10
-1.8852571271
 20
-15.355599207
 10
-1.8838066018
 20
-15.2352516233
 10
-1.8833511345
 20
-15.114901604
 10
-1.8838513147
 20
-14.9948006392
 10
-1.8853357363
 20
-14.8747034815
 10
-1.8878518506
 20
-14.7546115097
 10
-1.8914471089
 20
-14.6345261022
 10
-1.8937355565
 20
-14.5731855883
 10
-1.8964444291
 20
-14.5118628471
 10
-1.8997001424
 20
-14.4505735784
 10
-1.9036291123
 20
-14.3893334819
 10
-1.9083577543
 20
-14.3281582575
 10
-1.9140124843
 20
-14.267063605
  0
LWPOLYLINE
  5
294
100
AcDbEntity
  8
ASSI
100
AcDbPolyline
 62
250
  6
CONTINUOUS
 90
16
 70
0
 10
10.2589050735
 20
0.1112495116
 10
10.3111362612
 20
0.1140104218
 10
10.3627955256
 20
0.1222151881
 10
10.4133172058
 20
0.1357739697
 10
10.4621480974
 20
0.1545382999
 10
10.5087535098
 20
0.1783027123
 10
10.5526231211
 20
0.2068069903
 10
10.5932765658
 20
0.2397390166
 10
10.6302686953
 20
0.2767381907
 10
10.6631944513
 20
0.3173993773
 10
10.6916933022
 20
0.3612773429
 10
10.7154531899
 20
0.4078916306
 10
10.7342139474
 20
0.4567318214
 10
10.7477701473
 20
0.5072631227
 10
10.7559733515
 20
0.5589322248
 10
10.758733736
 20
0.6111733592
  0
LINE
  5
295
100
AcDbEntity
  8
ASSI
100
AcDbLine
 62
250
  6
CONTINUOUS
 10
-11.2677537141
 20
-0.8657812546
 11
10.758733736
 21
-0.8657812546
  0
LINE
  5
296
100
AcDbEntity
  8
ASSI
100
AcDbLine
 62
250
  6
CONTINUOUS
 10
10.2589050735
 20
-0.365857407
 11
-10.7679250516
 21
-0.365857407
  0
LINE
  5
297
100
AcDbEntity
  8
ASSI
100
AcDbLine
 62
7
  6
CONTINUOUS
 10
-10.3353094176
 20
-0.3273039477
 11
9.8262894395
 21
-0.3273039477
  0
LINE
  5
298
100
AcDbEntity
  8
ASSI
100
AcDbLine
 62
7
  6
CONTINUOUS
 10
-10.8545670965
 20
-0.3081033763
 11
-10.8458586206
 21
-0.3081033763
  0
LINE
  5
299
100
AcDbEntity
  8
ASSI
100
AcDbLine
 62
7
  6
CONTINUOUS
 10
10.3368386425
 20
-0.3081033763
 11
10.3455471184
 21
-0.3081033763
  0
LINE
  5
29A
100
AcDbEntity
  8
ASSI
100
AcDbLine
 62
7
  6
CONTINUOUS
 10
10.3455471184
 20
0.0534954809
 11
10.3368386425
 21
0.0534954809
  0
LINE
  5
29B
100
AcDbEntity
  8
ASSI
100
AcDbLine
 62
7
  6
CONTINUOUS
 10
-10.8458586206
 20
0.0534954809
 11
-10.8545670965
 21
0.0534954809
  0
LINE
  5
29C
100
AcDbEntity
  8
ASSI
100
AcDbLine
 62
7
  6
CONTINUOUS
 10
9.8262894395
 20
0.0726960523
 11
-10.3353094176
 21
0.0726960523
  0
LINE
  5
29D
100
AcDbEntity
  8
ASSI
100
AcDbLine
 62
250
  6
CONTINUOUS
 10
-10.7679250516
 20
0.1112495116
 11
10.2589050735
 21
0.1112495116
  0
LWPOLYLINE
  5
29E
100
AcDbEntity
  8
CURVE
100
AcDbPolyline
 62
250
  6
CONTINUOUS
 90
67
 70
0
 10
-0.254509989
 20
16.7971263903
 10
-0.2545721917
 20
16.8001220758
 10
-0.2547573118
 20
16.8031300716
 10
-0.2550631178
 20
16.8061460954
 10
-0.2554873779
 20
16.8091658648
 10
-0.2560278604
 20
16.8121850977
 10
-0.2566823336
 20
16.8151995118
 10
-0.2574485659
 20
16.8182048246
 10
-0.2583243256
 20
16.821196754
 10
-0.2593073808
 20
16.8241710177
 10
-0.2603955001
 20
16.8271233333
 10
-0.2615864517
 20
16.8300494186
 10
-0.2628780038
 20
16.8329449913
 10
-0.2642679248
 20
16.835805769
 10
-0.265753983
 20
16.8386274696
 10
-0.2673339467
 20
16.8414058106
 10
-0.2690055843
 20
16.8441365099
 10
-0.2707666639
 20
16.8468152851
 10
-0.2726149541
 20
16.8494378539
 10
-0.2745482229
 20
16.851999934
 10
-0.2765642388
 20
16.8544972432
 10
-0.27866077
 20
16.8569254992
 10
-0.280835585
 20
16.8592804196
 10
-0.2830864519
 20
16.8615577221
 10
-0.285411139
 20
16.8637531246
 10
-0.2878074148
 20
16.8658623446
 10
-0.2902730475
 20
16.8678810999
 10
-0.2928058054
 20
16.8698051082
 10
-0.2954034568
 20
16.8716300873
 10
-0.29806377
 20
16.8733517547
 10
-0.3007845133
 20
16.8749658283
 10
-0.3035634551
 20
16.8764680257
 10
-0.3063983637
 20
16.8778540647
 10
-0.3092870073
 20
16.8791196629
 10
-0.312219713
 20
16.8802589272
 10
-0.3151991019
 20
16.8812755066
 10
-0.318220598
 20
16.8821708472
 10
-0.3212796257
 20
16.8829463949
 10
-0.3243716093
 20
16.8836035958
 10
-0.3274919729
 20
16.8841438959
 10
-0.3306361409
 20
16.884568741
 10
-0.3337995374
 20
16.8848795773
 10
-0.3369775868
 20
16.8850778507
 10
-0.3401657133
 20
16.8851650072
 10
-0.3433593411
 20
16.8851424929
 10
-0.3465538946
 20
16.8850117536
 10
-0.3497447978
 20
16.8847742354
 10
-0.3529274752
 20
16.8844313842
 10
-0.3560973509
 20
16.8839846462
 10
-0.3592498492
 20
16.8834354672
 10
-0.3623803944
 20
16.8827852933
 10
-0.3654844107
 20
16.8820355704
 10
-0.3685573224
 20
16.8811877446
 10
-0.3715945537
 20
16.8802432618
 10
-0.3745915289
 20
16.879203568
 10
-0.3775436722
 20
16.8780701092
 10
-0.3804464078
 20
16.8768443315
 10
-0.3832951601
 20
16.8755276808
 10
-0.3860853533
 20
16.874121603
 10
-0.3888124116
 20
16.8726275443
 10
-0.3914717593
 20
16.8710469505
 10
-0.3940588207
 20
16.8693812677
 10
-0.3965690199
 20
16.8676319419
 10
-0.3989977813
 20
16.8658004191
 10
-0.4013405291
 20
16.8638881452
 10
-0.4035926875
 20
16.8618965662
 10
-0.4057496809
 20
16.8598271282
  0
LWPOLYLINE
  5
29F
100
AcDbEntity
  8
CURVE
100
AcDbPolyline
 62
250
  6
CONTINUOUS
 90
42
 70
0
 10
-3.8367202746
 20
-13.7571894732
 10
-3.8332452578
 20
-13.7486559438
 10
-3.8295006945
 20
-13.7402496682
 10
-3.8255009461
 20
-13.7319644454
 10
-3.8212603743
 20
-13.7237940748
 10
-3.8167933407
 20
-13.7157323555
 10
-3.8121142068
 20
-13.7077730868
 10
-3.8072373344
 20
-13.699910068
 10
-3.8021770849
 20
-13.6921370981
 10
-3.79694782
 20
-13.6844479764
 10
-3.7915639012
 20
-13.6768365022
 10
-3.7860396902
 20
-13.6692964747
 10
-3.7790063605
 20
-13.6600321045
 10
-3.7717828616
 20
-13.6508755839
 10
-3.7643729861
 20
-13.641834269
 10
-3.7567805265
 20
-13.6329155159
 10
-3.7490092752
 20
-13.6241266809
 10
-3.7410630246
 20
-13.61547512
 10
-3.7329455673
 20
-13.6069681895
 10
-3.7246606958
 20
-13.5986132456
 10
-3.7162122024
 20
-13.5904176444
 10
-3.7076038796
 20
-13.582388742
 10
-3.69883952
 20
-13.5745338947
 10
-3.6899229159
 20
-13.5668604586
 10
-3.6808578598
 20
-13.5593757899
 10
-3.6716481443
 20
-13.5520872448
 10
-3.6622975617
 20
-13.5450021794
 10
-3.6528099046
 20
-13.5381279499
 10
-3.6431889653
 20
-13.5314719125
 10
-3.6334385365
 20
-13.5250414233
 10
-3.6235624104
 20
-13.5188438386
 10
-3.6135643797
 20
-13.5128865144
 10
-3.6034482367
 20
-13.5071768069
 10
-3.5932177739
 20
-13.5017220724
 10
-3.5828767839
 20
-13.496529667
 10
-3.5724290589
 20
-13.4916069469
 10
-3.5618783916
 20
-13.4869612681
 10
-3.5512285744
 20
-13.482599987
 10
-3.5404833998
 20
-13.4785304597
 10
-3.5296466601
 20
-13.4747600423
 10
-3.518722148
 20
-13.471296091
 10
-3.5077136558
 20
-13.468145962
  0
LWPOLYLINE
  5
2A0
100
AcDbEntity
  8
ASSI
100
AcDbPolyline
 62
250
  6
CONTINUOUS
 90
16
 70
0
 10
-10.7679250516
 20
-0.365857407
 10
-10.8201562393
 20
-0.3686183172
 10
-10.8718155037
 20
-0.3768230836
 10
-10.9223371839
 20
-0.3903818651
 10
-10.9711680755
 20
-0.4091461953
 10
-11.0177734879
 20
-0.4329106077
 10
-11.0616430992
 20
-0.4614148858
 10
-11.1022965439
 20
-0.4943469121
 10
-11.1392886734
 20
-0.5313460861
 10
-11.1722144294
 20
-0.5720072727
 10
-11.2007132803
 20
-0.6158852383
 10
-11.224473168
 20
-0.662499526
 10
-11.2432339255
 20
-0.7113397168
 10
-11.2567901254
 20
-0.7618710181
 10
-11.2649933296
 20
-0.8135401202
 10
-11.2677537141
 20
-0.8657812546
  0
LINE
  5
2A1
100
AcDbEntity
  8
ASSI
100
AcDbLine
 62
250
  6
CONTINUOUS
 10
-11.2677537141
 20
0.6111733592
 11
10.758733736
 21
0.6111733592
  0
LWPOLYLINE
  5
2A2
100
AcDbEntity
  8
0
100
AcDbPolyline
 62
7
  6
CONTINUOUS
 90
4
 70
0
 43
0.3500000019
 10
15.7709648438
 20
1.8012674561
 10
15.128109375
 20
1.8012674561
 10
15.128109375
 20
3.3012675781
 10
18.1281069336
 20
2.4441246033
  0
LWPOLYLINE
  5
2A3
100
AcDbEntity
  8
CURVE
100
AcDbPolyline
 62
250
  6
CONTINUOUS
 90
67
 70
0
 10
2.2128673975
 20
-13.2032181192
 10
2.2128051948
 20
-13.2002224337
 10
2.2126200747
 20
-13.197214438
 10
2.2123142687
 20
-13.1941984142
 10
2.2118900086
 20
-13.1911786447
 10
2.2113495261
 20
-13.1881594118
 10
2.2106950529
 20
-13.1851449978
 10
2.2099288206
 20
-13.1821396849
 10
2.209053061
 20
-13.1791477555
 10
2.2080700057
 20
-13.1761734918
 10
2.2069818864
 20
-13.1732211762
 10
2.2057909349
 20
-13.1702950909
 10
2.2044993828
 20
-13.1673995183
 10
2.2031094617
 20
-13.1645387405
 10
2.2016234035
 20
-13.16171704
 10
2.2000434398
 20
-13.1589386989
 10
2.1983718023
 20
-13.1562079996
 10
2.1966107226
 20
-13.1535292245
 10
2.1947624325
 20
-13.1509066557
 10
2.1928291636
 20
-13.1483445755
 10
2.1908131477
 20
-13.1458472663
 10
2.1887166165
 20
-13.1434190104
 10
2.1865418016
 20
-13.14106409
 10
2.1842909347
 20
-13.1387867874
 10
2.1819662475
 20
-13.136591385
 10
2.1795699717
 20
-13.134482165
 10
2.1771043391
 20
-13.1324634096
 10
2.1745715812
 20
-13.1305394013
 10
2.1719739298
 20
-13.1287144223
 10
2.1693136166
 20
-13.1269927548
 10
2.1665928732
 20
-13.1253786812
 10
2.1638139314
 20
-13.1238764838
 10
2.1609790229
 20
-13.1224904449
 10
2.1580903793
 20
-13.1212248467
 10
2.1551576735
 20
-13.1200855824
 10
2.1521782847
 20
-13.119069003
 10
2.1491567885
 20
-13.1181736624
 10
2.1460977608
 20
-13.1173981146
 10
2.1430057772
 20
-13.1167409137
 10
2.1398854136
 20
-13.1162006137
 10
2.1367412456
 20
-13.1157757685
 10
2.1335778491
 20
-13.1154649322
 10
2.1303997997
 20
-13.1152666588
 10
2.1272116732
 20
-13.1151795023
 10
2.1240180454
 20
-13.1152020167
 10
2.120823492
 20
-13.115332756
 10
2.1176325887
 20
-13.1155702742
 10
2.1144499113
 20
-13.1159131253
 10
2.1112800356
 20
-13.1163598634
 10
2.1081275373
 20
-13.1169090423
 10
2.1049969921
 20
-13.1175592163
 10
2.1018929758
 20
-13.1183089392
 10
2.0988200641
 20
-13.119156765
 10
2.0957828328
 20
-13.1201012478
 10
2.0927858577
 20
-13.1211409416
 10
2.0898337144
 20
-13.1222744003
 10
2.0869309787
 20
-13.1235001781
 10
2.0840822264
 20
-13.1248168288
 10
2.0812920332
 20
-13.1262229065
 10
2.0785649749
 20
-13.1277169653
 10
2.0759056272
 20
-13.129297559
 10
2.0733185659
 20
-13.1309632418
 10
2.0708083666
 20
-13.1327125676
 10
2.0683796053
 20
-13.1345440905
 10
2.0660368575
 20
-13.1364563644
 10
2.063784699
 20
-13.1384479434
 10
2.0616277057
 20
-13.1405173814
  0
LINE
  5
2A4
100
AcDbEntity
  8
CURVE
100
AcDbLine
 62
250
  6
CONTINUOUS
 10
2.2128673975
 20
-17.0503562476
 11
2.2128673975
 21
-13.2032181192
  0
LWPOLYLINE
  5
2A5
100
AcDbEntity
  8
CURVE
100
AcDbPolyline
 62
250
  6
CONTINUOUS
 90
42
 70
0
 10
-2.5489435822
 20
-16.4702021679
 10
-2.5532163138
 20
-16.48070737
 10
-2.5578032786
 20
-16.4910862278
 10
-2.5626959767
 20
-16.5013363095
 10
-2.5678859084
 20
-16.5114551836
 10
-2.5733645736
 20
-16.5214404184
 10
-2.5791234725
 20
-16.5312895823
 10
-2.5851541052
 20
-16.5410002436
 10
-2.5914479718
 20
-16.5505699709
 10
-2.5979965724
 20
-16.5599963324
 10
-2.6047914071
 20
-16.5692768965
 10
-2.611823976
 20
-16.5784092316
 10
-2.6190857793
 20
-16.5873909061
 10
-2.6265683169
 20
-16.5962194884
 10
-2.6342630892
 20
-16.6048925468
 10
-2.642161596
 20
-16.6134076498
 10
-2.6502553376
 20
-16.6217623656
 10
-2.6585358141
 20
-16.6299542627
 10
-2.6669945255
 20
-16.6379809096
 10
-2.675622972
 20
-16.6458398744
 10
-2.6844126537
 20
-16.6535287257
 10
-2.6933550706
 20
-16.6610450318
 10
-2.7024417229
 20
-16.668386361
 10
-2.7116641107
 20
-16.6755502819
 10
-2.7210137341
 20
-16.6825343627
 10
-2.7304820932
 20
-16.6893361718
 10
-2.7400606881
 20
-16.6959532776
 10
-2.749741019
 20
-16.7023832485
 10
-2.7595145858
 20
-16.7086236529
 10
-2.7693728888
 20
-16.7146720591
 10
-2.779307428
 20
-16.7205260356
 10
-2.7877185997
 20
-16.7252959035
 10
-2.7961825741
 20
-16.7299128985
 10
-2.8047042249
 20
-16.7343634431
 10
-2.8132884259
 20
-16.7386339595
 10
-2.8219400508
 20
-16.7427108701
 10
-2.8306639735
 20
-16.7465805973
 10
-2.8394650676
 20
-16.7502295635
 10
-2.848348207
 20
-16.753644191
 10
-2.8573182654
 20
-16.7568109022
 10
-2.8663801165
 20
-16.7597161194
 10
-2.8755386342
 20
-16.762346265
  0
LWPOLYLINE
  5
2A6
100
AcDbEntity
  8
CURVE
100
AcDbPolyline
 62
250
  6
CONTINUOUS
 90
31
 70
0
 10
-4.2928509169
 20
-13.5542733491
 10
-4.3036670425
 20
-13.5762048288
 10
-4.3140215608
 20
-13.5983450281
 10
-4.3239352961
 20
-13.6206823899
 10
-4.3334290731
 20
-13.643205357
 10
-4.3425237164
 20
-13.6659023719
 10
-4.3512400507
 20
-13.6887618774
 10
-4.3595989004
 20
-13.7117723163
 10
-4.3676210902
 20
-13.7349221312
 10
-4.3753274448
 20
-13.7581997649
 10
-4.3827387886
 20
-13.7815936602
 10
-4.3898759463
 20
-13.8050922596
 10
-4.3967597424
 20
-13.8286840059
 10
-4.4034110017
 20
-13.8523573419
 10
-4.4098505486
 20
-13.8761007103
 10
-4.4160992078
 20
-13.8999025537
 10
-4.4219718985
 20
-13.9229643029
 10
-4.4276591353
 20
-13.9460694699
 10
-4.4331344743
 20
-13.969217604
 10
-4.4383714715
 20
-13.9924082548
 10
-4.443343683
 20
-14.0156409715
 10
-4.4480246646
 20
-14.0389153036
 10
-4.4523879725
 20
-14.0622308004
 10
-4.4564071627
 20
-14.0855870116
 10
-4.4600557911
 20
-14.1089834863
 10
-4.4633074138
 20
-14.132419774
 10
-4.4661355867
 20
-14.1558954242
 10
-4.4685138659
 20
-14.1794099861
 10
-4.4704158074
 20
-14.2029630094
 10
-4.4718149671
 20
-14.2265540432
 10
-4.4726849012
 20
-14.2501826372
  0
LWPOLYLINE
  5
2A7
100
AcDbEntity
  8
CURVE
100
AcDbPolyline
 62
250
  6
CONTINUOUS
 90
31
 70
0
 10
-2.09281294
 20
-16.673807311
 10
-2.0821409486
 20
-16.6520831587
 10
-2.0719316279
 20
-16.6301500116
 10
-2.0621637939
 20
-16.6080197539
 10
-2.0528162625
 20
-16.5857042698
 10
-2.0438678498
 20
-16.5632154436
 10
-2.0352973717
 20
-16.5405651593
 10
-2.0270836443
 20
-16.5177653013
 10
-2.0192054836
 20
-16.4948277536
 10
-2.0116417056
 20
-16.4717644005
 10
-2.0043711263
 20
-16.4485871263
 10
-1.9973725616
 20
-16.425307815
 10
-1.9906248277
 20
-16.4019383508
 10
-1.9841067404
 20
-16.3784906181
 10
-1.9777971158
 20
-16.3549765009
 10
-1.97167477
 20
-16.3314078835
 10
-1.965824541
 20
-16.3081910182
 10
-1.9601591254
 20
-16.2849331371
 10
-1.9547027654
 20
-16.2616344234
 10
-1.9494797033
 20
-16.2382950602
 10
-1.9445141816
 20
-16.2149152304
 10
-1.9398304425
 20
-16.1914951173
 10
-1.9354527283
 20
-16.1680349038
 10
-1.9314052815
 20
-16.144534773
 10
-1.9277123443
 20
-16.120994908
 10
-1.924398159
 20
-16.0974154918
 10
-1.9214869681
 20
-16.0737967076
 10
-1.9190030137
 20
-16.0501387385
 10
-1.9169705384
 20
-16.0264417674
 10
-1.9154137843
 20
-16.0027059774
 10
-1.9143569938
 20
-15.9789315517
  0
LINE
  5
2A8
100
AcDbEntity
  8
CURVE
100
AcDbLine
 62
7
  6
CONTINUOUS
 10
-4.4826103782
 20
-14.3772938554
 11
-3.8100657894
 21
-13.7047492665
  0
LINE
  5
2A9
100
AcDbEntity
  8
CURVE
100
AcDbLine
 62
7
  6
CONTINUOUS
 10
-3.6258193514
 20
-13.5205028285
 11
-3.0382175745
 21
-12.9329010516
  0
LINE
  5
2AA
100
AcDbEntity
  8
ASSI
100
AcDbLine
 62
7
  6
CONTINUOUS
 10
9.8369147949
 20
-0.3166785923
 11
9.8262894395
 21
-0.3273039477
  0
LINE
  5
2AB
100
AcDbEntity
  8
CURVE
100
AcDbLine
 62
7
  6
CONTINUOUS
 10
-4.5017946482
 20
-15.3920844732
 11
-4.0029474376
 21
-14.8932372627
  0
LINE
  5
2AC
100
AcDbEntity
  8
CURVE
100
AcDbLine
 62
7
  6
CONTINUOUS
 10
-2.6871866911
 20
-13.5774765161
 11
-2.3317030541
 21
-13.2219928791
  0
LINE
  5
2AD
100
AcDbEntity
  8
ASSI
100
AcDbLine
 62
250
  6
CONTINUOUS
 10
10.3455471184
 20
-0.3081033763
 11
10.2589050735
 21
-0.365857407
  0
LINE
  5
2AE
100
AcDbEntity
  8
ASSI
100
AcDbLine
 62
250
  6
CONTINUOUS
 10
10.845490011
 20
-0.8079510801
 11
10.758733736
 21
-0.8657812546
  0
LWPOLYLINE
  5
2AF
100
AcDbEntity
  8
0
100
AcDbPolyline
 62
7
  6
CONTINUOUS
 90
10
 70
0
 43
0.3500000019
 10
17.6281064453
 20
0.7298389053
 10
17.7709667969
 20
0.8012674866
 10
17.8423916016
 20
0.8012674866
 10
17.9852519531
 20
0.6584103241
 10
17.9852519531
 20
0.5869817848
 10
17.9138217773
 20
0.5155532036
 10
17.8423916016
 20
0.5155532036
 10
17.6995366211
 20
0.5869817848
 10
17.6281064453
 20
0.6584103241
 10
17.6281064453
 20
0.7298389053
  0
LWPOLYLINE
  5
2B0
100
AcDbEntity
  8
0
100
AcDbPolyline
 62
7
  6
CONTINUOUS
 90
3
 70
0
 43
0.3500000019
 10
17.8423916016
 20
0.8012674866
 10
18.0566767578
 20
0.7298389053
 10
18.3423920898
 20
0.5869817848
  0
LINE
  5
2B1
100
AcDbEntity
  8
ASSI
100
AcDbLine
 62
250
  6
CONTINUOUS
 10
10.2589050735
 20
0.1112495116
 11
10.3455471184
 21
0.0534954809
  0
LINE
  5
2B2
100
AcDbEntity
  8
ASSI
100
AcDbLine
 62
250
  6
CONTINUOUS
 10
10.758733736
 20
0.6111733592
 11
10.845490011
 21
0.5533431847
  0
LINE
  5
2B3
100
AcDbEntity
  8
ASSI
100
AcDbLine
 62
7
  6
CONTINUOUS
 10
9.8369147949
 20
0.0620706969
 11
9.8262894395
 21
0.0726960523
  0
LINE
  5
2B4
100
AcDbEntity
  8
CURVE
100
AcDbLine
 62
7
  6
CONTINUOUS
 10
-4.421963249
 20
-16.3078594219
 11
-3.9807053512
 21
-15.8666015241
  0
LINE
  5
2B5
100
AcDbEntity
  8
CURVE
100
AcDbLine
 62
7
  6
CONTINUOUS
 10
-2.412517801
 20
-14.298413974
 11
-1.980487212
 21
-13.866383385
  0
LINE
  5
2B6
100
AcDbEntity
  8
CURVE
100
AcDbLine
 62
7
  6
CONTINUOUS
 10
-4.0926807906
 20
-16.9741833115
 11
-3.7368632495
 21
-16.6183657703
  0
LINE
  5
2B7
100
AcDbEntity
  8
CURVE
100
AcDbLine
 62
7
  6
CONTINUOUS
 10
-2.3841733686
 20
-15.2656758895
 11
-1.888012288
 21
-14.7695148089
  0
LWPOLYLINE
  5
2B8
100
AcDbEntity
  8
CURVE
100
AcDbPolyline
 62
250
  6
CONTINUOUS
 90
67
 70
0
 10
-0.4057496809
 20
12.8872875241
 10
-0.4035926875
 20
12.8852180861
 10
-0.4013405291
 20
12.8832265072
 10
-0.3989977813
 20
12.8813142333
 10
-0.3965690199
 20
12.8794827104
 10
-0.3940588207
 20
12.8777333846
 10
-0.3914717593
 20
12.8760677018
 10
-0.3888124116
 20
12.874487108
 10
-0.3860853533
 20
12.8729930493
 10
-0.3832951601
 20
12.8715869716
 10
-0.3804464078
 20
12.8702703208
 10
-0.3775436722
 20
12.8690445431
 10
-0.3745915289
 20
12.8679110843
 10
-0.3715945537
 20
12.8668713906
 10
-0.3685573224
 20
12.8659269078
 10
-0.3654844107
 20
12.8650790819
 10
-0.3623803944
 20
12.864329359
 10
-0.3592498492
 20
12.8636791851
 10
-0.3560973509
 20
12.8631300061
 10
-0.3529274752
 20
12.8626832681
 10
-0.3497447978
 20
12.862340417
 10
-0.3465538946
 20
12.8621028987
 10
-0.3433593411
 20
12.8619721595
 10
-0.3401657133
 20
12.8619496451
 10
-0.3369775868
 20
12.8620368016
 10
-0.3337995374
 20
12.862235075
 10
-0.3306361409
 20
12.8625459113
 10
-0.3274919729
 20
12.8629707564
 10
-0.3243716093
 20
12.8635110565
 10
-0.3212796257
 20
12.8641682574
 10
-0.318220598
 20
12.8649438051
 10
-0.3151991019
 20
12.8658391457
 10
-0.312219713
 20
12.8668557252
 10
-0.3092870073
 20
12.8679949894
 10
-0.3063983637
 20
12.8692605876
 10
-0.3035634551
 20
12.8706466266
 10
-0.3007845133
 20
12.872148824
 10
-0.29806377
 20
12.8737628976
 10
-0.2954034568
 20
12.875484565
 10
-0.2928058054
 20
12.8773095441
 10
-0.2902730475
 20
12.8792335524
 10
-0.2878074148
 20
12.8812523077
 10
-0.285411139
 20
12.8833615278
 10
-0.2830864519
 20
12.8855569302
 10
-0.280835585
 20
12.8878342328
 10
-0.27866077
 20
12.8901891532
 10
-0.2765642388
 20
12.8926174091
 10
-0.2745482229
 20
12.8951147183
 10
-0.2726149541
 20
12.8976767984
 10
-0.2707666639
 20
12.9002993672
 10
-0.2690055843
 20
12.9029781424
 10
-0.2673339467
 20
12.9057088417
 10
-0.265753983
 20
12.9084871827
 10
-0.2642679248
 20
12.9113088833
 10
-0.2628780038
 20
12.914169661
 10
-0.2615864517
 20
12.9170652337
 10
-0.2603955001
 20
12.919991319
 10
-0.2593073808
 20
12.9229436346
 10
-0.2583243256
 20
12.9259178983
 10
-0.2574485659
 20
12.9289098277
 10
-0.2566823336
 20
12.9319151405
 10
-0.2560278604
 20
12.9349295546
 10
-0.2554873779
 20
12.9379487875
 10
-0.2550631178
 20
12.940968557
 10
-0.2547573118
 20
12.9439845807
 10
-0.2545721917
 20
12.9469925765
 10
-0.254509989
 20
12.949988262
  0
LINE
  5
2B9
100
AcDbEntity
  8
CURVE
100
AcDbLine
 62
250
  6
CONTINUOUS
 10
-1.5763931267
 20
14.05793097
 11
-0.4057496809
 21
12.8872875241
  0
LWPOLYLINE
  5
2BA
100
AcDbEntity
  8
ASSI
100
AcDbPolyline
 62
250
  6
CONTINUOUS
 90
16
 70
0
 10
10.758733736
 20
-0.8657812546
 10
10.7559459994
 20
-0.813281528
 10
10.7476645833
 20
-0.7613764287
 10
10.7339854753
 20
-0.7106389433
 10
10.7150769075
 20
-0.6616569028
 10
10.6911450618
 20
-0.6149382874
 10
10.6624024163
 20
-0.5709202648
 10
10.6290705805
 20
-0.5300200673
 10
10.5915575632
 20
-0.4928058686
 10
10.5504615749
 20
-0.4598525385
 10
10.5063118211
 20
-0.4315091615
 10
10.4595869245
 20
-0.4080134598
 10
10.4109173554
 20
-0.389607791
 10
10.3608923888
 20
-0.3764216028
 10
10.3100377589
 20
-0.368503597
 10
10.2589050735
 20
-0.365857407
  0
LINE
  5
2BB
100
AcDbEntity
  8
ASSI
100
AcDbLine
 62
7
  6
CONTINUOUS
 10
10.8450438791
 20
22.336279326
 11
10.821102188
 21
25.7484795668
  0
LINE
  5
2BC
100
AcDbEntity
  8
ASSI
100
AcDbLine
 62
250
  6
CONTINUOUS
 10
10.2589050735
 20
-0.365857407
 11
10.2589050735
 21
-26.4405476728
  0
LINE
  5
2BD
100
AcDbEntity
  8
ASSI
100
AcDbLine
 62
250
  6
CONTINUOUS
 10
10.2589050735
 20
0.1112495116
 11
10.2589050735
 21
26.1859397774
  0
LINE
  5
2BE
100
AcDbEntity
  8
ASSI
100
AcDbLine
 62
250
  6
CONTINUOUS
 10
10.758733736
 20
-25.9407190103
 11
10.758733736
 21
-0.8657812546
  0
LINE
  5
2BF
100
AcDbEntity
  8
ASSI
100
AcDbLine
 62
250
  6
CONTINUOUS
 10
10.758733736
 20
0.6111733592
 11
10.758733736
 21
25.6861111149
  0
LINE
  5
2C0
100
AcDbEntity
  8
ASSI
100
AcDbLine
 62
7
  6
CONTINUOUS
 10
10.845490011
 20
-22.4614776989
 11
10.845490011
 21
-0.8079510801
  0
LINE
  5
2C1
100
AcDbEntity
  8
ASSI
100
AcDbLine
 62
7
  6
CONTINUOUS
 10
10.845490011
 20
0.5533431847
 11
10.845490011
 21
22.2068698035
  0
LINE
  5
2C2
100
AcDbEntity
  8
ASSI
100
AcDbLine
 62
7
  6
CONTINUOUS
 10
10.8450438791
 20
-22.5908872215
 11
10.821102188
 21
-26.0030874622
  0
LINE
  5
2C3
100
AcDbEntity
  8
CURVE
100
AcDbLine
 62
250
  6
CONTINUOUS
 10
2.0616277057
 20
-13.1405173814
 11
0.8913287693
 21
-14.3111608273
  0
LINE
  5
2C4
100
AcDbEntity
  8
CURVE
100
AcDbLine
 62
7
  6
CONTINUOUS
 10
-3.4187089508
 20
-17.2958178196
 11
-2.8905474677
 21
-16.7676563365
  0
LINE
  5
2C5
100
AcDbEntity
  8
CURVE
100
AcDbLine
 62
7
  6
CONTINUOUS
 10
-2.5150308564
 20
-16.3921397251
 11
-1.8994508495
 21
-15.7765597182
  0
LINE
  5
2C6
100
AcDbEntity
  8
ASSI
100
AcDbLine
 62
250
  6
CONTINUOUS
 10
-11.2677537141
 20
-25.9407190103
 11
-11.3301221661
 21
-26.0030874622
  0
LINE
  5
2C7
100
AcDbEntity
  8
CURVE
100
AcDbLine
 62
7
  6
CONTINUOUS
 10
-0.2214370724
 20
-15.0941522891
 11
0.5615543894
 21
-14.3111608273
  0
LINE
  5
2C8
100
AcDbEntity
  8
ASSI
100
AcDbLine
 62
250
  6
CONTINUOUS
 10
-10.7679250516
 20
-26.4405476728
 11
-10.8268108932
 21
-26.4994335144
  0
LINE
  5
2C9
100
AcDbEntity
  8
CURVE
100
AcDbLine
 62
7
  6
CONTINUOUS
 10
-0.0740919749
 20
-15.9424135395
 11
2.2128673975
 21
-13.6554541671
  0
LWPOLYLINE
  5
2CA
100
AcDbEntity
  8
CURVE
100
AcDbPolyline
 62
250
  6
CONTINUOUS
 90
28
 70
0
 10
-3.5077136558
 20
-13.468145962
 10
-3.4976063851
 20
-13.4642946341
 10
-3.487417658
 20
-13.4606739213
 10
-3.4771521825
 20
-13.4572758749
 10
-3.4668146666
 20
-13.454092546
 10
-3.4564098183
 20
-13.4511159858
 10
-3.4459423458
 20
-13.4483382456
 10
-3.4354169569
 20
-13.4457513764
 10
-3.4248383599
 20
-13.4433474294
 10
-3.4142112626
 20
-13.441118456
 10
-3.4035403732
 20
-13.4390565071
 10
-3.3928303997
 20
-13.437153634
 10
-3.3820860502
 20
-13.4354018879
 10
-3.3713120326
 20
-13.43379332
 10
-3.3605130551
 20
-13.4323199814
 10
-3.3496938256
 20
-13.4309739234
 10
-3.3388590522
 20
-13.429747197
 10
-3.328013443
 20
-13.4286318535
 10
-3.3171617059
 20
-13.4276199441
 10
-3.3063085491
 20
-13.42670352
 10
-3.2954586805
 20
-13.4258746323
 10
-3.2846168083
 20
-13.4251253321
 10
-3.269470099
 20
-13.4242006818
 10
-3.2543412774
 20
-13.423424824
 10
-3.239223373
 20
-13.422806377
 10
-3.2241094152
 20
-13.4223539589
 10
-3.2089924335
 20
-13.422076188
 10
-3.1938654571
 20
-13.4219816825
  0
LINE
  5
2CB
100
AcDbEntity
  8
ASSI
100
AcDbLine
 62
250
  6
CONTINUOUS
 10
-11.3301221661
 20
25.7484795668
 11
-11.2677537141
 21
25.6861111149
  0
LINE
  5
2CC
100
AcDbEntity
  8
ASSI
100
AcDbLine
 62
250
  6
CONTINUOUS
 10
-10.8268108932
 20
26.2448256189
 11
-10.7679250516
 21
26.1859397774
  0
LINE
  5
2CD
100
AcDbEntity
  8
CURVE
100
AcDbLine
 62
250
  6
CONTINUOUS
 10
1.8208155313
 20
12.7977150415
 11
1.5741466945
 21
13.0457619165
  0
LINE
  5
2CE
100
AcDbEntity
  8
CURVE
100
AcDbLine
 62
250
  6
CONTINUOUS
 10
2.692424689
 20
11.9261058838
 11
2.4457558523
 21
12.1741527587
  0
LINE
  5
2CF
100
AcDbEntity
  8
CURVE
100
AcDbLine
 62
250
  6
CONTINUOUS
 10
0.9485173544
 20
13.6686351802
 11
0.7025375368
 21
13.9180600933
  0
LINE
  5
2D0
100
AcDbEntity
  8
CURVE
100
AcDbLine
 62
250
  6
CONTINUOUS
 10
3.1699149233
 20
-14.1716344601
 11
3.4158947409
 21
-13.922209547
  0
LINE
  5
2D1
100
AcDbEntity
  8
CURVE
100
AcDbLine
 62
7
  6
CONTINUOUS
 10
0.9062493164
 20
-15.9576785961
 11
2.2128673975
 21
-14.651060515
  0
LINE
  5
2D2
100
AcDbEntity
  8
CURVE
100
AcDbLine
 62
7
  6
CONTINUOUS
 10
1.4040524903
 20
-16.4554817701
 11
2.2128673975
 21
-15.6466668629
  0
LINE
  5
2D3
100
AcDbEntity
  8
CURVE
100
AcDbLine
 62
7
  6
CONTINUOUS
 10
3.3943709476
 20
-14.4651633128
 11
3.6487149682
 21
-14.2108192922
  0
LINE
  5
2D4
100
AcDbEntity
  8
CURVE
100
AcDbLine
 62
7
  6
CONTINUOUS
 10
1.9018556643
 20
-16.953284944
 11
2.2128673975
 21
-16.6422732108
  0
LINE
  5
2D5
100
AcDbEntity
  8
CURVE
100
AcDbLine
 62
7
  6
CONTINUOUS
 10
3.5582969861
 20
-15.2968436222
 11
3.9099897182
 21
-14.9451508901
  0
LINE
  5
2D6
100
AcDbEntity
  8
CURVE
100
AcDbLine
 62
250
  6
CONTINUOUS
 10
-4.007252989
 20
12.6633560523
 11
-4.507479989
 21
12.6633560523
  0
LWPOLYLINE
  5
2D7
100
AcDbEntity
  8
CURVE
100
AcDbPolyline
 62
250
  6
CONTINUOUS
 90
49
 70
0
 10
0.7025375368
 20
15.8287100494
 10
0.7334162882
 20
15.7971825948
 10
0.763313415
 20
15.764591688
 10
0.7921887643
 20
15.7309863055
 10
0.8200021833
 20
15.696415424
 10
0.8467135191
 20
15.6609280201
 10
0.872282619
 20
15.6245730706
 10
0.8966693301
 20
15.5873995519
 10
0.9198334995
 20
15.5494564408
 10
0.9417349744
 20
15.5107927138
 10
0.962333602
 20
15.4714573477
 10
0.9815892294
 20
15.431499319
 10
0.9994617039
 20
15.3909676043
 10
1.015845024
 20
15.3500994269
 10
1.0308177108
 20
15.3087486594
 10
1.0443793662
 20
15.2669526022
 10
1.056529592
 20
15.2247485559
 10
1.06726799
 20
15.1821738212
 10
1.076594162
 20
15.1392656984
 10
1.0846147589
 20
15.095418166
 10
1.0911793519
 20
15.0513164958
 10
1.0962869384
 20
15.0070115194
 10
1.0999365157
 20
14.9625540686
 10
1.1021270812
 20
14.9179949754
 10
1.1028576321
 20
14.8733850714
 10
1.102127049
 20
14.8287590807
 10
1.0999358541
 20
14.7841839142
 10
1.0962855077
 20
14.7397103749
 10
1.0911774701
 20
14.6953892659
 10
1.0846132014
 20
14.6512713902
 10
1.076594162
 20
14.607407551
 10
1.0672687477
 20
14.5644735586
 10
1.0565315518
 20
14.521872779
 10
1.0443824118
 20
14.4796423306
 10
1.0308211654
 20
14.4378193319
 10
1.0158476502
 20
14.396440901
 10
0.9994617039
 20
14.3555441563
 10
0.9816026129
 20
14.3150227513
 10
0.9623601472
 20
14.2750738626
 10
0.941773796
 20
14.2357474299
 10
0.9198830487
 20
14.1970933927
 10
0.8967273948
 20
14.1591616908
 10
0.8723463235
 20
14.1220022637
 10
0.8467793243
 20
14.0856650511
 10
0.8200658865
 20
14.0501999926
 10
0.7922454994
 20
14.015657028
 10
0.7633576526
 20
13.9820860968
 10
0.7334418352
 20
13.9495371387
 10
0.7025375368
 20
13.9180600933
  0
LWPOLYLINE
  5
2D8
100
AcDbEntity
  8
CURVE
100
AcDbPolyline
 62
250
  6
CONTINUOUS
 90
49
 70
0
 10
1.5741466945
 20
16.7010082263
 10
1.6329590165
 20
16.6406872899
 10
1.6898806118
 20
16.5783315782
 10
1.744837154
 20
16.5140362963
 10
1.7977543167
 20
16.4478966495
 10
1.8485577734
 20
16.380007843
 10
1.8971731976
 20
16.3104650819
 10
1.9435262629
 20
16.2393635714
 10
1.987542643
 20
16.1667985167
 10
2.0291480112
 20
16.092865123
 10
2.0682680412
 20
16.0176585955
 10
2.1048284066
 20
15.9412741393
 10
2.1387547809
 20
15.8638069597
 10
2.1699004307
 20
15.7855729981
 10
2.1983548847
 20
15.7064277133
 10
2.2241198632
 20
15.6264416848
 10
2.2471970862
 20
15.5456854918
 10
2.2675882741
 20
15.4642297138
 10
2.2852951471
 20
15.3821449301
 10
2.3005289126
 20
15.2982311988
 10
2.3129957277
 20
15.2138376974
 10
2.3226943327
 20
15.1290603799
 10
2.3296234675
 20
15.0439952004
 10
2.3337818723
 20
14.9587381129
 10
2.3351682872
 20
14.8733850714
 10
2.3337818723
 20
14.7880320299
 10
2.3296234675
 20
14.7027749424
 10
2.3226943327
 20
14.6177097629
 10
2.3129957277
 20
14.5329324454
 10
2.3005289126
 20
14.448538944
 10
2.2852951471
 20
14.3646252126
 10
2.2675882741
 20
14.282540429
 10
2.2471970862
 20
14.201084651
 10
2.2241198632
 20
14.120328458
 10
2.1983548847
 20
14.0403424294
 10
2.1699004307
 20
13.9611971447
 10
2.1387547809
 20
13.8829631831
 10
2.1048284066
 20
13.8054960035
 10
2.0682680412
 20
13.7291115473
 10
2.0291480112
 20
13.6539050198
 10
1.987542643
 20
13.5799716261
 10
1.9435262629
 20
13.5074065714
 10
1.8971731976
 20
13.4363050609
 10
1.8485577734
 20
13.3667622998
 10
1.7977543167
 20
13.2988734932
 10
1.744837154
 20
13.2327338464
 10
1.6898806118
 20
13.1684385646
 10
1.6329590165
 20
13.1060828529
 10
1.5741466945
 20
13.0457619165
  0
LWPOLYLINE
  5
2D9
100
AcDbEntity
  8
CURVE
100
AcDbPolyline
 62
250
  6
CONTINUOUS
 90
49
 70
0
 10
3.4158947409
 20
-16.3317093294
 10
3.4548279082
 20
-16.2919800304
 10
3.4925180694
 20
-16.25090451
 10
3.5289151236
 20
-16.2085452271
 10
3.5639689696
 20
-16.1649646407
 10
3.5976295064
 20
-16.1202252096
 10
3.6298466327
 20
-16.074389393
 10
3.6605702476
 20
-16.0275196496
 10
3.6897502498
 20
-15.9796784385
 10
3.7173365383
 20
-15.9309282187
 10
3.7432790121
 20
-15.8813314491
 10
3.7675275699
 20
-15.8309505886
 10
3.7900321106
 20
-15.7798480963
 10
3.810672384
 20
-15.7282902502
 10
3.8295329842
 20
-15.676125372
 10
3.8466141687
 20
-15.6234003897
 10
3.8619161951
 20
-15.5701622317
 10
3.8754393208
 20
-15.5164578259
 10
3.8871838033
 20
-15.4623341007
 10
3.8972848981
 20
-15.4070243405
 10
3.9055525292
 20
-15.3513949244
 10
3.9119851117
 20
-15.2955097892
 10
3.9165810609
 20
-15.2394328719
 10
3.9193387919
 20
-15.1832281093
 10
3.92025672
 20
-15.1269594382
 10
3.9193350265
 20
-15.0707310515
 10
3.9165756804
 20
-15.0145666207
 10
3.9119797834
 20
-14.9585300735
 10
3.9055484371
 20
-14.9026853373
 10
3.8972827431
 20
-14.84709634
 10
3.8871838033
 20
-14.7918270089
 10
3.875437654
 20
-14.7377271075
 10
3.8619123962
 20
-14.6840467211
 10
3.8466086216
 20
-14.6308327512
 10
3.8295269215
 20
-14.578132099
 10
3.8106678874
 20
-14.5259916659
 10
3.7900321106
 20
-14.4744583533
 10
3.7675147478
 20
-14.4233347429
 10
3.7432543561
 20
-14.3729332564
 10
3.7173014395
 20
-14.3233155953
 10
3.6897065021
 20
-14.2745434611
 10
3.660520048
 20
-14.2266785554
 10
3.6297925812
 20
-14.1797825799
 10
3.5975746057
 20
-14.133917236
 10
3.5639166256
 20
-14.0891442254
 10
3.5288691451
 20
-14.0455252496
 10
3.4924826681
 20
-14.0031220102
 10
3.4548076987
 20
-13.9619962088
 10
3.4158947409
 20
-13.922209547
  0
LWPOLYLINE
  5
2DA
100
AcDbEntity
  8
CURVE
100
AcDbPolyline
 62
250
  6
CONTINUOUS
 90
28
 70
0
 10
-2.8755386342
 20
-16.762346265
 10
-2.8858377807
 20
-16.7662307336
 10
-2.8962145472
 20
-16.769899295
 10
-2.9066645702
 20
-16.7733585095
 10
-2.9171834861
 20
-16.7766149375
 10
-2.9277669316
 20
-16.779675139
 10
-2.9384105429
 20
-16.7825456745
 10
-2.9491099567
 20
-16.7852331042
 10
-2.9598608093
 20
-16.7877439884
 10
-2.9706587373
 20
-16.7900848873
 10
-2.9814993771
 20
-16.7922623612
 10
-2.9923783652
 20
-16.7942829704
 10
-3.0032913381
 20
-16.7961532751
 10
-3.0142339323
 20
-16.7978798356
 10
-3.0252017842
 20
-16.7994692122
 10
-3.0361905302
 20
-16.8009279652
 10
-3.047195807
 20
-16.8022626547
 10
-3.0582132509
 20
-16.8034798411
 10
-3.0692384984
 20
-16.8045860847
 10
-3.080267186
 20
-16.8055879457
 10
-3.0912949502
 20
-16.8064919844
 10
-3.1023174275
 20
-16.8073047611
 10
-3.1174748661
 20
-16.8082825465
 10
-3.1326194112
 20
-16.8090945269
 10
-3.1477564519
 20
-16.8097353625
 10
-3.1628913772
 20
-16.8101997133
 10
-3.1780295762
 20
-16.8104822397
 10
-3.193176438
 20
-16.8105776018
  0
LINE
  5
2DB
100
AcDbEntity
  8
CURVE
100
AcDbLine
 62
250
  6
CONTINUOUS
 10
-2.6006200145
 20
14.05793097
 11
-1.5763931267
 21
14.05793097
  0
LWPOLYLINE
  5
2DC
100
AcDbEntity
  8
CURVE
100
AcDbPolyline
 62
250
  6
CONTINUOUS
 90
49
 70
0
 10
2.4457558523
 20
17.5726173841
 10
2.5324599973
 20
17.4834305295
 10
2.6163738668
 20
17.3912506384
 10
2.6973885676
 20
17.2962178067
 10
2.7753952067
 20
17.1984721305
 10
2.8502848908
 20
17.098153706
 10
2.9219487269
 20
16.9954026292
 10
2.990277822
 20
16.8903589962
 10
3.0551632828
 20
16.783162903
 10
3.1164962162
 20
16.6739544457
 10
3.1741677293
 20
16.5628737204
 10
3.2280689287
 20
16.4500608232
 10
3.2780909215
 20
16.3356558501
 10
3.3240207245
 20
16.220116992
 10
3.3659862291
 20
16.1032376355
 10
3.4039890904
 20
15.9851211986
 10
3.4380309635
 20
15.8658710998
 10
3.4681135035
 20
15.7455907573
 10
3.4942383655
 20
15.6243835894
 10
3.5167103259
 20
15.500513363
 10
3.5351031334
 20
15.3759361221
 10
3.549413819
 20
15.2507932696
 10
3.5596394133
 20
15.1252262083
 10
3.5657769473
 20
14.9993763413
 10
3.5678234518
 20
14.8733850714
 10
3.5657769473
 20
14.7473938015
 10
3.5596394133
 20
14.6215439344
 10
3.549413819
 20
14.4959768732
 10
3.5351031334
 20
14.3708340207
 10
3.5167103259
 20
14.2462567798
 10
3.4942383655
 20
14.1223865534
 10
3.4681135035
 20
14.0011793855
 10
3.4380309635
 20
13.880899043
 10
3.4039890904
 20
13.7616489442
 10
3.3659862291
 20
13.6435325073
 10
3.3240207245
 20
13.5266531507
 10
3.2780909215
 20
13.4111142927
 10
3.2280689287
 20
13.2967093196
 10
3.1741677293
 20
13.1838964224
 10
3.1164962162
 20
13.0728156971
 10
3.0551632828
 20
12.9636072398
 10
2.990277822
 20
12.8564111466
 10
2.9219487269
 20
12.7513675136
 10
2.8502848908
 20
12.6486164367
 10
2.7753952067
 20
12.5482980122
 10
2.6973885676
 20
12.4505523361
 10
2.6163738668
 20
12.3555195044
 10
2.5324599973
 20
12.2633396133
 10
2.4457558523
 20
12.1741527587
  0
LWPOLYLINE
  5
2DD
100
AcDbEntity
  8
CURVE
100
AcDbPolyline
 62
250
  6
CONTINUOUS
 90
55
 70
0
 10
-2.6006200145
 20
15.6891836823
 10
-2.6029436537
 20
15.6891358622
 10
-2.6052757356
 20
15.6889937194
 10
-2.607614284
 20
15.6887592302
 10
-2.6099573226
 20
15.6884343708
 10
-2.6123028751
 20
15.6880211174
 10
-2.6146489654
 20
15.6875214464
 10
-2.616993617
 20
15.6869373341
 10
-2.6193348539
 20
15.6862707565
 10
-2.6216706997
 20
15.6855236901
 10
-2.6239991781
 20
15.684698111
 10
-2.626318313
 20
15.6837959956
 10
-2.628626128
 20
15.6828193201
 10
-2.6309206469
 20
15.6817700607
 10
-2.6331998934
 20
15.6806501937
 10
-2.6354618913
 20
15.6794616954
 10
-2.6377046643
 20
15.678206542
 10
-2.6399262362
 20
15.6768867097
 10
-2.6421246306
 20
15.6755041749
 10
-2.6442978715
 20
15.6740609138
 10
-2.6464439823
 20
15.6725589027
 10
-2.6485609871
 20
15.6710001177
 10
-2.6506469093
 20
15.6693865353
 10
-2.6526997729
 20
15.6677201315
 10
-2.6547176016
 20
15.6660028828
 10
-2.656698419
 20
15.6642367653
 10
-2.6586402489
 20
15.6624237552
 10
-2.6605411152
 20
15.660565829
 10
-2.6623990414
 20
15.6586649628
 10
-2.6642120514
 20
15.6567231328
 10
-2.665978169
 20
15.6547423154
 10
-2.6676954177
 20
15.6527244867
 10
-2.6693618215
 20
15.6506716231
 10
-2.6709754039
 20
15.6485857009
 10
-2.6725341889
 20
15.6464686962
 10
-2.6740362
 20
15.6443225853
 10
-2.6754794611
 20
15.6421493445
 10
-2.6768619959
 20
15.63995095
 10
-2.6781818281
 20
15.6377293781
 10
-2.6794369815
 20
15.6354866051
 10
-2.6806254799
 20
15.6332246072
 10
-2.6817453469
 20
15.6309453607
 10
-2.6827946063
 20
15.6286508418
 10
-2.6837712818
 20
15.6263430268
 10
-2.6846733972
 20
15.624023892
 10
-2.6854989763
 20
15.6216954135
 10
-2.6862460427
 20
15.6193595677
 10
-2.6869126202
 20
15.6170183309
 10
-2.6874967326
 20
15.6146736792
 10
-2.6879964036
 20
15.6123275889
 10
-2.6884096569
 20
15.6099820364
 10
-2.6887345164
 20
15.6076389978
 10
-2.6889690056
 20
15.6053004494
 10
-2.6891111484
 20
15.6029683675
 10
-2.6891589685
 20
15.6006447283
  0
LINE
  5
2DE
100
AcDbEntity
  8
CURVE
100
AcDbLine
 62
250
  6
CONTINUOUS
 10
-1.5760486172
 20
15.6891836823
 11
-2.6006200145
 21
15.6891836823
  0
LINE
  5
2DF
100
AcDbEntity
  8
CURVE
100
AcDbLine
 62
250
  6
CONTINUOUS
 10
-4.507479989
 20
17.0641210523
 11
-4.007252989
 21
17.0641210523
  0
LWPOLYLINE
  5
2E0
100
AcDbEntity
  8
0
100
AcDbPolyline
 62
7
  6
CONTINUOUS
 90
10
 70
0
 43
0.3500000019
 10
0.7097734375
 20
35.5768010254
 10
0.7812036133
 20
35.4339460449
 10
0.7812036133
 20
35.3625158691
 10
0.6383486328
 20
35.2196582031
 10
0.566918457
 20
35.2196582031
 10
0.4954882813
 20
35.2910883789
 10
0.4954882813
 20
35.3625158691
 10
0.566918457
 20
35.5053735352
 10
0.6383486328
 20
35.5768010254
 10
0.7097734375
 20
35.5768010254
  0
LWPOLYLINE
  5
2E1
100
AcDbEntity
  8
0
100
AcDbPolyline
 62
7
  6
CONTINUOUS
 90
8
 70
0
 43
0.3500000019
 10
18.1281069336
 20
-4.4130181885
 10
18.1281069336
 20
-3.5558752136
 10
17.6995366211
 20
-3.127303894
 10
16.842390625
 20
-3.127303894
 10
16.4138203125
 20
-3.5558752136
 10
16.4138203125
 20
-4.4130181885
 10
15.128109375
 20
-4.4130181885
 10
15.128109375
 20
-3.127303894
  0
LWPOLYLINE
  5
2E2
100
AcDbEntity
  8
0
100
AcDbPolyline
 62
7
  6
CONTINUOUS
 90
7
 70
0
 43
0.3500000019
 10
18.1281069336
 20
-0.7701610489
 10
18.1281069336
 20
-2.270161087
 10
15.98525
 20
-0.7701610489
 10
15.5566796875
 20
-0.7701610489
 10
15.128109375
 20
-1.1987325363
 10
15.128109375
 20
-1.8415895996
 10
15.7709648438
 20
-2.270161087
  0
LWPOLYLINE
  5
2E3
100
AcDbEntity
  8
ASSI
100
AcDbPolyline
 62
250
  6
CONTINUOUS
 90
16
 70
0
 10
-10.7679250516
 20
26.1859397774
 10
-10.8190673141
 20
26.1832814225
 10
-10.8699269666
 20
26.1753512504
 10
-10.9199524402
 20
26.1621543715
 10
-10.9686178937
 20
26.1437411043
 10
-11.0153351034
 20
26.1202421535
 10
-11.0594755781
 20
26.0919002785
 10
-11.1005606607
 20
26.0589546168
 10
-11.1380631169
 20
26.021754148
 10
-11.171388628
 20
25.9808700883
 10
-11.2001299457
 20
25.9368681536
 10
-11.2240638979
 20
25.8901662186
 10
-11.2429773509
 20
25.8412015219
 10
-11.2566637834
 20
25.7904817836
 10
-11.2649547048
 20
25.7385941246
 10
-11.2677537141
 20
25.6861111149
  0
LINE
  5
2E4
100
AcDbEntity
  8
ASSI
100
AcDbLine
 62
250
  6
CONTINUOUS
 10
-11.2677537141
 20
25.6861111149
 11
10.758733736
 21
25.6861111149
  0
LINE
  5
2E5
100
AcDbEntity
  8
ASSI
100
AcDbLine
 62
250
  6
CONTINUOUS
 10
10.2589050735
 20
26.1859397774
 11
-10.7679250516
 21
26.1859397774
  0
LINE
  5
2E6
100
AcDbEntity
  8
ASSI
100
AcDbLine
 62
7
  6
CONTINUOUS
 10
10.3177909151
 20
26.2448256189
 11
-10.8268108932
 21
26.2448256189
  0
LWPOLYLINE
  5
2E7
100
AcDbEntity
  8
0
100
AcDbPolyline
 62
7
  6
CONTINUOUS
 90
7
 70
0
 43
0.3500000019
 10
3.2812060547
 20
35.0768005371
 10
1.7812045898
 20
35.0768005371
 10
3.2812060547
 20
37.2196601563
 10
3.2812060547
 20
37.6482304688
 10
2.8526303711
 20
38.0768007813
 10
2.2097749023
 20
38.0768007813
 10
1.7812045898
 20
37.4339453125
  0
LWPOLYLINE
  5
2E8
100
AcDbEntity
  8
0
100
AcDbPolyline
 62
7
  6
CONTINUOUS
 90
7
 70
0
 43
0.3500000019
 10
-0.7902226562
 20
35.0768005371
 10
-2.2902241211
 20
35.0768005371
 10
-0.7902226562
 20
37.2196601563
 10
-0.7902226562
 20
37.6482304688
 10
-1.2187983398
 20
38.0768007813
 10
-1.8616538086
 20
38.0768007813
 10
-2.2902241211
 20
37.4339453125
  0
LWPOLYLINE
  5
2E9
100
AcDbEntity
  8
0
100
AcDbPolyline
 62
7
  6
CONTINUOUS
 90
7
 70
0
 43
0.3500000019
 10
-3.1473647461
 20
35.0768005371
 10
-4.6473662109
 20
35.0768005371
 10
-3.1473647461
 20
37.2196601563
 10
-3.1473647461
 20
37.6482304688
 10
-3.5759404297
 20
38.0768007813
 10
-4.2187958984
 20
38.0768007813
 10
-4.6473662109
 20
37.4339453125
  0
LWPOLYLINE
  5
2EA
100
AcDbEntity
  8
ASSI
100
AcDbPolyline
 62
250
  6
CONTINUOUS
 90
16
 70
0
 10
10.2589050735
 20
26.1859397774
 10
10.3104254299
 20
26.1832421276
 10
10.3615945695
 20
26.1752069415
 10
10.4118534416
 20
26.1618587022
 10
10.4607040421
 20
26.1432538075
 10
10.5075236532
 20
26.1195506271
 10
10.5516033564
 20
26.0910727965
 10
10.5924024219
 20
26.0581838979
 10
10.629537272
 20
26.0212084983
 10
10.6626118639
 20
25.9805370366
 10
10.691264521
 20
25.9366017852
 10
10.7151663696
 20
25.889892613
 10
10.7340431109
 20
25.8409391467
 10
10.7476855585
 20
25.7902866717
 10
10.7559460773
 20
25.7384872071
 10
10.758733736
 20
25.6861111149
  0
LWPOLYLINE
  5
2EB
100
AcDbEntity
  8
0
100
AcDbPolyline
 62
7
  6
CONTINUOUS
 90
5
 70
0
 43
0.3500000019
 10
-19.1833022461
 20
36.7222861328
 10
-18.8261567383
 20
36.9365712891
 10
-18.8261567383
 20
37.5794294434
 10
-19.1833022461
 20
38.0079997559
 10
-20.0404428711
 20
38.0079997559
  0
LINE
  5
2EC
100
AcDbEntity
  8
ASSI
100
AcDbLine
 62
7
  6
CONTINUOUS
 10
-25.1393483723
 20
-26.4994335144
 11
-27.3881079369
 21
-26.4405476728
  0
LINE
  5
2ED
100
AcDbEntity
  8
ASSI
100
AcDbLine
 62
250
  6
CONTINUOUS
 10
-27.8750194627
 20
-25.9407190103
 11
-27.3881079369
 21
-25.9407190103
  0
LINE
  5
2EE
100
AcDbEntity
  8
ASSI
100
AcDbLine
 62
250
  6
CONTINUOUS
 10
-25.0063528485
 20
-26.0030874622
 11
-27.3881079369
 21
-25.9407190103
  0
LWPOLYLINE
  5
2EF
100
AcDbEntity
  8
ASSI
100
AcDbPolyline
 62
250
  6
CONTINUOUS
 90
10
 70
0
 10
-27.3881079369
 20
26.1859397774
 10
-27.3893864045
 20
26.1832421276
 10
-27.3905159068
 20
26.1752069415
 10
-27.3914824457
 20
26.1618587022
 10
-27.3922744574
 20
26.1432538075
 10
-27.3928797824
 20
26.1195506271
 10
-27.3932883318
 20
26.0910727965
 10
-27.3934954669
 20
26.0581838979
 10
-27.3934996422
 20
26.0212084983
 10
-27.3929005224
 20
25.9366017852
  0
LWPOLYLINE
  5
2F0
100
AcDbEntity
  8
ASSI
100
AcDbPolyline
 62
250
  6
CONTINUOUS
 90
9
 70
0
 10
-27.3881079369
 20
-26.4405476728
 10
-27.3893775327
 20
-26.4378893179
 10
-27.3905016807
 20
-26.4299591459
 10
-27.3914660714
 20
-26.4167622669
 10
-27.3922582528
 20
-26.3983489998
 10
-27.3928662443
 20
-26.3748500489
 10
-27.3932799452
 20
-26.3465081739
 10
-27.3934930834
 20
-26.3135625122
 10
-27.3935009912
 20
-26.2763620435
  0
LWPOLYLINE
  5
2F1
100
AcDbEntity
  8
0
100
AcDbPolyline
 62
7
  6
CONTINUOUS
 90
3
 70
0
 43
0.3500000019
 10
-17.183300293
 20
35.2937148438
 10
-17.2547304687
 20
35.0794296875
 10
-17.3975854492
 20
34.7937143555
  0
LINE
  5
2F2
100
AcDbEntity
  8
ASSI
100
AcDbLine
 62
250
  6
CONTINUOUS
 10
-27.3915157048
 20
25.8409391467
 11
-27.3894064557
 21
25.7384872071
  0
LINE
  5
2F3
100
AcDbEntity
  8
ASSI
100
AcDbLine
 62
250
  6
CONTINUOUS
 10
-27.3881079369
 20
-0.8657812546
 11
-27.3896404739
 21
-0.7613764287
  0
LINE
  5
2F4
100
AcDbEntity
  8
ASSI
100
AcDbLine
 62
250
  6
CONTINUOUS
 10
-27.3929005224
 20
25.9366017852
 11
-27.3915157048
 21
25.8409391467
  0
LINE
  5
2F5
100
AcDbEntity
  8
ASSI
100
AcDbLine
 62
250
  6
CONTINUOUS
 10
-27.3896404739
 20
-0.7613764287
 11
-27.3905277464
 21
-0.6616569028
  0
LWPOLYLINE
  5
2F6
100
AcDbEntity
  8
ASSI
100
AcDbPolyline
 62
250
  6
CONTINUOUS
 90
11
 70
0
 10
-27.3905277464
 20
-0.6616569028
 10
-27.3907322302
 20
-0.5709202648
 10
-27.390573321
 20
-0.5300200673
 10
-27.3902405843
 20
-0.4928058686
 10
-27.3897396505
 20
-0.4598525385
 10
-27.389078284
 20
-0.4315091615
 10
-27.3882648685
 20
-0.4080134598
 10
-27.3873116832
 20
-0.389607791
 10
-27.3862318991
 20
-0.3764216028
 10
-27.385038433
 20
-0.368503597
 10
-27.383745666
 20
-0.365857407
  0
LINE
  5
2F7
100
AcDbEntity
  8
ASSI
100
AcDbLine
 62
7
  6
CONTINUOUS
 10
-27.8750194627
 20
-25.9407190103
 11
-27.8750194627
 21
-0.8657812546
  0
LINE
  5
2F8
100
AcDbEntity
  8
ASSI
100
AcDbLine
 62
7
  6
CONTINUOUS
 10
-27.8750194627
 20
0.6111733592
 11
-27.8750194627
 21
25.6861111149
  0
LINE
  5
2F9
100
AcDbEntity
  8
ASSI
100
AcDbLine
 62
250
  6
CONTINUOUS
 10
-27.3881079369
 20
-25.9407190103
 11
-27.3881079369
 21
-0.8657812546
  0
LINE
  5
2FA
100
AcDbEntity
  8
ASSI
100
AcDbLine
 62
250
  6
CONTINUOUS
 10
-27.3881079369
 20
0.6111733592
 11
-27.3881079369
 21
25.6861111149
  0
LINE
  5
2FB
100
AcDbEntity
  8
ASSI
100
AcDbLine
 62
250
  6
CONTINUOUS
 10
-27.390581549
 20
0.2767381907
 11
-27.3907143725
 21
0.3612773429
  0
LINE
  5
2FC
100
AcDbEntity
  8
ASSI
100
AcDbLine
 62
250
  6
CONTINUOUS
 10
-27.3907143725
 20
0.3612773429
 11
-27.3901616507
 21
0.4567318214
  0
LINE
  5
2FD
100
AcDbEntity
  8
ASSI
100
AcDbLine
 62
250
  6
CONTINUOUS
 10
-27.3935009912
 20
-26.2763620435
 11
-27.3929034503
 21
-26.191476049
  0
LWPOLYLINE
  5
2FE
100
AcDbEntity
  8
ASSI
100
AcDbPolyline
 62
250
  6
CONTINUOUS
 90
3
 70
0
 10
-27.3901616507
 20
0.4567318214
 10
-27.3889475261
 20
0.5589322248
 10
-27.3881079369
 20
0.6111733592
  0
LINE
  5
2FF
100
AcDbEntity
  8
ASSI
100
AcDbLine
 62
250
  6
CONTINUOUS
 10
-27.3929034503
 20
-26.191476049
 11
-27.3915203302
 21
-26.0958094173
  0
LWPOLYLINE
  5
300
100
AcDbEntity
  8
ASSI
100
AcDbPolyline
 62
250
  6
CONTINUOUS
 90
3
 70
0
 10
-27.3915203302
 20
-26.0958094173
 10
-27.3894089582
 20
-25.9932020201
 10
-27.3881079369
 20
-25.9407190103
  0
LWPOLYLINE
  5
301
100
AcDbEntity
  8
ASSI
100
AcDbPolyline
 62
250
  6
CONTINUOUS
 90
9
 70
0
 10
-27.383745666
 20
0.1112495116
 10
-27.3850651959
 20
0.1140104218
 10
-27.3862747266
 20
0.1222151881
 10
-27.3873610139
 20
0.1357739697
 10
-27.3883121632
 20
0.1545382999
 10
-27.3891177595
 20
0.1783027123
 10
-27.3897689817
 20
0.2068069903
 10
-27.390258699
 20
0.2397390166
 10
-27.390581549
 20
0.2767381907
  0
LINE
  5
302
100
AcDbEntity
  8
ASSI
100
AcDbLine
 62
250
  6
CONTINUOUS
 10
-27.3894064557
 20
25.7384872071
 11
-27.3881079369
 21
25.6861111149
  0
LINE
  5
303
100
AcDbEntity
  8
ASSI
100
AcDbLine
 62
250
  6
CONTINUOUS
 10
-24.0750194627
 20
-0.8079510801
 11
-27.3881079369
 21
-0.8657812546
  0
LINE
  5
304
100
AcDbEntity
  8
ASSI
100
AcDbLine
 62
7
  6
CONTINUOUS
 10
-24.0750194627
 20
-0.3081033763
 11
-27.383745666
 21
-0.365857407
  0
LINE
  5
305
100
AcDbEntity
  8
ASSI
100
AcDbLine
 62
250
  6
CONTINUOUS
 10
-27.8750194627
 20
-0.8657812546
 11
-27.3881079369
 21
-0.8657812546
  0
LINE
  5
306
100
AcDbEntity
  8
ASSI
100
AcDbLine
 62
7
  6
CONTINUOUS
 10
-27.383745666
 20
0.1112495116
 11
-24.0750194627
 21
0.0534954809
  0
LINE
  5
307
100
AcDbEntity
  8
ASSI
100
AcDbLine
 62
7
  6
CONTINUOUS
 10
-24.0750194627
 20
-0.3081033763
 11
-24.0750194627
 21
-22.4614776989
  0
LINE
  5
308
100
AcDbEntity
  8
ASSI
100
AcDbLine
 62
7
  6
CONTINUOUS
 10
-24.0750194627
 20
0.0534954809
 11
-24.0750194627
 21
22.2068698035
  0
LINE
  5
309
100
AcDbEntity
  8
ASSI
100
AcDbLine
 62
250
  6
CONTINUOUS
 10
-27.3881079369
 20
0.6111733592
 11
-27.8750194627
 21
0.6111733592
  0
LINE
  5
30A
100
AcDbEntity
  8
ASSI
100
AcDbLine
 62
250
  6
CONTINUOUS
 10
-27.3881079369
 20
0.6111733592
 11
-24.0750194627
 21
0.5533431847
  0
LINE
  5
30B
100
AcDbEntity
  8
ASSI
100
AcDbLine
 62
7
  6
CONTINUOUS
 10
-24.0920565496
 20
-22.5908872215
 11
-25.1393483723
 21
-26.4994335144
  0
LINE
  5
30C
100
AcDbEntity
  8
ASSI
100
AcDbLine
 62
7
  6
CONTINUOUS
 10
-24.0920565496
 20
22.336279326
 11
-25.1393483723
 21
26.2448256189
  0
LWPOLYLINE
  5
30D
100
AcDbEntity
  8
0
100
AcDbPolyline
 62
7
  6
CONTINUOUS
 90
4
 70
0
 43
0.3500000019
 10
-16.1832993164
 20
35.4365725098
 10
-16.1832993164
 20
36.2937158203
 10
-15.7547290039
 20
36.7222861328
 10
-15.1118735352
 20
36.7222861328
  0
LWPOLYLINE
  5
30E
100
AcDbEntity
  8
0
100
AcDbPolyline
 62
7
  6
CONTINUOUS
 90
10
 70
0
 43
0.3500000019
 10
-17.2547304687
 20
35.508
 10
-17.183300293
 20
35.365142334
 10
-17.183300293
 20
35.2937148438
 10
-17.3261552734
 20
35.1508571777
 10
-17.3975854492
 20
35.1508571777
 10
-17.469015625
 20
35.2222873535
 10
-17.469015625
 20
35.2937148438
 10
-17.3975854492
 20
35.4365725098
 10
-17.3261552734
 20
35.508
 10
-17.2547304687
 20
35.508
  0
LINE
  5
30F
100
AcDbEntity
  8
ASSI
100
AcDbLine
 62
250
  6
CONTINUOUS
 10
-27.3881079369
 20
25.6861111149
 11
-25.0063528485
 21
25.7484795668
  0
LINE
  5
310
100
AcDbEntity
  8
ASSI
100
AcDbLine
 62
7
  6
CONTINUOUS
 10
-27.3881079369
 20
26.1859397774
 11
-25.1393483723
 21
26.2448256189
  0
LINE
  5
311
100
AcDbEntity
  8
ASSI
100
AcDbLine
 62
250
  6
CONTINUOUS
 10
-27.8750194627
 20
25.6861111149
 11
-27.3881079369
 21
25.6861111149
  0
LWPOLYLINE
  5
312
100
AcDbEntity
  8
0
100
AcDbPolyline
 62
7
  6
CONTINUOUS
 90
6
 70
0
 43
0.3500000019
 10
-20.0404428711
 20
35.0079995117
 10
-18.9690117187
 20
35.0079995117
 10
-18.7547265625
 20
35.2222873535
 10
-18.7547265625
 20
36.2937158203
 10
-19.1833022461
 20
36.7222861328
 10
-19.6118725586
 20
36.7222861328
  0
LWPOLYLINE
  5
313
100
AcDbEntity
  8
0
100
AcDbPolyline
 62
7
  6
CONTINUOUS
 90
13
 70
0
 43
0.3500000019
 10
-15.7547290039
 20
36.7222861328
 10
-16.0404443359
 20
36.9365712891
 10
-16.0404443359
 20
37.5794294434
 10
-15.7547290039
 20
38.0079997559
 10
-15.1118735352
 20
38.0079997559
 10
-14.8261582031
 20
37.5794294434
 10
-14.8261582031
 20
36.9365712891
 10
-15.1118735352
 20
36.7222861328
 10
-14.6832978516
 20
36.2937158203
 10
-14.6832978516
 20
35.4365725098
 10
-15.1118735352
 20
35.0079995117
 10
-15.7547290039
 20
35.0079995117
 10
-16.1832993164
 20
35.4365725098
  0
ARC
  5
314
100
AcDbEntity
  8
ASSI
100
AcDbCircle
 62
7
  6
CONTINUOUS
 10
-24.5750194627
 20
22.2068698035
 40
0.5
100
AcDbArc
 50
0.0
 51
15.0
  0
ARC
  5
315
100
AcDbEntity
  8
ASSI
100
AcDbCircle
 62
7
  6
CONTINUOUS
 10
-27.3750194627
 20
25.6861111149
 40
0.5
100
AcDbArc
 50
91.5
 51
180.0
  0
ARC
  5
316
100
AcDbEntity
  8
ASSI
100
AcDbCircle
 62
7
  6
CONTINUOUS
 10
-27.3750194627
 20
0.6111733592
 40
0.5
100
AcDbArc
 50
180.0
 51
269.0
  0
ARC
  5
317
100
AcDbEntity
  8
ASSI
100
AcDbCircle
 62
7
  6
CONTINUOUS
 10
-24.5750194627
 20
-22.4614776989
 40
0.5
100
AcDbArc
 50
345.0
 51
360.0
  0
ARC
  5
318
100
AcDbEntity
  8
ASSI
100
AcDbCircle
 62
7
  6
CONTINUOUS
 10
-27.3750194627
 20
-25.9407190103
 40
0.5
100
AcDbArc
 50
180.0
 51
268.5
  0
ARC
  5
319
100
AcDbEntity
  8
ASSI
100
AcDbCircle
 62
7
  6
CONTINUOUS
 10
-27.3750194627
 20
-0.8657812546
 40
0.5
100
AcDbArc
 50
91.0
 51
180.0
  0
ELLIPSE
  5
31A
100
AcDbEntity
  8
ASSI
100
AcDbEllipse
 62
7
  6
CONTINUOUS
 10
-10.8299531578
 20
25.7481392211
 30
0.0
 11
0.4677351297
 21
0.1788908786
 31
0.0
 40
0.9906298547
 41
1.202347637
 42
2.7724587311
  0
ELLIPSE
  5
31B
100
AcDbEntity
  8
ASSI
100
AcDbEllipse
 62
7
  6
CONTINUOUS
 10
10.3209331797
 20
25.7481392211
 30
0.0
 11
0.4677351297
 21
-0.1788908786
 31
0.0
 40
0.9906298547
 41
0.3691339225
 42
1.9392450166
  0
ELLIPSE
  5
31C
100
AcDbEntity
  8
ASSI
100
AcDbEllipse
 62
7
  6
CONTINUOUS
 10
10.8323970502
 20
22.2068698035
 30
0.0
 11
-0.0
 21
0.5
 31
0.0
 40
0.0261859216
 41
-1.5707963268
 42
-1.308996939
  0
ELLIPSE
  5
31D
100
AcDbEntity
  8
ASSI
100
AcDbEllipse
 62
7
  6
CONTINUOUS
 10
-11.3414170283
 20
22.2068698035
 30
0.0
 11
0.0
 21
0.5
 31
0.0
 40
0.0261859216
 41
1.308996939
 42
1.5707963268
  0
ELLIPSE
  5
31E
100
AcDbEntity
  8
ASSI
100
AcDbEllipse
 62
7
  6
CONTINUOUS
 10
10.3368386425
 20
0.0622230133
 30
0.0
 11
0.5
 21
0.0
 31
0.0
 40
0.0174550649
 41
-3.1241393611
 42
-1.5707963268
  0
ELLIPSE
  5
31F
100
AcDbEntity
  8
ASSI
100
AcDbEllipse
 62
7
  6
CONTINUOUS
 10
-10.8458586206
 20
0.0622230133
 30
0.0
 11
0.5
 21
0.0
 31
0.0
 40
0.0174550649
 41
-1.5707963268
 42
-0.0174532925
  0
ELLIPSE
  5
320
100
AcDbEntity
  8
ASSI
100
AcDbEllipse
 62
7
  6
CONTINUOUS
 10
10.3453186147
 20
0.5535716449
 30
0.0
 11
0.416247366
 21
-0.2774630169
 31
0.0
 40
0.9995051766
 41
-0.9826238685
 42
0.5877156075
  0
ELLIPSE
  5
321
100
AcDbEntity
  8
ASSI
100
AcDbEllipse
 62
7
  6
CONTINUOUS
 10
-10.8543385928
 20
0.5535716449
 30
0.0
 11
0.416247366
 21
0.2774630169
 31
0.0
 40
0.9995051766
 41
2.5538770461
 42
4.1242165221
  0
ELLIPSE
  5
322
100
AcDbEntity
  8
ASSI
100
AcDbEllipse
 62
7
  6
CONTINUOUS
 10
10.3209331797
 20
-26.0027471165
 30
0.0
 11
0.4677351297
 21
0.1788908786
 31
0.0
 40
0.9906298547
 41
-1.9392450166
 42
-0.3691339225
  0
ELLIPSE
  5
323
100
AcDbEntity
  8
ASSI
100
AcDbEllipse
 62
7
  6
CONTINUOUS
 10
-10.8299531578
 20
-26.0027471165
 30
0.0
 11
0.4677351297
 21
-0.1788908786
 31
0.0
 40
0.9906298547
 41
-2.7724587311
 42
-1.202347637
  0
ELLIPSE
  5
324
100
AcDbEntity
  8
ASSI
100
AcDbEllipse
 62
7
  6
CONTINUOUS
 10
-11.3414170283
 20
-22.4614776989
 30
0.0
 11
-0.0
 21
0.5
 31
0.0
 40
0.0261859216
 41
-4.7123889804
 42
-4.4505895926
  0
ELLIPSE
  5
325
100
AcDbEntity
  8
ASSI
100
AcDbEllipse
 62
7
  6
CONTINUOUS
 10
10.8323970502
 20
-22.4614776989
 30
0.0
 11
0.0
 21
0.5
 31
0.0
 40
0.0261859216
 41
-1.8325957146
 42
-1.5707963268
  0
ELLIPSE
  5
326
100
AcDbEntity
  8
ASSI
100
AcDbEllipse
 62
7
  6
CONTINUOUS
 10
-10.8458586206
 20
-0.3168309088
 30
0.0
 11
0.5
 21
0.0
 31
0.0
 40
0.0174550649
 41
0.0174532925
 42
1.5707963268
  0
ELLIPSE
  5
327
100
AcDbEntity
  8
ASSI
100
AcDbEllipse
 62
7
  6
CONTINUOUS
 10
10.3368386425
 20
-0.3168309088
 30
0.0
 11
0.5
 21
0.0
 31
0.0
 40
0.0174550649
 41
1.5707963268
 42
3.1241393611
  0
ELLIPSE
  5
328
100
AcDbEntity
  8
ASSI
100
AcDbEllipse
 62
7
  6
CONTINUOUS
 10
-10.8543385928
 20
-0.8081795403
 30
0.0
 11
0.416247366
 21
-0.2774630169
 31
0.0
 40
0.9995051766
 41
2.1589687851
 42
3.7293082611
  0
ELLIPSE
  5
329
100
AcDbEntity
  8
ASSI
100
AcDbEllipse
 62
7
  6
CONTINUOUS
 10
10.3453186147
 20
-0.8081795403
 30
0.0
 11
0.416247366
 21
0.2774630169
 31
0.0
 40
0.9995051766
 41
-0.5877156075
 42
0.9826238685
  0
ENDSEC
  0
SECTION
  2
OBJECTS
  0
DICTIONARY
  5
C
100
AcDbDictionary
280
0
281
1
  3
ACAD_GROUP
350
D
  3
ACAD_MLINESTYLE
350
17
  3
ACAD_LAYOUT
350
1A
  3
ACAD_PLOTSETTINGS
350
19
  3
ACAD_PLOTSTYLENAME
350
E
  0
DICTIONARY
  5
D
102
{ACAD_REACTORS
330
C
102
}
100
AcDbDictionary
280
0
281
1
  0
ACDBDICTIONARYWDFLT
  5
E
102
{ACAD_REACTORS
330
C
102
}
100
AcDbDictionary
281
1
  3
Normal
350
F
100
AcDbDictionaryWithDefault
340
F
  0
DICTIONARY
  5
17
102
{ACAD_REACTORS
330
C
102
}
100
AcDbDictionary
280
0
281
1
  3
Standard
350
18
  0
DICTIONARY
  5
19
102
{ACAD_REACTORS
330
C
102
}
100
AcDbDictionary
281
1
  0
DICTIONARY
  5
1A
102
{ACAD_REACTORS
330
C
102
}
100
AcDbDictionary
281
1
  3
Model
350
32A
  3
Layout1
350
32B
  0
ACDBPLACEHOLDER
  5
F
102
{ACAD_REACTORS
330
E
102
}
  0
MLINESTYLE
  5
18
102
{ACAD_REACTORS
330
17
102
}
100
AcDbMlineStyle
  2
STANDARD
 70
0
  3

 62
256
 51
90.0
 52
90.0
 71
2
 49
0.5
 62
256
  6
BYLAYER
 49
-0.5
 62
256
  6
BYLAYER
  0
LAYOUT
  5
32A
102
{ACAD_REACTORS
330
1A
102
}
100
AcDbPlotSettings
  1

  2
none_device
  4

  6

 40
0.0
 41
0.0
 42
0.0
 43
0.0
 44
210.0
 45
297.0
 46
0.0
 47
0.0
 48
0.0
 49
0.0
140
0.0
141
0.0
142
1.0
143
1.0
 70
1024
 72
1
 73
0
 74
0
  7

 75
0
147
1.0
148
0.0
149
0.0
100
AcDbLayout
  1
Model
 70
0
 71
0
 10
0.0
 20
0.0
 11
210.0
 21
297.0
 12
0.0
 22
0.0
 32
0.0
 14
0.0
 24
0.0
 34
0.0
 15
0.0
 25
0.0
 35
0.0
146
0.0
 13
0.0
 23
0.0
 33
0.0
 16
1.0
 26
0.0
 36
0.0
 17
0.0
 27
1.0
 37
0.0
 76
0
330
213
345
0
346
0
  0
LAYOUT
  5
32B
102
{ACAD_REACTORS
330
1A
102
}
100
AcDbPlotSettings
  1

  2
none_device
  4

  6

 40
0.0
 41
0.0
 42
0.0
 43
0.0
 44
210.0
 45
297.0
 46
0.0
 47
0.0
 48
0.0
 49
0.0
140
0.0
141
0.0
142
1.0
143
1.0
 70
0
 72
1
 73
0
 74
0
  7

 75
0
147
1.0
148
0.0
149
0.0
100
AcDbLayout
  1
Layout1
 70
0
 71
1
 10
0.0
 20
0.0
 11
210.0
 21
297.0
 12
0.0
 22
0.0
 32
0.0
 14
0.0
 24
0.0
 34
0.0
 15
0.0
 25
0.0
 35
0.0
146
0.0
 13
0.0
 23
0.0
 33
0.0
 16
1.0
 26
0.0
 36
0.0
 17
0.0
 27
1.0
 37
0.0
 76
0
330
214
345
0
346
0
  0
ENDSEC
  0
EOF
