  0
SECTION
  2
HEADER
  9
$ACADVER
  1
AC1024
  9
$DWGCODEPAGE
  3
ANSI_1252
  9
$EXTMAX
 10
297.0
 20
210.0
 30
0.0
  9
$EXTMIN
 10
0.0
 20
0.0
 30
0.0
  9
$LIMMIN
 10
0.0
 20
0.0
  9
$LIMMAX
 10
297.0
 20
210.0
  9
$VIEWCTR
 10
148.5
 20
105.0
  9
$VIEWSIZE
 40
210.0
  9
$CLAYER
  8
0
  9
$LTSCALE
 40
16.335
  9
$CELTYPE
  6
BYLAYER
  9
$DIMSCALE
 40
1.0
  9
$DIMASZ
 40
3.0
  9
$DIMEXO
 40
0.5
  9
$DIMDLI
 40
11.286
  9
$DIMEXE
 40
1.5
  9
$DIMCEN
 40
2.673
  9
$DIMLFAC
 40
1.0
  9
$DIMBLK
  1
_FILLED
  9
$DIMALT
 70
0
  9
$DIMALTF
 40
0.0393700787
  9
$DIMTXT
 40
3.0
  9
$DIMTOL
 70
1
  9
$DIMLIM
 70
0
  9
$DIMTFAC
 40
1.0
  9
$DIMTP
 40
0.01
  9
$DIMTM
 40
0.01
  9
$DIMGAP
 40
0.625
  9
$DIMDSEP
 70
44
  9
$AUNITS
 70
0
  9
$PDMODE
 70
3
  9
$PDSIZE
 40
3.0
  9
$HANDSEED
  5
2F0
  9
$TILEMODE
 70
1
  9
$MEASUREMENT
 70
1
  9
$INSUNITS
 70
4
  0
ENDSEC
  0
SECTION
  2
CLASSES
  0
CLASS
  1
ACDBDICTIONARYWDFLT
  2
AcDbDictionaryWithDefault
  3
AutoCAD 2000
 90
0
 91
1
280
0
281
0
  0
CLASS
  1
ACDBPLACEHOLDER
  2
AcDbPlaceHolder
  3
AutoCAD 2000
 90
0
 91
1
280
0
281
0
  0
CLASS
  1
LAYOUT
  2
AcDbLayout
  3
AutoCAD 2000
 90
0
 91
0
280
0
281
0
  0
ENDSEC
  0
SECTION
  2
TABLES
  0
TABLE
  2
VPORT
  5
8
100
AcDbSymbolTable
 70
2
  0
VPORT
  5
1F4
100
AcDbSymbolTableRecord
100
AcDbViewportTableRecord
  2
*ACTIVE
 70
0
 10
0.0
 20
0.0
 11
1.0
 21
1.0
 12
148.5
 22
105.0
 13
0.0
 23
0.0
 14
1.0
 24
1.0
 15
0.0
 25
0.0
 16
0.0
 26
0.0
 36
1.0
 17
0.0
 27
0.0
 37
0.0
 40
210.0
 41
1.4142857143
 42
50.0
 43
0.0
 44
0.0
 50
0.0
 51
0.0
 71
0
 72
100
 73
1
 74
1
 75
0
 76
0
 77
0
 78
0
  0
ENDTAB
  0
TABLE
  2
LTYPE
  5
5
100
AcDbSymbolTable
 70
6
  0
LTYPE
  5
14
100
AcDbSymbolTableRecord
100
AcDbLinetypeTableRecord
  2
BYBLOCK
 70
0
  3

 72
65
 73
0
 40
0.0
  0
LTYPE
  5
15
100
AcDbSymbolTableRecord
100
AcDbLinetypeTableRecord
  2
BYLAYER
 70
0
  3

 72
65
 73
0
 40
0.0
  0
LTYPE
  5
16
100
AcDbSymbolTableRecord
100
AcDbLinetypeTableRecord
  2
CONTINUOUS
 70
64
  3
Solid line
 72
65
 73
0
 40
0.0
  0
LTYPE
  5
1F5
100
AcDbSymbolTableRecord
100
AcDbLinetypeTableRecord
  2
CENTER
 70
64
  3
____ _ ____ _ ____ _ ____ _ ____ _ ____ _ ____
 72
65
 73
4
 40
0.6
 49
0.375
 74
0
 49
-0.075
 74
0
 49
0.075
 74
0
 49
-0.075
 74
0
  0
LTYPE
  5
1F6
100
AcDbSymbolTableRecord
100
AcDbLinetypeTableRecord
  2
HIDDEN
 70
64
  3
- - - - - - - - - - - - - - - - - - - -
 72
65
 73
2
 40
0.2
 49
0.1
 74
0
 49
-0.1
 74
0
  0
LTYPE
  5
1F7
100
AcDbSymbolTableRecord
100
AcDbLinetypeTableRecord
  2
PHANTOM
 70
64
  3
_____ _ _ _____ _ _ _____ _ _ _____
 72
65
 73
6
 40
0.8
 49
0.45
 74
0
 49
-0.05
 74
0
 49
0.1
 74
0
 49
-0.05
 74
0
 49
0.1
 74
0
 49
-0.05
 74
0
  0
LTYPE
  5
1F8
100
AcDbSymbolTableRecord
100
AcDbLinetypeTableRecord
  2
DOT
 70
64
  3
. . . . . . . . . . . . . . . . . . . .
 72
65
 73
2
 40
0.2
 49
0.1
 74
0
 49
-0.1
 74
0
  0
LTYPE
  5
1F9
100
AcDbSymbolTableRecord
100
AcDbLinetypeTableRecord
  2
DASHED
 70
64
  3
- - - - - - - - - - - - - - - - - - - -
 72
65
 73
2
 40
0.2
 49
0.1
 74
0
 49
-0.1
 74
0
  0
ENDTAB
  0
TABLE
  2
LAYER
  5
2
100
AcDbSymbolTable
 70
36
  0
LAYER
  5
10
100
AcDbSymbolTableRecord
100
AcDbLayerTableRecord
  2
0
 70
0
 62
7
  6
CONTINUOUS
370
-3
390
F
  0
LAYER
  5
1FA
100
AcDbSymbolTableRecord
100
AcDbLayerTableRecord
  2
DEFAULT_1
 70
0
 62
7
  6
CENTER
370
-3
390
F
  0
LAYER
  5
1FB
100
AcDbSymbolTableRecord
100
AcDbLayerTableRecord
  2
DEFAULT_2
 70
0
 62
7
  6
HIDDEN
370
-3
390
F
  0
LAYER
  5
1FC
100
AcDbSymbolTableRecord
100
AcDbLayerTableRecord
  2
DEFAULT_3
 70
0
 62
7
  6
PHANTOM
370
-3
390
F
  0
LAYER
  5
1FD
100
AcDbSymbolTableRecord
100
AcDbLayerTableRecord
  2
ASSI
 70
0
 62
7
  6
CONTINUOUS
370
-3
390
F
  0
LAYER
  5
1FE
100
AcDbSymbolTableRecord
100
AcDbLayerTableRecord
  2
COLOR17
 70
0
 62
7
  6
CONTINUOUS
370
-3
390
F
  0
LAYER
  5
1FF
100
AcDbSymbolTableRecord
100
AcDbLayerTableRecord
  2
COLOR5
 70
0
 62
7
  6
CONTINUOUS
370
-3
390
F
  0
LAYER
  5
200
100
AcDbSymbolTableRecord
100
AcDbLayerTableRecord
  2
COORDINATE
 70
0
 62
7
  6
CONTINUOUS
370
-3
390
F
  0
LAYER
  5
201
100
AcDbSymbolTableRecord
100
AcDbLayerTableRecord
  2
COPY_PUBLISH
 70
0
 62
7
  6
CONTINUOUS
370
-3
390
F
  0
LAYER
  5
202
100
AcDbSymbolTableRecord
100
AcDbLayerTableRecord
  2
COSMETICI
 70
0
 62
7
  6
CONTINUOUS
370
-3
390
F
  0
LAYER
  5
203
100
AcDbSymbolTableRecord
100
AcDbLayerTableRecord
  2
CURVE
 70
0
 62
7
  6
CONTINUOUS
370
-3
390
F
  0
LAYER
  5
204
100
AcDbSymbolTableRecord
100
AcDbLayerTableRecord
  2
DRAFT
 70
0
 62
7
  6
CONTINUOUS
370
-3
390
F
  0
LAYER
  5
205
100
AcDbSymbolTableRecord
100
AcDbLayerTableRecord
  2
IMPORT_IGES
 70
0
 62
7
  6
CONTINUOUS
370
-3
390
F
  0
LAYER
  5
206
100
AcDbSymbolTableRecord
100
AcDbLayerTableRecord
  2
INTF_1
 70
0
 62
7
  6
CONTINUOUS
370
-3
390
F
  0
LAYER
  5
207
100
AcDbSymbolTableRecord
100
AcDbLayerTableRecord
  2
INTF_10
 70
0
 62
7
  6
CONTINUOUS
370
-3
390
F
  0
LAYER
  5
208
100
AcDbSymbolTableRecord
100
AcDbLayerTableRecord
  2
INTF_11
 70
0
 62
7
  6
CONTINUOUS
370
-3
390
F
  0
LAYER
  5
209
100
AcDbSymbolTableRecord
100
AcDbLayerTableRecord
  2
INTF_12
 70
0
 62
7
  6
CONTINUOUS
370
-3
390
F
  0
LAYER
  5
20A
100
AcDbSymbolTableRecord
100
AcDbLayerTableRecord
  2
INTF_2
 70
0
 62
7
  6
CONTINUOUS
370
-3
390
F
  0
LAYER
  5
20B
100
AcDbSymbolTableRecord
100
AcDbLayerTableRecord
  2
INTF_3
 70
0
 62
7
  6
CONTINUOUS
370
-3
390
F
  0
LAYER
  5
20C
100
AcDbSymbolTableRecord
100
AcDbLayerTableRecord
  2
INTF_4
 70
0
 62
7
  6
CONTINUOUS
370
-3
390
F
  0
LAYER
  5
20D
100
AcDbSymbolTableRecord
100
AcDbLayerTableRecord
  2
INTF_5
 70
0
 62
7
  6
CONTINUOUS
370
-3
390
F
  0
LAYER
  5
20E
100
AcDbSymbolTableRecord
100
AcDbLayerTableRecord
  2
INTF_6
 70
0
 62
7
  6
CONTINUOUS
370
-3
390
F
  0
LAYER
  5
20F
100
AcDbSymbolTableRecord
100
AcDbLayerTableRecord
  2
INTF_7
 70
0
 62
7
  6
CONTINUOUS
370
-3
390
F
  0
LAYER
  5
210
100
AcDbSymbolTableRecord
100
AcDbLayerTableRecord
  2
INTF_9
 70
0
 62
7
  6
CONTINUOUS
370
-3
390
F
  0
LAYER
  5
211
100
AcDbSymbolTableRecord
100
AcDbLayerTableRecord
  2
INTF_BLANK
 70
0
 62
7
  6
CONTINUOUS
370
-3
390
F
  0
LAYER
  5
212
100
AcDbSymbolTableRecord
100
AcDbLayerTableRecord
  2
INTF_RED
 70
0
 62
7
  6
CONTINUOUS
370
-3
390
F
  0
LAYER
  5
213
100
AcDbSymbolTableRecord
100
AcDbLayerTableRecord
  2
NOTE
 70
0
 62
7
  6
CONTINUOUS
370
-3
390
F
  0
LAYER
  5
214
100
AcDbSymbolTableRecord
100
AcDbLayerTableRecord
  2
PIANI
 70
0
 62
7
  6
CONTINUOUS
370
-3
390
F
  0
LAYER
  5
215
100
AcDbSymbolTableRecord
100
AcDbLayerTableRecord
  2
PUNTI
 70
0
 62
7
  6
CONTINUOUS
370
-3
390
F
  0
LAYER
  5
216
100
AcDbSymbolTableRecord
100
AcDbLayerTableRecord
  2
RACCORDO
 70
0
 62
7
  6
CONTINUOUS
370
-3
390
F
  0
LAYER
  5
217
100
AcDbSymbolTableRecord
100
AcDbLayerTableRecord
  2
RGB____0____0____0__
 70
0
 62
7
  6
CONTINUOUS
370
-3
390
F
  0
LAYER
  5
218
100
AcDbSymbolTableRecord
100
AcDbLayerTableRecord
  2
SIMBOLI
 70
0
 62
7
  6
CONTINUOUS
370
-3
390
F
  0
LAYER
  5
219
100
AcDbSymbolTableRecord
100
AcDbLayerTableRecord
  2
SMUSSO
 70
0
 62
7
  6
CONTINUOUS
370
-3
390
F
  0
LAYER
  5
21A
100
AcDbSymbolTableRecord
100
AcDbLayerTableRecord
  2
SNAPLINE
 70
0
 62
7
  6
CONTINUOUS
370
-3
390
F
  0
LAYER
  5
21B
100
AcDbSymbolTableRecord
100
AcDbLayerTableRecord
  2
SUPERFICI
 70
0
 62
7
  6
CONTINUOUS
370
-3
390
F
  0
LAYER
  5
21C
100
AcDbSymbolTableRecord
100
AcDbLayerTableRecord
  2
TRASH
 70
0
 62
7
  6
CONTINUOUS
370
-3
390
F
  0
LAYER
  5
21D
100
AcDbSymbolTableRecord
100
AcDbLayerTableRecord
  2
___SHELL
 70
0
 62
7
  6
CONTINUOUS
370
-3
390
F
  0
ENDTAB
  0
TABLE
  2
STYLE
  5
3
100
AcDbSymbolTable
 70
1
  0
STYLE
  5
11
100
AcDbSymbolTableRecord
100
AcDbTextStyleTableRecord
  2
STANDARD
 70
0
 40
0.0
 41
0.8
 50
0.0
 71
0
 42
0.2
  3
txt
  4

  0
STYLE
  5
21E
100
AcDbSymbolTableRecord
100
AcDbTextStyleTableRecord
  2
TEXTSTYLE_1
 70
0
 40
0.0
 41
0.8
 50
0.0
 71
0
 42
0.2
  3
gdt
  4

  0
ENDTAB
  0
TABLE
  2
VIEW
  5
6
100
AcDbSymbolTable
 70
0
  0
ENDTAB
  0
TABLE
  2
UCS
  5
7
100
AcDbSymbolTable
 70
0
  0
ENDTAB
  0
TABLE
  2
APPID
  5
9
100
AcDbSymbolTable
 70
1
  0
APPID
  5
21F
100
AcDbSymbolTableRecord
100
AcDbRegAppTableRecord
  2
ACAD
 70
0
  0
ENDTAB
  0
TABLE
  2
BLOCK_RECORD
  5
1
100
AcDbSymbolTable
 70
0
  0
BLOCK_RECORD
  5
220
100
AcDbSymbolTableRecord
100
AcDbBlockTableRecord
  2
*Model_Space
  0
BLOCK_RECORD
  5
221
100
AcDbSymbolTableRecord
100
AcDbBlockTableRecord
  2
*Paper_Space
  0
BLOCK_RECORD
  5
222
100
AcDbSymbolTableRecord
100
AcDbBlockTableRecord
  2
_FILLED
  0
BLOCK_RECORD
  5
223
100
AcDbSymbolTableRecord
100
AcDbBlockTableRecord
  2
*D0
  0
BLOCK_RECORD
  5
224
100
AcDbSymbolTableRecord
100
AcDbBlockTableRecord
  2
*D1
  0
BLOCK_RECORD
  5
225
100
AcDbSymbolTableRecord
100
AcDbBlockTableRecord
  2
*D2
  0
BLOCK_RECORD
  5
226
100
AcDbSymbolTableRecord
100
AcDbBlockTableRecord
  2
*D3
  0
ENDTAB
  0
TABLE
  2
DIMSTYLE
  5
A
100
AcDbSymbolTable
 70
1
100
AcDbDimStyleTable
 71
0
  0
DIMSTYLE
105
227
100
AcDbSymbolTableRecord
100
AcDbDimStyleTableRecord
  2
STANDARD
 70
0
  3

  4

 40
1.0
 41
3.0
 42
0.5
 43
0.38
 44
1.5
 45
0.0
 46
0.0
 47
0.01
 48
0.01
140
3.0
141
0.09
142
0.0
143
25.4
144
1.0
145
0.0
146
1.0
147
0.625
 71
1
 72
0
 73
0
 74
0
 75
0
 76
0
 77
1
 78
8
 79
2
170
0
171
1
172
0
173
0
174
0
175
0
176
0
177
0
178
0
270
2
179
2
271
2
272
2
273
2
274
2
275
0
280
0
281
0
282
0
283
1
284
8
285
0
286
0
287
3
288
0
340
11
278
44
341
222
342
222
343
222
344
222
  0
DIMSTYLE
105
228
100
AcDbSymbolTableRecord
100
AcDbDimStyleTableRecord
  2
DIMSTYLE_1
 70
0
  3

  4

 40
1.0
 41
3.0
 42
0.5
 43
0.38
 44
1.5
 45
0.0
 46
0.0
 47
0.0
 48
0.0
140
3.0
141
0.09
142
0.0
143
25.4
144
1.0
145
0.0
146
1.0
147
0.75
 71
0
 72
0
 73
0
 74
0
 75
0
 76
0
 77
1
 78
8
 79
2
170
0
171
1
172
0
173
0
174
0
175
0
176
0
177
0
178
0
270
2
179
2
271
1
272
1
273
2
274
2
275
0
280
0
281
0
282
0
283
1
284
8
285
0
286
0
287
3
288
0
340
11
278
44
341
222
342
222
343
222
344
222
  0
DIMSTYLE
105
229
100
AcDbSymbolTableRecord
100
AcDbDimStyleTableRecord
  2
DIMSTYLE_2
 70
0
  3

  4

 40
1.0
 41
3.0
 42
0.5
 43
0.38
 44
1.5
 45
0.0
 46
0.0
 47
0.0
 48
0.0
140
3.0
141
0.09
142
0.0
143
25.4
144
1.0
145
0.0
146
1.0
147
0.75
 71
0
 72
0
 73
0
 74
0
 75
0
 76
0
 77
1
 78
8
 79
2
170
0
171
1
172
0
173
0
174
0
175
0
176
0
177
0
178
0
270
2
179
2
271
2
272
2
273
2
274
2
275
0
280
0
281
0
282
0
283
1
284
8
285
0
286
0
287
3
288
0
340
11
278
44
341
222
342
222
343
222
344
222
  0
ENDTAB
  0
ENDSEC
  0
SECTION
  2
BLOCKS
  0
BLOCK
  5
20
100
AcDbEntity
  8
0
100
AcDbBlockBegin
  2
*Model_Space
 70
0
 10
0.0
 20
0.0
 30
0.0
  3
*Model_Space
  1

  0
ENDBLK
  5
21
100
AcDbEntity
  8
0
100
AcDbBlockEnd
  0
BLOCK
  5
1C
100
AcDbEntity
  8
0
100
AcDbBlockBegin
  2
*Paper_Space
 70
0
 10
0.0
 20
0.0
 30
0.0
  3
*Paper_Space
  1

  0
ENDBLK
  5
1D
100
AcDbEntity
  8
0
100
AcDbBlockEnd
  0
BLOCK
  5
22A
100
AcDbEntity
  8
0
100
AcDbBlockBegin
  2
_FILLED
 70
64
 10
0.0
 20
0.0
  3
_FILLED
  1

  0
SOLID
  5
22B
100
AcDbEntity
  8
0
  6
BYBLOCK
 62
0
100
AcDbTrace
 10
0.0
 20
0.0
 11
-1.0
 21
0.3166666667
 12
-1.0
 22
-0.3166666667
 13
-1.0
 23
-0.3166666667
  0
ENDBLK
  5
22C
100
AcDbEntity
  8
0
  6
BYBLOCK
 62
0
100
AcDbBlockEnd
  0
BLOCK
  5
22D
100
AcDbEntity
  8
0
100
AcDbBlockBegin
 62
7
  6
CONTINUOUS
  2
*D0
 70
65
 10
0.0
 20
0.0
  3
*D0
  1

  0
MTEXT
  5
22E
100
AcDbEntity
  8
0
100
AcDbMText
 62
7
  6
CONTINUOUS
  7
STANDARD
 71
2
 72
1
 10
15.480851124
 20
0.0157115529
 30
0.0
 11
0.0
 21
1.0
 31
0.0
 73
2
 44
0.9
  1
{\ftxt;\W0.0001;\H0.0001;\~}{\ftxt;\W2.8571428571;\H3.0; }{\ftxt;\W0.0001;\H0.0001;\~}
 40
3.0
 41
12.8571428571
  0
LINE
  5
22F
100
AcDbEntity
  8
0
100
AcDbLine
 62
7
  6
CONTINUOUS
 10
11.1001713375
 20
26.4
 11
20.730851124
 21
26.4
  0
LINE
  5
230
100
AcDbEntity
  8
0
100
AcDbLine
 62
7
  6
CONTINUOUS
 10
11.0687482316
 20
-26.3685768941
 11
20.730851124
 21
-26.3685768941
  0
LINE
  5
231
100
AcDbEntity
  8
0
100
AcDbLine
 62
7
  6
CONTINUOUS
 10
19.230851124
 20
26.4
 11
19.230851124
 21
0.0157115529
  0
LINE
  5
232
100
AcDbEntity
  8
0
100
AcDbLine
 62
7
  6
CONTINUOUS
 10
19.230851124
 20
-26.3685768941
 11
19.230851124
 21
0.0157115529
  0
INSERT
  5
233
100
AcDbEntity
  8
0
100
AcDbBlockReference
 62
7
  6
CONTINUOUS
  2
_FILLED
 10
19.230851124
 20
26.4
 41
3.0
 42
3.0
 43
3.0
 50
90.0
  0
INSERT
  5
234
100
AcDbEntity
  8
0
100
AcDbBlockReference
 62
7
  6
CONTINUOUS
  2
_FILLED
 10
19.230851124
 20
-26.3685768941
 41
3.0
 42
3.0
 43
3.0
 50
270.0
  0
ENDBLK
  5
235
100
AcDbEntity
  8
0
  6
BYBLOCK
 62
0
100
AcDbBlockEnd
  0
BLOCK
  5
236
100
AcDbEntity
  8
0
100
AcDbBlockBegin
 62
7
  6
CONTINUOUS
  2
*D1
 70
65
 10
0.0
 20
0.0
  3
*D1
  1

  0
MTEXT
  5
237
100
AcDbEntity
  8
0
100
AcDbMText
 62
7
  6
CONTINUOUS
  7
STANDARD
 71
2
 72
1
 10
0.0
 20
38.280851124
 30
0.0
 11
1.0
 21
0.0
 31
0.0
 73
2
 44
0.9
  1
{\ftxt;\W0.0001;\H0.0001;\~}{\ftxt;\W2.9285714286;\H3.0; }{\ftxt;\W0.0001;\H0.0001;\~}
 40
3.0
 41
13.1785714286
  0
LINE
  5
238
100
AcDbEntity
  8
0
100
AcDbLine
 62
7
  6
CONTINUOUS
 10
-11.1
 20
26.4001713375
 11
-11.1
 21
36.030851124
  0
LINE
  5
239
100
AcDbEntity
  8
0
100
AcDbLine
 62
7
  6
CONTINUOUS
 10
11.1
 20
26.4001713375
 11
11.1
 21
36.030851124
  0
LINE
  5
23A
100
AcDbEntity
  8
0
100
AcDbLine
 62
7
  6
CONTINUOUS
 10
-11.1
 20
34.530851124
 11
0.0
 21
34.530851124
  0
LINE
  5
23B
100
AcDbEntity
  8
0
100
AcDbLine
 62
7
  6
CONTINUOUS
 10
11.1
 20
34.530851124
 11
0.0
 21
34.530851124
  0
INSERT
  5
23C
100
AcDbEntity
  8
0
100
AcDbBlockReference
 62
7
  6
CONTINUOUS
  2
_FILLED
 10
-11.1
 20
34.530851124
 41
3.0
 42
3.0
 43
3.0
 50
180.0
  0
INSERT
  5
23D
100
AcDbEntity
  8
0
100
AcDbBlockReference
 62
7
  6
CONTINUOUS
  2
_FILLED
 10
11.1
 20
34.530851124
 41
3.0
 42
3.0
 43
3.0
  0
ENDBLK
  5
23E
100
AcDbEntity
  8
0
  6
BYBLOCK
 62
0
100
AcDbBlockEnd
  0
BLOCK
  5
23F
100
AcDbEntity
  8
0
100
AcDbBlockBegin
 62
7
  6
CONTINUOUS
  2
*D2
 70
65
 10
0.0
 20
0.0
  3
*D2
  1

  0
MTEXT
  5
240
100
AcDbEntity
  8
0
100
AcDbMText
 62
7
  6
CONTINUOUS
  7
STANDARD
 71
3
 72
1
 10
-34.7395814329
 20
46.280851124
 30
0.0
 11
1.0
 21
0.0
 31
0.0
 73
2
 44
0.9
  1
{\ftxt;\W0.0001;\H0.0001;\~}{\ftxt;\W1.3571428571;\H3.0; }{\ftxt;\W0.0001;\H0.0001;\~}
 40
3.0
 41
6.1071428571
  0
LINE
  5
241
100
AcDbEntity
  8
0
100
AcDbLine
 62
7
  6
CONTINUOUS
 10
-22.7546748782
 20
10.9472268786
 11
-22.7546748782
 21
44.030851124
  0
LINE
  5
242
100
AcDbEntity
  8
0
100
AcDbLine
 62
7
  6
CONTINUOUS
 10
-32.7216833545
 20
-24.6521575846
 11
-32.7216833545
 21
44.030851124
  0
LINE
  5
243
100
AcDbEntity
  8
0
100
AcDbLine
 62
7
  6
CONTINUOUS
 10
-22.7546748782
 20
42.530851124
 11
-27.7381791163
 21
42.530851124
  0
LINE
  5
244
100
AcDbEntity
  8
0
100
AcDbLine
 62
7
  6
CONTINUOUS
 10
-32.7216833545
 20
42.530851124
 11
-27.7381791163
 21
42.530851124
  0
LINE
  5
245
100
AcDbEntity
  8
0
100
AcDbLine
 62
7
  6
CONTINUOUS
 10
-27.7381791163
 20
42.530851124
 11
-38.8110100044
 21
42.530851124
  0
INSERT
  5
246
100
AcDbEntity
  8
0
100
AcDbBlockReference
 62
7
  6
CONTINUOUS
  2
_FILLED
 10
-22.7546748782
 20
42.530851124
 41
3.0
 42
3.0
 43
3.0
  0
INSERT
  5
247
100
AcDbEntity
  8
0
100
AcDbBlockReference
 62
7
  6
CONTINUOUS
  2
_FILLED
 10
-32.7216833545
 20
42.530851124
 41
3.0
 42
3.0
 43
3.0
 50
180.0
  0
ENDBLK
  5
248
100
AcDbEntity
  8
0
  6
BYBLOCK
 62
0
100
AcDbBlockEnd
  0
BLOCK
  5
249
100
AcDbEntity
  8
0
100
AcDbBlockBegin
 62
7
  6
CONTINUOUS
  2
*D3
 70
65
 10
0.0
 20
0.0
  3
*D3
  1

  0
MTEXT
  5
24A
100
AcDbEntity
  8
0
100
AcDbMText
 62
7
  6
CONTINUOUS
  7
STANDARD
 71
3
 72
1
 10
-34.705799008
 20
38.280851124
 30
0.0
 11
1.0
 21
0.0
 31
0.0
 73
2
 44
0.9
  1
{\ftxt;\W0.0001;\H0.0001;\~}{\ftxt;\W2.0714285714;\H3.0; }{\ftxt;\W0.0001;\H0.0001;\~}
 40
3.0
 41
9.3214285714
  0
LINE
  5
24B
100
AcDbEntity
  8
0
100
AcDbLine
 62
7
  6
CONTINUOUS
 10
-26.2546748782
 20
26.4001713375
 11
-26.2546748782
 21
36.030851124
  0
LINE
  5
24C
100
AcDbEntity
  8
0
100
AcDbLine
 62
7
  6
CONTINUOUS
 10
-32.7244224068
 20
-24.7044218162
 11
-32.7244224068
 21
36.030851124
  0
LINE
  5
24D
100
AcDbEntity
  8
0
100
AcDbLine
 62
7
  6
CONTINUOUS
 10
-26.2546748782
 20
34.530851124
 11
-29.4895486425
 21
34.530851124
  0
LINE
  5
24E
100
AcDbEntity
  8
0
100
AcDbLine
 62
7
  6
CONTINUOUS
 10
-32.7244224068
 20
34.530851124
 11
-29.4895486425
 21
34.530851124
  0
LINE
  5
24F
100
AcDbEntity
  8
0
100
AcDbLine
 62
7
  6
CONTINUOUS
 10
-29.4895486425
 20
34.530851124
 11
-40.9200847223
 21
34.530851124
  0
INSERT
  5
250
100
AcDbEntity
  8
0
100
AcDbBlockReference
 62
7
  6
CONTINUOUS
  2
_FILLED
 10
-26.2546748782
 20
34.530851124
 41
3.0
 42
3.0
 43
3.0
  0
INSERT
  5
251
100
AcDbEntity
  8
0
100
AcDbBlockReference
 62
7
  6
CONTINUOUS
  2
_FILLED
 10
-32.7244224068
 20
34.530851124
 41
3.0
 42
3.0
 43
3.0
 50
180.0
  0
ENDBLK
  5
252
100
AcDbEntity
  8
0
  6
BYBLOCK
 62
0
100
AcDbBlockEnd
  0
ENDSEC
  0
SECTION
  2
ENTITIES
  0
DIMENSION
  5
253
100
AcDbEntity
  8
0
100
AcDbDimension
 62
7
  6
CONTINUOUS
  2
*D0
 10
19.230851124
 20
-26.3685768941
 11
19.230851124
 21
-0.4128604314
 70
160
 71
2
 72
2
 41
0.9
 42
52.7685768941
  1
{\ftxt;\W0.0001;\H0.0001;\~}{\ftxt;\W2.8571428571;\H3.0; }{\ftxt;\W0.0001;\H0.0001;\~}
  3
DIMSTYLE_1
100
AcDbAlignedDimension
 13
10.6001713375
 23
26.4
 14
10.5687482316
 24
-26.3685768941
 50
270.0
100
AcDbRotatedDimension
  0
DIMENSION
  5
254
100
AcDbEntity
  8
0
100
AcDbDimension
 62
7
  6
CONTINUOUS
  2
*D1
 10
11.1
 20
34.530851124
 11
-0.4285713773
 21
34.530851124
 70
160
 71
2
 72
2
 41
0.9
 42
22.2
  1
{\ftxt;\W0.0001;\H0.0001;\~}{\ftxt;\W2.9285714286;\H3.0; }{\ftxt;\W0.0001;\H0.0001;\~}
  3
DIMSTYLE_2
100
AcDbAlignedDimension
 13
-11.1
 23
25.9001713375
 14
11.1
 24
25.9001713375
100
AcDbRotatedDimension
  0
DIMENSION
  5
255
100
AcDbEntity
  8
0
100
AcDbDimension
 62
7
  6
CONTINUOUS
  2
*D2
 10
-32.7216833545
 20
42.530851124
 11
-37.2038679657
 21
42.530851124
 70
160
 71
3
 72
2
 41
0.9
 42
9.9670084764
  1
{\ftxt;\W0.0001;\H0.0001;\~}{\ftxt;\W1.3571428571;\H3.0; }{\ftxt;\W0.0001;\H0.0001;\~}
  3
DIMSTYLE_1
100
AcDbAlignedDimension
 13
-22.7546748782
 23
10.4472268786
 14
-32.7216833545
 24
-25.1521575846
 50
180.0
100
AcDbRotatedDimension
  0
DIMENSION
  5
256
100
AcDbEntity
  8
0
100
AcDbDimension
 62
7
  6
CONTINUOUS
  2
*D3
 10
-32.7244224068
 20
34.530851124
 11
-38.2415133018
 21
34.530851124
 70
160
 71
3
 72
2
 41
0.9
 42
6.4697475287
  1
{\ftxt;\W0.0001;\H0.0001;\~}{\ftxt;\W2.0714285714;\H3.0; }{\ftxt;\W0.0001;\H0.0001;\~}
  3
DIMSTYLE_1
100
AcDbAlignedDimension
 13
-26.2546748782
 23
25.9001713375
 14
-32.7244224068
 24
-25.2044218162
 50
180.0
100
AcDbRotatedDimension
  0
LINE
  5
257
100
AcDbEntity
  8
ASSI
100
AcDbLine
 62
7
  6
CONTINUOUS
 10
-10.5687482316
 20
-26.3685768941
 11
10.5687482316
 21
-26.3685768941
  0
LINE
  5
258
100
AcDbEntity
  8
ASSI
100
AcDbLine
 62
250
  6
CONTINUOUS
 10
10.5205507771
 20
-26.3203794396
 11
-10.5205507771
 21
-26.3203794396
  0
LINE
  5
259
100
AcDbEntity
  8
ASSI
100
AcDbLine
 62
250
  6
CONTINUOUS
 10
10.5181743647
 20
-26.2989189342
 11
-10.5181743647
 21
-26.2989189342
  0
LINE
  5
25A
100
AcDbEntity
  8
ASSI
100
AcDbLine
 62
250
  6
CONTINUOUS
 10
10.4435052632
 20
-25.693520226
 11
-10.4435052632
 21
-25.693520226
  0
LINE
  5
25B
100
AcDbEntity
  8
ASSI
100
AcDbLine
 62
250
  6
CONTINUOUS
 10
10.4435052632
 20
-25.1521575846
 11
-10.4435052632
 21
-25.1521575846
  0
LINE
  5
25C
100
AcDbEntity
  8
CURVE
100
AcDbLine
 62
250
  6
CONTINUOUS
 10
-0.8988254121
 20
-15.9987331812
 11
0.8988254121
 21
-15.9987331812
  0
LINE
  5
25D
100
AcDbEntity
  8
CURVE
100
AcDbLine
 62
250
  6
CONTINUOUS
 10
0.8988254121
 20
-14.0012668188
 11
-0.8988254121
 21
-14.0012668188
  0
LINE
  5
25E
100
AcDbEntity
  8
ASSI
100
AcDbLine
 62
7
  6
CONTINUOUS
 10
-11.0876877288
 20
-21.5603466497
 11
-11.0704147967
 21
-22.3464590985
  0
LINE
  5
25F
100
AcDbEntity
  8
ASSI
100
AcDbLine
 62
250
  6
CONTINUOUS
 10
-10.9433339257
 20
-25.2044218162
 11
-10.9843922303
 21
-10.2863417665
  0
LINE
  5
260
100
AcDbEntity
  8
ASSI
100
AcDbLine
 62
7
  6
CONTINUOUS
 10
-11.0995963877
 20
-14.1133630491
 11
-11.0899292437
 21
-18.8041550564
  0
LINE
  5
261
100
AcDbEntity
  8
ASSI
100
AcDbLine
 62
7
  6
CONTINUOUS
 10
-11.1
 20
25.9001713375
 11
-11.1
 21
-13.7210675705
  0
LINE
  5
262
100
AcDbEntity
  8
ASSI
100
AcDbLine
 62
7
  6
CONTINUOUS
 10
-11.0895256314
 20
-19.196450535
 11
-11.0895256314
 21
-21.3675103668
  0
LINE
  5
263
100
AcDbEntity
  8
ASSI
100
AcDbLine
 62
7
  6
CONTINUOUS
 10
-11.0685768941
 20
-25.8687482316
 11
-11.0685768941
 21
-22.5392953814
  0
LINE
  5
264
100
AcDbEntity
  8
ASSI
100
AcDbLine
 62
250
  6
CONTINUOUS
 10
-11.0132437251
 20
10.7371426949
 11
-11.0132437251
 21
25.8134150626
  0
LINE
  5
265
100
AcDbEntity
  8
ASSI
100
AcDbLine
 62
250
  6
CONTINUOUS
 10
-10.5134150626
 20
10.7371426949
 11
-10.5134150626
 21
26.3132437251
  0
LINE
  5
266
100
AcDbEntity
  8
ASSI
100
AcDbLine
 62
250
  6
CONTINUOUS
 10
-10.4435052632
 20
-25.693520226
 11
-10.4845635678
 21
-10.2340775349
  0
LWPOLYLINE
  5
267
100
AcDbEntity
  8
0
100
AcDbPolyline
 62
7
  6
CONTINUOUS
 90
3
 70
0
 43
0.3500000006
 10
1.035714268
 20
35.5665654144
 10
0.9642857051
 20
35.3522809296
 10
0.8214285793
 20
35.0665652618
  0
LINE
  5
268
100
AcDbEntity
  8
ASSI
100
AcDbLine
 62
250
  6
CONTINUOUS
 10
10.6001713375
 20
26.4
 11
10.5134150626
 21
26.3132437251
  0
LINE
  5
269
100
AcDbEntity
  8
ASSI
100
AcDbLine
 62
250
  6
CONTINUOUS
 10
11.1
 20
25.9001713375
 11
11.0132437251
 21
25.8134150626
  0
LINE
  5
26A
100
AcDbEntity
  8
ASSI
100
AcDbLine
 62
250
  6
CONTINUOUS
 10
-10.4845635678
 20
-10.2340775349
 11
10.4845635678
 21
-10.2340775349
  0
LINE
  5
26B
100
AcDbEntity
  8
ASSI
100
AcDbLine
 62
250
  6
CONTINUOUS
 10
10.5205507771
 20
-26.3203794396
 11
10.5687482316
 21
-26.3685768941
  0
LINE
  5
26C
100
AcDbEntity
  8
ASSI
100
AcDbLine
 62
250
  6
CONTINUOUS
 10
11.0203794396
 20
-25.8205507771
 11
11.0685768941
 21
-25.8687482316
  0
LINE
  5
26D
100
AcDbEntity
  8
ASSI
100
AcDbLine
 62
250
  6
CONTINUOUS
 10
-11.0180030272
 20
-25.8098205244
 11
-10.9433339257
 21
-25.2044218162
  0
LINE
  5
26E
100
AcDbEntity
  8
ASSI
100
AcDbLine
 62
250
  6
CONTINUOUS
 10
-10.5181743647
 20
-26.2989189342
 11
-10.4435052632
 21
-25.693520226
  0
LINE
  5
26F
100
AcDbEntity
  8
CURVE
100
AcDbLine
 62
250
  6
CONTINUOUS
 10
-0.9987331812
 20
-14.1011745879
 11
-0.9987331812
 21
-15.8988254121
  0
LINE
  5
270
100
AcDbEntity
  8
CURVE
100
AcDbLine
 62
250
  6
CONTINUOUS
 10
0.9987331812
 20
-15.8988254121
 11
0.9987331812
 21
-14.1011745879
  0
LWPOLYLINE
  5
271
100
AcDbEntity
  8
0
100
AcDbPolyline
 62
7
  6
CONTINUOUS
 90
4
 70
0
 43
0.3500000006
 10
18.0522793694
 20
1.9442833328
 10
17.195136898
 20
1.9442833328
 10
16.7665656624
 20
2.3728545685
 10
16.7665656624
 20
3.0157125549
  0
LWPOLYLINE
  5
272
100
AcDbEntity
  8
0
100
AcDbPolyline
 62
7
  6
CONTINUOUS
 90
10
 70
0
 43
0.3500000006
 10
17.9808515854
 20
0.8728541107
 10
18.1237082863
 20
0.9442830276
 10
18.1951372032
 20
0.9442830276
 10
18.3379939041
 20
0.8014251938
 10
18.3379939041
 20
0.7299962769
 10
18.2665649872
 20
0.6585696259
 10
18.1951372032
 20
0.6585696259
 10
18.0522793694
 20
0.7299962769
 10
17.9808515854
 20
0.8014251938
 10
17.9808515854
 20
0.8728541107
  0
LWPOLYLINE
  5
273
100
AcDbEntity
  8
0
100
AcDbPolyline
 62
7
  6
CONTINUOUS
 90
3
 70
0
 43
0.3500000006
 10
18.1951372032
 20
0.9442830276
 10
18.409422821
 20
0.8728541107
 10
18.6951373558
 20
0.7299962769
  0
LINE
  5
274
100
AcDbEntity
  8
ASSI
100
AcDbLine
 62
250
  6
CONTINUOUS
 10
10.4435052632
 20
-25.693520226
 11
10.5181743647
 21
-26.2989189342
  0
LINE
  5
275
100
AcDbEntity
  8
ASSI
100
AcDbLine
 62
250
  6
CONTINUOUS
 10
10.9433339257
 20
-25.2044218162
 11
11.0180030272
 21
-25.8098205244
  0
LINE
  5
276
100
AcDbEntity
  8
ASSI
100
AcDbLine
 62
250
  6
CONTINUOUS
 10
10.5134150626
 20
26.3132437251
 11
10.5134150626
 21
10.7371426949
  0
LINE
  5
277
100
AcDbEntity
  8
ASSI
100
AcDbLine
 62
250
  6
CONTINUOUS
 10
11.0132437251
 20
25.8134150626
 11
11.0132437251
 21
10.7371426949
  0
LINE
  5
278
100
AcDbEntity
  8
ASSI
100
AcDbLine
 62
7
  6
CONTINUOUS
 10
11.0685768941
 20
-25.8687482316
 11
11.0685768941
 21
-22.5392953814
  0
LINE
  5
279
100
AcDbEntity
  8
ASSI
100
AcDbLine
 62
7
  6
CONTINUOUS
 10
11.0895256314
 20
-19.196450535
 11
11.0895256314
 21
-21.3675103668
  0
LINE
  5
27A
100
AcDbEntity
  8
ASSI
100
AcDbLine
 62
7
  6
CONTINUOUS
 10
11.1
 20
-13.7210675705
 11
11.1
 21
25.9001713375
  0
LINE
  5
27B
100
AcDbEntity
  8
ASSI
100
AcDbLine
 62
7
  6
CONTINUOUS
 10
11.0995963877
 20
-14.1133630491
 11
11.0899292437
 21
-18.8041550564
  0
LINE
  5
27C
100
AcDbEntity
  8
ASSI
100
AcDbLine
 62
250
  6
CONTINUOUS
 10
10.4845635678
 20
-10.2340775349
 11
10.4435052632
 21
-25.693520226
  0
LINE
  5
27D
100
AcDbEntity
  8
ASSI
100
AcDbLine
 62
250
  6
CONTINUOUS
 10
10.9843922303
 20
-10.2863417665
 11
10.9433339257
 21
-25.2044218162
  0
LINE
  5
27E
100
AcDbEntity
  8
ASSI
100
AcDbLine
 62
7
  6
CONTINUOUS
 10
11.0876877288
 20
-21.5603466497
 11
11.0704147967
 21
-22.3464590985
  0
LINE
  5
27F
100
AcDbEntity
  8
ASSI
100
AcDbLine
 62
250
  6
CONTINUOUS
 10
-11.0685768941
 20
-25.8687482316
 11
-11.0203794396
 21
-25.8205507771
  0
LINE
  5
280
100
AcDbEntity
  8
ASSI
100
AcDbLine
 62
250
  6
CONTINUOUS
 10
-10.5687482316
 20
-26.3685768941
 11
-10.5205507771
 21
-26.3203794396
  0
LINE
  5
281
100
AcDbEntity
  8
ASSI
100
AcDbLine
 62
250
  6
CONTINUOUS
 10
11.0132437251
 20
10.7371426949
 11
-11.0132437251
 21
10.7371426949
  0
LINE
  5
282
100
AcDbEntity
  8
ASSI
100
AcDbLine
 62
250
  6
CONTINUOUS
 10
-11.0132437251
 20
25.8134150626
 11
-11.1
 21
25.9001713375
  0
LINE
  5
283
100
AcDbEntity
  8
ASSI
100
AcDbLine
 62
250
  6
CONTINUOUS
 10
-10.5134150626
 20
26.3132437251
 11
-10.6001713375
 21
26.4
  0
LWPOLYLINE
  5
284
100
AcDbEntity
  8
0
100
AcDbPolyline
 62
7
  6
CONTINUOUS
 90
13
 70
0
 43
0.3500000006
 10
16.7665656624
 20
2.3728545685
 10
16.5522800446
 20
2.0871411667
 10
15.9094220581
 20
2.0871411667
 10
15.4808508224
 20
2.3728545685
 10
15.4808508224
 20
3.0157125549
 10
15.9094220581
 20
3.3014259567
 10
16.5522800446
 20
3.3014259567
 10
16.7665656624
 20
3.0157125549
 10
17.195136898
 20
3.4442837906
 10
18.0522793694
 20
3.4442837906
 10
18.480850605
 20
3.0157125549
 10
18.480850605
 20
2.3728545685
 10
18.0522793694
 20
1.9442833328
  0
LWPOLYLINE
  5
285
100
AcDbEntity
  8
0
100
AcDbPolyline
 62
7
  6
CONTINUOUS
 90
10
 70
0
 43
0.3500000006
 10
0.9642857051
 20
35.7808498993
 10
1.035714268
 20
35.6379920654
 10
1.035714268
 20
35.5665654144
 10
0.8928571422
 20
35.4237075806
 10
0.8214285793
 20
35.4237075806
 10
0.7500000165
 20
35.4951387634
 10
0.7500000165
 20
35.5665654144
 10
0.8214285793
 20
35.7094232483
 10
0.8928571422
 20
35.7808498993
 10
0.9642857051
 20
35.7808498993
  0
LWPOLYLINE
  5
286
100
AcDbEntity
  8
0
100
AcDbPolyline
 62
7
  6
CONTINUOUS
 90
7
 70
0
 43
0.3500000006
 10
18.480850605
 20
-0.627146347
 10
18.480850605
 20
-2.1271456718
 10
16.3379944267
 20
-0.627146347
 10
15.9094220581
 20
-0.627146347
 10
15.4808508224
 20
-1.0557175827
 10
15.4808508224
 20
-1.6985744362
 10
16.1237088089
 20
-2.1271456718
  0
LWPOLYLINE
  5
287
100
AcDbEntity
  8
0
100
AcDbPolyline
 62
7
  6
CONTINUOUS
 90
8
 70
0
 43
0.3500000006
 10
18.480850605
 20
-4.2700029831
 10
18.480850605
 20
-3.4128593788
 10
18.0522793694
 20
-2.9842881432
 10
17.195136898
 20
-2.9842881432
 10
16.7665656624
 20
-3.4128593788
 10
16.7665656624
 20
-4.2700029831
 10
15.4808508224
 20
-4.2700029831
 10
15.4808508224
 20
-2.9842881432
  0
LINE
  5
288
100
AcDbEntity
  8
ASSI
100
AcDbLine
 62
250
  6
CONTINUOUS
 10
11.0132437251
 20
25.8134150626
 11
-11.0132437251
 21
25.8134150626
  0
LINE
  5
289
100
AcDbEntity
  8
ASSI
100
AcDbLine
 62
250
  6
CONTINUOUS
 10
10.5134150626
 20
26.3132437251
 11
-10.5134150626
 21
26.3132437251
  0
LINE
  5
28A
100
AcDbEntity
  8
ASSI
100
AcDbLine
 62
7
  6
CONTINUOUS
 10
10.6001713375
 20
26.4
 11
-10.6001713375
 21
26.4
  0
LWPOLYLINE
  5
28B
100
AcDbEntity
  8
0
100
AcDbPolyline
 62
7
  6
CONTINUOUS
 90
7
 70
0
 43
0.3500000006
 10
3.5357143936
 20
35.2808497467
 10
2.0357142191
 20
35.2808497467
 10
3.5357143936
 20
37.4237081909
 10
3.5357143936
 20
37.8522816925
 10
3.1071428747
 20
38.2808506622
 10
2.464285738
 20
38.2808506622
 10
2.0357142191
 20
37.6379926758
  0
LWPOLYLINE
  5
28C
100
AcDbEntity
  8
0
100
AcDbPolyline
 62
7
  6
CONTINUOUS
 90
7
 70
0
 43
0.3500000006
 10
-0.5357142924
 20
35.2808497467
 10
-2.0357142191
 20
35.2808497467
 10
-0.5357142924
 20
37.4237081909
 10
-0.5357142924
 20
37.8522816925
 10
-0.9642857051
 20
38.2808506622
 10
-1.6071428418
 20
38.2808506622
 10
-2.0357142191
 20
37.6379926758
  0
LWPOLYLINE
  5
28D
100
AcDbEntity
  8
0
100
AcDbPolyline
 62
7
  6
CONTINUOUS
 90
7
 70
0
 43
0.3500000006
 10
-2.8928572569
 20
35.2808497467
 10
-4.3928571482
 20
35.2808497467
 10
-2.8928572569
 20
37.4237081909
 10
-2.8928572569
 20
37.8522816925
 10
-3.3214284925
 20
38.2808506622
 10
-3.9642856293
 20
38.2808506622
 10
-4.3928571482
 20
37.6379926758
  0
LWPOLYLINE
  5
28E
100
AcDbEntity
  8
0
100
AcDbPolyline
 62
7
  6
CONTINUOUS
 90
3
 70
0
 43
0.3500000006
 10
-38.8110106659
 20
45.4237061005
 10
-37.9538681946
 20
46.2808531036
 10
-37.9538681946
 20
43.2808521881
  0
LWPOLYLINE
  5
28F
100
AcDbEntity
  8
0
100
AcDbPolyline
 62
7
  6
CONTINUOUS
 90
10
 70
0
 43
0.3500000006
 10
-39.848657135
 20
38.2808506622
 10
-40.4915151215
 20
37.6379926758
 10
-40.9200840912
 20
36.7808502045
 10
-40.9200840912
 20
35.7094232483
 10
-40.4915151215
 20
35.2808497467
 10
-39.848657135
 20
35.2808497467
 10
-39.4200836334
 20
35.7094232483
 10
-39.4200836334
 20
36.5665657196
 10
-39.848657135
 20
36.9951346893
 10
-40.7772262573
 20
36.9951346893
  0
LINE
  5
290
100
AcDbEntity
  8
ASSI
100
AcDbLine
 62
7
  6
CONTINUOUS
 10
-29.2952614099
 20
-26.3203794396
 11
-27.4546748782
 21
-26.3685768941
  0
LINE
  5
291
100
AcDbEntity
  8
ASSI
100
AcDbLine
 62
250
  6
CONTINUOUS
 10
-29.2952614099
 20
-25.8205507771
 11
-27.4546748782
 21
-25.8687482316
  0
LINE
  5
292
100
AcDbEntity
  8
ASSI
100
AcDbLine
 62
7
  6
CONTINUOUS
 10
-32.3282624064
 20
-25.693520226
 11
-29.4767644608
 21
-26.2989189342
  0
LINE
  5
293
100
AcDbEntity
  8
ASSI
100
AcDbLine
 62
250
  6
CONTINUOUS
 10
-32.237510881
 20
-25.2044218162
 11
-29.3860129353
 21
-25.8098205244
  0
LWPOLYLINE
  5
294
100
AcDbEntity
  8
0
100
AcDbPolyline
 62
7
  6
CONTINUOUS
 90
3
 70
0
 43
0.3500000006
 10
-37.8486565247
 20
35.5665654144
 10
-37.9200854416
 20
35.3522809296
 10
-38.0629410095
 20
35.0665652618
  0
LWPOLYLINE
  5
295
100
AcDbEntity
  8
0
100
AcDbPolyline
 62
7
  6
CONTINUOUS
 90
13
 70
0
 43
0.3500000006
 10
-37.0967234573
 20
44.1379946594
 10
-37.0967234573
 20
45.4237061005
 10
-36.8824389725
 20
45.8522796021
 10
-36.4538677368
 20
46.2808531036
 10
-36.239580986
 20
46.2808531036
 10
-35.8110097504
 20
45.8522796021
 10
-35.5967252655
 20
45.4237061005
 10
-35.5967252655
 20
44.1379946594
 10
-35.8110097504
 20
43.7094211578
 10
-36.239580986
 20
43.2808521881
 10
-36.4538677368
 20
43.2808521881
 10
-36.8824389725
 20
43.7094211578
 10
-37.0967234573
 20
44.1379946594
  0
LINE
  5
296
100
AcDbEntity
  8
ASSI
100
AcDbLine
 62
7
  6
CONTINUOUS
 10
-30.0546748782
 20
25.8134150626
 11
-30.0546748782
 21
10.7371426949
  0
LINE
  5
297
100
AcDbEntity
  8
ASSI
100
AcDbLine
 62
250
  6
CONTINUOUS
 10
-29.5677633523
 20
25.8134150626
 11
-29.5677633523
 21
10.7371426949
  0
LINE
  5
298
100
AcDbEntity
  8
ASSI
100
AcDbLine
 62
7
  6
CONTINUOUS
 10
-31.1537299593
 20
-10.2340775349
 11
-32.7216833545
 21
-25.1521575846
  0
LINE
  5
299
100
AcDbEntity
  8
ASSI
100
AcDbLine
 62
250
  6
CONTINUOUS
 10
-30.6695574857
 20
-10.2863417665
 11
-32.237510881
 21
-25.2044218162
  0
LINE
  5
29A
100
AcDbEntity
  8
ASSI
100
AcDbLine
 62
7
  6
CONTINUOUS
 10
-27.4546748782
 20
-22.5392953814
 11
-27.4546748782
 21
-26.3685768941
  0
LINE
  5
29B
100
AcDbEntity
  8
ASSI
100
AcDbLine
 62
7
  6
CONTINUOUS
 10
-26.6546748782
 20
-19.196450535
 11
-26.6546748782
 21
-21.3675103668
  0
LINE
  5
29C
100
AcDbEntity
  8
ASSI
100
AcDbLine
 62
7
  6
CONTINUOUS
 10
-26.2546748782
 20
-13.7210675705
 11
-26.2546748782
 21
26.4
  0
LINE
  5
29D
100
AcDbEntity
  8
ASSI
100
AcDbLine
 62
250
  6
CONTINUOUS
 10
-25.9651447272
 20
26.3974733087
 11
-25.9651447272
 21
25.2071702628
  0
LINE
  5
29E
100
AcDbEntity
  8
ASSI
100
AcDbLine
 62
250
  6
CONTINUOUS
 10
-25.6445134367
 20
25.2155662887
 11
-25.6445134367
 21
26.3946752018
  0
LINE
  5
29F
100
AcDbEntity
  8
ASSI
100
AcDbLine
 62
7
  6
CONTINUOUS
 10
-25.3549832857
 20
25.2231479025
 11
-25.3549832857
 21
26.3921485104
  0
LINE
  5
2A0
100
AcDbEntity
  8
ASSI
100
AcDbLine
 62
7
  6
CONTINUOUS
 10
-25.2864500214
 20
15.2315687618
 11
-25.0112482183
 21
18.7283392151
  0
LINE
  5
2A1
100
AcDbEntity
  8
ASSI
100
AcDbLine
 62
7
  6
CONTINUOUS
 10
-26.2700882095
 20
-14.1133630491
 11
-26.6392615468
 21
-18.8041550564
  0
LINE
  5
2A2
100
AcDbEntity
  8
ASSI
100
AcDbLine
 62
7
  6
CONTINUOUS
 10
-22.7546748782
 20
7.5527731214
 11
-22.7546748782
 21
10.4472268786
  0
LINE
  5
2A3
100
AcDbEntity
  8
ASSI
100
AcDbLine
 62
7
  6
CONTINUOUS
 10
-25.9782126069
 20
7.0217580526
 11
-23.0311371494
 21
7.2536979213
  0
LWPOLYLINE
  5
2A4
100
AcDbEntity
  8
0
100
AcDbPolyline
 62
7
  6
CONTINUOUS
 90
10
 70
0
 43
0.3500000006
 10
-37.9200854416
 20
35.7808498993
 10
-37.8486565247
 20
35.6379920654
 10
-37.8486565247
 20
35.5665654144
 10
-37.9915143585
 20
35.4237075806
 10
-38.0629410095
 20
35.4237075806
 10
-38.1343721924
 20
35.4951387634
 10
-38.1343721924
 20
35.5665654144
 10
-38.0629410095
 20
35.7094232483
 10
-37.9915143585
 20
35.7808498993
 10
-37.9200854416
 20
35.7808498993
  0
LINE
  5
2A5
100
AcDbEntity
  8
ASSI
100
AcDbLine
 62
250
  6
CONTINUOUS
 10
-29.5677633523
 20
10.7371426949
 11
-30.0546748782
 21
10.7371426949
  0
LINE
  5
2A6
100
AcDbEntity
  8
ASSI
100
AcDbLine
 62
7
  6
CONTINUOUS
 10
-23.0311371494
 20
10.7463020787
 11
-25.9782126069
 21
10.9782419474
  0
LINE
  5
2A7
100
AcDbEntity
  8
ASSI
100
AcDbLine
 62
7
  6
CONTINUOUS
 10
-26.7248615452
 20
-21.5603466497
 11
-27.3844882111
 21
-22.3464590985
  0
LINE
  5
2A8
100
AcDbEntity
  8
ASSI
100
AcDbLine
 62
7
  6
CONTINUOUS
 10
-26.0067693315
 20
14.8762018049
 11
-25.5334307682
 21
14.9596641646
  0
LINE
  5
2A9
100
AcDbEntity
  8
ASSI
100
AcDbLine
 62
7
  6
CONTINUOUS
 10
-25.2582289651
 20
19.0473192698
 11
-26.0067693315
 21
19.1793071325
  0
LINE
  5
2AA
100
AcDbEntity
  8
ASSI
100
AcDbLine
 62
7
  6
CONTINUOUS
 10
-25.3549832857
 20
25.2231479025
 11
-26.2546748782
 21
25.199588649
  0
LINE
  5
2AB
100
AcDbEntity
  8
ASSI
100
AcDbLine
 62
250
  6
CONTINUOUS
 10
-26.2546748782
 20
25.9001713375
 11
-29.5677633523
 21
25.8134150626
  0
LINE
  5
2AC
100
AcDbEntity
  8
ASSI
100
AcDbLine
 62
7
  6
CONTINUOUS
 10
-26.2546748782
 20
26.4
 11
-29.5677633523
 21
26.3132437251
  0
LINE
  5
2AD
100
AcDbEntity
  8
ASSI
100
AcDbLine
 62
250
  6
CONTINUOUS
 10
-29.5677633523
 20
25.8134150626
 11
-30.0546748782
 21
25.8134150626
  0
LWPOLYLINE
  5
2AE
100
AcDbEntity
  8
0
100
AcDbPolyline
 62
7
  6
CONTINUOUS
 90
8
 70
0
 43
0.3500000006
 10
-36.8486562195
 20
35.2808497467
 10
-35.9915137482
 20
35.2808497467
 10
-35.5629425125
 20
35.7094232483
 10
-35.5629425125
 20
36.5665657196
 10
-35.9915137482
 20
36.9951346893
 10
-36.8486562195
 20
36.9951346893
 10
-36.8486562195
 20
38.2808506622
 10
-35.5629425125
 20
38.2808506622
  0
LINE
  5
2AF
100
AcDbEntity
  8
ASSI
100
AcDbLine
 62
7
  6
CONTINUOUS
 10
-25.3549832857
 20
26.3921485104
 11
-26.2546748782
 21
26.4
  0
ARC
  5
2B0
100
AcDbEntity
  8
ASSI
100
AcDbCircle
 62
250
  6
CONTINUOUS
 10
-6357.7703548192
 20
8.9655553502
 40
6368.7838449431
100
AcDbArc
 50
359.8268030194
 51
0.0159378119
  0
ARC
  5
2B1
100
AcDbEntity
  8
ASSI
100
AcDbCircle
 62
250
  6
CONTINUOUS
 10
6357.7690955157
 20
8.965553622
 40
6368.7825856401
100
AcDbArc
 50
179.9840621694
 51
180.1731969993
  0
ARC
  5
2B2
100
AcDbEntity
  8
ASSI
100
AcDbCircle
 62
250
  6
CONTINUOUS
 10
-6326.6447676024
 20
8.9699604021
 40
6337.1584290635
100
AcDbArc
 50
359.8263713903
 51
0.015977522
  0
ARC
  5
2B3
100
AcDbEntity
  8
ASSI
100
AcDbCircle
 62
250
  6
CONTINUOUS
 10
6326.6402572342
 20
8.9699541969
 40
6337.1539186972
100
AcDbArc
 50
179.9840224105
 51
180.1736286772
  0
ARC
  5
2B4
100
AcDbEntity
  8
ASSI
100
AcDbCircle
 62
250
  6
CONTINUOUS
 10
10.5129814927
 20
25.8129810154
 40
0.5002657343
100
AcDbArc
 50
0.0497120587
 51
89.9503426761
  0
ARC
  5
2B5
100
AcDbEntity
  8
ASSI
100
AcDbCircle
 62
250
  6
CONTINUOUS
 10
-10.5129815008
 20
25.8129810323
 40
0.5002657219
100
AcDbArc
 50
90.0496564162
 51
179.9502898753
  0
ARC
  5
2B6
100
AcDbEntity
  8
ASSI
100
AcDbCircle
 62
250
  6
CONTINUOUS
 10
10.5201171362
 20
-25.8201171362
 40
0.5002656609
100
AcDbArc
 50
270.0496655166
 51
359.9503344834
  0
ARC
  5
2B7
100
AcDbEntity
  8
ASSI
100
AcDbCircle
 62
250
  6
CONTINUOUS
 10
-10.5201171361
 20
-25.8201171361
 40
0.500265661
100
AcDbArc
 50
180.0496655269
 51
269.9503344732
  0
ARC
  5
2B8
100
AcDbEntity
  8
ASSI
100
AcDbCircle
 62
7
  6
CONTINUOUS
 10
-31.2546748782
 20
-13.7210675705
 40
5.0
100
AcDbArc
 50
355.5
 51
360.0
  0
ARC
  5
2B9
100
AcDbEntity
  8
ASSI
100
AcDbCircle
 62
7
  6
CONTINUOUS
 10
-21.6546748782
 20
-19.196450535
 40
5.0
100
AcDbArc
 50
175.5
 51
180.0
  0
ARC
  5
2BA
100
AcDbEntity
  8
ASSI
100
AcDbCircle
 62
7
  6
CONTINUOUS
 10
-29.2690844616
 20
-25.3207221146
 40
1.0
100
AcDbArc
 50
258.0135711831
 51
268.5
  0
ARC
  5
2BB
100
AcDbEntity
  8
ASSI
100
AcDbCircle
 62
250
  6
CONTINUOUS
 10
-29.2820495695
 20
-25.3196787399
 40
0.5010462557
100
AcDbArc
 50
258.0245503276
 51
268.4890208555
  0
ARC
  5
2BC
100
AcDbEntity
  8
ASSI
100
AcDbCircle
 62
7
  6
CONTINUOUS
 10
-29.5546748782
 20
25.8134150626
 40
0.5
100
AcDbArc
 50
91.5
 51
180.0
  0
ARC
  5
2BD
100
AcDbEntity
  8
ASSI
100
AcDbCircle
 62
7
  6
CONTINUOUS
 10
-32.2244224068
 20
-25.2044218162
 40
0.5
100
AcDbArc
 50
174.0
 51
258.0135711831
  0
ARC
  5
2BE
100
AcDbEntity
  8
ASSI
100
AcDbCircle
 62
7
  6
CONTINUOUS
 10
-25.3103234184
 20
18.7518769438
 40
0.3
100
AcDbArc
 50
355.5
 51
80.0
  0
ARC
  5
2BF
100
AcDbEntity
  8
ASSI
100
AcDbCircle
 62
7
  6
CONTINUOUS
 10
-25.5855252215
 20
15.2551064905
 40
0.3
100
AcDbArc
 50
280.0
 51
355.5
  0
ARC
  5
2C0
100
AcDbEntity
  8
ASSI
100
AcDbCircle
 62
7
  6
CONTINUOUS
 10
-23.0546748782
 20
10.4472268786
 40
0.3
100
AcDbArc
 50
0.0
 51
85.5
  0
ARC
  5
2C1
100
AcDbEntity
  8
ASSI
100
AcDbCircle
 62
7
  6
CONTINUOUS
 10
-23.0546748782
 20
7.5527731214
 40
0.3
100
AcDbArc
 50
274.5
 51
360.0
  0
ARC
  5
2C2
100
AcDbEntity
  8
ASSI
100
AcDbCircle
 62
7
  6
CONTINUOUS
 10
-26.9546748782
 20
-21.3675103668
 40
0.3
100
AcDbArc
 50
320.0
 51
360.0
  0
ARC
  5
2C3
100
AcDbEntity
  8
ASSI
100
AcDbCircle
 62
7
  6
CONTINUOUS
 10
-25.9546748782
 20
11.2773171475
 40
0.3
100
AcDbArc
 50
180.0
 51
265.5
  0
ARC
  5
2C4
100
AcDbEntity
  8
ASSI
100
AcDbCircle
 62
7
  6
CONTINUOUS
 10
-25.9546748782
 20
6.7226828525
 40
0.3
100
AcDbArc
 50
94.5
 51
180.0
  0
ARC
  5
2C5
100
AcDbEntity
  8
ASSI
100
AcDbCircle
 62
7
  6
CONTINUOUS
 10
-25.9546748782
 20
19.4747494584
 40
0.3
100
AcDbArc
 50
180.0
 51
260.0
  0
ARC
  5
2C6
100
AcDbEntity
  8
ASSI
100
AcDbCircle
 62
7
  6
CONTINUOUS
 10
-25.9546748782
 20
14.580759479
 40
0.3
100
AcDbArc
 50
100.0
 51
180.0
  0
ARC
  5
2C7
100
AcDbEntity
  8
ASSI
100
AcDbCircle
 62
7
  6
CONTINUOUS
 10
-27.1546748782
 20
-22.5392953814
 40
0.3
100
AcDbArc
 50
140.0
 51
180.0
  0
SPLINE
  5
2C8
100
AcDbEntity
  8
ASSI
100
AcDbSpline
 62
250
  6
CONTINUOUS
 70
0
 71
3
 72
9
 73
5
 74
0
 42
0.0000001
 43
0.0000001
 44
0.0000000001
 40
0.0
 40
0.0
 40
0.0
 40
0.0
 40
0.6829954419
 40
1.0
 40
1.0
 40
1.0
 40
1.0
 10
11.0180030272
 20
-25.8098205244
 30
0.0
 10
11.0183105268
 20
-25.8123136497
 30
0.0
 10
11.018988885
 20
-25.8157587063
 30
0.0
 10
11.0195550137
 20
-25.8197263373
 30
0.0
 10
11.0203794396
 20
-25.8205507771
 30
0.0
  0
SPLINE
  5
2C9
100
AcDbEntity
  8
ASSI
100
AcDbSpline
 62
250
  6
CONTINUOUS
 70
0
 71
3
 72
15
 73
11
 74
0
 42
0.0000001
 43
0.0000001
 44
0.0000000001
 40
0.0
 40
0.0
 40
0.0
 40
0.0
 40
0.0121825431
 40
0.0311276511
 40
0.0931365262
 40
0.1873740624
 40
0.3110980191
 40
0.4599059296
 40
0.6285092491
 40
1.0
 40
1.0
 40
1.0
 40
1.0
 10
10.9843922303
 20
-10.2863417665
 30
0.0
 10
10.9838946717
 20
-10.2843433118
 30
0.0
 10
10.9801100856
 20
-10.2801283769
 30
0.0
 10
10.9662675297
 20
-10.2727622908
 30
0.0
 10
10.9373881209
 20
-10.2647950523
 30
0.0
 10
10.8909071902
 20
-10.2564565926
 30
0.0
 10
10.8292748193
 20
-10.2490065424
 30
0.0
 10
10.7549734558
 20
-10.2427378871
 30
0.0
 10
10.638678938
 20
-10.2362097811
 30
0.0
 10
10.5473639561
 20
-10.2342484889
 30
0.0
 10
10.4845635678
 20
-10.2340775349
 30
0.0
  0
SPLINE
  5
2CA
100
AcDbEntity
  8
ASSI
100
AcDbSpline
 62
250
  6
CONTINUOUS
 70
0
 71
3
 72
15
 73
11
 74
0
 42
0.0000001
 43
0.0000001
 44
0.0000000001
 40
0.0
 40
0.0
 40
0.0
 40
0.0
 40
0.0121827475
 40
0.0311285157
 40
0.0931395505
 40
0.1873808023
 40
0.3111072105
 40
0.4599206937
 40
0.6285286291
 40
1.0
 40
1.0
 40
1.0
 40
1.0
 10
10.9433339257
 20
-25.2044218162
 30
0.0
 10
10.9428363588
 20
-25.2024233282
 30
0.0
 10
10.9390515362
 20
-25.1982083623
 30
0.0
 10
10.9252085031
 20
-25.1908422035
 30
0.0
 10
10.8963280184
 20
-25.1828745969
 30
0.0
 10
10.8498456559
 20
-25.1745362169
 30
0.0
 10
10.7882113175
 20
-25.1670859852
 30
0.0
 10
10.7139078053
 20
-25.160817455
 30
0.0
 10
10.5976148363
 20
-25.1542897999
 30
0.0
 10
10.5063023674
 20
-25.1523285296
 30
0.0
 10
10.4435052632
 20
-25.1521575846
 30
0.0
  0
SPLINE
  5
2CB
100
AcDbEntity
  8
ASSI
100
AcDbSpline
 62
250
  6
CONTINUOUS
 70
0
 71
3
 72
11
 73
7
 74
0
 42
0.0000001
 43
0.0000001
 44
0.0000000001
 40
0.0
 40
0.0
 40
0.0
 40
0.0
 40
0.2473537244
 40
0.4964847663
 40
0.7476752527
 40
1.0
 40
1.0
 40
1.0
 40
1.0
 10
10.9433339257
 20
-25.2044218162
 30
0.0
 10
10.9429809939
 20
-25.2679479166
 30
0.0
 10
10.9161805108
 20
-25.3967247786
 30
0.0
 10
10.804389446
 20
-25.5587504204
 30
0.0
 10
10.6388426102
 20
-25.6673423466
 30
0.0
 10
10.5083081192
 20
-25.693175493
 30
0.0
 10
10.4435052632
 20
-25.693520226
 30
0.0
  0
SPLINE
  5
2CC
100
AcDbEntity
  8
ASSI
100
AcDbSpline
 62
250
  6
CONTINUOUS
 70
0
 71
3
 72
11
 73
7
 74
0
 42
0.0000001
 43
0.0000001
 44
0.0000000001
 40
0.0
 40
0.0
 40
0.0
 40
0.0
 40
0.2473486574
 40
0.4964758031
 40
0.7476614126
 40
1.0
 40
1.0
 40
1.0
 40
1.0
 10
11.0180030272
 20
-25.8098205244
 30
0.0
 10
11.0176501026
 20
-25.8733453401
 30
0.0
 10
10.9908508113
 20
-26.002120005
 30
0.0
 10
10.8790630851
 20
-26.1641431677
 30
0.0
 10
10.7135182293
 20
-26.272740355
 30
0.0
 10
10.5829807922
 20
-26.2985741822
 30
0.0
 10
10.5181743647
 20
-26.2989189342
 30
0.0
  0
SPLINE
  5
2CD
100
AcDbEntity
  8
ASSI
100
AcDbSpline
 62
250
  6
CONTINUOUS
 70
0
 71
3
 72
10
 73
6
 74
0
 42
0.0000001
 43
0.0000001
 44
0.0000000001
 40
0.0
 40
0.0
 40
0.0
 40
0.0
 40
0.6904657819
 40
0.8926325712
 40
1.0
 40
1.0
 40
1.0
 40
1.0
 10
10.5181743647
 20
-26.2989189342
 30
0.0
 10
10.5184806477
 20
-26.303886979
 30
0.0
 10
10.5188567361
 20
-26.3103448627
 30
0.0
 10
10.5198279159
 20
-26.317442818
 30
0.0
 10
10.5202047178
 20
-26.3196871135
 30
0.0
 10
10.5205507771
 20
-26.3203794396
 30
0.0
  0
SPLINE
  5
2CE
100
AcDbEntity
  8
ASSI
100
AcDbSpline
 62
250
  6
CONTINUOUS
 70
0
 71
3
 72
10
 73
6
 74
0
 42
0.0000001
 43
0.0000001
 44
0.0000000001
 40
0.0
 40
0.0
 40
0.0
 40
0.0
 40
0.1073673838
 40
0.3095341085
 40
1.0
 40
1.0
 40
1.0
 40
1.0
 10
-10.5205507771
 20
-26.3203794396
 30
0.0
 10
-10.5202047178
 20
-26.3196871138
 30
0.0
 10
-10.5198279158
 20
-26.3174428191
 30
0.0
 10
-10.5188567367
 20
-26.3103448638
 30
0.0
 10
-10.5184806476
 20
-26.3038869798
 30
0.0
 10
-10.5181743647
 20
-26.2989189342
 30
0.0
  0
SPLINE
  5
2CF
100
AcDbEntity
  8
ASSI
100
AcDbSpline
 62
250
  6
CONTINUOUS
 70
0
 71
3
 72
9
 73
5
 74
0
 42
0.0000001
 43
0.0000001
 44
0.0000000001
 40
0.0
 40
0.0
 40
0.0
 40
0.0
 40
0.3170044497
 40
1.0
 40
1.0
 40
1.0
 40
1.0
 10
-11.0203794396
 20
-25.8205507771
 30
0.0
 10
-11.0195550139
 20
-25.8197263376
 30
0.0
 10
-11.0189888851
 20
-25.8157587066
 30
0.0
 10
-11.0183105268
 20
-25.81231365
 30
0.0
 10
-11.0180030272
 20
-25.8098205244
 30
0.0
  0
SPLINE
  5
2D0
100
AcDbEntity
  8
ASSI
100
AcDbSpline
 62
250
  6
CONTINUOUS
 70
0
 71
3
 72
11
 73
7
 74
0
 42
0.0000001
 43
0.0000001
 44
0.0000000001
 40
0.0
 40
0.0
 40
0.0
 40
0.0
 40
0.2473486581
 40
0.4964758039
 40
0.7476614132
 40
1.0
 40
1.0
 40
1.0
 40
1.0
 10
-11.0180030272
 20
-25.8098205244
 30
0.0
 10
-11.0176501026
 20
-25.8733453403
 30
0.0
 10
-10.9908508112
 20
-26.0021200054
 30
0.0
 10
-10.8790630846
 20
-26.1641431681
 30
0.0
 10
-10.7135182289
 20
-26.2727403551
 30
0.0
 10
-10.5829807921
 20
-26.2985741822
 30
0.0
 10
-10.5181743647
 20
-26.2989189342
 30
0.0
  0
SPLINE
  5
2D1
100
AcDbEntity
  8
ASSI
100
AcDbSpline
 62
250
  6
CONTINUOUS
 70
0
 71
3
 72
11
 73
7
 74
0
 42
0.0000001
 43
0.0000001
 44
0.0000000001
 40
0.0
 40
0.0
 40
0.0
 40
0.0
 40
0.2473538147
 40
0.4964849532
 40
0.7476754797
 40
1.0
 40
1.0
 40
1.0
 40
1.0
 10
-10.9433339257
 20
-25.2044218162
 30
0.0
 10
-10.9429809937
 20
-25.2679479395
 30
0.0
 10
-10.916180497
 20
-25.3967248528
 30
0.0
 10
-10.8043893473
 20
-25.558750513
 30
0.0
 10
-10.6388424992
 20
-25.6673423745
 30
0.0
 10
-10.5083080606
 20
-25.6931754933
 30
0.0
 10
-10.4435052632
 20
-25.693520226
 30
0.0
  0
SPLINE
  5
2D2
100
AcDbEntity
  8
ASSI
100
AcDbSpline
 62
250
  6
CONTINUOUS
 70
0
 71
3
 72
15
 73
11
 74
0
 42
0.0000001
 43
0.0000001
 44
0.0000000001
 40
0.0
 40
0.0
 40
0.0
 40
0.0
 40
0.0121827427
 40
0.0311284971
 40
0.0931395018
 40
0.1873806917
 40
0.3111070075
 40
0.4599203876
 40
0.6285283175
 40
1.0
 40
1.0
 40
1.0
 40
1.0
 10
-10.9433339257
 20
-25.2044218162
 30
0.0
 10
-10.9428363589
 20
-25.202423329
 30
0.0
 10
-10.9390515418
 20
-25.1982083634
 30
0.0
 10
-10.9252085163
 20
-25.190842205
 30
0.0
 10
-10.8963280485
 20
-25.1828746069
 30
0.0
 10
-10.8498457177
 20
-25.1745362258
 30
0.0
 10
-10.7882114228
 20
-25.167085995
 30
0.0
 10
-10.7139079444
 20
-25.1608174652
 30
0.0
 10
-10.5976149413
 20
-25.154289801
 30
0.0
 10
-10.5063024202
 20
-25.1523285297
 30
0.0
 10
-10.4435052632
 20
-25.1521575846
 30
0.0
  0
SPLINE
  5
2D3
100
AcDbEntity
  8
ASSI
100
AcDbSpline
 62
250
  6
CONTINUOUS
 70
0
 71
3
 72
15
 73
11
 74
0
 42
0.0000001
 43
0.0000001
 44
0.0000000001
 40
0.0
 40
0.0
 40
0.0
 40
0.0
 40
0.0121824332
 40
0.0311274829
 40
0.093136315
 40
0.1873738526
 40
0.3110978344
 40
0.4599057843
 40
0.6285091508
 40
1.0
 40
1.0
 40
1.0
 40
1.0
 10
-10.9843922303
 20
-10.2863417665
 30
0.0
 10
-10.9838946692
 20
-10.2843433321
 30
0.0
 10
-10.9801100642
 20
-10.2801284514
 30
0.0
 10
-10.9662675138
 20
-10.2727624609
 30
0.0
 10
-10.9373881079
 20
-10.264795298
 30
0.0
 10
-10.8909071848
 20
-10.2564568928
 30
0.0
 10
-10.8292748159
 20
-10.2490068581
 30
0.0
 10
-10.754973454
 20
-10.2427381804
 30
0.0
 10
-10.6386789381
 20
-10.2362099894
 30
0.0
 10
-10.5473639573
 20
-10.2342485867
 30
0.0
 10
-10.4845635678
 20
-10.2340775349
 30
0.0
  0
SPLINE
  5
2D4
100
AcDbEntity
  8
CURVE
100
AcDbSpline
 62
250
  6
CONTINUOUS
 70
0
 71
3
 72
17
 73
13
 74
0
 42
0.0000001
 43
0.0000001
 44
0.0000000001
 40
0.0
 40
0.0
 40
0.0
 40
0.0
 40
0.1
 40
0.2
 40
0.3
 40
0.4
 40
0.5
 40
0.6
 40
0.7
 40
0.8
 40
0.9
 40
1.0
 40
1.0
 40
1.0
 40
1.0
 10
-0.8988254121
 20
-14.0012668188
 30
0.0
 10
-0.9037391413
 20
-14.0012668188
 30
0.0
 10
-0.9133264968
 20
-14.0023844004
 30
0.0
 10
-0.9276378218
 20
-14.006823491
 30
0.0
 10
-0.9419029551
 20
-14.0139297561
 30
0.0
 10
-0.9553202368
 20
-14.0231988994
 30
0.0
 10
-0.9674596745
 20
-14.0341097639
 30
0.0
 10
-0.9780964007
 20
-14.0463679285
 30
0.0
 10
-0.9867706303
 20
-14.0593659666
 30
0.0
 10
-0.9934118401
 20
-14.0730252457
 30
0.0
 10
-0.9976634571
 20
-14.0869870271
 30
0.0
 10
-0.9987331812
 20
-14.0963626083
 30
0.0
 10
-0.9987331812
 20
-14.1011745879
 30
0.0
  0
SPLINE
  5
2D5
100
AcDbEntity
  8
CURVE
100
AcDbSpline
 62
250
  6
CONTINUOUS
 70
0
 71
3
 72
17
 73
13
 74
0
 42
0.0000001
 43
0.0000001
 44
0.0000000001
 40
0.0
 40
0.0
 40
0.0
 40
0.0
 40
0.1
 40
0.2
 40
0.3
 40
0.4
 40
0.5
 40
0.6
 40
0.7
 40
0.8
 40
0.9
 40
1.0
 40
1.0
 40
1.0
 40
1.0
 10
-0.9987331812
 20
-15.8988254121
 30
0.0
 10
-0.9987331812
 20
-15.9037561001
 30
0.0
 10
-0.9976078639
 20
-15.9133729585
 30
0.0
 10
-0.9931478819
 20
-15.9277111943
 30
0.0
 10
-0.98602222
 20
-15.9419843921
 30
0.0
 10
-0.9767384271
 20
-15.955399533
 30
0.0
 10
-0.9658176246
 20
-15.9675308422
 30
0.0
 10
-0.953556849
 20
-15.9781533922
 30
0.0
 10
-0.9405636894
 20
-15.9868103746
 30
0.0
 10
-0.9269186037
 20
-15.9934329371
 30
0.0
 10
-0.9129789765
 20
-15.9976689271
 30
0.0
 10
-0.9036252633
 20
-15.9987331812
 30
0.0
 10
-0.8988254121
 20
-15.9987331812
 30
0.0
  0
SPLINE
  5
2D6
100
AcDbEntity
  8
CURVE
100
AcDbSpline
 62
250
  6
CONTINUOUS
 70
0
 71
3
 72
17
 73
13
 74
0
 42
0.0000001
 43
0.0000001
 44
0.0000000001
 40
0.0
 40
0.0
 40
0.0
 40
0.0
 40
0.1
 40
0.2
 40
0.3
 40
0.4
 40
0.5
 40
0.6
 40
0.7
 40
0.8
 40
0.9
 40
1.0
 40
1.0
 40
1.0
 40
1.0
 10
0.8988254121
 20
-15.9987331812
 30
0.0
 10
0.9037391413
 20
-15.9987331812
 30
0.0
 10
0.9133264968
 20
-15.9976155996
 30
0.0
 10
0.9276378218
 20
-15.993176509
 30
0.0
 10
0.9419029551
 20
-15.9860702439
 30
0.0
 10
0.9553202368
 20
-15.9768011006
 30
0.0
 10
0.9674596745
 20
-15.9658902361
 30
0.0
 10
0.9780964007
 20
-15.9536320715
 30
0.0
 10
0.9867706303
 20
-15.9406340334
 30
0.0
 10
0.9934118401
 20
-15.9269747543
 30
0.0
 10
0.9976634571
 20
-15.9130129729
 30
0.0
 10
0.9987331812
 20
-15.9036373917
 30
0.0
 10
0.9987331812
 20
-15.8988254121
 30
0.0
  0
SPLINE
  5
2D7
100
AcDbEntity
  8
CURVE
100
AcDbSpline
 62
250
  6
CONTINUOUS
 70
0
 71
3
 72
17
 73
13
 74
0
 42
0.0000001
 43
0.0000001
 44
0.0000000001
 40
0.0
 40
0.0
 40
0.0
 40
0.0
 40
0.1
 40
0.2
 40
0.3
 40
0.4
 40
0.5
 40
0.6
 40
0.7
 40
0.8
 40
0.9
 40
1.0
 40
1.0
 40
1.0
 40
1.0
 10
0.9987331812
 20
-14.1011745879
 30
0.0
 10
0.9987331812
 20
-14.0962438999
 30
0.0
 10
0.9976078639
 20
-14.0866270415
 30
0.0
 10
0.9931478819
 20
-14.0722888057
 30
0.0
 10
0.98602222
 20
-14.0580156079
 30
0.0
 10
0.9767384271
 20
-14.044600467
 30
0.0
 10
0.9658176246
 20
-14.0324691578
 30
0.0
 10
0.953556849
 20
-14.0218466078
 30
0.0
 10
0.9405636894
 20
-14.0131896254
 30
0.0
 10
0.9269186037
 20
-14.0065670629
 30
0.0
 10
0.9129789765
 20
-14.0023310729
 30
0.0
 10
0.9036252633
 20
-14.0012668188
 30
0.0
 10
0.8988254121
 20
-14.0012668188
 30
0.0
  0
SPLINE
  5
2D8
100
AcDbEntity
  8
ASSI
100
AcDbSpline
 62
7
  6
CONTINUOUS
 70
0
 71
3
 72
13
 73
9
 74
0
 42
0.0000001
 43
0.0000001
 44
0.0000000001
 40
0.0
 40
0.0
 40
0.0
 40
0.0
 40
0.0833333333
 40
0.25
 40
0.5
 40
0.75
 40
0.9166666667
 40
1.0
 40
1.0
 40
1.0
 40
1.0
 10
-30.0546748782
 20
10.7371426949
 30
0.0
 10
-30.0546748782
 20
10.1530088264
 30
0.0
 10
-30.0580670235
 20
8.4007849957
 30
0.0
 10
-30.0908902933
 20
4.8977019794
 30
0.0
 10
-30.2381025776
 20
0.2323461003
 30
0.0
 10
-30.5793592182
 20
-4.422840345
 30
0.0
 10
-30.9128876421
 20
-7.9101640719
 30
0.0
 10
-31.0926713436
 20
-9.6531436129
 30
0.0
 10
-31.1537299593
 20
-10.2340775349
 30
0.0
  0
SPLINE
  5
2D9
100
AcDbEntity
  8
ASSI
100
AcDbSpline
 62
7
  6
CONTINUOUS
 70
0
 71
3
 72
8
 73
4
 74
0
 42
0.0000001
 43
0.0000001
 44
0.0000000001
 40
0.0
 40
0.0
 40
0.0
 40
0.0
 40
1.0
 40
1.0
 40
1.0
 40
1.0
 10
-31.1537299593
 20
-10.2340775349
 30
0.0
 10
-31.1307509312
 20
-10.015446687
 30
0.0
 10
-31.1079320515
 20
-9.7968074461
 30
0.0
 10
-31.0852901585
 20
-9.5781589297
 30
0.0
  0
SPLINE
  5
2DA
100
AcDbEntity
  8
ASSI
100
AcDbSpline
 62
7
  6
CONTINUOUS
 70
0
 71
3
 72
8
 73
4
 74
0
 42
0.0000001
 43
0.0000001
 44
0.0000000001
 40
0.0
 40
0.0
 40
0.0
 40
0.0
 40
1.0
 40
1.0
 40
1.0
 40
1.0
 10
-30.0551733566
 20
10.0768846665
 30
0.0
 10
-30.054835405
 20
10.2969616727
 30
0.0
 10
-30.0546748782
 20
10.5170479774
 30
0.0
 10
-30.0546748782
 20
10.7371426949
 30
0.0
  0
SPLINE
  5
2DB
100
AcDbEntity
  8
ASSI
100
AcDbSpline
 62
250
  6
CONTINUOUS
 70
0
 71
3
 72
20
 73
16
 74
0
 42
0.0000001
 43
0.0000001
 44
0.0000000001
 40
0.0
 40
0.0
 40
0.0
 40
0.0
 40
0.1946837027
 40
0.3822421983
 40
0.5548674707
 40
0.7061648431
 40
0.7720142736
 40
0.8304270734
 40
0.8808293464
 40
0.9227904303
 40
0.9558940757
 40
0.979806645
 40
0.9944056476
 40
0.9982402366
 40
1.0
 40
1.0
 40
1.0
 40
1.0
 10
-29.5677633523
 20
25.8134150626
 30
0.0
 10
-29.5686127873
 20
25.845875919
 30
0.0
 10
-29.5701181623
 20
25.9096139831
 30
0.0
 10
-29.5718221381
 20
26.0021469591
 30
0.0
 10
-29.5728883704
 20
26.087452747
 30
0.0
 10
-29.5732371762
 20
26.1524635425
 30
0.0
 10
-29.5731281239
 20
26.1984262431
 30
0.0
 10
-29.5728776922
 20
26.2275556982
 30
0.0
 10
-29.5724548943
 20
26.2527088422
 30
0.0
 10
-29.5718806062
 20
26.2736062737
 30
0.0
 10
-29.5711377213
 20
26.2901581308
 30
0.0
 10
-29.5703252836
 20
26.3019418528
 30
0.0
 10
-29.569390055
 20
26.3091890428
 30
0.0
 10
-29.5686409734
 20
26.3122355914
 30
0.0
 10
-29.5680567754
 20
26.3132360415
 30
0.0
 10
-29.5677633589
 20
26.3132437249
 30
0.0
  0
SPLINE
  5
2DC
100
AcDbEntity
  8
ASSI
100
AcDbSpline
 62
250
  6
CONTINUOUS
 70
0
 71
3
 72
22
 73
18
 74
0
 42
0.0000001
 43
0.0000001
 44
0.0000000001
 40
0.0
 40
0.0
 40
0.0
 40
0.0
 40
0.1962982579
 40
0.3846664476
 40
0.5575089193
 40
0.708623499
 40
0.7742868868
 40
0.8324774673
 40
0.8826413757
 40
0.9243583188
 40
0.9572173283
 40
0.9702112289
 40
0.9808831996
 40
0.9892153499
 40
0.9951898942
 40
0.9987894309
 40
1.0
 40
1.0
 40
1.0
 40
1.0
 10
-30.6695574857
 20
-10.2863417665
 30
0.0
 10
-30.7012479099
 20
-10.2830086848
 30
0.0
 10
-30.7633468228
 20
-10.2764609173
 30
0.0
 10
-30.8533435178
 20
-10.266922368
 30
0.0
 10
-30.9360410205
 20
-10.2581057946
 30
0.0
 10
-30.9989267363
 20
-10.2513535054
 30
0.0
 10
-31.0433038585
 20
-10.2465522168
 30
0.0
 10
-31.0713856377
 20
-10.2434944462
 30
0.0
 10
-31.0956036472
 20
-10.2408385065
 30
0.0
 10
-31.115723145
 20
-10.2386020443
 30
0.0
 10
-31.129863405
 20
-10.237019849
 30
0.0
 10
-31.1389568635
 20
-10.2359563754
 30
0.0
 10
-31.1441622694
 20
-10.2353801932
 30
0.0
 10
-31.1480669934
 20
-10.2348175984
 30
0.0
 10
-31.1512255519
 20
-10.2346267788
 30
0.0
 10
-31.1524755482
 20
-10.2340818144
 30
0.0
 10
-31.1537505004
 20
-10.2342729709
 30
0.0
 10
-31.1537299593
 20
-10.2340775349
 30
0.0
  0
SPLINE
  5
2DD
100
AcDbEntity
  8
ASSI
100
AcDbSpline
 62
250
  6
CONTINUOUS
 70
0
 71
3
 72
22
 73
18
 74
0
 42
0.0000001
 43
0.0000001
 44
0.0000000001
 40
0.0
 40
0.0
 40
0.0
 40
0.0
 40
0.1963001937
 40
0.3846736345
 40
0.557518937
 40
0.7086333406
 40
0.7742961292
 40
0.8324870093
 40
0.8826498015
 40
0.9243650777
 40
0.9572236008
 40
0.9702169027
 40
0.9808876737
 40
0.98921834
 40
0.9951914326
 40
0.9987898665
 40
1.0
 40
1.0
 40
1.0
 40
1.0
 10
-32.237510881
 20
-25.2044218162
 30
0.0
 10
-32.2692016177
 20
-25.2010887016
 30
0.0
 10
-32.3313016909
 20
-25.19454081
 30
0.0
 10
-32.4213000034
 20
-25.1850020903
 30
0.0
 10
-32.5039987821
 20
-25.1761853762
 30
0.0
 10
-32.5668848298
 20
-25.1694330516
 30
0.0
 10
-32.6112618746
 20
-25.1646317635
 30
0.0
 10
-32.6393434251
 20
-25.1615740157
 30
0.0
 10
-32.6635610334
 20
-25.1589181129
 30
0.0
 10
-32.6836800022
 20
-25.1566816991
 30
0.0
 10
-32.69781982
 20
-25.1550995587
 30
0.0
 10
-32.7069129094
 20
-25.1540361328
 30
0.0
 10
-32.7121177839
 20
-25.1534600066
 30
0.0
 10
-32.7160218569
 20
-25.1528975042
 30
0.0
 10
-32.7191797032
 20
-25.1527067007
 30
0.0
 10
-32.7204293596
 20
-25.1521619098
 30
0.0
 10
-32.7217038883
 20
-25.1523529502
 30
0.0
 10
-32.7216833545
 20
-25.1521575846
 30
0.0
  0
SPLINE
  5
2DE
100
AcDbEntity
  8
ASSI
100
AcDbSpline
 62
250
  6
CONTINUOUS
 70
0
 71
3
 72
20
 73
16
 74
0
 42
0.0000001
 43
0.0000001
 44
0.0000000001
 40
0.0
 40
0.0
 40
0.0
 40
0.0
 40
0.1949458248
 40
0.3826171407
 40
0.5552483532
 40
0.7064834763
 40
0.7722875236
 40
0.8306510448
 40
0.8810044807
 40
0.9229198839
 40
0.9559832975
 40
0.9798634459
 40
0.9944372119
 40
0.9982594362
 40
1.0
 40
1.0
 40
1.0
 40
1.0
 10
-32.237510881
 20
-25.2044218162
 30
0.0
 10
-32.244226888
 20
-25.236076677
 30
0.0
 10
-32.2572539275
 20
-25.2982380613
 30
0.0
 10
-32.2756997854
 20
-25.3885405781
 30
0.0
 10
-32.2922118973
 20
-25.4718315492
 30
0.0
 10
-32.3043465855
 20
-25.5353655336
 30
0.0
 10
-32.3125822323
 20
-25.5803335799
 30
0.0
 10
-32.317626504
 20
-25.6088576406
 30
0.0
 10
-32.321783703
 20
-25.6335219731
 30
0.0
 10
-32.325023046
 20
-25.6540496528
 30
0.0
 10
-32.3273129054
 20
-25.6703609878
 30
0.0
 10
-32.3286694985
 20
-25.6820162696
 30
0.0
 10
-32.3290887589
 20
-25.6892723092
 30
0.0
 10
-32.3289209748
 20
-25.6923726914
 30
0.0
 10
-32.3285450269
 20
-25.6934602232
 30
0.0
 10
-32.3282624064
 20
-25.693520226
 30
0.0
  0
SPLINE
  5
2DF
100
AcDbEntity
  8
ASSI
100
AcDbSpline
 62
250
  6
CONTINUOUS
 70
0
 71
3
 72
20
 73
16
 74
0
 42
0.0000001
 43
0.0000001
 44
0.0000000001
 40
0.0
 40
0.0
 40
0.0
 40
0.0
 40
0.194943867
 40
0.3826098175
 40
0.5552381166
 40
0.7064734676
 40
0.7722781617
 40
0.8306414009
 40
0.8809959821
 40
0.9229130808
 40
0.9559769872
 40
0.9798590022
 40
0.9944357894
 40
0.9982591087
 40
1.0
 40
1.0
 40
1.0
 40
1.0
 10
-29.3860129353
 20
-25.8098205244
 30
0.0
 10
-29.3927288736
 20
-25.8414750612
 30
0.0
 10
-29.4057556773
 20
-25.9036352404
 30
0.0
 10
-29.4242011824
 20
-25.9939360768
 30
0.0
 10
-29.440713076
 20
-26.0772257122
 30
0.0
 10
-29.4528476958
 20
-26.1407593518
 30
0.0
 10
-29.4610834342
 20
-26.1857274731
 30
0.0
 10
-29.4661277678
 20
-26.2142517701
 30
0.0
 10
-29.4702851075
 20
-26.2389165099
 30
0.0
 10
-29.4735246292
 20
-26.259444702
 30
0.0
 10
-29.475814542
 20
-26.2757567479
 30
0.0
 10
-29.4771711346
 20
-26.287412823
 30
0.0
 10
-29.4775906339
 20
-26.2946700425
 30
0.0
 10
-29.4774229345
 20
-26.2977709383
 30
0.0
 10
-29.4770471343
 20
-26.2988589201
 30
0.0
 10
-29.4767644608
 20
-26.2989189342
 30
0.0
  0
SPLINE
  5
2E0
100
AcDbEntity
  8
ASSI
100
AcDbSpline
 62
250
  6
CONTINUOUS
 70
0
 71
3
 72
20
 73
16
 74
0
 42
0.0000001
 43
0.0000001
 44
0.0000000001
 40
0.0
 40
0.0
 40
0.0
 40
0.0
 40
0.1946812746
 40
0.3822331151
 40
0.5548547767
 40
0.7061524342
 40
0.7720026783
 40
0.8304151482
 40
0.8808188643
 40
0.9227820844
 40
0.9558863785
 40
0.9798012314
 40
0.9944039183
 40
0.9982398403
 40
1.0
 40
1.0
 40
1.0
 40
1.0
 10
-29.2952614099
 20
-25.8205507771
 30
0.0
 10
-29.2961108341
 20
-25.8530112209
 30
0.0
 10
-29.297616194
 20
-25.9167477548
 30
0.0
 10
-29.2993201183
 20
-26.0092785918
 30
0.0
 10
-29.3003863876
 20
-26.0945826944
 30
0.0
 10
-29.3007351881
 20
-26.1595930546
 30
0.0
 10
-29.3006262327
 20
-26.2055558736
 30
0.0
 10
-29.3003758233
 20
-26.2346856413
 30
0.0
 10
-29.2999531054
 20
-26.2598393288
 30
0.0
 10
-29.2993789213
 20
-26.280737445
 30
0.0
 10
-29.2986359381
 20
-26.2972901907
 30
0.0
 10
-29.29782332
 20
-26.3090748783
 30
0.0
 10
-29.2968881058
 20
-26.3163235404
 30
0.0
 10
-29.2961390175
 20
-26.3193707304
 30
0.0
 10
-29.2955548924
 20
-26.3203717544
 30
0.0
 10
-29.2952614099
 20
-26.3203794396
 30
0.0
  0
SPLINE
  5
2E1
100
AcDbEntity
  8
ASSI
100
AcDbSpline
 62
250
  6
CONTINUOUS
 70
0
 71
3
 72
13
 73
9
 74
0
 42
0.0000001
 43
0.0000001
 44
0.0000000001
 40
0.0
 40
0.0
 40
0.0
 40
0.0
 40
0.1250029722
 40
0.2500056477
 40
0.5000004417
 40
0.7499949686
 40
0.8749973771
 40
1.0
 40
1.0
 40
1.0
 40
1.0
 10
-29.5677633523
 20
10.7371426949
 30
0.0
 10
-29.5677614199
 20
9.8594280982
 30
0.0
 10
-29.572665725
 20
8.1039806669
 30
0.0
 10
-29.6132666041
 20
4.5934409247
 30
0.0
 10
-29.7518533891
 20
0.2061695835
 30
0.0
 10
-30.0726150225
 20
-4.171552891
 30
0.0
 10
-30.3992024613
 20
-7.6670978785
 30
0.0
 10
-30.5778149145
 20
-9.4134374715
 30
0.0
 10
-30.6695574857
 20
-10.2863417665
 30
0.0
  0
ELLIPSE
  5
2E2
100
AcDbEntity
  8
ASSI
100
AcDbEllipse
 62
7
  6
CONTINUOUS
 10
-11.0816698549
 20
-21.3675103668
 30
0.0
 11
-0.0
 21
0.3
 31
0.0
 40
0.0261859216
 41
-4.7123889804
 42
-4.0142572796
  0
ELLIPSE
  5
2E3
100
AcDbEntity
  8
ASSI
100
AcDbEllipse
 62
7
  6
CONTINUOUS
 10
-11.2204552392
 20
-19.196450535
 30
0.0
 11
-0.0
 21
5.0
 31
0.0
 40
0.0261859216
 41
-1.5707963268
 42
-1.4922565105
  0
ELLIPSE
  5
2E4
100
AcDbEntity
  8
ASSI
100
AcDbEllipse
 62
7
  6
CONTINUOUS
 10
-10.9690703922
 20
-13.7210675705
 30
0.0
 11
-0.0
 21
5.0
 31
0.0
 40
0.0261859216
 41
1.5707963268
 42
1.6493361431
  0
ELLIPSE
  5
2E5
100
AcDbEntity
  8
ASSI
100
AcDbEllipse
 62
7
  6
CONTINUOUS
 10
-11.0764326706
 20
-22.5392953814
 30
0.0
 11
0.0
 21
0.3
 31
0.0
 40
0.0261859216
 41
-1.5707963268
 42
-0.872664626
  0
ELLIPSE
  5
2E6
100
AcDbEntity
  8
ASSI
100
AcDbEllipse
 62
7
  6
CONTINUOUS
 10
11.0764326706
 20
-22.5392953814
 30
0.0
 11
0.0
 21
0.3
 31
0.0
 40
0.0261859216
 41
0.872664626
 42
1.5707963268
  0
ELLIPSE
  5
2E7
100
AcDbEntity
  8
ASSI
100
AcDbEllipse
 62
7
  6
CONTINUOUS
 10
10.9690703922
 20
-13.7210675705
 30
0.0
 11
-0.0
 21
5.0
 31
0.0
 40
0.0261859216
 41
-1.6493361431
 42
-1.5707963268
  0
ELLIPSE
  5
2E8
100
AcDbEntity
  8
ASSI
100
AcDbEllipse
 62
7
  6
CONTINUOUS
 10
11.2204552392
 20
-19.196450535
 30
0.0
 11
-0.0
 21
5.0
 31
0.0
 40
0.0261859216
 41
1.4922565105
 42
1.5707963268
  0
ELLIPSE
  5
2E9
100
AcDbEntity
  8
ASSI
100
AcDbEllipse
 62
7
  6
CONTINUOUS
 10
11.0816698549
 20
-21.3675103668
 30
0.0
 11
0.0
 21
0.3
 31
0.0
 40
0.0261859216
 41
-2.2689280276
 42
-1.5707963268
  0
ELLIPSE
  5
2EA
100
AcDbEntity
  8
ASSI
100
AcDbEllipse
 62
7
  6
CONTINUOUS
 10
10.5998286038
 20
25.8998286038
 30
0.0
 11
0.35379574
 21
0.35379574
 31
0.0
 40
0.999315002
 41
-0.7850555471
 42
0.7850555471
  0
ELLIPSE
  5
2EB
100
AcDbEntity
  8
ASSI
100
AcDbEllipse
 62
7
  6
CONTINUOUS
 10
-10.5998286038
 20
25.8998286038
 30
0.0
 11
0.35379574
 21
-0.35379574
 31
0.0
 40
0.999315002
 41
2.3565371065
 42
3.9266482006
  0
ELLIPSE
  5
2EC
100
AcDbEntity
  8
ASSI
100
AcDbEllipse
 62
7
  6
CONTINUOUS
 10
10.5684054979
 20
-25.8684054979
 30
0.0
 11
0.35379574
 21
-0.35379574
 31
0.0
 40
0.999315002
 41
-0.7850555471
 42
0.7850555471
  0
ELLIPSE
  5
2ED
100
AcDbEntity
  8
ASSI
100
AcDbEllipse
 62
7
  6
CONTINUOUS
 10
-10.5684054979
 20
-25.8684054979
 30
0.0
 11
0.35379574
 21
0.35379574
 31
0.0
 40
0.999315002
 41
-3.9266482006
 42
-2.3565371065
  0
ENDSEC
  0
SECTION
  2
OBJECTS
  0
DICTIONARY
  5
C
100
AcDbDictionary
280
0
281
1
  3
ACAD_GROUP
350
D
  3
ACAD_MLINESTYLE
350
17
  3
ACAD_LAYOUT
350
1A
  3
ACAD_PLOTSETTINGS
350
19
  3
ACAD_PLOTSTYLENAME
350
E
  0
DICTIONARY
  5
D
102
{ACAD_REACTORS
330
C
102
}
100
AcDbDictionary
280
0
281
1
  0
ACDBDICTIONARYWDFLT
  5
E
102
{ACAD_REACTORS
330
C
102
}
100
AcDbDictionary
281
1
  3
Normal
350
F
100
AcDbDictionaryWithDefault
340
F
  0
DICTIONARY
  5
17
102
{ACAD_REACTORS
330
C
102
}
100
AcDbDictionary
280
0
281
1
  3
Standard
350
18
  0
DICTIONARY
  5
19
102
{ACAD_REACTORS
330
C
102
}
100
AcDbDictionary
281
1
  0
DICTIONARY
  5
1A
102
{ACAD_REACTORS
330
C
102
}
100
AcDbDictionary
281
1
  3
Model
350
2EE
  3
Layout1
350
2EF
  0
ACDBPLACEHOLDER
  5
F
102
{ACAD_REACTORS
330
E
102
}
  0
MLINESTYLE
  5
18
102
{ACAD_REACTORS
330
17
102
}
100
AcDbMlineStyle
  2
STANDARD
 70
0
  3

 62
256
 51
90.0
 52
90.0
 71
2
 49
0.5
 62
256
  6
BYLAYER
 49
-0.5
 62
256
  6
BYLAYER
  0
LAYOUT
  5
2EE
102
{ACAD_REACTORS
330
1A
102
}
100
AcDbPlotSettings
  1

  2
none_device
  4
ISO_A4_(297.00_x_210.00_MM)
  6

 40
0.0
 41
0.0
 42
0.0
 43
0.0
 44
297.0
 45
210.0
 46
0.0
 47
0.0
 48
0.0
 49
0.0
140
0.0
141
0.0
142
1.0
143
1.0
 70
1024
 72
1
 73
0
 74
0
  7

 75
0
147
1.0
148
0.0
149
0.0
100
AcDbLayout
  1
Model
 70
0
 71
0
 10
0.0
 20
0.0
 11
297.0
 21
210.0
 12
0.0
 22
0.0
 32
0.0
 14
0.0
 24
0.0
 34
0.0
 15
0.0
 25
0.0
 35
0.0
146
0.0
 13
0.0
 23
0.0
 33
0.0
 16
1.0
 26
0.0
 36
0.0
 17
0.0
 27
1.0
 37
0.0
 76
0
330
220
345
0
346
0
  0
LAYOUT
  5
2EF
102
{ACAD_REACTORS
330
1A
102
}
100
AcDbPlotSettings
  1

  2
none_device
  4
ISO_A4_(297.00_x_210.00_MM)
  6

 40
0.0
 41
0.0
 42
0.0
 43
0.0
 44
297.0
 45
210.0
 46
0.0
 47
0.0
 48
0.0
 49
0.0
140
0.0
141
0.0
142
1.0
143
1.0
 70
0
 72
1
 73
0
 74
0
  7

 75
0
147
1.0
148
0.0
149
0.0
100
AcDbLayout
  1
Layout1
 70
0
 71
1
 10
0.0
 20
0.0
 11
297.0
 21
210.0
 12
0.0
 22
0.0
 32
0.0
 14
0.0
 24
0.0
 34
0.0
 15
0.0
 25
0.0
 35
0.0
146
0.0
 13
0.0
 23
0.0
 33
0.0
 16
1.0
 26
0.0
 36
0.0
 17
0.0
 27
1.0
 37
0.0
 76
0
330
221
345
0
346
0
  0
ENDSEC
  0
EOF
