  0
SECTION
  2
HEADER
  9
$ACADVER
  1
AC1024
  9
$DWGCODEPAGE
  3
ANSI_1252
  9
$EXTMAX
 10
210.0
 20
297.0
 30
0.0
  9
$EXTMIN
 10
0.0
 20
0.0
 30
0.0
  9
$LIMMIN
 10
0.0
 20
0.0
  9
$LIMMAX
 10
210.0
 20
297.0
  9
$VIEWCTR
 10
105.0
 20
148.5
  9
$VIEWSIZE
 40
297.0
  9
$CLAYER
  8
0
  9
$LTSCALE
 40
19.36
  9
$CELTYPE
  6
BYLAYER
  9
$DIMSCALE
 40
1.0
  9
$DIMASZ
 40
3.0
  9
$DIMEXO
 40
0.5
  9
$DIMDLI
 40
13.376
  9
$DIMEXE
 40
1.5
  9
$DIMCEN
 40
3.168
  9
$DIMLFAC
 40
1.0
  9
$DIMBLK
  1
_FILLED
  9
$DIMALT
 70
0
  9
$DIMALTF
 40
0.0393700787
  9
$DIMTXT
 40
3.0
  9
$DIMTOL
 70
1
  9
$DIMLIM
 70
0
  9
$DIMTFAC
 40
1.0
  9
$DIMTP
 40
0.01
  9
$DIMTM
 40
0.01
  9
$DIMGAP
 40
0.625
  9
$DIMDSEP
 70
44
  9
$AUNITS
 70
0
  9
$PDMODE
 70
3
  9
$PDSIZE
 40
3.0
  9
$HANDSEED
  5
55B
  9
$TILEMODE
 70
1
  9
$MEASUREMENT
 70
1
  9
$INSUNITS
 70
4
  0
ENDSEC
  0
SECTION
  2
CLASSES
  0
CLASS
  1
ACDBDICTIONARYWDFLT
  2
AcDbDictionaryWithDefault
  3
AutoCAD 2000
 90
0
 91
1
280
0
281
0
  0
CLASS
  1
ACDBPLACEHOLDER
  2
AcDbPlaceHolder
  3
AutoCAD 2000
 90
0
 91
1
280
0
281
0
  0
CLASS
  1
LAYOUT
  2
AcDbLayout
  3
AutoCAD 2000
 90
0
 91
0
280
0
281
0
  0
ENDSEC
  0
SECTION
  2
TABLES
  0
TABLE
  2
VPORT
  5
8
100
AcDbSymbolTable
 70
2
  0
VPORT
  5
1F4
100
AcDbSymbolTableRecord
100
AcDbViewportTableRecord
  2
*ACTIVE
 70
0
 10
0.0
 20
0.0
 11
1.0
 21
1.0
 12
105.0
 22
148.5
 13
0.0
 23
0.0
 14
1.0
 24
1.0
 15
0.0
 25
0.0
 16
0.0
 26
0.0
 36
1.0
 17
0.0
 27
0.0
 37
0.0
 40
297.0
 41
0.7070707071
 42
50.0
 43
0.0
 44
0.0
 50
0.0
 51
0.0
 71
0
 72
100
 73
1
 74
1
 75
0
 76
0
 77
0
 78
0
  0
ENDTAB
  0
TABLE
  2
LTYPE
  5
5
100
AcDbSymbolTable
 70
6
  0
LTYPE
  5
14
100
AcDbSymbolTableRecord
100
AcDbLinetypeTableRecord
  2
BYBLOCK
 70
0
  3

 72
65
 73
0
 40
0.0
  0
LTYPE
  5
15
100
AcDbSymbolTableRecord
100
AcDbLinetypeTableRecord
  2
BYLAYER
 70
0
  3

 72
65
 73
0
 40
0.0
  0
LTYPE
  5
16
100
AcDbSymbolTableRecord
100
AcDbLinetypeTableRecord
  2
CONTINUOUS
 70
64
  3
Solid line
 72
65
 73
0
 40
0.0
  0
LTYPE
  5
1F5
100
AcDbSymbolTableRecord
100
AcDbLinetypeTableRecord
  2
CENTER
 70
64
  3
____ _ ____ _ ____ _ ____ _ ____ _ ____ _ ____
 72
65
 73
4
 40
0.6
 49
0.375
 74
0
 49
-0.075
 74
0
 49
0.075
 74
0
 49
-0.075
 74
0
  0
LTYPE
  5
1F6
100
AcDbSymbolTableRecord
100
AcDbLinetypeTableRecord
  2
HIDDEN
 70
64
  3
- - - - - - - - - - - - - - - - - - - -
 72
65
 73
2
 40
0.2
 49
0.1
 74
0
 49
-0.1
 74
0
  0
LTYPE
  5
1F7
100
AcDbSymbolTableRecord
100
AcDbLinetypeTableRecord
  2
PHANTOM
 70
64
  3
_____ _ _ _____ _ _ _____ _ _ _____
 72
65
 73
6
 40
0.8
 49
0.45
 74
0
 49
-0.05
 74
0
 49
0.1
 74
0
 49
-0.05
 74
0
 49
0.1
 74
0
 49
-0.05
 74
0
  0
LTYPE
  5
1F8
100
AcDbSymbolTableRecord
100
AcDbLinetypeTableRecord
  2
DOT
 70
64
  3
. . . . . . . . . . . . . . . . . . . .
 72
65
 73
2
 40
0.2
 49
0.1
 74
0
 49
-0.1
 74
0
  0
LTYPE
  5
1F9
100
AcDbSymbolTableRecord
100
AcDbLinetypeTableRecord
  2
DASHED
 70
64
  3
- - - - - - - - - - - - - - - - - - - -
 72
65
 73
2
 40
0.2
 49
0.1
 74
0
 49
-0.1
 74
0
  0
ENDTAB
  0
TABLE
  2
LAYER
  5
2
100
AcDbSymbolTable
 70
36
  0
LAYER
  5
10
100
AcDbSymbolTableRecord
100
AcDbLayerTableRecord
  2
0
 70
0
 62
7
  6
CONTINUOUS
370
-3
390
F
  0
LAYER
  5
1FA
100
AcDbSymbolTableRecord
100
AcDbLayerTableRecord
  2
DEFAULT_1
 70
0
 62
7
  6
CENTER
370
-3
390
F
  0
LAYER
  5
1FB
100
AcDbSymbolTableRecord
100
AcDbLayerTableRecord
  2
DEFAULT_2
 70
0
 62
7
  6
HIDDEN
370
-3
390
F
  0
LAYER
  5
1FC
100
AcDbSymbolTableRecord
100
AcDbLayerTableRecord
  2
DEFAULT_3
 70
0
 62
7
  6
PHANTOM
370
-3
390
F
  0
LAYER
  5
1FD
100
AcDbSymbolTableRecord
100
AcDbLayerTableRecord
  2
0402_C_REF_70000
 70
0
 62
7
  6
CONTINUOUS
370
-3
390
F
  0
LAYER
  5
1FE
100
AcDbSymbolTableRecord
100
AcDbLayerTableRecord
  2
0402_C_REF_70000_1
 70
0
 62
7
  6
CONTINUOUS
370
-3
390
F
  0
LAYER
  5
1FF
100
AcDbSymbolTableRecord
100
AcDbLayerTableRecord
  2
0402_C_REF_70000_10
 70
0
 62
7
  6
CONTINUOUS
370
-3
390
F
  0
LAYER
  5
200
100
AcDbSymbolTableRecord
100
AcDbLayerTableRecord
  2
0402_C_REF_70000_11
 70
0
 62
7
  6
CONTINUOUS
370
-3
390
F
  0
LAYER
  5
201
100
AcDbSymbolTableRecord
100
AcDbLayerTableRecord
  2
0402_C_REF_70000_12
 70
0
 62
7
  6
CONTINUOUS
370
-3
390
F
  0
LAYER
  5
202
100
AcDbSymbolTableRecord
100
AcDbLayerTableRecord
  2
0402_C_REF_70000_13
 70
0
 62
7
  6
CONTINUOUS
370
-3
390
F
  0
LAYER
  5
203
100
AcDbSymbolTableRecord
100
AcDbLayerTableRecord
  2
0402_C_REF_70000_14
 70
0
 62
7
  6
CONTINUOUS
370
-3
390
F
  0
LAYER
  5
204
100
AcDbSymbolTableRecord
100
AcDbLayerTableRecord
  2
0402_C_REF_70000_15
 70
0
 62
7
  6
CONTINUOUS
370
-3
390
F
  0
LAYER
  5
205
100
AcDbSymbolTableRecord
100
AcDbLayerTableRecord
  2
0402_C_REF_70000_16
 70
0
 62
7
  6
CONTINUOUS
370
-3
390
F
  0
LAYER
  5
206
100
AcDbSymbolTableRecord
100
AcDbLayerTableRecord
  2
0402_C_REF_70000_17
 70
0
 62
7
  6
CONTINUOUS
370
-3
390
F
  0
LAYER
  5
207
100
AcDbSymbolTableRecord
100
AcDbLayerTableRecord
  2
0402_C_REF_70000_18
 70
0
 62
7
  6
CONTINUOUS
370
-3
390
F
  0
LAYER
  5
208
100
AcDbSymbolTableRecord
100
AcDbLayerTableRecord
  2
0402_C_REF_70000_19
 70
0
 62
7
  6
CONTINUOUS
370
-3
390
F
  0
LAYER
  5
209
100
AcDbSymbolTableRecord
100
AcDbLayerTableRecord
  2
0402_C_REF_70000_2
 70
0
 62
7
  6
CONTINUOUS
370
-3
390
F
  0
LAYER
  5
20A
100
AcDbSymbolTableRecord
100
AcDbLayerTableRecord
  2
0402_C_REF_70000_20
 70
0
 62
7
  6
CONTINUOUS
370
-3
390
F
  0
LAYER
  5
20B
100
AcDbSymbolTableRecord
100
AcDbLayerTableRecord
  2
0402_C_REF_70000_21
 70
0
 62
7
  6
CONTINUOUS
370
-3
390
F
  0
LAYER
  5
20C
100
AcDbSymbolTableRecord
100
AcDbLayerTableRecord
  2
0402_C_REF_70000_22
 70
0
 62
7
  6
CONTINUOUS
370
-3
390
F
  0
LAYER
  5
20D
100
AcDbSymbolTableRecord
100
AcDbLayerTableRecord
  2
0402_C_REF_70000_23
 70
0
 62
7
  6
CONTINUOUS
370
-3
390
F
  0
LAYER
  5
20E
100
AcDbSymbolTableRecord
100
AcDbLayerTableRecord
  2
0402_C_REF_70000_24
 70
0
 62
7
  6
CONTINUOUS
370
-3
390
F
  0
LAYER
  5
20F
100
AcDbSymbolTableRecord
100
AcDbLayerTableRecord
  2
0402_C_REF_70000_25
 70
0
 62
7
  6
CONTINUOUS
370
-3
390
F
  0
LAYER
  5
210
100
AcDbSymbolTableRecord
100
AcDbLayerTableRecord
  2
0402_C_REF_70000_26
 70
0
 62
7
  6
CONTINUOUS
370
-3
390
F
  0
LAYER
  5
211
100
AcDbSymbolTableRecord
100
AcDbLayerTableRecord
  2
0402_C_REF_70000_27
 70
0
 62
7
  6
CONTINUOUS
370
-3
390
F
  0
LAYER
  5
212
100
AcDbSymbolTableRecord
100
AcDbLayerTableRecord
  2
0402_C_REF_70000_28
 70
0
 62
7
  6
CONTINUOUS
370
-3
390
F
  0
LAYER
  5
213
100
AcDbSymbolTableRecord
100
AcDbLayerTableRecord
  2
0402_C_REF_70000_29
 70
0
 62
7
  6
CONTINUOUS
370
-3
390
F
  0
LAYER
  5
214
100
AcDbSymbolTableRecord
100
AcDbLayerTableRecord
  2
0402_C_REF_70000_3
 70
0
 62
7
  6
CONTINUOUS
370
-3
390
F
  0
LAYER
  5
215
100
AcDbSymbolTableRecord
100
AcDbLayerTableRecord
  2
0402_C_REF_70000_30
 70
0
 62
7
  6
CONTINUOUS
370
-3
390
F
  0
LAYER
  5
216
100
AcDbSymbolTableRecord
100
AcDbLayerTableRecord
  2
0402_C_REF_70000_31
 70
0
 62
7
  6
CONTINUOUS
370
-3
390
F
  0
LAYER
  5
217
100
AcDbSymbolTableRecord
100
AcDbLayerTableRecord
  2
0402_C_REF_70000_32
 70
0
 62
7
  6
CONTINUOUS
370
-3
390
F
  0
LAYER
  5
218
100
AcDbSymbolTableRecord
100
AcDbLayerTableRecord
  2
0402_C_REF_70000_33
 70
0
 62
7
  6
CONTINUOUS
370
-3
390
F
  0
LAYER
  5
219
100
AcDbSymbolTableRecord
100
AcDbLayerTableRecord
  2
0402_C_REF_70000_34
 70
0
 62
7
  6
CONTINUOUS
370
-3
390
F
  0
LAYER
  5
21A
100
AcDbSymbolTableRecord
100
AcDbLayerTableRecord
  2
0402_C_REF_70000_35
 70
0
 62
7
  6
CONTINUOUS
370
-3
390
F
  0
LAYER
  5
21B
100
AcDbSymbolTableRecord
100
AcDbLayerTableRecord
  2
0402_C_REF_70000_36
 70
0
 62
7
  6
CONTINUOUS
370
-3
390
F
  0
LAYER
  5
21C
100
AcDbSymbolTableRecord
100
AcDbLayerTableRecord
  2
0402_C_REF_70000_37
 70
0
 62
7
  6
CONTINUOUS
370
-3
390
F
  0
LAYER
  5
21D
100
AcDbSymbolTableRecord
100
AcDbLayerTableRecord
  2
0402_C_REF_70000_38
 70
0
 62
7
  6
CONTINUOUS
370
-3
390
F
  0
LAYER
  5
21E
100
AcDbSymbolTableRecord
100
AcDbLayerTableRecord
  2
0402_C_REF_70000_39
 70
0
 62
7
  6
CONTINUOUS
370
-3
390
F
  0
LAYER
  5
21F
100
AcDbSymbolTableRecord
100
AcDbLayerTableRecord
  2
0402_C_REF_70000_4
 70
0
 62
7
  6
CONTINUOUS
370
-3
390
F
  0
LAYER
  5
220
100
AcDbSymbolTableRecord
100
AcDbLayerTableRecord
  2
0402_C_REF_70000_40
 70
0
 62
7
  6
CONTINUOUS
370
-3
390
F
  0
LAYER
  5
221
100
AcDbSymbolTableRecord
100
AcDbLayerTableRecord
  2
0402_C_REF_70000_5
 70
0
 62
7
  6
CONTINUOUS
370
-3
390
F
  0
LAYER
  5
222
100
AcDbSymbolTableRecord
100
AcDbLayerTableRecord
  2
0402_C_REF_70000_6
 70
0
 62
7
  6
CONTINUOUS
370
-3
390
F
  0
LAYER
  5
223
100
AcDbSymbolTableRecord
100
AcDbLayerTableRecord
  2
0402_C_REF_70000_7
 70
0
 62
7
  6
CONTINUOUS
370
-3
390
F
  0
LAYER
  5
224
100
AcDbSymbolTableRecord
100
AcDbLayerTableRecord
  2
0402_C_REF_70000_8
 70
0
 62
7
  6
CONTINUOUS
370
-3
390
F
  0
LAYER
  5
225
100
AcDbSymbolTableRecord
100
AcDbLayerTableRecord
  2
0402_C_REF_70000_9
 70
0
 62
7
  6
CONTINUOUS
370
-3
390
F
  0
LAYER
  5
226
100
AcDbSymbolTableRecord
100
AcDbLayerTableRecord
  2
0402_R_REF_30000
 70
0
 62
7
  6
CONTINUOUS
370
-3
390
F
  0
LAYER
  5
227
100
AcDbSymbolTableRecord
100
AcDbLayerTableRecord
  2
0402_R_REF_30000_1
 70
0
 62
7
  6
CONTINUOUS
370
-3
390
F
  0
LAYER
  5
228
100
AcDbSymbolTableRecord
100
AcDbLayerTableRecord
  2
0402_R_REF_30000_10
 70
0
 62
7
  6
CONTINUOUS
370
-3
390
F
  0
LAYER
  5
229
100
AcDbSymbolTableRecord
100
AcDbLayerTableRecord
  2
0402_R_REF_30000_11
 70
0
 62
7
  6
CONTINUOUS
370
-3
390
F
  0
LAYER
  5
22A
100
AcDbSymbolTableRecord
100
AcDbLayerTableRecord
  2
0402_R_REF_30000_12
 70
0
 62
7
  6
CONTINUOUS
370
-3
390
F
  0
LAYER
  5
22B
100
AcDbSymbolTableRecord
100
AcDbLayerTableRecord
  2
0402_R_REF_30000_13
 70
0
 62
7
  6
CONTINUOUS
370
-3
390
F
  0
LAYER
  5
22C
100
AcDbSymbolTableRecord
100
AcDbLayerTableRecord
  2
0402_R_REF_30000_14
 70
0
 62
7
  6
CONTINUOUS
370
-3
390
F
  0
LAYER
  5
22D
100
AcDbSymbolTableRecord
100
AcDbLayerTableRecord
  2
0402_R_REF_30000_15
 70
0
 62
7
  6
CONTINUOUS
370
-3
390
F
  0
LAYER
  5
22E
100
AcDbSymbolTableRecord
100
AcDbLayerTableRecord
  2
0402_R_REF_30000_16
 70
0
 62
7
  6
CONTINUOUS
370
-3
390
F
  0
LAYER
  5
22F
100
AcDbSymbolTableRecord
100
AcDbLayerTableRecord
  2
0402_R_REF_30000_17
 70
0
 62
7
  6
CONTINUOUS
370
-3
390
F
  0
LAYER
  5
230
100
AcDbSymbolTableRecord
100
AcDbLayerTableRecord
  2
0402_R_REF_30000_18
 70
0
 62
7
  6
CONTINUOUS
370
-3
390
F
  0
LAYER
  5
231
100
AcDbSymbolTableRecord
100
AcDbLayerTableRecord
  2
0402_R_REF_30000_19
 70
0
 62
7
  6
CONTINUOUS
370
-3
390
F
  0
LAYER
  5
232
100
AcDbSymbolTableRecord
100
AcDbLayerTableRecord
  2
0402_R_REF_30000_2
 70
0
 62
7
  6
CONTINUOUS
370
-3
390
F
  0
LAYER
  5
233
100
AcDbSymbolTableRecord
100
AcDbLayerTableRecord
  2
0402_R_REF_30000_20
 70
0
 62
7
  6
CONTINUOUS
370
-3
390
F
  0
LAYER
  5
234
100
AcDbSymbolTableRecord
100
AcDbLayerTableRecord
  2
0402_R_REF_30000_21
 70
0
 62
7
  6
CONTINUOUS
370
-3
390
F
  0
LAYER
  5
235
100
AcDbSymbolTableRecord
100
AcDbLayerTableRecord
  2
0402_R_REF_30000_22
 70
0
 62
7
  6
CONTINUOUS
370
-3
390
F
  0
LAYER
  5
236
100
AcDbSymbolTableRecord
100
AcDbLayerTableRecord
  2
0402_R_REF_30000_23
 70
0
 62
7
  6
CONTINUOUS
370
-3
390
F
  0
LAYER
  5
237
100
AcDbSymbolTableRecord
100
AcDbLayerTableRecord
  2
0402_R_REF_30000_24
 70
0
 62
7
  6
CONTINUOUS
370
-3
390
F
  0
LAYER
  5
238
100
AcDbSymbolTableRecord
100
AcDbLayerTableRecord
  2
0402_R_REF_30000_25
 70
0
 62
7
  6
CONTINUOUS
370
-3
390
F
  0
LAYER
  5
239
100
AcDbSymbolTableRecord
100
AcDbLayerTableRecord
  2
0402_R_REF_30000_26
 70
0
 62
7
  6
CONTINUOUS
370
-3
390
F
  0
LAYER
  5
23A
100
AcDbSymbolTableRecord
100
AcDbLayerTableRecord
  2
0402_R_REF_30000_27
 70
0
 62
7
  6
CONTINUOUS
370
-3
390
F
  0
LAYER
  5
23B
100
AcDbSymbolTableRecord
100
AcDbLayerTableRecord
  2
0402_R_REF_30000_28
 70
0
 62
7
  6
CONTINUOUS
370
-3
390
F
  0
LAYER
  5
23C
100
AcDbSymbolTableRecord
100
AcDbLayerTableRecord
  2
0402_R_REF_30000_29
 70
0
 62
7
  6
CONTINUOUS
370
-3
390
F
  0
LAYER
  5
23D
100
AcDbSymbolTableRecord
100
AcDbLayerTableRecord
  2
0402_R_REF_30000_3
 70
0
 62
7
  6
CONTINUOUS
370
-3
390
F
  0
LAYER
  5
23E
100
AcDbSymbolTableRecord
100
AcDbLayerTableRecord
  2
0402_R_REF_30000_30
 70
0
 62
7
  6
CONTINUOUS
370
-3
390
F
  0
LAYER
  5
23F
100
AcDbSymbolTableRecord
100
AcDbLayerTableRecord
  2
0402_R_REF_30000_31
 70
0
 62
7
  6
CONTINUOUS
370
-3
390
F
  0
LAYER
  5
240
100
AcDbSymbolTableRecord
100
AcDbLayerTableRecord
  2
0402_R_REF_30000_32
 70
0
 62
7
  6
CONTINUOUS
370
-3
390
F
  0
LAYER
  5
241
100
AcDbSymbolTableRecord
100
AcDbLayerTableRecord
  2
0402_R_REF_30000_33
 70
0
 62
7
  6
CONTINUOUS
370
-3
390
F
  0
LAYER
  5
242
100
AcDbSymbolTableRecord
100
AcDbLayerTableRecord
  2
0402_R_REF_30000_34
 70
0
 62
7
  6
CONTINUOUS
370
-3
390
F
  0
LAYER
  5
243
100
AcDbSymbolTableRecord
100
AcDbLayerTableRecord
  2
0402_R_REF_30000_35
 70
0
 62
7
  6
CONTINUOUS
370
-3
390
F
  0
LAYER
  5
244
100
AcDbSymbolTableRecord
100
AcDbLayerTableRecord
  2
0402_R_REF_30000_36
 70
0
 62
7
  6
CONTINUOUS
370
-3
390
F
  0
LAYER
  5
245
100
AcDbSymbolTableRecord
100
AcDbLayerTableRecord
  2
0402_R_REF_30000_37
 70
0
 62
7
  6
CONTINUOUS
370
-3
390
F
  0
LAYER
  5
246
100
AcDbSymbolTableRecord
100
AcDbLayerTableRecord
  2
0402_R_REF_30000_38
 70
0
 62
7
  6
CONTINUOUS
370
-3
390
F
  0
LAYER
  5
247
100
AcDbSymbolTableRecord
100
AcDbLayerTableRecord
  2
0402_R_REF_30000_39
 70
0
 62
7
  6
CONTINUOUS
370
-3
390
F
  0
LAYER
  5
248
100
AcDbSymbolTableRecord
100
AcDbLayerTableRecord
  2
0402_R_REF_30000_4
 70
0
 62
7
  6
CONTINUOUS
370
-3
390
F
  0
LAYER
  5
249
100
AcDbSymbolTableRecord
100
AcDbLayerTableRecord
  2
0402_R_REF_30000_40
 70
0
 62
7
  6
CONTINUOUS
370
-3
390
F
  0
LAYER
  5
24A
100
AcDbSymbolTableRecord
100
AcDbLayerTableRecord
  2
0402_R_REF_30000_41
 70
0
 62
7
  6
CONTINUOUS
370
-3
390
F
  0
LAYER
  5
24B
100
AcDbSymbolTableRecord
100
AcDbLayerTableRecord
  2
0402_R_REF_30000_42
 70
0
 62
7
  6
CONTINUOUS
370
-3
390
F
  0
LAYER
  5
24C
100
AcDbSymbolTableRecord
100
AcDbLayerTableRecord
  2
0402_R_REF_30000_5
 70
0
 62
7
  6
CONTINUOUS
370
-3
390
F
  0
LAYER
  5
24D
100
AcDbSymbolTableRecord
100
AcDbLayerTableRecord
  2
0402_R_REF_30000_6
 70
0
 62
7
  6
CONTINUOUS
370
-3
390
F
  0
LAYER
  5
24E
100
AcDbSymbolTableRecord
100
AcDbLayerTableRecord
  2
0402_R_REF_30000_7
 70
0
 62
7
  6
CONTINUOUS
370
-3
390
F
  0
LAYER
  5
24F
100
AcDbSymbolTableRecord
100
AcDbLayerTableRecord
  2
0402_R_REF_30000_8
 70
0
 62
7
  6
CONTINUOUS
370
-3
390
F
  0
LAYER
  5
250
100
AcDbSymbolTableRecord
100
AcDbLayerTableRecord
  2
0402_R_REF_30000_9
 70
0
 62
7
  6
CONTINUOUS
370
-3
390
F
  0
LAYER
  5
251
100
AcDbSymbolTableRecord
100
AcDbLayerTableRecord
  2
0603_C_REF_90000
 70
0
 62
7
  6
CONTINUOUS
370
-3
390
F
  0
LAYER
  5
252
100
AcDbSymbolTableRecord
100
AcDbLayerTableRecord
  2
0603_C_REF_90000_1
 70
0
 62
7
  6
CONTINUOUS
370
-3
390
F
  0
LAYER
  5
253
100
AcDbSymbolTableRecord
100
AcDbLayerTableRecord
  2
0603_C_REF_90000_2
 70
0
 62
7
  6
CONTINUOUS
370
-3
390
F
  0
LAYER
  5
254
100
AcDbSymbolTableRecord
100
AcDbLayerTableRecord
  2
0603_C_REF_90000_3
 70
0
 62
7
  6
CONTINUOUS
370
-3
390
F
  0
LAYER
  5
255
100
AcDbSymbolTableRecord
100
AcDbLayerTableRecord
  2
0603_R_REF_55000
 70
0
 62
7
  6
CONTINUOUS
370
-3
390
F
  0
LAYER
  5
256
100
AcDbSymbolTableRecord
100
AcDbLayerTableRecord
  2
0603_R_REF_55000_1
 70
0
 62
7
  6
CONTINUOUS
370
-3
390
F
  0
LAYER
  5
257
100
AcDbSymbolTableRecord
100
AcDbLayerTableRecord
  2
0603_R_REF_55000_2
 70
0
 62
7
  6
CONTINUOUS
370
-3
390
F
  0
LAYER
  5
258
100
AcDbSymbolTableRecord
100
AcDbLayerTableRecord
  2
06___PRT_ALL_SURFS
 70
0
 62
7
  6
CONTINUOUS
370
-3
390
F
  0
LAYER
  5
259
100
AcDbSymbolTableRecord
100
AcDbLayerTableRecord
  2
06___PRT_ALL_SURFS_1
 70
0
 62
7
  6
CONTINUOUS
370
-3
390
F
  0
LAYER
  5
25A
100
AcDbSymbolTableRecord
100
AcDbLayerTableRecord
  2
06___PRT_ALL_SURFS_11
 70
0
 62
7
  6
CONTINUOUS
370
-3
390
F
  0
LAYER
  5
25B
100
AcDbSymbolTableRecord
100
AcDbLayerTableRecord
  2
06___PRT_ALL_SURFS_13
 70
0
 62
7
  6
CONTINUOUS
370
-3
390
F
  0
LAYER
  5
25C
100
AcDbSymbolTableRecord
100
AcDbLayerTableRecord
  2
06___PRT_ALL_SURFS_15
 70
0
 62
7
  6
CONTINUOUS
370
-3
390
F
  0
LAYER
  5
25D
100
AcDbSymbolTableRecord
100
AcDbLayerTableRecord
  2
06___PRT_ALL_SURFS_18
 70
0
 62
7
  6
CONTINUOUS
370
-3
390
F
  0
LAYER
  5
25E
100
AcDbSymbolTableRecord
100
AcDbLayerTableRecord
  2
06___PRT_ALL_SURFS_2
 70
0
 62
7
  6
CONTINUOUS
370
-3
390
F
  0
LAYER
  5
25F
100
AcDbSymbolTableRecord
100
AcDbLayerTableRecord
  2
06___PRT_ALL_SURFS_21
 70
0
 62
7
  6
CONTINUOUS
370
-3
390
F
  0
LAYER
  5
260
100
AcDbSymbolTableRecord
100
AcDbLayerTableRecord
  2
06___PRT_ALL_SURFS_3
 70
0
 62
7
  6
CONTINUOUS
370
-3
390
F
  0
LAYER
  5
261
100
AcDbSymbolTableRecord
100
AcDbLayerTableRecord
  2
06___PRT_ALL_SURFS_4
 70
0
 62
7
  6
CONTINUOUS
370
-3
390
F
  0
LAYER
  5
262
100
AcDbSymbolTableRecord
100
AcDbLayerTableRecord
  2
06___PRT_ALL_SURFS_5
 70
0
 62
7
  6
CONTINUOUS
370
-3
390
F
  0
LAYER
  5
263
100
AcDbSymbolTableRecord
100
AcDbLayerTableRecord
  2
06___PRT_ALL_SURFS_8
 70
0
 62
7
  6
CONTINUOUS
370
-3
390
F
  0
LAYER
  5
264
100
AcDbSymbolTableRecord
100
AcDbLayerTableRecord
  2
0805_C_REF_145000
 70
0
 62
7
  6
CONTINUOUS
370
-3
390
F
  0
LAYER
  5
265
100
AcDbSymbolTableRecord
100
AcDbLayerTableRecord
  2
0805_C_REF_145000_1
 70
0
 62
7
  6
CONTINUOUS
370
-3
390
F
  0
LAYER
  5
266
100
AcDbSymbolTableRecord
100
AcDbLayerTableRecord
  2
0805_C_REF_145000_2
 70
0
 62
7
  6
CONTINUOUS
370
-3
390
F
  0
LAYER
  5
267
100
AcDbSymbolTableRecord
100
AcDbLayerTableRecord
  2
0805_C_REF_145000_3
 70
0
 62
7
  6
CONTINUOUS
370
-3
390
F
  0
LAYER
  5
268
100
AcDbSymbolTableRecord
100
AcDbLayerTableRecord
  2
1206_C_REF_180000
 70
0
 62
7
  6
CONTINUOUS
370
-3
390
F
  0
LAYER
  5
269
100
AcDbSymbolTableRecord
100
AcDbLayerTableRecord
  2
1206_C_REF_180000_1
 70
0
 62
7
  6
CONTINUOUS
370
-3
390
F
  0
LAYER
  5
26A
100
AcDbSymbolTableRecord
100
AcDbLayerTableRecord
  2
43001033A0
 70
0
 62
7
  6
CONTINUOUS
370
-3
390
F
  0
LAYER
  5
26B
100
AcDbSymbolTableRecord
100
AcDbLayerTableRecord
  2
43001033B0
 70
0
 62
7
  6
CONTINUOUS
370
-3
390
F
  0
LAYER
  5
26C
100
AcDbSymbolTableRecord
100
AcDbLayerTableRecord
  2
ASSI
 70
0
 62
7
  6
CONTINUOUS
370
-3
390
F
  0
LAYER
  5
26D
100
AcDbSymbolTableRecord
100
AcDbLayerTableRecord
  2
CAP-T-SMD-CASE-A_160000
 70
0
 62
7
  6
CONTINUOUS
370
-3
390
F
  0
LAYER
  5
26E
100
AcDbSymbolTableRecord
100
AcDbLayerTableRecord
  2
CAP-T-SMD-CASE-A_160000_1
 70
0
 62
7
  6
CONTINUOUS
370
-3
390
F
  0
LAYER
  5
26F
100
AcDbSymbolTableRecord
100
AcDbLayerTableRecord
  2
COLOR1
 70
0
 62
7
  6
CONTINUOUS
370
-3
390
F
  0
LAYER
  5
270
100
AcDbSymbolTableRecord
100
AcDbLayerTableRecord
  2
COLOR16
 70
0
 62
7
  6
CONTINUOUS
370
-3
390
F
  0
LAYER
  5
271
100
AcDbSymbolTableRecord
100
AcDbLayerTableRecord
  2
COLOR191
 70
0
 62
7
  6
CONTINUOUS
370
-3
390
F
  0
LAYER
  5
272
100
AcDbSymbolTableRecord
100
AcDbLayerTableRecord
  2
COLOR194
 70
0
 62
7
  6
CONTINUOUS
370
-3
390
F
  0
LAYER
  5
273
100
AcDbSymbolTableRecord
100
AcDbLayerTableRecord
  2
COLOR196
 70
0
 62
7
  6
CONTINUOUS
370
-3
390
F
  0
LAYER
  5
274
100
AcDbSymbolTableRecord
100
AcDbLayerTableRecord
  2
COLOR198
 70
0
 62
7
  6
CONTINUOUS
370
-3
390
F
  0
LAYER
  5
275
100
AcDbSymbolTableRecord
100
AcDbLayerTableRecord
  2
COLOR2
 70
0
 62
7
  6
CONTINUOUS
370
-3
390
F
  0
LAYER
  5
276
100
AcDbSymbolTableRecord
100
AcDbLayerTableRecord
  2
COLOR200
 70
0
 62
7
  6
CONTINUOUS
370
-3
390
F
  0
LAYER
  5
277
100
AcDbSymbolTableRecord
100
AcDbLayerTableRecord
  2
COLOR201
 70
0
 62
7
  6
CONTINUOUS
370
-3
390
F
  0
LAYER
  5
278
100
AcDbSymbolTableRecord
100
AcDbLayerTableRecord
  2
COLOR202
 70
0
 62
7
  6
CONTINUOUS
370
-3
390
F
  0
LAYER
  5
279
100
AcDbSymbolTableRecord
100
AcDbLayerTableRecord
  2
COLOR203
 70
0
 62
7
  6
CONTINUOUS
370
-3
390
F
  0
LAYER
  5
27A
100
AcDbSymbolTableRecord
100
AcDbLayerTableRecord
  2
COLOR205
 70
0
 62
7
  6
CONTINUOUS
370
-3
390
F
  0
LAYER
  5
27B
100
AcDbSymbolTableRecord
100
AcDbLayerTableRecord
  2
COLOR207
 70
0
 62
7
  6
CONTINUOUS
370
-3
390
F
  0
LAYER
  5
27C
100
AcDbSymbolTableRecord
100
AcDbLayerTableRecord
  2
COLOR208
 70
0
 62
7
  6
CONTINUOUS
370
-3
390
F
  0
LAYER
  5
27D
100
AcDbSymbolTableRecord
100
AcDbLayerTableRecord
  2
COLOR209
 70
0
 62
7
  6
CONTINUOUS
370
-3
390
F
  0
LAYER
  5
27E
100
AcDbSymbolTableRecord
100
AcDbLayerTableRecord
  2
COLOR210
 70
0
 62
7
  6
CONTINUOUS
370
-3
390
F
  0
LAYER
  5
27F
100
AcDbSymbolTableRecord
100
AcDbLayerTableRecord
  2
COLOR212
 70
0
 62
7
  6
CONTINUOUS
370
-3
390
F
  0
LAYER
  5
280
100
AcDbSymbolTableRecord
100
AcDbLayerTableRecord
  2
COLOR214
 70
0
 62
7
  6
CONTINUOUS
370
-3
390
F
  0
LAYER
  5
281
100
AcDbSymbolTableRecord
100
AcDbLayerTableRecord
  2
COLOR221
 70
0
 62
7
  6
CONTINUOUS
370
-3
390
F
  0
LAYER
  5
282
100
AcDbSymbolTableRecord
100
AcDbLayerTableRecord
  2
COLOR6
 70
0
 62
7
  6
CONTINUOUS
370
-3
390
F
  0
LAYER
  5
283
100
AcDbSymbolTableRecord
100
AcDbLayerTableRecord
  2
COORDINATE
 70
0
 62
7
  6
CONTINUOUS
370
-3
390
F
  0
LAYER
  5
284
100
AcDbSymbolTableRecord
100
AcDbLayerTableRecord
  2
COPY_PUBLISH
 70
0
 62
7
  6
CONTINUOUS
370
-3
390
F
  0
LAYER
  5
285
100
AcDbSymbolTableRecord
100
AcDbLayerTableRecord
  2
COSMETICI
 70
0
 62
7
  6
CONTINUOUS
370
-3
390
F
  0
LAYER
  5
286
100
AcDbSymbolTableRecord
100
AcDbLayerTableRecord
  2
CR_SWITCH_KMS231GPLFS__142000
 70
0
 62
7
  6
CONTINUOUS
370
-3
390
F
  0
LAYER
  5
287
100
AcDbSymbolTableRecord
100
AcDbLayerTableRecord
  2
CURVE
 70
0
 62
7
  6
CONTINUOUS
370
-3
390
F
  0
LAYER
  5
288
100
AcDbSymbolTableRecord
100
AcDbLayerTableRecord
  2
DATAMATRIX_RESIST_1000
 70
0
 62
7
  6
CONTINUOUS
370
-3
390
F
  0
LAYER
  5
289
100
AcDbSymbolTableRecord
100
AcDbLayerTableRecord
  2
DRAFT
 70
0
 62
7
  6
CONTINUOUS
370
-3
390
F
  0
LAYER
  5
28A
100
AcDbSymbolTableRecord
100
AcDbLayerTableRecord
  2
FIDUCIAL_1_2_MM_RUOTATO_45_1000
 70
0
 62
7
  6
CONTINUOUS
370
-3
390
F
  0
LAYER
  5
28B
100
AcDbSymbolTableRecord
100
AcDbLayerTableRecord
  2
FIDUCIAL_1_2_MM_RUOTATO_45_10_1
 70
0
 62
7
  6
CONTINUOUS
370
-3
390
F
  0
LAYER
  5
28C
100
AcDbSymbolTableRecord
100
AcDbLayerTableRecord
  2
FIDUCIAL_1_2_MM_RUOTATO_45_10_2
 70
0
 62
7
  6
CONTINUOUS
370
-3
390
F
  0
LAYER
  5
28D
100
AcDbSymbolTableRecord
100
AcDbLayerTableRecord
  2
FIDUCIAL_1_2_MM_RUOTATO_45_10_3
 70
0
 62
7
  6
CONTINUOUS
370
-3
390
F
  0
LAYER
  5
28E
100
AcDbSymbolTableRecord
100
AcDbLayerTableRecord
  2
GEOMETRIA_SOLIDA
 70
0
 62
7
  6
CONTINUOUS
370
-3
390
F
  0
LAYER
  5
28F
100
AcDbSymbolTableRecord
100
AcDbLayerTableRecord
  2
GEOMETRIA_SOLIDA_1
 70
0
 62
7
  6
CONTINUOUS
370
-3
390
F
  0
LAYER
  5
290
100
AcDbSymbolTableRecord
100
AcDbLayerTableRecord
  2
GEOMETRIA_SOLIDA_2
 70
0
 62
7
  6
CONTINUOUS
370
-3
390
F
  0
LAYER
  5
291
100
AcDbSymbolTableRecord
100
AcDbLayerTableRecord
  2
GEOMETRIA_SOLIDA_3
 70
0
 62
7
  6
CONTINUOUS
370
-3
390
F
  0
LAYER
  5
292
100
AcDbSymbolTableRecord
100
AcDbLayerTableRecord
  2
GEOMETRIA_SOLIDA_4
 70
0
 62
7
  6
CONTINUOUS
370
-3
390
F
  0
LAYER
  5
293
100
AcDbSymbolTableRecord
100
AcDbLayerTableRecord
  2
GEOMETRIA_SOLIDA_5
 70
0
 62
7
  6
CONTINUOUS
370
-3
390
F
  0
LAYER
  5
294
100
AcDbSymbolTableRecord
100
AcDbLayerTableRecord
  2
GEOMETRIA_SOLIDA_6
 70
0
 62
7
  6
CONTINUOUS
370
-3
390
F
  0
LAYER
  5
295
100
AcDbSymbolTableRecord
100
AcDbLayerTableRecord
  2
GEOMETRIA_SOLIDA_7
 70
0
 62
7
  6
CONTINUOUS
370
-3
390
F
  0
LAYER
  5
296
100
AcDbSymbolTableRecord
100
AcDbLayerTableRecord
  2
GEOMETRIA_SOLIDA_8
 70
0
 62
7
  6
CONTINUOUS
370
-3
390
F
  0
LAYER
  5
297
100
AcDbSymbolTableRecord
100
AcDbLayerTableRecord
  2
IMPORT_IGES
 70
0
 62
7
  6
CONTINUOUS
370
-3
390
F
  0
LAYER
  5
298
100
AcDbSymbolTableRecord
100
AcDbLayerTableRecord
  2
INTF_1
 70
0
 62
7
  6
CONTINUOUS
370
-3
390
F
  0
LAYER
  5
299
100
AcDbSymbolTableRecord
100
AcDbLayerTableRecord
  2
INTF_11
 70
0
 62
7
  6
CONTINUOUS
370
-3
390
F
  0
LAYER
  5
29A
100
AcDbSymbolTableRecord
100
AcDbLayerTableRecord
  2
INTF_6
 70
0
 62
7
  6
CONTINUOUS
370
-3
390
F
  0
LAYER
  5
29B
100
AcDbSymbolTableRecord
100
AcDbLayerTableRecord
  2
LED-SMD-1_0-0_5-0_6_60000
 70
0
 62
7
  6
CONTINUOUS
370
-3
390
F
  0
LAYER
  5
29C
100
AcDbSymbolTableRecord
100
AcDbLayerTableRecord
  2
LQFP48-7_0-7_0-9_0-9_0-1_6-0_5-
 70
0
 62
7
  6
CONTINUOUS
370
-3
390
F
  0
LAYER
  5
29D
100
AcDbSymbolTableRecord
100
AcDbLayerTableRecord
  2
NOTE
 70
0
 62
7
  6
CONTINUOUS
370
-3
390
F
  0
LAYER
  5
29E
100
AcDbSymbolTableRecord
100
AcDbLayerTableRecord
  2
PIANI
 70
0
 62
7
  6
CONTINUOUS
370
-3
390
F
  0
LAYER
  5
29F
100
AcDbSymbolTableRecord
100
AcDbLayerTableRecord
  2
PUNTI
 70
0
 62
7
  6
CONTINUOUS
370
-3
390
F
  0
LAYER
  5
2A0
100
AcDbSymbolTableRecord
100
AcDbLayerTableRecord
  2
RACCORDO
 70
0
 62
7
  6
CONTINUOUS
370
-3
390
F
  0
LAYER
  5
2A1
100
AcDbSymbolTableRecord
100
AcDbLayerTableRecord
  2
RES-A-SMD-CONV-8-0402-0_55-A_55
 70
0
 62
7
  6
CONTINUOUS
370
-3
390
F
  0
LAYER
  5
2A2
100
AcDbSymbolTableRecord
100
AcDbLayerTableRecord
  2
RES-A-SMD-CONV-8-0402-0_55-A__1
 70
0
 62
7
  6
CONTINUOUS
370
-3
390
F
  0
LAYER
  5
2A3
100
AcDbSymbolTableRecord
100
AcDbLayerTableRecord
  2
SC70-5_H1_1_REF_110000
 70
0
 62
7
  6
CONTINUOUS
370
-3
390
F
  0
LAYER
  5
2A4
100
AcDbSymbolTableRecord
100
AcDbLayerTableRecord
  2
SC70-6_REF_H1_1_110000
 70
0
 62
7
  6
CONTINUOUS
370
-3
390
F
  0
LAYER
  5
2A5
100
AcDbSymbolTableRecord
100
AcDbLayerTableRecord
  2
SIMBOLI
 70
0
 62
7
  6
CONTINUOUS
370
-3
390
F
  0
LAYER
  5
2A6
100
AcDbSymbolTableRecord
100
AcDbLayerTableRecord
  2
SMUSSO
 70
0
 62
7
  6
CONTINUOUS
370
-3
390
F
  0
LAYER
  5
2A7
100
AcDbSymbolTableRecord
100
AcDbLayerTableRecord
  2
SNAPLINE
 70
0
 62
7
  6
CONTINUOUS
370
-3
390
F
  0
LAYER
  5
2A8
100
AcDbSymbolTableRecord
100
AcDbLayerTableRecord
  2
SO8-5_0-6_2-1_75-REF_175000
 70
0
 62
7
  6
CONTINUOUS
370
-3
390
F
  0
LAYER
  5
2A9
100
AcDbSymbolTableRecord
100
AcDbLayerTableRecord
  2
SO8-5_0-6_2-1_75-REF_175000_1
 70
0
 62
7
  6
CONTINUOUS
370
-3
390
F
  0
LAYER
  5
2AA
100
AcDbSymbolTableRecord
100
AcDbLayerTableRecord
  2
SOD323-REF_110000
 70
0
 62
7
  6
CONTINUOUS
370
-3
390
F
  0
LAYER
  5
2AB
100
AcDbSymbolTableRecord
100
AcDbLayerTableRecord
  2
SOD323-REF_110000_1
 70
0
 62
7
  6
CONTINUOUS
370
-3
390
F
  0
LAYER
  5
2AC
100
AcDbSymbolTableRecord
100
AcDbLayerTableRecord
  2
SOT23-5_REF_H1_5_150000
 70
0
 62
7
  6
CONTINUOUS
370
-3
390
F
  0
LAYER
  5
2AD
100
AcDbSymbolTableRecord
100
AcDbLayerTableRecord
  2
SOT23-5_REF_H1_5_150000_1
 70
0
 62
7
  6
CONTINUOUS
370
-3
390
F
  0
LAYER
  5
2AE
100
AcDbSymbolTableRecord
100
AcDbLayerTableRecord
  2
SOT23-5_REF_H1_5_150000_2
 70
0
 62
7
  6
CONTINUOUS
370
-3
390
F
  0
LAYER
  5
2AF
100
AcDbSymbolTableRecord
100
AcDbLayerTableRecord
  2
SUPERFICI
 70
0
 62
7
  6
CONTINUOUS
370
-3
390
F
  0
LAYER
  5
2B0
100
AcDbSymbolTableRecord
100
AcDbLayerTableRecord
  2
SYMBOL_DATA_10000
 70
0
 62
7
  6
CONTINUOUS
370
-3
390
F
  0
LAYER
  5
2B1
100
AcDbSymbolTableRecord
100
AcDbLayerTableRecord
  2
SYMBOL_NO-PB_10000
 70
0
 62
7
  6
CONTINUOUS
370
-3
390
F
  0
LAYER
  5
2B2
100
AcDbSymbolTableRecord
100
AcDbLayerTableRecord
  2
TP-RND-1_0_3500
 70
0
 62
7
  6
CONTINUOUS
370
-3
390
F
  0
LAYER
  5
2B3
100
AcDbSymbolTableRecord
100
AcDbLayerTableRecord
  2
TP-RND-1_0_3500_1
 70
0
 62
7
  6
CONTINUOUS
370
-3
390
F
  0
LAYER
  5
2B4
100
AcDbSymbolTableRecord
100
AcDbLayerTableRecord
  2
TP-RND-1_0_3500_2
 70
0
 62
7
  6
CONTINUOUS
370
-3
390
F
  0
LAYER
  5
2B5
100
AcDbSymbolTableRecord
100
AcDbLayerTableRecord
  2
TP-RND-1_0_3500_3
 70
0
 62
7
  6
CONTINUOUS
370
-3
390
F
  0
LAYER
  5
2B6
100
AcDbSymbolTableRecord
100
AcDbLayerTableRecord
  2
TP-RND-1_0_3500_4
 70
0
 62
7
  6
CONTINUOUS
370
-3
390
F
  0
LAYER
  5
2B7
100
AcDbSymbolTableRecord
100
AcDbLayerTableRecord
  2
TP-RND-1_0_3500_5
 70
0
 62
7
  6
CONTINUOUS
370
-3
390
F
  0
LAYER
  5
2B8
100
AcDbSymbolTableRecord
100
AcDbLayerTableRecord
  2
TP-RND-1_0_3500_6
 70
0
 62
7
  6
CONTINUOUS
370
-3
390
F
  0
LAYER
  5
2B9
100
AcDbSymbolTableRecord
100
AcDbLayerTableRecord
  2
TP_PROGRAMMAZIONE_SWD_1000
 70
0
 62
7
  6
CONTINUOUS
370
-3
390
F
  0
LAYER
  5
2BA
100
AcDbSymbolTableRecord
100
AcDbLayerTableRecord
  2
TRASH
 70
0
 62
7
  6
CONTINUOUS
370
-3
390
F
  0
LAYER
  5
2BB
100
AcDbSymbolTableRecord
100
AcDbLayerTableRecord
  2
VG_CN-SPRING-SMT-P2_5-R1-P3-TET
 70
0
 62
7
  6
CONTINUOUS
370
-3
390
F
  0
LAYER
  5
2BC
100
AcDbSymbolTableRecord
100
AcDbLayerTableRecord
  2
VG_CN-SPRING-SMT-P2_5-R1-P3-T_1
 70
0
 62
7
  6
CONTINUOUS
370
-3
390
F
  0
LAYER
  5
2BD
100
AcDbSymbolTableRecord
100
AcDbLayerTableRecord
  2
VG_CN-SPRING-SMT-P2_5-R1-P5-TET
 70
0
 62
7
  6
CONTINUOUS
370
-3
390
F
  0
LAYER
  5
2BE
100
AcDbSymbolTableRecord
100
AcDbLayerTableRecord
  2
VG_LED-SMT-1_6-0_75-1_0-1_10000
 70
0
 62
7
  6
CONTINUOUS
370
-3
390
F
  0
LAYER
  5
2BF
100
AcDbSymbolTableRecord
100
AcDbLayerTableRecord
  2
VG_LED-SMT-1_6-0_75-1_0-1_100_1
 70
0
 62
7
  6
CONTINUOUS
370
-3
390
F
  0
LAYER
  5
2C0
100
AcDbSymbolTableRecord
100
AcDbLayerTableRecord
  2
VG_LED-SMT-1_6-0_75-1_0-1_100_2
 70
0
 62
7
  6
CONTINUOUS
370
-3
390
F
  0
LAYER
  5
2C1
100
AcDbSymbolTableRecord
100
AcDbLayerTableRecord
  2
VG_LED-SMT-1_6-0_75-1_0-1_100_3
 70
0
 62
7
  6
CONTINUOUS
370
-3
390
F
  0
LAYER
  5
2C2
100
AcDbSymbolTableRecord
100
AcDbLayerTableRecord
  2
VG_LED-SMT-1_6-0_75-1_0-1_100_4
 70
0
 62
7
  6
CONTINUOUS
370
-3
390
F
  0
LAYER
  5
2C3
100
AcDbSymbolTableRecord
100
AcDbLayerTableRecord
  2
VG_LED-SMT-1_6-0_75-1_0-1_100_5
 70
0
 62
7
  6
CONTINUOUS
370
-3
390
F
  0
LAYER
  5
2C4
100
AcDbSymbolTableRecord
100
AcDbLayerTableRecord
  2
VG_LED-SMT-1_6-0_75-1_0-1_100_6
 70
0
 62
7
  6
CONTINUOUS
370
-3
390
F
  0
LAYER
  5
2C5
100
AcDbSymbolTableRecord
100
AcDbLayerTableRecord
  2
VG_LED-SMT-1_6-0_75-1_0-1_100_7
 70
0
 62
7
  6
CONTINUOUS
370
-3
390
F
  0
LAYER
  5
2C6
100
AcDbSymbolTableRecord
100
AcDbLayerTableRecord
  2
VG_LED-SMT-1_6-0_75-1_0-1_100_8
 70
0
 62
7
  6
CONTINUOUS
370
-3
390
F
  0
LAYER
  5
2C7
100
AcDbSymbolTableRecord
100
AcDbLayerTableRecord
  2
VG_LED-SMT-1_6-0_75-1_0-1_100_9
 70
0
 62
7
  6
CONTINUOUS
370
-3
390
F
  0
LAYER
  5
2C8
100
AcDbSymbolTableRecord
100
AcDbLayerTableRecord
  2
VG_LED-SMT-1_6-0_75-1_0-1_10_10
 70
0
 62
7
  6
CONTINUOUS
370
-3
390
F
  0
LAYER
  5
2C9
100
AcDbSymbolTableRecord
100
AcDbLayerTableRecord
  2
VG_LED-SMT-1_6-0_75-1_0-1_10_11
 70
0
 62
7
  6
CONTINUOUS
370
-3
390
F
  0
LAYER
  5
2CA
100
AcDbSymbolTableRecord
100
AcDbLayerTableRecord
  2
VG_LED-SMT-1_6-0_75-1_0-1_10_12
 70
0
 62
7
  6
CONTINUOUS
370
-3
390
F
  0
LAYER
  5
2CB
100
AcDbSymbolTableRecord
100
AcDbLayerTableRecord
  2
VG_LED-SMT-1_6-0_75-1_0-1_10_13
 70
0
 62
7
  6
CONTINUOUS
370
-3
390
F
  0
LAYER
  5
2CC
100
AcDbSymbolTableRecord
100
AcDbLayerTableRecord
  2
VG_LED-SMT-1_6-0_75-1_0-1_10_14
 70
0
 62
7
  6
CONTINUOUS
370
-3
390
F
  0
LAYER
  5
2CD
100
AcDbSymbolTableRecord
100
AcDbLayerTableRecord
  2
VG_LED-SMT-1_6-0_75-1_0-1_10_15
 70
0
 62
7
  6
CONTINUOUS
370
-3
390
F
  0
LAYER
  5
2CE
100
AcDbSymbolTableRecord
100
AcDbLayerTableRecord
  2
VG_LED-SMT-1_6-0_75-1_0-1_10_16
 70
0
 62
7
  6
CONTINUOUS
370
-3
390
F
  0
LAYER
  5
2CF
100
AcDbSymbolTableRecord
100
AcDbLayerTableRecord
  2
VG_LED-SMT-1_6-0_75-1_0-1_10_17
 70
0
 62
7
  6
CONTINUOUS
370
-3
390
F
  0
LAYER
  5
2D0
100
AcDbSymbolTableRecord
100
AcDbLayerTableRecord
  2
VG_LED-SMT-1_6-0_75-1_0-1_10_18
 70
0
 62
7
  6
CONTINUOUS
370
-3
390
F
  0
LAYER
  5
2D1
100
AcDbSymbolTableRecord
100
AcDbLayerTableRecord
  2
VG_LED-SMT-1_6-0_75-1_0-1_10_19
 70
0
 62
7
  6
CONTINUOUS
370
-3
390
F
  0
LAYER
  5
2D2
100
AcDbSymbolTableRecord
100
AcDbLayerTableRecord
  2
VG_LED-SMT-1_6-0_75-1_0-1_10_20
 70
0
 62
7
  6
CONTINUOUS
370
-3
390
F
  0
LAYER
  5
2D3
100
AcDbSymbolTableRecord
100
AcDbLayerTableRecord
  2
VG_LED-SMT-1_6-0_75-1_0-1_10_21
 70
0
 62
7
  6
CONTINUOUS
370
-3
390
F
  0
LAYER
  5
2D4
100
AcDbSymbolTableRecord
100
AcDbLayerTableRecord
  2
VG_LED-SMT-1_6-0_75-1_0-1_10_22
 70
0
 62
7
  6
CONTINUOUS
370
-3
390
F
  0
LAYER
  5
2D5
100
AcDbSymbolTableRecord
100
AcDbLayerTableRecord
  2
VG_LED-SMT-1_6-0_75-1_0-1_10_23
 70
0
 62
7
  6
CONTINUOUS
370
-3
390
F
  0
LAYER
  5
2D6
100
AcDbSymbolTableRecord
100
AcDbLayerTableRecord
  2
VG_LED-SMT-1_6-0_75-1_0-1_10_24
 70
0
 62
7
  6
CONTINUOUS
370
-3
390
F
  0
LAYER
  5
2D7
100
AcDbSymbolTableRecord
100
AcDbLayerTableRecord
  2
VG_LED-SMT-1_6-0_75-1_0-1_10_25
 70
0
 62
7
  6
CONTINUOUS
370
-3
390
F
  0
LAYER
  5
2D8
100
AcDbSymbolTableRecord
100
AcDbLayerTableRecord
  2
VG_LED-SMT-1_6-0_75-1_0-1_10_26
 70
0
 62
7
  6
CONTINUOUS
370
-3
390
F
  0
LAYER
  5
2D9
100
AcDbSymbolTableRecord
100
AcDbLayerTableRecord
  2
VG_LED-SMT-1_6-0_75-1_0-1_10_27
 70
0
 62
7
  6
CONTINUOUS
370
-3
390
F
  0
LAYER
  5
2DA
100
AcDbSymbolTableRecord
100
AcDbLayerTableRecord
  2
VG_LED-SMT-1_6-0_75-1_0-1_10_28
 70
0
 62
7
  6
CONTINUOUS
370
-3
390
F
  0
LAYER
  5
2DB
100
AcDbSymbolTableRecord
100
AcDbLayerTableRecord
  2
VG_LED-SMT-1_6-0_75-1_0-1_10_29
 70
0
 62
7
  6
CONTINUOUS
370
-3
390
F
  0
LAYER
  5
2DC
100
AcDbSymbolTableRecord
100
AcDbLayerTableRecord
  2
VG_LED-SMT-1_6-0_75-1_0-1_10_30
 70
0
 62
7
  6
CONTINUOUS
370
-3
390
F
  0
LAYER
  5
2DD
100
AcDbSymbolTableRecord
100
AcDbLayerTableRecord
  2
VG_LED-SMT-1_6-0_75-1_0-1_10_31
 70
0
 62
7
  6
CONTINUOUS
370
-3
390
F
  0
LAYER
  5
2DE
100
AcDbSymbolTableRecord
100
AcDbLayerTableRecord
  2
VG_LED-SMT-1_6-0_75-1_0-1_10_32
 70
0
 62
7
  6
CONTINUOUS
370
-3
390
F
  0
LAYER
  5
2DF
100
AcDbSymbolTableRecord
100
AcDbLayerTableRecord
  2
VG_LED-SMT-1_6-0_75-1_0-1_10_33
 70
0
 62
7
  6
CONTINUOUS
370
-3
390
F
  0
LAYER
  5
2E0
100
AcDbSymbolTableRecord
100
AcDbLayerTableRecord
  2
VG_LED-SMT-1_6-0_75-1_0-1_10_34
 70
0
 62
7
  6
CONTINUOUS
370
-3
390
F
  0
LAYER
  5
2E1
100
AcDbSymbolTableRecord
100
AcDbLayerTableRecord
  2
VG_LED-SMT-1_6-0_75-1_0-1_10_35
 70
0
 62
7
  6
CONTINUOUS
370
-3
390
F
  0
LAYER
  5
2E2
100
AcDbSymbolTableRecord
100
AcDbLayerTableRecord
  2
VG_LED-SMT-1_6-0_75-1_0-1_10_36
 70
0
 62
7
  6
CONTINUOUS
370
-3
390
F
  0
LAYER
  5
2E3
100
AcDbSymbolTableRecord
100
AcDbLayerTableRecord
  2
VG_LED-SMT-1_6-0_75-1_0-1_10_37
 70
0
 62
7
  6
CONTINUOUS
370
-3
390
F
  0
LAYER
  5
2E4
100
AcDbSymbolTableRecord
100
AcDbLayerTableRecord
  2
VG_LED-SMT-1_6-0_75-1_0-1_10_38
 70
0
 62
7
  6
CONTINUOUS
370
-3
390
F
  0
LAYER
  5
2E5
100
AcDbSymbolTableRecord
100
AcDbLayerTableRecord
  2
VG_LED-SMT-1_6-0_75-1_0-1_10_39
 70
0
 62
7
  6
CONTINUOUS
370
-3
390
F
  0
LAYER
  5
2E6
100
AcDbSymbolTableRecord
100
AcDbLayerTableRecord
  2
VG_LED-SMT-1_6-0_75-1_0-1_10_40
 70
0
 62
7
  6
CONTINUOUS
370
-3
390
F
  0
LAYER
  5
2E7
100
AcDbSymbolTableRecord
100
AcDbLayerTableRecord
  2
VG_LED-SMT-1_6-0_75-1_0-1_10_41
 70
0
 62
7
  6
CONTINUOUS
370
-3
390
F
  0
LAYER
  5
2E8
100
AcDbSymbolTableRecord
100
AcDbLayerTableRecord
  2
VG_LED-SMT-1_6-0_75-1_0-1_10_42
 70
0
 62
7
  6
CONTINUOUS
370
-3
390
F
  0
LAYER
  5
2E9
100
AcDbSymbolTableRecord
100
AcDbLayerTableRecord
  2
VG_LED-SMT-1_6-0_75-1_0-1_10_43
 70
0
 62
7
  6
CONTINUOUS
370
-3
390
F
  0
LAYER
  5
2EA
100
AcDbSymbolTableRecord
100
AcDbLayerTableRecord
  2
VG_LED-SMT-1_6-0_75-1_0-1_10_44
 70
0
 62
7
  6
CONTINUOUS
370
-3
390
F
  0
LAYER
  5
2EB
100
AcDbSymbolTableRecord
100
AcDbLayerTableRecord
  2
VG_LED-SMT-1_6-0_75-1_0-1_10_45
 70
0
 62
7
  6
CONTINUOUS
370
-3
390
F
  0
LAYER
  5
2EC
100
AcDbSymbolTableRecord
100
AcDbLayerTableRecord
  2
VG_LED-SMT-1_6-0_75-1_0-1_10_46
 70
0
 62
7
  6
CONTINUOUS
370
-3
390
F
  0
LAYER
  5
2ED
100
AcDbSymbolTableRecord
100
AcDbLayerTableRecord
  2
VG_LED-SMT-1_6-0_75-1_0-1_10_47
 70
0
 62
7
  6
CONTINUOUS
370
-3
390
F
  0
LAYER
  5
2EE
100
AcDbSymbolTableRecord
100
AcDbLayerTableRecord
  2
VG_LED-SMT-1_6-0_75-1_0-1_10_48
 70
0
 62
7
  6
CONTINUOUS
370
-3
390
F
  0
LAYER
  5
2EF
100
AcDbSymbolTableRecord
100
AcDbLayerTableRecord
  2
VG_LED-SMT-1_6-0_75-1_0-1_10_49
 70
0
 62
7
  6
CONTINUOUS
370
-3
390
F
  0
LAYER
  5
2F0
100
AcDbSymbolTableRecord
100
AcDbLayerTableRecord
  2
VG_LED-SMT-1_6-0_75-1_0-1_10_50
 70
0
 62
7
  6
CONTINUOUS
370
-3
390
F
  0
LAYER
  5
2F1
100
AcDbSymbolTableRecord
100
AcDbLayerTableRecord
  2
VG_LED-SMT-1_6-0_75-1_0-1_10_51
 70
0
 62
7
  6
CONTINUOUS
370
-3
390
F
  0
LAYER
  5
2F2
100
AcDbSymbolTableRecord
100
AcDbLayerTableRecord
  2
VG_LED-SMT-1_6-0_75-1_0-1_10_52
 70
0
 62
7
  6
CONTINUOUS
370
-3
390
F
  0
LAYER
  5
2F3
100
AcDbSymbolTableRecord
100
AcDbLayerTableRecord
  2
VG_LED-SMT-1_6-0_75-1_0-1_10_53
 70
0
 62
7
  6
CONTINUOUS
370
-3
390
F
  0
LAYER
  5
2F4
100
AcDbSymbolTableRecord
100
AcDbLayerTableRecord
  2
VG_LED-SMT-1_6-0_75-1_0-1_10_54
 70
0
 62
7
  6
CONTINUOUS
370
-3
390
F
  0
LAYER
  5
2F5
100
AcDbSymbolTableRecord
100
AcDbLayerTableRecord
  2
VG_LED-SMT-1_6-0_75-1_0-1_10_55
 70
0
 62
7
  6
CONTINUOUS
370
-3
390
F
  0
LAYER
  5
2F6
100
AcDbSymbolTableRecord
100
AcDbLayerTableRecord
  2
VG_LED-SMT-1_6-0_75-1_0-1_10_56
 70
0
 62
7
  6
CONTINUOUS
370
-3
390
F
  0
LAYER
  5
2F7
100
AcDbSymbolTableRecord
100
AcDbLayerTableRecord
  2
VG_LED-SMT-1_6-0_75-1_0-1_10_57
 70
0
 62
7
  6
CONTINUOUS
370
-3
390
F
  0
LAYER
  5
2F8
100
AcDbSymbolTableRecord
100
AcDbLayerTableRecord
  2
VG_LED-SMT-1_6-0_75-1_0-1_10_58
 70
0
 62
7
  6
CONTINUOUS
370
-3
390
F
  0
LAYER
  5
2F9
100
AcDbSymbolTableRecord
100
AcDbLayerTableRecord
  2
VG_LED-SMT-1_6-0_75-1_0-1_10_59
 70
0
 62
7
  6
CONTINUOUS
370
-3
390
F
  0
LAYER
  5
2FA
100
AcDbSymbolTableRecord
100
AcDbLayerTableRecord
  2
VG_LED-SMT-1_6-0_75-1_0-1_10_60
 70
0
 62
7
  6
CONTINUOUS
370
-3
390
F
  0
LAYER
  5
2FB
100
AcDbSymbolTableRecord
100
AcDbLayerTableRecord
  2
VG_LED-SMT-1_6-0_75-1_0-1_10_61
 70
0
 62
7
  6
CONTINUOUS
370
-3
390
F
  0
LAYER
  5
2FC
100
AcDbSymbolTableRecord
100
AcDbLayerTableRecord
  2
VG_LED-SMT-1_6-0_75-1_0-1_10_62
 70
0
 62
7
  6
CONTINUOUS
370
-3
390
F
  0
LAYER
  5
2FD
100
AcDbSymbolTableRecord
100
AcDbLayerTableRecord
  2
VG_LED-SMT-1_6-0_75-1_0-1_10_63
 70
0
 62
7
  6
CONTINUOUS
370
-3
390
F
  0
LAYER
  5
2FE
100
AcDbSymbolTableRecord
100
AcDbLayerTableRecord
  2
VG_LED-SMT-1_6-0_75-1_0-1_10_64
 70
0
 62
7
  6
CONTINUOUS
370
-3
390
F
  0
LAYER
  5
2FF
100
AcDbSymbolTableRecord
100
AcDbLayerTableRecord
  2
VG_LED-SMT-1_6-0_75-1_0-1_10_65
 70
0
 62
7
  6
CONTINUOUS
370
-3
390
F
  0
LAYER
  5
300
100
AcDbSymbolTableRecord
100
AcDbLayerTableRecord
  2
VG_LED-SMT-1_6-0_75-1_0-1_10_66
 70
0
 62
7
  6
CONTINUOUS
370
-3
390
F
  0
LAYER
  5
301
100
AcDbSymbolTableRecord
100
AcDbLayerTableRecord
  2
VG_LED-SMT-1_6-0_75-1_0-1_10_67
 70
0
 62
7
  6
CONTINUOUS
370
-3
390
F
  0
LAYER
  5
302
100
AcDbSymbolTableRecord
100
AcDbLayerTableRecord
  2
VG_LED-SMT-1_6-0_75-1_0-1_10_68
 70
0
 62
7
  6
CONTINUOUS
370
-3
390
F
  0
LAYER
  5
303
100
AcDbSymbolTableRecord
100
AcDbLayerTableRecord
  2
VG_LED-SMT-1_6-0_75-1_0-1_10_69
 70
0
 62
7
  6
CONTINUOUS
370
-3
390
F
  0
LAYER
  5
304
100
AcDbSymbolTableRecord
100
AcDbLayerTableRecord
  2
VG_LED-SMT-1_6-0_75-1_0-1_10_70
 70
0
 62
7
  6
CONTINUOUS
370
-3
390
F
  0
LAYER
  5
305
100
AcDbSymbolTableRecord
100
AcDbLayerTableRecord
  2
VG_LED-SMT-1_6-0_75-1_0-1_10_71
 70
0
 62
7
  6
CONTINUOUS
370
-3
390
F
  0
LAYER
  5
306
100
AcDbSymbolTableRecord
100
AcDbLayerTableRecord
  2
VG_LED-SMT-1_6-0_75-1_0-1_10_72
 70
0
 62
7
  6
CONTINUOUS
370
-3
390
F
  0
LAYER
  5
307
100
AcDbSymbolTableRecord
100
AcDbLayerTableRecord
  2
VG_LED-SMT-1_6-0_75-1_0-1_10_73
 70
0
 62
7
  6
CONTINUOUS
370
-3
390
F
  0
LAYER
  5
308
100
AcDbSymbolTableRecord
100
AcDbLayerTableRecord
  2
VG_LED-SMT-1_6-0_75-1_0-1_10_74
 70
0
 62
7
  6
CONTINUOUS
370
-3
390
F
  0
LAYER
  5
309
100
AcDbSymbolTableRecord
100
AcDbLayerTableRecord
  2
VG_LED-SMT-1_6-0_75-1_0-1_10_75
 70
0
 62
7
  6
CONTINUOUS
370
-3
390
F
  0
LAYER
  5
30A
100
AcDbSymbolTableRecord
100
AcDbLayerTableRecord
  2
VG_LED-SMT-1_6-0_75-1_0-1_10_76
 70
0
 62
7
  6
CONTINUOUS
370
-3
390
F
  0
LAYER
  5
30B
100
AcDbSymbolTableRecord
100
AcDbLayerTableRecord
  2
VG_LED-SMT-1_6-0_75-1_0-1_10_77
 70
0
 62
7
  6
CONTINUOUS
370
-3
390
F
  0
LAYER
  5
30C
100
AcDbSymbolTableRecord
100
AcDbLayerTableRecord
  2
VG_LED-SMT-1_6-0_75-1_0-1_10_78
 70
0
 62
7
  6
CONTINUOUS
370
-3
390
F
  0
LAYER
  5
30D
100
AcDbSymbolTableRecord
100
AcDbLayerTableRecord
  2
VG_LED-SMT-1_6-0_75-1_0-1_10_79
 70
0
 62
7
  6
CONTINUOUS
370
-3
390
F
  0
LAYER
  5
30E
100
AcDbSymbolTableRecord
100
AcDbLayerTableRecord
  2
VG_LED-SMT-1_6-0_75-1_0-1_10_80
 70
0
 62
7
  6
CONTINUOUS
370
-3
390
F
  0
LAYER
  5
30F
100
AcDbSymbolTableRecord
100
AcDbLayerTableRecord
  2
VG_LED-SMT-1_6-0_75-1_0-1_10_81
 70
0
 62
7
  6
CONTINUOUS
370
-3
390
F
  0
LAYER
  5
310
100
AcDbSymbolTableRecord
100
AcDbLayerTableRecord
  2
VG_LED-SMT-1_6-0_75-1_0-1_10_82
 70
0
 62
7
  6
CONTINUOUS
370
-3
390
F
  0
LAYER
  5
311
100
AcDbSymbolTableRecord
100
AcDbLayerTableRecord
  2
VG_LED-SMT-1_6-0_75-1_0-1_10_83
 70
0
 62
7
  6
CONTINUOUS
370
-3
390
F
  0
LAYER
  5
312
100
AcDbSymbolTableRecord
100
AcDbLayerTableRecord
  2
VG_LED-SMT-1_6-0_75-1_0-1_10_84
 70
0
 62
7
  6
CONTINUOUS
370
-3
390
F
  0
LAYER
  5
313
100
AcDbSymbolTableRecord
100
AcDbLayerTableRecord
  2
VG_LED-SMT-1_6-0_75-1_0-1_10_85
 70
0
 62
7
  6
CONTINUOUS
370
-3
390
F
  0
LAYER
  5
314
100
AcDbSymbolTableRecord
100
AcDbLayerTableRecord
  2
VG_LED-SMT-1_6-0_75-1_0-1_10_86
 70
0
 62
7
  6
CONTINUOUS
370
-3
390
F
  0
LAYER
  5
315
100
AcDbSymbolTableRecord
100
AcDbLayerTableRecord
  2
VG_LED-SMT-1_6-0_75-1_0-1_10_87
 70
0
 62
7
  6
CONTINUOUS
370
-3
390
F
  0
LAYER
  5
316
100
AcDbSymbolTableRecord
100
AcDbLayerTableRecord
  2
VG_LED-SMT-1_6-0_75-1_0-1_10_88
 70
0
 62
7
  6
CONTINUOUS
370
-3
390
F
  0
LAYER
  5
317
100
AcDbSymbolTableRecord
100
AcDbLayerTableRecord
  2
VG_LED-SMT-1_6-0_75-1_0-1_10_89
 70
0
 62
7
  6
CONTINUOUS
370
-3
390
F
  0
LAYER
  5
318
100
AcDbSymbolTableRecord
100
AcDbLayerTableRecord
  2
VG_LED-SMT-1_6-0_75-1_0-1_10_90
 70
0
 62
7
  6
CONTINUOUS
370
-3
390
F
  0
LAYER
  5
319
100
AcDbSymbolTableRecord
100
AcDbLayerTableRecord
  2
VG_LED-SMT-1_6-0_75-1_0-1_10_91
 70
0
 62
7
  6
CONTINUOUS
370
-3
390
F
  0
LAYER
  5
31A
100
AcDbSymbolTableRecord
100
AcDbLayerTableRecord
  2
VG_LED-SMT-1_6-0_75-1_0-1_10_92
 70
0
 62
7
  6
CONTINUOUS
370
-3
390
F
  0
LAYER
  5
31B
100
AcDbSymbolTableRecord
100
AcDbLayerTableRecord
  2
VG_LED-SMT-1_6-0_75-1_0-1_10_93
 70
0
 62
7
  6
CONTINUOUS
370
-3
390
F
  0
LAYER
  5
31C
100
AcDbSymbolTableRecord
100
AcDbLayerTableRecord
  2
VG_PB-6-3_0-2_7-1_4-SMT_140000
 70
0
 62
7
  6
CONTINUOUS
370
-3
390
F
  0
LAYER
  5
31D
100
AcDbSymbolTableRecord
100
AcDbLayerTableRecord
  2
VG_PB-6-3_0-2_7-1_4-SMT_14000_1
 70
0
 62
7
  6
CONTINUOUS
370
-3
390
F
  0
LAYER
  5
31E
100
AcDbSymbolTableRecord
100
AcDbLayerTableRecord
  2
VG_PB-6-3_0-2_7-1_4-SMT_14000_2
 70
0
 62
7
  6
CONTINUOUS
370
-3
390
F
  0
LAYER
  5
31F
100
AcDbSymbolTableRecord
100
AcDbLayerTableRecord
  2
VG_PB-6-3_0-2_7-1_4-SMT_14000_3
 70
0
 62
7
  6
CONTINUOUS
370
-3
390
F
  0
LAYER
  5
320
100
AcDbSymbolTableRecord
100
AcDbLayerTableRecord
  2
VG_QFN40-5_0-5_0-5_0-5_0-0_75-0
 70
0
 62
7
  6
CONTINUOUS
370
-3
390
F
  0
LAYER
  5
321
100
AcDbSymbolTableRecord
100
AcDbLayerTableRecord
  2
VG_SENSOR_VL53L0X_REF_110000
 70
0
 62
7
  6
CONTINUOUS
370
-3
390
F
  0
LAYER
  5
322
100
AcDbSymbolTableRecord
100
AcDbLayerTableRecord
  2
VG_SOD882_50000
 70
0
 62
7
  6
CONTINUOUS
370
-3
390
F
  0
LAYER
  5
323
100
AcDbSymbolTableRecord
100
AcDbLayerTableRecord
  2
VG_SOD882_50000_1
 70
0
 62
7
  6
CONTINUOUS
370
-3
390
F
  0
LAYER
  5
324
100
AcDbSymbolTableRecord
100
AcDbLayerTableRecord
  2
VG_SOD882_50000_2
 70
0
 62
7
  6
CONTINUOUS
370
-3
390
F
  0
LAYER
  5
325
100
AcDbSymbolTableRecord
100
AcDbLayerTableRecord
  2
VG_SOD882_50000_3
 70
0
 62
7
  6
CONTINUOUS
370
-3
390
F
  0
LAYER
  5
326
100
AcDbSymbolTableRecord
100
AcDbLayerTableRecord
  2
VG_SOD882_50000_4
 70
0
 62
7
  6
CONTINUOUS
370
-3
390
F
  0
LAYER
  5
327
100
AcDbSymbolTableRecord
100
AcDbLayerTableRecord
  2
VG_SOD882_50000_5
 70
0
 62
7
  6
CONTINUOUS
370
-3
390
F
  0
LAYER
  5
328
100
AcDbSymbolTableRecord
100
AcDbLayerTableRecord
  2
VG_SOD882_50000_6
 70
0
 62
7
  6
CONTINUOUS
370
-3
390
F
  0
LAYER
  5
329
100
AcDbSymbolTableRecord
100
AcDbLayerTableRecord
  2
VG_SOD882_50000_7
 70
0
 62
7
  6
CONTINUOUS
370
-3
390
F
  0
LAYER
  5
32A
100
AcDbSymbolTableRecord
100
AcDbLayerTableRecord
  2
VG_SOT23_H1_1_REF_110000
 70
0
 62
7
  6
CONTINUOUS
370
-3
390
F
  0
LAYER
  5
32B
100
AcDbSymbolTableRecord
100
AcDbLayerTableRecord
  2
X-SMD-3PIN-3_2-2_5_70000
 70
0
 62
7
  6
CONTINUOUS
370
-3
390
F
  0
LAYER
  5
32C
100
AcDbSymbolTableRecord
100
AcDbLayerTableRecord
  2
___SHELL
 70
0
 62
7
  6
CONTINUOUS
370
-3
390
F
  0
ENDTAB
  0
TABLE
  2
STYLE
  5
3
100
AcDbSymbolTable
 70
1
  0
STYLE
  5
11
100
AcDbSymbolTableRecord
100
AcDbTextStyleTableRecord
  2
STANDARD
 70
0
 40
0.0
 41
0.8
 50
0.0
 71
0
 42
0.2
  3
txt
  4

  0
STYLE
  5
32D
100
AcDbSymbolTableRecord
100
AcDbTextStyleTableRecord
  2
TEXTSTYLE_1
 70
0
 40
0.0
 41
0.8
 50
0.0
 71
0
 42
0.2
  3
gdt
  4

  0
ENDTAB
  0
TABLE
  2
VIEW
  5
6
100
AcDbSymbolTable
 70
0
  0
ENDTAB
  0
TABLE
  2
UCS
  5
7
100
AcDbSymbolTable
 70
0
  0
ENDTAB
  0
TABLE
  2
APPID
  5
9
100
AcDbSymbolTable
 70
1
  0
APPID
  5
32E
100
AcDbSymbolTableRecord
100
AcDbRegAppTableRecord
  2
ACAD
 70
0
  0
ENDTAB
  0
TABLE
  2
BLOCK_RECORD
  5
1
100
AcDbSymbolTable
 70
0
  0
BLOCK_RECORD
  5
32F
100
AcDbSymbolTableRecord
100
AcDbBlockTableRecord
  2
*Model_Space
  0
BLOCK_RECORD
  5
330
100
AcDbSymbolTableRecord
100
AcDbBlockTableRecord
  2
*Paper_Space
  0
BLOCK_RECORD
  5
331
100
AcDbSymbolTableRecord
100
AcDbBlockTableRecord
  2
_FILLED
  0
BLOCK_RECORD
  5
332
100
AcDbSymbolTableRecord
100
AcDbBlockTableRecord
  2
*D0
  0
BLOCK_RECORD
  5
333
100
AcDbSymbolTableRecord
100
AcDbBlockTableRecord
  2
*D1
  0
BLOCK_RECORD
  5
334
100
AcDbSymbolTableRecord
100
AcDbBlockTableRecord
  2
*D2
  0
BLOCK_RECORD
  5
335
100
AcDbSymbolTableRecord
100
AcDbBlockTableRecord
  2
*D3
  0
ENDTAB
  0
TABLE
  2
DIMSTYLE
  5
A
100
AcDbSymbolTable
 70
1
100
AcDbDimStyleTable
 71
0
  0
DIMSTYLE
105
336
100
AcDbSymbolTableRecord
100
AcDbDimStyleTableRecord
  2
STANDARD
 70
0
  3

  4

 40
1.0
 41
3.0
 42
0.5
 43
0.38
 44
1.5
 45
0.0
 46
0.0
 47
0.01
 48
0.01
140
3.0
141
0.09
142
0.0
143
25.4
144
1.0
145
0.0
146
1.0
147
0.625
 71
1
 72
0
 73
0
 74
0
 75
0
 76
0
 77
1
 78
8
 79
2
170
0
171
1
172
0
173
0
174
0
175
0
176
0
177
0
178
0
270
2
179
2
271
2
272
2
273
2
274
2
275
0
280
0
281
0
282
0
283
1
284
8
285
0
286
0
287
3
288
0
340
11
278
44
341
331
342
331
343
331
344
331
  0
DIMSTYLE
105
337
100
AcDbSymbolTableRecord
100
AcDbDimStyleTableRecord
  2
DIMSTYLE_1
 70
0
  3

  4

 40
1.0
 41
3.0
 42
0.5
 43
0.38
 44
1.5
 45
0.0
 46
0.0
 47
0.0
 48
0.0
140
3.0
141
0.09
142
0.0
143
25.4
144
1.0
145
0.0
146
1.0
147
0.75
 71
0
 72
0
 73
0
 74
0
 75
0
 76
0
 77
1
 78
8
 79
2
170
0
171
1
172
0
173
0
174
0
175
0
176
0
177
0
178
0
270
2
179
2
271
2
272
2
273
2
274
2
275
0
280
0
281
0
282
0
283
1
284
8
285
0
286
0
287
3
288
0
340
11
278
44
341
331
342
331
343
331
344
331
  0
DIMSTYLE
105
338
100
AcDbSymbolTableRecord
100
AcDbDimStyleTableRecord
  2
DIMSTYLE_2
 70
0
  3

  4

 40
1.0
 41
3.0
 42
0.5
 43
0.38
 44
1.5
 45
0.0
 46
0.0
 47
0.0
 48
0.0
140
3.0
141
0.09
142
0.0
143
25.4
144
1.0
145
0.0
146
1.0
147
0.75
 71
0
 72
0
 73
0
 74
0
 75
0
 76
0
 77
1
 78
8
 79
2
170
0
171
1
172
0
173
0
174
0
175
0
176
0
177
0
178
0
270
2
179
2
271
1
272
1
273
2
274
2
275
0
280
0
281
0
282
0
283
1
284
8
285
0
286
0
287
3
288
0
340
11
278
44
341
331
342
331
343
331
344
331
  0
ENDTAB
  0
ENDSEC
  0
SECTION
  2
BLOCKS
  0
BLOCK
  5
20
100
AcDbEntity
  8
0
100
AcDbBlockBegin
  2
*Model_Space
 70
0
 10
0.0
 20
0.0
 30
0.0
  3
*Model_Space
  1

  0
ENDBLK
  5
21
100
AcDbEntity
  8
0
100
AcDbBlockEnd
  0
BLOCK
  5
1C
100
AcDbEntity
  8
0
100
AcDbBlockBegin
  2
*Paper_Space
 70
0
 10
0.0
 20
0.0
 30
0.0
  3
*Paper_Space
  1

  0
ENDBLK
  5
1D
100
AcDbEntity
  8
0
100
AcDbBlockEnd
  0
BLOCK
  5
339
100
AcDbEntity
  8
0
100
AcDbBlockBegin
  2
_FILLED
 70
64
 10
0.0
 20
0.0
  3
_FILLED
  1

  0
SOLID
  5
33A
100
AcDbEntity
  8
0
  6
BYBLOCK
 62
0
100
AcDbTrace
 10
0.0
 20
0.0
 11
-1.0
 21
0.3166666667
 12
-1.0
 22
-0.3166666667
 13
-1.0
 23
-0.3166666667
  0
ENDBLK
  5
33B
100
AcDbEntity
  8
0
  6
BYBLOCK
 62
0
100
AcDbBlockEnd
  0
BLOCK
  5
33C
100
AcDbEntity
  8
0
100
AcDbBlockBegin
 62
7
  6
CONTINUOUS
  2
*D0
 70
65
 10
0.0
 20
0.0
  3
*D0
  1

  0
LINE
  5
33D
100
AcDbEntity
  8
0
100
AcDbLine
 62
7
  6
CONTINUOUS
 10
-36.507969487
 20
42.8128411092
 11
-36.507969487
 21
55.7111129858
  0
LINE
  5
33E
100
AcDbEntity
  8
0
100
AcDbLine
 62
7
  6
CONTINUOUS
 10
-44.307969487
 20
46.1417053089
 11
-44.307969487
 21
55.7111129858
  0
LINE
  5
33F
100
AcDbEntity
  8
0
100
AcDbLine
 62
7
  6
CONTINUOUS
 10
-36.507969487
 20
54.2111129858
 11
-40.407969487
 21
54.2111129858
  0
LINE
  5
340
100
AcDbEntity
  8
0
100
AcDbLine
 62
7
  6
CONTINUOUS
 10
-44.307969487
 20
54.2111129858
 11
-40.407969487
 21
54.2111129858
  0
LINE
  5
341
100
AcDbEntity
  8
0
100
AcDbLine
 62
7
  6
CONTINUOUS
 10
-40.407969487
 20
54.2111129858
 11
-52.2365761156
 21
54.2111129858
  0
INSERT
  5
342
100
AcDbEntity
  8
0
100
AcDbBlockReference
 62
7
  6
CONTINUOUS
  2
_FILLED
 10
-36.507969487
 20
54.2111129858
 41
3.0
 42
3.0
 43
3.0
  0
INSERT
  5
343
100
AcDbEntity
  8
0
100
AcDbBlockReference
 62
7
  6
CONTINUOUS
  2
_FILLED
 10
-44.307969487
 20
54.2111129858
 41
3.0
 42
3.0
 43
3.0
 50
180.0
  0
ENDBLK
  5
344
100
AcDbEntity
  8
0
  6
BYBLOCK
 62
0
100
AcDbBlockEnd
  0
BLOCK
  5
345
100
AcDbEntity
  8
0
100
AcDbBlockBegin
 62
7
  6
CONTINUOUS
  2
*D1
 70
65
 10
0.0
 20
0.0
  3
*D1
  1

  0
LINE
  5
346
100
AcDbEntity
  8
0
100
AcDbLine
 62
7
  6
CONTINUOUS
 10
-44.307969487
 20
46.1417053089
 11
-44.307969487
 21
65.7565688201
  0
LINE
  5
347
100
AcDbEntity
  8
0
100
AcDbLine
 62
7
  6
CONTINUOUS
 10
-33.507969487
 20
40.2911645821
 11
-33.507969487
 21
65.7565688201
  0
LINE
  5
348
100
AcDbEntity
  8
0
100
AcDbLine
 62
7
  6
CONTINUOUS
 10
-44.307969487
 20
64.2565688201
 11
-48.307969487
 21
64.2565688201
  0
LINE
  5
349
100
AcDbEntity
  8
0
100
AcDbLine
 62
7
  6
CONTINUOUS
 10
-48.307969487
 20
64.2565688201
 11
-38.907969487
 21
64.2565688201
  0
LINE
  5
34A
100
AcDbEntity
  8
0
100
AcDbLine
 62
7
  6
CONTINUOUS
 10
-33.507969487
 20
64.2565688201
 11
-29.507969487
 21
64.2565688201
  0
LINE
  5
34B
100
AcDbEntity
  8
0
100
AcDbLine
 62
7
  6
CONTINUOUS
 10
-29.507969487
 20
64.2565688201
 11
-38.907969487
 21
64.2565688201
  0
INSERT
  5
34C
100
AcDbEntity
  8
0
100
AcDbBlockReference
 62
7
  6
CONTINUOUS
  2
_FILLED
 10
-44.307969487
 20
64.2565688201
 41
3.0
 42
3.0
 43
3.0
  0
INSERT
  5
34D
100
AcDbEntity
  8
0
100
AcDbBlockReference
 62
7
  6
CONTINUOUS
  2
_FILLED
 10
-33.507969487
 20
64.2565688201
 41
3.0
 42
3.0
 43
3.0
 50
180.0
  0
ENDBLK
  5
34E
100
AcDbEntity
  8
0
  6
BYBLOCK
 62
0
100
AcDbBlockEnd
  0
BLOCK
  5
34F
100
AcDbEntity
  8
0
100
AcDbBlockBegin
 62
7
  6
CONTINUOUS
  2
*D2
 70
65
 10
0.0
 20
0.0
  3
*D2
  1

  0
LINE
  5
350
100
AcDbEntity
  8
0
100
AcDbLine
 62
7
  6
CONTINUOUS
 10
-15.3078768894
 20
46.2396059889
 11
-15.3078768894
 21
55.7524003007
  0
LINE
  5
351
100
AcDbEntity
  8
0
100
AcDbLine
 62
7
  6
CONTINUOUS
 10
15.1851410846
 20
46.2396059889
 11
15.1851410846
 21
55.7524003007
  0
LINE
  5
352
100
AcDbEntity
  8
0
100
AcDbLine
 62
7
  6
CONTINUOUS
 10
-15.3078768894
 20
54.2524003007
 11
-0.0613679024
 21
54.2524003007
  0
LINE
  5
353
100
AcDbEntity
  8
0
100
AcDbLine
 62
7
  6
CONTINUOUS
 10
15.1851410846
 20
54.2524003007
 11
-0.0613679024
 21
54.2524003007
  0
INSERT
  5
354
100
AcDbEntity
  8
0
100
AcDbBlockReference
 62
7
  6
CONTINUOUS
  2
_FILLED
 10
-15.3078768894
 20
54.2524003007
 41
3.0
 42
3.0
 43
3.0
 50
180.0
  0
INSERT
  5
355
100
AcDbEntity
  8
0
100
AcDbBlockReference
 62
7
  6
CONTINUOUS
  2
_FILLED
 10
15.1851410846
 20
54.2524003007
 41
3.0
 42
3.0
 43
3.0
  0
ENDBLK
  5
356
100
AcDbEntity
  8
0
  6
BYBLOCK
 62
0
100
AcDbBlockEnd
  0
BLOCK
  5
357
100
AcDbEntity
  8
0
100
AcDbBlockBegin
 62
7
  6
CONTINUOUS
  2
*D3
 70
65
 10
0.0
 20
0.0
  3
*D3
  1

  0
LINE
  5
358
100
AcDbEntity
  8
0
100
AcDbLine
 62
7
  6
CONTINUOUS
 10
15.185217237
 20
46.2395298365
 11
24.6918159656
 21
46.2395298365
  0
LINE
  5
359
100
AcDbEntity
  8
0
100
AcDbLine
 62
7
  6
CONTINUOUS
 10
15.185217237
 20
-41.7534881375
 11
24.6918159656
 21
-41.7534881375
  0
LINE
  5
35A
100
AcDbEntity
  8
0
100
AcDbLine
 62
7
  6
CONTINUOUS
 10
23.1918159656
 20
46.2395298365
 11
23.1918159656
 21
2.2430208495
  0
LINE
  5
35B
100
AcDbEntity
  8
0
100
AcDbLine
 62
7
  6
CONTINUOUS
 10
23.1918159656
 20
-41.7534881375
 11
23.1918159656
 21
2.2430208495
  0
INSERT
  5
35C
100
AcDbEntity
  8
0
100
AcDbBlockReference
 62
7
  6
CONTINUOUS
  2
_FILLED
 10
23.1918159656
 20
46.2395298365
 41
3.0
 42
3.0
 43
3.0
 50
90.0
  0
INSERT
  5
35D
100
AcDbEntity
  8
0
100
AcDbBlockReference
 62
7
  6
CONTINUOUS
  2
_FILLED
 10
23.1918159656
 20
-41.7534881375
 41
3.0
 42
3.0
 43
3.0
 50
270.0
  0
ENDBLK
  5
35E
100
AcDbEntity
  8
0
  6
BYBLOCK
 62
0
100
AcDbBlockEnd
  0
ENDSEC
  0
SECTION
  2
ENTITIES
  0
DIMENSION
  5
35F
100
AcDbEntity
  8
0
100
AcDbDimension
 62
7
  6
CONTINUOUS
  2
*D0
 10
-44.307969487
 20
54.2111129858
 11
-52.2365761156
 21
54.2111129858
 70
160
 71
3
 72
2
 41
0.9
 42
7.8
  3
DIMSTYLE_1
100
AcDbAlignedDimension
 13
-36.507969487
 23
42.3128411092
 14
-44.307969487
 24
45.6417053089
 50
180.0
100
AcDbRotatedDimension
  0
DIMENSION
  5
360
100
AcDbEntity
  8
0
100
AcDbDimension
 62
7
  6
CONTINUOUS
  2
*D1
 10
-33.507969487
 20
64.2565688201
 11
-42.9793980584
 21
64.2565688201
 70
160
 71
2
 72
2
 41
0.9
 42
10.8
  3
DIMSTYLE_1
100
AcDbAlignedDimension
 13
-44.307969487
 23
45.6417053089
 14
-33.507969487
 24
39.7911645821
100
AcDbRotatedDimension
  0
DIMENSION
  5
361
100
AcDbEntity
  8
0
100
AcDbDimension
 62
7
  6
CONTINUOUS
  2
*D2
 10
15.1851410846
 20
54.2524003007
 11
-4.239939331
 21
54.2524003007
 70
160
 71
2
 72
2
 41
0.9
 42
30.493017974
  3
DIMSTYLE_2
100
AcDbAlignedDimension
 13
-15.3078768894
 23
45.7396059889
 14
15.1851410846
 24
45.7396059889
100
AcDbRotatedDimension
  0
DIMENSION
  5
362
100
AcDbEntity
  8
0
100
AcDbDimension
 62
7
  6
CONTINUOUS
  2
*D3
 10
23.1918159656
 20
-41.7534881375
 11
23.1918159656
 21
-0.1141220076
 70
160
 71
2
 72
2
 41
0.9
 42
87.993017974
  3
DIMSTYLE_2
100
AcDbAlignedDimension
 13
14.685217237
 23
46.2395298365
 14
14.685217237
 24
-41.7534881375
 50
270.0
100
AcDbRotatedDimension
  0
LWPOLYLINE
  5
363
100
AcDbEntity
  8
0
100
AcDbPolyline
 62
7
  6
CONTINUOUS
 90
5
 70
0
 43
0.3500000019
 10
-3.3827958984
 20
56.7166875
 10
-3.0256557617
 20
56.9309726563
 10
-3.0256557617
 20
57.573828125
 10
-3.3827958984
 20
58.0023984375
 10
-4.2399418945
 20
58.0023984375
  0
LWPOLYLINE
  5
364
100
AcDbEntity
  8
RACCORDO
100
AcDbPolyline
 62
250
  6
CONTINUOUS
 90
16
 70
0
 10
14.587316557
 20
-41.6555874575
 10
14.6395627354
 20
-41.6528339698
 10
14.6912367156
 20
-41.6446354899
 10
14.741772566
 20
-41.6310818072
 10
14.7906168197
 20
-41.6123213611
 10
14.8372345361
 20
-41.5885596154
 10
14.8811151594
 20
-41.5600568079
 10
14.9217781106
 20
-41.5271251006
 10
14.9587780506
 20
-41.4901251603
 10
14.9917097575
 20
-41.449462209
 10
15.0202125645
 20
-41.4055815855
 10
15.0439743097
 20
-41.3589638692
 10
15.0627347553
 20
-41.3101196158
 10
15.0762884375
 20
-41.2595837662
 10
15.084486917
 20
-41.207909787
 10
15.0872404045
 20
-41.1556636099
  0
LINE
  5
365
100
AcDbEntity
  8
RACCORDO
100
AcDbLine
 62
250
  6
CONTINUOUS
 10
-6.2804243888
 20
-42.0878922032
 11
-6.2769338888
 21
-42.0878606741
  0
LINE
  5
366
100
AcDbEntity
  8
RACCORDO
100
AcDbLine
 62
7
  6
CONTINUOUS
 10
-9.8613983634
 20
-42.1069791505
 11
-6.2613374415
 21
-42.1069791505
  0
LINE
  5
367
100
AcDbEntity
  8
RACCORDO
100
AcDbLine
 62
250
  6
CONTINUOUS
 10
-9.8423114161
 20
-42.0878922032
 11
-6.2804243888
 21
-42.0878922032
  0
LINE
  5
368
100
AcDbEntity
  8
RACCORDO
100
AcDbLine
 62
250
  6
CONTINUOUS
 10
-10.0422809551
 20
-41.8879226641
 11
-6.0804548498
 21
-41.8879226641
  0
LWPOLYLINE
  5
369
100
AcDbEntity
  8
RACCORDO
100
AcDbPolyline
 62
7
  6
CONTINUOUS
 90
4
 70
0
 10
-9.8613983634
 20
-42.1069791505
 10
-9.8954676557
 20
-42.1040567311
 10
-9.9288537717
 20
-42.09526123
 10
-9.9605184083
 20
-42.0806893407
  0
LWPOLYLINE
  5
36A
100
AcDbEntity
  8
RACCORDO
100
AcDbPolyline
 62
250
  6
CONTINUOUS
 90
3
 70
0
 10
-9.8792917779
 20
-42.0844318052
 10
-9.8758625488
 20
-42.0850472671
 10
-9.8423114161
 20
-42.0878922032
  0
LWPOLYLINE
  5
36B
100
AcDbEntity
  8
RACCORDO
100
AcDbPolyline
 62
7
  6
CONTINUOUS
 90
3
 70
0
 10
-6.1938820331
 20
-42.09526123
 10
-6.2272681491
 20
-42.1040567311
 10
-6.2613374415
 20
-42.1069791505
  0
LWPOLYLINE
  5
36C
100
AcDbEntity
  8
RACCORDO
100
AcDbPolyline
 62
7
  6
CONTINUOUS
 90
9
 70
0
 10
-6.2769338888
 20
-42.0878606741
 10
-6.2452938802
 20
-42.0847714671
 10
-6.2112647745
 20
-42.075530927
 10
-6.1793937327
 20
-42.0604625264
 10
-6.1505720636
 20
-42.0399560945
 10
-6.1258181082
 20
-42.0147011098
 10
-6.1060892848
 20
-41.9858240986
 10
-6.0918635031
 20
-41.9544430969
 10
-6.0839152477
 20
-41.9249030259
  0
LINE
  5
36D
100
AcDbEntity
  8
0
100
AcDbLine
 62
7
  6
CONTINUOUS
 10
-14.8079530419
 20
-41.7534881375
 11
-10.1613679024
 21
-41.7534881375
  0
LINE
  5
36E
100
AcDbEntity
  8
0
100
AcDbLine
 62
7
  6
CONTINUOUS
 10
-5.9613679024
 20
-41.7534881375
 11
14.685217237
 21
-41.7534881375
  0
LINE
  5
36F
100
AcDbEntity
  8
RACCORDO
100
AcDbLine
 62
7
  6
CONTINUOUS
 10
-6.2613679024
 20
-41.7220690206
 11
-9.8613679024
 21
-41.7220690206
  0
LINE
  5
370
100
AcDbEntity
  8
RACCORDO
100
AcDbLine
 62
250
  6
CONTINUOUS
 10
-14.7100523618
 20
-41.6555874575
 11
14.587316557
 21
-41.6555874575
  0
LINE
  5
371
100
AcDbEntity
  8
RACCORDO
100
AcDbLine
 62
250
  6
CONTINUOUS
 10
-15.2099762094
 20
-41.1556636099
 11
15.0872404045
 21
-41.1556636099
  0
LINE
  5
372
100
AcDbEntity
  8
RACCORDO
100
AcDbLine
 62
7
  6
CONTINUOUS
 10
-2.7113679024
 20
-39.6069791505
 11
2.5886320976
 21
-39.6069791505
  0
LWPOLYLINE
  5
373
100
AcDbEntity
  8
RACCORDO
100
AcDbPolyline
 62
7
  6
CONTINUOUS
 90
5
 70
0
 10
-9.9605184083
 20
-42.0806893407
 10
-9.9895986081
 20
-42.0604840791
 10
-10.014872831
 20
-42.0352098562
 10
-10.0350780926
 20
-42.0061296564
 10
-10.049649982
 20
-41.9744650198
  0
LINE
  5
374
100
AcDbEntity
  8
RACCORDO
100
AcDbLine
 62
7
  6
CONTINUOUS
 10
2.5886320976
 20
-36.9069791505
 11
-2.7113679024
 21
-36.9069791505
  0
LINE
  5
375
100
AcDbEntity
  8
RACCORDO
100
AcDbLine
 62
250
  6
CONTINUOUS
 10
-6.2804243888
 20
-42.0878922032
 11
-6.2613374415
 21
-42.1069791505
  0
LINE
  5
376
100
AcDbEntity
  8
RACCORDO
100
AcDbLine
 62
250
  6
CONTINUOUS
 10
-6.0804548498
 20
-41.8879226641
 11
-6.0613679024
 21
-41.9070096115
  0
LINE
  5
377
100
AcDbEntity
  8
RACCORDO
100
AcDbLine
 62
250
  6
CONTINUOUS
 10
14.587316557
 20
46.1416291565
 11
14.685217237
 21
46.2395298365
  0
LINE
  5
378
100
AcDbEntity
  8
RACCORDO
100
AcDbLine
 62
250
  6
CONTINUOUS
 10
15.0872404045
 20
45.6417053089
 11
15.1851410846
 21
45.7396059889
  0
LINE
  5
379
100
AcDbEntity
  8
RACCORDO
100
AcDbLine
 62
250
  6
CONTINUOUS
 10
14.587316557
 20
-41.6555874575
 11
14.685217237
 21
-41.7534881375
  0
LWPOLYLINE
  5
37A
100
AcDbEntity
  8
RACCORDO
100
AcDbPolyline
 62
7
  6
CONTINUOUS
 90
3
 70
0
 10
-10.049649982
 20
-41.9744650198
 10
-10.058445483
 20
-41.9410789038
 10
-10.0613679024
 20
-41.9070096115
  0
LWPOLYLINE
  5
37B
100
AcDbEntity
  8
RACCORDO
100
AcDbPolyline
 62
250
  6
CONTINUOUS
 90
16
 70
0
 10
-15.2099762094
 20
-41.1556636099
 10
-15.2072227218
 20
-41.2079097884
 10
-15.1990242419
 20
-41.2595837686
 10
-15.1854705592
 20
-41.3101196189
 10
-15.1667101131
 20
-41.3589638726
 10
-15.1429483673
 20
-41.405581589
 10
-15.1144455599
 20
-41.4494622124
 10
-15.0815138526
 20
-41.4901251636
 10
-15.0445139123
 20
-41.5271251035
 10
-15.0038509609
 20
-41.5600568104
 10
-14.9599703374
 20
-41.5885596174
 10
-14.9133526211
 20
-41.6123213627
 10
-14.8645083678
 20
-41.6310818082
 10
-14.8139725181
 20
-41.6446354904
 10
-14.762298539
 20
-41.65283397
 10
-14.7100523618
 20
-41.6555874575
  0
LWPOLYLINE
  5
37C
100
AcDbEntity
  8
0
100
AcDbPolyline
 62
7
  6
CONTINUOUS
 90
3
 70
0
 43
0.3500000019
 10
0.9743481445
 20
55.2881162109
 10
0.9029179688
 20
55.0738310547
 10
0.7600629883
 20
54.7881157227
  0
LINE
  5
37D
100
AcDbEntity
  8
RACCORDO
100
AcDbLine
 62
250
  6
CONTINUOUS
 10
15.0872404045
 20
-41.1556636099
 11
15.1851410846
 21
-41.2535642899
  0
LWPOLYLINE
  5
37E
100
AcDbEntity
  8
RACCORDO
100
AcDbPolyline
 62
7
  6
CONTINUOUS
 90
9
 70
0
 10
-10.042249426
 20
-41.8914131641
 10
-10.039160219
 20
-41.9230531727
 10
-10.029919679
 20
-41.9570822785
 10
-10.0148512783
 20
-41.9889533202
 10
-9.9943448464
 20
-42.0177749894
 10
-9.9690898617
 20
-42.0425289448
 10
-9.9402128506
 20
-42.0622577682
 10
-9.9088318488
 20
-42.0764835498
 10
-9.8792917779
 20
-42.0844318052
  0
LWPOLYLINE
  5
37F
100
AcDbEntity
  8
RACCORDO
100
AcDbPolyline
 62
250
  6
CONTINUOUS
 90
16
 70
0
 10
-15.2099762094
 20
3.0443363901
 10
-15.2072227218
 20
2.9920902116
 10
-15.1990242419
 20
2.9404162314
 10
-15.1854705592
 20
2.8898803811
 10
-15.1667101131
 20
2.8410361274
 10
-15.1429483673
 20
2.794418411
 10
-15.1144455599
 20
2.7505377876
 10
-15.0815138526
 20
2.7098748364
 10
-15.0445139123
 20
2.6728748965
 10
-15.0038509609
 20
2.6399431896
 10
-14.9599703374
 20
2.6114403826
 10
-14.9133526211
 20
2.5876786373
 10
-14.8645083678
 20
2.5689181918
 10
-14.8139725181
 20
2.5553645096
 10
-14.762298539
 20
2.54716603
 10
-14.7100523618
 20
2.5444125425
  0
LINE
  5
380
100
AcDbEntity
  8
RACCORDO
100
AcDbLine
 62
7
  6
CONTINUOUS
 10
-15.3078768894
 20
45.7396059889
 11
-15.3078768894
 21
2.9464357101
  0
LINE
  5
381
100
AcDbEntity
  8
RACCORDO
100
AcDbLine
 62
7
  6
CONTINUOUS
 10
-15.3078768894
 20
1.5396059889
 11
-15.3078768894
 21
-41.2535642899
  0
LINE
  5
382
100
AcDbEntity
  8
RACCORDO
100
AcDbLine
 62
250
  6
CONTINUOUS
 10
-15.2099762094
 20
45.6417053089
 11
-15.2099762094
 21
3.0443363901
  0
LINE
  5
383
100
AcDbEntity
  8
RACCORDO
100
AcDbLine
 62
250
  6
CONTINUOUS
 10
-15.2099762094
 20
1.4417053089
 11
-15.2099762094
 21
-41.1556636099
  0
LINE
  5
384
100
AcDbEntity
  8
RACCORDO
100
AcDbLine
 62
250
  6
CONTINUOUS
 10
-14.7100523618
 20
1.9416291565
 11
-14.7100523618
 21
-41.6555874575
  0
LINE
  5
385
100
AcDbEntity
  8
RACCORDO
100
AcDbLine
 62
250
  6
CONTINUOUS
 10
-14.7100523618
 20
2.5444125425
 11
-14.7100523618
 21
46.1416291565
  0
LINE
  5
386
100
AcDbEntity
  8
DRAFT
100
AcDbLine
 62
7
  6
CONTINUOUS
 10
-13.2113679024
 20
2.5224413949
 11
-13.2113679024
 21
1.9636003041
  0
LINE
  5
387
100
AcDbEntity
  8
DRAFT
100
AcDbLine
 62
7
  6
CONTINUOUS
 10
-13.1432724019
 20
1.9636003041
 11
-13.1432724019
 21
2.5224413949
  0
LINE
  5
388
100
AcDbEntity
  8
RACCORDO
100
AcDbLine
 62
250
  6
CONTINUOUS
 10
-15.2099762094
 20
3.0443363901
 11
-15.3078768894
 21
2.9464357101
  0
LINE
  5
389
100
AcDbEntity
  8
RACCORDO
100
AcDbLine
 62
250
  6
CONTINUOUS
 10
-10.0422809551
 20
-41.8879226641
 11
-10.042249426
 21
-41.8914131641
  0
LINE
  5
38A
100
AcDbEntity
  8
DRAFT
100
AcDbLine
 62
7
  6
CONTINUOUS
 10
-11.7235864479
 20
1.9636003041
 11
-11.7235864479
 21
2.5224413949
  0
LINE
  5
38B
100
AcDbEntity
  8
DRAFT
100
AcDbLine
 62
7
  6
CONTINUOUS
 10
-11.7113679024
 20
2.5224413949
 11
-11.7113679024
 21
1.9636003041
  0
LINE
  5
38C
100
AcDbEntity
  8
DRAFT
100
AcDbLine
 62
7
  6
CONTINUOUS
 10
-11.5875504998
 20
2.5224413949
 11
-11.5875504998
 21
1.9636003041
  0
LINE
  5
38D
100
AcDbEntity
  8
DRAFT
100
AcDbLine
 62
7
  6
CONTINUOUS
 10
-11.5613679024
 20
2.5224413949
 11
-11.5613679024
 21
1.9636003041
  0
LINE
  5
38E
100
AcDbEntity
  8
RACCORDO
100
AcDbLine
 62
7
  6
CONTINUOUS
 10
-10.1613679024
 20
-41.7534881375
 11
-10.1613679024
 21
-41.7273055401
  0
LINE
  5
38F
100
AcDbEntity
  8
RACCORDO
100
AcDbLine
 62
7
  6
CONTINUOUS
 10
-10.0613679024
 20
-41.7234046267
 11
-10.0613679024
 21
-41.9070096115
  0
LINE
  5
390
100
AcDbEntity
  8
RACCORDO
100
AcDbLine
 62
250
  6
CONTINUOUS
 10
-10.0422809551
 20
-41.7231340198
 11
-10.0422809551
 21
-41.8879226641
  0
LINE
  5
391
100
AcDbEntity
  8
RACCORDO
100
AcDbLine
 62
250
  6
CONTINUOUS
 10
-9.8423114161
 20
-41.7220690206
 11
-9.8423114161
 21
-42.0878922032
  0
LINE
  5
392
100
AcDbEntity
  8
RACCORDO
100
AcDbLine
 62
250
  6
CONTINUOUS
 10
-14.7100523618
 20
2.5444125425
 11
-14.8079530419
 21
2.4465118625
  0
LINE
  5
393
100
AcDbEntity
  8
DRAFT
100
AcDbLine
 62
7
  6
CONTINUOUS
 10
-13.5578768894
 20
2.4465118625
 11
-13.481947357
 21
2.5224413949
  0
LINE
  5
394
100
AcDbEntity
  8
RACCORDO
100
AcDbLine
 62
250
  6
CONTINUOUS
 10
-15.2099762094
 20
1.4417053089
 11
-15.3078768894
 21
1.5396059889
  0
LINE
  5
395
100
AcDbEntity
  8
RACCORDO
100
AcDbLine
 62
250
  6
CONTINUOUS
 10
-6.2804243888
 20
-41.7220690206
 11
-6.2804243888
 21
-42.0878922032
  0
LINE
  5
396
100
AcDbEntity
  8
RACCORDO
100
AcDbLine
 62
250
  6
CONTINUOUS
 10
-14.7100523618
 20
1.9416291565
 11
-14.8079530419
 21
2.0395298365
  0
LINE
  5
397
100
AcDbEntity
  8
DRAFT
100
AcDbLine
 62
7
  6
CONTINUOUS
 10
-13.5578768894
 20
2.0395298365
 11
-13.481947357
 21
1.9636003041
  0
LINE
  5
398
100
AcDbEntity
  8
RACCORDO
100
AcDbLine
 62
7
  6
CONTINUOUS
 10
-6.0851640128
 20
2.5224413949
 11
-6.0851640128
 21
1.9636003041
  0
LINE
  5
399
100
AcDbEntity
  8
RACCORDO
100
AcDbLine
 62
250
  6
CONTINUOUS
 10
-6.0804548498
 20
-41.8879226641
 11
-6.0804548498
 21
-41.7231340198
  0
LINE
  5
39A
100
AcDbEntity
  8
RACCORDO
100
AcDbLine
 62
7
  6
CONTINUOUS
 10
-6.0613679024
 20
-41.9070096115
 11
-6.0613679024
 21
-41.7234046267
  0
LINE
  5
39B
100
AcDbEntity
  8
RACCORDO
100
AcDbLine
 62
7
  6
CONTINUOUS
 10
-5.9613679024
 20
-41.7534881375
 11
-5.9613679024
 21
-41.7273055401
  0
LINE
  5
39C
100
AcDbEntity
  8
IMPORT_IGES
100
AcDbLine
 62
7
  6
CONTINUOUS
 10
-5.8613679024
 20
1.9636003041
 11
-5.8613679024
 21
2.5224413949
  0
LINE
  5
39D
100
AcDbEntity
  8
IMPORT_IGES
100
AcDbLine
 62
7
  6
CONTINUOUS
 10
-5.7613679024
 20
1.9636003041
 11
-5.7613679024
 21
2.5224413949
  0
LINE
  5
39E
100
AcDbEntity
  8
IMPORT_IGES
100
AcDbLine
 62
7
  6
CONTINUOUS
 10
-5.7307468702
 20
1.9636003041
 11
-5.7307468702
 21
2.5224413949
  0
LINE
  5
39F
100
AcDbEntity
  8
IMPORT_IGES
100
AcDbLine
 62
7
  6
CONTINUOUS
 10
-4.3919889347
 20
2.5224413949
 11
-4.3919889347
 21
1.9636003041
  0
LINE
  5
3A0
100
AcDbEntity
  8
IMPORT_IGES
100
AcDbLine
 62
7
  6
CONTINUOUS
 10
-4.3613679024
 20
2.5224413949
 11
-4.3613679024
 21
1.9636003041
  0
LINE
  5
3A1
100
AcDbEntity
  8
IMPORT_IGES
100
AcDbLine
 62
7
  6
CONTINUOUS
 10
-4.2613679024
 20
2.5224413949
 11
-4.2613679024
 21
1.9636003041
  0
LINE
  5
3A2
100
AcDbEntity
  8
IMPORT_IGES
100
AcDbLine
 62
7
  6
CONTINUOUS
 10
-2.9363679024
 20
1.9636003041
 11
-2.9363679024
 21
2.5224413949
  0
LINE
  5
3A3
100
AcDbEntity
  8
IMPORT_IGES
100
AcDbLine
 62
7
  6
CONTINUOUS
 10
-2.9263679024
 20
1.9636003041
 11
-2.9263679024
 21
2.5224413949
  0
LINE
  5
3A4
100
AcDbEntity
  8
RACCORDO
100
AcDbLine
 62
7
  6
CONTINUOUS
 10
-2.9113679024
 20
-37.1069791505
 11
-2.9113679024
 21
-39.4069791505
  0
LINE
  5
3A5
100
AcDbEntity
  8
IMPORT_IGES
100
AcDbLine
 62
7
  6
CONTINUOUS
 10
-2.8957468702
 20
1.9636003041
 11
-2.8957468702
 21
2.5224413949
  0
LINE
  5
3A6
100
AcDbEntity
  8
IMPORT_IGES
100
AcDbLine
 62
7
  6
CONTINUOUS
 10
-2.2269889347
 20
2.5224413949
 11
-2.2269889347
 21
1.9636003041
  0
LINE
  5
3A7
100
AcDbEntity
  8
IMPORT_IGES
100
AcDbLine
 62
7
  6
CONTINUOUS
 10
-2.1963679024
 20
2.5224413949
 11
-2.1963679024
 21
1.9636003041
  0
LINE
  5
3A8
100
AcDbEntity
  8
IMPORT_IGES
100
AcDbLine
 62
7
  6
CONTINUOUS
 10
-2.1863679024
 20
2.5224413949
 11
-2.1863679024
 21
1.9636003041
  0
LWPOLYLINE
  5
3A9
100
AcDbEntity
  8
0
100
AcDbPolyline
 62
7
  6
CONTINUOUS
 90
13
 70
0
 43
0.3500000019
 10
-2.0970795898
 20
55.8595415039
 10
-2.0970795898
 20
57.1452578125
 10
-1.8827944336
 20
57.573828125
 10
-1.4542241211
 20
58.0023984375
 10
-1.2399389648
 20
58.0023984375
 10
-0.8113686523
 20
57.573828125
 10
-0.5970834961
 20
57.1452578125
 10
-0.5970834961
 20
55.8595415039
 10
-0.8113686523
 20
55.4309711914
 10
-1.2399389648
 20
55.0024008789
 10
-1.4542241211
 20
55.0024008789
 10
-1.8827944336
 20
55.4309711914
 10
-2.0970795898
 20
55.8595415039
  0
LINE
  5
3AA
100
AcDbEntity
  8
IMPORT_IGES
100
AcDbLine
 62
7
  6
CONTINUOUS
 10
-0.8613679024
 20
1.9636003041
 11
-0.8613679024
 21
2.5224413949
  0
LINE
  5
3AB
100
AcDbEntity
  8
IMPORT_IGES
100
AcDbLine
 62
7
  6
CONTINUOUS
 10
-0.7613679024
 20
1.9636003041
 11
-0.7613679024
 21
2.5224413949
  0
LINE
  5
3AC
100
AcDbEntity
  8
IMPORT_IGES
100
AcDbLine
 62
7
  6
CONTINUOUS
 10
-0.7307468702
 20
1.9636003041
 11
-0.7307468702
 21
2.5224413949
  0
LWPOLYLINE
  5
3AD
100
AcDbEntity
  8
RACCORDO
100
AcDbPolyline
 62
7
  6
CONTINUOUS
 90
4
 70
0
 10
-6.0613679024
 20
-41.9070096115
 10
-6.0642903218
 20
-41.9410789038
 10
-6.0730858229
 20
-41.9744650198
 10
-6.0876577122
 20
-42.0061296564
  0
LWPOLYLINE
  5
3AE
100
AcDbEntity
  8
0
100
AcDbPolyline
 62
7
  6
CONTINUOUS
 90
4
 70
0
 43
0.3500000019
 10
22.0132392578
 20
-0.1141220102
 10
21.1560986328
 20
-0.1141220102
 10
20.7275283203
 20
0.3144494247
 10
20.7275283203
 20
0.957306572
  0
LINE
  5
3AF
100
AcDbEntity
  8
IMPORT_IGES
100
AcDbLine
 62
7
  6
CONTINUOUS
 10
0.6080110653
 20
2.5224413949
 11
0.6080110653
 21
1.9636003041
  0
LINE
  5
3B0
100
AcDbEntity
  8
IMPORT_IGES
100
AcDbLine
 62
7
  6
CONTINUOUS
 10
0.6386320976
 20
2.5224413949
 11
0.6386320976
 21
1.9636003041
  0
LINE
  5
3B1
100
AcDbEntity
  8
IMPORT_IGES
100
AcDbLine
 62
7
  6
CONTINUOUS
 10
0.7386320976
 20
2.5224413949
 11
0.7386320976
 21
1.9636003041
  0
LINE
  5
3B2
100
AcDbEntity
  8
IMPORT_IGES
100
AcDbLine
 62
7
  6
CONTINUOUS
 10
2.0636320976
 20
1.9636003041
 11
2.0636320976
 21
2.5224413949
  0
LINE
  5
3B3
100
AcDbEntity
  8
IMPORT_IGES
100
AcDbLine
 62
7
  6
CONTINUOUS
 10
2.0736320976
 20
1.9636003041
 11
2.0736320976
 21
2.5224413949
  0
LINE
  5
3B4
100
AcDbEntity
  8
IMPORT_IGES
100
AcDbLine
 62
7
  6
CONTINUOUS
 10
2.1042531298
 20
1.9636003041
 11
2.1042531298
 21
2.5224413949
  0
LINE
  5
3B5
100
AcDbEntity
  8
IMPORT_IGES
100
AcDbLine
 62
7
  6
CONTINUOUS
 10
2.7730110653
 20
2.5224413949
 11
2.7730110653
 21
1.9636003041
  0
LINE
  5
3B6
100
AcDbEntity
  8
RACCORDO
100
AcDbLine
 62
7
  6
CONTINUOUS
 10
2.7886320976
 20
-39.4069791505
 11
2.7886320976
 21
-37.1069791505
  0
LINE
  5
3B7
100
AcDbEntity
  8
IMPORT_IGES
100
AcDbLine
 62
7
  6
CONTINUOUS
 10
2.8036320976
 20
2.5224413949
 11
2.8036320976
 21
1.9636003041
  0
LINE
  5
3B8
100
AcDbEntity
  8
IMPORT_IGES
100
AcDbLine
 62
7
  6
CONTINUOUS
 10
2.8136320976
 20
2.5224413949
 11
2.8136320976
 21
1.9636003041
  0
LWPOLYLINE
  5
3B9
100
AcDbEntity
  8
RACCORDO
100
AcDbPolyline
 62
250
  6
CONTINUOUS
 90
3
 70
0
 10
-6.0839152477
 20
-41.9249030259
 10
-6.0832997858
 20
-41.9214737968
 10
-6.0804548498
 20
-41.8879226641
  0
LWPOLYLINE
  5
3BA
100
AcDbEntity
  8
RACCORDO
100
AcDbPolyline
 62
250
  6
CONTINUOUS
 90
16
 70
0
 10
14.587316557
 20
2.5444125425
 10
14.6395627354
 20
2.5471660302
 10
14.6912367156
 20
2.5553645101
 10
14.741772566
 20
2.5689181928
 10
14.7906168197
 20
2.5876786389
 10
14.8372345361
 20
2.6114403846
 10
14.8811151594
 20
2.6399431921
 10
14.9217781106
 20
2.6728748994
 10
14.9587780506
 20
2.7098748397
 10
14.9917097575
 20
2.750537791
 10
15.0202125645
 20
2.7944184145
 10
15.0439743097
 20
2.8410361308
 10
15.0627347553
 20
2.8898803842
 10
15.0762884375
 20
2.9404162338
 10
15.084486917
 20
2.992090213
 10
15.0872404045
 20
3.0443363901
  0
LWPOLYLINE
  5
3BB
100
AcDbEntity
  8
RACCORDO
100
AcDbPolyline
 62
250
  6
CONTINUOUS
 90
16
 70
0
 10
-14.7100523618
 20
1.9416291565
 10
-14.7622985403
 20
1.9388756688
 10
-14.8139725205
 20
1.9306771889
 10
-14.8645083709
 20
1.9171235062
 10
-14.9133526245
 20
1.8983630601
 10
-14.959970341
 20
1.8746013144
 10
-15.0038509643
 20
1.8460985069
 10
-15.0445139155
 20
1.8131667996
 10
-15.0815138555
 20
1.7761668593
 10
-15.1144455624
 20
1.735503908
 10
-15.1429483694
 20
1.6916232845
 10
-15.1667101146
 20
1.6450055682
 10
-15.1854705602
 20
1.5961613148
 10
-15.1990242424
 20
1.5456254652
 10
-15.2072227219
 20
1.493951486
 10
-15.2099762094
 20
1.4417053089
  0
LINE
  5
3BC
100
AcDbEntity
  8
RACCORDO
100
AcDbLine
 62
250
  6
CONTINUOUS
 10
-15.2099762094
 20
1.4417053089
 11
15.0872404045
 21
1.4417053089
  0
LINE
  5
3BD
100
AcDbEntity
  8
RACCORDO
100
AcDbLine
 62
250
  6
CONTINUOUS
 10
14.587316557
 20
1.9416291565
 11
-14.7100523618
 21
1.9416291565
  0
LINE
  5
3BE
100
AcDbEntity
  8
DRAFT
100
AcDbLine
 62
7
  6
CONTINUOUS
 10
-13.481947357
 20
1.9636003041
 11
13.3592115521
 21
1.9636003041
  0
LINE
  5
3BF
100
AcDbEntity
  8
RACCORDO
100
AcDbLine
 62
7
  6
CONTINUOUS
 10
14.685217237
 20
2.0395298365
 11
13.4351410846
 21
2.0395298365
  0
LINE
  5
3C0
100
AcDbEntity
  8
RACCORDO
100
AcDbLine
 62
7
  6
CONTINUOUS
 10
-13.5578768894
 20
2.0395298365
 11
-14.8079530419
 21
2.0395298365
  0
LWPOLYLINE
  5
3C1
100
AcDbEntity
  8
0
100
AcDbPolyline
 62
7
  6
CONTINUOUS
 90
4
 70
0
 43
0.3500000019
 10
22.0132392578
 20
2.2430207825
 10
21.1560986328
 20
2.2430207825
 10
20.7275283203
 20
2.6715922699
 10
20.7275283203
 20
3.314449585
  0
LINE
  5
3C2
100
AcDbEntity
  8
RACCORDO
100
AcDbLine
 62
7
  6
CONTINUOUS
 10
-14.8079530419
 20
2.4465118625
 11
-13.5578768894
 21
2.4465118625
  0
LINE
  5
3C3
100
AcDbEntity
  8
RACCORDO
100
AcDbLine
 62
7
  6
CONTINUOUS
 10
13.4351410846
 20
2.4465118625
 11
14.685217237
 21
2.4465118625
  0
LINE
  5
3C4
100
AcDbEntity
  8
DRAFT
100
AcDbLine
 62
7
  6
CONTINUOUS
 10
-13.481947357
 20
2.5224413949
 11
13.3592115521
 21
2.5224413949
  0
LINE
  5
3C5
100
AcDbEntity
  8
RACCORDO
100
AcDbLine
 62
250
  6
CONTINUOUS
 10
-14.7100523618
 20
2.5444125425
 11
14.587316557
 21
2.5444125425
  0
LINE
  5
3C6
100
AcDbEntity
  8
RACCORDO
100
AcDbLine
 62
250
  6
CONTINUOUS
 10
-15.2099762094
 20
3.0443363901
 11
15.0872404045
 21
3.0443363901
  0
LINE
  5
3C7
100
AcDbEntity
  8
IMPORT_IGES
100
AcDbLine
 62
7
  6
CONTINUOUS
 10
4.1386320976
 20
1.9636003041
 11
4.1386320976
 21
2.5224413949
  0
LINE
  5
3C8
100
AcDbEntity
  8
IMPORT_IGES
100
AcDbLine
 62
7
  6
CONTINUOUS
 10
4.2386320976
 20
1.9636003041
 11
4.2386320976
 21
2.5224413949
  0
LINE
  5
3C9
100
AcDbEntity
  8
IMPORT_IGES
100
AcDbLine
 62
7
  6
CONTINUOUS
 10
4.2692531298
 20
1.9636003041
 11
4.2692531298
 21
2.5224413949
  0
LINE
  5
3CA
100
AcDbEntity
  8
IMPORT_IGES
100
AcDbLine
 62
7
  6
CONTINUOUS
 10
5.6080110653
 20
2.5224413949
 11
5.6080110653
 21
1.9636003041
  0
LINE
  5
3CB
100
AcDbEntity
  8
IMPORT_IGES
100
AcDbLine
 62
7
  6
CONTINUOUS
 10
5.6386320976
 20
2.5224413949
 11
5.6386320976
 21
1.9636003041
  0
LINE
  5
3CC
100
AcDbEntity
  8
IMPORT_IGES
100
AcDbLine
 62
7
  6
CONTINUOUS
 10
5.7386320976
 20
2.5224413949
 11
5.7386320976
 21
1.9636003041
  0
LINE
  5
3CD
100
AcDbEntity
  8
RACCORDO
100
AcDbLine
 62
7
  6
CONTINUOUS
 10
5.9624282079
 20
1.9636003041
 11
5.9624282079
 21
2.5224413949
  0
LINE
  5
3CE
100
AcDbEntity
  8
DRAFT
100
AcDbLine
 62
7
  6
CONTINUOUS
 10
13.4351410846
 20
2.0395298365
 11
13.3592115521
 21
1.9636003041
  0
LINE
  5
3CF
100
AcDbEntity
  8
RACCORDO
100
AcDbLine
 62
250
  6
CONTINUOUS
 10
14.587316557
 20
1.9416291565
 11
14.685217237
 21
2.0395298365
  0
LINE
  5
3D0
100
AcDbEntity
  8
RACCORDO
100
AcDbLine
 62
250
  6
CONTINUOUS
 10
15.0872404045
 20
1.4417053089
 11
15.1851410846
 21
1.5396059889
  0
LINE
  5
3D1
100
AcDbEntity
  8
DRAFT
100
AcDbLine
 62
7
  6
CONTINUOUS
 10
11.4386320976
 20
1.9636003041
 11
11.4386320976
 21
2.5224413949
  0
LINE
  5
3D2
100
AcDbEntity
  8
DRAFT
100
AcDbLine
 62
7
  6
CONTINUOUS
 10
11.464814695
 20
1.9636003041
 11
11.464814695
 21
2.5224413949
  0
LINE
  5
3D3
100
AcDbEntity
  8
DRAFT
100
AcDbLine
 62
7
  6
CONTINUOUS
 10
11.5886320976
 20
1.9636003041
 11
11.5886320976
 21
2.5224413949
  0
LINE
  5
3D4
100
AcDbEntity
  8
RACCORDO
100
AcDbLine
 62
7
  6
CONTINUOUS
 10
11.6401245391
 20
1.9636003041
 11
11.6401245391
 21
2.5224413949
  0
LINE
  5
3D5
100
AcDbEntity
  8
DRAFT
100
AcDbLine
 62
7
  6
CONTINUOUS
 10
12.9419648657
 20
1.9636003041
 11
12.9419648657
 21
2.5224413949
  0
LINE
  5
3D6
100
AcDbEntity
  8
DRAFT
100
AcDbLine
 62
7
  6
CONTINUOUS
 10
13.0886320976
 20
1.9636003041
 11
13.0886320976
 21
2.5224413949
  0
LINE
  5
3D7
100
AcDbEntity
  8
DRAFT
100
AcDbLine
 62
7
  6
CONTINUOUS
 10
13.4351410846
 20
2.4465118625
 11
13.3592115521
 21
2.5224413949
  0
LINE
  5
3D8
100
AcDbEntity
  8
RACCORDO
100
AcDbLine
 62
250
  6
CONTINUOUS
 10
14.587316557
 20
2.5444125425
 11
14.685217237
 21
2.4465118625
  0
LINE
  5
3D9
100
AcDbEntity
  8
RACCORDO
100
AcDbLine
 62
250
  6
CONTINUOUS
 10
15.0872404045
 20
3.0443363901
 11
15.1851410846
 21
2.9464357101
  0
LWPOLYLINE
  5
3DA
100
AcDbEntity
  8
RACCORDO
100
AcDbPolyline
 62
250
  6
CONTINUOUS
 90
16
 70
0
 10
15.0872404045
 20
1.4417053089
 10
15.0844869169
 20
1.4939514874
 10
15.076288437
 20
1.5456254676
 10
15.0627347543
 20
1.5961613179
 10
15.0439743082
 20
1.6450055716
 10
15.0202125625
 20
1.691623288
 10
14.991709755
 20
1.7355039114
 10
14.9587780477
 20
1.7761668626
 10
14.9217781074
 20
1.8131668025
 10
14.881115156
 20
1.8460985094
 10
14.8372345326
 20
1.8746013164
 10
14.7906168162
 20
1.8983630617
 10
14.7417725629
 20
1.9171235072
 10
14.6912367133
 20
1.9306771894
 10
14.6395627341
 20
1.938875669
 10
14.587316557
 20
1.9416291565
  0
LINE
  5
3DB
100
AcDbEntity
  8
RACCORDO
100
AcDbLine
 62
250
  6
CONTINUOUS
 10
14.587316557
 20
1.9416291565
 11
14.587316557
 21
-41.6555874575
  0
LINE
  5
3DC
100
AcDbEntity
  8
RACCORDO
100
AcDbLine
 62
250
  6
CONTINUOUS
 10
14.587316557
 20
2.5444125425
 11
14.587316557
 21
46.1416291565
  0
LINE
  5
3DD
100
AcDbEntity
  8
RACCORDO
100
AcDbLine
 62
250
  6
CONTINUOUS
 10
15.0872404045
 20
-41.1556636099
 11
15.0872404045
 21
1.4417053089
  0
LINE
  5
3DE
100
AcDbEntity
  8
RACCORDO
100
AcDbLine
 62
250
  6
CONTINUOUS
 10
15.0872404045
 20
3.0443363901
 11
15.0872404045
 21
45.6417053089
  0
LINE
  5
3DF
100
AcDbEntity
  8
RACCORDO
100
AcDbLine
 62
7
  6
CONTINUOUS
 10
15.1851410846
 20
-41.2535642899
 11
15.1851410846
 21
1.5396059889
  0
LINE
  5
3E0
100
AcDbEntity
  8
RACCORDO
100
AcDbLine
 62
7
  6
CONTINUOUS
 10
15.1851410846
 20
2.9464357101
 11
15.1851410846
 21
45.7396059889
  0
LWPOLYLINE
  5
3E1
100
AcDbEntity
  8
0
100
AcDbPolyline
 62
7
  6
CONTINUOUS
 90
13
 70
0
 43
0.3500000019
 10
20.7275283203
 20
2.6715922699
 10
20.5132431641
 20
2.3858779449
 10
19.8703876953
 20
2.3858779449
 10
19.4418173828
 20
2.6715922699
 10
19.4418173828
 20
3.314449585
 10
19.8703876953
 20
3.6001635742
 10
20.5132431641
 20
3.6001635742
 10
20.7275283203
 20
3.314449585
 10
21.1560986328
 20
3.7430209045
 10
22.0132392578
 20
3.7430209045
 10
22.4418203125
 20
3.314449585
 10
22.4418203125
 20
2.6715922699
 10
22.0132392578
 20
2.2430207825
  0
LWPOLYLINE
  5
3E2
100
AcDbEntity
  8
0
100
AcDbPolyline
 62
7
  6
CONTINUOUS
 90
13
 70
0
 43
0.3500000019
 10
20.7275283203
 20
0.3144494247
 10
20.5132431641
 20
0.0287351365
 10
19.8703876953
 20
0.0287351365
 10
19.4418173828
 20
0.3144494247
 10
19.4418173828
 20
0.957306572
 10
19.8703876953
 20
1.243020813
 10
20.5132431641
 20
1.243020813
 10
20.7275283203
 20
0.957306572
 10
21.1560986328
 20
1.3858779755
 10
22.0132392578
 20
1.3858779755
 10
22.4418203125
 20
0.957306572
 10
22.4418203125
 20
0.3144494247
 10
22.0132392578
 20
-0.1141220102
  0
LWPOLYLINE
  5
3E3
100
AcDbEntity
  8
RACCORDO
100
AcDbPolyline
 62
250
  6
CONTINUOUS
 90
16
 70
0
 10
15.0872404045
 20
45.6417053089
 10
15.0844869169
 20
45.6939514874
 10
15.076288437
 20
45.7456254676
 10
15.0627347543
 20
45.7961613179
 10
15.0439743082
 20
45.8450055716
 10
15.0202125625
 20
45.891623288
 10
14.991709755
 20
45.9355039114
 10
14.9587780477
 20
45.9761668626
 10
14.9217781074
 20
46.0131668025
 10
14.881115156
 20
46.0460985094
 10
14.8372345326
 20
46.0746013164
 10
14.7906168162
 20
46.0983630617
 10
14.7417725629
 20
46.1171235072
 10
14.6912367133
 20
46.1306771894
 10
14.6395627341
 20
46.138875669
 10
14.587316557
 20
46.1416291565
  0
LWPOLYLINE
  5
3E4
100
AcDbEntity
  8
RACCORDO
100
AcDbPolyline
 62
7
  6
CONTINUOUS
 90
5
 70
0
 10
-6.0876577122
 20
-42.0061296564
 10
-6.1078629739
 20
-42.0352098562
 10
-6.1331371968
 20
-42.0604840791
 10
-6.1622173965
 20
-42.0806893407
 10
-6.1938820331
 20
-42.09526123
  0
LINE
  5
3E5
100
AcDbEntity
  8
RACCORDO
100
AcDbLine
 62
250
  6
CONTINUOUS
 10
-15.2099762094
 20
-41.1556636099
 11
-15.3078768894
 21
-41.2535642899
  0
LINE
  5
3E6
100
AcDbEntity
  8
RACCORDO
100
AcDbLine
 62
250
  6
CONTINUOUS
 10
-14.7100523618
 20
-41.6555874575
 11
-14.8079530419
 21
-41.7534881375
  0
LINE
  5
3E7
100
AcDbEntity
  8
RACCORDO
100
AcDbLine
 62
250
  6
CONTINUOUS
 10
-10.0422809551
 20
-41.8879226641
 11
-10.0613679024
 21
-41.9070096115
  0
LINE
  5
3E8
100
AcDbEntity
  8
RACCORDO
100
AcDbLine
 62
250
  6
CONTINUOUS
 10
-9.8423114161
 20
-42.0878922032
 11
-9.8613983634
 21
-42.1069791505
  0
LINE
  5
3E9
100
AcDbEntity
  8
RACCORDO
100
AcDbLine
 62
250
  6
CONTINUOUS
 10
-15.2099762094
 20
45.6417053089
 11
-15.3078768894
 21
45.7396059889
  0
LINE
  5
3EA
100
AcDbEntity
  8
RACCORDO
100
AcDbLine
 62
250
  6
CONTINUOUS
 10
-14.7100523618
 20
46.1416291565
 11
-14.8079530419
 21
46.2395298365
  0
LWPOLYLINE
  5
3EB
100
AcDbEntity
  8
0
100
AcDbPolyline
 62
7
  6
CONTINUOUS
 90
10
 70
0
 43
0.3500000019
 10
0.9029179688
 20
55.5024013672
 10
0.9743481445
 20
55.3595410156
 10
0.9743481445
 20
55.2881162109
 10
0.831487793
 20
55.1452558594
 10
0.7600629883
 20
55.1452558594
 10
0.6886328125
 20
55.2166860352
 10
0.6886328125
 20
55.2881162109
 10
0.7600629883
 20
55.4309711914
 10
0.831487793
 20
55.5024013672
 10
0.9029179688
 20
55.5024013672
  0
LWPOLYLINE
  5
3EC
100
AcDbEntity
  8
RACCORDO
100
AcDbPolyline
 62
250
  6
CONTINUOUS
 90
16
 70
0
 10
-14.7100523618
 20
46.1416291565
 10
-14.7622985403
 20
46.1388756688
 10
-14.8139725205
 20
46.1306771889
 10
-14.8645083709
 20
46.1171235062
 10
-14.9133526245
 20
46.0983630601
 10
-14.959970341
 20
46.0746013144
 10
-15.0038509643
 20
46.0460985069
 10
-15.0445139155
 20
46.0131667996
 10
-15.0815138555
 20
45.9761668593
 10
-15.1144455624
 20
45.935503908
 10
-15.1429483694
 20
45.8916232845
 10
-15.1667101146
 20
45.8450055682
 10
-15.1854705602
 20
45.7961613148
 10
-15.1990242424
 20
45.7456254652
 10
-15.2072227219
 20
45.693951486
 10
-15.2099762094
 20
45.6417053089
  0
LINE
  5
3ED
100
AcDbEntity
  8
RACCORDO
100
AcDbLine
 62
250
  6
CONTINUOUS
 10
-15.2099762094
 20
45.6417053089
 11
15.0872404045
 21
45.6417053089
  0
LINE
  5
3EE
100
AcDbEntity
  8
RACCORDO
100
AcDbLine
 62
250
  6
CONTINUOUS
 10
14.587316557
 20
46.1416291565
 11
-14.7100523618
 21
46.1416291565
  0
LINE
  5
3EF
100
AcDbEntity
  8
RACCORDO
100
AcDbLine
 62
7
  6
CONTINUOUS
 10
14.685217237
 20
46.2395298365
 11
-14.8079530419
 21
46.2395298365
  0
LWPOLYLINE
  5
3F0
100
AcDbEntity
  8
0
100
AcDbPolyline
 62
7
  6
CONTINUOUS
 90
6
 70
0
 43
0.3500000019
 10
-4.2399418945
 20
55.0024008789
 10
-3.1685107422
 20
55.0024008789
 10
-2.9542255859
 20
55.2166860352
 10
-2.9542255859
 20
56.2881171875
 10
-3.3827958984
 20
56.7166875
 10
-3.8113662109
 20
56.7166875
  0
LWPOLYLINE
  5
3F1
100
AcDbEntity
  8
0
100
AcDbPolyline
 62
7
  6
CONTINUOUS
 90
8
 70
0
 43
0.3500000019
 10
1.97434375
 20
55.0024008789
 10
2.8314897461
 20
55.0024008789
 10
3.2600600586
 20
55.4309711914
 10
3.2600600586
 20
56.2881171875
 10
2.8314897461
 20
56.7166875
 10
1.97434375
 20
56.7166875
 10
1.97434375
 20
58.0023984375
 10
3.2600600586
 20
58.0023984375
  0
LWPOLYLINE
  5
3F2
100
AcDbEntity
  8
0
100
AcDbPolyline
 62
7
  6
CONTINUOUS
 90
3
 70
0
 43
0.3500000019
 10
-42.9793986816
 20
67.1494248047
 10
-42.1222553711
 20
68.0065708008
 10
-42.1222553711
 20
65.0065678711
  0
LINE
  5
3F3
100
AcDbEntity
  8
RACCORDO
100
AcDbLine
 62
7
  6
CONTINUOUS
 10
-38.217969487
 20
-42.1069791505
 11
-38.2044790057
 21
-42.1067436733
  0
LINE
  5
3F4
100
AcDbEntity
  8
RACCORDO
100
AcDbLine
 62
250
  6
CONTINUOUS
 10
-38.217969487
 20
-41.9070096115
 11
-38.2044790057
 21
-41.9067741342
  0
LINE
  5
3F5
100
AcDbEntity
  8
RACCORDO
100
AcDbLine
 62
250
  6
CONTINUOUS
 10
-38.007969487
 20
-41.9067741342
 11
-38.2044790057
 21
-41.9067741342
  0
LINE
  5
3F6
100
AcDbEntity
  8
RACCORDO
100
AcDbLine
 62
250
  6
CONTINUOUS
 10
-39.3114599683
 20
-41.8879226641
 11
-39.507969487
 21
-41.8879226641
  0
LINE
  5
3F7
100
AcDbEntity
  8
RACCORDO
100
AcDbLine
 62
250
  6
CONTINUOUS
 10
-44.307969487
 20
-41.1556636099
 11
-43.8166956902
 21
-41.1556636099
  0
LINE
  5
3F8
100
AcDbEntity
  8
RACCORDO
100
AcDbLine
 62
7
  6
CONTINUOUS
 10
-39.3114599683
 20
-42.0878922032
 11
-38.217969487
 21
-42.1069791505
  0
LINE
  5
3F9
100
AcDbEntity
  8
RACCORDO
100
AcDbLine
 62
250
  6
CONTINUOUS
 10
-39.3114599683
 20
-41.8879226641
 11
-38.217969487
 21
-41.9070096115
  0
LINE
  5
3FA
100
AcDbEntity
  8
RACCORDO
100
AcDbLine
 62
7
  6
CONTINUOUS
 10
-43.8166956902
 20
-41.6555874575
 11
-38.207969487
 21
-41.7534881375
  0
LINE
  5
3FB
100
AcDbEntity
  8
RACCORDO
100
AcDbLine
 62
7
  6
CONTINUOUS
 10
-38.207969487
 20
-41.5034881375
 11
-38.007969487
 21
-41.5069791505
  0
LINE
  5
3FC
100
AcDbEntity
  8
RACCORDO
100
AcDbLine
 62
250
  6
CONTINUOUS
 10
-43.8166956902
 20
-41.1556636099
 11
-38.007969487
 21
-41.2570172267
  0
LINE
  5
3FD
100
AcDbEntity
  8
DRAFT
100
AcDbLine
 62
7
  6
CONTINUOUS
 10
-36.507969487
 20
-37.8267994102
 11
-38.007969487
 21
-37.8006168852
  0
LINE
  5
3FE
100
AcDbEntity
  8
RACCORDO
100
AcDbLine
 62
7
  6
CONTINUOUS
 10
-38.007969487
 20
-39.4545979963
 11
-36.507969487
 21
-39.5069791505
  0
LINE
  5
3FF
100
AcDbEntity
  8
RACCORDO
100
AcDbLine
 62
250
  6
CONTINUOUS
 10
-38.007969487
 20
-38.9549025828
 11
-36.507969487
 21
-39.007283737
  0
LWPOLYLINE
  5
400
100
AcDbEntity
  8
RACCORDO
100
AcDbPolyline
 62
250
  6
CONTINUOUS
 90
19
 70
0
 10
-36.1184398676
 20
-35.5481388035
 10
-36.1352198927
 20
-35.549478845
 10
-36.1515691973
 20
-35.5521076049
 10
-36.1674877813
 20
-35.5560250832
 10
-36.1830618946
 20
-35.5612772905
 10
-36.1982052873
 20
-35.5678182161
 10
-36.2126592105
 20
-35.5755098288
 10
-36.2264043197
 20
-35.5843453194
 10
-36.2394599593
 20
-35.5943314971
 10
-36.2516254141
 20
-35.6053507578
 10
-36.2628996331
 20
-35.6173610492
 10
-36.2732836672
 20
-35.6304044237
 10
-36.2825799543
 20
-35.6444894344
 10
-36.2908581918
 20
-35.6597253764
 10
-36.2980486822
 20
-35.6760029545
 10
-36.3037447706
 20
-35.6930028361
 10
-36.3078109052
 20
-35.7106185769
 10
-36.3103826378
 20
-35.7289566212
 10
-36.3114599683
 20
-35.7480169689
  0
LINE
  5
401
100
AcDbEntity
  8
RACCORDO
100
AcDbLine
 62
7
  6
CONTINUOUS
 10
-35.5113397895
 20
-35.6221760746
 11
-33.7009895877
 21
-35.5589572525
  0
LINE
  5
402
100
AcDbEntity
  8
RACCORDO
100
AcDbLine
 62
250
  6
CONTINUOUS
 10
-35.2219070958
 20
-35.5168311892
 11
-36.1184398676
 21
-35.5481388035
  0
LINE
  5
403
100
AcDbEntity
  8
RACCORDO
100
AcDbLine
 62
250
  6
CONTINUOUS
 10
-34.9038987
 20
-35.4010855989
 11
-33.7009895877
 21
-35.3590790871
  0
LINE
  5
404
100
AcDbEntity
  8
RACCORDO
100
AcDbLine
 62
7
  6
CONTINUOUS
 10
-36.1219292857
 20
-35.3482606381
 11
-33.797499638
 21
-35.2670897662
  0
LINE
  5
405
100
AcDbEntity
  8
RACCORDO
100
AcDbLine
 62
250
  6
CONTINUOUS
 10
-36.1219292857
 20
-34.8485652246
 11
-33.797499638
 21
-34.7673943527
  0
LINE
  5
406
100
AcDbEntity
  8
RACCORDO
100
AcDbLine
 62
7
  6
CONTINUOUS
 10
-36.507969487
 20
-34.5069791505
 11
-34.4668167542
 21
-34.4357005264
  0
LINE
  5
407
100
AcDbEntity
  8
RACCORDO
100
AcDbLine
 62
250
  6
CONTINUOUS
 10
-36.507969487
 20
-35.7480169689
 11
-36.3114599683
 21
-35.7480169689
  0
LINE
  5
408
100
AcDbEntity
  8
RACCORDO
100
AcDbLine
 62
250
  6
CONTINUOUS
 10
-33.507969487
 20
-35.3590790871
 11
-33.7009895877
 21
-35.3590790871
  0
LINE
  5
409
100
AcDbEntity
  8
RACCORDO
100
AcDbLine
 62
250
  6
CONTINUOUS
 10
-36.507969487
 20
-34.8485652246
 11
-36.1219292857
 21
-34.8485652246
  0
LINE
  5
40A
100
AcDbEntity
  8
RACCORDO
100
AcDbLine
 62
250
  6
CONTINUOUS
 10
-33.797499638
 20
-34.7673943527
 11
-33.507969487
 21
-34.7673943527
  0
LINE
  5
40B
100
AcDbEntity
  8
RACCORDO
100
AcDbLine
 62
250
  6
CONTINUOUS
 10
-33.507969487
 20
-34.1548792139
 11
-33.7009895877
 21
-34.1548792139
  0
LINE
  5
40C
100
AcDbEntity
  8
RACCORDO
100
AcDbLine
 62
250
  6
CONTINUOUS
 10
-36.507969487
 20
-34.0635977263
 11
-36.3149493864
 21
-34.0635977263
  0
LINE
  5
40D
100
AcDbEntity
  8
DRAFT
100
AcDbLine
 62
7
  6
CONTINUOUS
 10
-33.836426766
 20
-34.1785218715
 11
-34.3088106142
 21
-34.162025864
  0
LINE
  5
40E
100
AcDbEntity
  8
RACCORDO
100
AcDbLine
 62
250
  6
CONTINUOUS
 10
-36.3149493864
 20
-34.0635977263
 11
-33.7009895877
 21
-34.1548792139
  0
LINE
  5
40F
100
AcDbEntity
  8
RACCORDO
100
AcDbLine
 62
7
  6
CONTINUOUS
 10
-36.3149493864
 20
-33.8637195609
 11
-33.7009895877
 21
-33.9550010485
  0
LINE
  5
410
100
AcDbEntity
  8
DRAFT
100
AcDbLine
 62
7
  6
CONTINUOUS
 10
-34.3088106142
 20
-33.351932437
 11
-33.836426766
 21
-33.3354364295
  0
LINE
  5
411
100
AcDbEntity
  8
DRAFT
100
AcDbLine
 62
7
  6
CONTINUOUS
 10
-36.507969487
 20
-33.6871588908
 11
-38.007969487
 21
-33.7133414158
  0
LINE
  5
412
100
AcDbEntity
  8
RACCORDO
100
AcDbLine
 62
7
  6
CONTINUOUS
 10
-37.3492432838
 20
-33.1739152756
 11
-38.007969487
 21
-33.1854133843
  0
LINE
  5
413
100
AcDbEntity
  8
RACCORDO
100
AcDbLine
 62
250
  6
CONTINUOUS
 10
-33.797499638
 20
-32.7465639483
 11
-33.507969487
 21
-32.7465639483
  0
LINE
  5
414
100
AcDbEntity
  8
RACCORDO
100
AcDbLine
 62
250
  6
CONTINUOUS
 10
-36.507969487
 20
-32.6653930764
 11
-36.1219292857
 21
-32.6653930751
  0
LINE
  5
415
100
AcDbEntity
  8
DRAFT
100
AcDbLine
 62
7
  6
CONTINUOUS
 10
-36.507969487
 20
-33.2866527609
 11
-38.007969487
 21
-33.2604701635
  0
LINE
  5
416
100
AcDbEntity
  8
RACCORDO
100
AcDbLine
 62
7
  6
CONTINUOUS
 10
-36.507969487
 20
-33.0069791505
 11
-34.4668167542
 21
-33.0782577746
  0
LINE
  5
417
100
AcDbEntity
  8
RACCORDO
100
AcDbLine
 62
250
  6
CONTINUOUS
 10
-33.797499638
 20
-32.7465639483
 11
-36.1219292857
 21
-32.6653930764
  0
LINE
  5
418
100
AcDbEntity
  8
RACCORDO
100
AcDbLine
 62
7
  6
CONTINUOUS
 10
-33.797499638
 20
-32.2468685348
 11
-36.1219292857
 21
-32.1656976629
  0
LINE
  5
419
100
AcDbEntity
  8
DRAFT
100
AcDbLine
 62
7
  6
CONTINUOUS
 10
-36.507969487
 20
-28.2273055401
 11
-38.007969487
 21
-28.2534881375
  0
LINE
  5
41A
100
AcDbEntity
  8
RACCORDO
100
AcDbLine
 62
7
  6
CONTINUOUS
 10
-37.3492432838
 20
-28.3400430254
 11
-38.007969487
 21
-28.3285449167
  0
LWPOLYLINE
  5
41B
100
AcDbEntity
  8
0
100
AcDbPolyline
 62
7
  6
CONTINUOUS
 90
3
 70
0
 43
0.3500000019
 10
-49.1651477051
 20
55.2468286133
 10
-49.2365765381
 20
55.032543457
 10
-49.3794328613
 20
54.746828125
  0
LWPOLYLINE
  5
41C
100
AcDbEntity
  8
RACCORDO
100
AcDbPolyline
 62
250
  6
CONTINUOUS
 90
12
 70
0
 10
-36.1219285021
 20
39.8343023097
 10
-36.1229433137
 20
39.832953671
 10
-36.1238545067
 20
39.8288458272
 10
-36.1246681089
 20
39.8220091771
 10
-36.1253967838
 20
39.8124934981
 10
-36.1260378945
 20
39.8003561228
 10
-36.1265739589
 20
39.7856513774
 10
-36.1270056627
 20
39.7684435069
 10
-36.127339425
 20
39.7488360971
 10
-36.1275652785
 20
39.7269622817
 10
-36.1276816474
 20
39.7030017632
 10
-36.1275905712
 20
39.6490950651
  0
LWPOLYLINE
  5
41D
100
AcDbEntity
  8
RACCORDO
100
AcDbPolyline
 62
250
  6
CONTINUOUS
 90
14
 70
0
 10
-36.3149486044
 20
40.8862804118
 10
-36.3155399595
 20
40.8855279643
 10
-36.3160610142
 20
40.883262633
 10
-36.3165139835
 20
40.8795458832
 10
-36.3169021504
 20
40.8744691693
 10
-36.3172242581
 20
40.8681001418
 10
-36.3174768681
 20
40.8604341198
 10
-36.3176630542
 20
40.8514905499
 10
-36.3177836387
 20
40.841355136
 10
-36.3178332953
 20
40.8300918262
 10
-36.3178137851
 20
40.8178466194
 10
-36.317723287
 20
40.8046453392
 10
-36.3175539782
 20
40.7903369917
 10
-36.3169859499
 20
40.7584189925
  0
LWPOLYLINE
  5
41E
100
AcDbEntity
  8
RACCORDO
100
AcDbPolyline
 62
250
  6
CONTINUOUS
 90
13
 70
0
 10
-36.3149443587
 20
38.5862802264
 10
-36.3155363362
 20
38.5855379708
 10
-36.3160579628
 20
38.583281513
 10
-36.3165114657
 20
38.5795721578
 10
-36.3169001573
 20
38.5745011355
 10
-36.3172227765
 20
38.568136061
 10
-36.3174758399
 20
38.5604725235
 10
-36.317662412
 20
38.551530173
 10
-36.3177833296
 20
38.5413946584
 10
-36.3178332519
 20
38.5301299122
 10
-36.3178139328
 20
38.517881818
 10
-36.3177235654
 20
38.504676457
 10
-36.3173069642
 20
38.4748867199
  0
LINE
  5
41F
100
AcDbEntity
  8
RACCORDO
100
AcDbLine
 62
7
  6
CONTINUOUS
 10
-33.836426766
 20
38.6645635705
 11
-33.5958374527
 21
38.9051528839
  0
LINE
  5
420
100
AcDbEntity
  8
DRAFT
100
AcDbLine
 62
7
  6
CONTINUOUS
 10
-36.507969487
 20
-21.8267994102
 11
-38.007969487
 21
-21.8006168852
  0
LWPOLYLINE
  5
421
100
AcDbEntity
  8
0
100
AcDbPolyline
 62
7
  6
CONTINUOUS
 90
3
 70
0
 43
0.3500000019
 10
-38.1936843262
 20
65.2922832031
 10
-38.2651118164
 20
65.0779980469
 10
-38.4079694824
 20
64.7922827148
  0
LINE
  5
422
100
AcDbEntity
  8
IMPORT_IGES
100
AcDbLine
 62
250
  6
CONTINUOUS
 10
-35.1745576926
 20
23.525701278
 11
-35.3463767065
 21
23.4233380703
  0
LINE
  5
423
100
AcDbEntity
  8
RACCORDO
100
AcDbLine
 62
7
  6
CONTINUOUS
 10
-33.836426766
 20
-34.1785218715
 11
-33.5958374527
 21
-34.4191111849
  0
LINE
  5
424
100
AcDbEntity
  8
DRAFT
100
AcDbLine
 62
7
  6
CONTINUOUS
 10
-36.507969487
 20
-17.6871588908
 11
-38.007969487
 21
-17.7133414158
  0
LWPOLYLINE
  5
425
100
AcDbEntity
  8
RACCORDO
100
AcDbPolyline
 62
250
  6
CONTINUOUS
 90
7
 70
0
 10
-43.8166956902
 20
-41.6555874575
 10
-43.8175595884
 20
-41.6528339698
 10
-43.818318456
 20
-41.6446354899
 10
-43.8189639822
 20
-41.6310818072
 10
-43.819489097
 20
-41.6123213611
 10
-43.8198880494
 20
-41.5885596154
 10
-43.8201564702
 20
-41.5600568079
  0
LWPOLYLINE
  5
426
100
AcDbEntity
  8
0
100
AcDbPolyline
 62
7
  6
CONTINUOUS
 90
4
 70
0
 43
0.3500000019
 10
-52.2365767822
 20
57.3182553711
 10
-52.2365767822
 20
57.9611108398
 10
-50.7365766602
 20
57.9611108398
 10
-51.5937186279
 20
54.9611132813
  0
LINE
  5
427
100
AcDbEntity
  8
DRAFT
100
AcDbLine
 62
7
  6
CONTINUOUS
 10
-34.3088106142
 20
37.837974136
 11
-34.4668167542
 21
37.5642994736
  0
LWPOLYLINE
  5
428
100
AcDbEntity
  8
RACCORDO
100
AcDbPolyline
 62
250
  6
CONTINUOUS
 90
12
 70
0
 10
-33.7009895877
 20
-33.9550010485
 10
-33.7002996206
 20
-33.9561197248
 10
-33.6996935553
 20
-33.9594126618
 10
-33.6991780217
 20
-33.9648438374
 10
-33.6987586594
 20
-33.9723538382
 10
-33.6984400557
 20
-33.9818605119
 10
-33.6982256958
 20
-33.993259869
 10
-33.6981179248
 20
-34.0064272039
 10
-33.6981179217
 20
-34.0212184858
 10
-33.6982256869
 20
-34.0374719512
 10
-33.698440043
 20
-34.0550098426
 10
-33.6987586457
 20
-34.0736402898
  0
LINE
  5
429
100
AcDbEntity
  8
DRAFT
100
AcDbLine
 62
7
  6
CONTINUOUS
 10
-34.4668167542
 20
-33.0782577746
 11
-34.3088106142
 21
-33.351932437
  0
LWPOLYLINE
  5
42A
100
AcDbEntity
  8
0
100
AcDbPolyline
 62
7
  6
CONTINUOUS
 90
4
 70
0
 43
0.3500000019
 10
-48.1651467285
 20
55.3896835938
 10
-48.1651467285
 20
56.2468295898
 10
-47.736576416
 20
56.6753999023
 10
-47.0937182617
 20
56.6753999023
  0
LWPOLYLINE
  5
42B
100
AcDbEntity
  8
RACCORDO
100
AcDbPolyline
 62
250
  6
CONTINUOUS
 90
11
 70
0
 10
-33.797499638
 20
36.7329102338
 10
-33.7966385568
 20
36.7348152179
 10
-33.7958618834
 20
36.7404093581
 10
-33.7951766433
 20
36.7495863525
 10
-33.7945913059
 20
36.7621865474
 10
-33.7941066153
 20
36.778072445
 10
-33.7937189015
 20
36.7971978174
 10
-33.7934327931
 20
36.8194391092
 10
-33.7932518992
 20
36.8446296938
 10
-33.793174567
 20
36.8727250835
 10
-33.7933424929
 20
36.9368117209
  0
LINE
  5
42C
100
AcDbEntity
  8
RACCORDO
100
AcDbLine
 62
7
  6
CONTINUOUS
 10
-37.3492432838
 20
-10.1739152756
 11
-38.007969487
 21
-10.1854133843
  0
LINE
  5
42D
100
AcDbEntity
  8
DRAFT
100
AcDbLine
 62
7
  6
CONTINUOUS
 10
-36.507969487
 20
-10.2866527609
 11
-38.007969487
 21
-10.2604701635
  0
LWPOLYLINE
  5
42E
100
AcDbEntity
  8
IMPORT_IGES
100
AcDbPolyline
 62
7
  6
CONTINUOUS
 90
10
 70
0
 10
-35.9865015804
 20
22.445878643
 10
-35.959012871
 20
22.4945868163
 10
-35.9275490618
 20
22.5401811542
 10
-35.8921101527
 20
22.5826616567
 10
-35.8521569546
 20
22.6224788318
 10
-35.8082286565
 20
22.6591821715
 10
-35.7619428262
 20
22.691420152
 10
-35.713838653
 20
22.7187422656
 10
-35.6633769475
 20
22.7415990201
 10
-35.6105577099
 20
22.7599904155
  0
LWPOLYLINE
  5
42F
100
AcDbEntity
  8
RACCORDO
100
AcDbPolyline
 62
250
  6
CONTINUOUS
 90
6
 70
0
 10
-39.3114599683
 20
-42.0878922032
 10
-39.312018701
 20
-42.0847714671
 10
-39.312451387
 20
-42.075530927
 10
-39.3127446782
 20
-42.0604625264
 10
-39.3128898212
 20
-42.0399560945
 10
-39.3128810757
 20
-42.0147011098
  0
LINE
  5
430
100
AcDbEntity
  8
RACCORDO
100
AcDbLine
 62
250
  6
CONTINUOUS
 10
-43.8166956902
 20
1.4417053089
 11
-43.8189639822
 21
1.5961613179
  0
LINE
  5
431
100
AcDbEntity
  8
RACCORDO
100
AcDbLine
 62
250
  6
CONTINUOUS
 10
-43.8166956902
 20
45.6417053089
 11
-43.8189639822
 21
45.7961613179
  0
LINE
  5
432
100
AcDbEntity
  8
RACCORDO
100
AcDbLine
 62
250
  6
CONTINUOUS
 10
-43.8189639822
 20
1.5961613179
 11
-43.8198880494
 21
1.691623288
  0
LINE
  5
433
100
AcDbEntity
  8
RACCORDO
100
AcDbLine
 62
250
  6
CONTINUOUS
 10
-43.8189639822
 20
45.7961613179
 11
-43.8198880494
 21
45.891623288
  0
LINE
  5
434
100
AcDbEntity
  8
RACCORDO
100
AcDbLine
 62
250
  6
CONTINUOUS
 10
-43.8198880494
 20
1.691623288
 11
-43.8202914196
 21
1.7761668626
  0
LINE
  5
435
100
AcDbEntity
  8
RACCORDO
100
AcDbLine
 62
250
  6
CONTINUOUS
 10
-43.8198880494
 20
45.891623288
 11
-43.8202914196
 21
45.9761668626
  0
LINE
  5
436
100
AcDbEntity
  8
RACCORDO
100
AcDbLine
 62
7
  6
CONTINUOUS
 10
-44.307969487
 20
-41.1556636099
 11
-44.307969487
 21
1.4417053089
  0
LINE
  5
437
100
AcDbEntity
  8
RACCORDO
100
AcDbLine
 62
7
  6
CONTINUOUS
 10
-44.307969487
 20
3.0443363901
 11
-44.307969487
 21
45.6417053089
  0
LINE
  5
438
100
AcDbEntity
  8
RACCORDO
100
AcDbLine
 62
250
  6
CONTINUOUS
 10
-43.8201564702
 20
-41.5600568079
 11
-43.8202914196
 21
-41.4901251603
  0
LINE
  5
439
100
AcDbEntity
  8
RACCORDO
100
AcDbLine
 62
250
  6
CONTINUOUS
 10
-43.8201564702
 20
2.6399431921
 11
-43.8202914196
 21
2.7098748397
  0
LINE
  5
43A
100
AcDbEntity
  8
RACCORDO
100
AcDbLine
 62
250
  6
CONTINUOUS
 10
-43.8166956902
 20
-41.1556636099
 11
-43.8166956902
 21
1.4417053089
  0
LINE
  5
43B
100
AcDbEntity
  8
RACCORDO
100
AcDbLine
 62
250
  6
CONTINUOUS
 10
-43.8166956902
 20
3.0443363901
 11
-43.8166956902
 21
45.6417053089
  0
LINE
  5
43C
100
AcDbEntity
  8
DRAFT
100
AcDbLine
 62
7
  6
CONTINUOUS
 10
-42.107969487
 20
1.9714550833
 11
-42.107969487
 21
2.5145866157
  0
LWPOLYLINE
  5
43D
100
AcDbEntity
  8
RACCORDO
100
AcDbPolyline
 62
250
  6
CONTINUOUS
 90
8
 70
0
 10
-43.8202914196
 20
45.9761668626
 10
-43.8201564702
 20
46.0460985094
 10
-43.8198880494
 20
46.0746013164
 10
-43.819489097
 20
46.0983630617
 10
-43.8189639821
 20
46.1171235072
 10
-43.818318456
 20
46.1306771894
 10
-43.8175595883
 20
46.138875669
 10
-43.8166956902
 20
46.1416291565
  0
LWPOLYLINE
  5
43E
100
AcDbEntity
  8
RACCORDO
100
AcDbPolyline
 62
250
  6
CONTINUOUS
 90
8
 70
0
 10
-43.8202914196
 20
1.7761668626
 10
-43.8201564702
 20
1.8460985094
 10
-43.8198880494
 20
1.8746013164
 10
-43.819489097
 20
1.8983630617
 10
-43.8189639821
 20
1.9171235072
 10
-43.818318456
 20
1.9306771894
 10
-43.8175595883
 20
1.938875669
 10
-43.8166956902
 20
1.9416291565
  0
LINE
  5
43F
100
AcDbEntity
  8
RACCORDO
100
AcDbLine
 62
250
  6
CONTINUOUS
 10
-43.8202914196
 20
2.7098748397
 11
-43.8198880494
 21
2.7944184145
  0
LINE
  5
440
100
AcDbEntity
  8
RACCORDO
100
AcDbLine
 62
250
  6
CONTINUOUS
 10
-43.8202914196
 20
-41.4901251603
 11
-43.8198880494
 21
-41.4055815855
  0
LINE
  5
441
100
AcDbEntity
  8
RACCORDO
100
AcDbLine
 62
250
  6
CONTINUOUS
 10
-43.8198880494
 20
2.7944184145
 11
-43.818318456
 21
2.9404162338
  0
LINE
  5
442
100
AcDbEntity
  8
RACCORDO
100
AcDbLine
 62
250
  6
CONTINUOUS
 10
-43.8198880494
 20
-41.4055815855
 11
-43.818318456
 21
-41.2595837662
  0
LINE
  5
443
100
AcDbEntity
  8
RACCORDO
100
AcDbLine
 62
250
  6
CONTINUOUS
 10
-43.818318456
 20
2.9404162338
 11
-43.8166956902
 21
3.0443363901
  0
LINE
  5
444
100
AcDbEntity
  8
RACCORDO
100
AcDbLine
 62
250
  6
CONTINUOUS
 10
-43.818318456
 20
-41.2595837662
 11
-43.8166956902
 21
-41.1556636099
  0
LINE
  5
445
100
AcDbEntity
  8
DRAFT
100
AcDbLine
 62
7
  6
CONTINUOUS
 10
-36.507969487
 20
-5.2273055401
 11
-38.007969487
 21
-5.2534881375
  0
LINE
  5
446
100
AcDbEntity
  8
RACCORDO
100
AcDbLine
 62
7
  6
CONTINUOUS
 10
-37.3492432838
 20
-5.3400430254
 11
-38.007969487
 21
-5.3285449167
  0
LINE
  5
447
100
AcDbEntity
  8
DRAFT
100
AcDbLine
 62
7
  6
CONTINUOUS
 10
-36.507969487
 20
-4.8267994102
 11
-38.007969487
 21
-4.8006168852
  0
LWPOLYLINE
  5
448
100
AcDbEntity
  8
RACCORDO
100
AcDbPolyline
 62
250
  6
CONTINUOUS
 90
7
 70
0
 10
-43.8166956902
 20
2.5444125425
 10
-43.8175595884
 20
2.5471660302
 10
-43.818318456
 20
2.5553645101
 10
-43.8189639822
 20
2.5689181928
 10
-43.819489097
 20
2.5876786389
 10
-43.8198880494
 20
2.6114403846
 10
-43.8201564702
 20
2.6399431921
  0
LWPOLYLINE
  5
449
100
AcDbEntity
  8
RACCORDO
100
AcDbPolyline
 62
250
  6
CONTINUOUS
 90
9
 70
0
 10
-38.2044790057
 20
-41.9067741342
 10
-38.2034961973
 20
-41.9751550288
 10
-38.203202062
 20
-42.0067413252
 10
-38.2030527265
 20
-42.035291344
 10
-38.2030527265
 20
-42.0599379428
 10
-38.203202062
 20
-42.0799325368
 10
-38.2034961973
 20
-42.0946678354
 10
-38.2039261986
 20
-42.1036962872
 10
-38.2044790057
 20
-42.1067436733
  0
LWPOLYLINE
  5
44A
100
AcDbEntity
  8
0
100
AcDbPolyline
 62
7
  6
CONTINUOUS
 90
13
 70
0
 43
0.3500000019
 10
-41.2651120605
 20
65.8637138672
 10
-41.2651120605
 20
67.1494248047
 10
-41.0508269043
 20
67.5779951172
 10
-40.6222539062
 20
68.0065708008
 10
-40.40796875
 20
68.0065708008
 10
-39.9793984375
 20
67.5779951172
 10
-39.7651132812
 20
67.1494248047
 10
-39.7651132812
 20
65.8637138672
 10
-39.9793984375
 20
65.4351381836
 10
-40.40796875
 20
65.0065678711
 10
-40.6222539062
 20
65.0065678711
 10
-41.0508269043
 20
65.4351381836
 10
-41.2651120605
 20
65.8637138672
  0
LINE
  5
44B
100
AcDbEntity
  8
DRAFT
100
AcDbLine
 62
7
  6
CONTINUOUS
 10
-40.707969487
 20
1.9958921742
 11
-40.707969487
 21
2.4901495248
  0
LINE
  5
44C
100
AcDbEntity
  8
RACCORDO
100
AcDbLine
 62
7
  6
CONTINUOUS
 10
-39.507969487
 20
-41.8879226641
 11
-39.507969487
 21
-41.7307965531
  0
LINE
  5
44D
100
AcDbEntity
  8
RACCORDO
100
AcDbLine
 62
250
  6
CONTINUOUS
 10
-39.3114599683
 20
-41.8879226641
 11
-39.3114599683
 21
-41.7342266395
  0
LINE
  5
44E
100
AcDbEntity
  8
RACCORDO
100
AcDbLine
 62
250
  6
CONTINUOUS
 10
-39.3128810757
 20
-42.0147011098
 11
-39.312421948
 21
-41.9544430969
  0
LINE
  5
44F
100
AcDbEntity
  8
RACCORDO
100
AcDbLine
 62
250
  6
CONTINUOUS
 10
-39.312421948
 20
-41.9544430969
 11
-39.3114599683
 21
-41.8879226641
  0
LWPOLYLINE
  5
450
100
AcDbEntity
  8
IMPORT_IGES
100
AcDbPolyline
 62
7
  6
CONTINUOUS
 90
10
 70
0
 10
-35.4034487872
 20
23.9099002737
 10
-35.4169715935
 20
23.8556301302
 10
-35.4254669721
 20
23.8008885267
 10
-35.428934923
 20
23.7456754632
 10
-35.4272935921
 20
23.6892931007
 10
-35.4206248334
 20
23.6324392781
 10
-35.4091742093
 20
23.5772075121
 10
-35.3930235738
 20
23.5242956416
 10
-35.3720910729
 20
23.4730058277
 10
-35.3463767065
 20
23.4233380704
  0
LINE
  5
451
100
AcDbEntity
  8
DRAFT
100
AcDbLine
 62
7
  6
CONTINUOUS
 10
-36.507969487
 20
-0.6871588908
 11
-38.007969487
 21
-0.7133414158
  0
LINE
  5
452
100
AcDbEntity
  8
RACCORDO
100
AcDbLine
 62
250
  6
CONTINUOUS
 10
-36.1201262697
 20
-35.496427344
 11
-36.1184398676
 21
-35.5481388035
  0
LINE
  5
453
100
AcDbEntity
  8
RACCORDO
100
AcDbLine
 62
250
  6
CONTINUOUS
 10
-36.3161215594
 20
-34.0266086911
 11
-36.314948379
 21
-34.0635977615
  0
LINE
  5
454
100
AcDbEntity
  8
RACCORDO
100
AcDbLine
 62
250
  6
CONTINUOUS
 10
-36.1214601815
 20
-35.4482365591
 11
-36.1201262697
 21
-35.496427344
  0
LINE
  5
455
100
AcDbEntity
  8
RACCORDO
100
AcDbLine
 62
250
  6
CONTINUOUS
 10
-36.123881606
 20
-32.5902076091
 11
-36.1219284104
 21
-32.665393107
  0
LINE
  5
456
100
AcDbEntity
  8
RACCORDO
100
AcDbLine
 62
250
  6
CONTINUOUS
 10
-36.3169859499
 20
-33.9915810075
 11
-36.3161215594
 21
-34.0266086911
  0
LINE
  5
457
100
AcDbEntity
  8
RACCORDO
100
AcDbLine
 62
250
  6
CONTINUOUS
 10
-36.3173069642
 20
38.4748867199
 11
-36.3165917857
 21
38.4412178875
  0
LINE
  5
458
100
AcDbEntity
  8
RACCORDO
100
AcDbLine
 62
250
  6
CONTINUOUS
 10
-36.1260922522
 20
-32.4802691932
 11
-36.123881606
 21
-32.5902076091
  0
LINE
  5
459
100
AcDbEntity
  8
RACCORDO
100
AcDbLine
 62
250
  6
CONTINUOUS
 10
-36.1270604641
 20
-32.4123561533
 11
-36.1260922522
 21
-32.4802691932
  0
LINE
  5
45A
100
AcDbEntity
  8
RACCORDO
100
AcDbLine
 62
250
  6
CONTINUOUS
 10
-36.1270604641
 20
39.5876438467
 11
-36.1260922522
 21
39.5197308068
  0
LINE
  5
45B
100
AcDbEntity
  8
RACCORDO
100
AcDbLine
 62
250
  6
CONTINUOUS
 10
-36.1275905712
 20
-32.3509049349
 11
-36.1270604641
 21
-32.4123561533
  0
LINE
  5
45C
100
AcDbEntity
  8
RACCORDO
100
AcDbLine
 62
250
  6
CONTINUOUS
 10
-36.1275905712
 20
39.6490950651
 11
-36.1270604641
 21
39.5876438467
  0
LWPOLYLINE
  5
45D
100
AcDbEntity
  8
RACCORDO
100
AcDbPolyline
 62
250
  6
CONTINUOUS
 90
11
 70
0
 10
-36.1276889249
 20
-35.2132836631
 10
-36.1275885674
 20
-35.2376094706
 10
-36.1273795878
 20
-35.2598218939
 10
-36.1270619682
 20
-35.2798000187
 10
-36.1266370909
 20
-35.2974913889
 10
-36.1260980364
 20
-35.3128014343
 10
-36.1254508671
 20
-35.3255233635
 10
-36.1247143295
 20
-35.3354759832
 10
-36.1238896117
 20
-35.3425927159
 10
-36.1229632465
 20
-35.3468612529
 10
-36.1219284039
 20
-35.3482606073
  0
LWPOLYLINE
  5
45E
100
AcDbEntity
  8
RACCORDO
100
AcDbPolyline
 62
250
  6
CONTINUOUS
 90
11
 70
0
 10
-36.1276889249
 20
36.7867163369
 10
-36.1275885674
 20
36.7623905294
 10
-36.1273795878
 20
36.7401781061
 10
-36.1270619682
 20
36.7201999813
 10
-36.1266370909
 20
36.7025086111
 10
-36.1260980364
 20
36.6871985657
 10
-36.1254508671
 20
36.6744766365
 10
-36.1247143295
 20
36.6645240168
 10
-36.1238896117
 20
36.6574072841
 10
-36.1229632465
 20
36.6531387471
 10
-36.1219284039
 20
36.6517393927
  0
LINE
  5
45F
100
AcDbEntity
  8
RACCORDO
100
AcDbLine
 62
7
  6
CONTINUOUS
 10
-38.207969487
 20
2.0395298365
 11
-38.207969487
 21
-41.7534881375
  0
LINE
  5
460
100
AcDbEntity
  8
RACCORDO
100
AcDbLine
 62
7
  6
CONTINUOUS
 10
-38.207969487
 20
2.4465118625
 11
-38.207969487
 21
46.2395298365
  0
LINE
  5
461
100
AcDbEntity
  8
RACCORDO
100
AcDbLine
 62
250
  6
CONTINUOUS
 10
-38.2044790057
 20
-41.7534881375
 11
-38.2044790057
 21
-41.9067741342
  0
LINE
  5
462
100
AcDbEntity
  8
RACCORDO
100
AcDbLine
 62
7
  6
CONTINUOUS
 10
-38.007969487
 20
1.7930208495
 11
-38.007969487
 21
-41.9067741342
  0
LINE
  5
463
100
AcDbEntity
  8
RACCORDO
100
AcDbLine
 62
7
  6
CONTINUOUS
 10
-38.007969487
 20
2.6930208495
 11
-38.007969487
 21
45.9930208495
  0
LWPOLYLINE
  5
464
100
AcDbEntity
  8
0
100
AcDbPolyline
 62
7
  6
CONTINUOUS
 90
4
 70
0
 43
0.3500000019
 10
-37.1936833496
 20
65.4351381836
 10
-37.1936833496
 20
66.2922841797
 10
-36.7651130371
 20
66.7208544922
 10
-36.1222548828
 20
66.7208544922
  0
LINE
  5
465
100
AcDbEntity
  8
RACCORDO
100
AcDbLine
 62
7
  6
CONTINUOUS
 10
-36.857969487
 20
-32.6739914281
 11
-36.857969487
 21
-28.8399668729
  0
LINE
  5
466
100
AcDbEntity
  8
RACCORDO
100
AcDbLine
 62
7
  6
CONTINUOUS
 10
-36.857969487
 20
-9.6739914281
 11
-36.857969487
 21
-5.8399668729
  0
LINE
  5
467
100
AcDbEntity
  8
RACCORDO
100
AcDbLine
 62
7
  6
CONTINUOUS
 10
-36.857969487
 20
10.3260085719
 11
-36.857969487
 21
14.1600331271
  0
LINE
  5
468
100
AcDbEntity
  8
RACCORDO
100
AcDbLine
 62
7
  6
CONTINUOUS
 10
-36.857969487
 20
33.3260085719
 11
-36.857969487
 21
37.1600331271
  0
LINE
  5
469
100
AcDbEntity
  8
DRAFT
100
AcDbLine
 62
7
  6
CONTINUOUS
 10
-36.507969487
 20
-37.8267994102
 11
-36.507969487
 21
42.3128411092
  0
LINE
  5
46A
100
AcDbEntity
  8
RACCORDO
100
AcDbLine
 62
7
  6
CONTINUOUS
 10
-36.507969487
 20
-37.8267994102
 11
-36.507969487
 21
-39.5069791505
  0
LINE
  5
46B
100
AcDbEntity
  8
RACCORDO
100
AcDbLine
 62
7
  6
CONTINUOUS
 10
-36.507969487
 20
42.3128411092
 11
-36.507969487
 21
43.9930208495
  0
LINE
  5
46C
100
AcDbEntity
  8
IMPORT_IGES
100
AcDbLine
 62
7
  6
CONTINUOUS
 10
-36.432969487
 20
18.1930208495
 11
-36.432969487
 21
26.2430208495
  0
LINE
  5
46D
100
AcDbEntity
  8
RACCORDO
100
AcDbLine
 62
250
  6
CONTINUOUS
 10
-36.3149493864
 20
40.6864022737
 11
-36.3149493864
 21
40.3994377025
  0
LINE
  5
46E
100
AcDbEntity
  8
RACCORDO
100
AcDbLine
 62
250
  6
CONTINUOUS
 10
-36.3149493864
 20
38.9862804391
 11
-36.3149493864
 21
38.7861586045
  0
LINE
  5
46F
100
AcDbEntity
  8
RACCORDO
100
AcDbLine
 62
250
  6
CONTINUOUS
 10
-36.3149493864
 20
38.3864022737
 11
-36.3149493864
 21
37.7996394253
  0
LINE
  5
470
100
AcDbEntity
  8
RACCORDO
100
AcDbLine
 62
250
  6
CONTINUOUS
 10
-36.3149493864
 20
-34.0635977263
 11
-36.3149493864
 21
-34.5002387401
  0
LINE
  5
471
100
AcDbEntity
  8
RACCORDO
100
AcDbLine
 62
250
  6
CONTINUOUS
 10
-36.3114599683
 20
40.3994377025
 11
-36.3114599683
 21
40.2340586679
  0
LINE
  5
472
100
AcDbEntity
  8
RACCORDO
100
AcDbLine
 62
250
  6
CONTINUOUS
 10
-36.3114599683
 20
-35.7480169689
 11
-36.3114599683
 21
-35.9133960035
  0
LINE
  5
473
100
AcDbEntity
  8
RACCORDO
100
AcDbLine
 62
250
  6
CONTINUOUS
 10
-36.1219292857
 20
39.3346069236
 11
-36.1219292857
 21
38.9795400286
  0
LINE
  5
474
100
AcDbEntity
  8
RACCORDO
100
AcDbLine
 62
250
  6
CONTINUOUS
 10
-36.1219292857
 20
37.5065016704
 11
-36.1219292857
 21
37.1514347754
  0
LINE
  5
475
100
AcDbEntity
  8
RACCORDO
100
AcDbLine
 62
250
  6
CONTINUOUS
 10
-36.1219292857
 20
-32.6653930764
 11
-36.1219292857
 21
-33.0204599714
  0
LINE
  5
476
100
AcDbEntity
  8
RACCORDO
100
AcDbLine
 62
250
  6
CONTINUOUS
 10
-36.1219292857
 20
-34.4934983296
 11
-36.1219292857
 21
-34.8485652246
  0
LINE
  5
477
100
AcDbEntity
  8
RACCORDO
100
AcDbLine
 62
7
  6
CONTINUOUS
 10
-38.217969487
 20
-41.7534881375
 11
-38.217969487
 21
-42.1069791505
  0
LWPOLYLINE
  5
478
100
AcDbEntity
  8
RACCORDO
100
AcDbPolyline
 62
250
  6
CONTINUOUS
 90
11
 70
0
 10
-36.3177836387
 20
37.6731299608
 10
-36.3178332953
 20
37.6604636941
 10
-36.3178137851
 20
37.6488471216
 10
-36.317723287
 20
37.6382960143
 10
-36.3175539782
 20
37.6287428656
 10
-36.3173065911
 20
37.6202648582
 10
-36.3169859499
 20
37.6130762611
 10
-36.3165915122
 20
37.6073407856
 10
-36.3161215594
 20
37.6031615187
 10
-36.3155747185
 20
37.6006103915
 10
-36.314948379
 20
37.5997612951
  0
LINE
  5
479
100
AcDbEntity
  8
RACCORDO
100
AcDbLine
 62
250
  6
CONTINUOUS
 10
-36.1275670987
 20
36.8411565509
 11
-36.1276889249
 21
36.7867163369
  0
LINE
  5
47A
100
AcDbEntity
  8
RACCORDO
100
AcDbLine
 62
250
  6
CONTINUOUS
 10
-36.1275670987
 20
-35.1588434491
 11
-36.1276889249
 21
-35.2132836631
  0
LINE
  5
47B
100
AcDbEntity
  8
RACCORDO
100
AcDbLine
 62
250
  6
CONTINUOUS
 10
-36.1270096087
 20
36.9025789303
 11
-36.1275670987
 21
36.8411565509
  0
LINE
  5
47C
100
AcDbEntity
  8
RACCORDO
100
AcDbLine
 62
250
  6
CONTINUOUS
 10
-36.1270096087
 20
-35.0974210697
 11
-36.1275670987
 21
-35.1588434491
  0
LINE
  5
47D
100
AcDbEntity
  8
RACCORDO
100
AcDbLine
 62
250
  6
CONTINUOUS
 10
-36.3174768681
 20
37.7010559084
 11
-36.3177836387
 21
37.6731299608
  0
LINE
  5
47E
100
AcDbEntity
  8
RACCORDO
100
AcDbLine
 62
250
  6
CONTINUOUS
 10
-36.1260450295
 20
36.9694300466
 11
-36.1270096087
 21
36.9025789303
  0
LWPOLYLINE
  5
47F
100
AcDbEntity
  8
RACCORDO
100
AcDbPolyline
 62
250
  6
CONTINUOUS
 90
12
 70
0
 10
-36.317180888
 20
38.7048907403
 10
-36.3174994359
 20
38.6862549638
 10
-36.3177136535
 20
38.6687128877
 10
-36.3178211954
 20
38.6524565678
 10
-36.3178208843
 20
38.6376639629
 10
-36.3177127232
 20
38.6244969915
 10
-36.3174978948
 20
38.6130997972
 10
-36.3171787503
 20
38.6035971938
 10
-36.316758784
 20
38.5960932498
 10
-36.3162425941
 20
38.5906701201
 10
-36.3156358317
 20
38.5873871663
 10
-36.3149451396
 20
38.5862803278
  0
LWPOLYLINE
  5
480
100
AcDbEntity
  8
RACCORDO
100
AcDbPolyline
 62
250
  6
CONTINUOUS
 90
3
 70
0
 10
-36.125405887
 20
-34.9955884404
 10
-36.1260450295
 20
-35.0305699534
 10
-36.1270096087
 20
-35.0974210697
  0
LINE
  5
481
100
AcDbEntity
  8
RACCORDO
100
AcDbLine
 62
250
  6
CONTINUOUS
 10
-36.3169021504
 20
37.7316625641
 11
-36.3174768681
 21
37.7010559084
  0
LINE
  5
482
100
AcDbEntity
  8
RACCORDO
100
AcDbLine
 62
250
  6
CONTINUOUS
 10
-36.1238613746
 20
37.0769001599
 11
-36.1260450295
 21
36.9694300466
  0
LINE
  5
483
100
AcDbEntity
  8
RACCORDO
100
AcDbLine
 62
250
  6
CONTINUOUS
 10
-36.1223508108
 20
39.8928883191
 11
-36.1214602469
 21
39.9342765473
  0
LINE
  5
484
100
AcDbEntity
  8
RACCORDO
100
AcDbLine
 62
250
  6
CONTINUOUS
 10
-36.3162458545
 20
38.7446176098
 11
-36.317180888
 21
38.7048907403
  0
LINE
  5
485
100
AcDbEntity
  8
RACCORDO
100
AcDbLine
 62
250
  6
CONTINUOUS
 10
-36.3160610142
 20
37.7647611024
 11
-36.3169021504
 21
37.7316625641
  0
LINE
  5
486
100
AcDbEntity
  8
RACCORDO
100
AcDbLine
 62
250
  6
CONTINUOUS
 10
-36.1219284968
 20
37.151434803
 11
-36.1238613746
 21
37.0769001599
  0
LINE
  5
487
100
AcDbEntity
  8
RACCORDO
100
AcDbLine
 62
250
  6
CONTINUOUS
 10
-36.1214602469
 20
39.9342765473
 11
-36.1201263209
 21
39.9824678163
  0
LINE
  5
488
100
AcDbEntity
  8
RACCORDO
100
AcDbLine
 62
250
  6
CONTINUOUS
 10
-36.3149493864
 20
38.7861586045
 11
-36.3162458545
 21
38.7446176098
  0
LINE
  5
489
100
AcDbEntity
  8
RACCORDO
100
AcDbLine
 62
250
  6
CONTINUOUS
 10
-36.3149486044
 20
37.7996394527
 11
-36.3160610142
 21
37.7647611024
  0
LINE
  5
48A
100
AcDbEntity
  8
RACCORDO
100
AcDbLine
 62
250
  6
CONTINUOUS
 10
-36.1201263209
 20
39.9824678163
 11
-36.1184398676
 21
40.0341805025
  0
LINE
  5
48B
100
AcDbEntity
  8
RACCORDO
100
AcDbLine
 62
250
  6
CONTINUOUS
 10
-43.8166956902
 20
1.4417053089
 11
-38.007969487
 21
1.5430589257
  0
LINE
  5
48C
100
AcDbEntity
  8
RACCORDO
100
AcDbLine
 62
7
  6
CONTINUOUS
 10
-38.207969487
 20
1.7895298365
 11
-38.007969487
 21
1.7930208495
  0
LINE
  5
48D
100
AcDbEntity
  8
RACCORDO
100
AcDbLine
 62
7
  6
CONTINUOUS
 10
-43.8166956902
 20
1.9416291565
 11
-38.207969487
 21
2.0395298365
  0
LINE
  5
48E
100
AcDbEntity
  8
RACCORDO
100
AcDbLine
 62
250
  6
CONTINUOUS
 10
-44.307969487
 20
1.4417053089
 11
-43.8166956902
 21
1.4417053089
  0
LINE
  5
48F
100
AcDbEntity
  8
RACCORDO
100
AcDbLine
 62
250
  6
CONTINUOUS
 10
-44.307969487
 20
3.0443363901
 11
-43.8166956902
 21
3.0443363901
  0
LINE
  5
490
100
AcDbEntity
  8
RACCORDO
100
AcDbLine
 62
7
  6
CONTINUOUS
 10
-43.8166956902
 20
2.5444125425
 11
-38.207969487
 21
2.4465118625
  0
LINE
  5
491
100
AcDbEntity
  8
RACCORDO
100
AcDbLine
 62
7
  6
CONTINUOUS
 10
-38.207969487
 20
2.6965118625
 11
-38.007969487
 21
2.6930208495
  0
LINE
  5
492
100
AcDbEntity
  8
RACCORDO
100
AcDbLine
 62
250
  6
CONTINUOUS
 10
-43.8166956902
 20
3.0443363901
 11
-38.007969487
 21
2.9429827733
  0
LWPOLYLINE
  5
493
100
AcDbEntity
  8
RACCORDO
100
AcDbPolyline
 62
250
  6
CONTINUOUS
 90
19
 70
0
 10
-36.3114599683
 20
40.2340586679
 10
-36.3107218177
 20
40.2173245598
 10
-36.3086807097
 20
40.2009544157
 10
-36.3053366442
 20
40.1849482357
 10
-36.3006451865
 20
40.1692097703
 10
-36.2946507713
 20
40.153835269
 10
-36.2874867029
 20
40.13911348
 10
-36.2791675508
 20
40.1250789957
 10
-36.2696787456
 20
40.1116972236
 10
-36.2591098829
 20
40.0991531353
 10
-36.2474920342
 20
40.087435625
 10
-36.2347941282
 20
40.0765557983
 10
-36.2210125461
 20
40.0667319435
 10
-36.2060393686
 20
40.0578968343
 10
-36.189982515
 20
40.0501176971
 10
-36.1731621242
 20
40.0438144986
 10
-36.1556849092
 20
40.0391272278
 10
-36.137444157
 20
40.0359158958
 10
-36.1184398676
 20
40.0341805025
  0
LINE
  5
494
100
AcDbEntity
  8
RACCORDO
100
AcDbLine
 62
250
  6
CONTINUOUS
 10
-33.7009903707
 20
38.6948771442
 11
-33.6998775846
 21
38.6599864571
  0
LINE
  5
495
100
AcDbEntity
  8
RACCORDO
100
AcDbLine
 62
250
  6
CONTINUOUS
 10
-36.3161215594
 20
40.7233913089
 11
-36.314948379
 21
40.6864022385
  0
LINE
  5
496
100
AcDbEntity
  8
RACCORDO
100
AcDbLine
 62
250
  6
CONTINUOUS
 10
-33.7009895877
 20
-35.3590790871
 11
-33.6996935553
 21
-35.4006042112
  0
LINE
  5
497
100
AcDbEntity
  8
RACCORDO
100
AcDbLine
 62
250
  6
CONTINUOUS
 10
-33.7009895877
 20
37.8909209129
 11
-33.6996935553
 21
37.8493957888
  0
LINE
  5
498
100
AcDbEntity
  8
RACCORDO
100
AcDbLine
 62
250
  6
CONTINUOUS
 10
-33.7009895877
 20
40.1909209129
 11
-33.6996931195
 21
40.1493799183
  0
LWPOLYLINE
  5
499
100
AcDbEntity
  8
RACCORDO
100
AcDbPolyline
 62
250
  6
CONTINUOUS
 90
3
 70
0
 10
-36.3165917857
 20
38.4412178875
 10
-36.3161217787
 20
38.4233979085
 10
-36.3149483781
 20
38.3864022384
  0
LINE
  5
49A
100
AcDbEntity
  8
RACCORDO
100
AcDbLine
 62
250
  6
CONTINUOUS
 10
-36.123881606
 20
39.4097923909
 11
-36.1219284104
 21
39.334606893
  0
LINE
  5
49B
100
AcDbEntity
  8
RACCORDO
100
AcDbLine
 62
250
  6
CONTINUOUS
 10
-33.6998775846
 20
38.6599864571
 11
-33.6990362664
 21
38.6268746266
  0
LINE
  5
49C
100
AcDbEntity
  8
RACCORDO
100
AcDbLine
 62
250
  6
CONTINUOUS
 10
-36.3169859499
 20
40.7584189925
 11
-36.3161215594
 21
40.7233913089
  0
LWPOLYLINE
  5
49D
100
AcDbEntity
  8
RACCORDO
100
AcDbPolyline
 62
250
  6
CONTINUOUS
 90
13
 70
0
 10
-33.6996935553
 20
-35.4006042112
 10
-33.6987586594
 20
-35.440317304
 10
-33.6984400557
 20
-35.4589475941
 10
-33.6982256958
 20
-35.4764854151
 10
-33.6981179248
 20
-35.4927389069
 10
-33.6981179217
 20
-35.5075302791
 10
-33.6982256869
 20
-35.5206977525
 10
-33.698440043
 20
-35.5320972895
 10
-33.6987586457
 20
-35.5416041473
 10
-33.6991780093
 20
-35.5491142915
 10
-33.6996935455
 20
-35.5545455629
 10
-33.700299615
 20
-35.5578385571
 10
-33.7009895877
 20
-35.5589572525
  0
LWPOLYLINE
  5
49E
100
AcDbEntity
  8
RACCORDO
100
AcDbPolyline
 62
250
  6
CONTINUOUS
 90
13
 70
0
 10
-33.6996935553
 20
37.8493957888
 10
-33.6987586594
 20
37.809682696
 10
-33.6984400557
 20
37.7910524059
 10
-33.6982256958
 20
37.7735145849
 10
-33.6981179248
 20
37.7572610931
 10
-33.6981179217
 20
37.7424697209
 10
-33.6982256869
 20
37.7293022475
 10
-33.698440043
 20
37.7179027105
 10
-33.6987586457
 20
37.7083958527
 10
-33.6991780093
 20
37.7008857085
 10
-33.6996935455
 20
37.6954544371
 10
-33.700299615
 20
37.6921614429
 10
-33.7009895877
 20
37.6910427475
  0
LWPOLYLINE
  5
49F
100
AcDbEntity
  8
RACCORDO
100
AcDbPolyline
 62
250
  6
CONTINUOUS
 90
13
 70
0
 10
-33.6996931195
 20
40.1493799183
 10
-33.698758086
 20
40.1096530488
 10
-33.6984395381
 20
40.0910172722
 10
-33.6982253206
 20
40.0734751962
 10
-33.6981177787
 20
40.0572188762
 10
-33.6981180897
 20
40.0424262714
 10
-33.6982262508
 20
40.0292593
 10
-33.6984410792
 20
40.0178621056
 10
-33.6987602237
 20
40.0083595022
 10
-33.6991801901
 20
40.0008555583
 10
-33.6996963799
 20
39.9954324286
 10
-33.7003031423
 20
39.9921494748
 10
-33.7009938345
 20
39.9910426363
  0
LINE
  5
4A0
100
AcDbEntity
  8
RACCORDO
100
AcDbLine
 62
250
  6
CONTINUOUS
 10
-36.1260922522
 20
39.5197308068
 11
-36.123881606
 21
39.4097923909
  0
LINE
  5
4A1
100
AcDbEntity
  8
RACCORDO
100
AcDbLine
 62
250
  6
CONTINUOUS
 10
-33.6990362664
 20
38.6268746266
 11
-33.6984615331
 21
38.5962556783
  0
LINE
  5
4A2
100
AcDbEntity
  8
RACCORDO
100
AcDbLine
 62
250
  6
CONTINUOUS
 10
-33.7950356764
 20
-34.9043817833
 11
-33.797499638
 21
-34.7673943527
  0
LINE
  5
4A3
100
AcDbEntity
  8
RACCORDO
100
AcDbLine
 62
250
  6
CONTINUOUS
 10
-33.7950356764
 20
37.0956182167
 11
-33.797499638
 21
37.2326056473
  0
LINE
  5
4A4
100
AcDbEntity
  8
RACCORDO
100
AcDbLine
 62
250
  6
CONTINUOUS
 10
-33.7939532629
 20
-34.9884271625
 11
-33.7950356764
 21
-34.9043817833
  0
LINE
  5
4A5
100
AcDbEntity
  8
RACCORDO
100
AcDbLine
 62
250
  6
CONTINUOUS
 10
-33.7939532629
 20
37.0115728375
 11
-33.7950356764
 21
37.0956182167
  0
LWPOLYLINE
  5
4A6
100
AcDbEntity
  8
RACCORDO
100
AcDbPolyline
 62
250
  6
CONTINUOUS
 90
8
 70
0
 10
-33.7933409619
 20
-32.3442024071
 10
-33.7935883934
 20
-32.3199875564
 10
-33.7939517503
 20
-32.2986265691
 10
-33.7944347711
 20
-32.2805509567
 10
-33.7950352949
 20
-32.2661124517
 10
-33.7957492363
 20
-32.2555601438
 10
-33.7965729155
 20
-32.2490847423
 10
-33.797499638
 20
-32.2468685348
  0
LWPOLYLINE
  5
4A7
100
AcDbEntity
  8
RACCORDO
100
AcDbPolyline
 62
250
  6
CONTINUOUS
 90
8
 70
0
 10
-33.7933409619
 20
39.6557975929
 10
-33.7935883934
 20
39.6800124436
 10
-33.7939517503
 20
39.7013734309
 10
-33.7944347711
 20
39.7194490433
 10
-33.7950352949
 20
39.7338875483
 10
-33.7957492363
 20
39.7444398562
 10
-33.7965729155
 20
39.7509152577
 10
-33.797499638
 20
39.7531314652
  0
LWPOLYLINE
  5
4A8
100
AcDbEntity
  8
RACCORDO
100
AcDbPolyline
 62
250
  6
CONTINUOUS
 90
12
 70
0
 10
-33.6984615331
 20
38.5962556783
 10
-33.6981550436
 20
38.5683218894
 10
-33.6981056267
 20
38.555653378
 10
-33.6981254504
 20
38.5440356158
 10
-33.6982163273
 20
38.5334846691
 10
-33.6983860562
 20
38.5239335073
 10
-33.6986339361
 20
38.5154593838
 10
-33.6989551306
 20
38.5082764577
 10
-33.6993501056
 20
38.502548415
 10
-33.6998205676
 20
38.4983781093
 10
-33.7003679369
 20
38.4958371668
 10
-33.7009948408
 20
38.494999172
  0
LINE
  5
4A9
100
AcDbEntity
  8
RACCORDO
100
AcDbLine
 62
250
  6
CONTINUOUS
 10
-33.7933424929
 20
-35.0631882791
 11
-33.7939532629
 21
-34.9884271625
  0
LINE
  5
4AA
100
AcDbEntity
  8
RACCORDO
100
AcDbLine
 62
250
  6
CONTINUOUS
 10
-33.7933424929
 20
36.9368117209
 11
-33.7939532629
 21
37.0115728375
  0
LINE
  5
4AB
100
AcDbEntity
  8
RACCORDO
100
AcDbLine
 62
250
  6
CONTINUOUS
 10
-33.7931748346
 20
-32.4004599035
 11
-33.7933409619
 21
-32.3442024071
  0
LINE
  5
4AC
100
AcDbEntity
  8
RACCORDO
100
AcDbLine
 62
250
  6
CONTINUOUS
 10
-33.7931748346
 20
39.5995400965
 11
-33.7933409619
 21
39.6557975929
  0
LINE
  5
4AD
100
AcDbEntity
  8
RACCORDO
100
AcDbLine
 62
250
  6
CONTINUOUS
 10
-33.797499638
 20
-34.7673943527
 11
-33.797499638
 21
-34.2174489995
  0
LINE
  5
4AE
100
AcDbEntity
  8
RACCORDO
100
AcDbLine
 62
250
  6
CONTINUOUS
 10
-33.797499638
 20
-33.2965093015
 11
-33.797499638
 21
-32.7465639483
  0
LINE
  5
4AF
100
AcDbEntity
  8
RACCORDO
100
AcDbLine
 62
250
  6
CONTINUOUS
 10
-33.797499638
 20
37.2326056473
 11
-33.797499638
 21
37.7825510005
  0
LINE
  5
4B0
100
AcDbEntity
  8
RACCORDO
100
AcDbLine
 62
250
  6
CONTINUOUS
 10
-33.797499638
 20
38.7034906985
 11
-33.797499638
 21
39.2534360517
  0
LINE
  5
4B1
100
AcDbEntity
  8
RACCORDO
100
AcDbLine
 62
250
  6
CONTINUOUS
 10
-33.7009895877
 20
40.5951207861
 11
-33.7009895877
 21
40.1909209129
  0
LINE
  5
4B2
100
AcDbEntity
  8
RACCORDO
100
AcDbLine
 62
250
  6
CONTINUOUS
 10
-33.7009895877
 20
39.7911645821
 11
-33.7009895877
 21
39.7332991792
  0
LINE
  5
4B3
100
AcDbEntity
  8
RACCORDO
100
AcDbLine
 62
250
  6
CONTINUOUS
 10
-33.7009895877
 20
38.8000007488
 11
-33.7009895877
 21
38.6948771169
  0
LINE
  5
4B4
100
AcDbEntity
  8
RACCORDO
100
AcDbLine
 62
250
  6
CONTINUOUS
 10
-33.7009895877
 20
38.2951207861
 11
-33.7009895877
 21
37.8909209129
  0
LINE
  5
4B5
100
AcDbEntity
  8
RACCORDO
100
AcDbLine
 62
250
  6
CONTINUOUS
 10
-33.7009895877
 20
-34.1548792139
 11
-33.7009895877
 21
-34.3139590498
  0
LINE
  5
4B6
100
AcDbEntity
  8
RACCORDO
100
AcDbLine
 62
250
  6
CONTINUOUS
 10
-33.7009895877
 20
-35.2472575245
 11
-33.7009895877
 21
-35.3590790871
  0
LINE
  5
4B7
100
AcDbEntity
  8
RACCORDO
100
AcDbLine
 62
7
  6
CONTINUOUS
 10
-33.507969487
 20
-32.8827150818
 11
-33.507969487
 21
-32.5466857829
  0
LINE
  5
4B8
100
AcDbEntity
  8
RACCORDO
100
AcDbLine
 62
7
  6
CONTINUOUS
 10
-33.507969487
 20
-34.1548792139
 11
-33.507969487
 21
-35.3590790871
  0
LINE
  5
4B9
100
AcDbEntity
  8
RACCORDO
100
AcDbLine
 62
7
  6
CONTINUOUS
 10
-33.507969487
 20
37.0327274819
 11
-33.507969487
 21
37.3687567808
  0
LINE
  5
4BA
100
AcDbEntity
  8
RACCORDO
100
AcDbLine
 62
7
  6
CONTINUOUS
 10
-33.507969487
 20
37.8909209129
 11
-33.507969487
 21
40.5951207861
  0
LINE
  5
4BB
100
AcDbEntity
  8
RACCORDO
100
AcDbLine
 62
250
  6
CONTINUOUS
 10
-33.79343529
 20
39.5338668856
 11
-33.7931748346
 21
39.5995400965
  0
LINE
  5
4BC
100
AcDbEntity
  8
RACCORDO
100
AcDbLine
 62
250
  6
CONTINUOUS
 10
-33.79343529
 20
-32.4661331144
 11
-33.7931748346
 21
-32.4004599035
  0
LINE
  5
4BD
100
AcDbEntity
  8
RACCORDO
100
AcDbLine
 62
250
  6
CONTINUOUS
 10
-33.7941107675
 20
39.4603493164
 11
-33.79343529
 21
39.5338668856
  0
LINE
  5
4BE
100
AcDbEntity
  8
RACCORDO
100
AcDbLine
 62
250
  6
CONTINUOUS
 10
-33.7941107675
 20
-32.5396506836
 11
-33.79343529
 21
-32.4661331144
  0
LINE
  5
4BF
100
AcDbEntity
  8
RACCORDO
100
AcDbLine
 62
250
  6
CONTINUOUS
 10
-33.6982154086
 20
39.9094387655
 11
-33.6986320098
 21
39.8796490283
  0
LINE
  5
4C0
100
AcDbEntity
  8
RACCORDO
100
AcDbLine
 62
250
  6
CONTINUOUS
 10
-33.7958678899
 20
39.3390084496
 11
-33.7941107675
 21
39.4603493164
  0
LINE
  5
4C1
100
AcDbEntity
  8
RACCORDO
100
AcDbLine
 62
250
  6
CONTINUOUS
 10
-33.7958678899
 20
-32.6609915504
 11
-33.7941107675
 21
-32.5396506836
  0
LINE
  5
4C2
100
AcDbEntity
  8
RACCORDO
100
AcDbLine
 62
250
  6
CONTINUOUS
 10
-33.797499638
 20
39.2534360517
 11
-33.7958678899
 21
39.3390084496
  0
LINE
  5
4C3
100
AcDbEntity
  8
RACCORDO
100
AcDbLine
 62
250
  6
CONTINUOUS
 10
-33.797499638
 20
-32.7465639483
 11
-33.7958678899
 21
-32.6609915504
  0
LINE
  5
4C4
100
AcDbEntity
  8
RACCORDO
100
AcDbLine
 62
250
  6
CONTINUOUS
 10
-33.6986320098
 20
39.8796490283
 11
-33.6993471883
 21
39.8459801959
  0
LINE
  5
4C5
100
AcDbEntity
  8
RACCORDO
100
AcDbLine
 62
250
  6
CONTINUOUS
 10
-33.6987586457
 20
40.6763597102
 11
-33.6996935455
 21
40.6366462674
  0
LINE
  5
4C6
100
AcDbEntity
  8
RACCORDO
100
AcDbLine
 62
250
  6
CONTINUOUS
 10
-33.6987580723
 20
38.3763893579
 11
-33.6996931097
 21
38.3366621382
  0
LINE
  5
4C7
100
AcDbEntity
  8
RACCORDO
100
AcDbLine
 62
250
  6
CONTINUOUS
 10
-33.6987586457
 20
-34.0736402898
 11
-33.6996935455
 21
-34.1133537326
  0
LWPOLYLINE
  5
4C8
100
AcDbEntity
  8
RACCORDO
100
AcDbPolyline
 62
250
  6
CONTINUOUS
 90
3
 70
0
 10
-36.1219284968
 20
-34.848565197
 10
-36.1229470388
 20
-34.8859828542
 10
-36.125405887
 20
-34.9955884404
  0
LWPOLYLINE
  5
4C9
100
AcDbEntity
  8
RACCORDO
100
AcDbPolyline
 62
250
  6
CONTINUOUS
 90
3
 70
0
 10
-33.6993471883
 20
39.8459801959
 10
-33.7003641236
 20
39.8098387421
 10
-33.700990596
 20
39.7911645469
  0
LINE
  5
4CA
100
AcDbEntity
  8
RACCORDO
100
AcDbLine
 62
250
  6
CONTINUOUS
 10
-33.6996935455
 20
40.6366462674
 11
-33.7009895877
 21
40.5951207861
  0
LINE
  5
4CB
100
AcDbEntity
  8
RACCORDO
100
AcDbLine
 62
250
  6
CONTINUOUS
 10
-33.6996931097
 20
38.3366621382
 11
-33.7009895877
 21
38.2951207861
  0
LINE
  5
4CC
100
AcDbEntity
  8
RACCORDO
100
AcDbLine
 62
250
  6
CONTINUOUS
 10
-33.6996935455
 20
-34.1133537326
 11
-33.7009895877
 21
-34.1548792139
  0
LINE
  5
4CD
100
AcDbEntity
  8
DRAFT
100
AcDbLine
 62
7
  6
CONTINUOUS
 10
-36.507969487
 20
5.1732005898
 11
-38.007969487
 21
5.1993831148
  0
LINE
  5
4CE
100
AcDbEntity
  8
DRAFT
100
AcDbLine
 62
7
  6
CONTINUOUS
 10
-36.507969487
 20
9.3128411092
 11
-38.007969487
 21
9.2866585842
  0
LINE
  5
4CF
100
AcDbEntity
  8
IMPORT_IGES
100
AcDbLine
 62
250
  6
CONTINUOUS
 10
-35.5561524753
 20
22.5675324447
 11
-35.6105577097
 21
22.7599904156
  0
LWPOLYLINE
  5
4D0
100
AcDbEntity
  8
RACCORDO
100
AcDbPolyline
 62
250
  6
CONTINUOUS
 90
8
 70
0
 10
-36.1219292857
 20
-35.3482606381
 10
-36.1223244872
 20
-35.3499852591
 10
-36.1225935913
 20
-35.3550978432
 10
-36.1227319979
 20
-35.3635109435
 10
-36.1227373417
 20
-35.3750806901
 10
-36.1226095328
 20
-35.389609236
 10
-36.1223507584
 20
-35.4068481282
 10
-36.1214601815
 20
-35.4482365591
  0
LINE
  5
4D1
100
AcDbEntity
  8
RACCORDO
100
AcDbLine
 62
7
  6
CONTINUOUS
 10
-37.3492432838
 20
9.8260847244
 11
-38.007969487
 21
9.8145866157
  0
LINE
  5
4D2
100
AcDbEntity
  8
DRAFT
100
AcDbLine
 62
7
  6
CONTINUOUS
 10
-36.507969487
 20
9.7133472391
 11
-38.007969487
 21
9.7395298365
  0
LWPOLYLINE
  5
4D3
100
AcDbEntity
  8
RACCORDO
100
AcDbPolyline
 62
250
  6
CONTINUOUS
 90
7
 70
0
 10
-36.1219292857
 20
39.8343023371
 10
-36.1223244878
 20
39.836026883
 10
-36.1225935973
 20
39.8411392672
 10
-36.1227320133
 20
39.8495520831
 10
-36.122737369
 20
39.8611214966
 10
-36.1226095731
 20
39.875649705
 10
-36.1223508108
 20
39.8928883191
  0
LINE
  5
4D4
100
AcDbEntity
  8
DRAFT
100
AcDbLine
 62
7
  6
CONTINUOUS
 10
-36.507969487
 20
14.7726944599
 11
-38.007969487
 21
14.7465118625
  0
LINE
  5
4D5
100
AcDbEntity
  8
RACCORDO
100
AcDbLine
 62
7
  6
CONTINUOUS
 10
-37.3492432838
 20
14.6599569746
 11
-38.007969487
 21
14.6714550833
  0
LINE
  5
4D6
100
AcDbEntity
  8
IMPORT_IGES
100
AcDbLine
 62
7
  6
CONTINUOUS
 10
-35.3463767065
 20
23.4233380704
 11
-36.432969487
 21
25.2472091797
  0
LINE
  5
4D7
100
AcDbEntity
  8
IMPORT_IGES
100
AcDbLine
 62
7
  6
CONTINUOUS
 10
-36.432969487
 20
25.6379745755
 11
-35.1745576929
 21
23.5257012793
  0
LWPOLYLINE
  5
4D8
100
AcDbEntity
  8
0
100
AcDbPolyline
 62
7
  6
CONTINUOUS
 90
10
 70
0
 43
0.3500000019
 10
-49.2365765381
 20
55.4611137695
 10
-49.1651477051
 20
55.318253418
 10
-49.1651477051
 20
55.2468286133
 10
-49.3080040283
 20
55.1039682617
 10
-49.3794328613
 20
55.1039682617
 10
-49.4508616943
 20
55.1753984375
 10
-49.4508616943
 20
55.2468286133
 10
-49.3794328613
 20
55.3896835938
 10
-49.3080040283
 20
55.4611137695
 10
-49.2365765381
 20
55.4611137695
  0
LINE
  5
4D9
100
AcDbEntity
  8
IMPORT_IGES
100
AcDbLine
 62
7
  6
CONTINUOUS
 10
-36.432969487
 20
18.1930208495
 11
-36.507969487
 21
18.1930208495
  0
LWPOLYLINE
  5
4DA
100
AcDbEntity
  8
RACCORDO
100
AcDbPolyline
 62
250
  6
CONTINUOUS
 90
11
 70
0
 10
-33.797499638
 20
-35.2670897662
 10
-33.7966385568
 20
-35.2651847821
 10
-33.7958618834
 20
-35.2595906419
 10
-33.7951766433
 20
-35.2504136475
 10
-33.7945913059
 20
-35.2378134526
 10
-33.7941066153
 20
-35.221927555
 10
-33.7937189015
 20
-35.2028021826
 10
-33.7934327931
 20
-35.1805608908
 10
-33.7932518992
 20
-35.1553703062
 10
-33.793174567
 20
-35.1272749165
 10
-33.7933424929
 20
-35.0631882791
  0
LINE
  5
4DB
100
AcDbEntity
  8
DRAFT
100
AcDbLine
 62
7
  6
CONTINUOUS
 10
-34.3088106142
 20
-34.162025864
 11
-34.4668167542
 21
-34.4357005264
  0
LWPOLYLINE
  5
4DC
100
AcDbEntity
  8
RACCORDO
100
AcDbPolyline
 62
250
  6
CONTINUOUS
 90
12
 70
0
 10
-36.1219285021
 20
-32.1656976903
 10
-36.1229433137
 20
-32.167046329
 10
-36.1238545067
 20
-32.1711541728
 10
-36.1246681089
 20
-32.1779908229
 10
-36.1253967838
 20
-32.1875065019
 10
-36.1260378945
 20
-32.1996438772
 10
-36.1265739589
 20
-32.2143486226
 10
-36.1270056627
 20
-32.2315564931
 10
-36.127339425
 20
-32.2511639029
 10
-36.1275652785
 20
-32.2730377183
 10
-36.1276816474
 20
-32.2969982368
 10
-36.1275905712
 20
-32.3509049349
  0
LINE
  5
4DD
100
AcDbEntity
  8
IMPORT_IGES
100
AcDbLine
 62
7
  6
CONTINUOUS
 10
-35.5561524757
 20
22.5675324446
 11
-36.432969487
 21
22.3196682746
  0
LINE
  5
4DE
100
AcDbEntity
  8
IMPORT_IGES
100
AcDbLine
 62
7
  6
CONTINUOUS
 10
-36.432969487
 20
22.5275058614
 11
-35.6105577099
 21
22.7599904155
  0
LWPOLYLINE
  5
4DF
100
AcDbEntity
  8
RACCORDO
100
AcDbPolyline
 62
250
  6
CONTINUOUS
 90
14
 70
0
 10
-36.3149486044
 20
-33.8637195882
 10
-36.3155399595
 20
-33.8644720357
 10
-36.3160610142
 20
-33.866737367
 10
-36.3165139835
 20
-33.8704541168
 10
-36.3169021504
 20
-33.8755308307
 10
-36.3172242581
 20
-33.8818998582
 10
-36.3174768681
 20
-33.8895658802
 10
-36.3176630542
 20
-33.8985094501
 10
-36.3177836387
 20
-33.908644864
 10
-36.3178332953
 20
-33.9199081738
 10
-36.3178137851
 20
-33.9321533806
 10
-36.317723287
 20
-33.9453546608
 10
-36.3175539782
 20
-33.9596630083
 10
-36.3169859499
 20
-33.9915810075
  0
LINE
  5
4E0
100
AcDbEntity
  8
DRAFT
100
AcDbLine
 62
7
  6
CONTINUOUS
 10
-36.507969487
 20
22.1732005898
 11
-38.007969487
 21
22.1993831148
  0
LWPOLYLINE
  5
4E1
100
AcDbEntity
  8
RACCORDO
100
AcDbPolyline
 62
250
  6
CONTINUOUS
 90
12
 70
0
 10
-33.7009938345
 20
38.4949990627
 10
-33.7003031479
 20
38.4938922432
 10
-33.6996963897
 20
38.4906093466
 10
-33.6991802025
 20
38.4851863127
 10
-33.6987602374
 20
38.4776825122
 10
-33.6984410919
 20
38.468180093
 10
-33.6982262597
 20
38.4567830788
 10
-33.6981180929
 20
38.443616246
 10
-33.6981177755
 20
38.4288237316
 10
-33.6982253117
 20
38.4125674381
 10
-33.6984395254
 20
38.3950252917
 10
-33.6987580723
 20
38.3763893579
  0
LINE
  5
4E2
100
AcDbEntity
  8
DRAFT
100
AcDbLine
 62
7
  6
CONTINUOUS
 10
-34.4668167542
 20
38.9217422254
 11
-34.3088106142
 21
38.648067563
  0
LINE
  5
4E3
100
AcDbEntity
  8
RACCORDO
100
AcDbLine
 62
7
  6
CONTINUOUS
 10
-33.836426766
 20
-33.3354364295
 11
-33.5958374527
 21
-33.0948471161
  0
LINE
  5
4E4
100
AcDbEntity
  8
DRAFT
100
AcDbLine
 62
7
  6
CONTINUOUS
 10
-36.507969487
 20
26.3128411092
 11
-38.007969487
 21
26.2866585842
  0
LINE
  5
4E5
100
AcDbEntity
  8
IMPORT_IGES
100
AcDbLine
 62
7
  6
CONTINUOUS
 10
-36.507969487
 20
26.2430208495
 11
-36.432969487
 21
26.2430208495
  0
LWPOLYLINE
  5
4E6
100
AcDbEntity
  8
RACCORDO
100
AcDbPolyline
 62
250
  6
CONTINUOUS
 90
12
 70
0
 10
-33.7009895877
 20
40.7949989515
 10
-33.7002996206
 20
40.7938802752
 10
-33.6996935553
 20
40.7905873382
 10
-33.6991780217
 20
40.7851561626
 10
-33.6987586594
 20
40.7776461618
 10
-33.6984400557
 20
40.7681394881
 10
-33.6982256958
 20
40.756740131
 10
-33.6981179248
 20
40.7435727961
 10
-33.6981179217
 20
40.7287815142
 10
-33.6982256869
 20
40.7125280488
 10
-33.698440043
 20
40.6949901574
 10
-33.6987586457
 20
40.6763597102
  0
LINE
  5
4E7
100
AcDbEntity
  8
RACCORDO
100
AcDbLine
 62
7
  6
CONTINUOUS
 10
-33.5958374527
 20
37.5808888151
 11
-33.836426766
 21
37.8214781285
  0
LWPOLYLINE
  5
4E8
100
AcDbEntity
  8
RACCORDO
100
AcDbPolyline
 62
250
  6
CONTINUOUS
 90
12
 70
0
 10
-33.7009946153
 20
39.9910425349
 10
-33.7004026378
 20
39.9903002793
 10
-33.6998810113
 20
39.9880438214
 10
-33.6994275083
 20
39.9843344662
 10
-33.6990388167
 20
39.979263444
 10
-33.6987161975
 20
39.9728983694
 10
-33.6984631341
 20
39.965234832
 10
-33.6982765621
 20
39.9562924815
 10
-33.6981556445
 20
39.9461569669
 10
-33.6981057221
 20
39.9348922206
 10
-33.6981250412
 20
39.9226441264
 10
-33.6982154086
 20
39.9094387655
  0
LWPOLYLINE
  5
4E9
100
AcDbEntity
  8
0
100
AcDbPolyline
 62
7
  6
CONTINUOUS
 90
10
 70
0
 43
0.3500000019
 10
-38.2651118164
 20
65.5065683594
 10
-38.1936843262
 20
65.3637133789
 10
-38.1936843262
 20
65.2922832031
 10
-38.3365419922
 20
65.1494282227
 10
-38.4079694824
 20
65.1494282227
 10
-38.4793969727
 20
65.2208530273
 10
-38.4793969727
 20
65.2922832031
 10
-38.4079694824
 20
65.4351381836
 10
-38.3365419922
 20
65.5065683594
 10
-38.2651118164
 20
65.5065683594
  0
LINE
  5
4EA
100
AcDbEntity
  8
RACCORDO
100
AcDbLine
 62
7
  6
CONTINUOUS
 10
-37.3492432838
 20
32.8260847244
 11
-38.007969487
 21
32.8145866157
  0
LINE
  5
4EB
100
AcDbEntity
  8
DRAFT
100
AcDbLine
 62
7
  6
CONTINUOUS
 10
-36.507969487
 20
32.7133472391
 11
-38.007969487
 21
32.7395298365
  0
LINE
  5
4EC
100
AcDbEntity
  8
RACCORDO
100
AcDbLine
 62
7
  6
CONTINUOUS
 10
-36.507969487
 20
-35.984919619
 11
-34.6140956876
 21
-35.2956059286
  0
LINE
  5
4ED
100
AcDbEntity
  8
RACCORDO
100
AcDbLine
 62
7
  6
CONTINUOUS
 10
-36.1219292857
 20
36.6517393619
 11
-33.797499638
 21
36.7329102338
  0
LINE
  5
4EE
100
AcDbEntity
  8
RACCORDO
100
AcDbLine
 62
250
  6
CONTINUOUS
 10
-36.1219292857
 20
37.1514347754
 11
-33.797499638
 21
37.2326056473
  0
LINE
  5
4EF
100
AcDbEntity
  8
RACCORDO
100
AcDbLine
 62
7
  6
CONTINUOUS
 10
-36.507969487
 20
37.4930208495
 11
-34.4668167542
 21
37.5642994736
  0
LINE
  5
4F0
100
AcDbEntity
  8
RACCORDO
100
AcDbLine
 62
7
  6
CONTINUOUS
 10
-36.3149493864
 20
37.5997612599
 11
-34.4078937502
 21
37.6663571102
  0
LINE
  5
4F1
100
AcDbEntity
  8
RACCORDO
100
AcDbLine
 62
250
  6
CONTINUOUS
 10
-36.507969487
 20
37.1514347754
 11
-36.1219292857
 21
37.1514347754
  0
LINE
  5
4F2
100
AcDbEntity
  8
RACCORDO
100
AcDbLine
 62
250
  6
CONTINUOUS
 10
-33.797499638
 20
37.2326056473
 11
-33.507969487
 21
37.2326056473
  0
LINE
  5
4F3
100
AcDbEntity
  8
RACCORDO
100
AcDbLine
 62
250
  6
CONTINUOUS
 10
-36.3149493864
 20
37.7996394253
 11
-33.7009895877
 21
37.8909209129
  0
LINE
  5
4F4
100
AcDbEntity
  8
DRAFT
100
AcDbLine
 62
7
  6
CONTINUOUS
 10
-34.3088106142
 20
38.648067563
 11
-33.836426766
 21
38.6645635705
  0
LINE
  5
4F5
100
AcDbEntity
  8
RACCORDO
100
AcDbLine
 62
250
  6
CONTINUOUS
 10
-33.7009895877
 20
39.7911645821
 11
-34.2938075981
 21
39.770462921
  0
LINE
  5
4F6
100
AcDbEntity
  8
RACCORDO
100
AcDbLine
 62
7
  6
CONTINUOUS
 10
-35.0591012494
 20
39.9436164062
 11
-33.7009946153
 21
39.9910425349
  0
LINE
  5
4F7
100
AcDbEntity
  8
RACCORDO
100
AcDbLine
 62
250
  6
CONTINUOUS
 10
-35.5601860084
 20
40.1259963433
 11
-33.7009895877
 21
40.1909209129
  0
LINE
  5
4F8
100
AcDbEntity
  8
DRAFT
100
AcDbLine
 62
7
  6
CONTINUOUS
 10
-36.507969487
 20
37.7726944599
 11
-38.007969487
 21
37.7465118625
  0
LINE
  5
4F9
100
AcDbEntity
  8
RACCORDO
100
AcDbLine
 62
250
  6
CONTINUOUS
 10
-36.507969487
 20
37.7996394253
 11
-36.3149493864
 21
37.7996394253
  0
LINE
  5
4FA
100
AcDbEntity
  8
RACCORDO
100
AcDbLine
 62
250
  6
CONTINUOUS
 10
-33.507969487
 20
37.8909209129
 11
-33.7009895877
 21
37.8909209129
  0
LINE
  5
4FB
100
AcDbEntity
  8
RACCORDO
100
AcDbLine
 62
250
  6
CONTINUOUS
 10
-33.507969487
 20
38.2951207861
 11
-33.7009895877
 21
38.2951207861
  0
LINE
  5
4FC
100
AcDbEntity
  8
RACCORDO
100
AcDbLine
 62
250
  6
CONTINUOUS
 10
-36.507969487
 20
38.3864022737
 11
-36.3149493864
 21
38.3864022737
  0
LINE
  5
4FD
100
AcDbEntity
  8
RACCORDO
100
AcDbLine
 62
250
  6
CONTINUOUS
 10
-33.507969487
 20
38.6948771169
 11
-33.7009895877
 21
38.6948771169
  0
LINE
  5
4FE
100
AcDbEntity
  8
RACCORDO
100
AcDbLine
 62
250
  6
CONTINUOUS
 10
-36.507969487
 20
38.7861586045
 11
-36.3149493864
 21
38.7861586045
  0
LINE
  5
4FF
100
AcDbEntity
  8
RACCORDO
100
AcDbLine
 62
250
  6
CONTINUOUS
 10
-33.797499638
 20
39.2534360517
 11
-33.507969487
 21
39.2534360517
  0
LINE
  5
500
100
AcDbEntity
  8
RACCORDO
100
AcDbLine
 62
250
  6
CONTINUOUS
 10
-36.507969487
 20
39.3346069236
 11
-36.1219292857
 21
39.3346069249
  0
LINE
  5
501
100
AcDbEntity
  8
RACCORDO
100
AcDbLine
 62
250
  6
CONTINUOUS
 10
-33.507969487
 20
39.7911645821
 11
-33.7009895877
 21
39.7911645821
  0
LINE
  5
502
100
AcDbEntity
  8
RACCORDO
100
AcDbLine
 62
250
  6
CONTINUOUS
 10
-33.507969487
 20
40.1909209129
 11
-33.7009895877
 21
40.1909209129
  0
LINE
  5
503
100
AcDbEntity
  8
RACCORDO
100
AcDbLine
 62
250
  6
CONTINUOUS
 10
-36.507969487
 20
40.2340586679
 11
-36.3114599683
 21
40.2340586679
  0
LINE
  5
504
100
AcDbEntity
  8
RACCORDO
100
AcDbLine
 62
250
  6
CONTINUOUS
 10
-33.507969487
 20
40.5951207861
 11
-33.7009895877
 21
40.5951207861
  0
LINE
  5
505
100
AcDbEntity
  8
RACCORDO
100
AcDbLine
 62
250
  6
CONTINUOUS
 10
-36.507969487
 20
40.6864022737
 11
-36.3149493864
 21
40.6864022737
  0
LINE
  5
506
100
AcDbEntity
  8
RACCORDO
100
AcDbLine
 62
7
  6
CONTINUOUS
 10
-37.3492432838
 20
37.6599569746
 11
-38.007969487
 21
37.6714550833
  0
LINE
  5
507
100
AcDbEntity
  8
DRAFT
100
AcDbLine
 62
7
  6
CONTINUOUS
 10
-36.507969487
 20
38.1732005898
 11
-38.007969487
 21
38.1993831148
  0
LINE
  5
508
100
AcDbEntity
  8
DRAFT
100
AcDbLine
 62
7
  6
CONTINUOUS
 10
-33.836426766
 20
37.8214781285
 11
-34.3088106142
 21
37.837974136
  0
LINE
  5
509
100
AcDbEntity
  8
RACCORDO
100
AcDbLine
 62
250
  6
CONTINUOUS
 10
-36.3149493864
 20
38.3864022737
 11
-33.7009895877
 21
38.2951207861
  0
LINE
  5
50A
100
AcDbEntity
  8
RACCORDO
100
AcDbLine
 62
7
  6
CONTINUOUS
 10
-36.3149451396
 20
38.5862803278
 11
-33.7009948408
 21
38.494999172
  0
LINE
  5
50B
100
AcDbEntity
  8
RACCORDO
100
AcDbLine
 62
250
  6
CONTINUOUS
 10
-33.7009895877
 20
38.6948771169
 11
-33.7976825177
 21
38.6982537084
  0
LINE
  5
50C
100
AcDbEntity
  8
RACCORDO
100
AcDbLine
 62
250
  6
CONTINUOUS
 10
-34.3488989576
 20
38.7175026106
 11
-36.3149493864
 21
38.7861586045
  0
LINE
  5
50D
100
AcDbEntity
  8
RACCORDO
100
AcDbLine
 62
7
  6
CONTINUOUS
 10
-36.507969487
 20
38.9930208495
 11
-34.4668167542
 21
38.9217422254
  0
LINE
  5
50E
100
AcDbEntity
  8
RACCORDO
100
AcDbLine
 62
250
  6
CONTINUOUS
 10
-33.797499638
 20
39.2534360517
 11
-36.1219292857
 21
39.3346069236
  0
LINE
  5
50F
100
AcDbEntity
  8
RACCORDO
100
AcDbLine
 62
7
  6
CONTINUOUS
 10
-33.797499638
 20
39.7531314652
 11
-36.1219292857
 21
39.8343023371
  0
LINE
  5
510
100
AcDbEntity
  8
RACCORDO
100
AcDbLine
 62
250
  6
CONTINUOUS
 10
-36.1184398676
 20
40.0341805025
 11
-35.2219070958
 21
40.0028728882
  0
LINE
  5
511
100
AcDbEntity
  8
RACCORDO
100
AcDbLine
 62
250
  6
CONTINUOUS
 10
-36.3149493864
 20
40.6864022737
 11
-33.7009895877
 21
40.5951207861
  0
LINE
  5
512
100
AcDbEntity
  8
RACCORDO
100
AcDbLine
 62
7
  6
CONTINUOUS
 10
-36.507969487
 20
40.470961318
 11
-34.6140956876
 21
39.7816476276
  0
LWPOLYLINE
  5
513
100
AcDbEntity
  8
0
100
AcDbPolyline
 62
7
  6
CONTINUOUS
 90
13
 70
0
 43
0.3500000019
 10
-47.736576416
 20
56.6753999023
 10
-48.0222890625
 20
56.8896850586
 10
-48.0222890625
 20
57.5325405273
 10
-47.736576416
 20
57.9611108398
 10
-47.0937182617
 20
57.9611108398
 10
-46.8080056152
 20
57.5325405273
 10
-46.8080056152
 20
56.8896850586
 10
-47.0937182617
 20
56.6753999023
 10
-46.6651479492
 20
56.2468295898
 10
-46.6651479492
 20
55.3896835938
 10
-47.0937182617
 20
54.9611132813
 10
-47.736576416
 20
54.9611132813
 10
-48.1651467285
 20
55.3896835938
  0
LINE
  5
514
100
AcDbEntity
  8
RACCORDO
100
AcDbLine
 62
250
  6
CONTINUOUS
 10
-38.007969487
 20
43.4409442818
 11
-36.507969487
 21
43.493325436
  0
LINE
  5
515
100
AcDbEntity
  8
RACCORDO
100
AcDbLine
 62
7
  6
CONTINUOUS
 10
-38.007969487
 20
43.9406396953
 11
-36.507969487
 21
43.9930208495
  0
LINE
  5
516
100
AcDbEntity
  8
DRAFT
100
AcDbLine
 62
7
  6
CONTINUOUS
 10
-36.507969487
 20
42.3128411092
 11
-38.007969487
 21
42.2866585842
  0
LINE
  5
517
100
AcDbEntity
  8
RACCORDO
100
AcDbLine
 62
250
  6
CONTINUOUS
 10
-43.8166956902
 20
45.6417053089
 11
-38.007969487
 21
45.7430589257
  0
LINE
  5
518
100
AcDbEntity
  8
RACCORDO
100
AcDbLine
 62
7
  6
CONTINUOUS
 10
-38.207969487
 20
45.9895298365
 11
-38.007969487
 21
45.9930208495
  0
LINE
  5
519
100
AcDbEntity
  8
RACCORDO
100
AcDbLine
 62
7
  6
CONTINUOUS
 10
-43.8166956902
 20
46.1416291565
 11
-38.207969487
 21
46.2395298365
  0
LINE
  5
51A
100
AcDbEntity
  8
RACCORDO
100
AcDbLine
 62
250
  6
CONTINUOUS
 10
-44.307969487
 20
45.6417053089
 11
-43.8166956902
 21
45.6417053089
  0
LINE
  5
51B
100
AcDbEntity
  8
RACCORDO
100
AcDbLine
 62
7
  6
CONTINUOUS
 10
-36.3149493864
 20
40.8862804391
 11
-33.7009895877
 21
40.7949989515
  0
LWPOLYLINE
  5
51C
100
AcDbEntity
  8
0
100
AcDbPolyline
 62
7
  6
CONTINUOUS
 90
13
 70
0
 43
0.3500000019
 10
-36.7651130371
 20
66.7208544922
 10
-37.0508256836
 20
66.9351396484
 10
-37.0508256836
 20
67.5779951172
 10
-36.7651130371
 20
68.0065708008
 10
-36.1222548828
 20
68.0065708008
 10
-35.8365422363
 20
67.5779951172
 10
-35.8365422363
 20
66.9351396484
 10
-36.1222548828
 20
66.7208544922
 10
-35.6936845703
 20
66.2922841797
 10
-35.6936845703
 20
65.4351381836
 10
-36.1222548828
 20
65.0065678711
 10
-36.7651130371
 20
65.0065678711
 10
-37.1936833496
 20
65.4351381836
  0
ARC
  5
51D
100
AcDbEntity
  8
RACCORDO
100
AcDbCircle
 62
7
  6
CONTINUOUS
 10
-2.7113679024
 20
-39.4069791505
 40
0.2
100
AcDbArc
 50
180.0
 51
270.0
  0
ARC
  5
51E
100
AcDbEntity
  8
RACCORDO
100
AcDbCircle
 62
7
  6
CONTINUOUS
 10
-2.7113679024
 20
-37.1069791505
 40
0.2
100
AcDbArc
 50
90.0
 51
180.0
  0
ARC
  5
51F
100
AcDbEntity
  8
RACCORDO
100
AcDbCircle
 62
7
  6
CONTINUOUS
 10
2.5886320976
 20
-37.1069791505
 40
0.2
100
AcDbArc
 50
0.0
 51
90.0
  0
ARC
  5
520
100
AcDbEntity
  8
RACCORDO
100
AcDbCircle
 62
7
  6
CONTINUOUS
 10
2.5886320976
 20
-39.4069791505
 40
0.2
100
AcDbArc
 50
270.0
 51
360.0
  0
ARC
  5
521
100
AcDbEntity
  8
RACCORDO
100
AcDbCircle
 62
7
  6
CONTINUOUS
 10
-43.807969487
 20
-41.1556636099
 40
0.5
100
AcDbArc
 50
180.0
 51
269.0
  0
ARC
  5
522
100
AcDbEntity
  8
RACCORDO
100
AcDbCircle
 62
7
  6
CONTINUOUS
 10
-43.807969487
 20
1.4417053089
 40
0.5
100
AcDbArc
 50
91.0
 51
180.0
  0
ARC
  5
523
100
AcDbEntity
  8
RACCORDO
100
AcDbCircle
 62
7
  6
CONTINUOUS
 10
-39.307969487
 20
-41.8879226641
 40
0.2
100
AcDbArc
 50
180.0
 51
269.0
  0
ARC
  5
524
100
AcDbEntity
  8
RACCORDO
100
AcDbCircle
 62
7
  6
CONTINUOUS
 10
-43.807969487
 20
3.0443363901
 40
0.5
100
AcDbArc
 50
180.0
 51
269.0
  0
ARC
  5
525
100
AcDbEntity
  8
RACCORDO
100
AcDbCircle
 62
7
  6
CONTINUOUS
 10
-43.807969487
 20
45.6417053089
 40
0.5
100
AcDbArc
 50
91.0
 51
180.0
  0
ARC
  5
526
100
AcDbEntity
  8
RACCORDO
100
AcDbCircle
 62
7
  6
CONTINUOUS
 10
-37.357969487
 20
-28.8399668729
 40
0.5
100
AcDbArc
 50
0.0
 51
89.0
  0
ARC
  5
527
100
AcDbEntity
  8
RACCORDO
100
AcDbCircle
 62
7
  6
CONTINUOUS
 10
-37.357969487
 20
-32.6739914281
 40
0.5
100
AcDbArc
 50
271.0
 51
360.0
  0
ARC
  5
528
100
AcDbEntity
  8
RACCORDO
100
AcDbCircle
 62
7
  6
CONTINUOUS
 10
-37.357969487
 20
-9.6739914281
 40
0.5
100
AcDbArc
 50
271.0
 51
360.0
  0
ARC
  5
529
100
AcDbEntity
  8
RACCORDO
100
AcDbCircle
 62
7
  6
CONTINUOUS
 10
-37.357969487
 20
-5.8399668729
 40
0.5
100
AcDbArc
 50
0.0
 51
89.0
  0
ARC
  5
52A
100
AcDbEntity
  8
RACCORDO
100
AcDbCircle
 62
7
  6
CONTINUOUS
 10
-36.107969487
 20
-31.7659413321
 40
0.4
100
AcDbArc
 50
180.0
 51
268.0
  0
ARC
  5
52B
100
AcDbEntity
  8
RACCORDO
100
AcDbCircle
 62
7
  6
CONTINUOUS
 10
-36.107969487
 20
-35.7480169689
 40
0.4
100
AcDbArc
 50
92.0000000001
 51
180.0
  0
ARC
  5
52C
100
AcDbEntity
  8
RACCORDO
100
AcDbCircle
 62
7
  6
CONTINUOUS
 10
-33.807969487
 20
-34.6312432192
 40
0.3
100
AcDbArc
 50
0.0
 51
45.0
  0
ARC
  5
52D
100
AcDbEntity
  8
RACCORDO
100
AcDbCircle
 62
7
  6
CONTINUOUS
 10
-33.807969487
 20
-34.9672725181
 40
0.3
100
AcDbArc
 50
272.0
 51
360.0
  0
ARC
  5
52E
100
AcDbEntity
  8
RACCORDO
100
AcDbCircle
 62
7
  6
CONTINUOUS
 10
-33.807969487
 20
-32.8827150818
 40
0.3
100
AcDbArc
 50
315.0
 51
360.0
  0
ARC
  5
52F
100
AcDbEntity
  8
RACCORDO
100
AcDbCircle
 62
7
  6
CONTINUOUS
 10
-33.807969487
 20
-32.5466857829
 40
0.3
100
AcDbArc
 50
0.0000000001
 51
88.0
  0
ARC
  5
530
100
AcDbEntity
  8
RACCORDO
100
AcDbCircle
 62
7
  6
CONTINUOUS
 10
-38.207969487
 20
-41.9067741342
 40
0.2
100
AcDbArc
 50
271.0
 51
360.0
  0
ARC
  5
531
100
AcDbEntity
  8
RACCORDO
100
AcDbCircle
 62
7
  6
CONTINUOUS
 10
-33.707969487
 20
-35.3590790871
 40
0.2
100
AcDbArc
 50
272.0
 51
360.0
  0
ARC
  5
532
100
AcDbEntity
  8
RACCORDO
100
AcDbCircle
 62
7
  6
CONTINUOUS
 10
-33.707969487
 20
-34.1548792139
 40
0.2
100
AcDbArc
 50
0.0
 51
88.0
  0
ARC
  5
533
100
AcDbEntity
  8
RACCORDO
100
AcDbCircle
 62
7
  6
CONTINUOUS
 10
-36.307969487
 20
-33.6638413955
 40
0.2
100
AcDbArc
 50
194.6666666667
 51
268.0
  0
ARC
  5
534
100
AcDbEntity
  8
IMPORT_IGES
100
AcDbCircle
 62
7
  6
CONTINUOUS
 10
-35.732969487
 20
23.1930208495
 40
0.65
100
AcDbArc
 50
285.7848715181
 51
30.7848714835
  0
ARC
  5
535
100
AcDbEntity
  8
RACCORDO
100
AcDbCircle
 62
7
  6
CONTINUOUS
 10
-37.357969487
 20
10.3260085719
 40
0.5
100
AcDbArc
 50
271.0
 51
360.0
  0
ARC
  5
536
100
AcDbEntity
  8
RACCORDO
100
AcDbCircle
 62
7
  6
CONTINUOUS
 10
-37.357969487
 20
14.1600331271
 40
0.5
100
AcDbArc
 50
0.0
 51
89.0
  0
ARC
  5
537
100
AcDbEntity
  8
IMPORT_IGES
100
AcDbCircle
 62
7
  6
CONTINUOUS
 10
-35.732969487
 20
23.1930208495
 40
0.45
100
AcDbArc
 50
285.7848715193
 51
30.7848714622
  0
ARC
  5
538
100
AcDbEntity
  8
RACCORDO
100
AcDbCircle
 62
7
  6
CONTINUOUS
 10
-37.357969487
 20
33.3260085719
 40
0.5
100
AcDbArc
 50
271.0
 51
360.0
  0
ARC
  5
539
100
AcDbEntity
  8
RACCORDO
100
AcDbCircle
 62
7
  6
CONTINUOUS
 10
-37.357969487
 20
37.1600331271
 40
0.5
100
AcDbArc
 50
0.0
 51
89.0
  0
ARC
  5
53A
100
AcDbEntity
  8
RACCORDO
100
AcDbCircle
 62
7
  6
CONTINUOUS
 10
-36.107969487
 20
36.2519830311
 40
0.4
100
AcDbArc
 50
92.0
 51
180.0
  0
ARC
  5
53B
100
AcDbEntity
  8
RACCORDO
100
AcDbCircle
 62
7
  6
CONTINUOUS
 10
-36.107969487
 20
40.2340586679
 40
0.4
100
AcDbArc
 50
180.0
 51
268.0
  0
ARC
  5
53C
100
AcDbEntity
  8
RACCORDO
100
AcDbCircle
 62
7
  6
CONTINUOUS
 10
-36.307969487
 20
38.7861585625
 40
0.2000000376
100
AcDbArc
 50
180.0006053855
 51
268.0012169978
  0
ARC
  5
53D
100
AcDbEntity
  8
RACCORDO
100
AcDbCircle
 62
7
  6
CONTINUOUS
 10
-36.307969487
 20
41.0861586045
 40
0.2
100
AcDbArc
 50
179.9999999999
 51
268.0
  0
ARC
  5
53E
100
AcDbEntity
  8
RACCORDO
100
AcDbCircle
 62
7
  6
CONTINUOUS
 10
-36.307969487
 20
37.3998830945
 40
0.2
100
AcDbArc
 50
92.0
 51
143.3332199797
  0
ARC
  5
53F
100
AcDbEntity
  8
RACCORDO
100
AcDbCircle
 62
7
  6
CONTINUOUS
 10
-33.807969487
 20
37.3687567808
 40
0.3
100
AcDbArc
 50
0.0
 51
45.0
  0
ARC
  5
540
100
AcDbEntity
  8
RACCORDO
100
AcDbCircle
 62
7
  6
CONTINUOUS
 10
-33.807969487
 20
37.0327274819
 40
0.3
100
AcDbArc
 50
272.0
 51
360.0
  0
ARC
  5
541
100
AcDbEntity
  8
RACCORDO
100
AcDbCircle
 62
7
  6
CONTINUOUS
 10
-33.807969487
 20
39.1172849182
 40
0.3
100
AcDbArc
 50
315.0
 51
360.0
  0
ARC
  5
542
100
AcDbEntity
  8
RACCORDO
100
AcDbCircle
 62
7
  6
CONTINUOUS
 10
-33.807969487
 20
39.4533142171
 40
0.3
100
AcDbArc
 50
0.0000000001
 51
88.0
  0
ARC
  5
543
100
AcDbEntity
  8
RACCORDO
100
AcDbCircle
 62
7
  6
CONTINUOUS
 10
-33.707969487
 20
38.2951208286
 40
0.2000000379
100
AcDbArc
 50
0.00060554
 51
88.001217004
  0
ARC
  5
544
100
AcDbEntity
  8
RACCORDO
100
AcDbCircle
 62
7
  6
CONTINUOUS
 10
-33.707969487
 20
40.190920871
 40
0.2000000376
100
AcDbArc
 50
271.9987830021
 51
0.0000172806
  0
ARC
  5
545
100
AcDbEntity
  8
RACCORDO
100
AcDbCircle
 62
7
  6
CONTINUOUS
 10
-33.707969487
 20
37.8909209129
 40
0.2
100
AcDbArc
 50
272.0
 51
360.0
  0
ARC
  5
546
100
AcDbEntity
  8
RACCORDO
100
AcDbCircle
 62
7
  6
CONTINUOUS
 10
-33.707969487
 20
40.5951207861
 40
0.2
100
AcDbArc
 50
0.0
 51
88.0
  0
ELLIPSE
  5
547
100
AcDbEntity
  8
RACCORDO
100
AcDbEllipse
 62
7
  6
CONTINUOUS
 10
-6.2613679024
 20
-41.7273055401
 30
0.0
 11
0.3
 21
0.0
 31
0.0
 40
0.0174550649
 41
-0.0
 42
1.5707963268
  0
ELLIPSE
  5
548
100
AcDbEntity
  8
RACCORDO
100
AcDbEllipse
 62
7
  6
CONTINUOUS
 10
-9.8613679024
 20
-41.7273055401
 30
0.0
 11
0.3
 21
0.0
 31
0.0
 40
0.0174550649
 41
1.5707963268
 42
3.1415926536
  0
ELLIPSE
  5
549
100
AcDbEntity
  8
RACCORDO
100
AcDbEllipse
 62
7
  6
CONTINUOUS
 10
-14.8078007254
 20
-41.2534119735
 30
0.0
 11
0.3536610946
 21
0.3536610946
 31
0.0
 40
0.9996954599
 41
2.3563467834
 42
3.9268385237
  0
ELLIPSE
  5
54A
100
AcDbEntity
  8
RACCORDO
100
AcDbEllipse
 62
7
  6
CONTINUOUS
 10
-14.8078007254
 20
1.5394536725
 30
0.0
 11
0.3536610946
 21
-0.3536610946
 31
0.0
 40
0.9996954599
 41
2.3563467834
 42
3.9268385237
  0
ELLIPSE
  5
54B
100
AcDbEntity
  8
RACCORDO
100
AcDbEllipse
 62
7
  6
CONTINUOUS
 10
14.6850649206
 20
1.5394536725
 30
0.0
 11
0.3536610946
 21
0.3536610946
 31
0.0
 40
0.9996954599
 41
-0.7852458701
 42
0.7852458701
  0
ELLIPSE
  5
54C
100
AcDbEntity
  8
RACCORDO
100
AcDbEllipse
 62
7
  6
CONTINUOUS
 10
14.6850649206
 20
-41.2534119735
 30
0.0
 11
0.3536610946
 21
-0.3536610946
 31
0.0
 40
0.9996954599
 41
-0.7852458701
 42
0.7852458701
  0
ELLIPSE
  5
54D
100
AcDbEntity
  8
RACCORDO
100
AcDbEllipse
 62
7
  6
CONTINUOUS
 10
-14.8078007254
 20
2.9465880265
 30
0.0
 11
0.3536610946
 21
0.3536610946
 31
0.0
 40
0.9996954599
 41
-3.9268385237
 42
-2.3563467834
  0
ELLIPSE
  5
54E
100
AcDbEntity
  8
RACCORDO
100
AcDbEllipse
 62
7
  6
CONTINUOUS
 10
-14.8078007254
 20
45.7394536725
 30
0.0
 11
0.3536610946
 21
-0.3536610946
 31
0.0
 40
0.9996954599
 41
2.3563467834
 42
3.9268385237
  0
ELLIPSE
  5
54F
100
AcDbEntity
  8
RACCORDO
100
AcDbEllipse
 62
7
  6
CONTINUOUS
 10
14.6850649206
 20
45.7394536725
 30
0.0
 11
0.3536610946
 21
0.3536610946
 31
0.0
 40
0.9996954599
 41
-0.7852458701
 42
0.7852458701
  0
ELLIPSE
  5
550
100
AcDbEntity
  8
RACCORDO
100
AcDbEllipse
 62
7
  6
CONTINUOUS
 10
14.6850649206
 20
2.9465880265
 30
0.0
 11
-0.3536610946
 21
0.3536610946
 31
0.0
 40
0.9996954599
 41
-3.9268385237
 42
-2.3563467834
  0
ELLIPSE
  5
551
100
AcDbEntity
  8
DRAFT
100
AcDbEllipse
 62
7
  6
CONTINUOUS
 10
-72.3032860907
 20
31.2430208495
 30
0.0
 11
42.9543799244
 21
0.0
 31
0.0
 40
0.0349207695
 41
0.5856855435
 42
0.6461420562
  0
ELLIPSE
  5
552
100
AcDbEntity
  8
DRAFT
100
AcDbEllipse
 62
7
  6
CONTINUOUS
 10
-72.3032860907
 20
-11.7569791505
 30
0.0
 11
42.9543799244
 21
0.0
 31
0.0
 40
0.0349207695
 41
-0.6461420562
 42
-0.5856855435
  0
ELLIPSE
  5
553
100
AcDbEntity
  8
DRAFT
100
AcDbEllipse
 62
7
  6
CONTINUOUS
 10
-72.3032860907
 20
16.2430208495
 30
0.0
 11
42.9543799244
 21
0.0
 31
0.0
 40
0.0349207695
 41
0.5856855435
 42
0.6461420562
  0
ELLIPSE
  5
554
100
AcDbEntity
  8
DRAFT
100
AcDbEllipse
 62
7
  6
CONTINUOUS
 10
-72.3032860907
 20
-26.7569791505
 30
0.0
 11
42.9543799244
 21
0.0
 31
0.0
 40
0.0349207695
 41
0.5856855435
 42
0.6461420562
  0
ELLIPSE
  5
555
100
AcDbEntity
  8
DRAFT
100
AcDbEllipse
 62
7
  6
CONTINUOUS
 10
-72.3032860907
 20
31.2430208495
 30
0.0
 11
42.9543799244
 21
-0.0
 31
0.0
 40
0.0349207695
 41
-0.6461420562
 42
-0.5856855435
  0
ELLIPSE
  5
556
100
AcDbEntity
  8
DRAFT
100
AcDbEllipse
 62
7
  6
CONTINUOUS
 10
-72.3032860907
 20
-11.7569791505
 30
0.0
 11
42.9543799244
 21
-0.0
 31
0.0
 40
0.0349207695
 41
0.5856855435
 42
0.6461420562
  0
ELLIPSE
  5
557
100
AcDbEntity
  8
DRAFT
100
AcDbEllipse
 62
7
  6
CONTINUOUS
 10
-72.3032860907
 20
-26.7569791505
 30
0.0
 11
42.9543799244
 21
0.0
 31
0.0
 40
0.0349207695
 41
-0.6461420562
 42
-0.5856855435
  0
ELLIPSE
  5
558
100
AcDbEntity
  8
DRAFT
100
AcDbEllipse
 62
7
  6
CONTINUOUS
 10
-72.3032860907
 20
16.2430208495
 30
0.0
 11
42.9543799244
 21
-0.0
 31
0.0
 40
0.0349207695
 41
-0.6461420562
 42
-0.5856855435
  0
ENDSEC
  0
SECTION
  2
OBJECTS
  0
DICTIONARY
  5
C
100
AcDbDictionary
280
0
281
1
  3
ACAD_GROUP
350
D
  3
ACAD_MLINESTYLE
350
17
  3
ACAD_LAYOUT
350
1A
  3
ACAD_PLOTSETTINGS
350
19
  3
ACAD_PLOTSTYLENAME
350
E
  0
DICTIONARY
  5
D
102
{ACAD_REACTORS
330
C
102
}
100
AcDbDictionary
280
0
281
1
  0
ACDBDICTIONARYWDFLT
  5
E
102
{ACAD_REACTORS
330
C
102
}
100
AcDbDictionary
281
1
  3
Normal
350
F
100
AcDbDictionaryWithDefault
340
F
  0
DICTIONARY
  5
17
102
{ACAD_REACTORS
330
C
102
}
100
AcDbDictionary
280
0
281
1
  3
Standard
350
18
  0
DICTIONARY
  5
19
102
{ACAD_REACTORS
330
C
102
}
100
AcDbDictionary
281
1
  0
DICTIONARY
  5
1A
102
{ACAD_REACTORS
330
C
102
}
100
AcDbDictionary
281
1
  3
Model
350
559
  3
Layout1
350
55A
  0
ACDBPLACEHOLDER
  5
F
102
{ACAD_REACTORS
330
E
102
}
  0
MLINESTYLE
  5
18
102
{ACAD_REACTORS
330
17
102
}
100
AcDbMlineStyle
  2
STANDARD
 70
0
  3

 62
256
 51
90.0
 52
90.0
 71
2
 49
0.5
 62
256
  6
BYLAYER
 49
-0.5
 62
256
  6
BYLAYER
  0
LAYOUT
  5
559
102
{ACAD_REACTORS
330
1A
102
}
100
AcDbPlotSettings
  1

  2
none_device
  4

  6

 40
0.0
 41
0.0
 42
0.0
 43
0.0
 44
210.0
 45
297.0
 46
0.0
 47
0.0
 48
0.0
 49
0.0
140
0.0
141
0.0
142
1.0
143
1.0
 70
1024
 72
1
 73
0
 74
0
  7

 75
0
147
1.0
148
0.0
149
0.0
100
AcDbLayout
  1
Model
 70
0
 71
0
 10
0.0
 20
0.0
 11
210.0
 21
297.0
 12
0.0
 22
0.0
 32
0.0
 14
0.0
 24
0.0
 34
0.0
 15
0.0
 25
0.0
 35
0.0
146
0.0
 13
0.0
 23
0.0
 33
0.0
 16
1.0
 26
0.0
 36
0.0
 17
0.0
 27
1.0
 37
0.0
 76
0
330
32F
345
0
346
0
  0
LAYOUT
  5
55A
102
{ACAD_REACTORS
330
1A
102
}
100
AcDbPlotSettings
  1

  2
none_device
  4

  6

 40
0.0
 41
0.0
 42
0.0
 43
0.0
 44
210.0
 45
297.0
 46
0.0
 47
0.0
 48
0.0
 49
0.0
140
0.0
141
0.0
142
1.0
143
1.0
 70
0
 72
1
 73
0
 74
0
  7

 75
0
147
1.0
148
0.0
149
0.0
100
AcDbLayout
  1
Layout1
 70
0
 71
1
 10
0.0
 20
0.0
 11
210.0
 21
297.0
 12
0.0
 22
0.0
 32
0.0
 14
0.0
 24
0.0
 34
0.0
 15
0.0
 25
0.0
 35
0.0
146
0.0
 13
0.0
 23
0.0
 33
0.0
 16
1.0
 26
0.0
 36
0.0
 17
0.0
 27
1.0
 37
0.0
 76
0
330
330
345
0
346
0
  0
ENDSEC
  0
EOF
