  0
SECTION
  2
HEADER
  9
$ACADVER
  1
AC1024
  9
$DWGCODEPAGE
  3
ANSI_1252
  9
$EXTMAX
 10
210.0
 20
297.0
 30
0.0
  9
$EXTMIN
 10
0.0
 20
0.0
 30
0.0
  9
$LIMMIN
 10
0.0
 20
0.0
  9
$LIMMAX
 10
210.0
 20
297.0
  9
$VIEWCTR
 10
105.0
 20
148.5
  9
$VIEWSIZE
 40
297.0
  9
$CLAYER
  8
0
  9
$LTSCALE
 40
19.36
  9
$CELTYPE
  6
BYLAYER
  9
$DIMSCALE
 40
1.0
  9
$DIMASZ
 40
3.0
  9
$DIMEXO
 40
0.5
  9
$DIMDLI
 40
13.376
  9
$DIMEXE
 40
1.5
  9
$DIMCEN
 40
3.168
  9
$DIMLFAC
 40
1.0
  9
$DIMBLK
  1
_FILLED
  9
$DIMALT
 70
0
  9
$DIMALTF
 40
0.0393700787
  9
$DIMTXT
 40
3.0
  9
$DIMTOL
 70
1
  9
$DIMLIM
 70
0
  9
$DIMTFAC
 40
1.0
  9
$DIMTP
 40
0.01
  9
$DIMTM
 40
0.01
  9
$DIMGAP
 40
0.625
  9
$DIMDSEP
 70
44
  9
$AUNITS
 70
0
  9
$PDMODE
 70
3
  9
$PDSIZE
 40
3.0
  9
$HANDSEED
  5
57F
  9
$TILEMODE
 70
1
  9
$MEASUREMENT
 70
1
  9
$INSUNITS
 70
4
  0
ENDSEC
  0
SECTION
  2
CLASSES
  0
CLASS
  1
ACDBDICTIONARYWDFLT
  2
AcDbDictionaryWithDefault
  3
AutoCAD 2000
 90
0
 91
1
280
0
281
0
  0
CLASS
  1
ACDBPLACEHOLDER
  2
AcDbPlaceHolder
  3
AutoCAD 2000
 90
0
 91
1
280
0
281
0
  0
CLASS
  1
LAYOUT
  2
AcDbLayout
  3
AutoCAD 2000
 90
0
 91
0
280
0
281
0
  0
ENDSEC
  0
SECTION
  2
TABLES
  0
TABLE
  2
VPORT
  5
8
100
AcDbSymbolTable
 70
2
  0
VPORT
  5
1F4
100
AcDbSymbolTableRecord
100
AcDbViewportTableRecord
  2
*ACTIVE
 70
0
 10
0.0
 20
0.0
 11
1.0
 21
1.0
 12
105.0
 22
148.5
 13
0.0
 23
0.0
 14
1.0
 24
1.0
 15
0.0
 25
0.0
 16
0.0
 26
0.0
 36
1.0
 17
0.0
 27
0.0
 37
0.0
 40
297.0
 41
0.7070707071
 42
50.0
 43
0.0
 44
0.0
 50
0.0
 51
0.0
 71
0
 72
100
 73
1
 74
1
 75
0
 76
0
 77
0
 78
0
  0
ENDTAB
  0
TABLE
  2
LTYPE
  5
5
100
AcDbSymbolTable
 70
6
  0
LTYPE
  5
14
100
AcDbSymbolTableRecord
100
AcDbLinetypeTableRecord
  2
BYBLOCK
 70
0
  3

 72
65
 73
0
 40
0.0
  0
LTYPE
  5
15
100
AcDbSymbolTableRecord
100
AcDbLinetypeTableRecord
  2
BYLAYER
 70
0
  3

 72
65
 73
0
 40
0.0
  0
LTYPE
  5
16
100
AcDbSymbolTableRecord
100
AcDbLinetypeTableRecord
  2
CONTINUOUS
 70
64
  3
Solid line
 72
65
 73
0
 40
0.0
  0
LTYPE
  5
1F5
100
AcDbSymbolTableRecord
100
AcDbLinetypeTableRecord
  2
CENTER
 70
64
  3
____ _ ____ _ ____ _ ____ _ ____ _ ____ _ ____
 72
65
 73
4
 40
0.6
 49
0.375
 74
0
 49
-0.075
 74
0
 49
0.075
 74
0
 49
-0.075
 74
0
  0
LTYPE
  5
1F6
100
AcDbSymbolTableRecord
100
AcDbLinetypeTableRecord
  2
HIDDEN
 70
64
  3
- - - - - - - - - - - - - - - - - - - -
 72
65
 73
2
 40
0.2
 49
0.1
 74
0
 49
-0.1
 74
0
  0
LTYPE
  5
1F7
100
AcDbSymbolTableRecord
100
AcDbLinetypeTableRecord
  2
PHANTOM
 70
64
  3
_____ _ _ _____ _ _ _____ _ _ _____
 72
65
 73
6
 40
0.8
 49
0.45
 74
0
 49
-0.05
 74
0
 49
0.1
 74
0
 49
-0.05
 74
0
 49
0.1
 74
0
 49
-0.05
 74
0
  0
LTYPE
  5
1F8
100
AcDbSymbolTableRecord
100
AcDbLinetypeTableRecord
  2
DOT
 70
64
  3
. . . . . . . . . . . . . . . . . . . .
 72
65
 73
2
 40
0.2
 49
0.1
 74
0
 49
-0.1
 74
0
  0
LTYPE
  5
1F9
100
AcDbSymbolTableRecord
100
AcDbLinetypeTableRecord
  2
DASHED
 70
64
  3
- - - - - - - - - - - - - - - - - - - -
 72
65
 73
2
 40
0.2
 49
0.1
 74
0
 49
-0.1
 74
0
  0
ENDTAB
  0
TABLE
  2
LAYER
  5
2
100
AcDbSymbolTable
 70
36
  0
LAYER
  5
10
100
AcDbSymbolTableRecord
100
AcDbLayerTableRecord
  2
0
 70
0
 62
7
  6
CONTINUOUS
370
-3
390
F
  0
LAYER
  5
1FA
100
AcDbSymbolTableRecord
100
AcDbLayerTableRecord
  2
DEFAULT_1
 70
0
 62
7
  6
CENTER
370
-3
390
F
  0
LAYER
  5
1FB
100
AcDbSymbolTableRecord
100
AcDbLayerTableRecord
  2
DEFAULT_2
 70
0
 62
7
  6
HIDDEN
370
-3
390
F
  0
LAYER
  5
1FC
100
AcDbSymbolTableRecord
100
AcDbLayerTableRecord
  2
DEFAULT_3
 70
0
 62
7
  6
PHANTOM
370
-3
390
F
  0
LAYER
  5
1FD
100
AcDbSymbolTableRecord
100
AcDbLayerTableRecord
  2
0402_C_REF_70000
 70
0
 62
7
  6
CONTINUOUS
370
-3
390
F
  0
LAYER
  5
1FE
100
AcDbSymbolTableRecord
100
AcDbLayerTableRecord
  2
0402_C_REF_70000_1
 70
0
 62
7
  6
CONTINUOUS
370
-3
390
F
  0
LAYER
  5
1FF
100
AcDbSymbolTableRecord
100
AcDbLayerTableRecord
  2
0402_C_REF_70000_10
 70
0
 62
7
  6
CONTINUOUS
370
-3
390
F
  0
LAYER
  5
200
100
AcDbSymbolTableRecord
100
AcDbLayerTableRecord
  2
0402_C_REF_70000_11
 70
0
 62
7
  6
CONTINUOUS
370
-3
390
F
  0
LAYER
  5
201
100
AcDbSymbolTableRecord
100
AcDbLayerTableRecord
  2
0402_C_REF_70000_12
 70
0
 62
7
  6
CONTINUOUS
370
-3
390
F
  0
LAYER
  5
202
100
AcDbSymbolTableRecord
100
AcDbLayerTableRecord
  2
0402_C_REF_70000_13
 70
0
 62
7
  6
CONTINUOUS
370
-3
390
F
  0
LAYER
  5
203
100
AcDbSymbolTableRecord
100
AcDbLayerTableRecord
  2
0402_C_REF_70000_14
 70
0
 62
7
  6
CONTINUOUS
370
-3
390
F
  0
LAYER
  5
204
100
AcDbSymbolTableRecord
100
AcDbLayerTableRecord
  2
0402_C_REF_70000_15
 70
0
 62
7
  6
CONTINUOUS
370
-3
390
F
  0
LAYER
  5
205
100
AcDbSymbolTableRecord
100
AcDbLayerTableRecord
  2
0402_C_REF_70000_16
 70
0
 62
7
  6
CONTINUOUS
370
-3
390
F
  0
LAYER
  5
206
100
AcDbSymbolTableRecord
100
AcDbLayerTableRecord
  2
0402_C_REF_70000_17
 70
0
 62
7
  6
CONTINUOUS
370
-3
390
F
  0
LAYER
  5
207
100
AcDbSymbolTableRecord
100
AcDbLayerTableRecord
  2
0402_C_REF_70000_18
 70
0
 62
7
  6
CONTINUOUS
370
-3
390
F
  0
LAYER
  5
208
100
AcDbSymbolTableRecord
100
AcDbLayerTableRecord
  2
0402_C_REF_70000_19
 70
0
 62
7
  6
CONTINUOUS
370
-3
390
F
  0
LAYER
  5
209
100
AcDbSymbolTableRecord
100
AcDbLayerTableRecord
  2
0402_C_REF_70000_2
 70
0
 62
7
  6
CONTINUOUS
370
-3
390
F
  0
LAYER
  5
20A
100
AcDbSymbolTableRecord
100
AcDbLayerTableRecord
  2
0402_C_REF_70000_20
 70
0
 62
7
  6
CONTINUOUS
370
-3
390
F
  0
LAYER
  5
20B
100
AcDbSymbolTableRecord
100
AcDbLayerTableRecord
  2
0402_C_REF_70000_21
 70
0
 62
7
  6
CONTINUOUS
370
-3
390
F
  0
LAYER
  5
20C
100
AcDbSymbolTableRecord
100
AcDbLayerTableRecord
  2
0402_C_REF_70000_22
 70
0
 62
7
  6
CONTINUOUS
370
-3
390
F
  0
LAYER
  5
20D
100
AcDbSymbolTableRecord
100
AcDbLayerTableRecord
  2
0402_C_REF_70000_23
 70
0
 62
7
  6
CONTINUOUS
370
-3
390
F
  0
LAYER
  5
20E
100
AcDbSymbolTableRecord
100
AcDbLayerTableRecord
  2
0402_C_REF_70000_24
 70
0
 62
7
  6
CONTINUOUS
370
-3
390
F
  0
LAYER
  5
20F
100
AcDbSymbolTableRecord
100
AcDbLayerTableRecord
  2
0402_C_REF_70000_25
 70
0
 62
7
  6
CONTINUOUS
370
-3
390
F
  0
LAYER
  5
210
100
AcDbSymbolTableRecord
100
AcDbLayerTableRecord
  2
0402_C_REF_70000_26
 70
0
 62
7
  6
CONTINUOUS
370
-3
390
F
  0
LAYER
  5
211
100
AcDbSymbolTableRecord
100
AcDbLayerTableRecord
  2
0402_C_REF_70000_27
 70
0
 62
7
  6
CONTINUOUS
370
-3
390
F
  0
LAYER
  5
212
100
AcDbSymbolTableRecord
100
AcDbLayerTableRecord
  2
0402_C_REF_70000_28
 70
0
 62
7
  6
CONTINUOUS
370
-3
390
F
  0
LAYER
  5
213
100
AcDbSymbolTableRecord
100
AcDbLayerTableRecord
  2
0402_C_REF_70000_29
 70
0
 62
7
  6
CONTINUOUS
370
-3
390
F
  0
LAYER
  5
214
100
AcDbSymbolTableRecord
100
AcDbLayerTableRecord
  2
0402_C_REF_70000_3
 70
0
 62
7
  6
CONTINUOUS
370
-3
390
F
  0
LAYER
  5
215
100
AcDbSymbolTableRecord
100
AcDbLayerTableRecord
  2
0402_C_REF_70000_30
 70
0
 62
7
  6
CONTINUOUS
370
-3
390
F
  0
LAYER
  5
216
100
AcDbSymbolTableRecord
100
AcDbLayerTableRecord
  2
0402_C_REF_70000_31
 70
0
 62
7
  6
CONTINUOUS
370
-3
390
F
  0
LAYER
  5
217
100
AcDbSymbolTableRecord
100
AcDbLayerTableRecord
  2
0402_C_REF_70000_32
 70
0
 62
7
  6
CONTINUOUS
370
-3
390
F
  0
LAYER
  5
218
100
AcDbSymbolTableRecord
100
AcDbLayerTableRecord
  2
0402_C_REF_70000_33
 70
0
 62
7
  6
CONTINUOUS
370
-3
390
F
  0
LAYER
  5
219
100
AcDbSymbolTableRecord
100
AcDbLayerTableRecord
  2
0402_C_REF_70000_34
 70
0
 62
7
  6
CONTINUOUS
370
-3
390
F
  0
LAYER
  5
21A
100
AcDbSymbolTableRecord
100
AcDbLayerTableRecord
  2
0402_C_REF_70000_35
 70
0
 62
7
  6
CONTINUOUS
370
-3
390
F
  0
LAYER
  5
21B
100
AcDbSymbolTableRecord
100
AcDbLayerTableRecord
  2
0402_C_REF_70000_36
 70
0
 62
7
  6
CONTINUOUS
370
-3
390
F
  0
LAYER
  5
21C
100
AcDbSymbolTableRecord
100
AcDbLayerTableRecord
  2
0402_C_REF_70000_37
 70
0
 62
7
  6
CONTINUOUS
370
-3
390
F
  0
LAYER
  5
21D
100
AcDbSymbolTableRecord
100
AcDbLayerTableRecord
  2
0402_C_REF_70000_38
 70
0
 62
7
  6
CONTINUOUS
370
-3
390
F
  0
LAYER
  5
21E
100
AcDbSymbolTableRecord
100
AcDbLayerTableRecord
  2
0402_C_REF_70000_39
 70
0
 62
7
  6
CONTINUOUS
370
-3
390
F
  0
LAYER
  5
21F
100
AcDbSymbolTableRecord
100
AcDbLayerTableRecord
  2
0402_C_REF_70000_4
 70
0
 62
7
  6
CONTINUOUS
370
-3
390
F
  0
LAYER
  5
220
100
AcDbSymbolTableRecord
100
AcDbLayerTableRecord
  2
0402_C_REF_70000_40
 70
0
 62
7
  6
CONTINUOUS
370
-3
390
F
  0
LAYER
  5
221
100
AcDbSymbolTableRecord
100
AcDbLayerTableRecord
  2
0402_C_REF_70000_5
 70
0
 62
7
  6
CONTINUOUS
370
-3
390
F
  0
LAYER
  5
222
100
AcDbSymbolTableRecord
100
AcDbLayerTableRecord
  2
0402_C_REF_70000_6
 70
0
 62
7
  6
CONTINUOUS
370
-3
390
F
  0
LAYER
  5
223
100
AcDbSymbolTableRecord
100
AcDbLayerTableRecord
  2
0402_C_REF_70000_7
 70
0
 62
7
  6
CONTINUOUS
370
-3
390
F
  0
LAYER
  5
224
100
AcDbSymbolTableRecord
100
AcDbLayerTableRecord
  2
0402_C_REF_70000_8
 70
0
 62
7
  6
CONTINUOUS
370
-3
390
F
  0
LAYER
  5
225
100
AcDbSymbolTableRecord
100
AcDbLayerTableRecord
  2
0402_C_REF_70000_9
 70
0
 62
7
  6
CONTINUOUS
370
-3
390
F
  0
LAYER
  5
226
100
AcDbSymbolTableRecord
100
AcDbLayerTableRecord
  2
0402_R_REF_30000
 70
0
 62
7
  6
CONTINUOUS
370
-3
390
F
  0
LAYER
  5
227
100
AcDbSymbolTableRecord
100
AcDbLayerTableRecord
  2
0402_R_REF_30000_1
 70
0
 62
7
  6
CONTINUOUS
370
-3
390
F
  0
LAYER
  5
228
100
AcDbSymbolTableRecord
100
AcDbLayerTableRecord
  2
0402_R_REF_30000_10
 70
0
 62
7
  6
CONTINUOUS
370
-3
390
F
  0
LAYER
  5
229
100
AcDbSymbolTableRecord
100
AcDbLayerTableRecord
  2
0402_R_REF_30000_11
 70
0
 62
7
  6
CONTINUOUS
370
-3
390
F
  0
LAYER
  5
22A
100
AcDbSymbolTableRecord
100
AcDbLayerTableRecord
  2
0402_R_REF_30000_12
 70
0
 62
7
  6
CONTINUOUS
370
-3
390
F
  0
LAYER
  5
22B
100
AcDbSymbolTableRecord
100
AcDbLayerTableRecord
  2
0402_R_REF_30000_13
 70
0
 62
7
  6
CONTINUOUS
370
-3
390
F
  0
LAYER
  5
22C
100
AcDbSymbolTableRecord
100
AcDbLayerTableRecord
  2
0402_R_REF_30000_14
 70
0
 62
7
  6
CONTINUOUS
370
-3
390
F
  0
LAYER
  5
22D
100
AcDbSymbolTableRecord
100
AcDbLayerTableRecord
  2
0402_R_REF_30000_15
 70
0
 62
7
  6
CONTINUOUS
370
-3
390
F
  0
LAYER
  5
22E
100
AcDbSymbolTableRecord
100
AcDbLayerTableRecord
  2
0402_R_REF_30000_16
 70
0
 62
7
  6
CONTINUOUS
370
-3
390
F
  0
LAYER
  5
22F
100
AcDbSymbolTableRecord
100
AcDbLayerTableRecord
  2
0402_R_REF_30000_17
 70
0
 62
7
  6
CONTINUOUS
370
-3
390
F
  0
LAYER
  5
230
100
AcDbSymbolTableRecord
100
AcDbLayerTableRecord
  2
0402_R_REF_30000_18
 70
0
 62
7
  6
CONTINUOUS
370
-3
390
F
  0
LAYER
  5
231
100
AcDbSymbolTableRecord
100
AcDbLayerTableRecord
  2
0402_R_REF_30000_19
 70
0
 62
7
  6
CONTINUOUS
370
-3
390
F
  0
LAYER
  5
232
100
AcDbSymbolTableRecord
100
AcDbLayerTableRecord
  2
0402_R_REF_30000_2
 70
0
 62
7
  6
CONTINUOUS
370
-3
390
F
  0
LAYER
  5
233
100
AcDbSymbolTableRecord
100
AcDbLayerTableRecord
  2
0402_R_REF_30000_20
 70
0
 62
7
  6
CONTINUOUS
370
-3
390
F
  0
LAYER
  5
234
100
AcDbSymbolTableRecord
100
AcDbLayerTableRecord
  2
0402_R_REF_30000_21
 70
0
 62
7
  6
CONTINUOUS
370
-3
390
F
  0
LAYER
  5
235
100
AcDbSymbolTableRecord
100
AcDbLayerTableRecord
  2
0402_R_REF_30000_22
 70
0
 62
7
  6
CONTINUOUS
370
-3
390
F
  0
LAYER
  5
236
100
AcDbSymbolTableRecord
100
AcDbLayerTableRecord
  2
0402_R_REF_30000_23
 70
0
 62
7
  6
CONTINUOUS
370
-3
390
F
  0
LAYER
  5
237
100
AcDbSymbolTableRecord
100
AcDbLayerTableRecord
  2
0402_R_REF_30000_24
 70
0
 62
7
  6
CONTINUOUS
370
-3
390
F
  0
LAYER
  5
238
100
AcDbSymbolTableRecord
100
AcDbLayerTableRecord
  2
0402_R_REF_30000_25
 70
0
 62
7
  6
CONTINUOUS
370
-3
390
F
  0
LAYER
  5
239
100
AcDbSymbolTableRecord
100
AcDbLayerTableRecord
  2
0402_R_REF_30000_26
 70
0
 62
7
  6
CONTINUOUS
370
-3
390
F
  0
LAYER
  5
23A
100
AcDbSymbolTableRecord
100
AcDbLayerTableRecord
  2
0402_R_REF_30000_27
 70
0
 62
7
  6
CONTINUOUS
370
-3
390
F
  0
LAYER
  5
23B
100
AcDbSymbolTableRecord
100
AcDbLayerTableRecord
  2
0402_R_REF_30000_28
 70
0
 62
7
  6
CONTINUOUS
370
-3
390
F
  0
LAYER
  5
23C
100
AcDbSymbolTableRecord
100
AcDbLayerTableRecord
  2
0402_R_REF_30000_29
 70
0
 62
7
  6
CONTINUOUS
370
-3
390
F
  0
LAYER
  5
23D
100
AcDbSymbolTableRecord
100
AcDbLayerTableRecord
  2
0402_R_REF_30000_3
 70
0
 62
7
  6
CONTINUOUS
370
-3
390
F
  0
LAYER
  5
23E
100
AcDbSymbolTableRecord
100
AcDbLayerTableRecord
  2
0402_R_REF_30000_30
 70
0
 62
7
  6
CONTINUOUS
370
-3
390
F
  0
LAYER
  5
23F
100
AcDbSymbolTableRecord
100
AcDbLayerTableRecord
  2
0402_R_REF_30000_31
 70
0
 62
7
  6
CONTINUOUS
370
-3
390
F
  0
LAYER
  5
240
100
AcDbSymbolTableRecord
100
AcDbLayerTableRecord
  2
0402_R_REF_30000_32
 70
0
 62
7
  6
CONTINUOUS
370
-3
390
F
  0
LAYER
  5
241
100
AcDbSymbolTableRecord
100
AcDbLayerTableRecord
  2
0402_R_REF_30000_33
 70
0
 62
7
  6
CONTINUOUS
370
-3
390
F
  0
LAYER
  5
242
100
AcDbSymbolTableRecord
100
AcDbLayerTableRecord
  2
0402_R_REF_30000_34
 70
0
 62
7
  6
CONTINUOUS
370
-3
390
F
  0
LAYER
  5
243
100
AcDbSymbolTableRecord
100
AcDbLayerTableRecord
  2
0402_R_REF_30000_35
 70
0
 62
7
  6
CONTINUOUS
370
-3
390
F
  0
LAYER
  5
244
100
AcDbSymbolTableRecord
100
AcDbLayerTableRecord
  2
0402_R_REF_30000_36
 70
0
 62
7
  6
CONTINUOUS
370
-3
390
F
  0
LAYER
  5
245
100
AcDbSymbolTableRecord
100
AcDbLayerTableRecord
  2
0402_R_REF_30000_37
 70
0
 62
7
  6
CONTINUOUS
370
-3
390
F
  0
LAYER
  5
246
100
AcDbSymbolTableRecord
100
AcDbLayerTableRecord
  2
0402_R_REF_30000_38
 70
0
 62
7
  6
CONTINUOUS
370
-3
390
F
  0
LAYER
  5
247
100
AcDbSymbolTableRecord
100
AcDbLayerTableRecord
  2
0402_R_REF_30000_39
 70
0
 62
7
  6
CONTINUOUS
370
-3
390
F
  0
LAYER
  5
248
100
AcDbSymbolTableRecord
100
AcDbLayerTableRecord
  2
0402_R_REF_30000_4
 70
0
 62
7
  6
CONTINUOUS
370
-3
390
F
  0
LAYER
  5
249
100
AcDbSymbolTableRecord
100
AcDbLayerTableRecord
  2
0402_R_REF_30000_40
 70
0
 62
7
  6
CONTINUOUS
370
-3
390
F
  0
LAYER
  5
24A
100
AcDbSymbolTableRecord
100
AcDbLayerTableRecord
  2
0402_R_REF_30000_41
 70
0
 62
7
  6
CONTINUOUS
370
-3
390
F
  0
LAYER
  5
24B
100
AcDbSymbolTableRecord
100
AcDbLayerTableRecord
  2
0402_R_REF_30000_42
 70
0
 62
7
  6
CONTINUOUS
370
-3
390
F
  0
LAYER
  5
24C
100
AcDbSymbolTableRecord
100
AcDbLayerTableRecord
  2
0402_R_REF_30000_5
 70
0
 62
7
  6
CONTINUOUS
370
-3
390
F
  0
LAYER
  5
24D
100
AcDbSymbolTableRecord
100
AcDbLayerTableRecord
  2
0402_R_REF_30000_6
 70
0
 62
7
  6
CONTINUOUS
370
-3
390
F
  0
LAYER
  5
24E
100
AcDbSymbolTableRecord
100
AcDbLayerTableRecord
  2
0402_R_REF_30000_7
 70
0
 62
7
  6
CONTINUOUS
370
-3
390
F
  0
LAYER
  5
24F
100
AcDbSymbolTableRecord
100
AcDbLayerTableRecord
  2
0402_R_REF_30000_8
 70
0
 62
7
  6
CONTINUOUS
370
-3
390
F
  0
LAYER
  5
250
100
AcDbSymbolTableRecord
100
AcDbLayerTableRecord
  2
0402_R_REF_30000_9
 70
0
 62
7
  6
CONTINUOUS
370
-3
390
F
  0
LAYER
  5
251
100
AcDbSymbolTableRecord
100
AcDbLayerTableRecord
  2
0603_C_REF_90000
 70
0
 62
7
  6
CONTINUOUS
370
-3
390
F
  0
LAYER
  5
252
100
AcDbSymbolTableRecord
100
AcDbLayerTableRecord
  2
0603_C_REF_90000_1
 70
0
 62
7
  6
CONTINUOUS
370
-3
390
F
  0
LAYER
  5
253
100
AcDbSymbolTableRecord
100
AcDbLayerTableRecord
  2
0603_C_REF_90000_2
 70
0
 62
7
  6
CONTINUOUS
370
-3
390
F
  0
LAYER
  5
254
100
AcDbSymbolTableRecord
100
AcDbLayerTableRecord
  2
0603_C_REF_90000_3
 70
0
 62
7
  6
CONTINUOUS
370
-3
390
F
  0
LAYER
  5
255
100
AcDbSymbolTableRecord
100
AcDbLayerTableRecord
  2
0603_R_REF_55000
 70
0
 62
7
  6
CONTINUOUS
370
-3
390
F
  0
LAYER
  5
256
100
AcDbSymbolTableRecord
100
AcDbLayerTableRecord
  2
0603_R_REF_55000_1
 70
0
 62
7
  6
CONTINUOUS
370
-3
390
F
  0
LAYER
  5
257
100
AcDbSymbolTableRecord
100
AcDbLayerTableRecord
  2
0603_R_REF_55000_2
 70
0
 62
7
  6
CONTINUOUS
370
-3
390
F
  0
LAYER
  5
258
100
AcDbSymbolTableRecord
100
AcDbLayerTableRecord
  2
06___PRT_ALL_SURFS
 70
0
 62
7
  6
CONTINUOUS
370
-3
390
F
  0
LAYER
  5
259
100
AcDbSymbolTableRecord
100
AcDbLayerTableRecord
  2
06___PRT_ALL_SURFS_1
 70
0
 62
7
  6
CONTINUOUS
370
-3
390
F
  0
LAYER
  5
25A
100
AcDbSymbolTableRecord
100
AcDbLayerTableRecord
  2
06___PRT_ALL_SURFS_11
 70
0
 62
7
  6
CONTINUOUS
370
-3
390
F
  0
LAYER
  5
25B
100
AcDbSymbolTableRecord
100
AcDbLayerTableRecord
  2
06___PRT_ALL_SURFS_13
 70
0
 62
7
  6
CONTINUOUS
370
-3
390
F
  0
LAYER
  5
25C
100
AcDbSymbolTableRecord
100
AcDbLayerTableRecord
  2
06___PRT_ALL_SURFS_15
 70
0
 62
7
  6
CONTINUOUS
370
-3
390
F
  0
LAYER
  5
25D
100
AcDbSymbolTableRecord
100
AcDbLayerTableRecord
  2
06___PRT_ALL_SURFS_18
 70
0
 62
7
  6
CONTINUOUS
370
-3
390
F
  0
LAYER
  5
25E
100
AcDbSymbolTableRecord
100
AcDbLayerTableRecord
  2
06___PRT_ALL_SURFS_2
 70
0
 62
7
  6
CONTINUOUS
370
-3
390
F
  0
LAYER
  5
25F
100
AcDbSymbolTableRecord
100
AcDbLayerTableRecord
  2
06___PRT_ALL_SURFS_21
 70
0
 62
7
  6
CONTINUOUS
370
-3
390
F
  0
LAYER
  5
260
100
AcDbSymbolTableRecord
100
AcDbLayerTableRecord
  2
06___PRT_ALL_SURFS_3
 70
0
 62
7
  6
CONTINUOUS
370
-3
390
F
  0
LAYER
  5
261
100
AcDbSymbolTableRecord
100
AcDbLayerTableRecord
  2
06___PRT_ALL_SURFS_4
 70
0
 62
7
  6
CONTINUOUS
370
-3
390
F
  0
LAYER
  5
262
100
AcDbSymbolTableRecord
100
AcDbLayerTableRecord
  2
06___PRT_ALL_SURFS_5
 70
0
 62
7
  6
CONTINUOUS
370
-3
390
F
  0
LAYER
  5
263
100
AcDbSymbolTableRecord
100
AcDbLayerTableRecord
  2
06___PRT_ALL_SURFS_8
 70
0
 62
7
  6
CONTINUOUS
370
-3
390
F
  0
LAYER
  5
264
100
AcDbSymbolTableRecord
100
AcDbLayerTableRecord
  2
0805_C_REF_145000
 70
0
 62
7
  6
CONTINUOUS
370
-3
390
F
  0
LAYER
  5
265
100
AcDbSymbolTableRecord
100
AcDbLayerTableRecord
  2
0805_C_REF_145000_1
 70
0
 62
7
  6
CONTINUOUS
370
-3
390
F
  0
LAYER
  5
266
100
AcDbSymbolTableRecord
100
AcDbLayerTableRecord
  2
0805_C_REF_145000_2
 70
0
 62
7
  6
CONTINUOUS
370
-3
390
F
  0
LAYER
  5
267
100
AcDbSymbolTableRecord
100
AcDbLayerTableRecord
  2
0805_C_REF_145000_3
 70
0
 62
7
  6
CONTINUOUS
370
-3
390
F
  0
LAYER
  5
268
100
AcDbSymbolTableRecord
100
AcDbLayerTableRecord
  2
1206_C_REF_180000
 70
0
 62
7
  6
CONTINUOUS
370
-3
390
F
  0
LAYER
  5
269
100
AcDbSymbolTableRecord
100
AcDbLayerTableRecord
  2
1206_C_REF_180000_1
 70
0
 62
7
  6
CONTINUOUS
370
-3
390
F
  0
LAYER
  5
26A
100
AcDbSymbolTableRecord
100
AcDbLayerTableRecord
  2
43001033A0
 70
0
 62
7
  6
CONTINUOUS
370
-3
390
F
  0
LAYER
  5
26B
100
AcDbSymbolTableRecord
100
AcDbLayerTableRecord
  2
43001033B0
 70
0
 62
7
  6
CONTINUOUS
370
-3
390
F
  0
LAYER
  5
26C
100
AcDbSymbolTableRecord
100
AcDbLayerTableRecord
  2
ASSI
 70
0
 62
7
  6
CONTINUOUS
370
-3
390
F
  0
LAYER
  5
26D
100
AcDbSymbolTableRecord
100
AcDbLayerTableRecord
  2
CAP-T-SMD-CASE-A_160000
 70
0
 62
7
  6
CONTINUOUS
370
-3
390
F
  0
LAYER
  5
26E
100
AcDbSymbolTableRecord
100
AcDbLayerTableRecord
  2
CAP-T-SMD-CASE-A_160000_1
 70
0
 62
7
  6
CONTINUOUS
370
-3
390
F
  0
LAYER
  5
26F
100
AcDbSymbolTableRecord
100
AcDbLayerTableRecord
  2
COLOR1
 70
0
 62
7
  6
CONTINUOUS
370
-3
390
F
  0
LAYER
  5
270
100
AcDbSymbolTableRecord
100
AcDbLayerTableRecord
  2
COLOR16
 70
0
 62
7
  6
CONTINUOUS
370
-3
390
F
  0
LAYER
  5
271
100
AcDbSymbolTableRecord
100
AcDbLayerTableRecord
  2
COLOR191
 70
0
 62
7
  6
CONTINUOUS
370
-3
390
F
  0
LAYER
  5
272
100
AcDbSymbolTableRecord
100
AcDbLayerTableRecord
  2
COLOR194
 70
0
 62
7
  6
CONTINUOUS
370
-3
390
F
  0
LAYER
  5
273
100
AcDbSymbolTableRecord
100
AcDbLayerTableRecord
  2
COLOR196
 70
0
 62
7
  6
CONTINUOUS
370
-3
390
F
  0
LAYER
  5
274
100
AcDbSymbolTableRecord
100
AcDbLayerTableRecord
  2
COLOR198
 70
0
 62
7
  6
CONTINUOUS
370
-3
390
F
  0
LAYER
  5
275
100
AcDbSymbolTableRecord
100
AcDbLayerTableRecord
  2
COLOR2
 70
0
 62
7
  6
CONTINUOUS
370
-3
390
F
  0
LAYER
  5
276
100
AcDbSymbolTableRecord
100
AcDbLayerTableRecord
  2
COLOR200
 70
0
 62
7
  6
CONTINUOUS
370
-3
390
F
  0
LAYER
  5
277
100
AcDbSymbolTableRecord
100
AcDbLayerTableRecord
  2
COLOR201
 70
0
 62
7
  6
CONTINUOUS
370
-3
390
F
  0
LAYER
  5
278
100
AcDbSymbolTableRecord
100
AcDbLayerTableRecord
  2
COLOR202
 70
0
 62
7
  6
CONTINUOUS
370
-3
390
F
  0
LAYER
  5
279
100
AcDbSymbolTableRecord
100
AcDbLayerTableRecord
  2
COLOR203
 70
0
 62
7
  6
CONTINUOUS
370
-3
390
F
  0
LAYER
  5
27A
100
AcDbSymbolTableRecord
100
AcDbLayerTableRecord
  2
COLOR205
 70
0
 62
7
  6
CONTINUOUS
370
-3
390
F
  0
LAYER
  5
27B
100
AcDbSymbolTableRecord
100
AcDbLayerTableRecord
  2
COLOR207
 70
0
 62
7
  6
CONTINUOUS
370
-3
390
F
  0
LAYER
  5
27C
100
AcDbSymbolTableRecord
100
AcDbLayerTableRecord
  2
COLOR208
 70
0
 62
7
  6
CONTINUOUS
370
-3
390
F
  0
LAYER
  5
27D
100
AcDbSymbolTableRecord
100
AcDbLayerTableRecord
  2
COLOR209
 70
0
 62
7
  6
CONTINUOUS
370
-3
390
F
  0
LAYER
  5
27E
100
AcDbSymbolTableRecord
100
AcDbLayerTableRecord
  2
COLOR210
 70
0
 62
7
  6
CONTINUOUS
370
-3
390
F
  0
LAYER
  5
27F
100
AcDbSymbolTableRecord
100
AcDbLayerTableRecord
  2
COLOR212
 70
0
 62
7
  6
CONTINUOUS
370
-3
390
F
  0
LAYER
  5
280
100
AcDbSymbolTableRecord
100
AcDbLayerTableRecord
  2
COLOR214
 70
0
 62
7
  6
CONTINUOUS
370
-3
390
F
  0
LAYER
  5
281
100
AcDbSymbolTableRecord
100
AcDbLayerTableRecord
  2
COLOR221
 70
0
 62
7
  6
CONTINUOUS
370
-3
390
F
  0
LAYER
  5
282
100
AcDbSymbolTableRecord
100
AcDbLayerTableRecord
  2
COLOR6
 70
0
 62
7
  6
CONTINUOUS
370
-3
390
F
  0
LAYER
  5
283
100
AcDbSymbolTableRecord
100
AcDbLayerTableRecord
  2
COORDINATE
 70
0
 62
7
  6
CONTINUOUS
370
-3
390
F
  0
LAYER
  5
284
100
AcDbSymbolTableRecord
100
AcDbLayerTableRecord
  2
COPY_PUBLISH
 70
0
 62
7
  6
CONTINUOUS
370
-3
390
F
  0
LAYER
  5
285
100
AcDbSymbolTableRecord
100
AcDbLayerTableRecord
  2
COSMETICI
 70
0
 62
7
  6
CONTINUOUS
370
-3
390
F
  0
LAYER
  5
286
100
AcDbSymbolTableRecord
100
AcDbLayerTableRecord
  2
CR_SWITCH_KMS231GPLFS__142000
 70
0
 62
7
  6
CONTINUOUS
370
-3
390
F
  0
LAYER
  5
287
100
AcDbSymbolTableRecord
100
AcDbLayerTableRecord
  2
CURVE
 70
0
 62
7
  6
CONTINUOUS
370
-3
390
F
  0
LAYER
  5
288
100
AcDbSymbolTableRecord
100
AcDbLayerTableRecord
  2
DATAMATRIX_RESIST_1000
 70
0
 62
7
  6
CONTINUOUS
370
-3
390
F
  0
LAYER
  5
289
100
AcDbSymbolTableRecord
100
AcDbLayerTableRecord
  2
DRAFT
 70
0
 62
7
  6
CONTINUOUS
370
-3
390
F
  0
LAYER
  5
28A
100
AcDbSymbolTableRecord
100
AcDbLayerTableRecord
  2
FIDUCIAL_1_2_MM_RUOTATO_45_1000
 70
0
 62
7
  6
CONTINUOUS
370
-3
390
F
  0
LAYER
  5
28B
100
AcDbSymbolTableRecord
100
AcDbLayerTableRecord
  2
FIDUCIAL_1_2_MM_RUOTATO_45_10_1
 70
0
 62
7
  6
CONTINUOUS
370
-3
390
F
  0
LAYER
  5
28C
100
AcDbSymbolTableRecord
100
AcDbLayerTableRecord
  2
FIDUCIAL_1_2_MM_RUOTATO_45_10_2
 70
0
 62
7
  6
CONTINUOUS
370
-3
390
F
  0
LAYER
  5
28D
100
AcDbSymbolTableRecord
100
AcDbLayerTableRecord
  2
FIDUCIAL_1_2_MM_RUOTATO_45_10_3
 70
0
 62
7
  6
CONTINUOUS
370
-3
390
F
  0
LAYER
  5
28E
100
AcDbSymbolTableRecord
100
AcDbLayerTableRecord
  2
GEOMETRIA_SOLIDA
 70
0
 62
7
  6
CONTINUOUS
370
-3
390
F
  0
LAYER
  5
28F
100
AcDbSymbolTableRecord
100
AcDbLayerTableRecord
  2
GEOMETRIA_SOLIDA_1
 70
0
 62
7
  6
CONTINUOUS
370
-3
390
F
  0
LAYER
  5
290
100
AcDbSymbolTableRecord
100
AcDbLayerTableRecord
  2
GEOMETRIA_SOLIDA_2
 70
0
 62
7
  6
CONTINUOUS
370
-3
390
F
  0
LAYER
  5
291
100
AcDbSymbolTableRecord
100
AcDbLayerTableRecord
  2
GEOMETRIA_SOLIDA_3
 70
0
 62
7
  6
CONTINUOUS
370
-3
390
F
  0
LAYER
  5
292
100
AcDbSymbolTableRecord
100
AcDbLayerTableRecord
  2
GEOMETRIA_SOLIDA_4
 70
0
 62
7
  6
CONTINUOUS
370
-3
390
F
  0
LAYER
  5
293
100
AcDbSymbolTableRecord
100
AcDbLayerTableRecord
  2
GEOMETRIA_SOLIDA_5
 70
0
 62
7
  6
CONTINUOUS
370
-3
390
F
  0
LAYER
  5
294
100
AcDbSymbolTableRecord
100
AcDbLayerTableRecord
  2
GEOMETRIA_SOLIDA_6
 70
0
 62
7
  6
CONTINUOUS
370
-3
390
F
  0
LAYER
  5
295
100
AcDbSymbolTableRecord
100
AcDbLayerTableRecord
  2
GEOMETRIA_SOLIDA_7
 70
0
 62
7
  6
CONTINUOUS
370
-3
390
F
  0
LAYER
  5
296
100
AcDbSymbolTableRecord
100
AcDbLayerTableRecord
  2
GEOMETRIA_SOLIDA_8
 70
0
 62
7
  6
CONTINUOUS
370
-3
390
F
  0
LAYER
  5
297
100
AcDbSymbolTableRecord
100
AcDbLayerTableRecord
  2
IMPORT_IGES
 70
0
 62
7
  6
CONTINUOUS
370
-3
390
F
  0
LAYER
  5
298
100
AcDbSymbolTableRecord
100
AcDbLayerTableRecord
  2
INTF_1
 70
0
 62
7
  6
CONTINUOUS
370
-3
390
F
  0
LAYER
  5
299
100
AcDbSymbolTableRecord
100
AcDbLayerTableRecord
  2
INTF_11
 70
0
 62
7
  6
CONTINUOUS
370
-3
390
F
  0
LAYER
  5
29A
100
AcDbSymbolTableRecord
100
AcDbLayerTableRecord
  2
INTF_6
 70
0
 62
7
  6
CONTINUOUS
370
-3
390
F
  0
LAYER
  5
29B
100
AcDbSymbolTableRecord
100
AcDbLayerTableRecord
  2
LED-SMD-1_0-0_5-0_6_60000
 70
0
 62
7
  6
CONTINUOUS
370
-3
390
F
  0
LAYER
  5
29C
100
AcDbSymbolTableRecord
100
AcDbLayerTableRecord
  2
LQFP48-7_0-7_0-9_0-9_0-1_6-0_5-
 70
0
 62
7
  6
CONTINUOUS
370
-3
390
F
  0
LAYER
  5
29D
100
AcDbSymbolTableRecord
100
AcDbLayerTableRecord
  2
NOTE
 70
0
 62
7
  6
CONTINUOUS
370
-3
390
F
  0
LAYER
  5
29E
100
AcDbSymbolTableRecord
100
AcDbLayerTableRecord
  2
PIANI
 70
0
 62
7
  6
CONTINUOUS
370
-3
390
F
  0
LAYER
  5
29F
100
AcDbSymbolTableRecord
100
AcDbLayerTableRecord
  2
PUNTI
 70
0
 62
7
  6
CONTINUOUS
370
-3
390
F
  0
LAYER
  5
2A0
100
AcDbSymbolTableRecord
100
AcDbLayerTableRecord
  2
RACCORDO
 70
0
 62
7
  6
CONTINUOUS
370
-3
390
F
  0
LAYER
  5
2A1
100
AcDbSymbolTableRecord
100
AcDbLayerTableRecord
  2
RES-A-SMD-CONV-8-0402-0_55-A_55
 70
0
 62
7
  6
CONTINUOUS
370
-3
390
F
  0
LAYER
  5
2A2
100
AcDbSymbolTableRecord
100
AcDbLayerTableRecord
  2
RES-A-SMD-CONV-8-0402-0_55-A__1
 70
0
 62
7
  6
CONTINUOUS
370
-3
390
F
  0
LAYER
  5
2A3
100
AcDbSymbolTableRecord
100
AcDbLayerTableRecord
  2
SC70-5_H1_1_REF_110000
 70
0
 62
7
  6
CONTINUOUS
370
-3
390
F
  0
LAYER
  5
2A4
100
AcDbSymbolTableRecord
100
AcDbLayerTableRecord
  2
SC70-6_REF_H1_1_110000
 70
0
 62
7
  6
CONTINUOUS
370
-3
390
F
  0
LAYER
  5
2A5
100
AcDbSymbolTableRecord
100
AcDbLayerTableRecord
  2
SIMBOLI
 70
0
 62
7
  6
CONTINUOUS
370
-3
390
F
  0
LAYER
  5
2A6
100
AcDbSymbolTableRecord
100
AcDbLayerTableRecord
  2
SMUSSO
 70
0
 62
7
  6
CONTINUOUS
370
-3
390
F
  0
LAYER
  5
2A7
100
AcDbSymbolTableRecord
100
AcDbLayerTableRecord
  2
SNAPLINE
 70
0
 62
7
  6
CONTINUOUS
370
-3
390
F
  0
LAYER
  5
2A8
100
AcDbSymbolTableRecord
100
AcDbLayerTableRecord
  2
SO8-5_0-6_2-1_75-REF_175000
 70
0
 62
7
  6
CONTINUOUS
370
-3
390
F
  0
LAYER
  5
2A9
100
AcDbSymbolTableRecord
100
AcDbLayerTableRecord
  2
SO8-5_0-6_2-1_75-REF_175000_1
 70
0
 62
7
  6
CONTINUOUS
370
-3
390
F
  0
LAYER
  5
2AA
100
AcDbSymbolTableRecord
100
AcDbLayerTableRecord
  2
SOD323-REF_110000
 70
0
 62
7
  6
CONTINUOUS
370
-3
390
F
  0
LAYER
  5
2AB
100
AcDbSymbolTableRecord
100
AcDbLayerTableRecord
  2
SOD323-REF_110000_1
 70
0
 62
7
  6
CONTINUOUS
370
-3
390
F
  0
LAYER
  5
2AC
100
AcDbSymbolTableRecord
100
AcDbLayerTableRecord
  2
SOT23-5_REF_H1_5_150000
 70
0
 62
7
  6
CONTINUOUS
370
-3
390
F
  0
LAYER
  5
2AD
100
AcDbSymbolTableRecord
100
AcDbLayerTableRecord
  2
SOT23-5_REF_H1_5_150000_1
 70
0
 62
7
  6
CONTINUOUS
370
-3
390
F
  0
LAYER
  5
2AE
100
AcDbSymbolTableRecord
100
AcDbLayerTableRecord
  2
SOT23-5_REF_H1_5_150000_2
 70
0
 62
7
  6
CONTINUOUS
370
-3
390
F
  0
LAYER
  5
2AF
100
AcDbSymbolTableRecord
100
AcDbLayerTableRecord
  2
SUPERFICI
 70
0
 62
7
  6
CONTINUOUS
370
-3
390
F
  0
LAYER
  5
2B0
100
AcDbSymbolTableRecord
100
AcDbLayerTableRecord
  2
SYMBOL_DATA_10000
 70
0
 62
7
  6
CONTINUOUS
370
-3
390
F
  0
LAYER
  5
2B1
100
AcDbSymbolTableRecord
100
AcDbLayerTableRecord
  2
SYMBOL_NO-PB_10000
 70
0
 62
7
  6
CONTINUOUS
370
-3
390
F
  0
LAYER
  5
2B2
100
AcDbSymbolTableRecord
100
AcDbLayerTableRecord
  2
TP-RND-1_0_3500
 70
0
 62
7
  6
CONTINUOUS
370
-3
390
F
  0
LAYER
  5
2B3
100
AcDbSymbolTableRecord
100
AcDbLayerTableRecord
  2
TP-RND-1_0_3500_1
 70
0
 62
7
  6
CONTINUOUS
370
-3
390
F
  0
LAYER
  5
2B4
100
AcDbSymbolTableRecord
100
AcDbLayerTableRecord
  2
TP-RND-1_0_3500_2
 70
0
 62
7
  6
CONTINUOUS
370
-3
390
F
  0
LAYER
  5
2B5
100
AcDbSymbolTableRecord
100
AcDbLayerTableRecord
  2
TP-RND-1_0_3500_3
 70
0
 62
7
  6
CONTINUOUS
370
-3
390
F
  0
LAYER
  5
2B6
100
AcDbSymbolTableRecord
100
AcDbLayerTableRecord
  2
TP-RND-1_0_3500_4
 70
0
 62
7
  6
CONTINUOUS
370
-3
390
F
  0
LAYER
  5
2B7
100
AcDbSymbolTableRecord
100
AcDbLayerTableRecord
  2
TP-RND-1_0_3500_5
 70
0
 62
7
  6
CONTINUOUS
370
-3
390
F
  0
LAYER
  5
2B8
100
AcDbSymbolTableRecord
100
AcDbLayerTableRecord
  2
TP-RND-1_0_3500_6
 70
0
 62
7
  6
CONTINUOUS
370
-3
390
F
  0
LAYER
  5
2B9
100
AcDbSymbolTableRecord
100
AcDbLayerTableRecord
  2
TP_PROGRAMMAZIONE_SWD_1000
 70
0
 62
7
  6
CONTINUOUS
370
-3
390
F
  0
LAYER
  5
2BA
100
AcDbSymbolTableRecord
100
AcDbLayerTableRecord
  2
TRASH
 70
0
 62
7
  6
CONTINUOUS
370
-3
390
F
  0
LAYER
  5
2BB
100
AcDbSymbolTableRecord
100
AcDbLayerTableRecord
  2
VG_CN-SPRING-SMT-P2_5-R1-P3-TET
 70
0
 62
7
  6
CONTINUOUS
370
-3
390
F
  0
LAYER
  5
2BC
100
AcDbSymbolTableRecord
100
AcDbLayerTableRecord
  2
VG_CN-SPRING-SMT-P2_5-R1-P3-T_1
 70
0
 62
7
  6
CONTINUOUS
370
-3
390
F
  0
LAYER
  5
2BD
100
AcDbSymbolTableRecord
100
AcDbLayerTableRecord
  2
VG_CN-SPRING-SMT-P2_5-R1-P5-TET
 70
0
 62
7
  6
CONTINUOUS
370
-3
390
F
  0
LAYER
  5
2BE
100
AcDbSymbolTableRecord
100
AcDbLayerTableRecord
  2
VG_LED-SMT-1_6-0_75-1_0-1_10000
 70
0
 62
7
  6
CONTINUOUS
370
-3
390
F
  0
LAYER
  5
2BF
100
AcDbSymbolTableRecord
100
AcDbLayerTableRecord
  2
VG_LED-SMT-1_6-0_75-1_0-1_100_1
 70
0
 62
7
  6
CONTINUOUS
370
-3
390
F
  0
LAYER
  5
2C0
100
AcDbSymbolTableRecord
100
AcDbLayerTableRecord
  2
VG_LED-SMT-1_6-0_75-1_0-1_100_2
 70
0
 62
7
  6
CONTINUOUS
370
-3
390
F
  0
LAYER
  5
2C1
100
AcDbSymbolTableRecord
100
AcDbLayerTableRecord
  2
VG_LED-SMT-1_6-0_75-1_0-1_100_3
 70
0
 62
7
  6
CONTINUOUS
370
-3
390
F
  0
LAYER
  5
2C2
100
AcDbSymbolTableRecord
100
AcDbLayerTableRecord
  2
VG_LED-SMT-1_6-0_75-1_0-1_100_4
 70
0
 62
7
  6
CONTINUOUS
370
-3
390
F
  0
LAYER
  5
2C3
100
AcDbSymbolTableRecord
100
AcDbLayerTableRecord
  2
VG_LED-SMT-1_6-0_75-1_0-1_100_5
 70
0
 62
7
  6
CONTINUOUS
370
-3
390
F
  0
LAYER
  5
2C4
100
AcDbSymbolTableRecord
100
AcDbLayerTableRecord
  2
VG_LED-SMT-1_6-0_75-1_0-1_100_6
 70
0
 62
7
  6
CONTINUOUS
370
-3
390
F
  0
LAYER
  5
2C5
100
AcDbSymbolTableRecord
100
AcDbLayerTableRecord
  2
VG_LED-SMT-1_6-0_75-1_0-1_100_7
 70
0
 62
7
  6
CONTINUOUS
370
-3
390
F
  0
LAYER
  5
2C6
100
AcDbSymbolTableRecord
100
AcDbLayerTableRecord
  2
VG_LED-SMT-1_6-0_75-1_0-1_100_8
 70
0
 62
7
  6
CONTINUOUS
370
-3
390
F
  0
LAYER
  5
2C7
100
AcDbSymbolTableRecord
100
AcDbLayerTableRecord
  2
VG_LED-SMT-1_6-0_75-1_0-1_100_9
 70
0
 62
7
  6
CONTINUOUS
370
-3
390
F
  0
LAYER
  5
2C8
100
AcDbSymbolTableRecord
100
AcDbLayerTableRecord
  2
VG_LED-SMT-1_6-0_75-1_0-1_10_10
 70
0
 62
7
  6
CONTINUOUS
370
-3
390
F
  0
LAYER
  5
2C9
100
AcDbSymbolTableRecord
100
AcDbLayerTableRecord
  2
VG_LED-SMT-1_6-0_75-1_0-1_10_11
 70
0
 62
7
  6
CONTINUOUS
370
-3
390
F
  0
LAYER
  5
2CA
100
AcDbSymbolTableRecord
100
AcDbLayerTableRecord
  2
VG_LED-SMT-1_6-0_75-1_0-1_10_12
 70
0
 62
7
  6
CONTINUOUS
370
-3
390
F
  0
LAYER
  5
2CB
100
AcDbSymbolTableRecord
100
AcDbLayerTableRecord
  2
VG_LED-SMT-1_6-0_75-1_0-1_10_13
 70
0
 62
7
  6
CONTINUOUS
370
-3
390
F
  0
LAYER
  5
2CC
100
AcDbSymbolTableRecord
100
AcDbLayerTableRecord
  2
VG_LED-SMT-1_6-0_75-1_0-1_10_14
 70
0
 62
7
  6
CONTINUOUS
370
-3
390
F
  0
LAYER
  5
2CD
100
AcDbSymbolTableRecord
100
AcDbLayerTableRecord
  2
VG_LED-SMT-1_6-0_75-1_0-1_10_15
 70
0
 62
7
  6
CONTINUOUS
370
-3
390
F
  0
LAYER
  5
2CE
100
AcDbSymbolTableRecord
100
AcDbLayerTableRecord
  2
VG_LED-SMT-1_6-0_75-1_0-1_10_16
 70
0
 62
7
  6
CONTINUOUS
370
-3
390
F
  0
LAYER
  5
2CF
100
AcDbSymbolTableRecord
100
AcDbLayerTableRecord
  2
VG_LED-SMT-1_6-0_75-1_0-1_10_17
 70
0
 62
7
  6
CONTINUOUS
370
-3
390
F
  0
LAYER
  5
2D0
100
AcDbSymbolTableRecord
100
AcDbLayerTableRecord
  2
VG_LED-SMT-1_6-0_75-1_0-1_10_18
 70
0
 62
7
  6
CONTINUOUS
370
-3
390
F
  0
LAYER
  5
2D1
100
AcDbSymbolTableRecord
100
AcDbLayerTableRecord
  2
VG_LED-SMT-1_6-0_75-1_0-1_10_19
 70
0
 62
7
  6
CONTINUOUS
370
-3
390
F
  0
LAYER
  5
2D2
100
AcDbSymbolTableRecord
100
AcDbLayerTableRecord
  2
VG_LED-SMT-1_6-0_75-1_0-1_10_20
 70
0
 62
7
  6
CONTINUOUS
370
-3
390
F
  0
LAYER
  5
2D3
100
AcDbSymbolTableRecord
100
AcDbLayerTableRecord
  2
VG_LED-SMT-1_6-0_75-1_0-1_10_21
 70
0
 62
7
  6
CONTINUOUS
370
-3
390
F
  0
LAYER
  5
2D4
100
AcDbSymbolTableRecord
100
AcDbLayerTableRecord
  2
VG_LED-SMT-1_6-0_75-1_0-1_10_22
 70
0
 62
7
  6
CONTINUOUS
370
-3
390
F
  0
LAYER
  5
2D5
100
AcDbSymbolTableRecord
100
AcDbLayerTableRecord
  2
VG_LED-SMT-1_6-0_75-1_0-1_10_23
 70
0
 62
7
  6
CONTINUOUS
370
-3
390
F
  0
LAYER
  5
2D6
100
AcDbSymbolTableRecord
100
AcDbLayerTableRecord
  2
VG_LED-SMT-1_6-0_75-1_0-1_10_24
 70
0
 62
7
  6
CONTINUOUS
370
-3
390
F
  0
LAYER
  5
2D7
100
AcDbSymbolTableRecord
100
AcDbLayerTableRecord
  2
VG_LED-SMT-1_6-0_75-1_0-1_10_25
 70
0
 62
7
  6
CONTINUOUS
370
-3
390
F
  0
LAYER
  5
2D8
100
AcDbSymbolTableRecord
100
AcDbLayerTableRecord
  2
VG_LED-SMT-1_6-0_75-1_0-1_10_26
 70
0
 62
7
  6
CONTINUOUS
370
-3
390
F
  0
LAYER
  5
2D9
100
AcDbSymbolTableRecord
100
AcDbLayerTableRecord
  2
VG_LED-SMT-1_6-0_75-1_0-1_10_27
 70
0
 62
7
  6
CONTINUOUS
370
-3
390
F
  0
LAYER
  5
2DA
100
AcDbSymbolTableRecord
100
AcDbLayerTableRecord
  2
VG_LED-SMT-1_6-0_75-1_0-1_10_28
 70
0
 62
7
  6
CONTINUOUS
370
-3
390
F
  0
LAYER
  5
2DB
100
AcDbSymbolTableRecord
100
AcDbLayerTableRecord
  2
VG_LED-SMT-1_6-0_75-1_0-1_10_29
 70
0
 62
7
  6
CONTINUOUS
370
-3
390
F
  0
LAYER
  5
2DC
100
AcDbSymbolTableRecord
100
AcDbLayerTableRecord
  2
VG_LED-SMT-1_6-0_75-1_0-1_10_30
 70
0
 62
7
  6
CONTINUOUS
370
-3
390
F
  0
LAYER
  5
2DD
100
AcDbSymbolTableRecord
100
AcDbLayerTableRecord
  2
VG_LED-SMT-1_6-0_75-1_0-1_10_31
 70
0
 62
7
  6
CONTINUOUS
370
-3
390
F
  0
LAYER
  5
2DE
100
AcDbSymbolTableRecord
100
AcDbLayerTableRecord
  2
VG_LED-SMT-1_6-0_75-1_0-1_10_32
 70
0
 62
7
  6
CONTINUOUS
370
-3
390
F
  0
LAYER
  5
2DF
100
AcDbSymbolTableRecord
100
AcDbLayerTableRecord
  2
VG_LED-SMT-1_6-0_75-1_0-1_10_33
 70
0
 62
7
  6
CONTINUOUS
370
-3
390
F
  0
LAYER
  5
2E0
100
AcDbSymbolTableRecord
100
AcDbLayerTableRecord
  2
VG_LED-SMT-1_6-0_75-1_0-1_10_34
 70
0
 62
7
  6
CONTINUOUS
370
-3
390
F
  0
LAYER
  5
2E1
100
AcDbSymbolTableRecord
100
AcDbLayerTableRecord
  2
VG_LED-SMT-1_6-0_75-1_0-1_10_35
 70
0
 62
7
  6
CONTINUOUS
370
-3
390
F
  0
LAYER
  5
2E2
100
AcDbSymbolTableRecord
100
AcDbLayerTableRecord
  2
VG_LED-SMT-1_6-0_75-1_0-1_10_36
 70
0
 62
7
  6
CONTINUOUS
370
-3
390
F
  0
LAYER
  5
2E3
100
AcDbSymbolTableRecord
100
AcDbLayerTableRecord
  2
VG_LED-SMT-1_6-0_75-1_0-1_10_37
 70
0
 62
7
  6
CONTINUOUS
370
-3
390
F
  0
LAYER
  5
2E4
100
AcDbSymbolTableRecord
100
AcDbLayerTableRecord
  2
VG_LED-SMT-1_6-0_75-1_0-1_10_38
 70
0
 62
7
  6
CONTINUOUS
370
-3
390
F
  0
LAYER
  5
2E5
100
AcDbSymbolTableRecord
100
AcDbLayerTableRecord
  2
VG_LED-SMT-1_6-0_75-1_0-1_10_39
 70
0
 62
7
  6
CONTINUOUS
370
-3
390
F
  0
LAYER
  5
2E6
100
AcDbSymbolTableRecord
100
AcDbLayerTableRecord
  2
VG_LED-SMT-1_6-0_75-1_0-1_10_40
 70
0
 62
7
  6
CONTINUOUS
370
-3
390
F
  0
LAYER
  5
2E7
100
AcDbSymbolTableRecord
100
AcDbLayerTableRecord
  2
VG_LED-SMT-1_6-0_75-1_0-1_10_41
 70
0
 62
7
  6
CONTINUOUS
370
-3
390
F
  0
LAYER
  5
2E8
100
AcDbSymbolTableRecord
100
AcDbLayerTableRecord
  2
VG_LED-SMT-1_6-0_75-1_0-1_10_42
 70
0
 62
7
  6
CONTINUOUS
370
-3
390
F
  0
LAYER
  5
2E9
100
AcDbSymbolTableRecord
100
AcDbLayerTableRecord
  2
VG_LED-SMT-1_6-0_75-1_0-1_10_43
 70
0
 62
7
  6
CONTINUOUS
370
-3
390
F
  0
LAYER
  5
2EA
100
AcDbSymbolTableRecord
100
AcDbLayerTableRecord
  2
VG_LED-SMT-1_6-0_75-1_0-1_10_44
 70
0
 62
7
  6
CONTINUOUS
370
-3
390
F
  0
LAYER
  5
2EB
100
AcDbSymbolTableRecord
100
AcDbLayerTableRecord
  2
VG_LED-SMT-1_6-0_75-1_0-1_10_45
 70
0
 62
7
  6
CONTINUOUS
370
-3
390
F
  0
LAYER
  5
2EC
100
AcDbSymbolTableRecord
100
AcDbLayerTableRecord
  2
VG_LED-SMT-1_6-0_75-1_0-1_10_46
 70
0
 62
7
  6
CONTINUOUS
370
-3
390
F
  0
LAYER
  5
2ED
100
AcDbSymbolTableRecord
100
AcDbLayerTableRecord
  2
VG_LED-SMT-1_6-0_75-1_0-1_10_47
 70
0
 62
7
  6
CONTINUOUS
370
-3
390
F
  0
LAYER
  5
2EE
100
AcDbSymbolTableRecord
100
AcDbLayerTableRecord
  2
VG_LED-SMT-1_6-0_75-1_0-1_10_48
 70
0
 62
7
  6
CONTINUOUS
370
-3
390
F
  0
LAYER
  5
2EF
100
AcDbSymbolTableRecord
100
AcDbLayerTableRecord
  2
VG_LED-SMT-1_6-0_75-1_0-1_10_49
 70
0
 62
7
  6
CONTINUOUS
370
-3
390
F
  0
LAYER
  5
2F0
100
AcDbSymbolTableRecord
100
AcDbLayerTableRecord
  2
VG_LED-SMT-1_6-0_75-1_0-1_10_50
 70
0
 62
7
  6
CONTINUOUS
370
-3
390
F
  0
LAYER
  5
2F1
100
AcDbSymbolTableRecord
100
AcDbLayerTableRecord
  2
VG_LED-SMT-1_6-0_75-1_0-1_10_51
 70
0
 62
7
  6
CONTINUOUS
370
-3
390
F
  0
LAYER
  5
2F2
100
AcDbSymbolTableRecord
100
AcDbLayerTableRecord
  2
VG_LED-SMT-1_6-0_75-1_0-1_10_52
 70
0
 62
7
  6
CONTINUOUS
370
-3
390
F
  0
LAYER
  5
2F3
100
AcDbSymbolTableRecord
100
AcDbLayerTableRecord
  2
VG_LED-SMT-1_6-0_75-1_0-1_10_53
 70
0
 62
7
  6
CONTINUOUS
370
-3
390
F
  0
LAYER
  5
2F4
100
AcDbSymbolTableRecord
100
AcDbLayerTableRecord
  2
VG_LED-SMT-1_6-0_75-1_0-1_10_54
 70
0
 62
7
  6
CONTINUOUS
370
-3
390
F
  0
LAYER
  5
2F5
100
AcDbSymbolTableRecord
100
AcDbLayerTableRecord
  2
VG_LED-SMT-1_6-0_75-1_0-1_10_55
 70
0
 62
7
  6
CONTINUOUS
370
-3
390
F
  0
LAYER
  5
2F6
100
AcDbSymbolTableRecord
100
AcDbLayerTableRecord
  2
VG_LED-SMT-1_6-0_75-1_0-1_10_56
 70
0
 62
7
  6
CONTINUOUS
370
-3
390
F
  0
LAYER
  5
2F7
100
AcDbSymbolTableRecord
100
AcDbLayerTableRecord
  2
VG_LED-SMT-1_6-0_75-1_0-1_10_57
 70
0
 62
7
  6
CONTINUOUS
370
-3
390
F
  0
LAYER
  5
2F8
100
AcDbSymbolTableRecord
100
AcDbLayerTableRecord
  2
VG_LED-SMT-1_6-0_75-1_0-1_10_58
 70
0
 62
7
  6
CONTINUOUS
370
-3
390
F
  0
LAYER
  5
2F9
100
AcDbSymbolTableRecord
100
AcDbLayerTableRecord
  2
VG_LED-SMT-1_6-0_75-1_0-1_10_59
 70
0
 62
7
  6
CONTINUOUS
370
-3
390
F
  0
LAYER
  5
2FA
100
AcDbSymbolTableRecord
100
AcDbLayerTableRecord
  2
VG_LED-SMT-1_6-0_75-1_0-1_10_60
 70
0
 62
7
  6
CONTINUOUS
370
-3
390
F
  0
LAYER
  5
2FB
100
AcDbSymbolTableRecord
100
AcDbLayerTableRecord
  2
VG_LED-SMT-1_6-0_75-1_0-1_10_61
 70
0
 62
7
  6
CONTINUOUS
370
-3
390
F
  0
LAYER
  5
2FC
100
AcDbSymbolTableRecord
100
AcDbLayerTableRecord
  2
VG_LED-SMT-1_6-0_75-1_0-1_10_62
 70
0
 62
7
  6
CONTINUOUS
370
-3
390
F
  0
LAYER
  5
2FD
100
AcDbSymbolTableRecord
100
AcDbLayerTableRecord
  2
VG_LED-SMT-1_6-0_75-1_0-1_10_63
 70
0
 62
7
  6
CONTINUOUS
370
-3
390
F
  0
LAYER
  5
2FE
100
AcDbSymbolTableRecord
100
AcDbLayerTableRecord
  2
VG_LED-SMT-1_6-0_75-1_0-1_10_64
 70
0
 62
7
  6
CONTINUOUS
370
-3
390
F
  0
LAYER
  5
2FF
100
AcDbSymbolTableRecord
100
AcDbLayerTableRecord
  2
VG_LED-SMT-1_6-0_75-1_0-1_10_65
 70
0
 62
7
  6
CONTINUOUS
370
-3
390
F
  0
LAYER
  5
300
100
AcDbSymbolTableRecord
100
AcDbLayerTableRecord
  2
VG_LED-SMT-1_6-0_75-1_0-1_10_66
 70
0
 62
7
  6
CONTINUOUS
370
-3
390
F
  0
LAYER
  5
301
100
AcDbSymbolTableRecord
100
AcDbLayerTableRecord
  2
VG_LED-SMT-1_6-0_75-1_0-1_10_67
 70
0
 62
7
  6
CONTINUOUS
370
-3
390
F
  0
LAYER
  5
302
100
AcDbSymbolTableRecord
100
AcDbLayerTableRecord
  2
VG_LED-SMT-1_6-0_75-1_0-1_10_68
 70
0
 62
7
  6
CONTINUOUS
370
-3
390
F
  0
LAYER
  5
303
100
AcDbSymbolTableRecord
100
AcDbLayerTableRecord
  2
VG_LED-SMT-1_6-0_75-1_0-1_10_69
 70
0
 62
7
  6
CONTINUOUS
370
-3
390
F
  0
LAYER
  5
304
100
AcDbSymbolTableRecord
100
AcDbLayerTableRecord
  2
VG_LED-SMT-1_6-0_75-1_0-1_10_70
 70
0
 62
7
  6
CONTINUOUS
370
-3
390
F
  0
LAYER
  5
305
100
AcDbSymbolTableRecord
100
AcDbLayerTableRecord
  2
VG_LED-SMT-1_6-0_75-1_0-1_10_71
 70
0
 62
7
  6
CONTINUOUS
370
-3
390
F
  0
LAYER
  5
306
100
AcDbSymbolTableRecord
100
AcDbLayerTableRecord
  2
VG_LED-SMT-1_6-0_75-1_0-1_10_72
 70
0
 62
7
  6
CONTINUOUS
370
-3
390
F
  0
LAYER
  5
307
100
AcDbSymbolTableRecord
100
AcDbLayerTableRecord
  2
VG_LED-SMT-1_6-0_75-1_0-1_10_73
 70
0
 62
7
  6
CONTINUOUS
370
-3
390
F
  0
LAYER
  5
308
100
AcDbSymbolTableRecord
100
AcDbLayerTableRecord
  2
VG_LED-SMT-1_6-0_75-1_0-1_10_74
 70
0
 62
7
  6
CONTINUOUS
370
-3
390
F
  0
LAYER
  5
309
100
AcDbSymbolTableRecord
100
AcDbLayerTableRecord
  2
VG_LED-SMT-1_6-0_75-1_0-1_10_75
 70
0
 62
7
  6
CONTINUOUS
370
-3
390
F
  0
LAYER
  5
30A
100
AcDbSymbolTableRecord
100
AcDbLayerTableRecord
  2
VG_LED-SMT-1_6-0_75-1_0-1_10_76
 70
0
 62
7
  6
CONTINUOUS
370
-3
390
F
  0
LAYER
  5
30B
100
AcDbSymbolTableRecord
100
AcDbLayerTableRecord
  2
VG_LED-SMT-1_6-0_75-1_0-1_10_77
 70
0
 62
7
  6
CONTINUOUS
370
-3
390
F
  0
LAYER
  5
30C
100
AcDbSymbolTableRecord
100
AcDbLayerTableRecord
  2
VG_LED-SMT-1_6-0_75-1_0-1_10_78
 70
0
 62
7
  6
CONTINUOUS
370
-3
390
F
  0
LAYER
  5
30D
100
AcDbSymbolTableRecord
100
AcDbLayerTableRecord
  2
VG_LED-SMT-1_6-0_75-1_0-1_10_79
 70
0
 62
7
  6
CONTINUOUS
370
-3
390
F
  0
LAYER
  5
30E
100
AcDbSymbolTableRecord
100
AcDbLayerTableRecord
  2
VG_LED-SMT-1_6-0_75-1_0-1_10_80
 70
0
 62
7
  6
CONTINUOUS
370
-3
390
F
  0
LAYER
  5
30F
100
AcDbSymbolTableRecord
100
AcDbLayerTableRecord
  2
VG_LED-SMT-1_6-0_75-1_0-1_10_81
 70
0
 62
7
  6
CONTINUOUS
370
-3
390
F
  0
LAYER
  5
310
100
AcDbSymbolTableRecord
100
AcDbLayerTableRecord
  2
VG_LED-SMT-1_6-0_75-1_0-1_10_82
 70
0
 62
7
  6
CONTINUOUS
370
-3
390
F
  0
LAYER
  5
311
100
AcDbSymbolTableRecord
100
AcDbLayerTableRecord
  2
VG_LED-SMT-1_6-0_75-1_0-1_10_83
 70
0
 62
7
  6
CONTINUOUS
370
-3
390
F
  0
LAYER
  5
312
100
AcDbSymbolTableRecord
100
AcDbLayerTableRecord
  2
VG_LED-SMT-1_6-0_75-1_0-1_10_84
 70
0
 62
7
  6
CONTINUOUS
370
-3
390
F
  0
LAYER
  5
313
100
AcDbSymbolTableRecord
100
AcDbLayerTableRecord
  2
VG_LED-SMT-1_6-0_75-1_0-1_10_85
 70
0
 62
7
  6
CONTINUOUS
370
-3
390
F
  0
LAYER
  5
314
100
AcDbSymbolTableRecord
100
AcDbLayerTableRecord
  2
VG_LED-SMT-1_6-0_75-1_0-1_10_86
 70
0
 62
7
  6
CONTINUOUS
370
-3
390
F
  0
LAYER
  5
315
100
AcDbSymbolTableRecord
100
AcDbLayerTableRecord
  2
VG_LED-SMT-1_6-0_75-1_0-1_10_87
 70
0
 62
7
  6
CONTINUOUS
370
-3
390
F
  0
LAYER
  5
316
100
AcDbSymbolTableRecord
100
AcDbLayerTableRecord
  2
VG_LED-SMT-1_6-0_75-1_0-1_10_88
 70
0
 62
7
  6
CONTINUOUS
370
-3
390
F
  0
LAYER
  5
317
100
AcDbSymbolTableRecord
100
AcDbLayerTableRecord
  2
VG_LED-SMT-1_6-0_75-1_0-1_10_89
 70
0
 62
7
  6
CONTINUOUS
370
-3
390
F
  0
LAYER
  5
318
100
AcDbSymbolTableRecord
100
AcDbLayerTableRecord
  2
VG_LED-SMT-1_6-0_75-1_0-1_10_90
 70
0
 62
7
  6
CONTINUOUS
370
-3
390
F
  0
LAYER
  5
319
100
AcDbSymbolTableRecord
100
AcDbLayerTableRecord
  2
VG_LED-SMT-1_6-0_75-1_0-1_10_91
 70
0
 62
7
  6
CONTINUOUS
370
-3
390
F
  0
LAYER
  5
31A
100
AcDbSymbolTableRecord
100
AcDbLayerTableRecord
  2
VG_LED-SMT-1_6-0_75-1_0-1_10_92
 70
0
 62
7
  6
CONTINUOUS
370
-3
390
F
  0
LAYER
  5
31B
100
AcDbSymbolTableRecord
100
AcDbLayerTableRecord
  2
VG_LED-SMT-1_6-0_75-1_0-1_10_93
 70
0
 62
7
  6
CONTINUOUS
370
-3
390
F
  0
LAYER
  5
31C
100
AcDbSymbolTableRecord
100
AcDbLayerTableRecord
  2
VG_PB-6-3_0-2_7-1_4-SMT_140000
 70
0
 62
7
  6
CONTINUOUS
370
-3
390
F
  0
LAYER
  5
31D
100
AcDbSymbolTableRecord
100
AcDbLayerTableRecord
  2
VG_PB-6-3_0-2_7-1_4-SMT_14000_1
 70
0
 62
7
  6
CONTINUOUS
370
-3
390
F
  0
LAYER
  5
31E
100
AcDbSymbolTableRecord
100
AcDbLayerTableRecord
  2
VG_PB-6-3_0-2_7-1_4-SMT_14000_2
 70
0
 62
7
  6
CONTINUOUS
370
-3
390
F
  0
LAYER
  5
31F
100
AcDbSymbolTableRecord
100
AcDbLayerTableRecord
  2
VG_PB-6-3_0-2_7-1_4-SMT_14000_3
 70
0
 62
7
  6
CONTINUOUS
370
-3
390
F
  0
LAYER
  5
320
100
AcDbSymbolTableRecord
100
AcDbLayerTableRecord
  2
VG_QFN40-5_0-5_0-5_0-5_0-0_75-0
 70
0
 62
7
  6
CONTINUOUS
370
-3
390
F
  0
LAYER
  5
321
100
AcDbSymbolTableRecord
100
AcDbLayerTableRecord
  2
VG_SENSOR_VL53L0X_REF_110000
 70
0
 62
7
  6
CONTINUOUS
370
-3
390
F
  0
LAYER
  5
322
100
AcDbSymbolTableRecord
100
AcDbLayerTableRecord
  2
VG_SOD882_50000
 70
0
 62
7
  6
CONTINUOUS
370
-3
390
F
  0
LAYER
  5
323
100
AcDbSymbolTableRecord
100
AcDbLayerTableRecord
  2
VG_SOD882_50000_1
 70
0
 62
7
  6
CONTINUOUS
370
-3
390
F
  0
LAYER
  5
324
100
AcDbSymbolTableRecord
100
AcDbLayerTableRecord
  2
VG_SOD882_50000_2
 70
0
 62
7
  6
CONTINUOUS
370
-3
390
F
  0
LAYER
  5
325
100
AcDbSymbolTableRecord
100
AcDbLayerTableRecord
  2
VG_SOD882_50000_3
 70
0
 62
7
  6
CONTINUOUS
370
-3
390
F
  0
LAYER
  5
326
100
AcDbSymbolTableRecord
100
AcDbLayerTableRecord
  2
VG_SOD882_50000_4
 70
0
 62
7
  6
CONTINUOUS
370
-3
390
F
  0
LAYER
  5
327
100
AcDbSymbolTableRecord
100
AcDbLayerTableRecord
  2
VG_SOD882_50000_5
 70
0
 62
7
  6
CONTINUOUS
370
-3
390
F
  0
LAYER
  5
328
100
AcDbSymbolTableRecord
100
AcDbLayerTableRecord
  2
VG_SOD882_50000_6
 70
0
 62
7
  6
CONTINUOUS
370
-3
390
F
  0
LAYER
  5
329
100
AcDbSymbolTableRecord
100
AcDbLayerTableRecord
  2
VG_SOD882_50000_7
 70
0
 62
7
  6
CONTINUOUS
370
-3
390
F
  0
LAYER
  5
32A
100
AcDbSymbolTableRecord
100
AcDbLayerTableRecord
  2
VG_SOT23_H1_1_REF_110000
 70
0
 62
7
  6
CONTINUOUS
370
-3
390
F
  0
LAYER
  5
32B
100
AcDbSymbolTableRecord
100
AcDbLayerTableRecord
  2
X-SMD-3PIN-3_2-2_5_70000
 70
0
 62
7
  6
CONTINUOUS
370
-3
390
F
  0
LAYER
  5
32C
100
AcDbSymbolTableRecord
100
AcDbLayerTableRecord
  2
___SHELL
 70
0
 62
7
  6
CONTINUOUS
370
-3
390
F
  0
ENDTAB
  0
TABLE
  2
STYLE
  5
3
100
AcDbSymbolTable
 70
1
  0
STYLE
  5
11
100
AcDbSymbolTableRecord
100
AcDbTextStyleTableRecord
  2
STANDARD
 70
0
 40
0.0
 41
0.8
 50
0.0
 71
0
 42
0.2
  3
txt
  4

  0
STYLE
  5
32D
100
AcDbSymbolTableRecord
100
AcDbTextStyleTableRecord
  2
TEXTSTYLE_1
 70
0
 40
0.0
 41
0.8
 50
0.0
 71
0
 42
0.2
  3
gdt
  4

  0
ENDTAB
  0
TABLE
  2
VIEW
  5
6
100
AcDbSymbolTable
 70
0
  0
ENDTAB
  0
TABLE
  2
UCS
  5
7
100
AcDbSymbolTable
 70
0
  0
ENDTAB
  0
TABLE
  2
APPID
  5
9
100
AcDbSymbolTable
 70
1
  0
APPID
  5
32E
100
AcDbSymbolTableRecord
100
AcDbRegAppTableRecord
  2
ACAD
 70
0
  0
ENDTAB
  0
TABLE
  2
BLOCK_RECORD
  5
1
100
AcDbSymbolTable
 70
0
  0
BLOCK_RECORD
  5
32F
100
AcDbSymbolTableRecord
100
AcDbBlockTableRecord
  2
*Model_Space
  0
BLOCK_RECORD
  5
330
100
AcDbSymbolTableRecord
100
AcDbBlockTableRecord
  2
*Paper_Space
  0
BLOCK_RECORD
  5
331
100
AcDbSymbolTableRecord
100
AcDbBlockTableRecord
  2
_FILLED
  0
BLOCK_RECORD
  5
332
100
AcDbSymbolTableRecord
100
AcDbBlockTableRecord
  2
*D0
  0
BLOCK_RECORD
  5
333
100
AcDbSymbolTableRecord
100
AcDbBlockTableRecord
  2
*D1
  0
BLOCK_RECORD
  5
334
100
AcDbSymbolTableRecord
100
AcDbBlockTableRecord
  2
*D2
  0
BLOCK_RECORD
  5
335
100
AcDbSymbolTableRecord
100
AcDbBlockTableRecord
  2
*D3
  0
ENDTAB
  0
TABLE
  2
DIMSTYLE
  5
A
100
AcDbSymbolTable
 70
1
100
AcDbDimStyleTable
 71
0
  0
DIMSTYLE
105
336
100
AcDbSymbolTableRecord
100
AcDbDimStyleTableRecord
  2
STANDARD
 70
0
  3

  4

 40
1.0
 41
3.0
 42
0.5
 43
0.38
 44
1.5
 45
0.0
 46
0.0
 47
0.01
 48
0.01
140
3.0
141
0.09
142
0.0
143
25.4
144
1.0
145
0.0
146
1.0
147
0.625
 71
1
 72
0
 73
0
 74
0
 75
0
 76
0
 77
1
 78
8
 79
2
170
0
171
1
172
0
173
0
174
0
175
0
176
0
177
0
178
0
270
2
179
2
271
2
272
2
273
2
274
2
275
0
280
0
281
0
282
0
283
1
284
8
285
0
286
0
287
3
288
0
340
11
278
44
341
331
342
331
343
331
344
331
  0
DIMSTYLE
105
337
100
AcDbSymbolTableRecord
100
AcDbDimStyleTableRecord
  2
DIMSTYLE_1
 70
0
  3

  4

 40
1.0
 41
3.0
 42
0.5
 43
0.38
 44
1.5
 45
0.0
 46
0.0
 47
0.0
 48
0.0
140
3.0
141
0.09
142
0.0
143
25.4
144
1.0
145
0.0
146
1.0
147
0.75
 71
0
 72
0
 73
0
 74
0
 75
0
 76
0
 77
1
 78
8
 79
2
170
0
171
1
172
0
173
0
174
0
175
0
176
0
177
0
178
0
270
2
179
2
271
2
272
2
273
2
274
2
275
0
280
0
281
0
282
0
283
1
284
8
285
0
286
0
287
3
288
0
340
11
278
44
341
331
342
331
343
331
344
331
  0
DIMSTYLE
105
338
100
AcDbSymbolTableRecord
100
AcDbDimStyleTableRecord
  2
DIMSTYLE_2
 70
0
  3

  4

 40
1.0
 41
3.0
 42
0.5
 43
0.38
 44
1.5
 45
0.0
 46
0.0
 47
0.0
 48
0.0
140
3.0
141
0.09
142
0.0
143
25.4
144
1.0
145
0.0
146
1.0
147
0.75
 71
0
 72
0
 73
0
 74
0
 75
0
 76
0
 77
1
 78
8
 79
2
170
0
171
1
172
0
173
0
174
0
175
0
176
0
177
0
178
0
270
2
179
2
271
1
272
1
273
2
274
2
275
0
280
0
281
0
282
0
283
1
284
8
285
0
286
0
287
3
288
0
340
11
278
44
341
331
342
331
343
331
344
331
  0
ENDTAB
  0
ENDSEC
  0
SECTION
  2
BLOCKS
  0
BLOCK
  5
20
100
AcDbEntity
  8
0
100
AcDbBlockBegin
  2
*Model_Space
 70
0
 10
0.0
 20
0.0
 30
0.0
  3
*Model_Space
  1

  0
ENDBLK
  5
21
100
AcDbEntity
  8
0
100
AcDbBlockEnd
  0
BLOCK
  5
1C
100
AcDbEntity
  8
0
100
AcDbBlockBegin
  2
*Paper_Space
 70
0
 10
0.0
 20
0.0
 30
0.0
  3
*Paper_Space
  1

  0
ENDBLK
  5
1D
100
AcDbEntity
  8
0
100
AcDbBlockEnd
  0
BLOCK
  5
339
100
AcDbEntity
  8
0
100
AcDbBlockBegin
  2
_FILLED
 70
64
 10
0.0
 20
0.0
  3
_FILLED
  1

  0
SOLID
  5
33A
100
AcDbEntity
  8
0
  6
BYBLOCK
 62
0
100
AcDbTrace
 10
0.0
 20
0.0
 11
-1.0
 21
0.3166666667
 12
-1.0
 22
-0.3166666667
 13
-1.0
 23
-0.3166666667
  0
ENDBLK
  5
33B
100
AcDbEntity
  8
0
  6
BYBLOCK
 62
0
100
AcDbBlockEnd
  0
BLOCK
  5
33C
100
AcDbEntity
  8
0
100
AcDbBlockBegin
 62
7
  6
CONTINUOUS
  2
*D0
 70
65
 10
0.0
 20
0.0
  3
*D0
  1

  0
LINE
  5
33D
100
AcDbEntity
  8
0
100
AcDbLine
 62
7
  6
CONTINUOUS
 10
-37.7775987027
 20
44.0655533825
 11
-37.7775987027
 21
55.8371104593
  0
LINE
  5
33E
100
AcDbEntity
  8
0
100
AcDbLine
 62
7
  6
CONTINUOUS
 10
-45.5775987027
 20
46.2139332554
 11
-45.5775987027
 21
55.8371104593
  0
LINE
  5
33F
100
AcDbEntity
  8
0
100
AcDbLine
 62
7
  6
CONTINUOUS
 10
-37.7775987027
 20
54.3371104593
 11
-41.6775987027
 21
54.3371104593
  0
LINE
  5
340
100
AcDbEntity
  8
0
100
AcDbLine
 62
7
  6
CONTINUOUS
 10
-45.5775987027
 20
54.3371104593
 11
-41.6775987027
 21
54.3371104593
  0
LINE
  5
341
100
AcDbEntity
  8
0
100
AcDbLine
 62
7
  6
CONTINUOUS
 10
-41.6775987027
 20
54.3371104593
 11
-53.5062053313
 21
54.3371104593
  0
INSERT
  5
342
100
AcDbEntity
  8
0
100
AcDbBlockReference
 62
7
  6
CONTINUOUS
  2
_FILLED
 10
-37.7775987027
 20
54.3371104593
 41
3.0
 42
3.0
 43
3.0
  0
INSERT
  5
343
100
AcDbEntity
  8
0
100
AcDbBlockReference
 62
7
  6
CONTINUOUS
  2
_FILLED
 10
-45.5775987027
 20
54.3371104593
 41
3.0
 42
3.0
 43
3.0
 50
180.0
  0
ENDBLK
  5
344
100
AcDbEntity
  8
0
  6
BYBLOCK
 62
0
100
AcDbBlockEnd
  0
BLOCK
  5
345
100
AcDbEntity
  8
0
100
AcDbBlockBegin
 62
7
  6
CONTINUOUS
  2
*D1
 70
65
 10
0.0
 20
0.0
  3
*D1
  1

  0
LINE
  5
346
100
AcDbEntity
  8
0
100
AcDbLine
 62
7
  6
CONTINUOUS
 10
-34.7775987027
 20
40.7631488223
 11
-34.7775987027
 21
65.8602145839
  0
LINE
  5
347
100
AcDbEntity
  8
0
100
AcDbLine
 62
7
  6
CONTINUOUS
 10
-45.5775987027
 20
46.2139332554
 11
-45.5775987027
 21
65.8602145839
  0
LINE
  5
348
100
AcDbEntity
  8
0
100
AcDbLine
 62
7
  6
CONTINUOUS
 10
-34.7775987027
 20
64.3602145839
 11
-30.7775987027
 21
64.3602145839
  0
LINE
  5
349
100
AcDbEntity
  8
0
100
AcDbLine
 62
7
  6
CONTINUOUS
 10
-30.7775987027
 20
64.3602145839
 11
-40.1775987027
 21
64.3602145839
  0
LINE
  5
34A
100
AcDbEntity
  8
0
100
AcDbLine
 62
7
  6
CONTINUOUS
 10
-45.5775987027
 20
64.3602145839
 11
-49.5775987027
 21
64.3602145839
  0
LINE
  5
34B
100
AcDbEntity
  8
0
100
AcDbLine
 62
7
  6
CONTINUOUS
 10
-49.5775987027
 20
64.3602145839
 11
-40.1775987027
 21
64.3602145839
  0
INSERT
  5
34C
100
AcDbEntity
  8
0
100
AcDbBlockReference
 62
7
  6
CONTINUOUS
  2
_FILLED
 10
-34.7775987027
 20
64.3602145839
 41
3.0
 42
3.0
 43
3.0
 50
180.0
  0
INSERT
  5
34D
100
AcDbEntity
  8
0
100
AcDbBlockReference
 62
7
  6
CONTINUOUS
  2
_FILLED
 10
-45.5775987027
 20
64.3602145839
 41
3.0
 42
3.0
 43
3.0
  0
ENDBLK
  5
34E
100
AcDbEntity
  8
0
  6
BYBLOCK
 62
0
100
AcDbBlockEnd
  0
BLOCK
  5
34F
100
AcDbEntity
  8
0
100
AcDbBlockBegin
 62
7
  6
CONTINUOUS
  2
*D2
 70
65
 10
0.0
 20
0.0
  3
*D2
  1

  0
LINE
  5
350
100
AcDbEntity
  8
0
100
AcDbLine
 62
7
  6
CONTINUOUS
 10
-16.0625287239
 20
46.3118339354
 11
-16.0625287239
 21
55.8609041905
  0
LINE
  5
351
100
AcDbEntity
  8
0
100
AcDbLine
 62
7
  6
CONTINUOUS
 10
14.4304892502
 20
46.3118339354
 11
14.4304892502
 21
55.8609041905
  0
LINE
  5
352
100
AcDbEntity
  8
0
100
AcDbLine
 62
7
  6
CONTINUOUS
 10
-16.0625287239
 20
54.3609041905
 11
-0.8160197368
 21
54.3609041905
  0
LINE
  5
353
100
AcDbEntity
  8
0
100
AcDbLine
 62
7
  6
CONTINUOUS
 10
14.4304892502
 20
54.3609041905
 11
-0.8160197368
 21
54.3609041905
  0
INSERT
  5
354
100
AcDbEntity
  8
0
100
AcDbBlockReference
 62
7
  6
CONTINUOUS
  2
_FILLED
 10
-16.0625287239
 20
54.3609041905
 41
3.0
 42
3.0
 43
3.0
 50
180.0
  0
INSERT
  5
355
100
AcDbEntity
  8
0
100
AcDbBlockReference
 62
7
  6
CONTINUOUS
  2
_FILLED
 10
14.4304892502
 20
54.3609041905
 41
3.0
 42
3.0
 43
3.0
  0
ENDBLK
  5
356
100
AcDbEntity
  8
0
  6
BYBLOCK
 62
0
100
AcDbBlockEnd
  0
BLOCK
  5
357
100
AcDbEntity
  8
0
100
AcDbBlockBegin
 62
7
  6
CONTINUOUS
  2
*D3
 70
65
 10
0.0
 20
0.0
  3
*D3
  1

  0
LINE
  5
358
100
AcDbEntity
  8
0
100
AcDbLine
 62
7
  6
CONTINUOUS
 10
14.4305654026
 20
46.311757783
 11
24.0030774399
 21
46.311757783
  0
LINE
  5
359
100
AcDbEntity
  8
0
100
AcDbLine
 62
7
  6
CONTINUOUS
 10
14.4305654026
 20
-41.681260191
 11
24.0030774399
 21
-41.681260191
  0
LINE
  5
35A
100
AcDbEntity
  8
0
100
AcDbLine
 62
7
  6
CONTINUOUS
 10
22.5030774399
 20
46.311757783
 11
22.5030774399
 21
2.315248796
  0
LINE
  5
35B
100
AcDbEntity
  8
0
100
AcDbLine
 62
7
  6
CONTINUOUS
 10
22.5030774399
 20
-41.681260191
 11
22.5030774399
 21
2.315248796
  0
INSERT
  5
35C
100
AcDbEntity
  8
0
100
AcDbBlockReference
 62
7
  6
CONTINUOUS
  2
_FILLED
 10
22.5030774399
 20
46.311757783
 41
3.0
 42
3.0
 43
3.0
 50
90.0
  0
INSERT
  5
35D
100
AcDbEntity
  8
0
100
AcDbBlockReference
 62
7
  6
CONTINUOUS
  2
_FILLED
 10
22.5030774399
 20
-41.681260191
 41
3.0
 42
3.0
 43
3.0
 50
270.0
  0
ENDBLK
  5
35E
100
AcDbEntity
  8
0
  6
BYBLOCK
 62
0
100
AcDbBlockEnd
  0
ENDSEC
  0
SECTION
  2
ENTITIES
  0
DIMENSION
  5
35F
100
AcDbEntity
  8
0
100
AcDbDimension
 62
7
  6
CONTINUOUS
  2
*D0
 10
-45.5775987027
 20
54.3371104593
 11
-53.5062053313
 21
54.3371104593
 70
160
 71
3
 72
2
 41
0.9
 42
7.8
  3
DIMSTYLE_1
100
AcDbAlignedDimension
 13
-37.7775987027
 23
43.5655533825
 14
-45.5775987027
 24
45.7139332554
 50
180.0
100
AcDbRotatedDimension
  0
DIMENSION
  5
360
100
AcDbEntity
  8
0
100
AcDbDimension
 62
7
  6
CONTINUOUS
  2
*D1
 10
-45.5775987027
 20
64.3602145839
 11
-44.2490272742
 21
64.3602145839
 70
160
 71
2
 72
2
 41
0.9
 42
10.8
  3
DIMSTYLE_1
100
AcDbAlignedDimension
 13
-34.7775987027
 23
40.2631488223
 14
-45.5775987027
 24
45.7139332554
 50
180.0
100
AcDbRotatedDimension
  0
DIMENSION
  5
361
100
AcDbEntity
  8
0
100
AcDbDimension
 62
7
  6
CONTINUOUS
  2
*D2
 10
14.4304892502
 20
54.3609041905
 11
-4.9945911654
 21
54.3609041905
 70
160
 71
2
 72
2
 41
0.9
 42
30.493017974
  3
DIMSTYLE_2
100
AcDbAlignedDimension
 13
-16.0625287239
 23
45.8118339354
 14
14.4304892502
 24
45.8118339354
100
AcDbRotatedDimension
  0
DIMENSION
  5
362
100
AcDbEntity
  8
0
100
AcDbDimension
 62
7
  6
CONTINUOUS
  2
*D3
 10
22.5030774399
 20
-41.681260191
 11
22.5030774399
 21
-0.0418940612
 70
160
 71
2
 72
2
 41
0.9
 42
87.993017974
  3
DIMSTYLE_2
100
AcDbAlignedDimension
 13
13.9305654026
 23
46.311757783
 14
13.9305654026
 24
-41.681260191
 50
270.0
100
AcDbRotatedDimension
  0
LWPOLYLINE
  5
363
100
AcDbEntity
  8
0
100
AcDbPolyline
 62
7
  6
CONTINUOUS
 90
5
 70
0
 43
0.3500000019
 10
-4.1374506836
 20
56.8251889648
 10
-3.7803051758
 20
57.0394741211
 10
-3.7803051758
 20
57.6823349609
 10
-4.1374506836
 20
58.1109052734
 10
-4.9945913086
 20
58.1109052734
  0
LWPOLYLINE
  5
364
100
AcDbEntity
  8
RACCORDO
100
AcDbPolyline
 62
250
  6
CONTINUOUS
 90
16
 70
0
 10
13.8326647226
 20
-41.583359511
 10
13.884910901
 20
-41.5806060234
 10
13.9365848812
 20
-41.5724075435
 10
13.9871207316
 20
-41.5588538608
 10
14.0359649853
 20
-41.5400934147
 10
14.0825827017
 20
-41.5163316689
 10
14.126463325
 20
-41.4878288615
 10
14.1671262762
 20
-41.4548971542
 10
14.2041262162
 20
-41.4178972139
 10
14.2370579231
 20
-41.3772342625
 10
14.2655607301
 20
-41.333353639
 10
14.2893224753
 20
-41.2867359227
 10
14.3080829209
 20
-41.2378916694
 10
14.3216366031
 20
-41.1873558197
 10
14.3298350826
 20
-41.1356818406
 10
14.3325885701
 20
-41.0834356634
  0
LINE
  5
365
100
AcDbEntity
  8
RACCORDO
100
AcDbLine
 62
250
  6
CONTINUOUS
 10
-7.0350762232
 20
-42.0156642567
 11
-7.0315857232
 21
-42.0156327276
  0
LINE
  5
366
100
AcDbEntity
  8
RACCORDO
100
AcDbLine
 62
7
  6
CONTINUOUS
 10
-10.6160501978
 20
-42.034751204
 11
-7.0159892759
 21
-42.034751204
  0
LINE
  5
367
100
AcDbEntity
  8
RACCORDO
100
AcDbLine
 62
250
  6
CONTINUOUS
 10
-10.5969632505
 20
-42.0156642567
 11
-7.0350762232
 21
-42.0156642567
  0
LINE
  5
368
100
AcDbEntity
  8
RACCORDO
100
AcDbLine
 62
250
  6
CONTINUOUS
 10
-10.7969327895
 20
-41.8156947177
 11
-6.8351066842
 21
-41.8156947177
  0
LWPOLYLINE
  5
369
100
AcDbEntity
  8
RACCORDO
100
AcDbPolyline
 62
7
  6
CONTINUOUS
 90
4
 70
0
 10
-10.6160501978
 20
-42.034751204
 10
-10.6501194901
 20
-42.0318287846
 10
-10.6835056061
 20
-42.0230332836
 10
-10.7151702427
 20
-42.0084613942
  0
LWPOLYLINE
  5
36A
100
AcDbEntity
  8
RACCORDO
100
AcDbPolyline
 62
250
  6
CONTINUOUS
 90
3
 70
0
 10
-10.6339436123
 20
-42.0122038587
 10
-10.6305143832
 20
-42.0128193207
 10
-10.5969632505
 20
-42.0156642567
  0
LWPOLYLINE
  5
36B
100
AcDbEntity
  8
RACCORDO
100
AcDbPolyline
 62
7
  6
CONTINUOUS
 90
3
 70
0
 10
-6.9485338675
 20
-42.0230332836
 10
-6.9819199836
 20
-42.0318287846
 10
-7.0159892759
 20
-42.034751204
  0
LWPOLYLINE
  5
36C
100
AcDbEntity
  8
RACCORDO
100
AcDbPolyline
 62
7
  6
CONTINUOUS
 90
9
 70
0
 10
-7.0315857232
 20
-42.0156327276
 10
-6.9999457146
 20
-42.0125435206
 10
-6.9659166089
 20
-42.0033029806
 10
-6.9340455671
 20
-41.9882345799
 10
-6.905223898
 20
-41.967728148
 10
-6.8804699426
 20
-41.9424731633
 10
-6.8607411192
 20
-41.9135961522
 10
-6.8465153375
 20
-41.8822151504
 10
-6.8385670821
 20
-41.8526750795
  0
LINE
  5
36D
100
AcDbEntity
  8
0
100
AcDbLine
 62
7
  6
CONTINUOUS
 10
-15.5626048763
 20
-41.681260191
 11
-10.9160197368
 21
-41.681260191
  0
LINE
  5
36E
100
AcDbEntity
  8
0
100
AcDbLine
 62
7
  6
CONTINUOUS
 10
-6.7160197368
 20
-41.681260191
 11
13.9305654026
 21
-41.681260191
  0
LINE
  5
36F
100
AcDbEntity
  8
RACCORDO
100
AcDbLine
 62
7
  6
CONTINUOUS
 10
-7.0160197368
 20
-41.6498410742
 11
-10.6160197368
 21
-41.6498410742
  0
LINE
  5
370
100
AcDbEntity
  8
RACCORDO
100
AcDbLine
 62
250
  6
CONTINUOUS
 10
-15.4647041962
 20
-41.583359511
 11
13.8326647226
 21
-41.583359511
  0
LINE
  5
371
100
AcDbEntity
  8
RACCORDO
100
AcDbLine
 62
250
  6
CONTINUOUS
 10
-15.9646280438
 20
-41.0834356634
 11
14.3325885701
 21
-41.0834356634
  0
LINE
  5
372
100
AcDbEntity
  8
RACCORDO
100
AcDbLine
 62
7
  6
CONTINUOUS
 10
-3.4660197368
 20
-39.534751204
 11
1.8339802632
 21
-39.534751204
  0
LWPOLYLINE
  5
373
100
AcDbEntity
  8
RACCORDO
100
AcDbPolyline
 62
7
  6
CONTINUOUS
 90
5
 70
0
 10
-10.7151702427
 20
-42.0084613942
 10
-10.7442504425
 20
-41.9882561326
 10
-10.7695246654
 20
-41.9629819097
 10
-10.789729927
 20
-41.9339017099
 10
-10.8043018164
 20
-41.9022370733
  0
LINE
  5
374
100
AcDbEntity
  8
RACCORDO
100
AcDbLine
 62
7
  6
CONTINUOUS
 10
1.8339802632
 20
-36.834751204
 11
-3.4660197368
 21
-36.834751204
  0
LINE
  5
375
100
AcDbEntity
  8
CURVE
100
AcDbLine
 62
7
  6
CONTINUOUS
 10
6.6839802632
 20
-32.684751204
 11
-8.3160197368
 21
-32.684751204
  0
LINE
  5
376
100
AcDbEntity
  8
RACCORDO
100
AcDbLine
 62
250
  6
CONTINUOUS
 10
-7.0350762232
 20
-42.0156642567
 11
-7.0159892759
 21
-42.034751204
  0
LINE
  5
377
100
AcDbEntity
  8
RACCORDO
100
AcDbLine
 62
250
  6
CONTINUOUS
 10
-6.8351066842
 20
-41.8156947177
 11
-6.8160197368
 21
-41.834781665
  0
LINE
  5
378
100
AcDbEntity
  8
CURVE
100
AcDbLine
 62
7
  6
CONTINUOUS
 10
-8.3160197368
 20
37.1395027124
 11
-8.1402736533
 21
37.315248796
  0
LINE
  5
379
100
AcDbEntity
  8
CURVE
100
AcDbLine
 62
7
  6
CONTINUOUS
 10
-8.3160197368
 20
32.1614709728
 11
-3.1622419137
 21
37.315248796
  0
LINE
  5
37A
100
AcDbEntity
  8
CURVE
100
AcDbLine
 62
7
  6
CONTINUOUS
 10
-8.1842101742
 20
27.315248796
 11
1.8157898258
 21
37.315248796
  0
LINE
  5
37B
100
AcDbEntity
  8
CURVE
100
AcDbLine
 62
7
  6
CONTINUOUS
 10
-8.3160197368
 20
-22.684751204
 11
6.6839802632
 21
-22.684751204
  0
LINE
  5
37C
100
AcDbEntity
  8
RACCORDO
100
AcDbLine
 62
250
  6
CONTINUOUS
 10
13.8326647226
 20
46.2138571029
 11
13.9305654026
 21
46.311757783
  0
LINE
  5
37D
100
AcDbEntity
  8
RACCORDO
100
AcDbLine
 62
250
  6
CONTINUOUS
 10
14.3325885701
 20
45.7139332554
 11
14.4304892502
 21
45.8118339354
  0
LINE
  5
37E
100
AcDbEntity
  8
CURVE
100
AcDbLine
 62
7
  6
CONTINUOUS
 10
-8.3160197368
 20
22.2054074937
 11
-8.2061784346
 21
22.315248796
  0
LINE
  5
37F
100
AcDbEntity
  8
CURVE
100
AcDbLine
 62
7
  6
CONTINUOUS
 10
-3.2061784346
 20
27.315248796
 11
6.6839802632
 21
37.2054074937
  0
LINE
  5
380
100
AcDbEntity
  8
RACCORDO
100
AcDbLine
 62
250
  6
CONTINUOUS
 10
13.8326647226
 20
-41.583359511
 11
13.9305654026
 21
-41.681260191
  0
LWPOLYLINE
  5
381
100
AcDbEntity
  8
RACCORDO
100
AcDbPolyline
 62
7
  6
CONTINUOUS
 90
3
 70
0
 10
-10.8043018164
 20
-41.9022370733
 10
-10.8130973175
 20
-41.8688509573
 10
-10.8160197368
 20
-41.834781665
  0
LWPOLYLINE
  5
382
100
AcDbEntity
  8
RACCORDO
100
AcDbPolyline
 62
250
  6
CONTINUOUS
 90
16
 70
0
 10
-15.9646280438
 20
-41.0834356634
 10
-15.9618745562
 20
-41.1356818419
 10
-15.9536760763
 20
-41.1873558221
 10
-15.9401223936
 20
-41.2378916725
 10
-15.9213619475
 20
-41.2867359261
 10
-15.8976002017
 20
-41.3333536426
 10
-15.8690973943
 20
-41.3772342659
 10
-15.836165687
 20
-41.4178972171
 10
-15.7991657467
 20
-41.4548971571
 10
-15.7585027953
 20
-41.487828864
 10
-15.7146221718
 20
-41.516331671
 10
-15.6680044555
 20
-41.5400934162
 10
-15.6191602022
 20
-41.5588538618
 10
-15.5686243526
 20
-41.572407544
 10
-15.5169503734
 20
-41.5806060235
 10
-15.4647041962
 20
-41.583359511
  0
LWPOLYLINE
  5
383
100
AcDbEntity
  8
0
100
AcDbPolyline
 62
7
  6
CONTINUOUS
 90
3
 70
0
 43
0.3500000019
 10
0.2196933594
 20
55.3966176758
 10
0.1482685547
 20
55.1823325195
 10
0.0054082031
 20
54.8966171875
  0
LINE
  5
384
100
AcDbEntity
  8
CURVE
100
AcDbLine
 62
7
  6
CONTINUOUS
 10
-8.3160197368
 20
17.2273757542
 11
-3.2281466951
 21
22.315248796
  0
LINE
  5
385
100
AcDbEntity
  8
CURVE
100
AcDbLine
 62
7
  6
CONTINUOUS
 10
1.7718533049
 20
27.315248796
 11
6.6839802632
 21
32.2273757542
  0
LINE
  5
386
100
AcDbEntity
  8
CURVE
100
AcDbLine
 62
7
  6
CONTINUOUS
 10
6.6839802632
 20
-17.684751204
 11
-8.3160197368
 21
-17.684751204
  0
LINE
  5
387
100
AcDbEntity
  8
RACCORDO
100
AcDbLine
 62
250
  6
CONTINUOUS
 10
14.3325885701
 20
-41.0834356634
 11
14.4304892502
 21
-41.1813363435
  0
LWPOLYLINE
  5
388
100
AcDbEntity
  8
RACCORDO
100
AcDbPolyline
 62
7
  6
CONTINUOUS
 90
9
 70
0
 10
-10.7969012604
 20
-41.8191852177
 10
-10.7938120534
 20
-41.8508252263
 10
-10.7845715134
 20
-41.884854332
 10
-10.7695031127
 20
-41.9167253738
 10
-10.7489966808
 20
-41.9455470429
 10
-10.7237416961
 20
-41.9703009983
 10
-10.694864685
 20
-41.9900298217
 10
-10.6634836832
 20
-42.0042556034
 10
-10.6339436123
 20
-42.0122038587
  0
LWPOLYLINE
  5
389
100
AcDbEntity
  8
RACCORDO
100
AcDbPolyline
 62
250
  6
CONTINUOUS
 90
16
 70
0
 10
-15.9646280438
 20
3.1165643366
 10
-15.9618745562
 20
3.0643181581
 10
-15.9536760763
 20
3.0126441779
 10
-15.9401223936
 20
2.9621083275
 10
-15.9213619475
 20
2.9132640739
 10
-15.8976002017
 20
2.8666463574
 10
-15.8690973943
 20
2.8227657341
 10
-15.836165687
 20
2.7821027829
 10
-15.7991657467
 20
2.7451028429
 10
-15.7585027953
 20
2.712171136
 10
-15.7146221718
 20
2.683668329
 10
-15.6680044555
 20
2.6599065838
 10
-15.6191602022
 20
2.6411461382
 10
-15.5686243526
 20
2.627592456
 10
-15.5169503734
 20
2.6193939765
 10
-15.4647041962
 20
2.616640489
  0
LINE
  5
38A
100
AcDbEntity
  8
RACCORDO
100
AcDbLine
 62
7
  6
CONTINUOUS
 10
-16.0625287239
 20
45.8118339354
 11
-16.0625287239
 21
3.0186636565
  0
LINE
  5
38B
100
AcDbEntity
  8
RACCORDO
100
AcDbLine
 62
7
  6
CONTINUOUS
 10
-16.0625287239
 20
1.6118339354
 11
-16.0625287239
 21
-41.1813363435
  0
LINE
  5
38C
100
AcDbEntity
  8
RACCORDO
100
AcDbLine
 62
250
  6
CONTINUOUS
 10
-15.9646280438
 20
45.7139332554
 11
-15.9646280438
 21
3.1165643366
  0
LINE
  5
38D
100
AcDbEntity
  8
RACCORDO
100
AcDbLine
 62
250
  6
CONTINUOUS
 10
-15.9646280438
 20
1.5139332554
 11
-15.9646280438
 21
-41.0834356634
  0
LINE
  5
38E
100
AcDbEntity
  8
RACCORDO
100
AcDbLine
 62
250
  6
CONTINUOUS
 10
-15.4647041962
 20
2.0138571029
 11
-15.4647041962
 21
-41.583359511
  0
LINE
  5
38F
100
AcDbEntity
  8
RACCORDO
100
AcDbLine
 62
250
  6
CONTINUOUS
 10
-15.4647041962
 20
2.616640489
 11
-15.4647041962
 21
46.2138571029
  0
LINE
  5
390
100
AcDbEntity
  8
DRAFT
100
AcDbLine
 62
7
  6
CONTINUOUS
 10
-13.9660197368
 20
2.5946693414
 11
-13.9660197368
 21
2.0358282505
  0
LINE
  5
391
100
AcDbEntity
  8
DRAFT
100
AcDbLine
 62
7
  6
CONTINUOUS
 10
-13.8979242363
 20
2.0358282505
 11
-13.8979242363
 21
2.5946693414
  0
LINE
  5
392
100
AcDbEntity
  8
CURVE
100
AcDbLine
 62
7
  6
CONTINUOUS
 10
-8.2501149555
 20
12.315248796
 11
1.7498850445
 21
22.315248796
  0
LINE
  5
393
100
AcDbEntity
  8
RACCORDO
100
AcDbLine
 62
250
  6
CONTINUOUS
 10
-15.9646280438
 20
3.1165643366
 11
-16.0625287239
 21
3.0186636565
  0
LINE
  5
394
100
AcDbEntity
  8
RACCORDO
100
AcDbLine
 62
250
  6
CONTINUOUS
 10
-10.7969327895
 20
-41.8156947177
 11
-10.7969012604
 21
-41.8191852177
  0
LINE
  5
395
100
AcDbEntity
  8
DRAFT
100
AcDbLine
 62
7
  6
CONTINUOUS
 10
-12.4782382823
 20
2.0358282505
 11
-12.4782382823
 21
2.5946693414
  0
LINE
  5
396
100
AcDbEntity
  8
DRAFT
100
AcDbLine
 62
7
  6
CONTINUOUS
 10
-12.4660197368
 20
2.5946693414
 11
-12.4660197368
 21
2.0358282505
  0
LINE
  5
397
100
AcDbEntity
  8
DRAFT
100
AcDbLine
 62
7
  6
CONTINUOUS
 10
-12.3422023342
 20
2.5946693414
 11
-12.3422023342
 21
2.0358282505
  0
LINE
  5
398
100
AcDbEntity
  8
DRAFT
100
AcDbLine
 62
7
  6
CONTINUOUS
 10
-12.3160197368
 20
2.5946693414
 11
-12.3160197368
 21
2.0358282505
  0
LINE
  5
399
100
AcDbEntity
  8
RACCORDO
100
AcDbLine
 62
7
  6
CONTINUOUS
 10
-10.9160197368
 20
-41.681260191
 11
-10.9160197368
 21
-41.6550775937
  0
LINE
  5
39A
100
AcDbEntity
  8
RACCORDO
100
AcDbLine
 62
7
  6
CONTINUOUS
 10
-10.8160197368
 20
-41.6511766802
 11
-10.8160197368
 21
-41.834781665
  0
LINE
  5
39B
100
AcDbEntity
  8
RACCORDO
100
AcDbLine
 62
250
  6
CONTINUOUS
 10
-10.7969327895
 20
-41.6509060733
 11
-10.7969327895
 21
-41.8156947177
  0
LINE
  5
39C
100
AcDbEntity
  8
RACCORDO
100
AcDbLine
 62
250
  6
CONTINUOUS
 10
-10.5969632505
 20
-41.6498410742
 11
-10.5969632505
 21
-42.0156642567
  0
LINE
  5
39D
100
AcDbEntity
  8
RACCORDO
100
AcDbLine
 62
250
  6
CONTINUOUS
 10
-15.4647041962
 20
2.616640489
 11
-15.5626048763
 21
2.518739809
  0
LINE
  5
39E
100
AcDbEntity
  8
DRAFT
100
AcDbLine
 62
7
  6
CONTINUOUS
 10
-14.3125287239
 20
2.518739809
 11
-14.2365991914
 21
2.5946693414
  0
LINE
  5
39F
100
AcDbEntity
  8
CURVE
100
AcDbLine
 62
7
  6
CONTINUOUS
 10
-3.2720832159
 20
12.315248796
 11
6.6839802632
 21
22.2713122751
  0
LINE
  5
3A0
100
AcDbEntity
  8
RACCORDO
100
AcDbLine
 62
250
  6
CONTINUOUS
 10
-15.9646280438
 20
1.5139332554
 11
-16.0625287239
 21
1.6118339354
  0
LINE
  5
3A1
100
AcDbEntity
  8
CURVE
100
AcDbLine
 62
7
  6
CONTINUOUS
 10
-8.3160197368
 20
-32.684751204
 11
-8.3160197368
 21
-22.684751204
  0
LINE
  5
3A2
100
AcDbEntity
  8
CURVE
100
AcDbLine
 62
7
  6
CONTINUOUS
 10
-8.3160197368
 20
-17.684751204
 11
-8.3160197368
 21
-7.684751204
  0
LINE
  5
3A3
100
AcDbEntity
  8
CURVE
100
AcDbLine
 62
7
  6
CONTINUOUS
 10
-8.3160197368
 20
12.315248796
 11
-8.3160197368
 21
22.315248796
  0
LINE
  5
3A4
100
AcDbEntity
  8
CURVE
100
AcDbLine
 62
7
  6
CONTINUOUS
 10
-8.3160197368
 20
27.315248796
 11
-8.3160197368
 21
37.315248796
  0
LINE
  5
3A5
100
AcDbEntity
  8
RACCORDO
100
AcDbLine
 62
250
  6
CONTINUOUS
 10
-7.0350762232
 20
-41.6498410742
 11
-7.0350762232
 21
-42.0156642567
  0
LINE
  5
3A6
100
AcDbEntity
  8
CURVE
100
AcDbLine
 62
7
  6
CONTINUOUS
 10
1.7059485236
 20
12.315248796
 11
6.6839802632
 21
17.2932805355
  0
LINE
  5
3A7
100
AcDbEntity
  8
CURVE
100
AcDbLine
 62
7
  6
CONTINUOUS
 10
-8.3160197368
 20
-7.684751204
 11
6.6839802632
 21
-7.684751204
  0
LINE
  5
3A8
100
AcDbEntity
  8
RACCORDO
100
AcDbLine
 62
250
  6
CONTINUOUS
 10
-15.4647041962
 20
2.0138571029
 11
-15.5626048763
 21
2.111757783
  0
LINE
  5
3A9
100
AcDbEntity
  8
DRAFT
100
AcDbLine
 62
7
  6
CONTINUOUS
 10
-14.3125287239
 20
2.111757783
 11
-14.2365991914
 21
2.0358282505
  0
LINE
  5
3AA
100
AcDbEntity
  8
RACCORDO
100
AcDbLine
 62
7
  6
CONTINUOUS
 10
-6.8398158472
 20
2.5946693414
 11
-6.8398158472
 21
2.0358282505
  0
LINE
  5
3AB
100
AcDbEntity
  8
RACCORDO
100
AcDbLine
 62
250
  6
CONTINUOUS
 10
-6.8351066842
 20
-41.8156947177
 11
-6.8351066842
 21
-41.6509060733
  0
LINE
  5
3AC
100
AcDbEntity
  8
RACCORDO
100
AcDbLine
 62
7
  6
CONTINUOUS
 10
-6.8160197368
 20
-41.834781665
 11
-6.8160197368
 21
-41.6511766802
  0
LINE
  5
3AD
100
AcDbEntity
  8
RACCORDO
100
AcDbLine
 62
7
  6
CONTINUOUS
 10
-6.7160197368
 20
-41.681260191
 11
-6.7160197368
 21
-41.6550775937
  0
LINE
  5
3AE
100
AcDbEntity
  8
IMPORT_IGES
100
AcDbLine
 62
7
  6
CONTINUOUS
 10
-6.6160197368
 20
2.0358282505
 11
-6.6160197368
 21
2.5946693414
  0
LINE
  5
3AF
100
AcDbEntity
  8
IMPORT_IGES
100
AcDbLine
 62
7
  6
CONTINUOUS
 10
-6.5160197368
 20
2.0358282505
 11
-6.5160197368
 21
2.5946693414
  0
LINE
  5
3B0
100
AcDbEntity
  8
IMPORT_IGES
100
AcDbLine
 62
7
  6
CONTINUOUS
 10
-6.4853987046
 20
2.0358282505
 11
-6.4853987046
 21
2.5946693414
  0
LINE
  5
3B1
100
AcDbEntity
  8
IMPORT_IGES
100
AcDbLine
 62
7
  6
CONTINUOUS
 10
-5.1466407691
 20
2.5946693414
 11
-5.1466407691
 21
2.0358282505
  0
LINE
  5
3B2
100
AcDbEntity
  8
IMPORT_IGES
100
AcDbLine
 62
7
  6
CONTINUOUS
 10
-5.1160197368
 20
2.5946693414
 11
-5.1160197368
 21
2.0358282505
  0
LINE
  5
3B3
100
AcDbEntity
  8
IMPORT_IGES
100
AcDbLine
 62
7
  6
CONTINUOUS
 10
-5.0160197368
 20
2.5946693414
 11
-5.0160197368
 21
2.0358282505
  0
LINE
  5
3B4
100
AcDbEntity
  8
IMPORT_IGES
100
AcDbLine
 62
7
  6
CONTINUOUS
 10
-3.6910197368
 20
2.0358282505
 11
-3.6910197368
 21
2.5946693414
  0
LINE
  5
3B5
100
AcDbEntity
  8
IMPORT_IGES
100
AcDbLine
 62
7
  6
CONTINUOUS
 10
-3.6810197368
 20
2.0358282505
 11
-3.6810197368
 21
2.5946693414
  0
LINE
  5
3B6
100
AcDbEntity
  8
RACCORDO
100
AcDbLine
 62
7
  6
CONTINUOUS
 10
-3.6660197368
 20
-37.034751204
 11
-3.6660197368
 21
-39.334751204
  0
LINE
  5
3B7
100
AcDbEntity
  8
IMPORT_IGES
100
AcDbLine
 62
7
  6
CONTINUOUS
 10
-3.6503987046
 20
2.0358282505
 11
-3.6503987046
 21
2.5946693414
  0
LINE
  5
3B8
100
AcDbEntity
  8
IMPORT_IGES
100
AcDbLine
 62
7
  6
CONTINUOUS
 10
-2.9816407691
 20
2.5946693414
 11
-2.9816407691
 21
2.0358282505
  0
LINE
  5
3B9
100
AcDbEntity
  8
IMPORT_IGES
100
AcDbLine
 62
7
  6
CONTINUOUS
 10
-2.9510197368
 20
2.5946693414
 11
-2.9510197368
 21
2.0358282505
  0
LINE
  5
3BA
100
AcDbEntity
  8
IMPORT_IGES
100
AcDbLine
 62
7
  6
CONTINUOUS
 10
-2.9410197368
 20
2.5946693414
 11
-2.9410197368
 21
2.0358282505
  0
LWPOLYLINE
  5
3BB
100
AcDbEntity
  8
0
100
AcDbPolyline
 62
7
  6
CONTINUOUS
 90
13
 70
0
 43
0.3500000019
 10
-2.851734375
 20
55.9680483398
 10
-2.851734375
 20
57.2537592773
 10
-2.6374492187
 20
57.6823349609
 10
-2.2088789062
 20
58.1109052734
 10
-1.99459375
 20
58.1109052734
 10
-1.5660180664
 20
57.6823349609
 10
-1.3517329102
 20
57.2537592773
 10
-1.3517329102
 20
55.9680483398
 10
-1.5660180664
 20
55.5394780273
 10
-1.99459375
 20
55.1109023438
 10
-2.2088789062
 20
55.1109023438
 10
-2.6374492187
 20
55.5394780273
 10
-2.851734375
 20
55.9680483398
  0
LINE
  5
3BC
100
AcDbEntity
  8
IMPORT_IGES
100
AcDbLine
 62
7
  6
CONTINUOUS
 10
-1.6160197368
 20
2.0358282505
 11
-1.6160197368
 21
2.5946693414
  0
LINE
  5
3BD
100
AcDbEntity
  8
IMPORT_IGES
100
AcDbLine
 62
7
  6
CONTINUOUS
 10
-1.5160197368
 20
2.0358282505
 11
-1.5160197368
 21
2.5946693414
  0
LINE
  5
3BE
100
AcDbEntity
  8
IMPORT_IGES
100
AcDbLine
 62
7
  6
CONTINUOUS
 10
-1.4853987046
 20
2.0358282505
 11
-1.4853987046
 21
2.5946693414
  0
LWPOLYLINE
  5
3BF
100
AcDbEntity
  8
RACCORDO
100
AcDbPolyline
 62
7
  6
CONTINUOUS
 90
4
 70
0
 10
-6.8160197368
 20
-41.834781665
 10
-6.8189421562
 20
-41.8688509573
 10
-6.8277376573
 20
-41.9022370733
 10
-6.8423095467
 20
-41.9339017099
  0
LWPOLYLINE
  5
3C0
100
AcDbEntity
  8
0
100
AcDbPolyline
 62
7
  6
CONTINUOUS
 90
4
 70
0
 43
0.3500000019
 10
21.3245039063
 20
-0.0418940618
 10
20.4673632813
 20
-0.0418940618
 10
20.0387929688
 20
0.3866773758
 10
20.0387929688
 20
1.029534523
  0
LINE
  5
3C1
100
AcDbEntity
  8
IMPORT_IGES
100
AcDbLine
 62
7
  6
CONTINUOUS
 10
-0.1466407691
 20
2.5946693414
 11
-0.1466407691
 21
2.0358282505
  0
LINE
  5
3C2
100
AcDbEntity
  8
IMPORT_IGES
100
AcDbLine
 62
7
  6
CONTINUOUS
 10
-0.1160197368
 20
2.5946693414
 11
-0.1160197368
 21
2.0358282505
  0
LINE
  5
3C3
100
AcDbEntity
  8
IMPORT_IGES
100
AcDbLine
 62
7
  6
CONTINUOUS
 10
-0.0160197368
 20
2.5946693414
 11
-0.0160197368
 21
2.0358282505
  0
LINE
  5
3C4
100
AcDbEntity
  8
IMPORT_IGES
100
AcDbLine
 62
7
  6
CONTINUOUS
 10
1.3089802632
 20
2.0358282505
 11
1.3089802632
 21
2.5946693414
  0
LINE
  5
3C5
100
AcDbEntity
  8
IMPORT_IGES
100
AcDbLine
 62
7
  6
CONTINUOUS
 10
1.3189802632
 20
2.0358282505
 11
1.3189802632
 21
2.5946693414
  0
LINE
  5
3C6
100
AcDbEntity
  8
IMPORT_IGES
100
AcDbLine
 62
7
  6
CONTINUOUS
 10
1.3496012954
 20
2.0358282505
 11
1.3496012954
 21
2.5946693414
  0
LINE
  5
3C7
100
AcDbEntity
  8
IMPORT_IGES
100
AcDbLine
 62
7
  6
CONTINUOUS
 10
2.0183592309
 20
2.5946693414
 11
2.0183592309
 21
2.0358282505
  0
LINE
  5
3C8
100
AcDbEntity
  8
RACCORDO
100
AcDbLine
 62
7
  6
CONTINUOUS
 10
2.0339802632
 20
-39.334751204
 11
2.0339802632
 21
-37.034751204
  0
LINE
  5
3C9
100
AcDbEntity
  8
IMPORT_IGES
100
AcDbLine
 62
7
  6
CONTINUOUS
 10
2.0489802632
 20
2.5946693414
 11
2.0489802632
 21
2.0358282505
  0
LINE
  5
3CA
100
AcDbEntity
  8
IMPORT_IGES
100
AcDbLine
 62
7
  6
CONTINUOUS
 10
2.0589802632
 20
2.5946693414
 11
2.0589802632
 21
2.0358282505
  0
LWPOLYLINE
  5
3CB
100
AcDbEntity
  8
RACCORDO
100
AcDbPolyline
 62
250
  6
CONTINUOUS
 90
3
 70
0
 10
-6.8385670821
 20
-41.8526750795
 10
-6.8379516202
 20
-41.8492458504
 10
-6.8351066842
 20
-41.8156947177
  0
LWPOLYLINE
  5
3CC
100
AcDbEntity
  8
RACCORDO
100
AcDbPolyline
 62
250
  6
CONTINUOUS
 90
16
 70
0
 10
13.8326647226
 20
2.616640489
 10
13.884910901
 20
2.6193939766
 10
13.9365848812
 20
2.6275924565
 10
13.9871207316
 20
2.6411461392
 10
14.0359649853
 20
2.6599065853
 10
14.0825827017
 20
2.6836683311
 10
14.126463325
 20
2.7121711385
 10
14.1671262762
 20
2.7451028458
 10
14.2041262162
 20
2.7821027861
 10
14.2370579231
 20
2.8227657375
 10
14.2655607301
 20
2.866646361
 10
14.2893224753
 20
2.9132640773
 10
14.3080829209
 20
2.9621083306
 10
14.3216366031
 20
3.0126441803
 10
14.3298350826
 20
3.0643181594
 10
14.3325885701
 20
3.1165643366
  0
LWPOLYLINE
  5
3CD
100
AcDbEntity
  8
RACCORDO
100
AcDbPolyline
 62
250
  6
CONTINUOUS
 90
16
 70
0
 10
-15.4647041962
 20
2.0138571029
 10
-15.5169503747
 20
2.0111036153
 10
-15.5686243549
 20
2.0029051354
 10
-15.6191602053
 20
1.9893514527
 10
-15.668004459
 20
1.9705910066
 10
-15.7146221754
 20
1.9468292609
 10
-15.7585027987
 20
1.9183264534
 10
-15.7991657499
 20
1.8853947461
 10
-15.8361656899
 20
1.8483948058
 10
-15.8690973968
 20
1.8077318544
 10
-15.8976002038
 20
1.763851231
 10
-15.921361949
 20
1.7172335146
 10
-15.9401223946
 20
1.6683892613
 10
-15.9536760768
 20
1.6178534117
 10
-15.9618745563
 20
1.5661794325
 10
-15.9646280438
 20
1.5139332554
  0
LINE
  5
3CE
100
AcDbEntity
  8
RACCORDO
100
AcDbLine
 62
250
  6
CONTINUOUS
 10
-15.9646280438
 20
1.5139332554
 11
14.3325885701
 21
1.5139332554
  0
LINE
  5
3CF
100
AcDbEntity
  8
RACCORDO
100
AcDbLine
 62
250
  6
CONTINUOUS
 10
13.8326647226
 20
2.0138571029
 11
-15.4647041962
 21
2.0138571029
  0
LINE
  5
3D0
100
AcDbEntity
  8
DRAFT
100
AcDbLine
 62
7
  6
CONTINUOUS
 10
-14.2365991914
 20
2.0358282505
 11
12.6045597177
 21
2.0358282505
  0
LINE
  5
3D1
100
AcDbEntity
  8
RACCORDO
100
AcDbLine
 62
7
  6
CONTINUOUS
 10
13.9305654026
 20
2.111757783
 11
12.6804892502
 21
2.111757783
  0
LINE
  5
3D2
100
AcDbEntity
  8
RACCORDO
100
AcDbLine
 62
7
  6
CONTINUOUS
 10
-14.3125287239
 20
2.111757783
 11
-15.5626048763
 21
2.111757783
  0
LWPOLYLINE
  5
3D3
100
AcDbEntity
  8
0
100
AcDbPolyline
 62
7
  6
CONTINUOUS
 90
4
 70
0
 43
0.3500000019
 10
21.3245039063
 20
2.3152487335
 10
20.4673632813
 20
2.3152487335
 10
20.0387929688
 20
2.7438202209
 10
20.0387929688
 20
3.3866773682
  0
LINE
  5
3D4
100
AcDbEntity
  8
RACCORDO
100
AcDbLine
 62
7
  6
CONTINUOUS
 10
-15.5626048763
 20
2.518739809
 11
-14.3125287239
 21
2.518739809
  0
LINE
  5
3D5
100
AcDbEntity
  8
RACCORDO
100
AcDbLine
 62
7
  6
CONTINUOUS
 10
12.6804892502
 20
2.518739809
 11
13.9305654026
 21
2.518739809
  0
LINE
  5
3D6
100
AcDbEntity
  8
DRAFT
100
AcDbLine
 62
7
  6
CONTINUOUS
 10
-14.2365991914
 20
2.5946693414
 11
12.6045597177
 21
2.5946693414
  0
LINE
  5
3D7
100
AcDbEntity
  8
RACCORDO
100
AcDbLine
 62
250
  6
CONTINUOUS
 10
-15.4647041962
 20
2.616640489
 11
13.8326647226
 21
2.616640489
  0
LINE
  5
3D8
100
AcDbEntity
  8
RACCORDO
100
AcDbLine
 62
250
  6
CONTINUOUS
 10
-15.9646280438
 20
3.1165643366
 11
14.3325885701
 21
3.1165643366
  0
LINE
  5
3D9
100
AcDbEntity
  8
IMPORT_IGES
100
AcDbLine
 62
7
  6
CONTINUOUS
 10
3.3839802632
 20
2.0358282505
 11
3.3839802632
 21
2.5946693414
  0
LINE
  5
3DA
100
AcDbEntity
  8
IMPORT_IGES
100
AcDbLine
 62
7
  6
CONTINUOUS
 10
3.4839802632
 20
2.0358282505
 11
3.4839802632
 21
2.5946693414
  0
LINE
  5
3DB
100
AcDbEntity
  8
IMPORT_IGES
100
AcDbLine
 62
7
  6
CONTINUOUS
 10
3.5146012954
 20
2.0358282505
 11
3.5146012954
 21
2.5946693414
  0
LINE
  5
3DC
100
AcDbEntity
  8
IMPORT_IGES
100
AcDbLine
 62
7
  6
CONTINUOUS
 10
4.8533592309
 20
2.5946693414
 11
4.8533592309
 21
2.0358282505
  0
LINE
  5
3DD
100
AcDbEntity
  8
IMPORT_IGES
100
AcDbLine
 62
7
  6
CONTINUOUS
 10
4.8839802632
 20
2.5946693414
 11
4.8839802632
 21
2.0358282505
  0
LINE
  5
3DE
100
AcDbEntity
  8
IMPORT_IGES
100
AcDbLine
 62
7
  6
CONTINUOUS
 10
4.9839802632
 20
2.5946693414
 11
4.9839802632
 21
2.0358282505
  0
LINE
  5
3DF
100
AcDbEntity
  8
RACCORDO
100
AcDbLine
 62
7
  6
CONTINUOUS
 10
5.2077763735
 20
2.0358282505
 11
5.2077763735
 21
2.5946693414
  0
LINE
  5
3E0
100
AcDbEntity
  8
CURVE
100
AcDbLine
 62
7
  6
CONTINUOUS
 10
-8.3160197368
 20
-12.6627829436
 11
-3.3379879973
 21
-7.684751204
  0
LINE
  5
3E1
100
AcDbEntity
  8
CURVE
100
AcDbLine
 62
7
  6
CONTINUOUS
 10
6.6839802632
 20
37.315248796
 11
6.6839802632
 21
27.315248796
  0
LINE
  5
3E2
100
AcDbEntity
  8
CURVE
100
AcDbLine
 62
7
  6
CONTINUOUS
 10
6.6839802632
 20
22.315248796
 11
6.6839802632
 21
12.315248796
  0
LINE
  5
3E3
100
AcDbEntity
  8
CURVE
100
AcDbLine
 62
7
  6
CONTINUOUS
 10
6.6839802632
 20
-7.684751204
 11
6.6839802632
 21
-17.684751204
  0
LINE
  5
3E4
100
AcDbEntity
  8
CURVE
100
AcDbLine
 62
7
  6
CONTINUOUS
 10
6.6839802632
 20
-22.684751204
 11
6.6839802632
 21
-32.684751204
  0
LINE
  5
3E5
100
AcDbEntity
  8
CURVE
100
AcDbLine
 62
7
  6
CONTINUOUS
 10
-8.3160197368
 20
-17.6408146831
 11
1.6400437423
 21
-7.684751204
  0
LINE
  5
3E6
100
AcDbEntity
  8
DRAFT
100
AcDbLine
 62
7
  6
CONTINUOUS
 10
12.6804892502
 20
2.111757783
 11
12.6045597177
 21
2.0358282505
  0
LINE
  5
3E7
100
AcDbEntity
  8
RACCORDO
100
AcDbLine
 62
250
  6
CONTINUOUS
 10
13.8326647226
 20
2.0138571029
 11
13.9305654026
 21
2.111757783
  0
LINE
  5
3E8
100
AcDbEntity
  8
RACCORDO
100
AcDbLine
 62
250
  6
CONTINUOUS
 10
14.3325885701
 20
1.5139332554
 11
14.4304892502
 21
1.6118339354
  0
LINE
  5
3E9
100
AcDbEntity
  8
DRAFT
100
AcDbLine
 62
7
  6
CONTINUOUS
 10
10.6839802632
 20
2.0358282505
 11
10.6839802632
 21
2.5946693414
  0
LINE
  5
3EA
100
AcDbEntity
  8
DRAFT
100
AcDbLine
 62
7
  6
CONTINUOUS
 10
10.7101628606
 20
2.0358282505
 11
10.7101628606
 21
2.5946693414
  0
LINE
  5
3EB
100
AcDbEntity
  8
DRAFT
100
AcDbLine
 62
7
  6
CONTINUOUS
 10
10.8339802632
 20
2.0358282505
 11
10.8339802632
 21
2.5946693414
  0
LINE
  5
3EC
100
AcDbEntity
  8
RACCORDO
100
AcDbLine
 62
7
  6
CONTINUOUS
 10
10.8854727047
 20
2.0358282505
 11
10.8854727047
 21
2.5946693414
  0
LINE
  5
3ED
100
AcDbEntity
  8
DRAFT
100
AcDbLine
 62
7
  6
CONTINUOUS
 10
12.1873130313
 20
2.0358282505
 11
12.1873130313
 21
2.5946693414
  0
LINE
  5
3EE
100
AcDbEntity
  8
DRAFT
100
AcDbLine
 62
7
  6
CONTINUOUS
 10
12.3339802632
 20
2.0358282505
 11
12.3339802632
 21
2.5946693414
  0
LINE
  5
3EF
100
AcDbEntity
  8
CURVE
100
AcDbLine
 62
7
  6
CONTINUOUS
 10
-3.3819245182
 20
-17.684751204
 11
6.6180754818
 21
-7.684751204
  0
LINE
  5
3F0
100
AcDbEntity
  8
CURVE
100
AcDbLine
 62
7
  6
CONTINUOUS
 10
6.6839802632
 20
12.315248796
 11
-8.3160197368
 21
12.315248796
  0
LINE
  5
3F1
100
AcDbEntity
  8
DRAFT
100
AcDbLine
 62
7
  6
CONTINUOUS
 10
12.6804892502
 20
2.518739809
 11
12.6045597177
 21
2.5946693414
  0
LINE
  5
3F2
100
AcDbEntity
  8
RACCORDO
100
AcDbLine
 62
250
  6
CONTINUOUS
 10
13.8326647226
 20
2.616640489
 11
13.9305654026
 21
2.518739809
  0
LINE
  5
3F3
100
AcDbEntity
  8
RACCORDO
100
AcDbLine
 62
250
  6
CONTINUOUS
 10
14.3325885701
 20
3.1165643366
 11
14.4304892502
 21
3.0186636565
  0
LWPOLYLINE
  5
3F4
100
AcDbEntity
  8
RACCORDO
100
AcDbPolyline
 62
250
  6
CONTINUOUS
 90
16
 70
0
 10
14.3325885701
 20
1.5139332554
 10
14.3298350825
 20
1.5661794338
 10
14.3216366026
 20
1.617853414
 10
14.3080829199
 20
1.6683892644
 10
14.2893224738
 20
1.7172335181
 10
14.2655607281
 20
1.7638512345
 10
14.2370579206
 20
1.8077318578
 10
14.2041262133
 20
1.848394809
 10
14.167126273
 20
1.885394749
 10
14.1264633216
 20
1.9183264559
 10
14.0825826982
 20
1.9468292629
 10
14.0359649818
 20
1.9705910081
 10
13.9871207285
 20
1.9893514537
 10
13.9365848789
 20
2.0029051359
 10
13.8849108997
 20
2.0111036154
 10
13.8326647226
 20
2.0138571029
  0
LINE
  5
3F5
100
AcDbEntity
  8
RACCORDO
100
AcDbLine
 62
250
  6
CONTINUOUS
 10
13.8326647226
 20
2.0138571029
 11
13.8326647226
 21
-41.583359511
  0
LINE
  5
3F6
100
AcDbEntity
  8
RACCORDO
100
AcDbLine
 62
250
  6
CONTINUOUS
 10
13.8326647226
 20
2.616640489
 11
13.8326647226
 21
46.2138571029
  0
LINE
  5
3F7
100
AcDbEntity
  8
RACCORDO
100
AcDbLine
 62
250
  6
CONTINUOUS
 10
14.3325885701
 20
-41.0834356634
 11
14.3325885701
 21
1.5139332554
  0
LINE
  5
3F8
100
AcDbEntity
  8
RACCORDO
100
AcDbLine
 62
250
  6
CONTINUOUS
 10
14.3325885701
 20
3.1165643366
 11
14.3325885701
 21
45.7139332554
  0
LINE
  5
3F9
100
AcDbEntity
  8
RACCORDO
100
AcDbLine
 62
7
  6
CONTINUOUS
 10
14.4304892502
 20
-41.1813363435
 11
14.4304892502
 21
1.6118339354
  0
LINE
  5
3FA
100
AcDbEntity
  8
RACCORDO
100
AcDbLine
 62
7
  6
CONTINUOUS
 10
14.4304892502
 20
3.0186636565
 11
14.4304892502
 21
45.8118339354
  0
LWPOLYLINE
  5
3FB
100
AcDbEntity
  8
0
100
AcDbPolyline
 62
7
  6
CONTINUOUS
 90
13
 70
0
 43
0.3500000019
 10
20.0387929688
 20
2.7438202209
 10
19.8245078125
 20
2.458105896
 10
19.1816523438
 20
2.458105896
 10
18.7530766602
 20
2.7438202209
 10
18.7530766602
 20
3.3866773682
 10
19.1816523438
 20
3.6723916931
 10
19.8245078125
 20
3.6723916931
 10
20.0387929688
 20
3.3866773682
 10
20.4673632813
 20
3.8152486877
 10
21.3245039063
 20
3.8152486877
 10
21.7530742188
 20
3.3866773682
 10
21.7530742188
 20
2.7438202209
 10
21.3245039063
 20
2.3152487335
  0
LWPOLYLINE
  5
3FC
100
AcDbEntity
  8
0
100
AcDbPolyline
 62
7
  6
CONTINUOUS
 90
13
 70
0
 43
0.3500000019
 10
20.0387929688
 20
0.3866773758
 10
19.8245078125
 20
0.1009630823
 10
19.1816523438
 20
0.1009630823
 10
18.7530766602
 20
0.3866773758
 10
18.7530766602
 20
1.029534523
 10
19.1816523438
 20
1.315248764
 10
19.8245078125
 20
1.315248764
 10
20.0387929688
 20
1.029534523
 10
20.4673632813
 20
1.4581059265
 10
21.3245039063
 20
1.4581059265
 10
21.7530742188
 20
1.029534523
 10
21.7530742188
 20
0.3866773758
 10
21.3245039063
 20
-0.0418940618
  0
LINE
  5
3FD
100
AcDbEntity
  8
CURVE
100
AcDbLine
 62
7
  6
CONTINUOUS
 10
-8.3160197368
 20
-27.5968781622
 11
-3.4038927786
 21
-22.684751204
  0
LINE
  5
3FE
100
AcDbEntity
  8
CURVE
100
AcDbLine
 62
7
  6
CONTINUOUS
 10
1.5961072214
 20
-17.684751204
 11
6.6839802632
 21
-12.5968781622
  0
LWPOLYLINE
  5
3FF
100
AcDbEntity
  8
RACCORDO
100
AcDbPolyline
 62
250
  6
CONTINUOUS
 90
16
 70
0
 10
14.3325885701
 20
45.7139332554
 10
14.3298350825
 20
45.7661794338
 10
14.3216366026
 20
45.817853414
 10
14.3080829199
 20
45.8683892644
 10
14.2893224738
 20
45.9172335181
 10
14.2655607281
 20
45.9638512345
 10
14.2370579206
 20
46.0077318578
 10
14.2041262133
 20
46.048394809
 10
14.167126273
 20
46.085394749
 10
14.1264633216
 20
46.1183264559
 10
14.0825826982
 20
46.1468292629
 10
14.0359649818
 20
46.1705910081
 10
13.9871207285
 20
46.1893514537
 10
13.9365848789
 20
46.2029051359
 10
13.8849108997
 20
46.2111036154
 10
13.8326647226
 20
46.2138571029
  0
LWPOLYLINE
  5
400
100
AcDbEntity
  8
RACCORDO
100
AcDbPolyline
 62
7
  6
CONTINUOUS
 90
5
 70
0
 10
-6.8423095467
 20
-41.9339017099
 10
-6.8625148083
 20
-41.9629819097
 10
-6.8877890312
 20
-41.9882561326
 10
-6.9168692309
 20
-42.0084613942
 10
-6.9485338675
 20
-42.0230332836
  0
LINE
  5
401
100
AcDbEntity
  8
CURVE
100
AcDbLine
 62
7
  6
CONTINUOUS
 10
-8.3160197368
 20
-32.5749099018
 11
1.5741389609
 21
-22.684751204
  0
LINE
  5
402
100
AcDbEntity
  8
CURVE
100
AcDbLine
 62
7
  6
CONTINUOUS
 10
6.5741389609
 20
-17.684751204
 11
6.6839802632
 21
-17.5749099018
  0
LINE
  5
403
100
AcDbEntity
  8
RACCORDO
100
AcDbLine
 62
250
  6
CONTINUOUS
 10
-15.9646280438
 20
-41.0834356634
 11
-16.0625287239
 21
-41.1813363435
  0
LINE
  5
404
100
AcDbEntity
  8
RACCORDO
100
AcDbLine
 62
250
  6
CONTINUOUS
 10
-15.4647041962
 20
-41.583359511
 11
-15.5626048763
 21
-41.681260191
  0
LINE
  5
405
100
AcDbEntity
  8
CURVE
100
AcDbLine
 62
7
  6
CONTINUOUS
 10
-3.4478292995
 20
-32.684751204
 11
6.5521707005
 21
-22.684751204
  0
LINE
  5
406
100
AcDbEntity
  8
RACCORDO
100
AcDbLine
 62
250
  6
CONTINUOUS
 10
-10.7969327895
 20
-41.8156947177
 11
-10.8160197368
 21
-41.834781665
  0
LINE
  5
407
100
AcDbEntity
  8
RACCORDO
100
AcDbLine
 62
250
  6
CONTINUOUS
 10
-10.5969632505
 20
-42.0156642567
 11
-10.6160501978
 21
-42.034751204
  0
LINE
  5
408
100
AcDbEntity
  8
CURVE
100
AcDbLine
 62
7
  6
CONTINUOUS
 10
-8.3160197368
 20
22.315248796
 11
6.6839802632
 21
22.315248796
  0
LINE
  5
409
100
AcDbEntity
  8
RACCORDO
100
AcDbLine
 62
250
  6
CONTINUOUS
 10
-15.9646280438
 20
45.7139332554
 11
-16.0625287239
 21
45.8118339354
  0
LINE
  5
40A
100
AcDbEntity
  8
RACCORDO
100
AcDbLine
 62
250
  6
CONTINUOUS
 10
-15.4647041962
 20
46.2138571029
 11
-15.5626048763
 21
46.311757783
  0
LINE
  5
40B
100
AcDbEntity
  8
CURVE
100
AcDbLine
 62
7
  6
CONTINUOUS
 10
1.53020244
 20
-32.684751204
 11
6.6839802632
 21
-27.5309733809
  0
LWPOLYLINE
  5
40C
100
AcDbEntity
  8
0
100
AcDbPolyline
 62
7
  6
CONTINUOUS
 90
10
 70
0
 43
0.3500000019
 10
0.1482685547
 20
55.610902832
 10
0.2196933594
 20
55.4680478516
 10
0.2196933594
 20
55.3966176758
 10
0.0768383789
 20
55.2537626953
 10
0.0054082031
 20
55.2537626953
 10
-0.0660219727
 20
55.3251875
 10
-0.0660219727
 20
55.3966176758
 10
0.0054082031
 20
55.5394780273
 10
0.0768383789
 20
55.610902832
 10
0.1482685547
 20
55.610902832
  0
LINE
  5
40D
100
AcDbEntity
  8
CURVE
100
AcDbLine
 62
7
  6
CONTINUOUS
 10
6.5082341796
 20
-32.684751204
 11
6.6839802632
 21
-32.5090051205
  0
LINE
  5
40E
100
AcDbEntity
  8
CURVE
100
AcDbLine
 62
7
  6
CONTINUOUS
 10
6.6839802632
 20
27.315248796
 11
-8.3160197368
 21
27.315248796
  0
LINE
  5
40F
100
AcDbEntity
  8
CURVE
100
AcDbLine
 62
7
  6
CONTINUOUS
 10
-8.3160197368
 20
37.315248796
 11
6.6839802632
 21
37.315248796
  0
LWPOLYLINE
  5
410
100
AcDbEntity
  8
RACCORDO
100
AcDbPolyline
 62
250
  6
CONTINUOUS
 90
16
 70
0
 10
-15.4647041962
 20
46.2138571029
 10
-15.5169503747
 20
46.2111036153
 10
-15.5686243549
 20
46.2029051354
 10
-15.6191602053
 20
46.1893514527
 10
-15.668004459
 20
46.1705910066
 10
-15.7146221754
 20
46.1468292609
 10
-15.7585027987
 20
46.1183264534
 10
-15.7991657499
 20
46.0853947461
 10
-15.8361656899
 20
46.0483948058
 10
-15.8690973968
 20
46.0077318544
 10
-15.8976002038
 20
45.963851231
 10
-15.921361949
 20
45.9172335146
 10
-15.9401223946
 20
45.8683892613
 10
-15.9536760768
 20
45.8178534117
 10
-15.9618745563
 20
45.7661794325
 10
-15.9646280438
 20
45.7139332554
  0
LINE
  5
411
100
AcDbEntity
  8
RACCORDO
100
AcDbLine
 62
250
  6
CONTINUOUS
 10
-15.9646280438
 20
45.7139332554
 11
14.3325885701
 21
45.7139332554
  0
LINE
  5
412
100
AcDbEntity
  8
RACCORDO
100
AcDbLine
 62
250
  6
CONTINUOUS
 10
13.8326647226
 20
46.2138571029
 11
-15.4647041962
 21
46.2138571029
  0
LINE
  5
413
100
AcDbEntity
  8
RACCORDO
100
AcDbLine
 62
7
  6
CONTINUOUS
 10
13.9305654026
 20
46.311757783
 11
-15.5626048763
 21
46.311757783
  0
LWPOLYLINE
  5
414
100
AcDbEntity
  8
0
100
AcDbPolyline
 62
7
  6
CONTINUOUS
 90
6
 70
0
 43
0.3500000019
 10
-4.9945913086
 20
55.1109023438
 10
-3.9231601562
 20
55.1109023438
 10
-3.708875
 20
55.3251875
 10
-3.708875
 20
56.3966186523
 10
-4.1374506836
 20
56.8251889648
 10
-4.5660209961
 20
56.8251889648
  0
LWPOLYLINE
  5
415
100
AcDbEntity
  8
0
100
AcDbPolyline
 62
7
  6
CONTINUOUS
 90
8
 70
0
 43
0.3500000019
 10
1.2196943359
 20
55.1109023438
 10
2.0768349609
 20
55.1109023438
 10
2.5054106445
 20
55.5394780273
 10
2.5054106445
 20
56.3966186523
 10
2.0768349609
 20
56.8251889648
 10
1.2196943359
 20
56.8251889648
 10
1.2196943359
 20
58.1109052734
 10
2.5054106445
 20
58.1109052734
  0
LWPOLYLINE
  5
416
100
AcDbEntity
  8
0
100
AcDbPolyline
 62
7
  6
CONTINUOUS
 90
3
 70
0
 43
0.3500000019
 10
-44.2490285645
 20
67.2530708008
 10
-43.3918852539
 20
68.1102167969
 10
-43.3918852539
 20
65.1102138672
  0
LINE
  5
417
100
AcDbEntity
  8
RACCORDO
100
AcDbLine
 62
7
  6
CONTINUOUS
 10
-39.4875987027
 20
-42.034751204
 11
-39.4741082215
 21
-42.0345157268
  0
LINE
  5
418
100
AcDbEntity
  8
RACCORDO
100
AcDbLine
 62
250
  6
CONTINUOUS
 10
-39.4875987027
 20
-41.834781665
 11
-39.4741082215
 21
-41.8345461878
  0
LINE
  5
419
100
AcDbEntity
  8
RACCORDO
100
AcDbLine
 62
250
  6
CONTINUOUS
 10
-39.2775987027
 20
-41.8345461878
 11
-39.4741082215
 21
-41.8345461878
  0
LINE
  5
41A
100
AcDbEntity
  8
RACCORDO
100
AcDbLine
 62
250
  6
CONTINUOUS
 10
-40.581089184
 20
-41.8156947177
 11
-40.7775987027
 21
-41.8156947177
  0
LINE
  5
41B
100
AcDbEntity
  8
RACCORDO
100
AcDbLine
 62
250
  6
CONTINUOUS
 10
-45.5775987027
 20
-41.0834356634
 11
-45.086324906
 21
-41.0834356634
  0
LINE
  5
41C
100
AcDbEntity
  8
RACCORDO
100
AcDbLine
 62
7
  6
CONTINUOUS
 10
-40.581089184
 20
-42.0156642567
 11
-39.4875987027
 21
-42.034751204
  0
LINE
  5
41D
100
AcDbEntity
  8
RACCORDO
100
AcDbLine
 62
250
  6
CONTINUOUS
 10
-40.581089184
 20
-41.8156947177
 11
-39.4875987027
 21
-41.834781665
  0
LINE
  5
41E
100
AcDbEntity
  8
RACCORDO
100
AcDbLine
 62
7
  6
CONTINUOUS
 10
-45.086324906
 20
-41.583359511
 11
-39.4775987027
 21
-41.681260191
  0
LINE
  5
41F
100
AcDbEntity
  8
RACCORDO
100
AcDbLine
 62
7
  6
CONTINUOUS
 10
-39.4775987027
 20
-41.431260191
 11
-39.2775987027
 21
-41.434751204
  0
LINE
  5
420
100
AcDbEntity
  8
RACCORDO
100
AcDbLine
 62
250
  6
CONTINUOUS
 10
-45.086324906
 20
-41.0834356634
 11
-39.2775987027
 21
-41.1847892802
  0
LINE
  5
421
100
AcDbEntity
  8
DRAFT
100
AcDbLine
 62
7
  6
CONTINUOUS
 10
-37.7775987027
 20
-37.7545714637
 11
-39.2775987027
 21
-37.7283889387
  0
LINE
  5
422
100
AcDbEntity
  8
RACCORDO
100
AcDbLine
 62
7
  6
CONTINUOUS
 10
-39.2775987027
 20
-39.3823700498
 11
-37.7775987027
 21
-39.434751204
  0
LINE
  5
423
100
AcDbEntity
  8
RACCORDO
100
AcDbLine
 62
250
  6
CONTINUOUS
 10
-39.2775987027
 20
-38.8826746363
 11
-37.7775987027
 21
-38.9350557905
  0
LWPOLYLINE
  5
424
100
AcDbEntity
  8
RACCORDO
100
AcDbPolyline
 62
250
  6
CONTINUOUS
 90
19
 70
0
 10
-37.3880690834
 20
-35.475910857
 10
-37.4048491084
 20
-35.4772508985
 10
-37.421198413
 20
-35.4798796584
 10
-37.4371169971
 20
-35.4837971368
 10
-37.4526911103
 20
-35.489049344
 10
-37.467834503
 20
-35.4955902697
 10
-37.4822884262
 20
-35.5032818824
 10
-37.4960335354
 20
-35.512117373
 10
-37.5090891751
 20
-35.5221035506
 10
-37.5212546299
 20
-35.5331228113
 10
-37.5325288488
 20
-35.5451331028
 10
-37.542912883
 20
-35.5581764773
 10
-37.55220917
 20
-35.5722614879
 10
-37.5604874075
 20
-35.5874974299
 10
-37.5676778979
 20
-35.603775008
 10
-37.5733739863
 20
-35.6207748896
 10
-37.577440121
 20
-35.6383906304
 10
-37.5800118535
 20
-35.6567286747
 10
-37.581089184
 20
-35.6757890224
  0
LINE
  5
425
100
AcDbEntity
  8
RACCORDO
100
AcDbLine
 62
7
  6
CONTINUOUS
 10
-36.7809690053
 20
-35.5499481281
 11
-34.9706188034
 21
-35.486729306
  0
LINE
  5
426
100
AcDbEntity
  8
RACCORDO
100
AcDbLine
 62
250
  6
CONTINUOUS
 10
-36.4915363115
 20
-35.4446032428
 11
-37.3880690834
 21
-35.475910857
  0
LINE
  5
427
100
AcDbEntity
  8
RACCORDO
100
AcDbLine
 62
250
  6
CONTINUOUS
 10
-36.1735279157
 20
-35.3288576524
 11
-34.9706188034
 21
-35.2868511406
  0
LINE
  5
428
100
AcDbEntity
  8
RACCORDO
100
AcDbLine
 62
7
  6
CONTINUOUS
 10
-37.3915585014
 20
-35.2760326916
 11
-35.0671288537
 21
-35.1948618197
  0
LINE
  5
429
100
AcDbEntity
  8
RACCORDO
100
AcDbLine
 62
250
  6
CONTINUOUS
 10
-37.3915585014
 20
-34.7763372781
 11
-35.0671288537
 21
-34.6951664062
  0
LINE
  5
42A
100
AcDbEntity
  8
RACCORDO
100
AcDbLine
 62
7
  6
CONTINUOUS
 10
-37.7775987027
 20
-34.434751204
 11
-35.7364459699
 21
-34.36347258
  0
LINE
  5
42B
100
AcDbEntity
  8
RACCORDO
100
AcDbLine
 62
250
  6
CONTINUOUS
 10
-37.7775987027
 20
-35.6757890224
 11
-37.581089184
 21
-35.6757890224
  0
LINE
  5
42C
100
AcDbEntity
  8
RACCORDO
100
AcDbLine
 62
250
  6
CONTINUOUS
 10
-34.7775987027
 20
-35.2868511406
 11
-34.9706188034
 21
-35.2868511406
  0
LINE
  5
42D
100
AcDbEntity
  8
RACCORDO
100
AcDbLine
 62
250
  6
CONTINUOUS
 10
-37.7775987027
 20
-34.7763372781
 11
-37.3915585014
 21
-34.7763372781
  0
LINE
  5
42E
100
AcDbEntity
  8
RACCORDO
100
AcDbLine
 62
250
  6
CONTINUOUS
 10
-35.0671288537
 20
-34.6951664062
 11
-34.7775987027
 21
-34.6951664062
  0
LINE
  5
42F
100
AcDbEntity
  8
RACCORDO
100
AcDbLine
 62
250
  6
CONTINUOUS
 10
-34.7775987027
 20
-34.0826512675
 11
-34.9706188034
 21
-34.0826512675
  0
LINE
  5
430
100
AcDbEntity
  8
RACCORDO
100
AcDbLine
 62
250
  6
CONTINUOUS
 10
-37.7775987027
 20
-33.9913697799
 11
-37.5845786021
 21
-33.9913697799
  0
LINE
  5
431
100
AcDbEntity
  8
DRAFT
100
AcDbLine
 62
7
  6
CONTINUOUS
 10
-35.1060559818
 20
-34.106293925
 11
-35.5784398299
 21
-34.0897979175
  0
LINE
  5
432
100
AcDbEntity
  8
RACCORDO
100
AcDbLine
 62
250
  6
CONTINUOUS
 10
-37.5845786021
 20
-33.9913697799
 11
-34.9706188034
 21
-34.0826512675
  0
LINE
  5
433
100
AcDbEntity
  8
RACCORDO
100
AcDbLine
 62
7
  6
CONTINUOUS
 10
-37.5845786021
 20
-33.7914916145
 11
-34.9706188034
 21
-33.8827731021
  0
LINE
  5
434
100
AcDbEntity
  8
DRAFT
100
AcDbLine
 62
7
  6
CONTINUOUS
 10
-35.5784398299
 20
-33.2797044905
 11
-35.1060559818
 21
-33.2632084831
  0
LINE
  5
435
100
AcDbEntity
  8
DRAFT
100
AcDbLine
 62
7
  6
CONTINUOUS
 10
-37.7775987027
 20
-33.6149309443
 11
-39.2775987027
 21
-33.6411134694
  0
LINE
  5
436
100
AcDbEntity
  8
RACCORDO
100
AcDbLine
 62
7
  6
CONTINUOUS
 10
-38.6188724995
 20
-33.1016873292
 11
-39.2775987027
 21
-33.1131854378
  0
LINE
  5
437
100
AcDbEntity
  8
RACCORDO
100
AcDbLine
 62
250
  6
CONTINUOUS
 10
-35.0671288537
 20
-32.6743360019
 11
-34.7775987027
 21
-32.6743360019
  0
LINE
  5
438
100
AcDbEntity
  8
RACCORDO
100
AcDbLine
 62
250
  6
CONTINUOUS
 10
-37.7775987027
 20
-32.59316513
 11
-37.3915585014
 21
-32.5931651287
  0
LINE
  5
439
100
AcDbEntity
  8
DRAFT
100
AcDbLine
 62
7
  6
CONTINUOUS
 10
-37.7775987027
 20
-33.2144248144
 11
-39.2775987027
 21
-33.188242217
  0
LINE
  5
43A
100
AcDbEntity
  8
RACCORDO
100
AcDbLine
 62
7
  6
CONTINUOUS
 10
-37.7775987027
 20
-32.934751204
 11
-35.7364459699
 21
-33.0060298281
  0
LINE
  5
43B
100
AcDbEntity
  8
RACCORDO
100
AcDbLine
 62
250
  6
CONTINUOUS
 10
-35.0671288537
 20
-32.6743360019
 11
-37.3915585014
 21
-32.59316513
  0
LINE
  5
43C
100
AcDbEntity
  8
RACCORDO
100
AcDbLine
 62
7
  6
CONTINUOUS
 10
-35.0671288537
 20
-32.1746405884
 11
-37.3915585014
 21
-32.0934697164
  0
LINE
  5
43D
100
AcDbEntity
  8
DRAFT
100
AcDbLine
 62
7
  6
CONTINUOUS
 10
-37.7775987027
 20
-28.1550775937
 11
-39.2775987027
 21
-28.181260191
  0
LINE
  5
43E
100
AcDbEntity
  8
RACCORDO
100
AcDbLine
 62
7
  6
CONTINUOUS
 10
-38.6188724995
 20
-28.2678150789
 11
-39.2775987027
 21
-28.2563169702
  0
LWPOLYLINE
  5
43F
100
AcDbEntity
  8
0
100
AcDbPolyline
 62
7
  6
CONTINUOUS
 90
3
 70
0
 43
0.3500000019
 10
-50.4347762451
 20
55.3728237305
 10
-50.5062050781
 20
55.1585385742
 10
-50.6490627441
 20
54.8728232422
  0
LWPOLYLINE
  5
440
100
AcDbEntity
  8
RACCORDO
100
AcDbPolyline
 62
250
  6
CONTINUOUS
 90
12
 70
0
 10
-37.3915577179
 20
39.9065302562
 10
-37.3925725294
 20
39.9051816175
 10
-37.3934837224
 20
39.9010737737
 10
-37.3942973246
 20
39.8942371236
 10
-37.3950259995
 20
39.8847214446
 10
-37.3956671103
 20
39.8725840692
 10
-37.3962031747
 20
39.8578793239
 10
-37.3966348784
 20
39.8406714533
 10
-37.3969686407
 20
39.8210640435
 10
-37.3971944942
 20
39.7991902282
 10
-37.3973108632
 20
39.7752297097
 10
-37.3972197869
 20
39.7213230116
  0
LWPOLYLINE
  5
441
100
AcDbEntity
  8
RACCORDO
100
AcDbPolyline
 62
250
  6
CONTINUOUS
 90
14
 70
0
 10
-37.5845778201
 20
40.9585083582
 10
-37.5851691752
 20
40.9577559108
 10
-37.5856902299
 20
40.9554905795
 10
-37.5861431993
 20
40.9517738297
 10
-37.5865313662
 20
40.9466971157
 10
-37.5868534738
 20
40.9403280883
 10
-37.5871060838
 20
40.9326620662
 10
-37.5872922699
 20
40.9237184964
 10
-37.5874128545
 20
40.9135830825
 10
-37.5874625111
 20
40.9023197727
 10
-37.5874430008
 20
40.8900745658
 10
-37.5873525027
 20
40.8768732857
 10
-37.5871831939
 20
40.8625649381
 10
-37.5866151657
 20
40.830646939
  0
LWPOLYLINE
  5
442
100
AcDbEntity
  8
RACCORDO
100
AcDbPolyline
 62
250
  6
CONTINUOUS
 90
13
 70
0
 10
-37.5845735744
 20
38.6585081729
 10
-37.585165552
 20
38.6577659173
 10
-37.5856871785
 20
38.6555094594
 10
-37.5861406814
 20
38.6518001042
 10
-37.5865293731
 20
38.646729082
 10
-37.5868519922
 20
38.6403640074
 10
-37.5871050556
 20
38.6327004699
 10
-37.5872916277
 20
38.6237581195
 10
-37.5874125453
 20
38.6136226049
 10
-37.5874624676
 20
38.6023578586
 10
-37.5874431486
 20
38.5901097644
 10
-37.5873527811
 20
38.5769044035
 10
-37.5869361799
 20
38.5471146663
  0
LINE
  5
443
100
AcDbEntity
  8
RACCORDO
100
AcDbLine
 62
7
  6
CONTINUOUS
 10
-35.1060559818
 20
38.7367915169
 11
-34.8654666684
 21
38.9773808303
  0
LINE
  5
444
100
AcDbEntity
  8
DRAFT
100
AcDbLine
 62
7
  6
CONTINUOUS
 10
-37.7775987027
 20
-21.7545714637
 11
-39.2775987027
 21
-21.7283889387
  0
LWPOLYLINE
  5
445
100
AcDbEntity
  8
0
100
AcDbPolyline
 62
7
  6
CONTINUOUS
 90
3
 70
0
 43
0.3500000019
 10
-39.463314209
 20
65.3959291992
 10
-39.5347416992
 20
65.181644043
 10
-39.6775993652
 20
64.8959287109
  0
LINE
  5
446
100
AcDbEntity
  8
IMPORT_IGES
100
AcDbLine
 62
250
  6
CONTINUOUS
 10
-36.4441869083
 20
23.5979292244
 11
-36.6160059222
 21
23.4955660167
  0
LINE
  5
447
100
AcDbEntity
  8
RACCORDO
100
AcDbLine
 62
7
  6
CONTINUOUS
 10
-35.1060559818
 20
-34.106293925
 11
-34.8654666684
 21
-34.3468832384
  0
LINE
  5
448
100
AcDbEntity
  8
DRAFT
100
AcDbLine
 62
7
  6
CONTINUOUS
 10
-37.7775987027
 20
-17.6149309443
 11
-39.2775987027
 21
-17.6411134694
  0
LWPOLYLINE
  5
449
100
AcDbEntity
  8
RACCORDO
100
AcDbPolyline
 62
250
  6
CONTINUOUS
 90
7
 70
0
 10
-45.086324906
 20
-41.583359511
 10
-45.0871888041
 20
-41.5806060234
 10
-45.0879476718
 20
-41.5724075435
 10
-45.0885931979
 20
-41.5588538608
 10
-45.0891183127
 20
-41.5400934147
 10
-45.0895172652
 20
-41.5163316689
 10
-45.089785686
 20
-41.4878288615
  0
LWPOLYLINE
  5
44A
100
AcDbEntity
  8
0
100
AcDbPolyline
 62
7
  6
CONTINUOUS
 90
4
 70
0
 43
0.3500000019
 10
-53.5062053223
 20
57.4442558594
 10
-53.5062053223
 20
58.0871113281
 10
-52.0062052002
 20
58.0871113281
 10
-52.8633485107
 20
55.0871083984
  0
LINE
  5
44B
100
AcDbEntity
  8
DRAFT
100
AcDbLine
 62
7
  6
CONTINUOUS
 10
-35.5784398299
 20
37.9102020825
 11
-35.7364459699
 21
37.63652742
  0
LWPOLYLINE
  5
44C
100
AcDbEntity
  8
RACCORDO
100
AcDbPolyline
 62
250
  6
CONTINUOUS
 90
12
 70
0
 10
-34.9706188034
 20
-33.8827731021
 10
-34.9699288363
 20
-33.8838917784
 10
-34.969322771
 20
-33.8871847153
 10
-34.9688072375
 20
-33.892615891
 10
-34.9683878751
 20
-33.9001258918
 10
-34.9680692714
 20
-33.9096325654
 10
-34.9678549115
 20
-33.9210319225
 10
-34.9677471406
 20
-33.9341992574
 10
-34.9677471374
 20
-33.9489905394
 10
-34.9678549026
 20
-33.9652440047
 10
-34.9680692587
 20
-33.9827818962
 10
-34.9683878614
 20
-34.0014123434
  0
LINE
  5
44D
100
AcDbEntity
  8
DRAFT
100
AcDbLine
 62
7
  6
CONTINUOUS
 10
-35.7364459699
 20
-33.0060298281
 11
-35.5784398299
 21
-33.2797044905
  0
LWPOLYLINE
  5
44E
100
AcDbEntity
  8
0
100
AcDbPolyline
 62
7
  6
CONTINUOUS
 90
4
 70
0
 43
0.3500000019
 10
-49.4347766113
 20
55.515684082
 10
-49.4347766113
 20
56.372824707
 10
-49.0062049561
 20
56.8013950195
 10
-48.3633481445
 20
56.8013950195
  0
LWPOLYLINE
  5
44F
100
AcDbEntity
  8
RACCORDO
100
AcDbPolyline
 62
250
  6
CONTINUOUS
 90
11
 70
0
 10
-35.0671288537
 20
36.8051381803
 10
-35.0662677726
 20
36.8070431643
 10
-35.0654910992
 20
36.8126373045
 10
-35.064805859
 20
36.821814299
 10
-35.0642205216
 20
36.8344144939
 10
-35.0637358311
 20
36.8503003915
 10
-35.0633481172
 20
36.8694257639
 10
-35.0630620088
 20
36.8916670556
 10
-35.0628811149
 20
36.9168576403
 10
-35.0628037828
 20
36.94495303
 10
-35.0629717087
 20
37.0090396674
  0
LINE
  5
450
100
AcDbEntity
  8
RACCORDO
100
AcDbLine
 62
7
  6
CONTINUOUS
 10
-38.6188724995
 20
-10.1016873292
 11
-39.2775987027
 21
-10.1131854378
  0
LINE
  5
451
100
AcDbEntity
  8
DRAFT
100
AcDbLine
 62
7
  6
CONTINUOUS
 10
-37.7775987027
 20
-10.2144248144
 11
-39.2775987027
 21
-10.188242217
  0
LWPOLYLINE
  5
452
100
AcDbEntity
  8
IMPORT_IGES
100
AcDbPolyline
 62
7
  6
CONTINUOUS
 90
10
 70
0
 10
-37.2561307961
 20
22.5181065894
 10
-37.2286420868
 20
22.5668147627
 10
-37.1971782776
 20
22.6124091006
 10
-37.1617393685
 20
22.6548896032
 10
-37.1217861703
 20
22.6947067782
 10
-37.0778578722
 20
22.7314101179
 10
-37.0315720419
 20
22.7636480985
 10
-36.9834678687
 20
22.7909702121
 10
-36.9330061633
 20
22.8138269666
 10
-36.8801869257
 20
22.832218362
  0
LWPOLYLINE
  5
453
100
AcDbEntity
  8
RACCORDO
100
AcDbPolyline
 62
250
  6
CONTINUOUS
 90
6
 70
0
 10
-40.581089184
 20
-42.0156642567
 10
-40.5816479167
 20
-42.0125435206
 10
-40.5820806027
 20
-42.0033029806
 10
-40.5823738939
 20
-41.9882345799
 10
-40.5825190369
 20
-41.967728148
 10
-40.5825102914
 20
-41.9424731633
  0
LINE
  5
454
100
AcDbEntity
  8
RACCORDO
100
AcDbLine
 62
250
  6
CONTINUOUS
 10
-45.086324906
 20
1.5139332554
 11
-45.0885931979
 21
1.6683892644
  0
LINE
  5
455
100
AcDbEntity
  8
RACCORDO
100
AcDbLine
 62
250
  6
CONTINUOUS
 10
-45.086324906
 20
45.7139332554
 11
-45.0885931979
 21
45.8683892644
  0
LINE
  5
456
100
AcDbEntity
  8
RACCORDO
100
AcDbLine
 62
250
  6
CONTINUOUS
 10
-45.0885931979
 20
1.6683892644
 11
-45.0895172652
 21
1.7638512345
  0
LINE
  5
457
100
AcDbEntity
  8
RACCORDO
100
AcDbLine
 62
250
  6
CONTINUOUS
 10
-45.0885931979
 20
45.8683892644
 11
-45.0895172652
 21
45.9638512345
  0
LINE
  5
458
100
AcDbEntity
  8
RACCORDO
100
AcDbLine
 62
250
  6
CONTINUOUS
 10
-45.0895172652
 20
1.7638512345
 11
-45.0899206353
 21
1.848394809
  0
LINE
  5
459
100
AcDbEntity
  8
RACCORDO
100
AcDbLine
 62
250
  6
CONTINUOUS
 10
-45.0895172652
 20
45.9638512345
 11
-45.0899206353
 21
46.048394809
  0
LINE
  5
45A
100
AcDbEntity
  8
RACCORDO
100
AcDbLine
 62
7
  6
CONTINUOUS
 10
-45.5775987027
 20
-41.0834356634
 11
-45.5775987027
 21
1.5139332554
  0
LINE
  5
45B
100
AcDbEntity
  8
RACCORDO
100
AcDbLine
 62
7
  6
CONTINUOUS
 10
-45.5775987027
 20
3.1165643366
 11
-45.5775987027
 21
45.7139332554
  0
LINE
  5
45C
100
AcDbEntity
  8
RACCORDO
100
AcDbLine
 62
250
  6
CONTINUOUS
 10
-45.089785686
 20
-41.4878288615
 11
-45.0899206353
 21
-41.4178972139
  0
LINE
  5
45D
100
AcDbEntity
  8
RACCORDO
100
AcDbLine
 62
250
  6
CONTINUOUS
 10
-45.089785686
 20
2.7121711385
 11
-45.0899206353
 21
2.7821027861
  0
LINE
  5
45E
100
AcDbEntity
  8
RACCORDO
100
AcDbLine
 62
250
  6
CONTINUOUS
 10
-45.086324906
 20
-41.0834356634
 11
-45.086324906
 21
1.5139332554
  0
LINE
  5
45F
100
AcDbEntity
  8
RACCORDO
100
AcDbLine
 62
250
  6
CONTINUOUS
 10
-45.086324906
 20
3.1165643366
 11
-45.086324906
 21
45.7139332554
  0
LINE
  5
460
100
AcDbEntity
  8
DRAFT
100
AcDbLine
 62
7
  6
CONTINUOUS
 10
-43.3775987027
 20
2.0436830298
 11
-43.3775987027
 21
2.5868145622
  0
LWPOLYLINE
  5
461
100
AcDbEntity
  8
RACCORDO
100
AcDbPolyline
 62
250
  6
CONTINUOUS
 90
8
 70
0
 10
-45.0899206353
 20
46.048394809
 10
-45.0897856859
 20
46.1183264559
 10
-45.0895172652
 20
46.1468292629
 10
-45.0891183127
 20
46.1705910081
 10
-45.0885931979
 20
46.1893514537
 10
-45.0879476717
 20
46.2029051359
 10
-45.0871888041
 20
46.2111036154
 10
-45.086324906
 20
46.2138571029
  0
LWPOLYLINE
  5
462
100
AcDbEntity
  8
RACCORDO
100
AcDbPolyline
 62
250
  6
CONTINUOUS
 90
8
 70
0
 10
-45.0899206353
 20
1.848394809
 10
-45.0897856859
 20
1.9183264559
 10
-45.0895172652
 20
1.9468292629
 10
-45.0891183127
 20
1.9705910081
 10
-45.0885931979
 20
1.9893514537
 10
-45.0879476717
 20
2.0029051359
 10
-45.0871888041
 20
2.0111036154
 10
-45.086324906
 20
2.0138571029
  0
LINE
  5
463
100
AcDbEntity
  8
RACCORDO
100
AcDbLine
 62
250
  6
CONTINUOUS
 10
-45.0899206353
 20
2.7821027861
 11
-45.0895172652
 21
2.866646361
  0
LINE
  5
464
100
AcDbEntity
  8
RACCORDO
100
AcDbLine
 62
250
  6
CONTINUOUS
 10
-45.0899206353
 20
-41.4178972139
 11
-45.0895172652
 21
-41.333353639
  0
LINE
  5
465
100
AcDbEntity
  8
RACCORDO
100
AcDbLine
 62
250
  6
CONTINUOUS
 10
-45.0895172652
 20
2.866646361
 11
-45.0879476717
 21
3.0126441803
  0
LINE
  5
466
100
AcDbEntity
  8
RACCORDO
100
AcDbLine
 62
250
  6
CONTINUOUS
 10
-45.0895172652
 20
-41.333353639
 11
-45.0879476717
 21
-41.1873558197
  0
LINE
  5
467
100
AcDbEntity
  8
RACCORDO
100
AcDbLine
 62
250
  6
CONTINUOUS
 10
-45.0879476717
 20
3.0126441803
 11
-45.086324906
 21
3.1165643366
  0
LINE
  5
468
100
AcDbEntity
  8
RACCORDO
100
AcDbLine
 62
250
  6
CONTINUOUS
 10
-45.0879476717
 20
-41.1873558197
 11
-45.086324906
 21
-41.0834356634
  0
LINE
  5
469
100
AcDbEntity
  8
DRAFT
100
AcDbLine
 62
7
  6
CONTINUOUS
 10
-37.7775987027
 20
-5.1550775937
 11
-39.2775987027
 21
-5.181260191
  0
LINE
  5
46A
100
AcDbEntity
  8
RACCORDO
100
AcDbLine
 62
7
  6
CONTINUOUS
 10
-38.6188724995
 20
-5.2678150789
 11
-39.2775987027
 21
-5.2563169702
  0
LINE
  5
46B
100
AcDbEntity
  8
DRAFT
100
AcDbLine
 62
7
  6
CONTINUOUS
 10
-37.7775987027
 20
-4.7545714637
 11
-39.2775987027
 21
-4.7283889387
  0
LWPOLYLINE
  5
46C
100
AcDbEntity
  8
RACCORDO
100
AcDbPolyline
 62
250
  6
CONTINUOUS
 90
7
 70
0
 10
-45.086324906
 20
2.616640489
 10
-45.0871888041
 20
2.6193939766
 10
-45.0879476718
 20
2.6275924565
 10
-45.0885931979
 20
2.6411461392
 10
-45.0891183127
 20
2.6599065853
 10
-45.0895172652
 20
2.6836683311
 10
-45.089785686
 20
2.7121711385
  0
LWPOLYLINE
  5
46D
100
AcDbEntity
  8
RACCORDO
100
AcDbPolyline
 62
250
  6
CONTINUOUS
 90
9
 70
0
 10
-39.4741082215
 20
-41.8345461878
 10
-39.473125413
 20
-41.9029270823
 10
-39.4728312778
 20
-41.9345133788
 10
-39.4726819423
 20
-41.9630633976
 10
-39.4726819423
 20
-41.9877099963
 10
-39.4728312778
 20
-42.0077045903
 10
-39.473125413
 20
-42.0224398889
 10
-39.4735554144
 20
-42.0314683407
 10
-39.4741082215
 20
-42.0345157268
  0
LWPOLYLINE
  5
46E
100
AcDbEntity
  8
0
100
AcDbPolyline
 62
7
  6
CONTINUOUS
 90
13
 70
0
 43
0.3500000019
 10
-42.5347419434
 20
65.9673598633
 10
-42.5347419434
 20
67.2530708008
 10
-42.3204567871
 20
67.6816411133
 10
-41.8918837891
 20
68.1102167969
 10
-41.6775986328
 20
68.1102167969
 10
-41.2490283203
 20
67.6816411133
 10
-41.0347404785
 20
67.2530708008
 10
-41.0347404785
 20
65.9673598633
 10
-41.2490283203
 20
65.5387841797
 10
-41.6775986328
 20
65.1102138672
 10
-41.8918837891
 20
65.1102138672
 10
-42.3204567871
 20
65.5387841797
 10
-42.5347419434
 20
65.9673598633
  0
LINE
  5
46F
100
AcDbEntity
  8
DRAFT
100
AcDbLine
 62
7
  6
CONTINUOUS
 10
-41.9775987027
 20
2.0681201207
 11
-41.9775987027
 21
2.5623774713
  0
LINE
  5
470
100
AcDbEntity
  8
RACCORDO
100
AcDbLine
 62
7
  6
CONTINUOUS
 10
-40.7775987027
 20
-41.8156947177
 11
-40.7775987027
 21
-41.6585686066
  0
LINE
  5
471
100
AcDbEntity
  8
RACCORDO
100
AcDbLine
 62
250
  6
CONTINUOUS
 10
-40.581089184
 20
-41.8156947177
 11
-40.581089184
 21
-41.661998693
  0
LINE
  5
472
100
AcDbEntity
  8
RACCORDO
100
AcDbLine
 62
250
  6
CONTINUOUS
 10
-40.5825102914
 20
-41.9424731633
 11
-40.5820511637
 21
-41.8822151504
  0
LINE
  5
473
100
AcDbEntity
  8
RACCORDO
100
AcDbLine
 62
250
  6
CONTINUOUS
 10
-40.5820511637
 20
-41.8822151504
 11
-40.581089184
 21
-41.8156947177
  0
LWPOLYLINE
  5
474
100
AcDbEntity
  8
IMPORT_IGES
100
AcDbPolyline
 62
7
  6
CONTINUOUS
 90
10
 70
0
 10
-36.6730780029
 20
23.9821282201
 10
-36.6866008092
 20
23.9278580767
 10
-36.6950961879
 20
23.8731164732
 10
-36.6985641387
 20
23.8179034096
 10
-36.6969228078
 20
23.7615210471
 10
-36.6902540491
 20
23.7046672246
 10
-36.678803425
 20
23.6494354586
 10
-36.6626527895
 20
23.5965235881
 10
-36.6417202886
 20
23.5452337742
 10
-36.6160059223
 20
23.4955660168
  0
LINE
  5
475
100
AcDbEntity
  8
DRAFT
100
AcDbLine
 62
7
  6
CONTINUOUS
 10
-37.7775987027
 20
-0.6149309443
 11
-39.2775987027
 21
-0.6411134694
  0
LINE
  5
476
100
AcDbEntity
  8
RACCORDO
100
AcDbLine
 62
250
  6
CONTINUOUS
 10
-37.3897554854
 20
-35.4241993976
 11
-37.3880690834
 21
-35.475910857
  0
LINE
  5
477
100
AcDbEntity
  8
RACCORDO
100
AcDbLine
 62
250
  6
CONTINUOUS
 10
-37.5857507751
 20
-33.9543807446
 11
-37.5845775947
 21
-33.9913698151
  0
LINE
  5
478
100
AcDbEntity
  8
RACCORDO
100
AcDbLine
 62
250
  6
CONTINUOUS
 10
-37.3910893973
 20
-35.3760086126
 11
-37.3897554854
 21
-35.4241993976
  0
LINE
  5
479
100
AcDbEntity
  8
RACCORDO
100
AcDbLine
 62
250
  6
CONTINUOUS
 10
-37.3935108218
 20
-32.5179796627
 11
-37.3915576261
 21
-32.5931651605
  0
LINE
  5
47A
100
AcDbEntity
  8
RACCORDO
100
AcDbLine
 62
250
  6
CONTINUOUS
 10
-37.5866151657
 20
-33.919353061
 11
-37.5857507751
 21
-33.9543807446
  0
LINE
  5
47B
100
AcDbEntity
  8
RACCORDO
100
AcDbLine
 62
250
  6
CONTINUOUS
 10
-37.5869361799
 20
38.5471146663
 11
-37.5862210014
 21
38.5134458339
  0
LINE
  5
47C
100
AcDbEntity
  8
RACCORDO
100
AcDbLine
 62
250
  6
CONTINUOUS
 10
-37.3957214679
 20
-32.4080412468
 11
-37.3935108218
 21
-32.5179796627
  0
LINE
  5
47D
100
AcDbEntity
  8
RACCORDO
100
AcDbLine
 62
250
  6
CONTINUOUS
 10
-37.3966896798
 20
-32.3401282068
 11
-37.3957214679
 21
-32.4080412468
  0
LINE
  5
47E
100
AcDbEntity
  8
RACCORDO
100
AcDbLine
 62
250
  6
CONTINUOUS
 10
-37.3966896798
 20
39.6598717932
 11
-37.3957214679
 21
39.5919587532
  0
LINE
  5
47F
100
AcDbEntity
  8
RACCORDO
100
AcDbLine
 62
250
  6
CONTINUOUS
 10
-37.3972197869
 20
-32.2786769884
 11
-37.3966896798
 21
-32.3401282068
  0
LINE
  5
480
100
AcDbEntity
  8
RACCORDO
100
AcDbLine
 62
250
  6
CONTINUOUS
 10
-37.3972197869
 20
39.7213230116
 11
-37.3966896798
 21
39.6598717932
  0
LWPOLYLINE
  5
481
100
AcDbEntity
  8
RACCORDO
100
AcDbPolyline
 62
250
  6
CONTINUOUS
 90
11
 70
0
 10
-37.3973181407
 20
-35.1410557166
 10
-37.3972177831
 20
-35.1653815241
 10
-37.3970088035
 20
-35.1875939474
 10
-37.3966911839
 20
-35.2075720722
 10
-37.3962663067
 20
-35.2252634425
 10
-37.3957272521
 20
-35.2405734878
 10
-37.3950800828
 20
-35.253295417
 10
-37.3943435452
 20
-35.2632480367
 10
-37.3935188275
 20
-35.2703647694
 10
-37.3925924622
 20
-35.2746333065
 10
-37.3915576196
 20
-35.2760326608
  0
LWPOLYLINE
  5
482
100
AcDbEntity
  8
RACCORDO
100
AcDbPolyline
 62
250
  6
CONTINUOUS
 90
11
 70
0
 10
-37.3973181407
 20
36.8589442834
 10
-37.3972177831
 20
36.8346184759
 10
-37.3970088035
 20
36.8124060526
 10
-37.3966911839
 20
36.7924279278
 10
-37.3962663067
 20
36.7747365575
 10
-37.3957272521
 20
36.7594265122
 10
-37.3950800828
 20
36.746704583
 10
-37.3943435452
 20
36.7367519633
 10
-37.3935188275
 20
36.7296352306
 10
-37.3925924622
 20
36.7253666935
 10
-37.3915576196
 20
36.7239673392
  0
LINE
  5
483
100
AcDbEntity
  8
RACCORDO
100
AcDbLine
 62
7
  6
CONTINUOUS
 10
-39.4775987027
 20
2.111757783
 11
-39.4775987027
 21
-41.681260191
  0
LINE
  5
484
100
AcDbEntity
  8
RACCORDO
100
AcDbLine
 62
7
  6
CONTINUOUS
 10
-39.4775987027
 20
2.518739809
 11
-39.4775987027
 21
46.311757783
  0
LINE
  5
485
100
AcDbEntity
  8
RACCORDO
100
AcDbLine
 62
250
  6
CONTINUOUS
 10
-39.4741082215
 20
-41.681260191
 11
-39.4741082215
 21
-41.8345461878
  0
LINE
  5
486
100
AcDbEntity
  8
RACCORDO
100
AcDbLine
 62
7
  6
CONTINUOUS
 10
-39.2775987027
 20
1.865248796
 11
-39.2775987027
 21
-41.8345461878
  0
LINE
  5
487
100
AcDbEntity
  8
RACCORDO
100
AcDbLine
 62
7
  6
CONTINUOUS
 10
-39.2775987027
 20
2.765248796
 11
-39.2775987027
 21
46.065248796
  0
LWPOLYLINE
  5
488
100
AcDbEntity
  8
0
100
AcDbPolyline
 62
7
  6
CONTINUOUS
 90
4
 70
0
 43
0.3500000019
 10
-38.4633132324
 20
65.5387841797
 10
-38.4633132324
 20
66.3959301758
 10
-38.0347402344
 20
66.8245004883
 10
-37.3918847656
 20
66.8245004883
  0
LINE
  5
489
100
AcDbEntity
  8
RACCORDO
100
AcDbLine
 62
7
  6
CONTINUOUS
 10
-38.1275987027
 20
-32.6017634816
 11
-38.1275987027
 21
-28.7677389265
  0
LINE
  5
48A
100
AcDbEntity
  8
RACCORDO
100
AcDbLine
 62
7
  6
CONTINUOUS
 10
-38.1275987027
 20
-9.6017634816
 11
-38.1275987027
 21
-5.7677389265
  0
LINE
  5
48B
100
AcDbEntity
  8
RACCORDO
100
AcDbLine
 62
7
  6
CONTINUOUS
 10
-38.1275987027
 20
10.3982365184
 11
-38.1275987027
 21
14.2322610735
  0
LINE
  5
48C
100
AcDbEntity
  8
RACCORDO
100
AcDbLine
 62
7
  6
CONTINUOUS
 10
-38.1275987027
 20
33.3982365184
 11
-38.1275987027
 21
37.2322610735
  0
LINE
  5
48D
100
AcDbEntity
  8
DRAFT
100
AcDbLine
 62
7
  6
CONTINUOUS
 10
-37.7775987027
 20
-37.7545714637
 11
-37.7775987027
 21
42.3850690557
  0
LINE
  5
48E
100
AcDbEntity
  8
RACCORDO
100
AcDbLine
 62
7
  6
CONTINUOUS
 10
-37.7775987027
 20
-37.7545714637
 11
-37.7775987027
 21
-39.434751204
  0
LINE
  5
48F
100
AcDbEntity
  8
RACCORDO
100
AcDbLine
 62
7
  6
CONTINUOUS
 10
-37.7775987027
 20
42.3850690557
 11
-37.7775987027
 21
44.065248796
  0
LINE
  5
490
100
AcDbEntity
  8
IMPORT_IGES
100
AcDbLine
 62
7
  6
CONTINUOUS
 10
-37.7025987027
 20
18.265248796
 11
-37.7025987027
 21
26.315248796
  0
LINE
  5
491
100
AcDbEntity
  8
RACCORDO
100
AcDbLine
 62
250
  6
CONTINUOUS
 10
-37.5845786021
 20
40.7586302201
 11
-37.5845786021
 21
40.4716656489
  0
LINE
  5
492
100
AcDbEntity
  8
RACCORDO
100
AcDbLine
 62
250
  6
CONTINUOUS
 10
-37.5845786021
 20
39.0585083855
 11
-37.5845786021
 21
38.8583865509
  0
LINE
  5
493
100
AcDbEntity
  8
RACCORDO
100
AcDbLine
 62
250
  6
CONTINUOUS
 10
-37.5845786021
 20
38.4586302201
 11
-37.5845786021
 21
37.8718673718
  0
LINE
  5
494
100
AcDbEntity
  8
RACCORDO
100
AcDbLine
 62
250
  6
CONTINUOUS
 10
-37.5845786021
 20
-33.9913697799
 11
-37.5845786021
 21
-34.4280107936
  0
LINE
  5
495
100
AcDbEntity
  8
RACCORDO
100
AcDbLine
 62
250
  6
CONTINUOUS
 10
-37.581089184
 20
40.4716656489
 11
-37.581089184
 21
40.3062866144
  0
LINE
  5
496
100
AcDbEntity
  8
RACCORDO
100
AcDbLine
 62
250
  6
CONTINUOUS
 10
-37.581089184
 20
-35.6757890224
 11
-37.581089184
 21
-35.841168057
  0
LINE
  5
497
100
AcDbEntity
  8
RACCORDO
100
AcDbLine
 62
250
  6
CONTINUOUS
 10
-37.3915585014
 20
39.40683487
 11
-37.3915585014
 21
39.0517679751
  0
LINE
  5
498
100
AcDbEntity
  8
RACCORDO
100
AcDbLine
 62
250
  6
CONTINUOUS
 10
-37.3915585014
 20
37.5787296169
 11
-37.3915585014
 21
37.2236627219
  0
LINE
  5
499
100
AcDbEntity
  8
RACCORDO
100
AcDbLine
 62
250
  6
CONTINUOUS
 10
-37.3915585014
 20
-32.59316513
 11
-37.3915585014
 21
-32.9482320249
  0
LINE
  5
49A
100
AcDbEntity
  8
RACCORDO
100
AcDbLine
 62
250
  6
CONTINUOUS
 10
-37.3915585014
 20
-34.4212703831
 11
-37.3915585014
 21
-34.7763372781
  0
LINE
  5
49B
100
AcDbEntity
  8
RACCORDO
100
AcDbLine
 62
7
  6
CONTINUOUS
 10
-39.4875987027
 20
-41.681260191
 11
-39.4875987027
 21
-42.034751204
  0
LWPOLYLINE
  5
49C
100
AcDbEntity
  8
RACCORDO
100
AcDbPolyline
 62
250
  6
CONTINUOUS
 90
11
 70
0
 10
-37.5874128545
 20
37.7453579073
 10
-37.5874625111
 20
37.7326916405
 10
-37.5874430008
 20
37.721075068
 10
-37.5873525027
 20
37.7105239607
 10
-37.5871831939
 20
37.700970812
 10
-37.5869358068
 20
37.6924928047
 10
-37.5866151657
 20
37.6853042075
 10
-37.5862207279
 20
37.679568732
 10
-37.5857507751
 20
37.6753894652
 10
-37.5852039342
 20
37.672838338
 10
-37.5845775947
 20
37.6719892416
  0
LINE
  5
49D
100
AcDbEntity
  8
RACCORDO
100
AcDbLine
 62
250
  6
CONTINUOUS
 10
-37.3971963145
 20
36.9133844974
 11
-37.3973181407
 21
36.8589442834
  0
LINE
  5
49E
100
AcDbEntity
  8
RACCORDO
100
AcDbLine
 62
250
  6
CONTINUOUS
 10
-37.3971963145
 20
-35.0866155026
 11
-37.3973181407
 21
-35.1410557166
  0
LINE
  5
49F
100
AcDbEntity
  8
RACCORDO
100
AcDbLine
 62
250
  6
CONTINUOUS
 10
-37.3966388245
 20
36.9748068768
 11
-37.3971963145
 21
36.9133844974
  0
LINE
  5
4A0
100
AcDbEntity
  8
RACCORDO
100
AcDbLine
 62
250
  6
CONTINUOUS
 10
-37.3966388245
 20
-35.0251931232
 11
-37.3971963145
 21
-35.0866155026
  0
LINE
  5
4A1
100
AcDbEntity
  8
RACCORDO
100
AcDbLine
 62
250
  6
CONTINUOUS
 10
-37.5871060838
 20
37.7732838549
 11
-37.5874128545
 21
37.7453579073
  0
LINE
  5
4A2
100
AcDbEntity
  8
RACCORDO
100
AcDbLine
 62
250
  6
CONTINUOUS
 10
-37.3956742452
 20
37.041657993
 11
-37.3966388245
 21
36.9748068768
  0
LWPOLYLINE
  5
4A3
100
AcDbEntity
  8
RACCORDO
100
AcDbPolyline
 62
250
  6
CONTINUOUS
 90
12
 70
0
 10
-37.5868101038
 20
38.7771186868
 10
-37.5871286516
 20
38.7584829102
 10
-37.5873428692
 20
38.7409408342
 10
-37.5874504111
 20
38.7246845142
 10
-37.5874501001
 20
38.7098919094
 10
-37.5873419389
 20
38.696724938
 10
-37.5871271106
 20
38.6853277436
 10
-37.586807966
 20
38.6758251402
 10
-37.5863879997
 20
38.6683211962
 10
-37.5858718099
 20
38.6628980666
 10
-37.5852650475
 20
38.6596151128
 10
-37.5845743553
 20
38.6585082743
  0
LWPOLYLINE
  5
4A4
100
AcDbEntity
  8
RACCORDO
100
AcDbPolyline
 62
250
  6
CONTINUOUS
 90
3
 70
0
 10
-37.3950351028
 20
-34.923360494
 10
-37.3956742452
 20
-34.958342007
 10
-37.3966388245
 20
-35.0251931232
  0
LINE
  5
4A5
100
AcDbEntity
  8
RACCORDO
100
AcDbLine
 62
250
  6
CONTINUOUS
 10
-37.5865313662
 20
37.8038905106
 11
-37.5871060838
 21
37.7732838549
  0
LINE
  5
4A6
100
AcDbEntity
  8
RACCORDO
100
AcDbLine
 62
250
  6
CONTINUOUS
 10
-37.3934905903
 20
37.1491281064
 11
-37.3956742452
 21
37.041657993
  0
LINE
  5
4A7
100
AcDbEntity
  8
RACCORDO
100
AcDbLine
 62
250
  6
CONTINUOUS
 10
-37.3919800265
 20
39.9651162656
 11
-37.3910894627
 21
40.0065044938
  0
LINE
  5
4A8
100
AcDbEntity
  8
RACCORDO
100
AcDbLine
 62
250
  6
CONTINUOUS
 10
-37.5858750702
 20
38.8168455563
 11
-37.5868101038
 21
38.7771186868
  0
LINE
  5
4A9
100
AcDbEntity
  8
RACCORDO
100
AcDbLine
 62
250
  6
CONTINUOUS
 10
-37.5856902299
 20
37.8369890488
 11
-37.5865313662
 21
37.8038905106
  0
LINE
  5
4AA
100
AcDbEntity
  8
RACCORDO
100
AcDbLine
 62
250
  6
CONTINUOUS
 10
-37.3915577125
 20
37.2236627494
 11
-37.3934905903
 21
37.1491281064
  0
LINE
  5
4AB
100
AcDbEntity
  8
RACCORDO
100
AcDbLine
 62
250
  6
CONTINUOUS
 10
-37.3910894627
 20
40.0065044938
 11
-37.3897555367
 21
40.0546957627
  0
LINE
  5
4AC
100
AcDbEntity
  8
RACCORDO
100
AcDbLine
 62
250
  6
CONTINUOUS
 10
-37.5845786021
 20
38.8583865509
 11
-37.5858750702
 21
38.8168455563
  0
LINE
  5
4AD
100
AcDbEntity
  8
RACCORDO
100
AcDbLine
 62
250
  6
CONTINUOUS
 10
-37.5845778201
 20
37.8718673991
 11
-37.5856902299
 21
37.8369890488
  0
LINE
  5
4AE
100
AcDbEntity
  8
RACCORDO
100
AcDbLine
 62
250
  6
CONTINUOUS
 10
-37.3897555367
 20
40.0546957627
 11
-37.3880690834
 21
40.106408449
  0
LINE
  5
4AF
100
AcDbEntity
  8
RACCORDO
100
AcDbLine
 62
250
  6
CONTINUOUS
 10
-45.086324906
 20
1.5139332554
 11
-39.2775987027
 21
1.6152868722
  0
LINE
  5
4B0
100
AcDbEntity
  8
RACCORDO
100
AcDbLine
 62
7
  6
CONTINUOUS
 10
-39.4775987027
 20
1.861757783
 11
-39.2775987027
 21
1.865248796
  0
LINE
  5
4B1
100
AcDbEntity
  8
RACCORDO
100
AcDbLine
 62
7
  6
CONTINUOUS
 10
-45.086324906
 20
2.0138571029
 11
-39.4775987027
 21
2.111757783
  0
LINE
  5
4B2
100
AcDbEntity
  8
RACCORDO
100
AcDbLine
 62
250
  6
CONTINUOUS
 10
-45.5775987027
 20
1.5139332554
 11
-45.086324906
 21
1.5139332554
  0
LINE
  5
4B3
100
AcDbEntity
  8
RACCORDO
100
AcDbLine
 62
250
  6
CONTINUOUS
 10
-45.5775987027
 20
3.1165643366
 11
-45.086324906
 21
3.1165643366
  0
LINE
  5
4B4
100
AcDbEntity
  8
RACCORDO
100
AcDbLine
 62
7
  6
CONTINUOUS
 10
-45.086324906
 20
2.616640489
 11
-39.4775987027
 21
2.518739809
  0
LINE
  5
4B5
100
AcDbEntity
  8
RACCORDO
100
AcDbLine
 62
7
  6
CONTINUOUS
 10
-39.4775987027
 20
2.768739809
 11
-39.2775987027
 21
2.765248796
  0
LINE
  5
4B6
100
AcDbEntity
  8
RACCORDO
100
AcDbLine
 62
250
  6
CONTINUOUS
 10
-45.086324906
 20
3.1165643366
 11
-39.2775987027
 21
3.0152107198
  0
LWPOLYLINE
  5
4B7
100
AcDbEntity
  8
RACCORDO
100
AcDbPolyline
 62
250
  6
CONTINUOUS
 90
19
 70
0
 10
-37.581089184
 20
40.3062866144
 10
-37.5803510334
 20
40.2895525062
 10
-37.5783099254
 20
40.2731823621
 10
-37.5749658599
 20
40.2571761821
 10
-37.5702744022
 20
40.2414377168
 10
-37.564279987
 20
40.2260632154
 10
-37.5571159186
 20
40.2113414265
 10
-37.5487967666
 20
40.1973069421
 10
-37.5393079613
 20
40.1839251701
 10
-37.5287390986
 20
40.1713810818
 10
-37.51712125
 20
40.1596635714
 10
-37.5044233439
 20
40.1487837447
 10
-37.4906417618
 20
40.1389598899
 10
-37.4756685843
 20
40.1301247808
 10
-37.4596117307
 20
40.1223456436
 10
-37.4427913399
 20
40.1160424451
 10
-37.4253141249
 20
40.1113551743
 10
-37.4070733728
 20
40.1081438422
 10
-37.3880690834
 20
40.106408449
  0
LINE
  5
4B8
100
AcDbEntity
  8
RACCORDO
100
AcDbLine
 62
250
  6
CONTINUOUS
 10
-34.9706195864
 20
38.7671050907
 11
-34.9695068004
 21
38.7322144035
  0
LINE
  5
4B9
100
AcDbEntity
  8
RACCORDO
100
AcDbLine
 62
250
  6
CONTINUOUS
 10
-37.5857507751
 20
40.7956192554
 11
-37.5845775947
 21
40.7586301849
  0
LINE
  5
4BA
100
AcDbEntity
  8
RACCORDO
100
AcDbLine
 62
250
  6
CONTINUOUS
 10
-34.9706188034
 20
-35.2868511406
 11
-34.969322771
 21
-35.3283762647
  0
LINE
  5
4BB
100
AcDbEntity
  8
RACCORDO
100
AcDbLine
 62
250
  6
CONTINUOUS
 10
-34.9706188034
 20
37.9631488594
 11
-34.969322771
 21
37.9216237353
  0
LINE
  5
4BC
100
AcDbEntity
  8
RACCORDO
100
AcDbLine
 62
250
  6
CONTINUOUS
 10
-34.9706188034
 20
40.2631488594
 11
-34.9693223352
 21
40.2216078647
  0
LWPOLYLINE
  5
4BD
100
AcDbEntity
  8
RACCORDO
100
AcDbPolyline
 62
250
  6
CONTINUOUS
 90
3
 70
0
 10
-37.5862210014
 20
38.5134458339
 10
-37.5857509945
 20
38.495625855
 10
-37.5845775938
 20
38.4586301849
  0
LINE
  5
4BE
100
AcDbEntity
  8
RACCORDO
100
AcDbLine
 62
250
  6
CONTINUOUS
 10
-37.3935108218
 20
39.4820203373
 11
-37.3915576261
 21
39.4068348395
  0
LINE
  5
4BF
100
AcDbEntity
  8
RACCORDO
100
AcDbLine
 62
250
  6
CONTINUOUS
 10
-34.9695068004
 20
38.7322144035
 11
-34.9686654822
 21
38.6991025731
  0
LINE
  5
4C0
100
AcDbEntity
  8
RACCORDO
100
AcDbLine
 62
250
  6
CONTINUOUS
 10
-37.5866151657
 20
40.830646939
 11
-37.5857507751
 21
40.7956192554
  0
LWPOLYLINE
  5
4C1
100
AcDbEntity
  8
RACCORDO
100
AcDbPolyline
 62
250
  6
CONTINUOUS
 90
13
 70
0
 10
-34.969322771
 20
-35.3283762647
 10
-34.9683878751
 20
-35.3680893575
 10
-34.9680692714
 20
-35.3867196476
 10
-34.9678549115
 20
-35.4042574686
 10
-34.9677471406
 20
-35.4205109604
 10
-34.9677471374
 20
-35.4353023327
 10
-34.9678549026
 20
-35.448469806
 10
-34.9680692587
 20
-35.459869343
 10
-34.9683878614
 20
-35.4693762008
 10
-34.968807225
 20
-35.476886345
 10
-34.9693227612
 20
-35.4823176165
 10
-34.9699288307
 20
-35.4856106107
 10
-34.9706188034
 20
-35.486729306
  0
LWPOLYLINE
  5
4C2
100
AcDbEntity
  8
RACCORDO
100
AcDbPolyline
 62
250
  6
CONTINUOUS
 90
13
 70
0
 10
-34.969322771
 20
37.9216237353
 10
-34.9683878751
 20
37.8819106425
 10
-34.9680692714
 20
37.8632803524
 10
-34.9678549115
 20
37.8457425314
 10
-34.9677471406
 20
37.8294890396
 10
-34.9677471374
 20
37.8146976673
 10
-34.9678549026
 20
37.801530194
 10
-34.9680692587
 20
37.790130657
 10
-34.9683878614
 20
37.7806237992
 10
-34.968807225
 20
37.773113655
 10
-34.9693227612
 20
37.7676823835
 10
-34.9699288307
 20
37.7643893893
 10
-34.9706188034
 20
37.763270694
  0
LWPOLYLINE
  5
4C3
100
AcDbEntity
  8
RACCORDO
100
AcDbPolyline
 62
250
  6
CONTINUOUS
 90
13
 70
0
 10
-34.9693223352
 20
40.2216078647
 10
-34.9683873017
 20
40.1818809953
 10
-34.9680687539
 20
40.1632452187
 10
-34.9678545363
 20
40.1457031427
 10
-34.9677469944
 20
40.1294468227
 10
-34.9677473054
 20
40.1146542179
 10
-34.9678554665
 20
40.1014872464
 10
-34.9680702949
 20
40.0900900521
 10
-34.9683894394
 20
40.0805874487
 10
-34.9688094058
 20
40.0730835047
 10
-34.9693255956
 20
40.0676603751
 10
-34.969932358
 20
40.0643774213
 10
-34.9706230502
 20
40.0632705828
  0
LINE
  5
4C4
100
AcDbEntity
  8
RACCORDO
100
AcDbLine
 62
250
  6
CONTINUOUS
 10
-37.3957214679
 20
39.5919587532
 11
-37.3935108218
 21
39.4820203373
  0
LINE
  5
4C5
100
AcDbEntity
  8
RACCORDO
100
AcDbLine
 62
250
  6
CONTINUOUS
 10
-34.9686654822
 20
38.6991025731
 11
-34.9680907488
 21
38.6684836248
  0
LINE
  5
4C6
100
AcDbEntity
  8
RACCORDO
100
AcDbLine
 62
250
  6
CONTINUOUS
 10
-35.0646648921
 20
-34.8321538368
 11
-35.0671288537
 21
-34.6951664062
  0
LINE
  5
4C7
100
AcDbEntity
  8
RACCORDO
100
AcDbLine
 62
250
  6
CONTINUOUS
 10
-35.0646648921
 20
37.1678461632
 11
-35.0671288537
 21
37.3048335938
  0
LINE
  5
4C8
100
AcDbEntity
  8
RACCORDO
100
AcDbLine
 62
250
  6
CONTINUOUS
 10
-35.0635824787
 20
-34.9161992161
 11
-35.0646648921
 21
-34.8321538368
  0
LINE
  5
4C9
100
AcDbEntity
  8
RACCORDO
100
AcDbLine
 62
250
  6
CONTINUOUS
 10
-35.0635824787
 20
37.0838007839
 11
-35.0646648921
 21
37.1678461632
  0
LWPOLYLINE
  5
4CA
100
AcDbEntity
  8
RACCORDO
100
AcDbPolyline
 62
250
  6
CONTINUOUS
 90
8
 70
0
 10
-35.0629701776
 20
-32.2719744606
 10
-35.0632176092
 20
-32.24775961
 10
-35.063580966
 20
-32.2263986226
 10
-35.0640639869
 20
-32.2083230102
 10
-35.0646645107
 20
-32.1938845052
 10
-35.065378452
 20
-32.1833321974
 10
-35.0662021313
 20
-32.1768567958
 10
-35.0671288537
 20
-32.1746405884
  0
LWPOLYLINE
  5
4CB
100
AcDbEntity
  8
RACCORDO
100
AcDbPolyline
 62
250
  6
CONTINUOUS
 90
8
 70
0
 10
-35.0629701776
 20
39.7280255394
 10
-35.0632176092
 20
39.75224039
 10
-35.063580966
 20
39.7736013774
 10
-35.0640639869
 20
39.7916769898
 10
-35.0646645107
 20
39.8061154948
 10
-35.065378452
 20
39.8166678026
 10
-35.0662021313
 20
39.8231432042
 10
-35.0671288537
 20
39.8253594116
  0
LWPOLYLINE
  5
4CC
100
AcDbEntity
  8
RACCORDO
100
AcDbPolyline
 62
250
  6
CONTINUOUS
 90
12
 70
0
 10
-34.9680907488
 20
38.6684836248
 10
-34.9677842593
 20
38.6405498359
 10
-34.9677348424
 20
38.6278813245
 10
-34.9677546661
 20
38.6162635623
 10
-34.967845543
 20
38.6057126155
 10
-34.9680152719
 20
38.5961614537
 10
-34.9682631518
 20
38.5876873303
 10
-34.9685843464
 20
38.5805044042
 10
-34.9689793213
 20
38.5747763615
 10
-34.9694497833
 20
38.5706060558
 10
-34.9699971526
 20
38.5680651133
 10
-34.9706240565
 20
38.5672271185
  0
LINE
  5
4CD
100
AcDbEntity
  8
RACCORDO
100
AcDbLine
 62
250
  6
CONTINUOUS
 10
-35.0629717087
 20
-34.9909603326
 11
-35.0635824787
 21
-34.9161992161
  0
LINE
  5
4CE
100
AcDbEntity
  8
RACCORDO
100
AcDbLine
 62
250
  6
CONTINUOUS
 10
-35.0629717087
 20
37.0090396674
 11
-35.0635824787
 21
37.0838007839
  0
LINE
  5
4CF
100
AcDbEntity
  8
RACCORDO
100
AcDbLine
 62
250
  6
CONTINUOUS
 10
-35.0628040503
 20
-32.328231957
 11
-35.0629701776
 21
-32.2719744606
  0
LINE
  5
4D0
100
AcDbEntity
  8
RACCORDO
100
AcDbLine
 62
250
  6
CONTINUOUS
 10
-35.0628040503
 20
39.671768043
 11
-35.0629701776
 21
39.7280255394
  0
LINE
  5
4D1
100
AcDbEntity
  8
RACCORDO
100
AcDbLine
 62
250
  6
CONTINUOUS
 10
-35.0671288537
 20
-34.6951664062
 11
-35.0671288537
 21
-34.145221053
  0
LINE
  5
4D2
100
AcDbEntity
  8
RACCORDO
100
AcDbLine
 62
250
  6
CONTINUOUS
 10
-35.0671288537
 20
-33.224281355
 11
-35.0671288537
 21
-32.6743360019
  0
LINE
  5
4D3
100
AcDbEntity
  8
RACCORDO
100
AcDbLine
 62
250
  6
CONTINUOUS
 10
-35.0671288537
 20
37.3048335938
 11
-35.0671288537
 21
37.854778947
  0
LINE
  5
4D4
100
AcDbEntity
  8
RACCORDO
100
AcDbLine
 62
250
  6
CONTINUOUS
 10
-35.0671288537
 20
38.775718645
 11
-35.0671288537
 21
39.3256639981
  0
LINE
  5
4D5
100
AcDbEntity
  8
RACCORDO
100
AcDbLine
 62
250
  6
CONTINUOUS
 10
-34.9706188034
 20
40.6673487325
 11
-34.9706188034
 21
40.2631488594
  0
LINE
  5
4D6
100
AcDbEntity
  8
RACCORDO
100
AcDbLine
 62
250
  6
CONTINUOUS
 10
-34.9706188034
 20
39.8633925286
 11
-34.9706188034
 21
39.8055271257
  0
LINE
  5
4D7
100
AcDbEntity
  8
RACCORDO
100
AcDbLine
 62
250
  6
CONTINUOUS
 10
-34.9706188034
 20
38.8722286953
 11
-34.9706188034
 21
38.7671050633
  0
LINE
  5
4D8
100
AcDbEntity
  8
RACCORDO
100
AcDbLine
 62
250
  6
CONTINUOUS
 10
-34.9706188034
 20
38.3673487325
 11
-34.9706188034
 21
37.9631488594
  0
LINE
  5
4D9
100
AcDbEntity
  8
RACCORDO
100
AcDbLine
 62
250
  6
CONTINUOUS
 10
-34.9706188034
 20
-34.0826512675
 11
-34.9706188034
 21
-34.2417311034
  0
LINE
  5
4DA
100
AcDbEntity
  8
RACCORDO
100
AcDbLine
 62
250
  6
CONTINUOUS
 10
-34.9706188034
 20
-35.175029578
 11
-34.9706188034
 21
-35.2868511406
  0
LINE
  5
4DB
100
AcDbEntity
  8
RACCORDO
100
AcDbLine
 62
7
  6
CONTINUOUS
 10
-34.7775987027
 20
-32.8104871353
 11
-34.7775987027
 21
-32.4744578365
  0
LINE
  5
4DC
100
AcDbEntity
  8
RACCORDO
100
AcDbLine
 62
7
  6
CONTINUOUS
 10
-34.7775987027
 20
-34.0826512675
 11
-34.7775987027
 21
-35.2868511406
  0
LINE
  5
4DD
100
AcDbEntity
  8
RACCORDO
100
AcDbLine
 62
7
  6
CONTINUOUS
 10
-34.7775987027
 20
37.1049554284
 11
-34.7775987027
 21
37.4409847273
  0
LINE
  5
4DE
100
AcDbEntity
  8
RACCORDO
100
AcDbLine
 62
7
  6
CONTINUOUS
 10
-34.7775987027
 20
37.9631488594
 11
-34.7775987027
 21
40.6673487325
  0
LINE
  5
4DF
100
AcDbEntity
  8
RACCORDO
100
AcDbLine
 62
250
  6
CONTINUOUS
 10
-35.0630645057
 20
39.6060948321
 11
-35.0628040503
 21
39.671768043
  0
LINE
  5
4E0
100
AcDbEntity
  8
RACCORDO
100
AcDbLine
 62
250
  6
CONTINUOUS
 10
-35.0630645057
 20
-32.3939051679
 11
-35.0628040503
 21
-32.328231957
  0
LINE
  5
4E1
100
AcDbEntity
  8
RACCORDO
100
AcDbLine
 62
250
  6
CONTINUOUS
 10
-35.0637399832
 20
39.5325772629
 11
-35.0630645057
 21
39.6060948321
  0
LINE
  5
4E2
100
AcDbEntity
  8
RACCORDO
100
AcDbLine
 62
250
  6
CONTINUOUS
 10
-35.0637399832
 20
-32.4674227371
 11
-35.0630645057
 21
-32.3939051679
  0
LINE
  5
4E3
100
AcDbEntity
  8
RACCORDO
100
AcDbLine
 62
250
  6
CONTINUOUS
 10
-34.9678446244
 20
39.981666712
 11
-34.9682612255
 21
39.9518769748
  0
LINE
  5
4E4
100
AcDbEntity
  8
RACCORDO
100
AcDbLine
 62
250
  6
CONTINUOUS
 10
-35.0654971056
 20
39.411236396
 11
-35.0637399832
 21
39.5325772629
  0
LINE
  5
4E5
100
AcDbEntity
  8
RACCORDO
100
AcDbLine
 62
250
  6
CONTINUOUS
 10
-35.0654971056
 20
-32.588763604
 11
-35.0637399832
 21
-32.4674227371
  0
LINE
  5
4E6
100
AcDbEntity
  8
RACCORDO
100
AcDbLine
 62
250
  6
CONTINUOUS
 10
-35.0671288537
 20
39.3256639981
 11
-35.0654971056
 21
39.411236396
  0
LINE
  5
4E7
100
AcDbEntity
  8
RACCORDO
100
AcDbLine
 62
250
  6
CONTINUOUS
 10
-35.0671288537
 20
-32.6743360019
 11
-35.0654971056
 21
-32.588763604
  0
LINE
  5
4E8
100
AcDbEntity
  8
RACCORDO
100
AcDbLine
 62
250
  6
CONTINUOUS
 10
-34.9682612255
 20
39.9518769748
 11
-34.968976404
 21
39.9182081424
  0
LINE
  5
4E9
100
AcDbEntity
  8
RACCORDO
100
AcDbLine
 62
250
  6
CONTINUOUS
 10
-34.9683878614
 20
40.7485876566
 11
-34.9693227612
 21
40.7088742138
  0
LINE
  5
4EA
100
AcDbEntity
  8
RACCORDO
100
AcDbLine
 62
250
  6
CONTINUOUS
 10
-34.968387288
 20
38.4486173044
 11
-34.9693223254
 21
38.4088900847
  0
LINE
  5
4EB
100
AcDbEntity
  8
RACCORDO
100
AcDbLine
 62
250
  6
CONTINUOUS
 10
-34.9683878614
 20
-34.0014123434
 11
-34.9693227612
 21
-34.0411257862
  0
LWPOLYLINE
  5
4EC
100
AcDbEntity
  8
RACCORDO
100
AcDbPolyline
 62
250
  6
CONTINUOUS
 90
3
 70
0
 10
-37.3915577125
 20
-34.7763372506
 10
-37.3925762545
 20
-34.8137549077
 10
-37.3950351028
 20
-34.923360494
  0
LWPOLYLINE
  5
4ED
100
AcDbEntity
  8
RACCORDO
100
AcDbPolyline
 62
250
  6
CONTINUOUS
 90
3
 70
0
 10
-34.968976404
 20
39.9182081424
 10
-34.9699933393
 20
39.8820666886
 10
-34.9706198117
 20
39.8633924934
  0
LINE
  5
4EE
100
AcDbEntity
  8
RACCORDO
100
AcDbLine
 62
250
  6
CONTINUOUS
 10
-34.9693227612
 20
40.7088742138
 11
-34.9706188034
 21
40.6673487325
  0
LINE
  5
4EF
100
AcDbEntity
  8
RACCORDO
100
AcDbLine
 62
250
  6
CONTINUOUS
 10
-34.9693223254
 20
38.4088900847
 11
-34.9706188034
 21
38.3673487325
  0
LINE
  5
4F0
100
AcDbEntity
  8
RACCORDO
100
AcDbLine
 62
250
  6
CONTINUOUS
 10
-34.9693227612
 20
-34.0411257862
 11
-34.9706188034
 21
-34.0826512675
  0
LINE
  5
4F1
100
AcDbEntity
  8
DRAFT
100
AcDbLine
 62
7
  6
CONTINUOUS
 10
-37.7775987027
 20
5.2454285363
 11
-39.2775987027
 21
5.2716110613
  0
LINE
  5
4F2
100
AcDbEntity
  8
DRAFT
100
AcDbLine
 62
7
  6
CONTINUOUS
 10
-37.7775987027
 20
9.3850690557
 11
-39.2775987027
 21
9.3588865306
  0
LINE
  5
4F3
100
AcDbEntity
  8
IMPORT_IGES
100
AcDbLine
 62
250
  6
CONTINUOUS
 10
-36.8257816911
 20
22.6397603912
 11
-36.8801869255
 21
22.832218362
  0
LWPOLYLINE
  5
4F4
100
AcDbEntity
  8
RACCORDO
100
AcDbPolyline
 62
250
  6
CONTINUOUS
 90
8
 70
0
 10
-37.3915585014
 20
-35.2760326916
 10
-37.391953703
 20
-35.2777573126
 10
-37.392222807
 20
-35.2828698967
 10
-37.3923612136
 20
-35.291282997
 10
-37.3923665574
 20
-35.3028527436
 10
-37.3922387485
 20
-35.3173812895
 10
-37.3919799741
 20
-35.3346201818
 10
-37.3910893973
 20
-35.3760086126
  0
LINE
  5
4F5
100
AcDbEntity
  8
RACCORDO
100
AcDbLine
 62
7
  6
CONTINUOUS
 10
-38.6188724995
 20
9.8983126708
 11
-39.2775987027
 21
9.8868145622
  0
LINE
  5
4F6
100
AcDbEntity
  8
DRAFT
100
AcDbLine
 62
7
  6
CONTINUOUS
 10
-37.7775987027
 20
9.7855751856
 11
-39.2775987027
 21
9.811757783
  0
LWPOLYLINE
  5
4F7
100
AcDbEntity
  8
RACCORDO
100
AcDbPolyline
 62
250
  6
CONTINUOUS
 90
7
 70
0
 10
-37.3915585014
 20
39.9065302836
 10
-37.3919537036
 20
39.9082548294
 10
-37.3922228131
 20
39.9133672136
 10
-37.392361229
 20
39.9217800296
 10
-37.3923665847
 20
39.933349443
 10
-37.3922387888
 20
39.9478776515
 10
-37.3919800265
 20
39.9651162656
  0
LINE
  5
4F8
100
AcDbEntity
  8
DRAFT
100
AcDbLine
 62
7
  6
CONTINUOUS
 10
-37.7775987027
 20
14.8449224063
 11
-39.2775987027
 21
14.818739809
  0
LINE
  5
4F9
100
AcDbEntity
  8
RACCORDO
100
AcDbLine
 62
7
  6
CONTINUOUS
 10
-38.6188724995
 20
14.7321849211
 11
-39.2775987027
 21
14.7436830298
  0
LINE
  5
4FA
100
AcDbEntity
  8
IMPORT_IGES
100
AcDbLine
 62
7
  6
CONTINUOUS
 10
-36.6160059223
 20
23.4955660168
 11
-37.7025987027
 21
25.3194371262
  0
LINE
  5
4FB
100
AcDbEntity
  8
IMPORT_IGES
100
AcDbLine
 62
7
  6
CONTINUOUS
 10
-37.7025987027
 20
25.710202522
 11
-36.4441869086
 21
23.5979292258
  0
LWPOLYLINE
  5
4FC
100
AcDbEntity
  8
0
100
AcDbPolyline
 62
7
  6
CONTINUOUS
 90
10
 70
0
 43
0.3500000019
 10
-50.5062050781
 20
55.5871088867
 10
-50.4347762451
 20
55.4442539063
 10
-50.4347762451
 20
55.3728237305
 10
-50.5776339111
 20
55.22996875
 10
-50.6490627441
 20
55.22996875
 10
-50.7204915771
 20
55.3013935547
 10
-50.7204915771
 20
55.3728237305
 10
-50.6490627441
 20
55.515684082
 10
-50.5776339111
 20
55.5871088867
 10
-50.5062050781
 20
55.5871088867
  0
LINE
  5
4FD
100
AcDbEntity
  8
IMPORT_IGES
100
AcDbLine
 62
7
  6
CONTINUOUS
 10
-37.7025987027
 20
18.265248796
 11
-37.7775987027
 21
18.265248796
  0
LWPOLYLINE
  5
4FE
100
AcDbEntity
  8
RACCORDO
100
AcDbPolyline
 62
250
  6
CONTINUOUS
 90
11
 70
0
 10
-35.0671288537
 20
-35.1948618197
 10
-35.0662677726
 20
-35.1929568357
 10
-35.0654910992
 20
-35.1873626955
 10
-35.064805859
 20
-35.178185701
 10
-35.0642205216
 20
-35.1655855061
 10
-35.0637358311
 20
-35.1496996085
 10
-35.0633481172
 20
-35.1305742361
 10
-35.0630620088
 20
-35.1083329444
 10
-35.0628811149
 20
-35.0831423597
 10
-35.0628037828
 20
-35.05504697
 10
-35.0629717087
 20
-34.9909603326
  0
LINE
  5
4FF
100
AcDbEntity
  8
DRAFT
100
AcDbLine
 62
7
  6
CONTINUOUS
 10
-35.5784398299
 20
-34.0897979175
 11
-35.7364459699
 21
-34.36347258
  0
LWPOLYLINE
  5
500
100
AcDbEntity
  8
RACCORDO
100
AcDbPolyline
 62
250
  6
CONTINUOUS
 90
12
 70
0
 10
-37.3915577179
 20
-32.0934697438
 10
-37.3925725294
 20
-32.0948183825
 10
-37.3934837224
 20
-32.0989262263
 10
-37.3942973246
 20
-32.1057628764
 10
-37.3950259995
 20
-32.1152785554
 10
-37.3956671103
 20
-32.1274159308
 10
-37.3962031747
 20
-32.1421206761
 10
-37.3966348784
 20
-32.1593285467
 10
-37.3969686407
 20
-32.1789359565
 10
-37.3971944942
 20
-32.2008097718
 10
-37.3973108632
 20
-32.2247702903
 10
-37.3972197869
 20
-32.2786769884
  0
LINE
  5
501
100
AcDbEntity
  8
IMPORT_IGES
100
AcDbLine
 62
7
  6
CONTINUOUS
 10
-36.8257816915
 20
22.639760391
 11
-37.7025987027
 21
22.3918962211
  0
LINE
  5
502
100
AcDbEntity
  8
IMPORT_IGES
100
AcDbLine
 62
7
  6
CONTINUOUS
 10
-37.7025987027
 20
22.5997338078
 11
-36.8801869257
 21
22.832218362
  0
LWPOLYLINE
  5
503
100
AcDbEntity
  8
RACCORDO
100
AcDbPolyline
 62
250
  6
CONTINUOUS
 90
14
 70
0
 10
-37.5845778201
 20
-33.7914916418
 10
-37.5851691752
 20
-33.7922440892
 10
-37.5856902299
 20
-33.7945094205
 10
-37.5861431993
 20
-33.7982261703
 10
-37.5865313662
 20
-33.8033028843
 10
-37.5868534738
 20
-33.8096719117
 10
-37.5871060838
 20
-33.8173379338
 10
-37.5872922699
 20
-33.8262815036
 10
-37.5874128545
 20
-33.8364169175
 10
-37.5874625111
 20
-33.8476802273
 10
-37.5874430008
 20
-33.8599254342
 10
-37.5873525027
 20
-33.8731267143
 10
-37.5871831939
 20
-33.8874350619
 10
-37.5866151657
 20
-33.919353061
  0
LINE
  5
504
100
AcDbEntity
  8
DRAFT
100
AcDbLine
 62
7
  6
CONTINUOUS
 10
-37.7775987027
 20
22.2454285363
 11
-39.2775987027
 21
22.2716110613
  0
LWPOLYLINE
  5
505
100
AcDbEntity
  8
RACCORDO
100
AcDbPolyline
 62
250
  6
CONTINUOUS
 90
12
 70
0
 10
-34.9706230502
 20
38.5672270091
 10
-34.9699323636
 20
38.5661201896
 10
-34.9693256054
 20
38.562837293
 10
-34.9688094182
 20
38.5574142592
 10
-34.9683894532
 20
38.5499104586
 10
-34.9680703077
 20
38.5404080395
 10
-34.9678554755
 20
38.5290110253
 10
-34.9677473086
 20
38.5158441924
 10
-34.9677469912
 20
38.501051678
 10
-34.9678545274
 20
38.4847953846
 10
-34.9680687411
 20
38.4672532382
 10
-34.968387288
 20
38.4486173044
  0
LINE
  5
506
100
AcDbEntity
  8
DRAFT
100
AcDbLine
 62
7
  6
CONTINUOUS
 10
-35.7364459699
 20
38.9939701719
 11
-35.5784398299
 21
38.7202955095
  0
LINE
  5
507
100
AcDbEntity
  8
RACCORDO
100
AcDbLine
 62
7
  6
CONTINUOUS
 10
-35.1060559818
 20
-33.2632084831
 11
-34.8654666684
 21
-33.0226191697
  0
LINE
  5
508
100
AcDbEntity
  8
DRAFT
100
AcDbLine
 62
7
  6
CONTINUOUS
 10
-37.7775987027
 20
26.3850690557
 11
-39.2775987027
 21
26.3588865306
  0
LINE
  5
509
100
AcDbEntity
  8
IMPORT_IGES
100
AcDbLine
 62
7
  6
CONTINUOUS
 10
-37.7775987027
 20
26.315248796
 11
-37.7025987027
 21
26.315248796
  0
LWPOLYLINE
  5
50A
100
AcDbEntity
  8
RACCORDO
100
AcDbPolyline
 62
250
  6
CONTINUOUS
 90
12
 70
0
 10
-34.9706188034
 20
40.8672268979
 10
-34.9699288363
 20
40.8661082216
 10
-34.969322771
 20
40.8628152847
 10
-34.9688072375
 20
40.857384109
 10
-34.9683878751
 20
40.8498741082
 10
-34.9680692714
 20
40.8403674346
 10
-34.9678549115
 20
40.8289680775
 10
-34.9677471406
 20
40.8158007426
 10
-34.9677471374
 20
40.8010094606
 10
-34.9678549026
 20
40.7847559953
 10
-34.9680692587
 20
40.7672181038
 10
-34.9683878614
 20
40.7485876566
  0
LINE
  5
50B
100
AcDbEntity
  8
RACCORDO
100
AcDbLine
 62
7
  6
CONTINUOUS
 10
-34.8654666684
 20
37.6531167616
 11
-35.1060559818
 21
37.893706075
  0
LWPOLYLINE
  5
50C
100
AcDbEntity
  8
RACCORDO
100
AcDbPolyline
 62
250
  6
CONTINUOUS
 90
12
 70
0
 10
-34.9706238311
 20
40.0632704813
 10
-34.9700318535
 20
40.0625282257
 10
-34.969510227
 20
40.0602717679
 10
-34.9690567241
 20
40.0565624127
 10
-34.9686680324
 20
40.0514913904
 10
-34.9683454133
 20
40.0451263159
 10
-34.9680923498
 20
40.0374627784
 10
-34.9679057778
 20
40.028520428
 10
-34.9677848602
 20
40.0183849134
 10
-34.9677349378
 20
40.0071201671
 10
-34.9677542569
 20
39.9948720729
 10
-34.9678446244
 20
39.981666712
  0
LWPOLYLINE
  5
50D
100
AcDbEntity
  8
0
100
AcDbPolyline
 62
7
  6
CONTINUOUS
 90
10
 70
0
 43
0.3500000019
 10
-39.5347416992
 20
65.6102143555
 10
-39.463314209
 20
65.467359375
 10
-39.463314209
 20
65.3959291992
 10
-39.6061691895
 20
65.2530742188
 10
-39.6775993652
 20
65.2530742188
 10
-39.7490268555
 20
65.3244990234
 10
-39.7490268555
 20
65.3959291992
 10
-39.6775993652
 20
65.5387841797
 10
-39.6061691895
 20
65.6102143555
 10
-39.5347416992
 20
65.6102143555
  0
LINE
  5
50E
100
AcDbEntity
  8
RACCORDO
100
AcDbLine
 62
7
  6
CONTINUOUS
 10
-38.6188724995
 20
32.8983126708
 11
-39.2775987027
 21
32.8868145622
  0
LINE
  5
50F
100
AcDbEntity
  8
DRAFT
100
AcDbLine
 62
7
  6
CONTINUOUS
 10
-37.7775987027
 20
32.7855751856
 11
-39.2775987027
 21
32.811757783
  0
LINE
  5
510
100
AcDbEntity
  8
RACCORDO
100
AcDbLine
 62
7
  6
CONTINUOUS
 10
-37.7775987027
 20
-35.9126916726
 11
-35.8837249033
 21
-35.2233779821
  0
LINE
  5
511
100
AcDbEntity
  8
RACCORDO
100
AcDbLine
 62
7
  6
CONTINUOUS
 10
-37.3915585014
 20
36.7239673084
 11
-35.0671288537
 21
36.8051381803
  0
LINE
  5
512
100
AcDbEntity
  8
RACCORDO
100
AcDbLine
 62
250
  6
CONTINUOUS
 10
-37.3915585014
 20
37.2236627219
 11
-35.0671288537
 21
37.3048335938
  0
LINE
  5
513
100
AcDbEntity
  8
RACCORDO
100
AcDbLine
 62
7
  6
CONTINUOUS
 10
-37.7775987027
 20
37.565248796
 11
-35.7364459699
 21
37.63652742
  0
LINE
  5
514
100
AcDbEntity
  8
RACCORDO
100
AcDbLine
 62
7
  6
CONTINUOUS
 10
-37.5845786021
 20
37.6719892064
 11
-35.677522966
 21
37.7385850567
  0
LINE
  5
515
100
AcDbEntity
  8
RACCORDO
100
AcDbLine
 62
250
  6
CONTINUOUS
 10
-37.7775987027
 20
37.2236627219
 11
-37.3915585014
 21
37.2236627219
  0
LINE
  5
516
100
AcDbEntity
  8
RACCORDO
100
AcDbLine
 62
250
  6
CONTINUOUS
 10
-35.0671288537
 20
37.3048335938
 11
-34.7775987027
 21
37.3048335938
  0
LINE
  5
517
100
AcDbEntity
  8
RACCORDO
100
AcDbLine
 62
250
  6
CONTINUOUS
 10
-37.5845786021
 20
37.8718673718
 11
-34.9706188034
 21
37.9631488594
  0
LINE
  5
518
100
AcDbEntity
  8
DRAFT
100
AcDbLine
 62
7
  6
CONTINUOUS
 10
-35.5784398299
 20
38.7202955095
 11
-35.1060559818
 21
38.7367915169
  0
LINE
  5
519
100
AcDbEntity
  8
RACCORDO
100
AcDbLine
 62
250
  6
CONTINUOUS
 10
-34.9706188034
 20
39.8633925286
 11
-35.5634368138
 21
39.8426908675
  0
LINE
  5
51A
100
AcDbEntity
  8
RACCORDO
100
AcDbLine
 62
7
  6
CONTINUOUS
 10
-36.3287304651
 20
40.0158443526
 11
-34.9706238311
 21
40.0632704813
  0
LINE
  5
51B
100
AcDbEntity
  8
RACCORDO
100
AcDbLine
 62
250
  6
CONTINUOUS
 10
-36.8298152241
 20
40.1982242898
 11
-34.9706188034
 21
40.2631488594
  0
LINE
  5
51C
100
AcDbEntity
  8
DRAFT
100
AcDbLine
 62
7
  6
CONTINUOUS
 10
-37.7775987027
 20
37.8449224063
 11
-39.2775987027
 21
37.818739809
  0
LINE
  5
51D
100
AcDbEntity
  8
RACCORDO
100
AcDbLine
 62
250
  6
CONTINUOUS
 10
-37.7775987027
 20
37.8718673718
 11
-37.5845786021
 21
37.8718673718
  0
LINE
  5
51E
100
AcDbEntity
  8
RACCORDO
100
AcDbLine
 62
250
  6
CONTINUOUS
 10
-34.7775987027
 20
37.9631488594
 11
-34.9706188034
 21
37.9631488594
  0
LINE
  5
51F
100
AcDbEntity
  8
RACCORDO
100
AcDbLine
 62
250
  6
CONTINUOUS
 10
-34.7775987027
 20
38.3673487325
 11
-34.9706188034
 21
38.3673487325
  0
LINE
  5
520
100
AcDbEntity
  8
RACCORDO
100
AcDbLine
 62
250
  6
CONTINUOUS
 10
-37.7775987027
 20
38.4586302201
 11
-37.5845786021
 21
38.4586302201
  0
LINE
  5
521
100
AcDbEntity
  8
RACCORDO
100
AcDbLine
 62
250
  6
CONTINUOUS
 10
-34.7775987027
 20
38.7671050633
 11
-34.9706188034
 21
38.7671050633
  0
LINE
  5
522
100
AcDbEntity
  8
RACCORDO
100
AcDbLine
 62
250
  6
CONTINUOUS
 10
-37.7775987027
 20
38.8583865509
 11
-37.5845786021
 21
38.8583865509
  0
LINE
  5
523
100
AcDbEntity
  8
RACCORDO
100
AcDbLine
 62
250
  6
CONTINUOUS
 10
-35.0671288537
 20
39.3256639981
 11
-34.7775987027
 21
39.3256639981
  0
LINE
  5
524
100
AcDbEntity
  8
RACCORDO
100
AcDbLine
 62
250
  6
CONTINUOUS
 10
-37.7775987027
 20
39.40683487
 11
-37.3915585014
 21
39.4068348713
  0
LINE
  5
525
100
AcDbEntity
  8
RACCORDO
100
AcDbLine
 62
250
  6
CONTINUOUS
 10
-34.7775987027
 20
39.8633925286
 11
-34.9706188034
 21
39.8633925286
  0
LINE
  5
526
100
AcDbEntity
  8
RACCORDO
100
AcDbLine
 62
250
  6
CONTINUOUS
 10
-34.7775987027
 20
40.2631488594
 11
-34.9706188034
 21
40.2631488594
  0
LINE
  5
527
100
AcDbEntity
  8
RACCORDO
100
AcDbLine
 62
250
  6
CONTINUOUS
 10
-37.7775987027
 20
40.3062866144
 11
-37.581089184
 21
40.3062866144
  0
LINE
  5
528
100
AcDbEntity
  8
RACCORDO
100
AcDbLine
 62
250
  6
CONTINUOUS
 10
-34.7775987027
 20
40.6673487325
 11
-34.9706188034
 21
40.6673487325
  0
LINE
  5
529
100
AcDbEntity
  8
RACCORDO
100
AcDbLine
 62
250
  6
CONTINUOUS
 10
-37.7775987027
 20
40.7586302201
 11
-37.5845786021
 21
40.7586302201
  0
LINE
  5
52A
100
AcDbEntity
  8
RACCORDO
100
AcDbLine
 62
7
  6
CONTINUOUS
 10
-38.6188724995
 20
37.7321849211
 11
-39.2775987027
 21
37.7436830298
  0
LINE
  5
52B
100
AcDbEntity
  8
DRAFT
100
AcDbLine
 62
7
  6
CONTINUOUS
 10
-37.7775987027
 20
38.2454285363
 11
-39.2775987027
 21
38.2716110613
  0
LINE
  5
52C
100
AcDbEntity
  8
DRAFT
100
AcDbLine
 62
7
  6
CONTINUOUS
 10
-35.1060559818
 20
37.893706075
 11
-35.5784398299
 21
37.9102020825
  0
LINE
  5
52D
100
AcDbEntity
  8
RACCORDO
100
AcDbLine
 62
250
  6
CONTINUOUS
 10
-37.5845786021
 20
38.4586302201
 11
-34.9706188034
 21
38.3673487325
  0
LINE
  5
52E
100
AcDbEntity
  8
RACCORDO
100
AcDbLine
 62
7
  6
CONTINUOUS
 10
-37.5845743553
 20
38.6585082743
 11
-34.9706240565
 21
38.5672271185
  0
LINE
  5
52F
100
AcDbEntity
  8
RACCORDO
100
AcDbLine
 62
250
  6
CONTINUOUS
 10
-34.9706188034
 20
38.7671050633
 11
-35.0673117335
 21
38.7704816549
  0
LINE
  5
530
100
AcDbEntity
  8
RACCORDO
100
AcDbLine
 62
250
  6
CONTINUOUS
 10
-35.6185281734
 20
38.7897305571
 11
-37.5845786021
 21
38.8583865509
  0
LINE
  5
531
100
AcDbEntity
  8
RACCORDO
100
AcDbLine
 62
7
  6
CONTINUOUS
 10
-37.7775987027
 20
39.065248796
 11
-35.7364459699
 21
38.9939701719
  0
LINE
  5
532
100
AcDbEntity
  8
RACCORDO
100
AcDbLine
 62
250
  6
CONTINUOUS
 10
-35.0671288537
 20
39.3256639981
 11
-37.3915585014
 21
39.40683487
  0
LINE
  5
533
100
AcDbEntity
  8
RACCORDO
100
AcDbLine
 62
7
  6
CONTINUOUS
 10
-35.0671288537
 20
39.8253594116
 11
-37.3915585014
 21
39.9065302836
  0
LINE
  5
534
100
AcDbEntity
  8
RACCORDO
100
AcDbLine
 62
250
  6
CONTINUOUS
 10
-37.3880690834
 20
40.106408449
 11
-36.4915363115
 21
40.0751008347
  0
LINE
  5
535
100
AcDbEntity
  8
RACCORDO
100
AcDbLine
 62
250
  6
CONTINUOUS
 10
-37.5845786021
 20
40.7586302201
 11
-34.9706188034
 21
40.6673487325
  0
LINE
  5
536
100
AcDbEntity
  8
RACCORDO
100
AcDbLine
 62
7
  6
CONTINUOUS
 10
-37.7775987027
 20
40.5431892645
 11
-35.8837249033
 21
39.853875574
  0
LWPOLYLINE
  5
537
100
AcDbEntity
  8
0
100
AcDbPolyline
 62
7
  6
CONTINUOUS
 90
13
 70
0
 43
0.3500000019
 10
-49.0062049561
 20
56.8013950195
 10
-49.2919202881
 20
57.0156801758
 10
-49.2919202881
 20
57.6585410156
 10
-49.0062049561
 20
58.0871113281
 10
-48.3633481445
 20
58.0871113281
 10
-48.0776328125
 20
57.6585410156
 10
-48.0776328125
 20
57.0156801758
 10
-48.3633481445
 20
56.8013950195
 10
-47.934777832
 20
56.372824707
 10
-47.934777832
 20
55.515684082
 10
-48.3633481445
 20
55.0871083984
 10
-49.0062049561
 20
55.0871083984
 10
-49.4347766113
 20
55.515684082
  0
LINE
  5
538
100
AcDbEntity
  8
RACCORDO
100
AcDbLine
 62
250
  6
CONTINUOUS
 10
-39.2775987027
 20
43.5131722282
 11
-37.7775987027
 21
43.5655533825
  0
LINE
  5
539
100
AcDbEntity
  8
RACCORDO
100
AcDbLine
 62
7
  6
CONTINUOUS
 10
-39.2775987027
 20
44.0128676417
 11
-37.7775987027
 21
44.065248796
  0
LINE
  5
53A
100
AcDbEntity
  8
DRAFT
100
AcDbLine
 62
7
  6
CONTINUOUS
 10
-37.7775987027
 20
42.3850690557
 11
-39.2775987027
 21
42.3588865306
  0
LINE
  5
53B
100
AcDbEntity
  8
RACCORDO
100
AcDbLine
 62
250
  6
CONTINUOUS
 10
-45.086324906
 20
45.7139332554
 11
-39.2775987027
 21
45.8152868722
  0
LINE
  5
53C
100
AcDbEntity
  8
RACCORDO
100
AcDbLine
 62
7
  6
CONTINUOUS
 10
-39.4775987027
 20
46.061757783
 11
-39.2775987027
 21
46.065248796
  0
LINE
  5
53D
100
AcDbEntity
  8
RACCORDO
100
AcDbLine
 62
7
  6
CONTINUOUS
 10
-45.086324906
 20
46.2138571029
 11
-39.4775987027
 21
46.311757783
  0
LINE
  5
53E
100
AcDbEntity
  8
RACCORDO
100
AcDbLine
 62
250
  6
CONTINUOUS
 10
-45.5775987027
 20
45.7139332554
 11
-45.086324906
 21
45.7139332554
  0
LINE
  5
53F
100
AcDbEntity
  8
RACCORDO
100
AcDbLine
 62
7
  6
CONTINUOUS
 10
-37.5845786021
 20
40.9585083855
 11
-34.9706188034
 21
40.8672268979
  0
LWPOLYLINE
  5
540
100
AcDbEntity
  8
0
100
AcDbPolyline
 62
7
  6
CONTINUOUS
 90
13
 70
0
 43
0.3500000019
 10
-38.0347402344
 20
66.8245004883
 10
-38.3204555664
 20
67.0387856445
 10
-38.3204555664
 20
67.6816411133
 10
-38.0347402344
 20
68.1102167969
 10
-37.3918847656
 20
68.1102167969
 10
-37.1061694336
 20
67.6816411133
 10
-37.1061694336
 20
67.0387856445
 10
-37.3918847656
 20
66.8245004883
 10
-36.9633117676
 20
66.3959301758
 10
-36.9633117676
 20
65.5387841797
 10
-37.3918847656
 20
65.1102138672
 10
-38.0347402344
 20
65.1102138672
 10
-38.4633132324
 20
65.5387841797
  0
ARC
  5
541
100
AcDbEntity
  8
RACCORDO
100
AcDbCircle
 62
7
  6
CONTINUOUS
 10
-3.4660197368
 20
-39.334751204
 40
0.2
100
AcDbArc
 50
180.0
 51
270.0
  0
ARC
  5
542
100
AcDbEntity
  8
RACCORDO
100
AcDbCircle
 62
7
  6
CONTINUOUS
 10
-3.4660197368
 20
-37.034751204
 40
0.2
100
AcDbArc
 50
90.0
 51
180.0
  0
ARC
  5
543
100
AcDbEntity
  8
RACCORDO
100
AcDbCircle
 62
7
  6
CONTINUOUS
 10
1.8339802632
 20
-37.034751204
 40
0.2
100
AcDbArc
 50
0.0
 51
90.0
  0
ARC
  5
544
100
AcDbEntity
  8
RACCORDO
100
AcDbCircle
 62
7
  6
CONTINUOUS
 10
1.8339802632
 20
-39.334751204
 40
0.2
100
AcDbArc
 50
270.0
 51
360.0
  0
ARC
  5
545
100
AcDbEntity
  8
RACCORDO
100
AcDbCircle
 62
7
  6
CONTINUOUS
 10
-45.0775987027
 20
-41.0834356634
 40
0.5
100
AcDbArc
 50
180.0
 51
269.0
  0
ARC
  5
546
100
AcDbEntity
  8
RACCORDO
100
AcDbCircle
 62
7
  6
CONTINUOUS
 10
-45.0775987027
 20
1.5139332554
 40
0.5
100
AcDbArc
 50
91.0
 51
180.0
  0
ARC
  5
547
100
AcDbEntity
  8
RACCORDO
100
AcDbCircle
 62
7
  6
CONTINUOUS
 10
-40.5775987027
 20
-41.8156947177
 40
0.2
100
AcDbArc
 50
180.0
 51
269.0
  0
ARC
  5
548
100
AcDbEntity
  8
RACCORDO
100
AcDbCircle
 62
7
  6
CONTINUOUS
 10
-45.0775987027
 20
3.1165643366
 40
0.5
100
AcDbArc
 50
180.0
 51
269.0
  0
ARC
  5
549
100
AcDbEntity
  8
RACCORDO
100
AcDbCircle
 62
7
  6
CONTINUOUS
 10
-45.0775987027
 20
45.7139332554
 40
0.5
100
AcDbArc
 50
91.0
 51
180.0
  0
ARC
  5
54A
100
AcDbEntity
  8
RACCORDO
100
AcDbCircle
 62
7
  6
CONTINUOUS
 10
-38.6275987027
 20
-28.7677389265
 40
0.5
100
AcDbArc
 50
0.0
 51
89.0
  0
ARC
  5
54B
100
AcDbEntity
  8
RACCORDO
100
AcDbCircle
 62
7
  6
CONTINUOUS
 10
-38.6275987027
 20
-32.6017634816
 40
0.5
100
AcDbArc
 50
271.0
 51
360.0
  0
ARC
  5
54C
100
AcDbEntity
  8
RACCORDO
100
AcDbCircle
 62
7
  6
CONTINUOUS
 10
-38.6275987027
 20
-9.6017634816
 40
0.5
100
AcDbArc
 50
271.0
 51
360.0
  0
ARC
  5
54D
100
AcDbEntity
  8
RACCORDO
100
AcDbCircle
 62
7
  6
CONTINUOUS
 10
-38.6275987027
 20
-5.7677389265
 40
0.5
100
AcDbArc
 50
0.0
 51
89.0
  0
ARC
  5
54E
100
AcDbEntity
  8
RACCORDO
100
AcDbCircle
 62
7
  6
CONTINUOUS
 10
-37.3775987027
 20
-31.6937133856
 40
0.4
100
AcDbArc
 50
180.0
 51
268.0
  0
ARC
  5
54F
100
AcDbEntity
  8
RACCORDO
100
AcDbCircle
 62
7
  6
CONTINUOUS
 10
-37.3775987027
 20
-35.6757890224
 40
0.4
100
AcDbArc
 50
92.0000000001
 51
180.0
  0
ARC
  5
550
100
AcDbEntity
  8
RACCORDO
100
AcDbCircle
 62
7
  6
CONTINUOUS
 10
-35.0775987027
 20
-34.5590152727
 40
0.3
100
AcDbArc
 50
0.0
 51
45.0
  0
ARC
  5
551
100
AcDbEntity
  8
RACCORDO
100
AcDbCircle
 62
7
  6
CONTINUOUS
 10
-35.0775987027
 20
-34.8950445716
 40
0.3
100
AcDbArc
 50
272.0
 51
360.0
  0
ARC
  5
552
100
AcDbEntity
  8
RACCORDO
100
AcDbCircle
 62
7
  6
CONTINUOUS
 10
-35.0775987027
 20
-32.8104871353
 40
0.3
100
AcDbArc
 50
315.0
 51
360.0
  0
ARC
  5
553
100
AcDbEntity
  8
RACCORDO
100
AcDbCircle
 62
7
  6
CONTINUOUS
 10
-35.0775987027
 20
-32.4744578365
 40
0.3
100
AcDbArc
 50
0.0000000001
 51
88.0
  0
ARC
  5
554
100
AcDbEntity
  8
RACCORDO
100
AcDbCircle
 62
7
  6
CONTINUOUS
 10
-39.4775987027
 20
-41.8345461878
 40
0.2
100
AcDbArc
 50
271.0
 51
360.0
  0
ARC
  5
555
100
AcDbEntity
  8
RACCORDO
100
AcDbCircle
 62
7
  6
CONTINUOUS
 10
-34.9775987027
 20
-35.2868511406
 40
0.2
100
AcDbArc
 50
272.0
 51
360.0
  0
ARC
  5
556
100
AcDbEntity
  8
RACCORDO
100
AcDbCircle
 62
7
  6
CONTINUOUS
 10
-34.9775987027
 20
-34.0826512675
 40
0.2
100
AcDbArc
 50
0.0
 51
88.0
  0
ARC
  5
557
100
AcDbEntity
  8
RACCORDO
100
AcDbCircle
 62
7
  6
CONTINUOUS
 10
-37.5775987027
 20
-33.5916134491
 40
0.2
100
AcDbArc
 50
194.6666666667
 51
268.0
  0
ARC
  5
558
100
AcDbEntity
  8
IMPORT_IGES
100
AcDbCircle
 62
7
  6
CONTINUOUS
 10
-37.0025987027
 20
23.265248796
 40
0.65
100
AcDbArc
 50
285.7848715181
 51
30.7848714835
  0
ARC
  5
559
100
AcDbEntity
  8
RACCORDO
100
AcDbCircle
 62
7
  6
CONTINUOUS
 10
-38.6275987027
 20
10.3982365184
 40
0.5
100
AcDbArc
 50
271.0
 51
360.0
  0
ARC
  5
55A
100
AcDbEntity
  8
RACCORDO
100
AcDbCircle
 62
7
  6
CONTINUOUS
 10
-38.6275987027
 20
14.2322610735
 40
0.5
100
AcDbArc
 50
0.0
 51
89.0
  0
ARC
  5
55B
100
AcDbEntity
  8
IMPORT_IGES
100
AcDbCircle
 62
7
  6
CONTINUOUS
 10
-37.0025987027
 20
23.265248796
 40
0.45
100
AcDbArc
 50
285.7848715193
 51
30.7848714622
  0
ARC
  5
55C
100
AcDbEntity
  8
RACCORDO
100
AcDbCircle
 62
7
  6
CONTINUOUS
 10
-38.6275987027
 20
33.3982365184
 40
0.5
100
AcDbArc
 50
271.0
 51
360.0
  0
ARC
  5
55D
100
AcDbEntity
  8
RACCORDO
100
AcDbCircle
 62
7
  6
CONTINUOUS
 10
-38.6275987027
 20
37.2322610735
 40
0.5
100
AcDbArc
 50
0.0
 51
89.0
  0
ARC
  5
55E
100
AcDbEntity
  8
RACCORDO
100
AcDbCircle
 62
7
  6
CONTINUOUS
 10
-37.3775987027
 20
36.3242109776
 40
0.4
100
AcDbArc
 50
92.0
 51
180.0
  0
ARC
  5
55F
100
AcDbEntity
  8
RACCORDO
100
AcDbCircle
 62
7
  6
CONTINUOUS
 10
-37.3775987027
 20
40.3062866144
 40
0.4
100
AcDbArc
 50
180.0
 51
268.0
  0
ARC
  5
560
100
AcDbEntity
  8
RACCORDO
100
AcDbCircle
 62
7
  6
CONTINUOUS
 10
-37.5775987027
 20
38.858386509
 40
0.2000000376
100
AcDbArc
 50
180.0006053855
 51
268.0012169978
  0
ARC
  5
561
100
AcDbEntity
  8
RACCORDO
100
AcDbCircle
 62
7
  6
CONTINUOUS
 10
-37.5775987027
 20
41.1583865509
 40
0.2
100
AcDbArc
 50
179.9999999999
 51
268.0
  0
ARC
  5
562
100
AcDbEntity
  8
RACCORDO
100
AcDbCircle
 62
7
  6
CONTINUOUS
 10
-37.5775987027
 20
37.472111041
 40
0.2
100
AcDbArc
 50
92.0
 51
143.3332199797
  0
ARC
  5
563
100
AcDbEntity
  8
RACCORDO
100
AcDbCircle
 62
7
  6
CONTINUOUS
 10
-35.0775987027
 20
37.4409847273
 40
0.3
100
AcDbArc
 50
0.0
 51
45.0
  0
ARC
  5
564
100
AcDbEntity
  8
RACCORDO
100
AcDbCircle
 62
7
  6
CONTINUOUS
 10
-35.0775987027
 20
37.1049554284
 40
0.3
100
AcDbArc
 50
272.0
 51
360.0
  0
ARC
  5
565
100
AcDbEntity
  8
RACCORDO
100
AcDbCircle
 62
7
  6
CONTINUOUS
 10
-35.0775987027
 20
39.1895128647
 40
0.3
100
AcDbArc
 50
315.0
 51
360.0
  0
ARC
  5
566
100
AcDbEntity
  8
RACCORDO
100
AcDbCircle
 62
7
  6
CONTINUOUS
 10
-35.0775987027
 20
39.5255421635
 40
0.3
100
AcDbArc
 50
0.0000000001
 51
88.0
  0
ARC
  5
567
100
AcDbEntity
  8
RACCORDO
100
AcDbCircle
 62
7
  6
CONTINUOUS
 10
-34.9775987027
 20
38.3673487751
 40
0.2000000379
100
AcDbArc
 50
0.00060554
 51
88.001217004
  0
ARC
  5
568
100
AcDbEntity
  8
RACCORDO
100
AcDbCircle
 62
7
  6
CONTINUOUS
 10
-34.9775987027
 20
40.2631488174
 40
0.2000000376
100
AcDbArc
 50
271.9987830021
 51
0.0000172806
  0
ARC
  5
569
100
AcDbEntity
  8
RACCORDO
100
AcDbCircle
 62
7
  6
CONTINUOUS
 10
-34.9775987027
 20
37.9631488594
 40
0.2
100
AcDbArc
 50
272.0
 51
360.0
  0
ARC
  5
56A
100
AcDbEntity
  8
RACCORDO
100
AcDbCircle
 62
7
  6
CONTINUOUS
 10
-34.9775987027
 20
40.6673487325
 40
0.2
100
AcDbArc
 50
0.0
 51
88.0
  0
ELLIPSE
  5
56B
100
AcDbEntity
  8
RACCORDO
100
AcDbEllipse
 62
7
  6
CONTINUOUS
 10
-7.0160197368
 20
-41.6550775937
 30
0.0
 11
0.3
 21
0.0
 31
0.0
 40
0.0174550649
 41
-0.0
 42
1.5707963268
  0
ELLIPSE
  5
56C
100
AcDbEntity
  8
RACCORDO
100
AcDbEllipse
 62
7
  6
CONTINUOUS
 10
-10.6160197368
 20
-41.6550775937
 30
0.0
 11
0.3
 21
0.0
 31
0.0
 40
0.0174550649
 41
1.5707963268
 42
3.1415926536
  0
ELLIPSE
  5
56D
100
AcDbEntity
  8
RACCORDO
100
AcDbEllipse
 62
7
  6
CONTINUOUS
 10
13.9304130862
 20
-41.181184027
 30
0.0
 11
0.3536610946
 21
-0.3536610946
 31
0.0
 40
0.9996954599
 41
-0.7852458701
 42
0.7852458701
  0
ELLIPSE
  5
56E
100
AcDbEntity
  8
RACCORDO
100
AcDbEllipse
 62
7
  6
CONTINUOUS
 10
13.9304130862
 20
1.611681619
 30
0.0
 11
0.3536610946
 21
0.3536610946
 31
0.0
 40
0.9996954599
 41
-0.7852458701
 42
0.7852458701
  0
ELLIPSE
  5
56F
100
AcDbEntity
  8
RACCORDO
100
AcDbEllipse
 62
7
  6
CONTINUOUS
 10
-15.5624525598
 20
1.611681619
 30
0.0
 11
0.3536610946
 21
-0.3536610946
 31
0.0
 40
0.9996954599
 41
2.3563467834
 42
3.9268385237
  0
ELLIPSE
  5
570
100
AcDbEntity
  8
RACCORDO
100
AcDbEllipse
 62
7
  6
CONTINUOUS
 10
-15.5624525598
 20
-41.181184027
 30
0.0
 11
0.3536610946
 21
0.3536610946
 31
0.0
 40
0.9996954599
 41
2.3563467834
 42
3.9268385237
  0
ELLIPSE
  5
571
100
AcDbEntity
  8
RACCORDO
100
AcDbEllipse
 62
7
  6
CONTINUOUS
 10
13.9304130862
 20
3.018815973
 30
0.0
 11
-0.3536610946
 21
0.3536610946
 31
0.0
 40
0.9996954599
 41
-3.9268385237
 42
-2.3563467834
  0
ELLIPSE
  5
572
100
AcDbEntity
  8
RACCORDO
100
AcDbEllipse
 62
7
  6
CONTINUOUS
 10
13.9304130862
 20
45.811681619
 30
0.0
 11
0.3536610946
 21
0.3536610946
 31
0.0
 40
0.9996954599
 41
-0.7852458701
 42
0.7852458701
  0
ELLIPSE
  5
573
100
AcDbEntity
  8
RACCORDO
100
AcDbEllipse
 62
7
  6
CONTINUOUS
 10
-15.5624525598
 20
45.811681619
 30
0.0
 11
0.3536610946
 21
-0.3536610946
 31
0.0
 40
0.9996954599
 41
2.3563467834
 42
3.9268385237
  0
ELLIPSE
  5
574
100
AcDbEntity
  8
RACCORDO
100
AcDbEllipse
 62
7
  6
CONTINUOUS
 10
-15.5624525598
 20
3.018815973
 30
0.0
 11
0.3536610946
 21
0.3536610946
 31
0.0
 40
0.9996954599
 41
-3.9268385237
 42
-2.3563467834
  0
ELLIPSE
  5
575
100
AcDbEntity
  8
DRAFT
100
AcDbEllipse
 62
7
  6
CONTINUOUS
 10
-73.5729153064
 20
31.315248796
 30
0.0
 11
42.9543799244
 21
0.0
 31
0.0
 40
0.0349207695
 41
0.5856855435
 42
0.6461420562
  0
ELLIPSE
  5
576
100
AcDbEntity
  8
DRAFT
100
AcDbEllipse
 62
7
  6
CONTINUOUS
 10
-73.5729153064
 20
-11.684751204
 30
0.0
 11
42.9543799244
 21
0.0
 31
0.0
 40
0.0349207695
 41
-0.6461420562
 42
-0.5856855435
  0
ELLIPSE
  5
577
100
AcDbEntity
  8
DRAFT
100
AcDbEllipse
 62
7
  6
CONTINUOUS
 10
-73.5729153064
 20
16.315248796
 30
0.0
 11
42.9543799244
 21
0.0
 31
0.0
 40
0.0349207695
 41
0.5856855435
 42
0.6461420562
  0
ELLIPSE
  5
578
100
AcDbEntity
  8
DRAFT
100
AcDbEllipse
 62
7
  6
CONTINUOUS
 10
-73.5729153064
 20
-26.684751204
 30
0.0
 11
42.9543799244
 21
0.0
 31
0.0
 40
0.0349207695
 41
0.5856855435
 42
0.6461420562
  0
ELLIPSE
  5
579
100
AcDbEntity
  8
DRAFT
100
AcDbEllipse
 62
7
  6
CONTINUOUS
 10
-73.5729153064
 20
31.315248796
 30
0.0
 11
42.9543799244
 21
-0.0
 31
0.0
 40
0.0349207695
 41
-0.6461420562
 42
-0.5856855435
  0
ELLIPSE
  5
57A
100
AcDbEntity
  8
DRAFT
100
AcDbEllipse
 62
7
  6
CONTINUOUS
 10
-73.5729153064
 20
-11.684751204
 30
0.0
 11
42.9543799244
 21
0.0
 31
0.0
 40
0.0349207695
 41
0.5856855435
 42
0.6461420562
  0
ELLIPSE
  5
57B
100
AcDbEntity
  8
DRAFT
100
AcDbEllipse
 62
7
  6
CONTINUOUS
 10
-73.5729153064
 20
-26.684751204
 30
0.0
 11
42.9543799244
 21
-0.0
 31
0.0
 40
0.0349207695
 41
-0.6461420562
 42
-0.5856855435
  0
ELLIPSE
  5
57C
100
AcDbEntity
  8
DRAFT
100
AcDbEllipse
 62
7
  6
CONTINUOUS
 10
-73.5729153064
 20
16.315248796
 30
0.0
 11
42.9543799244
 21
-0.0
 31
0.0
 40
0.0349207695
 41
-0.6461420562
 42
-0.5856855435
  0
ENDSEC
  0
SECTION
  2
OBJECTS
  0
DICTIONARY
  5
C
100
AcDbDictionary
280
0
281
1
  3
ACAD_GROUP
350
D
  3
ACAD_MLINESTYLE
350
17
  3
ACAD_LAYOUT
350
1A
  3
ACAD_PLOTSETTINGS
350
19
  3
ACAD_PLOTSTYLENAME
350
E
  0
DICTIONARY
  5
D
102
{ACAD_REACTORS
330
C
102
}
100
AcDbDictionary
280
0
281
1
  0
ACDBDICTIONARYWDFLT
  5
E
102
{ACAD_REACTORS
330
C
102
}
100
AcDbDictionary
281
1
  3
Normal
350
F
100
AcDbDictionaryWithDefault
340
F
  0
DICTIONARY
  5
17
102
{ACAD_REACTORS
330
C
102
}
100
AcDbDictionary
280
0
281
1
  3
Standard
350
18
  0
DICTIONARY
  5
19
102
{ACAD_REACTORS
330
C
102
}
100
AcDbDictionary
281
1
  0
DICTIONARY
  5
1A
102
{ACAD_REACTORS
330
C
102
}
100
AcDbDictionary
281
1
  3
Model
350
57D
  3
Layout1
350
57E
  0
ACDBPLACEHOLDER
  5
F
102
{ACAD_REACTORS
330
E
102
}
  0
MLINESTYLE
  5
18
102
{ACAD_REACTORS
330
17
102
}
100
AcDbMlineStyle
  2
STANDARD
 70
0
  3

 62
256
 51
90.0
 52
90.0
 71
2
 49
0.5
 62
256
  6
BYLAYER
 49
-0.5
 62
256
  6
BYLAYER
  0
LAYOUT
  5
57D
102
{ACAD_REACTORS
330
1A
102
}
100
AcDbPlotSettings
  1

  2
none_device
  4

  6

 40
0.0
 41
0.0
 42
0.0
 43
0.0
 44
210.0
 45
297.0
 46
0.0
 47
0.0
 48
0.0
 49
0.0
140
0.0
141
0.0
142
1.0
143
1.0
 70
1024
 72
1
 73
0
 74
0
  7

 75
0
147
1.0
148
0.0
149
0.0
100
AcDbLayout
  1
Model
 70
0
 71
0
 10
0.0
 20
0.0
 11
210.0
 21
297.0
 12
0.0
 22
0.0
 32
0.0
 14
0.0
 24
0.0
 34
0.0
 15
0.0
 25
0.0
 35
0.0
146
0.0
 13
0.0
 23
0.0
 33
0.0
 16
1.0
 26
0.0
 36
0.0
 17
0.0
 27
1.0
 37
0.0
 76
0
330
32F
345
0
346
0
  0
LAYOUT
  5
57E
102
{ACAD_REACTORS
330
1A
102
}
100
AcDbPlotSettings
  1

  2
none_device
  4

  6

 40
0.0
 41
0.0
 42
0.0
 43
0.0
 44
210.0
 45
297.0
 46
0.0
 47
0.0
 48
0.0
 49
0.0
140
0.0
141
0.0
142
1.0
143
1.0
 70
0
 72
1
 73
0
 74
0
  7

 75
0
147
1.0
148
0.0
149
0.0
100
AcDbLayout
  1
Layout1
 70
0
 71
1
 10
0.0
 20
0.0
 11
210.0
 21
297.0
 12
0.0
 22
0.0
 32
0.0
 14
0.0
 24
0.0
 34
0.0
 15
0.0
 25
0.0
 35
0.0
146
0.0
 13
0.0
 23
0.0
 33
0.0
 16
1.0
 26
0.0
 36
0.0
 17
0.0
 27
1.0
 37
0.0
 76
0
330
330
345
0
346
0
  0
ENDSEC
  0
EOF
