  0
SECTION
  2
HEADER
  9
$ACADVER
  1
AC1024
  9
$DWGCODEPAGE
  3
ANSI_1252
  9
$EXTMAX
 10
210.0
 20
297.0
 30
0.0
  9
$EXTMIN
 10
0.0
 20
0.0
 30
0.0
  9
$LIMMIN
 10
0.0
 20
0.0
  9
$LIMMAX
 10
210.0
 20
297.0
  9
$VIEWCTR
 10
105.0
 20
148.5
  9
$VIEWSIZE
 40
297.0
  9
$CLAYER
  8
0
  9
$LTSCALE
 40
19.36
  9
$CELTYPE
  6
BYLAYER
  9
$DIMSCALE
 40
1.0
  9
$DIMASZ
 40
3.0
  9
$DIMEXO
 40
0.5
  9
$DIMDLI
 40
13.376
  9
$DIMEXE
 40
1.5
  9
$DIMCEN
 40
3.168
  9
$DIMLFAC
 40
1.0
  9
$DIMBLK
  1
_FILLED
  9
$DIMALT
 70
0
  9
$DIMALTF
 40
0.0393700787
  9
$DIMTXT
 40
3.0
  9
$DIMTOL
 70
1
  9
$DIMLIM
 70
0
  9
$DIMTFAC
 40
1.0
  9
$DIMTP
 40
0.01
  9
$DIMTM
 40
0.01
  9
$DIMGAP
 40
0.625
  9
$DIMDSEP
 70
44
  9
$AUNITS
 70
0
  9
$PDMODE
 70
3
  9
$PDSIZE
 40
3.0
  9
$HANDSEED
  5
53B
  9
$TILEMODE
 70
1
  9
$MEASUREMENT
 70
1
  9
$INSUNITS
 70
4
  0
ENDSEC
  0
SECTION
  2
CLASSES
  0
CLASS
  1
ACDBDICTIONARYWDFLT
  2
AcDbDictionaryWithDefault
  3
AutoCAD 2000
 90
0
 91
1
280
0
281
0
  0
CLASS
  1
ACDBPLACEHOLDER
  2
AcDbPlaceHolder
  3
AutoCAD 2000
 90
0
 91
1
280
0
281
0
  0
CLASS
  1
LAYOUT
  2
AcDbLayout
  3
AutoCAD 2000
 90
0
 91
0
280
0
281
0
  0
ENDSEC
  0
SECTION
  2
TABLES
  0
TABLE
  2
VPORT
  5
8
100
AcDbSymbolTable
 70
2
  0
VPORT
  5
1F4
100
AcDbSymbolTableRecord
100
AcDbViewportTableRecord
  2
*ACTIVE
 70
0
 10
0.0
 20
0.0
 11
1.0
 21
1.0
 12
105.0
 22
148.5
 13
0.0
 23
0.0
 14
1.0
 24
1.0
 15
0.0
 25
0.0
 16
0.0
 26
0.0
 36
1.0
 17
0.0
 27
0.0
 37
0.0
 40
297.0
 41
0.7070707071
 42
50.0
 43
0.0
 44
0.0
 50
0.0
 51
0.0
 71
0
 72
100
 73
1
 74
1
 75
0
 76
0
 77
0
 78
0
  0
ENDTAB
  0
TABLE
  2
LTYPE
  5
5
100
AcDbSymbolTable
 70
6
  0
LTYPE
  5
14
100
AcDbSymbolTableRecord
100
AcDbLinetypeTableRecord
  2
BYBLOCK
 70
0
  3

 72
65
 73
0
 40
0.0
  0
LTYPE
  5
15
100
AcDbSymbolTableRecord
100
AcDbLinetypeTableRecord
  2
BYLAYER
 70
0
  3

 72
65
 73
0
 40
0.0
  0
LTYPE
  5
16
100
AcDbSymbolTableRecord
100
AcDbLinetypeTableRecord
  2
CONTINUOUS
 70
64
  3
Solid line
 72
65
 73
0
 40
0.0
  0
LTYPE
  5
1F5
100
AcDbSymbolTableRecord
100
AcDbLinetypeTableRecord
  2
CENTER
 70
64
  3
____ _ ____ _ ____ _ ____ _ ____ _ ____ _ ____
 72
65
 73
4
 40
0.6
 49
0.375
 74
0
 49
-0.075
 74
0
 49
0.075
 74
0
 49
-0.075
 74
0
  0
LTYPE
  5
1F6
100
AcDbSymbolTableRecord
100
AcDbLinetypeTableRecord
  2
HIDDEN
 70
64
  3
- - - - - - - - - - - - - - - - - - - -
 72
65
 73
2
 40
0.2
 49
0.1
 74
0
 49
-0.1
 74
0
  0
LTYPE
  5
1F7
100
AcDbSymbolTableRecord
100
AcDbLinetypeTableRecord
  2
PHANTOM
 70
64
  3
_____ _ _ _____ _ _ _____ _ _ _____
 72
65
 73
6
 40
0.8
 49
0.45
 74
0
 49
-0.05
 74
0
 49
0.1
 74
0
 49
-0.05
 74
0
 49
0.1
 74
0
 49
-0.05
 74
0
  0
LTYPE
  5
1F8
100
AcDbSymbolTableRecord
100
AcDbLinetypeTableRecord
  2
DOT
 70
64
  3
. . . . . . . . . . . . . . . . . . . .
 72
65
 73
2
 40
0.2
 49
0.1
 74
0
 49
-0.1
 74
0
  0
LTYPE
  5
1F9
100
AcDbSymbolTableRecord
100
AcDbLinetypeTableRecord
  2
DASHED
 70
64
  3
- - - - - - - - - - - - - - - - - - - -
 72
65
 73
2
 40
0.2
 49
0.1
 74
0
 49
-0.1
 74
0
  0
ENDTAB
  0
TABLE
  2
LAYER
  5
2
100
AcDbSymbolTable
 70
36
  0
LAYER
  5
10
100
AcDbSymbolTableRecord
100
AcDbLayerTableRecord
  2
0
 70
0
 62
7
  6
CONTINUOUS
370
-3
390
F
  0
LAYER
  5
1FA
100
AcDbSymbolTableRecord
100
AcDbLayerTableRecord
  2
DEFAULT_1
 70
0
 62
7
  6
CENTER
370
-3
390
F
  0
LAYER
  5
1FB
100
AcDbSymbolTableRecord
100
AcDbLayerTableRecord
  2
DEFAULT_2
 70
0
 62
7
  6
HIDDEN
370
-3
390
F
  0
LAYER
  5
1FC
100
AcDbSymbolTableRecord
100
AcDbLayerTableRecord
  2
DEFAULT_3
 70
0
 62
7
  6
PHANTOM
370
-3
390
F
  0
LAYER
  5
1FD
100
AcDbSymbolTableRecord
100
AcDbLayerTableRecord
  2
0402_C_REF_70000
 70
0
 62
7
  6
CONTINUOUS
370
-3
390
F
  0
LAYER
  5
1FE
100
AcDbSymbolTableRecord
100
AcDbLayerTableRecord
  2
0402_C_REF_70000_1
 70
0
 62
7
  6
CONTINUOUS
370
-3
390
F
  0
LAYER
  5
1FF
100
AcDbSymbolTableRecord
100
AcDbLayerTableRecord
  2
0402_C_REF_70000_10
 70
0
 62
7
  6
CONTINUOUS
370
-3
390
F
  0
LAYER
  5
200
100
AcDbSymbolTableRecord
100
AcDbLayerTableRecord
  2
0402_C_REF_70000_11
 70
0
 62
7
  6
CONTINUOUS
370
-3
390
F
  0
LAYER
  5
201
100
AcDbSymbolTableRecord
100
AcDbLayerTableRecord
  2
0402_C_REF_70000_12
 70
0
 62
7
  6
CONTINUOUS
370
-3
390
F
  0
LAYER
  5
202
100
AcDbSymbolTableRecord
100
AcDbLayerTableRecord
  2
0402_C_REF_70000_13
 70
0
 62
7
  6
CONTINUOUS
370
-3
390
F
  0
LAYER
  5
203
100
AcDbSymbolTableRecord
100
AcDbLayerTableRecord
  2
0402_C_REF_70000_14
 70
0
 62
7
  6
CONTINUOUS
370
-3
390
F
  0
LAYER
  5
204
100
AcDbSymbolTableRecord
100
AcDbLayerTableRecord
  2
0402_C_REF_70000_15
 70
0
 62
7
  6
CONTINUOUS
370
-3
390
F
  0
LAYER
  5
205
100
AcDbSymbolTableRecord
100
AcDbLayerTableRecord
  2
0402_C_REF_70000_16
 70
0
 62
7
  6
CONTINUOUS
370
-3
390
F
  0
LAYER
  5
206
100
AcDbSymbolTableRecord
100
AcDbLayerTableRecord
  2
0402_C_REF_70000_17
 70
0
 62
7
  6
CONTINUOUS
370
-3
390
F
  0
LAYER
  5
207
100
AcDbSymbolTableRecord
100
AcDbLayerTableRecord
  2
0402_C_REF_70000_18
 70
0
 62
7
  6
CONTINUOUS
370
-3
390
F
  0
LAYER
  5
208
100
AcDbSymbolTableRecord
100
AcDbLayerTableRecord
  2
0402_C_REF_70000_19
 70
0
 62
7
  6
CONTINUOUS
370
-3
390
F
  0
LAYER
  5
209
100
AcDbSymbolTableRecord
100
AcDbLayerTableRecord
  2
0402_C_REF_70000_2
 70
0
 62
7
  6
CONTINUOUS
370
-3
390
F
  0
LAYER
  5
20A
100
AcDbSymbolTableRecord
100
AcDbLayerTableRecord
  2
0402_C_REF_70000_20
 70
0
 62
7
  6
CONTINUOUS
370
-3
390
F
  0
LAYER
  5
20B
100
AcDbSymbolTableRecord
100
AcDbLayerTableRecord
  2
0402_C_REF_70000_21
 70
0
 62
7
  6
CONTINUOUS
370
-3
390
F
  0
LAYER
  5
20C
100
AcDbSymbolTableRecord
100
AcDbLayerTableRecord
  2
0402_C_REF_70000_22
 70
0
 62
7
  6
CONTINUOUS
370
-3
390
F
  0
LAYER
  5
20D
100
AcDbSymbolTableRecord
100
AcDbLayerTableRecord
  2
0402_C_REF_70000_23
 70
0
 62
7
  6
CONTINUOUS
370
-3
390
F
  0
LAYER
  5
20E
100
AcDbSymbolTableRecord
100
AcDbLayerTableRecord
  2
0402_C_REF_70000_24
 70
0
 62
7
  6
CONTINUOUS
370
-3
390
F
  0
LAYER
  5
20F
100
AcDbSymbolTableRecord
100
AcDbLayerTableRecord
  2
0402_C_REF_70000_25
 70
0
 62
7
  6
CONTINUOUS
370
-3
390
F
  0
LAYER
  5
210
100
AcDbSymbolTableRecord
100
AcDbLayerTableRecord
  2
0402_C_REF_70000_26
 70
0
 62
7
  6
CONTINUOUS
370
-3
390
F
  0
LAYER
  5
211
100
AcDbSymbolTableRecord
100
AcDbLayerTableRecord
  2
0402_C_REF_70000_27
 70
0
 62
7
  6
CONTINUOUS
370
-3
390
F
  0
LAYER
  5
212
100
AcDbSymbolTableRecord
100
AcDbLayerTableRecord
  2
0402_C_REF_70000_28
 70
0
 62
7
  6
CONTINUOUS
370
-3
390
F
  0
LAYER
  5
213
100
AcDbSymbolTableRecord
100
AcDbLayerTableRecord
  2
0402_C_REF_70000_29
 70
0
 62
7
  6
CONTINUOUS
370
-3
390
F
  0
LAYER
  5
214
100
AcDbSymbolTableRecord
100
AcDbLayerTableRecord
  2
0402_C_REF_70000_3
 70
0
 62
7
  6
CONTINUOUS
370
-3
390
F
  0
LAYER
  5
215
100
AcDbSymbolTableRecord
100
AcDbLayerTableRecord
  2
0402_C_REF_70000_30
 70
0
 62
7
  6
CONTINUOUS
370
-3
390
F
  0
LAYER
  5
216
100
AcDbSymbolTableRecord
100
AcDbLayerTableRecord
  2
0402_C_REF_70000_31
 70
0
 62
7
  6
CONTINUOUS
370
-3
390
F
  0
LAYER
  5
217
100
AcDbSymbolTableRecord
100
AcDbLayerTableRecord
  2
0402_C_REF_70000_32
 70
0
 62
7
  6
CONTINUOUS
370
-3
390
F
  0
LAYER
  5
218
100
AcDbSymbolTableRecord
100
AcDbLayerTableRecord
  2
0402_C_REF_70000_33
 70
0
 62
7
  6
CONTINUOUS
370
-3
390
F
  0
LAYER
  5
219
100
AcDbSymbolTableRecord
100
AcDbLayerTableRecord
  2
0402_C_REF_70000_34
 70
0
 62
7
  6
CONTINUOUS
370
-3
390
F
  0
LAYER
  5
21A
100
AcDbSymbolTableRecord
100
AcDbLayerTableRecord
  2
0402_C_REF_70000_35
 70
0
 62
7
  6
CONTINUOUS
370
-3
390
F
  0
LAYER
  5
21B
100
AcDbSymbolTableRecord
100
AcDbLayerTableRecord
  2
0402_C_REF_70000_36
 70
0
 62
7
  6
CONTINUOUS
370
-3
390
F
  0
LAYER
  5
21C
100
AcDbSymbolTableRecord
100
AcDbLayerTableRecord
  2
0402_C_REF_70000_37
 70
0
 62
7
  6
CONTINUOUS
370
-3
390
F
  0
LAYER
  5
21D
100
AcDbSymbolTableRecord
100
AcDbLayerTableRecord
  2
0402_C_REF_70000_38
 70
0
 62
7
  6
CONTINUOUS
370
-3
390
F
  0
LAYER
  5
21E
100
AcDbSymbolTableRecord
100
AcDbLayerTableRecord
  2
0402_C_REF_70000_39
 70
0
 62
7
  6
CONTINUOUS
370
-3
390
F
  0
LAYER
  5
21F
100
AcDbSymbolTableRecord
100
AcDbLayerTableRecord
  2
0402_C_REF_70000_4
 70
0
 62
7
  6
CONTINUOUS
370
-3
390
F
  0
LAYER
  5
220
100
AcDbSymbolTableRecord
100
AcDbLayerTableRecord
  2
0402_C_REF_70000_40
 70
0
 62
7
  6
CONTINUOUS
370
-3
390
F
  0
LAYER
  5
221
100
AcDbSymbolTableRecord
100
AcDbLayerTableRecord
  2
0402_C_REF_70000_41
 70
0
 62
7
  6
CONTINUOUS
370
-3
390
F
  0
LAYER
  5
222
100
AcDbSymbolTableRecord
100
AcDbLayerTableRecord
  2
0402_C_REF_70000_42
 70
0
 62
7
  6
CONTINUOUS
370
-3
390
F
  0
LAYER
  5
223
100
AcDbSymbolTableRecord
100
AcDbLayerTableRecord
  2
0402_C_REF_70000_43
 70
0
 62
7
  6
CONTINUOUS
370
-3
390
F
  0
LAYER
  5
224
100
AcDbSymbolTableRecord
100
AcDbLayerTableRecord
  2
0402_C_REF_70000_44
 70
0
 62
7
  6
CONTINUOUS
370
-3
390
F
  0
LAYER
  5
225
100
AcDbSymbolTableRecord
100
AcDbLayerTableRecord
  2
0402_C_REF_70000_5
 70
0
 62
7
  6
CONTINUOUS
370
-3
390
F
  0
LAYER
  5
226
100
AcDbSymbolTableRecord
100
AcDbLayerTableRecord
  2
0402_C_REF_70000_6
 70
0
 62
7
  6
CONTINUOUS
370
-3
390
F
  0
LAYER
  5
227
100
AcDbSymbolTableRecord
100
AcDbLayerTableRecord
  2
0402_C_REF_70000_7
 70
0
 62
7
  6
CONTINUOUS
370
-3
390
F
  0
LAYER
  5
228
100
AcDbSymbolTableRecord
100
AcDbLayerTableRecord
  2
0402_C_REF_70000_8
 70
0
 62
7
  6
CONTINUOUS
370
-3
390
F
  0
LAYER
  5
229
100
AcDbSymbolTableRecord
100
AcDbLayerTableRecord
  2
0402_C_REF_70000_9
 70
0
 62
7
  6
CONTINUOUS
370
-3
390
F
  0
LAYER
  5
22A
100
AcDbSymbolTableRecord
100
AcDbLayerTableRecord
  2
0402_R_REF_30000
 70
0
 62
7
  6
CONTINUOUS
370
-3
390
F
  0
LAYER
  5
22B
100
AcDbSymbolTableRecord
100
AcDbLayerTableRecord
  2
0402_R_REF_30000_1
 70
0
 62
7
  6
CONTINUOUS
370
-3
390
F
  0
LAYER
  5
22C
100
AcDbSymbolTableRecord
100
AcDbLayerTableRecord
  2
0402_R_REF_30000_10
 70
0
 62
7
  6
CONTINUOUS
370
-3
390
F
  0
LAYER
  5
22D
100
AcDbSymbolTableRecord
100
AcDbLayerTableRecord
  2
0402_R_REF_30000_11
 70
0
 62
7
  6
CONTINUOUS
370
-3
390
F
  0
LAYER
  5
22E
100
AcDbSymbolTableRecord
100
AcDbLayerTableRecord
  2
0402_R_REF_30000_12
 70
0
 62
7
  6
CONTINUOUS
370
-3
390
F
  0
LAYER
  5
22F
100
AcDbSymbolTableRecord
100
AcDbLayerTableRecord
  2
0402_R_REF_30000_13
 70
0
 62
7
  6
CONTINUOUS
370
-3
390
F
  0
LAYER
  5
230
100
AcDbSymbolTableRecord
100
AcDbLayerTableRecord
  2
0402_R_REF_30000_14
 70
0
 62
7
  6
CONTINUOUS
370
-3
390
F
  0
LAYER
  5
231
100
AcDbSymbolTableRecord
100
AcDbLayerTableRecord
  2
0402_R_REF_30000_15
 70
0
 62
7
  6
CONTINUOUS
370
-3
390
F
  0
LAYER
  5
232
100
AcDbSymbolTableRecord
100
AcDbLayerTableRecord
  2
0402_R_REF_30000_16
 70
0
 62
7
  6
CONTINUOUS
370
-3
390
F
  0
LAYER
  5
233
100
AcDbSymbolTableRecord
100
AcDbLayerTableRecord
  2
0402_R_REF_30000_17
 70
0
 62
7
  6
CONTINUOUS
370
-3
390
F
  0
LAYER
  5
234
100
AcDbSymbolTableRecord
100
AcDbLayerTableRecord
  2
0402_R_REF_30000_18
 70
0
 62
7
  6
CONTINUOUS
370
-3
390
F
  0
LAYER
  5
235
100
AcDbSymbolTableRecord
100
AcDbLayerTableRecord
  2
0402_R_REF_30000_19
 70
0
 62
7
  6
CONTINUOUS
370
-3
390
F
  0
LAYER
  5
236
100
AcDbSymbolTableRecord
100
AcDbLayerTableRecord
  2
0402_R_REF_30000_2
 70
0
 62
7
  6
CONTINUOUS
370
-3
390
F
  0
LAYER
  5
237
100
AcDbSymbolTableRecord
100
AcDbLayerTableRecord
  2
0402_R_REF_30000_20
 70
0
 62
7
  6
CONTINUOUS
370
-3
390
F
  0
LAYER
  5
238
100
AcDbSymbolTableRecord
100
AcDbLayerTableRecord
  2
0402_R_REF_30000_21
 70
0
 62
7
  6
CONTINUOUS
370
-3
390
F
  0
LAYER
  5
239
100
AcDbSymbolTableRecord
100
AcDbLayerTableRecord
  2
0402_R_REF_30000_22
 70
0
 62
7
  6
CONTINUOUS
370
-3
390
F
  0
LAYER
  5
23A
100
AcDbSymbolTableRecord
100
AcDbLayerTableRecord
  2
0402_R_REF_30000_23
 70
0
 62
7
  6
CONTINUOUS
370
-3
390
F
  0
LAYER
  5
23B
100
AcDbSymbolTableRecord
100
AcDbLayerTableRecord
  2
0402_R_REF_30000_24
 70
0
 62
7
  6
CONTINUOUS
370
-3
390
F
  0
LAYER
  5
23C
100
AcDbSymbolTableRecord
100
AcDbLayerTableRecord
  2
0402_R_REF_30000_25
 70
0
 62
7
  6
CONTINUOUS
370
-3
390
F
  0
LAYER
  5
23D
100
AcDbSymbolTableRecord
100
AcDbLayerTableRecord
  2
0402_R_REF_30000_26
 70
0
 62
7
  6
CONTINUOUS
370
-3
390
F
  0
LAYER
  5
23E
100
AcDbSymbolTableRecord
100
AcDbLayerTableRecord
  2
0402_R_REF_30000_27
 70
0
 62
7
  6
CONTINUOUS
370
-3
390
F
  0
LAYER
  5
23F
100
AcDbSymbolTableRecord
100
AcDbLayerTableRecord
  2
0402_R_REF_30000_28
 70
0
 62
7
  6
CONTINUOUS
370
-3
390
F
  0
LAYER
  5
240
100
AcDbSymbolTableRecord
100
AcDbLayerTableRecord
  2
0402_R_REF_30000_29
 70
0
 62
7
  6
CONTINUOUS
370
-3
390
F
  0
LAYER
  5
241
100
AcDbSymbolTableRecord
100
AcDbLayerTableRecord
  2
0402_R_REF_30000_3
 70
0
 62
7
  6
CONTINUOUS
370
-3
390
F
  0
LAYER
  5
242
100
AcDbSymbolTableRecord
100
AcDbLayerTableRecord
  2
0402_R_REF_30000_30
 70
0
 62
7
  6
CONTINUOUS
370
-3
390
F
  0
LAYER
  5
243
100
AcDbSymbolTableRecord
100
AcDbLayerTableRecord
  2
0402_R_REF_30000_31
 70
0
 62
7
  6
CONTINUOUS
370
-3
390
F
  0
LAYER
  5
244
100
AcDbSymbolTableRecord
100
AcDbLayerTableRecord
  2
0402_R_REF_30000_32
 70
0
 62
7
  6
CONTINUOUS
370
-3
390
F
  0
LAYER
  5
245
100
AcDbSymbolTableRecord
100
AcDbLayerTableRecord
  2
0402_R_REF_30000_33
 70
0
 62
7
  6
CONTINUOUS
370
-3
390
F
  0
LAYER
  5
246
100
AcDbSymbolTableRecord
100
AcDbLayerTableRecord
  2
0402_R_REF_30000_34
 70
0
 62
7
  6
CONTINUOUS
370
-3
390
F
  0
LAYER
  5
247
100
AcDbSymbolTableRecord
100
AcDbLayerTableRecord
  2
0402_R_REF_30000_35
 70
0
 62
7
  6
CONTINUOUS
370
-3
390
F
  0
LAYER
  5
248
100
AcDbSymbolTableRecord
100
AcDbLayerTableRecord
  2
0402_R_REF_30000_36
 70
0
 62
7
  6
CONTINUOUS
370
-3
390
F
  0
LAYER
  5
249
100
AcDbSymbolTableRecord
100
AcDbLayerTableRecord
  2
0402_R_REF_30000_37
 70
0
 62
7
  6
CONTINUOUS
370
-3
390
F
  0
LAYER
  5
24A
100
AcDbSymbolTableRecord
100
AcDbLayerTableRecord
  2
0402_R_REF_30000_38
 70
0
 62
7
  6
CONTINUOUS
370
-3
390
F
  0
LAYER
  5
24B
100
AcDbSymbolTableRecord
100
AcDbLayerTableRecord
  2
0402_R_REF_30000_39
 70
0
 62
7
  6
CONTINUOUS
370
-3
390
F
  0
LAYER
  5
24C
100
AcDbSymbolTableRecord
100
AcDbLayerTableRecord
  2
0402_R_REF_30000_4
 70
0
 62
7
  6
CONTINUOUS
370
-3
390
F
  0
LAYER
  5
24D
100
AcDbSymbolTableRecord
100
AcDbLayerTableRecord
  2
0402_R_REF_30000_40
 70
0
 62
7
  6
CONTINUOUS
370
-3
390
F
  0
LAYER
  5
24E
100
AcDbSymbolTableRecord
100
AcDbLayerTableRecord
  2
0402_R_REF_30000_41
 70
0
 62
7
  6
CONTINUOUS
370
-3
390
F
  0
LAYER
  5
24F
100
AcDbSymbolTableRecord
100
AcDbLayerTableRecord
  2
0402_R_REF_30000_42
 70
0
 62
7
  6
CONTINUOUS
370
-3
390
F
  0
LAYER
  5
250
100
AcDbSymbolTableRecord
100
AcDbLayerTableRecord
  2
0402_R_REF_30000_43
 70
0
 62
7
  6
CONTINUOUS
370
-3
390
F
  0
LAYER
  5
251
100
AcDbSymbolTableRecord
100
AcDbLayerTableRecord
  2
0402_R_REF_30000_44
 70
0
 62
7
  6
CONTINUOUS
370
-3
390
F
  0
LAYER
  5
252
100
AcDbSymbolTableRecord
100
AcDbLayerTableRecord
  2
0402_R_REF_30000_45
 70
0
 62
7
  6
CONTINUOUS
370
-3
390
F
  0
LAYER
  5
253
100
AcDbSymbolTableRecord
100
AcDbLayerTableRecord
  2
0402_R_REF_30000_46
 70
0
 62
7
  6
CONTINUOUS
370
-3
390
F
  0
LAYER
  5
254
100
AcDbSymbolTableRecord
100
AcDbLayerTableRecord
  2
0402_R_REF_30000_47
 70
0
 62
7
  6
CONTINUOUS
370
-3
390
F
  0
LAYER
  5
255
100
AcDbSymbolTableRecord
100
AcDbLayerTableRecord
  2
0402_R_REF_30000_48
 70
0
 62
7
  6
CONTINUOUS
370
-3
390
F
  0
LAYER
  5
256
100
AcDbSymbolTableRecord
100
AcDbLayerTableRecord
  2
0402_R_REF_30000_5
 70
0
 62
7
  6
CONTINUOUS
370
-3
390
F
  0
LAYER
  5
257
100
AcDbSymbolTableRecord
100
AcDbLayerTableRecord
  2
0402_R_REF_30000_6
 70
0
 62
7
  6
CONTINUOUS
370
-3
390
F
  0
LAYER
  5
258
100
AcDbSymbolTableRecord
100
AcDbLayerTableRecord
  2
0402_R_REF_30000_7
 70
0
 62
7
  6
CONTINUOUS
370
-3
390
F
  0
LAYER
  5
259
100
AcDbSymbolTableRecord
100
AcDbLayerTableRecord
  2
0402_R_REF_30000_8
 70
0
 62
7
  6
CONTINUOUS
370
-3
390
F
  0
LAYER
  5
25A
100
AcDbSymbolTableRecord
100
AcDbLayerTableRecord
  2
0402_R_REF_30000_9
 70
0
 62
7
  6
CONTINUOUS
370
-3
390
F
  0
LAYER
  5
25B
100
AcDbSymbolTableRecord
100
AcDbLayerTableRecord
  2
0603_C_REF_90000
 70
0
 62
7
  6
CONTINUOUS
370
-3
390
F
  0
LAYER
  5
25C
100
AcDbSymbolTableRecord
100
AcDbLayerTableRecord
  2
0603_C_REF_90000_1
 70
0
 62
7
  6
CONTINUOUS
370
-3
390
F
  0
LAYER
  5
25D
100
AcDbSymbolTableRecord
100
AcDbLayerTableRecord
  2
0603_C_REF_90000_2
 70
0
 62
7
  6
CONTINUOUS
370
-3
390
F
  0
LAYER
  5
25E
100
AcDbSymbolTableRecord
100
AcDbLayerTableRecord
  2
0603_C_REF_90000_3
 70
0
 62
7
  6
CONTINUOUS
370
-3
390
F
  0
LAYER
  5
25F
100
AcDbSymbolTableRecord
100
AcDbLayerTableRecord
  2
0603_R_REF_55000
 70
0
 62
7
  6
CONTINUOUS
370
-3
390
F
  0
LAYER
  5
260
100
AcDbSymbolTableRecord
100
AcDbLayerTableRecord
  2
0603_R_REF_55000_1
 70
0
 62
7
  6
CONTINUOUS
370
-3
390
F
  0
LAYER
  5
261
100
AcDbSymbolTableRecord
100
AcDbLayerTableRecord
  2
0603_R_REF_55000_2
 70
0
 62
7
  6
CONTINUOUS
370
-3
390
F
  0
LAYER
  5
262
100
AcDbSymbolTableRecord
100
AcDbLayerTableRecord
  2
0603_R_REF_55000_3
 70
0
 62
7
  6
CONTINUOUS
370
-3
390
F
  0
LAYER
  5
263
100
AcDbSymbolTableRecord
100
AcDbLayerTableRecord
  2
0603_R_REF_55000_4
 70
0
 62
7
  6
CONTINUOUS
370
-3
390
F
  0
LAYER
  5
264
100
AcDbSymbolTableRecord
100
AcDbLayerTableRecord
  2
0603_R_REF_55000_5
 70
0
 62
7
  6
CONTINUOUS
370
-3
390
F
  0
LAYER
  5
265
100
AcDbSymbolTableRecord
100
AcDbLayerTableRecord
  2
0603_R_REF_55000_6
 70
0
 62
7
  6
CONTINUOUS
370
-3
390
F
  0
LAYER
  5
266
100
AcDbSymbolTableRecord
100
AcDbLayerTableRecord
  2
06___PRT_ALL_SURFS
 70
0
 62
7
  6
CONTINUOUS
370
-3
390
F
  0
LAYER
  5
267
100
AcDbSymbolTableRecord
100
AcDbLayerTableRecord
  2
06___PRT_ALL_SURFS_1
 70
0
 62
7
  6
CONTINUOUS
370
-3
390
F
  0
LAYER
  5
268
100
AcDbSymbolTableRecord
100
AcDbLayerTableRecord
  2
06___PRT_ALL_SURFS_13
 70
0
 62
7
  6
CONTINUOUS
370
-3
390
F
  0
LAYER
  5
269
100
AcDbSymbolTableRecord
100
AcDbLayerTableRecord
  2
06___PRT_ALL_SURFS_15
 70
0
 62
7
  6
CONTINUOUS
370
-3
390
F
  0
LAYER
  5
26A
100
AcDbSymbolTableRecord
100
AcDbLayerTableRecord
  2
06___PRT_ALL_SURFS_19
 70
0
 62
7
  6
CONTINUOUS
370
-3
390
F
  0
LAYER
  5
26B
100
AcDbSymbolTableRecord
100
AcDbLayerTableRecord
  2
06___PRT_ALL_SURFS_2
 70
0
 62
7
  6
CONTINUOUS
370
-3
390
F
  0
LAYER
  5
26C
100
AcDbSymbolTableRecord
100
AcDbLayerTableRecord
  2
06___PRT_ALL_SURFS_3
 70
0
 62
7
  6
CONTINUOUS
370
-3
390
F
  0
LAYER
  5
26D
100
AcDbSymbolTableRecord
100
AcDbLayerTableRecord
  2
06___PRT_ALL_SURFS_4
 70
0
 62
7
  6
CONTINUOUS
370
-3
390
F
  0
LAYER
  5
26E
100
AcDbSymbolTableRecord
100
AcDbLayerTableRecord
  2
06___PRT_ALL_SURFS_6
 70
0
 62
7
  6
CONTINUOUS
370
-3
390
F
  0
LAYER
  5
26F
100
AcDbSymbolTableRecord
100
AcDbLayerTableRecord
  2
06___PRT_ALL_SURFS_7
 70
0
 62
7
  6
CONTINUOUS
370
-3
390
F
  0
LAYER
  5
270
100
AcDbSymbolTableRecord
100
AcDbLayerTableRecord
  2
06___PRT_ALL_SURFS_9
 70
0
 62
7
  6
CONTINUOUS
370
-3
390
F
  0
LAYER
  5
271
100
AcDbSymbolTableRecord
100
AcDbLayerTableRecord
  2
0805_C_REF_145000
 70
0
 62
7
  6
CONTINUOUS
370
-3
390
F
  0
LAYER
  5
272
100
AcDbSymbolTableRecord
100
AcDbLayerTableRecord
  2
0805_C_REF_145000_1
 70
0
 62
7
  6
CONTINUOUS
370
-3
390
F
  0
LAYER
  5
273
100
AcDbSymbolTableRecord
100
AcDbLayerTableRecord
  2
1206_C_REF_180000
 70
0
 62
7
  6
CONTINUOUS
370
-3
390
F
  0
LAYER
  5
274
100
AcDbSymbolTableRecord
100
AcDbLayerTableRecord
  2
1206_C_REF_180000_1
 70
0
 62
7
  6
CONTINUOUS
370
-3
390
F
  0
LAYER
  5
275
100
AcDbSymbolTableRecord
100
AcDbLayerTableRecord
  2
1206_C_REF_180000_2
 70
0
 62
7
  6
CONTINUOUS
370
-3
390
F
  0
LAYER
  5
276
100
AcDbSymbolTableRecord
100
AcDbLayerTableRecord
  2
43001044A0
 70
0
 62
7
  6
CONTINUOUS
370
-3
390
F
  0
LAYER
  5
277
100
AcDbSymbolTableRecord
100
AcDbLayerTableRecord
  2
43901044CX
 70
0
 62
7
  6
CONTINUOUS
370
-3
390
F
  0
LAYER
  5
278
100
AcDbSymbolTableRecord
100
AcDbLayerTableRecord
  2
ASSI
 70
0
 62
7
  6
CONTINUOUS
370
-3
390
F
  0
LAYER
  5
279
100
AcDbSymbolTableRecord
100
AcDbLayerTableRecord
  2
CAP-T-SMD-CASE-A_160000
 70
0
 62
7
  6
CONTINUOUS
370
-3
390
F
  0
LAYER
  5
27A
100
AcDbSymbolTableRecord
100
AcDbLayerTableRecord
  2
CAP-T-SMD-CASE-A_160000_1
 70
0
 62
7
  6
CONTINUOUS
370
-3
390
F
  0
LAYER
  5
27B
100
AcDbSymbolTableRecord
100
AcDbLayerTableRecord
  2
COLOR16
 70
0
 62
7
  6
CONTINUOUS
370
-3
390
F
  0
LAYER
  5
27C
100
AcDbSymbolTableRecord
100
AcDbLayerTableRecord
  2
COLOR208
 70
0
 62
7
  6
CONTINUOUS
370
-3
390
F
  0
LAYER
  5
27D
100
AcDbSymbolTableRecord
100
AcDbLayerTableRecord
  2
COLOR211
 70
0
 62
7
  6
CONTINUOUS
370
-3
390
F
  0
LAYER
  5
27E
100
AcDbSymbolTableRecord
100
AcDbLayerTableRecord
  2
COLOR214
 70
0
 62
7
  6
CONTINUOUS
370
-3
390
F
  0
LAYER
  5
27F
100
AcDbSymbolTableRecord
100
AcDbLayerTableRecord
  2
COLOR216
 70
0
 62
7
  6
CONTINUOUS
370
-3
390
F
  0
LAYER
  5
280
100
AcDbSymbolTableRecord
100
AcDbLayerTableRecord
  2
COLOR217
 70
0
 62
7
  6
CONTINUOUS
370
-3
390
F
  0
LAYER
  5
281
100
AcDbSymbolTableRecord
100
AcDbLayerTableRecord
  2
COLOR219
 70
0
 62
7
  6
CONTINUOUS
370
-3
390
F
  0
LAYER
  5
282
100
AcDbSymbolTableRecord
100
AcDbLayerTableRecord
  2
COLOR264
 70
0
 62
7
  6
CONTINUOUS
370
-3
390
F
  0
LAYER
  5
283
100
AcDbSymbolTableRecord
100
AcDbLayerTableRecord
  2
COLOR270
 70
0
 62
7
  6
CONTINUOUS
370
-3
390
F
  0
LAYER
  5
284
100
AcDbSymbolTableRecord
100
AcDbLayerTableRecord
  2
COLOR272
 70
0
 62
7
  6
CONTINUOUS
370
-3
390
F
  0
LAYER
  5
285
100
AcDbSymbolTableRecord
100
AcDbLayerTableRecord
  2
COLOR6
 70
0
 62
7
  6
CONTINUOUS
370
-3
390
F
  0
LAYER
  5
286
100
AcDbSymbolTableRecord
100
AcDbLayerTableRecord
  2
COLOR63
 70
0
 62
7
  6
CONTINUOUS
370
-3
390
F
  0
LAYER
  5
287
100
AcDbSymbolTableRecord
100
AcDbLayerTableRecord
  2
COLOR64
 70
0
 62
7
  6
CONTINUOUS
370
-3
390
F
  0
LAYER
  5
288
100
AcDbSymbolTableRecord
100
AcDbLayerTableRecord
  2
COLOR66
 70
0
 62
7
  6
CONTINUOUS
370
-3
390
F
  0
LAYER
  5
289
100
AcDbSymbolTableRecord
100
AcDbLayerTableRecord
  2
COLOR67
 70
0
 62
7
  6
CONTINUOUS
370
-3
390
F
  0
LAYER
  5
28A
100
AcDbSymbolTableRecord
100
AcDbLayerTableRecord
  2
COORDINATE
 70
0
 62
7
  6
CONTINUOUS
370
-3
390
F
  0
LAYER
  5
28B
100
AcDbSymbolTableRecord
100
AcDbLayerTableRecord
  2
COPY_PUBLISH
 70
0
 62
7
  6
CONTINUOUS
370
-3
390
F
  0
LAYER
  5
28C
100
AcDbSymbolTableRecord
100
AcDbLayerTableRecord
  2
COSMETICI
 70
0
 62
7
  6
CONTINUOUS
370
-3
390
F
  0
LAYER
  5
28D
100
AcDbSymbolTableRecord
100
AcDbLayerTableRecord
  2
CR_SWITCH_KMS231GPLFS__142000
 70
0
 62
7
  6
CONTINUOUS
370
-3
390
F
  0
LAYER
  5
28E
100
AcDbSymbolTableRecord
100
AcDbLayerTableRecord
  2
CURVE
 70
0
 62
7
  6
CONTINUOUS
370
-3
390
F
  0
LAYER
  5
28F
100
AcDbSymbolTableRecord
100
AcDbLayerTableRecord
  2
DRAFT
 70
0
 62
7
  6
CONTINUOUS
370
-3
390
F
  0
LAYER
  5
290
100
AcDbSymbolTableRecord
100
AcDbLayerTableRecord
  2
GEOMETRIA_SOLIDA
 70
0
 62
7
  6
CONTINUOUS
370
-3
390
F
  0
LAYER
  5
291
100
AcDbSymbolTableRecord
100
AcDbLayerTableRecord
  2
GEOMETRIA_SOLIDA_1
 70
0
 62
7
  6
CONTINUOUS
370
-3
390
F
  0
LAYER
  5
292
100
AcDbSymbolTableRecord
100
AcDbLayerTableRecord
  2
GEOMETRIA_SOLIDA_2
 70
0
 62
7
  6
CONTINUOUS
370
-3
390
F
  0
LAYER
  5
293
100
AcDbSymbolTableRecord
100
AcDbLayerTableRecord
  2
GEOMETRIA_SOLIDA_3
 70
0
 62
7
  6
CONTINUOUS
370
-3
390
F
  0
LAYER
  5
294
100
AcDbSymbolTableRecord
100
AcDbLayerTableRecord
  2
GEOMETRIA_SOLIDA_4
 70
0
 62
7
  6
CONTINUOUS
370
-3
390
F
  0
LAYER
  5
295
100
AcDbSymbolTableRecord
100
AcDbLayerTableRecord
  2
GEOMETRIA_SOLIDA_5
 70
0
 62
7
  6
CONTINUOUS
370
-3
390
F
  0
LAYER
  5
296
100
AcDbSymbolTableRecord
100
AcDbLayerTableRecord
  2
GEOMETRIA_SOLIDA_6
 70
0
 62
7
  6
CONTINUOUS
370
-3
390
F
  0
LAYER
  5
297
100
AcDbSymbolTableRecord
100
AcDbLayerTableRecord
  2
GEOMETRIA_SOLIDA_7
 70
0
 62
7
  6
CONTINUOUS
370
-3
390
F
  0
LAYER
  5
298
100
AcDbSymbolTableRecord
100
AcDbLayerTableRecord
  2
GEOMETRIA_SOLIDA_8
 70
0
 62
7
  6
CONTINUOUS
370
-3
390
F
  0
LAYER
  5
299
100
AcDbSymbolTableRecord
100
AcDbLayerTableRecord
  2
GEOMETRIA_SOLIDA_9
 70
0
 62
7
  6
CONTINUOUS
370
-3
390
F
  0
LAYER
  5
29A
100
AcDbSymbolTableRecord
100
AcDbLayerTableRecord
  2
IMPORT_IGES
 70
0
 62
7
  6
CONTINUOUS
370
-3
390
F
  0
LAYER
  5
29B
100
AcDbSymbolTableRecord
100
AcDbLayerTableRecord
  2
INTF_1
 70
0
 62
7
  6
CONTINUOUS
370
-3
390
F
  0
LAYER
  5
29C
100
AcDbSymbolTableRecord
100
AcDbLayerTableRecord
  2
INTF_11
 70
0
 62
7
  6
CONTINUOUS
370
-3
390
F
  0
LAYER
  5
29D
100
AcDbSymbolTableRecord
100
AcDbLayerTableRecord
  2
LQFP48-7_0-7_0-9_0-9_0-1_6-0_5-
 70
0
 62
7
  6
CONTINUOUS
370
-3
390
F
  0
LAYER
  5
29E
100
AcDbSymbolTableRecord
100
AcDbLayerTableRecord
  2
NOTE
 70
0
 62
7
  6
CONTINUOUS
370
-3
390
F
  0
LAYER
  5
29F
100
AcDbSymbolTableRecord
100
AcDbLayerTableRecord
  2
P541_2M
 70
0
 62
7
  6
CONTINUOUS
370
-3
390
F
  0
LAYER
  5
2A0
100
AcDbSymbolTableRecord
100
AcDbLayerTableRecord
  2
PIANI
 70
0
 62
7
  6
CONTINUOUS
370
-3
390
F
  0
LAYER
  5
2A1
100
AcDbSymbolTableRecord
100
AcDbLayerTableRecord
  2
PUNTI
 70
0
 62
7
  6
CONTINUOUS
370
-3
390
F
  0
LAYER
  5
2A2
100
AcDbSymbolTableRecord
100
AcDbLayerTableRecord
  2
RACCORDO
 70
0
 62
7
  6
CONTINUOUS
370
-3
390
F
  0
LAYER
  5
2A3
100
AcDbSymbolTableRecord
100
AcDbLayerTableRecord
  2
RES-A-SMD-CONV-8-0402-0_55-A_55
 70
0
 62
7
  6
CONTINUOUS
370
-3
390
F
  0
LAYER
  5
2A4
100
AcDbSymbolTableRecord
100
AcDbLayerTableRecord
  2
RES-A-SMD-CONV-8-0402-0_55-A__1
 70
0
 62
7
  6
CONTINUOUS
370
-3
390
F
  0
LAYER
  5
2A5
100
AcDbSymbolTableRecord
100
AcDbLayerTableRecord
  2
SC70-5_H1_1_REF_110000
 70
0
 62
7
  6
CONTINUOUS
370
-3
390
F
  0
LAYER
  5
2A6
100
AcDbSymbolTableRecord
100
AcDbLayerTableRecord
  2
SC70-5_H1_1_REF_110000_1
 70
0
 62
7
  6
CONTINUOUS
370
-3
390
F
  0
LAYER
  5
2A7
100
AcDbSymbolTableRecord
100
AcDbLayerTableRecord
  2
SC70-5_H1_1_REF_110000_2
 70
0
 62
7
  6
CONTINUOUS
370
-3
390
F
  0
LAYER
  5
2A8
100
AcDbSymbolTableRecord
100
AcDbLayerTableRecord
  2
SC70-6_REF_H1_1_110000
 70
0
 62
7
  6
CONTINUOUS
370
-3
390
F
  0
LAYER
  5
2A9
100
AcDbSymbolTableRecord
100
AcDbLayerTableRecord
  2
SIMBOLI
 70
0
 62
7
  6
CONTINUOUS
370
-3
390
F
  0
LAYER
  5
2AA
100
AcDbSymbolTableRecord
100
AcDbLayerTableRecord
  2
SMUSSO
 70
0
 62
7
  6
CONTINUOUS
370
-3
390
F
  0
LAYER
  5
2AB
100
AcDbSymbolTableRecord
100
AcDbLayerTableRecord
  2
SNAPLINE
 70
0
 62
7
  6
CONTINUOUS
370
-3
390
F
  0
LAYER
  5
2AC
100
AcDbSymbolTableRecord
100
AcDbLayerTableRecord
  2
SO8-5_0-6_2-1_75-REF_175000
 70
0
 62
7
  6
CONTINUOUS
370
-3
390
F
  0
LAYER
  5
2AD
100
AcDbSymbolTableRecord
100
AcDbLayerTableRecord
  2
SO8-5_0-6_2-1_75-REF_175000_1
 70
0
 62
7
  6
CONTINUOUS
370
-3
390
F
  0
LAYER
  5
2AE
100
AcDbSymbolTableRecord
100
AcDbLayerTableRecord
  2
SOD323-REF_110000
 70
0
 62
7
  6
CONTINUOUS
370
-3
390
F
  0
LAYER
  5
2AF
100
AcDbSymbolTableRecord
100
AcDbLayerTableRecord
  2
SOD323-REF_110000_1
 70
0
 62
7
  6
CONTINUOUS
370
-3
390
F
  0
LAYER
  5
2B0
100
AcDbSymbolTableRecord
100
AcDbLayerTableRecord
  2
SOT23-5_REF_H1_5_150000
 70
0
 62
7
  6
CONTINUOUS
370
-3
390
F
  0
LAYER
  5
2B1
100
AcDbSymbolTableRecord
100
AcDbLayerTableRecord
  2
SOT23-5_REF_H1_5_150000_1
 70
0
 62
7
  6
CONTINUOUS
370
-3
390
F
  0
LAYER
  5
2B2
100
AcDbSymbolTableRecord
100
AcDbLayerTableRecord
  2
SOT23-5_REF_H1_5_150000_2
 70
0
 62
7
  6
CONTINUOUS
370
-3
390
F
  0
LAYER
  5
2B3
100
AcDbSymbolTableRecord
100
AcDbLayerTableRecord
  2
SUPERFICI
 70
0
 62
7
  6
CONTINUOUS
370
-3
390
F
  0
LAYER
  5
2B4
100
AcDbSymbolTableRecord
100
AcDbLayerTableRecord
  2
TP-RND-1_0_3500
 70
0
 62
7
  6
CONTINUOUS
370
-3
390
F
  0
LAYER
  5
2B5
100
AcDbSymbolTableRecord
100
AcDbLayerTableRecord
  2
TP-RND-1_0_3500_1
 70
0
 62
7
  6
CONTINUOUS
370
-3
390
F
  0
LAYER
  5
2B6
100
AcDbSymbolTableRecord
100
AcDbLayerTableRecord
  2
TP-RND-1_0_3500_10
 70
0
 62
7
  6
CONTINUOUS
370
-3
390
F
  0
LAYER
  5
2B7
100
AcDbSymbolTableRecord
100
AcDbLayerTableRecord
  2
TP-RND-1_0_3500_11
 70
0
 62
7
  6
CONTINUOUS
370
-3
390
F
  0
LAYER
  5
2B8
100
AcDbSymbolTableRecord
100
AcDbLayerTableRecord
  2
TP-RND-1_0_3500_12
 70
0
 62
7
  6
CONTINUOUS
370
-3
390
F
  0
LAYER
  5
2B9
100
AcDbSymbolTableRecord
100
AcDbLayerTableRecord
  2
TP-RND-1_0_3500_13
 70
0
 62
7
  6
CONTINUOUS
370
-3
390
F
  0
LAYER
  5
2BA
100
AcDbSymbolTableRecord
100
AcDbLayerTableRecord
  2
TP-RND-1_0_3500_14
 70
0
 62
7
  6
CONTINUOUS
370
-3
390
F
  0
LAYER
  5
2BB
100
AcDbSymbolTableRecord
100
AcDbLayerTableRecord
  2
TP-RND-1_0_3500_15
 70
0
 62
7
  6
CONTINUOUS
370
-3
390
F
  0
LAYER
  5
2BC
100
AcDbSymbolTableRecord
100
AcDbLayerTableRecord
  2
TP-RND-1_0_3500_16
 70
0
 62
7
  6
CONTINUOUS
370
-3
390
F
  0
LAYER
  5
2BD
100
AcDbSymbolTableRecord
100
AcDbLayerTableRecord
  2
TP-RND-1_0_3500_17
 70
0
 62
7
  6
CONTINUOUS
370
-3
390
F
  0
LAYER
  5
2BE
100
AcDbSymbolTableRecord
100
AcDbLayerTableRecord
  2
TP-RND-1_0_3500_18
 70
0
 62
7
  6
CONTINUOUS
370
-3
390
F
  0
LAYER
  5
2BF
100
AcDbSymbolTableRecord
100
AcDbLayerTableRecord
  2
TP-RND-1_0_3500_19
 70
0
 62
7
  6
CONTINUOUS
370
-3
390
F
  0
LAYER
  5
2C0
100
AcDbSymbolTableRecord
100
AcDbLayerTableRecord
  2
TP-RND-1_0_3500_2
 70
0
 62
7
  6
CONTINUOUS
370
-3
390
F
  0
LAYER
  5
2C1
100
AcDbSymbolTableRecord
100
AcDbLayerTableRecord
  2
TP-RND-1_0_3500_20
 70
0
 62
7
  6
CONTINUOUS
370
-3
390
F
  0
LAYER
  5
2C2
100
AcDbSymbolTableRecord
100
AcDbLayerTableRecord
  2
TP-RND-1_0_3500_21
 70
0
 62
7
  6
CONTINUOUS
370
-3
390
F
  0
LAYER
  5
2C3
100
AcDbSymbolTableRecord
100
AcDbLayerTableRecord
  2
TP-RND-1_0_3500_22
 70
0
 62
7
  6
CONTINUOUS
370
-3
390
F
  0
LAYER
  5
2C4
100
AcDbSymbolTableRecord
100
AcDbLayerTableRecord
  2
TP-RND-1_0_3500_23
 70
0
 62
7
  6
CONTINUOUS
370
-3
390
F
  0
LAYER
  5
2C5
100
AcDbSymbolTableRecord
100
AcDbLayerTableRecord
  2
TP-RND-1_0_3500_24
 70
0
 62
7
  6
CONTINUOUS
370
-3
390
F
  0
LAYER
  5
2C6
100
AcDbSymbolTableRecord
100
AcDbLayerTableRecord
  2
TP-RND-1_0_3500_25
 70
0
 62
7
  6
CONTINUOUS
370
-3
390
F
  0
LAYER
  5
2C7
100
AcDbSymbolTableRecord
100
AcDbLayerTableRecord
  2
TP-RND-1_0_3500_26
 70
0
 62
7
  6
CONTINUOUS
370
-3
390
F
  0
LAYER
  5
2C8
100
AcDbSymbolTableRecord
100
AcDbLayerTableRecord
  2
TP-RND-1_0_3500_3
 70
0
 62
7
  6
CONTINUOUS
370
-3
390
F
  0
LAYER
  5
2C9
100
AcDbSymbolTableRecord
100
AcDbLayerTableRecord
  2
TP-RND-1_0_3500_4
 70
0
 62
7
  6
CONTINUOUS
370
-3
390
F
  0
LAYER
  5
2CA
100
AcDbSymbolTableRecord
100
AcDbLayerTableRecord
  2
TP-RND-1_0_3500_5
 70
0
 62
7
  6
CONTINUOUS
370
-3
390
F
  0
LAYER
  5
2CB
100
AcDbSymbolTableRecord
100
AcDbLayerTableRecord
  2
TP-RND-1_0_3500_6
 70
0
 62
7
  6
CONTINUOUS
370
-3
390
F
  0
LAYER
  5
2CC
100
AcDbSymbolTableRecord
100
AcDbLayerTableRecord
  2
TP-RND-1_0_3500_7
 70
0
 62
7
  6
CONTINUOUS
370
-3
390
F
  0
LAYER
  5
2CD
100
AcDbSymbolTableRecord
100
AcDbLayerTableRecord
  2
TP-RND-1_0_3500_8
 70
0
 62
7
  6
CONTINUOUS
370
-3
390
F
  0
LAYER
  5
2CE
100
AcDbSymbolTableRecord
100
AcDbLayerTableRecord
  2
TP-RND-1_0_3500_9
 70
0
 62
7
  6
CONTINUOUS
370
-3
390
F
  0
LAYER
  5
2CF
100
AcDbSymbolTableRecord
100
AcDbLayerTableRecord
  2
TP_PROGRAMMAZIONE_SWD_1000
 70
0
 62
7
  6
CONTINUOUS
370
-3
390
F
  0
LAYER
  5
2D0
100
AcDbSymbolTableRecord
100
AcDbLayerTableRecord
  2
TRASH
 70
0
 62
7
  6
CONTINUOUS
370
-3
390
F
  0
LAYER
  5
2D1
100
AcDbSymbolTableRecord
100
AcDbLayerTableRecord
  2
VG_CN-SPRING-SMT-P2_5-R1-P5-TET
 70
0
 62
7
  6
CONTINUOUS
370
-3
390
F
  0
LAYER
  5
2D2
100
AcDbSymbolTableRecord
100
AcDbLayerTableRecord
  2
VG_DFN6-2_5-2_5-1_0-0_8-REF_100
 70
0
 62
7
  6
CONTINUOUS
370
-3
390
F
  0
LAYER
  5
2D3
100
AcDbSymbolTableRecord
100
AcDbLayerTableRecord
  2
VG_LED-SMT-1_6-0_75-1_0-1_10000
 70
0
 62
7
  6
CONTINUOUS
370
-3
390
F
  0
LAYER
  5
2D4
100
AcDbSymbolTableRecord
100
AcDbLayerTableRecord
  2
VG_LED-SMT-1_6-0_75-1_0-1_100_1
 70
0
 62
7
  6
CONTINUOUS
370
-3
390
F
  0
LAYER
  5
2D5
100
AcDbSymbolTableRecord
100
AcDbLayerTableRecord
  2
VG_LED-SMT-1_6-0_75-1_0-1_100_2
 70
0
 62
7
  6
CONTINUOUS
370
-3
390
F
  0
LAYER
  5
2D6
100
AcDbSymbolTableRecord
100
AcDbLayerTableRecord
  2
VG_LED-SMT-1_6-0_75-1_0-1_100_3
 70
0
 62
7
  6
CONTINUOUS
370
-3
390
F
  0
LAYER
  5
2D7
100
AcDbSymbolTableRecord
100
AcDbLayerTableRecord
  2
VG_LED-SMT-1_6-0_75-1_0-1_100_4
 70
0
 62
7
  6
CONTINUOUS
370
-3
390
F
  0
LAYER
  5
2D8
100
AcDbSymbolTableRecord
100
AcDbLayerTableRecord
  2
VG_LED-SMT-1_6-0_75-1_0-1_100_5
 70
0
 62
7
  6
CONTINUOUS
370
-3
390
F
  0
LAYER
  5
2D9
100
AcDbSymbolTableRecord
100
AcDbLayerTableRecord
  2
VG_LED-SMT-1_6-0_75-1_0-1_100_6
 70
0
 62
7
  6
CONTINUOUS
370
-3
390
F
  0
LAYER
  5
2DA
100
AcDbSymbolTableRecord
100
AcDbLayerTableRecord
  2
VG_LED-SMT-1_6-0_75-1_0-1_100_7
 70
0
 62
7
  6
CONTINUOUS
370
-3
390
F
  0
LAYER
  5
2DB
100
AcDbSymbolTableRecord
100
AcDbLayerTableRecord
  2
VG_LED-SMT-1_6-0_75-1_0-1_100_8
 70
0
 62
7
  6
CONTINUOUS
370
-3
390
F
  0
LAYER
  5
2DC
100
AcDbSymbolTableRecord
100
AcDbLayerTableRecord
  2
VG_LED-SMT-1_6-0_75-1_0-1_100_9
 70
0
 62
7
  6
CONTINUOUS
370
-3
390
F
  0
LAYER
  5
2DD
100
AcDbSymbolTableRecord
100
AcDbLayerTableRecord
  2
VG_LED-SMT-1_6-0_75-1_0-1_10_10
 70
0
 62
7
  6
CONTINUOUS
370
-3
390
F
  0
LAYER
  5
2DE
100
AcDbSymbolTableRecord
100
AcDbLayerTableRecord
  2
VG_LED-SMT-1_6-0_75-1_0-1_10_11
 70
0
 62
7
  6
CONTINUOUS
370
-3
390
F
  0
LAYER
  5
2DF
100
AcDbSymbolTableRecord
100
AcDbLayerTableRecord
  2
VG_LED-SMT-1_6-0_75-1_0-1_10_12
 70
0
 62
7
  6
CONTINUOUS
370
-3
390
F
  0
LAYER
  5
2E0
100
AcDbSymbolTableRecord
100
AcDbLayerTableRecord
  2
VG_LED-SMT-1_6-0_75-1_0-1_10_13
 70
0
 62
7
  6
CONTINUOUS
370
-3
390
F
  0
LAYER
  5
2E1
100
AcDbSymbolTableRecord
100
AcDbLayerTableRecord
  2
VG_LED-SMT-1_6-0_75-1_0-1_10_14
 70
0
 62
7
  6
CONTINUOUS
370
-3
390
F
  0
LAYER
  5
2E2
100
AcDbSymbolTableRecord
100
AcDbLayerTableRecord
  2
VG_LED-SMT-1_6-0_75-1_0-1_10_15
 70
0
 62
7
  6
CONTINUOUS
370
-3
390
F
  0
LAYER
  5
2E3
100
AcDbSymbolTableRecord
100
AcDbLayerTableRecord
  2
VG_LED-SMT-1_6-0_75-1_0-1_10_16
 70
0
 62
7
  6
CONTINUOUS
370
-3
390
F
  0
LAYER
  5
2E4
100
AcDbSymbolTableRecord
100
AcDbLayerTableRecord
  2
VG_LED-SMT-1_6-0_75-1_0-1_10_17
 70
0
 62
7
  6
CONTINUOUS
370
-3
390
F
  0
LAYER
  5
2E5
100
AcDbSymbolTableRecord
100
AcDbLayerTableRecord
  2
VG_LED-SMT-1_6-0_75-1_0-1_10_18
 70
0
 62
7
  6
CONTINUOUS
370
-3
390
F
  0
LAYER
  5
2E6
100
AcDbSymbolTableRecord
100
AcDbLayerTableRecord
  2
VG_LED-SMT-1_6-0_75-1_0-1_10_19
 70
0
 62
7
  6
CONTINUOUS
370
-3
390
F
  0
LAYER
  5
2E7
100
AcDbSymbolTableRecord
100
AcDbLayerTableRecord
  2
VG_LED-SMT-1_6-0_75-1_0-1_10_20
 70
0
 62
7
  6
CONTINUOUS
370
-3
390
F
  0
LAYER
  5
2E8
100
AcDbSymbolTableRecord
100
AcDbLayerTableRecord
  2
VG_LED-SMT-1_6-0_75-1_0-1_10_21
 70
0
 62
7
  6
CONTINUOUS
370
-3
390
F
  0
LAYER
  5
2E9
100
AcDbSymbolTableRecord
100
AcDbLayerTableRecord
  2
VG_LED-SMT-1_6-0_75-1_0-1_10_22
 70
0
 62
7
  6
CONTINUOUS
370
-3
390
F
  0
LAYER
  5
2EA
100
AcDbSymbolTableRecord
100
AcDbLayerTableRecord
  2
VG_LED-SMT-1_6-0_75-1_0-1_10_23
 70
0
 62
7
  6
CONTINUOUS
370
-3
390
F
  0
LAYER
  5
2EB
100
AcDbSymbolTableRecord
100
AcDbLayerTableRecord
  2
VG_LED-SMT-1_6-0_75-1_0-1_10_24
 70
0
 62
7
  6
CONTINUOUS
370
-3
390
F
  0
LAYER
  5
2EC
100
AcDbSymbolTableRecord
100
AcDbLayerTableRecord
  2
VG_LED-SMT-1_6-0_75-1_0-1_10_25
 70
0
 62
7
  6
CONTINUOUS
370
-3
390
F
  0
LAYER
  5
2ED
100
AcDbSymbolTableRecord
100
AcDbLayerTableRecord
  2
VG_LED-SMT-1_6-0_75-1_0-1_10_26
 70
0
 62
7
  6
CONTINUOUS
370
-3
390
F
  0
LAYER
  5
2EE
100
AcDbSymbolTableRecord
100
AcDbLayerTableRecord
  2
VG_LED-SMT-1_6-0_75-1_0-1_10_27
 70
0
 62
7
  6
CONTINUOUS
370
-3
390
F
  0
LAYER
  5
2EF
100
AcDbSymbolTableRecord
100
AcDbLayerTableRecord
  2
VG_LED-SMT-1_6-0_75-1_0-1_10_28
 70
0
 62
7
  6
CONTINUOUS
370
-3
390
F
  0
LAYER
  5
2F0
100
AcDbSymbolTableRecord
100
AcDbLayerTableRecord
  2
VG_LED-SMT-1_6-0_75-1_0-1_10_29
 70
0
 62
7
  6
CONTINUOUS
370
-3
390
F
  0
LAYER
  5
2F1
100
AcDbSymbolTableRecord
100
AcDbLayerTableRecord
  2
VG_LED-SMT-1_6-0_75-1_0-1_10_30
 70
0
 62
7
  6
CONTINUOUS
370
-3
390
F
  0
LAYER
  5
2F2
100
AcDbSymbolTableRecord
100
AcDbLayerTableRecord
  2
VG_LED-SMT-1_6-0_75-1_0-1_10_31
 70
0
 62
7
  6
CONTINUOUS
370
-3
390
F
  0
LAYER
  5
2F3
100
AcDbSymbolTableRecord
100
AcDbLayerTableRecord
  2
VG_LED-SMT-1_6-0_75-1_0-1_10_32
 70
0
 62
7
  6
CONTINUOUS
370
-3
390
F
  0
LAYER
  5
2F4
100
AcDbSymbolTableRecord
100
AcDbLayerTableRecord
  2
VG_LED-SMT-1_6-0_75-1_0-1_10_33
 70
0
 62
7
  6
CONTINUOUS
370
-3
390
F
  0
LAYER
  5
2F5
100
AcDbSymbolTableRecord
100
AcDbLayerTableRecord
  2
VG_LED-SMT-1_6-0_75-1_0-1_10_34
 70
0
 62
7
  6
CONTINUOUS
370
-3
390
F
  0
LAYER
  5
2F6
100
AcDbSymbolTableRecord
100
AcDbLayerTableRecord
  2
VG_LED-SMT-1_6-0_75-1_0-1_10_35
 70
0
 62
7
  6
CONTINUOUS
370
-3
390
F
  0
LAYER
  5
2F7
100
AcDbSymbolTableRecord
100
AcDbLayerTableRecord
  2
VG_LED-SMT-1_6-0_75-1_0-1_10_36
 70
0
 62
7
  6
CONTINUOUS
370
-3
390
F
  0
LAYER
  5
2F8
100
AcDbSymbolTableRecord
100
AcDbLayerTableRecord
  2
VG_LED-SMT-1_6-0_75-1_0-1_10_37
 70
0
 62
7
  6
CONTINUOUS
370
-3
390
F
  0
LAYER
  5
2F9
100
AcDbSymbolTableRecord
100
AcDbLayerTableRecord
  2
VG_LED-SMT-1_6-0_75-1_0-1_10_38
 70
0
 62
7
  6
CONTINUOUS
370
-3
390
F
  0
LAYER
  5
2FA
100
AcDbSymbolTableRecord
100
AcDbLayerTableRecord
  2
VG_LED-SMT-1_6-0_75-1_0-1_10_39
 70
0
 62
7
  6
CONTINUOUS
370
-3
390
F
  0
LAYER
  5
2FB
100
AcDbSymbolTableRecord
100
AcDbLayerTableRecord
  2
VG_LED-SMT-1_6-0_75-1_0-1_10_40
 70
0
 62
7
  6
CONTINUOUS
370
-3
390
F
  0
LAYER
  5
2FC
100
AcDbSymbolTableRecord
100
AcDbLayerTableRecord
  2
VG_LED-SMT-1_6-0_75-1_0-1_10_41
 70
0
 62
7
  6
CONTINUOUS
370
-3
390
F
  0
LAYER
  5
2FD
100
AcDbSymbolTableRecord
100
AcDbLayerTableRecord
  2
VG_LED-SMT-1_6-0_75-1_0-1_10_42
 70
0
 62
7
  6
CONTINUOUS
370
-3
390
F
  0
LAYER
  5
2FE
100
AcDbSymbolTableRecord
100
AcDbLayerTableRecord
  2
VG_LED-SMT-1_6-0_75-1_0-1_10_43
 70
0
 62
7
  6
CONTINUOUS
370
-3
390
F
  0
LAYER
  5
2FF
100
AcDbSymbolTableRecord
100
AcDbLayerTableRecord
  2
VG_LED-SMT-1_6-0_75-1_0-1_10_44
 70
0
 62
7
  6
CONTINUOUS
370
-3
390
F
  0
LAYER
  5
300
100
AcDbSymbolTableRecord
100
AcDbLayerTableRecord
  2
VG_LED-SMT-1_6-0_75-1_0-1_10_45
 70
0
 62
7
  6
CONTINUOUS
370
-3
390
F
  0
LAYER
  5
301
100
AcDbSymbolTableRecord
100
AcDbLayerTableRecord
  2
VG_LED-SMT-1_6-0_75-1_0-1_10_46
 70
0
 62
7
  6
CONTINUOUS
370
-3
390
F
  0
LAYER
  5
302
100
AcDbSymbolTableRecord
100
AcDbLayerTableRecord
  2
VG_LED-SMT-1_6-0_75-1_0-1_10_47
 70
0
 62
7
  6
CONTINUOUS
370
-3
390
F
  0
LAYER
  5
303
100
AcDbSymbolTableRecord
100
AcDbLayerTableRecord
  2
VG_LED-SMT-1_6-0_75-1_0-1_10_48
 70
0
 62
7
  6
CONTINUOUS
370
-3
390
F
  0
LAYER
  5
304
100
AcDbSymbolTableRecord
100
AcDbLayerTableRecord
  2
VG_LED-SMT-1_6-0_75-1_0-1_10_49
 70
0
 62
7
  6
CONTINUOUS
370
-3
390
F
  0
LAYER
  5
305
100
AcDbSymbolTableRecord
100
AcDbLayerTableRecord
  2
VG_LED-SMT-1_6-0_75-1_0-1_10_50
 70
0
 62
7
  6
CONTINUOUS
370
-3
390
F
  0
LAYER
  5
306
100
AcDbSymbolTableRecord
100
AcDbLayerTableRecord
  2
VG_LED-SMT-1_6-0_75-1_0-1_10_51
 70
0
 62
7
  6
CONTINUOUS
370
-3
390
F
  0
LAYER
  5
307
100
AcDbSymbolTableRecord
100
AcDbLayerTableRecord
  2
VG_LED-SMT-1_6-0_75-1_0-1_10_52
 70
0
 62
7
  6
CONTINUOUS
370
-3
390
F
  0
LAYER
  5
308
100
AcDbSymbolTableRecord
100
AcDbLayerTableRecord
  2
VG_LED-SMT-1_6-0_75-1_0-1_10_53
 70
0
 62
7
  6
CONTINUOUS
370
-3
390
F
  0
LAYER
  5
309
100
AcDbSymbolTableRecord
100
AcDbLayerTableRecord
  2
VG_LED-SMT-1_6-0_75-1_0-1_10_54
 70
0
 62
7
  6
CONTINUOUS
370
-3
390
F
  0
LAYER
  5
30A
100
AcDbSymbolTableRecord
100
AcDbLayerTableRecord
  2
VG_LED-SMT-1_6-0_75-1_0-1_10_55
 70
0
 62
7
  6
CONTINUOUS
370
-3
390
F
  0
LAYER
  5
30B
100
AcDbSymbolTableRecord
100
AcDbLayerTableRecord
  2
VG_LED-SMT-1_6-0_75-1_0-1_10_56
 70
0
 62
7
  6
CONTINUOUS
370
-3
390
F
  0
LAYER
  5
30C
100
AcDbSymbolTableRecord
100
AcDbLayerTableRecord
  2
VG_LED-SMT-1_6-0_75-1_0-1_10_57
 70
0
 62
7
  6
CONTINUOUS
370
-3
390
F
  0
LAYER
  5
30D
100
AcDbSymbolTableRecord
100
AcDbLayerTableRecord
  2
VG_LED-SMT-1_6-0_75-1_0-1_10_58
 70
0
 62
7
  6
CONTINUOUS
370
-3
390
F
  0
LAYER
  5
30E
100
AcDbSymbolTableRecord
100
AcDbLayerTableRecord
  2
VG_LED-SMT-1_6-0_75-1_0-1_10_59
 70
0
 62
7
  6
CONTINUOUS
370
-3
390
F
  0
LAYER
  5
30F
100
AcDbSymbolTableRecord
100
AcDbLayerTableRecord
  2
VG_LED-SMT-1_6-0_75-1_0-1_10_60
 70
0
 62
7
  6
CONTINUOUS
370
-3
390
F
  0
LAYER
  5
310
100
AcDbSymbolTableRecord
100
AcDbLayerTableRecord
  2
VG_LED-SMT-1_6-0_75-1_0-1_10_61
 70
0
 62
7
  6
CONTINUOUS
370
-3
390
F
  0
LAYER
  5
311
100
AcDbSymbolTableRecord
100
AcDbLayerTableRecord
  2
VG_LED-SMT-1_6-0_75-1_0-1_10_62
 70
0
 62
7
  6
CONTINUOUS
370
-3
390
F
  0
LAYER
  5
312
100
AcDbSymbolTableRecord
100
AcDbLayerTableRecord
  2
VG_LED-SMT-1_6-0_75-1_0-1_10_63
 70
0
 62
7
  6
CONTINUOUS
370
-3
390
F
  0
LAYER
  5
313
100
AcDbSymbolTableRecord
100
AcDbLayerTableRecord
  2
VG_LED-SMT-1_6-0_75-1_0-1_10_64
 70
0
 62
7
  6
CONTINUOUS
370
-3
390
F
  0
LAYER
  5
314
100
AcDbSymbolTableRecord
100
AcDbLayerTableRecord
  2
VG_LED-SMT-1_6-0_75-1_0-1_10_65
 70
0
 62
7
  6
CONTINUOUS
370
-3
390
F
  0
LAYER
  5
315
100
AcDbSymbolTableRecord
100
AcDbLayerTableRecord
  2
VG_LED-SMT-1_6-0_75-1_0-1_10_66
 70
0
 62
7
  6
CONTINUOUS
370
-3
390
F
  0
LAYER
  5
316
100
AcDbSymbolTableRecord
100
AcDbLayerTableRecord
  2
VG_LED-SMT-1_6-0_75-1_0-1_10_67
 70
0
 62
7
  6
CONTINUOUS
370
-3
390
F
  0
LAYER
  5
317
100
AcDbSymbolTableRecord
100
AcDbLayerTableRecord
  2
VG_LED-SMT-1_6-0_75-1_0-1_10_68
 70
0
 62
7
  6
CONTINUOUS
370
-3
390
F
  0
LAYER
  5
318
100
AcDbSymbolTableRecord
100
AcDbLayerTableRecord
  2
VG_LED-SMT-1_6-0_75-1_0-1_10_69
 70
0
 62
7
  6
CONTINUOUS
370
-3
390
F
  0
LAYER
  5
319
100
AcDbSymbolTableRecord
100
AcDbLayerTableRecord
  2
VG_LED-SMT-1_6-0_75-1_0-1_10_70
 70
0
 62
7
  6
CONTINUOUS
370
-3
390
F
  0
LAYER
  5
31A
100
AcDbSymbolTableRecord
100
AcDbLayerTableRecord
  2
VG_LED-SMT-1_6-0_75-1_0-1_10_71
 70
0
 62
7
  6
CONTINUOUS
370
-3
390
F
  0
LAYER
  5
31B
100
AcDbSymbolTableRecord
100
AcDbLayerTableRecord
  2
VG_LED-SMT-1_6-0_75-1_0-1_10_72
 70
0
 62
7
  6
CONTINUOUS
370
-3
390
F
  0
LAYER
  5
31C
100
AcDbSymbolTableRecord
100
AcDbLayerTableRecord
  2
VG_LED-SMT-1_6-0_75-1_0-1_10_73
 70
0
 62
7
  6
CONTINUOUS
370
-3
390
F
  0
LAYER
  5
31D
100
AcDbSymbolTableRecord
100
AcDbLayerTableRecord
  2
VG_LED-SMT-1_6-0_75-1_0-1_10_74
 70
0
 62
7
  6
CONTINUOUS
370
-3
390
F
  0
LAYER
  5
31E
100
AcDbSymbolTableRecord
100
AcDbLayerTableRecord
  2
VG_LED-SMT-1_6-0_75-1_0-1_10_75
 70
0
 62
7
  6
CONTINUOUS
370
-3
390
F
  0
LAYER
  5
31F
100
AcDbSymbolTableRecord
100
AcDbLayerTableRecord
  2
VG_LED-SMT-1_6-0_75-1_0-1_10_76
 70
0
 62
7
  6
CONTINUOUS
370
-3
390
F
  0
LAYER
  5
320
100
AcDbSymbolTableRecord
100
AcDbLayerTableRecord
  2
VG_LED-SMT-1_6-0_75-1_0-1_10_77
 70
0
 62
7
  6
CONTINUOUS
370
-3
390
F
  0
LAYER
  5
321
100
AcDbSymbolTableRecord
100
AcDbLayerTableRecord
  2
VG_LED-SMT-1_6-0_75-1_0-1_10_78
 70
0
 62
7
  6
CONTINUOUS
370
-3
390
F
  0
LAYER
  5
322
100
AcDbSymbolTableRecord
100
AcDbLayerTableRecord
  2
VG_LED-SMT-1_6-0_75-1_0-1_10_79
 70
0
 62
7
  6
CONTINUOUS
370
-3
390
F
  0
LAYER
  5
323
100
AcDbSymbolTableRecord
100
AcDbLayerTableRecord
  2
VG_LED-SMT-1_6-0_75-1_0-1_10_80
 70
0
 62
7
  6
CONTINUOUS
370
-3
390
F
  0
LAYER
  5
324
100
AcDbSymbolTableRecord
100
AcDbLayerTableRecord
  2
VG_LED-SMT-1_6-0_75-1_0-1_10_81
 70
0
 62
7
  6
CONTINUOUS
370
-3
390
F
  0
LAYER
  5
325
100
AcDbSymbolTableRecord
100
AcDbLayerTableRecord
  2
VG_LED-SMT-1_6-0_75-1_0-1_10_82
 70
0
 62
7
  6
CONTINUOUS
370
-3
390
F
  0
LAYER
  5
326
100
AcDbSymbolTableRecord
100
AcDbLayerTableRecord
  2
VG_LED-SMT-1_6-0_75-1_0-1_10_83
 70
0
 62
7
  6
CONTINUOUS
370
-3
390
F
  0
LAYER
  5
327
100
AcDbSymbolTableRecord
100
AcDbLayerTableRecord
  2
VG_LED-SMT-1_6-0_75-1_0-1_10_84
 70
0
 62
7
  6
CONTINUOUS
370
-3
390
F
  0
LAYER
  5
328
100
AcDbSymbolTableRecord
100
AcDbLayerTableRecord
  2
VG_LED-SMT-1_6-0_75-1_0-1_10_85
 70
0
 62
7
  6
CONTINUOUS
370
-3
390
F
  0
LAYER
  5
329
100
AcDbSymbolTableRecord
100
AcDbLayerTableRecord
  2
VG_LED-SMT-1_6-0_75-1_0-1_10_86
 70
0
 62
7
  6
CONTINUOUS
370
-3
390
F
  0
LAYER
  5
32A
100
AcDbSymbolTableRecord
100
AcDbLayerTableRecord
  2
VG_LED-SMT-1_6-0_75-1_0-1_10_87
 70
0
 62
7
  6
CONTINUOUS
370
-3
390
F
  0
LAYER
  5
32B
100
AcDbSymbolTableRecord
100
AcDbLayerTableRecord
  2
VG_LED-SMT-1_6-0_75-1_0-1_10_88
 70
0
 62
7
  6
CONTINUOUS
370
-3
390
F
  0
LAYER
  5
32C
100
AcDbSymbolTableRecord
100
AcDbLayerTableRecord
  2
VG_LED-SMT-1_6-0_75-1_0-1_10_89
 70
0
 62
7
  6
CONTINUOUS
370
-3
390
F
  0
LAYER
  5
32D
100
AcDbSymbolTableRecord
100
AcDbLayerTableRecord
  2
VG_LED-SMT-1_6-0_75-1_0-1_10_90
 70
0
 62
7
  6
CONTINUOUS
370
-3
390
F
  0
LAYER
  5
32E
100
AcDbSymbolTableRecord
100
AcDbLayerTableRecord
  2
VG_LED-SMT-1_6-0_75-1_0-1_10_91
 70
0
 62
7
  6
CONTINUOUS
370
-3
390
F
  0
LAYER
  5
32F
100
AcDbSymbolTableRecord
100
AcDbLayerTableRecord
  2
VG_LED-SMT-1_6-0_75-1_0-1_10_92
 70
0
 62
7
  6
CONTINUOUS
370
-3
390
F
  0
LAYER
  5
330
100
AcDbSymbolTableRecord
100
AcDbLayerTableRecord
  2
VG_LED-SMT-1_6-0_75-1_0-1_10_93
 70
0
 62
7
  6
CONTINUOUS
370
-3
390
F
  0
LAYER
  5
331
100
AcDbSymbolTableRecord
100
AcDbLayerTableRecord
  2
VG_LED-SMT-1_6-0_75-1_0-1_10_94
 70
0
 62
7
  6
CONTINUOUS
370
-3
390
F
  0
LAYER
  5
332
100
AcDbSymbolTableRecord
100
AcDbLayerTableRecord
  2
VG_LED-SMT-1_6-0_75-1_0-1_10_95
 70
0
 62
7
  6
CONTINUOUS
370
-3
390
F
  0
LAYER
  5
333
100
AcDbSymbolTableRecord
100
AcDbLayerTableRecord
  2
VG_LED-SMT-1_6-0_75-1_0-1_10_96
 70
0
 62
7
  6
CONTINUOUS
370
-3
390
F
  0
LAYER
  5
334
100
AcDbSymbolTableRecord
100
AcDbLayerTableRecord
  2
VG_LED-SMT-1_6-0_75-1_0-1_10_97
 70
0
 62
7
  6
CONTINUOUS
370
-3
390
F
  0
LAYER
  5
335
100
AcDbSymbolTableRecord
100
AcDbLayerTableRecord
  2
VG_LED-SMT-1_6-0_75-1_0-1_10_98
 70
0
 62
7
  6
CONTINUOUS
370
-3
390
F
  0
LAYER
  5
336
100
AcDbSymbolTableRecord
100
AcDbLayerTableRecord
  2
VG_LED-SMT-1_6-0_75-1_0-1_10_99
 70
0
 62
7
  6
CONTINUOUS
370
-3
390
F
  0
LAYER
  5
337
100
AcDbSymbolTableRecord
100
AcDbLayerTableRecord
  2
VG_LED-SMT-1_6-0_75-1_0-1_1_100
 70
0
 62
7
  6
CONTINUOUS
370
-3
390
F
  0
LAYER
  5
338
100
AcDbSymbolTableRecord
100
AcDbLayerTableRecord
  2
VG_LED-SMT-1_6-0_75-1_0-1_1_101
 70
0
 62
7
  6
CONTINUOUS
370
-3
390
F
  0
LAYER
  5
339
100
AcDbSymbolTableRecord
100
AcDbLayerTableRecord
  2
VG_LED-SMT-1_6-0_75-1_0-1_1_102
 70
0
 62
7
  6
CONTINUOUS
370
-3
390
F
  0
LAYER
  5
33A
100
AcDbSymbolTableRecord
100
AcDbLayerTableRecord
  2
VG_LED-SMT-1_6-0_75-1_0-1_1_103
 70
0
 62
7
  6
CONTINUOUS
370
-3
390
F
  0
LAYER
  5
33B
100
AcDbSymbolTableRecord
100
AcDbLayerTableRecord
  2
VG_LED-SMT-1_6-0_75-1_0-1_1_104
 70
0
 62
7
  6
CONTINUOUS
370
-3
390
F
  0
LAYER
  5
33C
100
AcDbSymbolTableRecord
100
AcDbLayerTableRecord
  2
VG_LED-SMT-1_6-0_75-1_0-1_1_105
 70
0
 62
7
  6
CONTINUOUS
370
-3
390
F
  0
LAYER
  5
33D
100
AcDbSymbolTableRecord
100
AcDbLayerTableRecord
  2
VG_LED-SMT-1_6-0_75-1_0-1_1_106
 70
0
 62
7
  6
CONTINUOUS
370
-3
390
F
  0
LAYER
  5
33E
100
AcDbSymbolTableRecord
100
AcDbLayerTableRecord
  2
VG_LED-SMT-1_6-0_75-1_0-1_1_107
 70
0
 62
7
  6
CONTINUOUS
370
-3
390
F
  0
LAYER
  5
33F
100
AcDbSymbolTableRecord
100
AcDbLayerTableRecord
  2
VG_LED-SMT-1_6-0_75-1_0-1_1_108
 70
0
 62
7
  6
CONTINUOUS
370
-3
390
F
  0
LAYER
  5
340
100
AcDbSymbolTableRecord
100
AcDbLayerTableRecord
  2
VG_LED-SMT-1_6-0_75-1_0-1_1_109
 70
0
 62
7
  6
CONTINUOUS
370
-3
390
F
  0
LAYER
  5
341
100
AcDbSymbolTableRecord
100
AcDbLayerTableRecord
  2
VG_LED-SMT-1_6-0_75-1_0-1_1_110
 70
0
 62
7
  6
CONTINUOUS
370
-3
390
F
  0
LAYER
  5
342
100
AcDbSymbolTableRecord
100
AcDbLayerTableRecord
  2
VG_LED-SMT-1_6-0_75-1_0-1_1_111
 70
0
 62
7
  6
CONTINUOUS
370
-3
390
F
  0
LAYER
  5
343
100
AcDbSymbolTableRecord
100
AcDbLayerTableRecord
  2
VG_LED-SMT-1_6-0_75-1_0-1_1_112
 70
0
 62
7
  6
CONTINUOUS
370
-3
390
F
  0
LAYER
  5
344
100
AcDbSymbolTableRecord
100
AcDbLayerTableRecord
  2
VG_LED-SMT-1_6-0_75-1_0-1_1_113
 70
0
 62
7
  6
CONTINUOUS
370
-3
390
F
  0
LAYER
  5
345
100
AcDbSymbolTableRecord
100
AcDbLayerTableRecord
  2
VG_LED-SMT-1_6-0_75-1_0-1_1_114
 70
0
 62
7
  6
CONTINUOUS
370
-3
390
F
  0
LAYER
  5
346
100
AcDbSymbolTableRecord
100
AcDbLayerTableRecord
  2
VG_LED-SMT-1_6-0_75-1_0-1_1_115
 70
0
 62
7
  6
CONTINUOUS
370
-3
390
F
  0
LAYER
  5
347
100
AcDbSymbolTableRecord
100
AcDbLayerTableRecord
  2
VG_LED-SMT-1_6-0_75-1_0-1_1_116
 70
0
 62
7
  6
CONTINUOUS
370
-3
390
F
  0
LAYER
  5
348
100
AcDbSymbolTableRecord
100
AcDbLayerTableRecord
  2
VG_LED-SMT-1_6-0_75-1_0-1_1_117
 70
0
 62
7
  6
CONTINUOUS
370
-3
390
F
  0
LAYER
  5
349
100
AcDbSymbolTableRecord
100
AcDbLayerTableRecord
  2
VG_LED-SMT-1_6-0_75-1_0-1_1_118
 70
0
 62
7
  6
CONTINUOUS
370
-3
390
F
  0
LAYER
  5
34A
100
AcDbSymbolTableRecord
100
AcDbLayerTableRecord
  2
VG_LED-SMT-1_6-0_75-1_0-1_1_119
 70
0
 62
7
  6
CONTINUOUS
370
-3
390
F
  0
LAYER
  5
34B
100
AcDbSymbolTableRecord
100
AcDbLayerTableRecord
  2
VG_LED-SMT-1_6-0_75-1_0-1_1_120
 70
0
 62
7
  6
CONTINUOUS
370
-3
390
F
  0
LAYER
  5
34C
100
AcDbSymbolTableRecord
100
AcDbLayerTableRecord
  2
VG_LED-SMT-1_6-0_75-1_0-1_1_121
 70
0
 62
7
  6
CONTINUOUS
370
-3
390
F
  0
LAYER
  5
34D
100
AcDbSymbolTableRecord
100
AcDbLayerTableRecord
  2
VG_LED-SMT-1_6-0_75-1_0-1_1_122
 70
0
 62
7
  6
CONTINUOUS
370
-3
390
F
  0
LAYER
  5
34E
100
AcDbSymbolTableRecord
100
AcDbLayerTableRecord
  2
VG_LED-SMT-1_6-0_75-1_0-1_1_123
 70
0
 62
7
  6
CONTINUOUS
370
-3
390
F
  0
LAYER
  5
34F
100
AcDbSymbolTableRecord
100
AcDbLayerTableRecord
  2
VG_LED-SMT-1_6-0_75-1_0-1_1_124
 70
0
 62
7
  6
CONTINUOUS
370
-3
390
F
  0
LAYER
  5
350
100
AcDbSymbolTableRecord
100
AcDbLayerTableRecord
  2
VG_LED-SMT-1_6-0_75-1_0-1_1_125
 70
0
 62
7
  6
CONTINUOUS
370
-3
390
F
  0
LAYER
  5
351
100
AcDbSymbolTableRecord
100
AcDbLayerTableRecord
  2
VG_LED-SMT-1_6-0_75-1_0-1_1_126
 70
0
 62
7
  6
CONTINUOUS
370
-3
390
F
  0
LAYER
  5
352
100
AcDbSymbolTableRecord
100
AcDbLayerTableRecord
  2
VG_LED-SMT-1_6-0_75-1_0-1_1_127
 70
0
 62
7
  6
CONTINUOUS
370
-3
390
F
  0
LAYER
  5
353
100
AcDbSymbolTableRecord
100
AcDbLayerTableRecord
  2
VG_LED-SMT-1_6-0_75-1_0-1_1_128
 70
0
 62
7
  6
CONTINUOUS
370
-3
390
F
  0
LAYER
  5
354
100
AcDbSymbolTableRecord
100
AcDbLayerTableRecord
  2
VG_LED-SMT-1_6-0_75-1_0-1_1_129
 70
0
 62
7
  6
CONTINUOUS
370
-3
390
F
  0
LAYER
  5
355
100
AcDbSymbolTableRecord
100
AcDbLayerTableRecord
  2
VG_LED-SMT-1_6-0_75-1_0-1_1_130
 70
0
 62
7
  6
CONTINUOUS
370
-3
390
F
  0
LAYER
  5
356
100
AcDbSymbolTableRecord
100
AcDbLayerTableRecord
  2
VG_LED-SMT-1_6-0_75-1_0-1_1_131
 70
0
 62
7
  6
CONTINUOUS
370
-3
390
F
  0
LAYER
  5
357
100
AcDbSymbolTableRecord
100
AcDbLayerTableRecord
  2
VG_LED-SMT-1_6-0_75-1_0-1_1_132
 70
0
 62
7
  6
CONTINUOUS
370
-3
390
F
  0
LAYER
  5
358
100
AcDbSymbolTableRecord
100
AcDbLayerTableRecord
  2
VG_LED-SMT-1_6-0_75-1_0-1_1_133
 70
0
 62
7
  6
CONTINUOUS
370
-3
390
F
  0
LAYER
  5
359
100
AcDbSymbolTableRecord
100
AcDbLayerTableRecord
  2
VG_LED-SMT-1_6-0_75-1_0-1_1_134
 70
0
 62
7
  6
CONTINUOUS
370
-3
390
F
  0
LAYER
  5
35A
100
AcDbSymbolTableRecord
100
AcDbLayerTableRecord
  2
VG_LED-SMT-1_6-0_75-1_0-1_1_135
 70
0
 62
7
  6
CONTINUOUS
370
-3
390
F
  0
LAYER
  5
35B
100
AcDbSymbolTableRecord
100
AcDbLayerTableRecord
  2
VG_LED-SMT-1_6-0_75-1_0-1_1_136
 70
0
 62
7
  6
CONTINUOUS
370
-3
390
F
  0
LAYER
  5
35C
100
AcDbSymbolTableRecord
100
AcDbLayerTableRecord
  2
VG_LED-SMT-1_6-0_75-1_0-1_1_137
 70
0
 62
7
  6
CONTINUOUS
370
-3
390
F
  0
LAYER
  5
35D
100
AcDbSymbolTableRecord
100
AcDbLayerTableRecord
  2
VG_LED-SMT-1_6-0_75-1_0-1_1_138
 70
0
 62
7
  6
CONTINUOUS
370
-3
390
F
  0
LAYER
  5
35E
100
AcDbSymbolTableRecord
100
AcDbLayerTableRecord
  2
VG_LED-SMT-1_6-0_75-1_0-1_1_139
 70
0
 62
7
  6
CONTINUOUS
370
-3
390
F
  0
LAYER
  5
35F
100
AcDbSymbolTableRecord
100
AcDbLayerTableRecord
  2
VG_LED-SMT-1_6-0_75-1_0-1_1_140
 70
0
 62
7
  6
CONTINUOUS
370
-3
390
F
  0
LAYER
  5
360
100
AcDbSymbolTableRecord
100
AcDbLayerTableRecord
  2
VG_LED-SMT-1_6-0_75-1_0-1_1_141
 70
0
 62
7
  6
CONTINUOUS
370
-3
390
F
  0
LAYER
  5
361
100
AcDbSymbolTableRecord
100
AcDbLayerTableRecord
  2
VG_LED-SMT-1_6-0_75-1_0-1_1_142
 70
0
 62
7
  6
CONTINUOUS
370
-3
390
F
  0
LAYER
  5
362
100
AcDbSymbolTableRecord
100
AcDbLayerTableRecord
  2
VG_LED-SMT-1_6-0_75-1_0-1_1_143
 70
0
 62
7
  6
CONTINUOUS
370
-3
390
F
  0
LAYER
  5
363
100
AcDbSymbolTableRecord
100
AcDbLayerTableRecord
  2
VG_PB-6-3_0-2_7-1_4-SMT_140000
 70
0
 62
7
  6
CONTINUOUS
370
-3
390
F
  0
LAYER
  5
364
100
AcDbSymbolTableRecord
100
AcDbLayerTableRecord
  2
VG_PB-6-3_0-2_7-1_4-SMT_14000_1
 70
0
 62
7
  6
CONTINUOUS
370
-3
390
F
  0
LAYER
  5
365
100
AcDbSymbolTableRecord
100
AcDbLayerTableRecord
  2
VG_QFN40-5_0-5_0-5_0-5_0-0_75-0
 70
0
 62
7
  6
CONTINUOUS
370
-3
390
F
  0
LAYER
  5
366
100
AcDbSymbolTableRecord
100
AcDbLayerTableRecord
  2
VG_SENSOR_VL53L0X_REF_110000
 70
0
 62
7
  6
CONTINUOUS
370
-3
390
F
  0
LAYER
  5
367
100
AcDbSymbolTableRecord
100
AcDbLayerTableRecord
  2
VG_SHT4X-1_5-1_5-0_6-0_8-REF_80
 70
0
 62
7
  6
CONTINUOUS
370
-3
390
F
  0
LAYER
  5
368
100
AcDbSymbolTableRecord
100
AcDbLayerTableRecord
  2
VG_SOD882_50000
 70
0
 62
7
  6
CONTINUOUS
370
-3
390
F
  0
LAYER
  5
369
100
AcDbSymbolTableRecord
100
AcDbLayerTableRecord
  2
VG_SOD882_50000_1
 70
0
 62
7
  6
CONTINUOUS
370
-3
390
F
  0
LAYER
  5
36A
100
AcDbSymbolTableRecord
100
AcDbLayerTableRecord
  2
VG_SOD882_50000_10
 70
0
 62
7
  6
CONTINUOUS
370
-3
390
F
  0
LAYER
  5
36B
100
AcDbSymbolTableRecord
100
AcDbLayerTableRecord
  2
VG_SOD882_50000_2
 70
0
 62
7
  6
CONTINUOUS
370
-3
390
F
  0
LAYER
  5
36C
100
AcDbSymbolTableRecord
100
AcDbLayerTableRecord
  2
VG_SOD882_50000_3
 70
0
 62
7
  6
CONTINUOUS
370
-3
390
F
  0
LAYER
  5
36D
100
AcDbSymbolTableRecord
100
AcDbLayerTableRecord
  2
VG_SOD882_50000_4
 70
0
 62
7
  6
CONTINUOUS
370
-3
390
F
  0
LAYER
  5
36E
100
AcDbSymbolTableRecord
100
AcDbLayerTableRecord
  2
VG_SOD882_50000_5
 70
0
 62
7
  6
CONTINUOUS
370
-3
390
F
  0
LAYER
  5
36F
100
AcDbSymbolTableRecord
100
AcDbLayerTableRecord
  2
VG_SOD882_50000_6
 70
0
 62
7
  6
CONTINUOUS
370
-3
390
F
  0
LAYER
  5
370
100
AcDbSymbolTableRecord
100
AcDbLayerTableRecord
  2
VG_SOD882_50000_7
 70
0
 62
7
  6
CONTINUOUS
370
-3
390
F
  0
LAYER
  5
371
100
AcDbSymbolTableRecord
100
AcDbLayerTableRecord
  2
VG_SOD882_50000_8
 70
0
 62
7
  6
CONTINUOUS
370
-3
390
F
  0
LAYER
  5
372
100
AcDbSymbolTableRecord
100
AcDbLayerTableRecord
  2
VG_SOD882_50000_9
 70
0
 62
7
  6
CONTINUOUS
370
-3
390
F
  0
LAYER
  5
373
100
AcDbSymbolTableRecord
100
AcDbLayerTableRecord
  2
VG_SOT23_H1_1_REF_110000
 70
0
 62
7
  6
CONTINUOUS
370
-3
390
F
  0
LAYER
  5
374
100
AcDbSymbolTableRecord
100
AcDbLayerTableRecord
  2
VG_SOT23_H1_1_REF_110000_1
 70
0
 62
7
  6
CONTINUOUS
370
-3
390
F
  0
LAYER
  5
375
100
AcDbSymbolTableRecord
100
AcDbLayerTableRecord
  2
VG_SOT23_H1_2_REF_120000
 70
0
 62
7
  6
CONTINUOUS
370
-3
390
F
  0
LAYER
  5
376
100
AcDbSymbolTableRecord
100
AcDbLayerTableRecord
  2
X-SMD-3PIN-3_2-2_5_70000
 70
0
 62
7
  6
CONTINUOUS
370
-3
390
F
  0
LAYER
  5
377
100
AcDbSymbolTableRecord
100
AcDbLayerTableRecord
  2
___SHELL
 70
0
 62
7
  6
CONTINUOUS
370
-3
390
F
  0
ENDTAB
  0
TABLE
  2
STYLE
  5
3
100
AcDbSymbolTable
 70
1
  0
STYLE
  5
11
100
AcDbSymbolTableRecord
100
AcDbTextStyleTableRecord
  2
STANDARD
 70
0
 40
0.0
 41
0.8
 50
0.0
 71
0
 42
0.2
  3
txt
  4

  0
STYLE
  5
378
100
AcDbSymbolTableRecord
100
AcDbTextStyleTableRecord
  2
TEXTSTYLE_1
 70
0
 40
0.0
 41
0.8
 50
0.0
 71
0
 42
0.2
  3
gdt
  4

  0
ENDTAB
  0
TABLE
  2
VIEW
  5
6
100
AcDbSymbolTable
 70
0
  0
ENDTAB
  0
TABLE
  2
UCS
  5
7
100
AcDbSymbolTable
 70
0
  0
ENDTAB
  0
TABLE
  2
APPID
  5
9
100
AcDbSymbolTable
 70
1
  0
APPID
  5
379
100
AcDbSymbolTableRecord
100
AcDbRegAppTableRecord
  2
ACAD
 70
0
  0
ENDTAB
  0
TABLE
  2
BLOCK_RECORD
  5
1
100
AcDbSymbolTable
 70
0
  0
BLOCK_RECORD
  5
37A
100
AcDbSymbolTableRecord
100
AcDbBlockTableRecord
  2
*Model_Space
  0
BLOCK_RECORD
  5
37B
100
AcDbSymbolTableRecord
100
AcDbBlockTableRecord
  2
*Paper_Space
  0
BLOCK_RECORD
  5
37C
100
AcDbSymbolTableRecord
100
AcDbBlockTableRecord
  2
_FILLED
  0
BLOCK_RECORD
  5
37D
100
AcDbSymbolTableRecord
100
AcDbBlockTableRecord
  2
*D0
  0
BLOCK_RECORD
  5
37E
100
AcDbSymbolTableRecord
100
AcDbBlockTableRecord
  2
*D1
  0
BLOCK_RECORD
  5
37F
100
AcDbSymbolTableRecord
100
AcDbBlockTableRecord
  2
*D2
  0
BLOCK_RECORD
  5
380
100
AcDbSymbolTableRecord
100
AcDbBlockTableRecord
  2
*D3
  0
ENDTAB
  0
TABLE
  2
DIMSTYLE
  5
A
100
AcDbSymbolTable
 70
1
100
AcDbDimStyleTable
 71
0
  0
DIMSTYLE
105
381
100
AcDbSymbolTableRecord
100
AcDbDimStyleTableRecord
  2
STANDARD
 70
0
  3

  4

 40
1.0
 41
3.0
 42
0.5
 43
0.38
 44
1.5
 45
0.0
 46
0.0
 47
0.01
 48
0.01
140
3.0
141
0.09
142
0.0
143
25.4
144
1.0
145
0.0
146
1.0
147
0.625
 71
1
 72
0
 73
0
 74
0
 75
0
 76
0
 77
1
 78
8
 79
2
170
0
171
1
172
0
173
0
174
0
175
0
176
0
177
0
178
0
270
2
179
2
271
2
272
2
273
2
274
2
275
0
280
0
281
0
282
0
283
1
284
8
285
0
286
0
287
3
288
0
340
11
278
44
341
37C
342
37C
343
37C
344
37C
  0
DIMSTYLE
105
382
100
AcDbSymbolTableRecord
100
AcDbDimStyleTableRecord
  2
DIMSTYLE_1
 70
0
  3

  4

 40
1.0
 41
3.0
 42
0.5
 43
0.38
 44
1.5
 45
0.0
 46
0.0
 47
0.0
 48
0.0
140
3.0
141
0.09
142
0.0
143
25.4
144
1.0
145
0.0
146
1.0
147
0.75
 71
0
 72
0
 73
0
 74
0
 75
0
 76
0
 77
1
 78
8
 79
2
170
0
171
1
172
0
173
0
174
0
175
0
176
0
177
0
178
0
270
2
179
2
271
2
272
2
273
2
274
2
275
0
280
0
281
0
282
0
283
1
284
8
285
0
286
0
287
3
288
0
340
11
278
44
341
37C
342
37C
343
37C
344
37C
  0
DIMSTYLE
105
383
100
AcDbSymbolTableRecord
100
AcDbDimStyleTableRecord
  2
DIMSTYLE_2
 70
0
  3

  4

 40
1.0
 41
3.0
 42
0.5
 43
0.38
 44
1.5
 45
0.0
 46
0.0
 47
0.0
 48
0.0
140
3.0
141
0.09
142
0.0
143
25.4
144
1.0
145
0.0
146
1.0
147
0.75
 71
0
 72
0
 73
0
 74
0
 75
0
 76
0
 77
1
 78
8
 79
2
170
0
171
1
172
0
173
0
174
0
175
0
176
0
177
0
178
0
270
2
179
2
271
1
272
1
273
2
274
2
275
0
280
0
281
0
282
0
283
1
284
8
285
0
286
0
287
3
288
0
340
11
278
44
341
37C
342
37C
343
37C
344
37C
  0
ENDTAB
  0
ENDSEC
  0
SECTION
  2
BLOCKS
  0
BLOCK
  5
20
100
AcDbEntity
  8
0
100
AcDbBlockBegin
  2
*Model_Space
 70
0
 10
0.0
 20
0.0
 30
0.0
  3
*Model_Space
  1

  0
ENDBLK
  5
21
100
AcDbEntity
  8
0
100
AcDbBlockEnd
  0
BLOCK
  5
1C
100
AcDbEntity
  8
0
100
AcDbBlockBegin
  2
*Paper_Space
 70
0
 10
0.0
 20
0.0
 30
0.0
  3
*Paper_Space
  1

  0
ENDBLK
  5
1D
100
AcDbEntity
  8
0
100
AcDbBlockEnd
  0
BLOCK
  5
384
100
AcDbEntity
  8
0
100
AcDbBlockBegin
  2
_FILLED
 70
64
 10
0.0
 20
0.0
  3
_FILLED
  1

  0
SOLID
  5
385
100
AcDbEntity
  8
0
  6
BYBLOCK
 62
0
100
AcDbTrace
 10
0.0
 20
0.0
 11
-1.0
 21
0.3166666667
 12
-1.0
 22
-0.3166666667
 13
-1.0
 23
-0.3166666667
  0
ENDBLK
  5
386
100
AcDbEntity
  8
0
  6
BYBLOCK
 62
0
100
AcDbBlockEnd
  0
BLOCK
  5
387
100
AcDbEntity
  8
0
100
AcDbBlockBegin
 62
7
  6
CONTINUOUS
  2
*D0
 70
65
 10
0.0
 20
0.0
  3
*D0
  1

  0
LINE
  5
388
100
AcDbEntity
  8
0
100
AcDbLine
 62
7
  6
CONTINUOUS
 10
-57.0454737027
 20
43.6411024915
 11
-57.0454737027
 21
55.6094552141
  0
LINE
  5
389
100
AcDbEntity
  8
0
100
AcDbLine
 62
7
  6
CONTINUOUS
 10
-64.8454737027
 20
45.9980220712
 11
-64.8454737027
 21
55.6094552141
  0
LINE
  5
38A
100
AcDbEntity
  8
0
100
AcDbLine
 62
7
  6
CONTINUOUS
 10
-57.0454737027
 20
54.1094552141
 11
-60.9454737027
 21
54.1094552141
  0
LINE
  5
38B
100
AcDbEntity
  8
0
100
AcDbLine
 62
7
  6
CONTINUOUS
 10
-64.8454737027
 20
54.1094552141
 11
-60.9454737027
 21
54.1094552141
  0
LINE
  5
38C
100
AcDbEntity
  8
0
100
AcDbLine
 62
7
  6
CONTINUOUS
 10
-60.9454737027
 20
54.1094552141
 11
-72.7740803313
 21
54.1094552141
  0
INSERT
  5
38D
100
AcDbEntity
  8
0
100
AcDbBlockReference
 62
7
  6
CONTINUOUS
  2
_FILLED
 10
-57.0454737027
 20
54.1094552141
 41
3.0
 42
3.0
 43
3.0
  0
INSERT
  5
38E
100
AcDbEntity
  8
0
100
AcDbBlockReference
 62
7
  6
CONTINUOUS
  2
_FILLED
 10
-64.8454737027
 20
54.1094552141
 41
3.0
 42
3.0
 43
3.0
 50
180.0
  0
ENDBLK
  5
38F
100
AcDbEntity
  8
0
  6
BYBLOCK
 62
0
100
AcDbBlockEnd
  0
BLOCK
  5
390
100
AcDbEntity
  8
0
100
AcDbBlockBegin
 62
7
  6
CONTINUOUS
  2
*D1
 70
65
 10
0.0
 20
0.0
  3
*D1
  1

  0
LINE
  5
391
100
AcDbEntity
  8
0
100
AcDbLine
 62
7
  6
CONTINUOUS
 10
-54.0454737027
 20
40.5472376381
 11
-54.0454737027
 21
65.6352167064
  0
LINE
  5
392
100
AcDbEntity
  8
0
100
AcDbLine
 62
7
  6
CONTINUOUS
 10
-64.8454737027
 20
45.9980220712
 11
-64.8454737027
 21
65.6352167064
  0
LINE
  5
393
100
AcDbEntity
  8
0
100
AcDbLine
 62
7
  6
CONTINUOUS
 10
-54.0454737027
 20
64.1352167064
 11
-50.0454737027
 21
64.1352167064
  0
LINE
  5
394
100
AcDbEntity
  8
0
100
AcDbLine
 62
7
  6
CONTINUOUS
 10
-50.0454737027
 20
64.1352167064
 11
-59.4454737027
 21
64.1352167064
  0
LINE
  5
395
100
AcDbEntity
  8
0
100
AcDbLine
 62
7
  6
CONTINUOUS
 10
-64.8454737027
 20
64.1352167064
 11
-68.8454737027
 21
64.1352167064
  0
LINE
  5
396
100
AcDbEntity
  8
0
100
AcDbLine
 62
7
  6
CONTINUOUS
 10
-68.8454737027
 20
64.1352167064
 11
-59.4454737027
 21
64.1352167064
  0
INSERT
  5
397
100
AcDbEntity
  8
0
100
AcDbBlockReference
 62
7
  6
CONTINUOUS
  2
_FILLED
 10
-54.0454737027
 20
64.1352167064
 41
3.0
 42
3.0
 43
3.0
 50
180.0
  0
INSERT
  5
398
100
AcDbEntity
  8
0
100
AcDbBlockReference
 62
7
  6
CONTINUOUS
  2
_FILLED
 10
-64.8454737027
 20
64.1352167064
 41
3.0
 42
3.0
 43
3.0
  0
ENDBLK
  5
399
100
AcDbEntity
  8
0
  6
BYBLOCK
 62
0
100
AcDbBlockEnd
  0
BLOCK
  5
39A
100
AcDbEntity
  8
0
100
AcDbBlockBegin
 62
7
  6
CONTINUOUS
  2
*D2
 70
65
 10
0.0
 20
0.0
  3
*D2
  1

  0
LINE
  5
39B
100
AcDbEntity
  8
0
100
AcDbLine
 62
7
  6
CONTINUOUS
 10
-31.0346142502
 20
46.0959227512
 11
-31.0346142502
 21
55.6272609871
  0
LINE
  5
39C
100
AcDbEntity
  8
0
100
AcDbLine
 62
7
  6
CONTINUOUS
 10
30.2584037239
 20
46.0959227512
 11
30.2584037239
 21
55.6272609871
  0
LINE
  5
39D
100
AcDbEntity
  8
0
100
AcDbLine
 62
7
  6
CONTINUOUS
 10
-31.0346142502
 20
54.1272609871
 11
-0.3881052632
 21
54.1272609871
  0
LINE
  5
39E
100
AcDbEntity
  8
0
100
AcDbLine
 62
7
  6
CONTINUOUS
 10
30.2584037239
 20
54.1272609871
 11
-0.3881052632
 21
54.1272609871
  0
INSERT
  5
39F
100
AcDbEntity
  8
0
100
AcDbBlockReference
 62
7
  6
CONTINUOUS
  2
_FILLED
 10
-31.0346142502
 20
54.1272609871
 41
3.0
 42
3.0
 43
3.0
 50
180.0
  0
INSERT
  5
3A0
100
AcDbEntity
  8
0
100
AcDbBlockReference
 62
7
  6
CONTINUOUS
  2
_FILLED
 10
30.2584037239
 20
54.1272609871
 41
3.0
 42
3.0
 43
3.0
 50
0.0
  0
ENDBLK
  5
3A1
100
AcDbEntity
  8
0
  6
BYBLOCK
 62
0
100
AcDbBlockEnd
  0
BLOCK
  5
3A2
100
AcDbEntity
  8
0
100
AcDbBlockBegin
 62
7
  6
CONTINUOUS
  2
*D3
 70
65
 10
0.0
 20
0.0
  3
*D3
  1

  0
LINE
  5
3A3
100
AcDbEntity
  8
0
100
AcDbLine
 62
7
  6
CONTINUOUS
 10
30.2584798763
 20
46.0958465988
 11
39.7791501828
 21
46.0958465988
  0
LINE
  5
3A4
100
AcDbEntity
  8
0
100
AcDbLine
 62
7
  6
CONTINUOUS
 10
30.2584798763
 20
-41.8971713753
 11
39.7791501828
 21
-41.8971713753
  0
LINE
  5
3A5
100
AcDbEntity
  8
0
100
AcDbLine
 62
7
  6
CONTINUOUS
 10
38.2791501828
 20
46.0958465988
 11
38.2791501828
 21
2.0993376118
  0
LINE
  5
3A6
100
AcDbEntity
  8
0
100
AcDbLine
 62
7
  6
CONTINUOUS
 10
38.2791501828
 20
-41.8971713753
 11
38.2791501828
 21
2.0993376118
  0
INSERT
  5
3A7
100
AcDbEntity
  8
0
100
AcDbBlockReference
 62
7
  6
CONTINUOUS
  2
_FILLED
 10
38.2791501828
 20
46.0958465988
 41
3.0
 42
3.0
 43
3.0
 50
90.0
  0
INSERT
  5
3A8
100
AcDbEntity
  8
0
100
AcDbBlockReference
 62
7
  6
CONTINUOUS
  2
_FILLED
 10
38.2791501828
 20
-41.8971713753
 41
3.0
 42
3.0
 43
3.0
 50
270.0
  0
ENDBLK
  5
3A9
100
AcDbEntity
  8
0
  6
BYBLOCK
 62
0
100
AcDbBlockEnd
  0
ENDSEC
  0
SECTION
  2
ENTITIES
  0
DIMENSION
  5
3AA
100
AcDbEntity
  8
0
100
AcDbDimension
 62
7
  6
CONTINUOUS
  2
*D0
 10
-64.8454737027
 20
54.1094552141
 11
-72.7740803313
 21
54.1094552141
 70
160
 71
3
 72
2
 41
0.9
 42
7.8
  3
DIMSTYLE_1
100
AcDbAlignedDimension
 13
-57.0454737027
 23
43.1411024915
 14
-64.8454737027
 24
45.4980220712
 50
180.0
100
AcDbRotatedDimension
  0
DIMENSION
  5
3AB
100
AcDbEntity
  8
0
100
AcDbDimension
 62
7
  6
CONTINUOUS
  2
*D1
 10
-64.8454737027
 20
64.1352167064
 11
-63.5169022742
 21
64.1352167064
 70
160
 71
2
 72
2
 41
0.9
 42
10.8
  3
DIMSTYLE_1
100
AcDbAlignedDimension
 13
-54.0454737027
 23
40.0472376381
 14
-64.8454737027
 24
45.4980220712
 50
180.0
100
AcDbRotatedDimension
  0
DIMENSION
  5
3AC
100
AcDbEntity
  8
0
100
AcDbDimension
 62
7
  6
CONTINUOUS
  2
*D2
 10
30.2584037239
 20
54.1272609871
 11
-4.3523909774
 21
54.1272609871
 70
160
 71
2
 72
2
 41
0.9
 42
61.293017974
  3
DIMSTYLE_2
100
AcDbAlignedDimension
 13
-31.0346142502
 23
45.5959227512
 14
30.2584037239
 24
45.5959227512
100
AcDbRotatedDimension
  0
DIMENSION
  5
3AD
100
AcDbEntity
  8
0
100
AcDbDimension
 62
7
  6
CONTINUOUS
  2
*D3
 10
38.2791501828
 20
-41.8971713753
 11
38.2791501828
 21
-0.2578052454
 70
160
 71
2
 72
2
 41
0.9
 42
87.993017974
  3
DIMSTYLE_2
100
AcDbAlignedDimension
 13
29.7584798763
 23
46.0958465988
 14
29.7584798763
 24
-41.8971713753
 50
270.0
100
AcDbRotatedDimension
  0
LWPOLYLINE
  5
3AE
100
AcDbEntity
  8
0
100
AcDbPolyline
 62
7
  6
CONTINUOUS
 90
5
 70
0
 43
0.3500000019
 10
2.2904648438
 20
56.5915463867
 10
2.6476103516
 20
56.805831543
 10
2.6476103516
 20
57.4486870117
 10
2.2904648438
 20
57.8772626953
 10
1.4333242188
 20
57.8772626953
  0
LWPOLYLINE
  5
3AF
100
AcDbEntity
  8
0
100
AcDbPolyline
 62
7
  6
CONTINUOUS
 90
10
 70
0
 43
0.3500000019
 10
-3.2809599609
 20
57.8772626953
 10
-3.9238208008
 20
57.2344018555
 10
-4.3523911133
 20
56.3772612305
 10
-4.3523911133
 20
55.3058300781
 10
-3.9238208008
 20
54.8772597656
 10
-3.2809599609
 20
54.8772597656
 10
-2.8523896484
 20
55.3058300781
 10
-2.8523896484
 20
56.1629760742
 10
-3.2809599609
 20
56.5915463867
 10
-4.2095361328
 20
56.5915463867
  0
LWPOLYLINE
  5
3B0
100
AcDbEntity
  8
0
100
AcDbPolyline
 62
7
  6
CONTINUOUS
 90
3
 70
0
 43
0.3500000019
 10
-1.9952490234
 20
57.0201166992
 10
-1.1381030273
 20
57.8772626953
 10
-1.1381030273
 20
54.8772597656
  0
LWPOLYLINE
  5
3B1
100
AcDbEntity
  8
RACCORDO
100
AcDbPolyline
 62
7
  6
CONTINUOUS
 90
9
 70
0
 10
-6.6036712495
 20
-42.2315439118
 10
-6.5720312409
 20
-42.2284547048
 10
-6.5380021352
 20
-42.2192141648
 10
-6.5061310934
 20
-42.2041457641
 10
-6.4773094243
 20
-42.1836393322
 10
-6.4525554689
 20
-42.1583843475
 10
-6.4328266455
 20
-42.1295073364
 10
-6.4186008638
 20
-42.0981263346
 10
-6.4106526084
 20
-42.0685862637
  0
LWPOLYLINE
  5
3B2
100
AcDbEntity
  8
RACCORDO
100
AcDbPolyline
 62
250
  6
CONTINUOUS
 90
19
 70
0
 10
29.6605791962
 20
-41.7992706952
 10
29.7041420052
 20
-41.7973558026
 10
29.7473734033
 20
-41.79165223
 10
29.7899445012
 20
-41.7822033681
 10
29.8315314326
 20
-41.7690811006
 10
29.8718178185
 20
-41.7523852571
 10
29.9104971738
 20
-41.732242854
 10
29.9472752395
 20
-41.7088071277
 10
29.9818722206
 20
-41.6822563691
 10
30.0140249155
 20
-41.6527925672
 10
30.0434887175
 20
-41.6206398723
 10
30.0700394762
 20
-41.586042891
 10
30.0934752026
 20
-41.5492648253
 10
30.1136176057
 20
-41.51058547
 10
30.1303134491
 20
-41.4702990842
 10
30.1434357166
 20
-41.4287121529
 10
30.1528845785
 20
-41.386141055
 10
30.1585881512
 20
-41.3429096567
 10
30.1605030438
 20
-41.2993468476
  0
LINE
  5
3B3
100
AcDbEntity
  8
RACCORDO
100
AcDbLine
 62
250
  6
CONTINUOUS
 10
-6.6071617495
 20
-42.2315754409
 11
-6.6036712495
 21
-42.2315439118
  0
LINE
  5
3B4
100
AcDbEntity
  8
RACCORDO
100
AcDbLine
 62
7
  6
CONTINUOUS
 10
-10.1881357241
 20
-42.2506623882
 11
-6.5880748022
 21
-42.2506623882
  0
LINE
  5
3B5
100
AcDbEntity
  8
RACCORDO
100
AcDbLine
 62
250
  6
CONTINUOUS
 10
-10.1690487768
 20
-42.2315754409
 11
-6.6071617495
 21
-42.2315754409
  0
LINE
  5
3B6
100
AcDbEntity
  8
RACCORDO
100
AcDbLine
 62
250
  6
CONTINUOUS
 10
-10.3690183158
 20
-42.0316059019
 11
-6.4071922105
 21
-42.0316059019
  0
LINE
  5
3B7
100
AcDbEntity
  8
0
100
AcDbLine
 62
7
  6
CONTINUOUS
 10
-30.5346904026
 20
-41.8971713753
 11
-10.4881052632
 21
-41.8971713753
  0
LINE
  5
3B8
100
AcDbEntity
  8
0
100
AcDbLine
 62
7
  6
CONTINUOUS
 10
-6.2881052632
 20
-41.8971713753
 11
29.7584798763
 21
-41.8971713753
  0
LINE
  5
3B9
100
AcDbEntity
  8
RACCORDO
100
AcDbLine
 62
7
  6
CONTINUOUS
 10
-6.5881052632
 20
-41.8657522584
 11
-10.1881052632
 21
-41.8657522584
  0
LINE
  5
3BA
100
AcDbEntity
  8
RACCORDO
100
AcDbLine
 62
250
  6
CONTINUOUS
 10
-30.4367897226
 20
-41.7992706952
 11
29.6605791962
 21
-41.7992706952
  0
LINE
  5
3BB
100
AcDbEntity
  8
RACCORDO
100
AcDbLine
 62
250
  6
CONTINUOUS
 10
-30.9367135701
 20
-41.2993468476
 11
30.1605030438
 21
-41.2993468476
  0
LWPOLYLINE
  5
3BC
100
AcDbEntity
  8
RACCORDO
100
AcDbPolyline
 62
7
  6
CONTINUOUS
 90
4
 70
0
 10
-10.1881357241
 20
-42.2506623882
 10
-10.2222050164
 20
-42.2477399689
 10
-10.2555911325
 20
-42.2389444678
 10
-10.2872557691
 20
-42.2243725784
  0
LWPOLYLINE
  5
3BD
100
AcDbEntity
  8
RACCORDO
100
AcDbPolyline
 62
250
  6
CONTINUOUS
 90
3
 70
0
 10
-10.2060291386
 20
-42.228115043
 10
-10.2025999095
 20
-42.2287305049
 10
-10.1690487768
 20
-42.2315754409
  0
LWPOLYLINE
  5
3BE
100
AcDbEntity
  8
RACCORDO
100
AcDbPolyline
 62
7
  6
CONTINUOUS
 90
5
 70
0
 10
-10.2872557691
 20
-42.2243725784
 10
-10.3163359688
 20
-42.2041673168
 10
-10.3416101917
 20
-42.1788930939
 10
-10.3618154533
 20
-42.1498128941
 10
-10.3763873427
 20
-42.1181482575
  0
LWPOLYLINE
  5
3BF
100
AcDbEntity
  8
RACCORDO
100
AcDbPolyline
 62
7
  6
CONTINUOUS
 90
3
 70
0
 10
-6.5206193939
 20
-42.2389444678
 10
-6.5540055099
 20
-42.2477399689
 10
-6.5880748022
 20
-42.2506623882
  0
LINE
  5
3C0
100
AcDbEntity
  8
RACCORDO
100
AcDbLine
 62
7
  6
CONTINUOUS
 10
-3.0381052632
 20
-39.7506623882
 11
2.2618947368
 21
-39.7506623882
  0
LINE
  5
3C1
100
AcDbEntity
  8
RACCORDO
100
AcDbLine
 62
7
  6
CONTINUOUS
 10
2.2618947368
 20
-37.0506623882
 11
-3.0381052632
 21
-37.0506623882
  0
LINE
  5
3C2
100
AcDbEntity
  8
RACCORDO
100
AcDbLine
 62
250
  6
CONTINUOUS
 10
-6.6071617495
 20
-42.2315754409
 11
-6.5880748022
 21
-42.2506623882
  0
LINE
  5
3C3
100
AcDbEntity
  8
RACCORDO
100
AcDbLine
 62
250
  6
CONTINUOUS
 10
-6.4071922105
 20
-42.0316059019
 11
-6.3881052632
 21
-42.0506928492
  0
LWPOLYLINE
  5
3C4
100
AcDbEntity
  8
RACCORDO
100
AcDbPolyline
 62
250
  6
CONTINUOUS
 90
19
 70
0
 10
-30.9367135701
 20
-41.2993468476
 10
-30.9347986775
 20
-41.3429096566
 10
-30.9290951049
 20
-41.3861410547
 10
-30.919646243
 20
-41.4287121526
 10
-30.9065239755
 20
-41.470299084
 10
-30.8898281321
 20
-41.5105854699
 10
-30.8696857289
 20
-41.5492648252
 10
-30.8462500026
 20
-41.5860428909
 10
-30.819699244
 20
-41.620639872
 10
-30.7902354421
 20
-41.6527925669
 10
-30.7580827472
 20
-41.6822563689
 10
-30.7234857659
 20
-41.7088071276
 10
-30.6867077002
 20
-41.732242854
 10
-30.6480283449
 20
-41.7523852571
 10
-30.6077419591
 20
-41.7690811005
 10
-30.5661550278
 20
-41.782203368
 10
-30.5235839299
 20
-41.7916522299
 10
-30.4803525316
 20
-41.7973558026
 10
-30.4367897226
 20
-41.7992706952
  0
LINE
  5
3C5
100
AcDbEntity
  8
0
100
AcDbLine
 62
7
  6
CONTINUOUS
 10
-31.0346142502
 20
45.5959227512
 11
-31.0346142502
 21
-41.3972475277
  0
LINE
  5
3C6
100
AcDbEntity
  8
RACCORDO
100
AcDbLine
 62
250
  6
CONTINUOUS
 10
-30.9367135701
 20
45.4980220712
 11
-30.9367135701
 21
-41.2993468476
  0
LINE
  5
3C7
100
AcDbEntity
  8
RACCORDO
100
AcDbLine
 62
250
  6
CONTINUOUS
 10
-30.4367897226
 20
-41.7992706952
 11
-30.4367897226
 21
45.9979459187
  0
LWPOLYLINE
  5
3C8
100
AcDbEntity
  8
RACCORDO
100
AcDbPolyline
 62
7
  6
CONTINUOUS
 90
3
 70
0
 10
-10.3763873427
 20
-42.1181482575
 10
-10.3851828438
 20
-42.0847621415
 10
-10.3881052632
 20
-42.0506928492
  0
LWPOLYLINE
  5
3C9
100
AcDbEntity
  8
0
100
AcDbPolyline
 62
7
  6
CONTINUOUS
 90
3
 70
0
 43
0.3500000019
 10
0.4333232422
 20
55.1629750977
 10
0.3618930664
 20
54.9486899414
 10
0.2190380859
 20
54.6629746094
  0
LWPOLYLINE
  5
3CA
100
AcDbEntity
  8
RACCORDO
100
AcDbPolyline
 62
7
  6
CONTINUOUS
 90
9
 70
0
 10
-10.3689867867
 20
-42.0350964019
 10
-10.3658975797
 20
-42.0667364105
 10
-10.3566570397
 20
-42.1007655162
 10
-10.341588639
 20
-42.132636558
 10
-10.3210822071
 20
-42.1614582271
 10
-10.2958272224
 20
-42.1862121825
 10
-10.2669502113
 20
-42.2059410059
 10
-10.2355692095
 20
-42.2201667876
 10
-10.2060291386
 20
-42.228115043
  0
LINE
  5
3CB
100
AcDbEntity
  8
0
100
AcDbLine
 62
250
  6
CONTINUOUS
 10
29.6605791962
 20
45.9979459187
 11
29.7584798763
 21
46.0958465988
  0
LINE
  5
3CC
100
AcDbEntity
  8
0
100
AcDbLine
 62
250
  6
CONTINUOUS
 10
30.1605030438
 20
45.4980220712
 11
30.2584037239
 21
45.5959227512
  0
LINE
  5
3CD
100
AcDbEntity
  8
RACCORDO
100
AcDbLine
 62
250
  6
CONTINUOUS
 10
-10.3690183158
 20
-42.0316059019
 11
-10.3689867867
 21
-42.0350964019
  0
LINE
  5
3CE
100
AcDbEntity
  8
0
100
AcDbLine
 62
7
  6
CONTINUOUS
 10
-10.4881052632
 20
-41.8971713753
 11
-10.4881052632
 21
-41.8709887779
  0
LINE
  5
3CF
100
AcDbEntity
  8
RACCORDO
100
AcDbLine
 62
7
  6
CONTINUOUS
 10
-10.3881052632
 20
-41.8670878644
 11
-10.3881052632
 21
-42.0506928492
  0
LINE
  5
3D0
100
AcDbEntity
  8
RACCORDO
100
AcDbLine
 62
250
  6
CONTINUOUS
 10
-10.3690183158
 20
-41.8668172576
 11
-10.3690183158
 21
-42.0316059019
  0
LINE
  5
3D1
100
AcDbEntity
  8
RACCORDO
100
AcDbLine
 62
250
  6
CONTINUOUS
 10
-10.1690487768
 20
-41.8657522584
 11
-10.1690487768
 21
-42.2315754409
  0
LINE
  5
3D2
100
AcDbEntity
  8
0
100
AcDbLine
 62
250
  6
CONTINUOUS
 10
29.6605791962
 20
-41.7992706952
 11
29.7584798763
 21
-41.8971713753
  0
LINE
  5
3D3
100
AcDbEntity
  8
0
100
AcDbLine
 62
250
  6
CONTINUOUS
 10
30.1605030438
 20
-41.2993468476
 11
30.2584037239
 21
-41.3972475277
  0
LINE
  5
3D4
100
AcDbEntity
  8
RACCORDO
100
AcDbLine
 62
250
  6
CONTINUOUS
 10
-6.6071617495
 20
-41.8657522584
 11
-6.6071617495
 21
-42.2315754409
  0
LINE
  5
3D5
100
AcDbEntity
  8
RACCORDO
100
AcDbLine
 62
250
  6
CONTINUOUS
 10
-6.4071922105
 20
-42.0316059019
 11
-6.4071922105
 21
-41.8668172575
  0
LINE
  5
3D6
100
AcDbEntity
  8
RACCORDO
100
AcDbLine
 62
7
  6
CONTINUOUS
 10
-6.3881052632
 20
-42.0506928492
 11
-6.3881052632
 21
-41.8670878644
  0
LINE
  5
3D7
100
AcDbEntity
  8
0
100
AcDbLine
 62
7
  6
CONTINUOUS
 10
-6.2881052632
 20
-41.8971713753
 11
-6.2881052632
 21
-41.8709887779
  0
LINE
  5
3D8
100
AcDbEntity
  8
RACCORDO
100
AcDbLine
 62
7
  6
CONTINUOUS
 10
-3.2381052632
 20
-37.2506623882
 11
-3.2381052632
 21
-39.5506623882
  0
LWPOLYLINE
  5
3D9
100
AcDbEntity
  8
RACCORDO
100
AcDbPolyline
 62
7
  6
CONTINUOUS
 90
4
 70
0
 10
-6.3881052632
 20
-42.0506928492
 10
-6.3910276825
 20
-42.0847621415
 10
-6.3998231836
 20
-42.1181482575
 10
-6.414395073
 20
-42.1498128941
  0
LWPOLYLINE
  5
3DA
100
AcDbEntity
  8
0
100
AcDbPolyline
 62
7
  6
CONTINUOUS
 90
4
 70
0
 43
0.3500000019
 10
37.1005771484
 20
-0.2578052406
 10
36.2434365234
 20
-0.2578052406
 10
35.8148662109
 20
0.1707661839
 10
35.8148662109
 20
0.8136233521
  0
LINE
  5
3DB
100
AcDbEntity
  8
RACCORDO
100
AcDbLine
 62
7
  6
CONTINUOUS
 10
2.4618947368
 20
-39.5506623882
 11
2.4618947368
 21
-37.2506623882
  0
LWPOLYLINE
  5
3DC
100
AcDbEntity
  8
RACCORDO
100
AcDbPolyline
 62
250
  6
CONTINUOUS
 90
3
 70
0
 10
-6.4106526084
 20
-42.0685862637
 10
-6.4100371465
 20
-42.0651570346
 10
-6.4071922105
 20
-42.0316059019
  0
LWPOLYLINE
  5
3DD
100
AcDbEntity
  8
0
100
AcDbPolyline
 62
7
  6
CONTINUOUS
 90
4
 70
0
 43
0.3500000019
 10
37.1005771484
 20
2.0993376465
 10
36.2434365234
 20
2.0993376465
 10
35.8148662109
 20
2.5279089661
 10
35.8148662109
 20
3.1707661133
  0
LINE
  5
3DE
100
AcDbEntity
  8
0
100
AcDbLine
 62
250
  6
CONTINUOUS
 10
-30.9367135701
 20
-41.2993468476
 11
-31.0346142502
 21
-41.3972475277
  0
LINE
  5
3DF
100
AcDbEntity
  8
0
100
AcDbLine
 62
250
  6
CONTINUOUS
 10
-30.4367897226
 20
-41.7992706952
 11
-30.5346904026
 21
-41.8971713753
  0
LINE
  5
3E0
100
AcDbEntity
  8
0
100
AcDbLine
 62
250
  6
CONTINUOUS
 10
-30.9367135701
 20
45.4980220712
 11
-31.0346142502
 21
45.5959227512
  0
LINE
  5
3E1
100
AcDbEntity
  8
0
100
AcDbLine
 62
250
  6
CONTINUOUS
 10
-30.4367897226
 20
45.9979459187
 11
-30.5346904026
 21
46.0958465988
  0
LWPOLYLINE
  5
3E2
100
AcDbEntity
  8
RACCORDO
100
AcDbPolyline
 62
7
  6
CONTINUOUS
 90
5
 70
0
 10
-6.414395073
 20
-42.1498128941
 10
-6.4346003346
 20
-42.1788930939
 10
-6.4598745575
 20
-42.2041673168
 10
-6.4889547573
 20
-42.2243725784
 10
-6.5206193939
 20
-42.2389444678
  0
LINE
  5
3E3
100
AcDbEntity
  8
RACCORDO
100
AcDbLine
 62
250
  6
CONTINUOUS
 10
-10.3690183158
 20
-42.0316059019
 11
-10.3881052632
 21
-42.0506928492
  0
LINE
  5
3E4
100
AcDbEntity
  8
RACCORDO
100
AcDbLine
 62
250
  6
CONTINUOUS
 10
-10.1690487768
 20
-42.2315754409
 11
-10.1881357241
 21
-42.2506623882
  0
LWPOLYLINE
  5
3E5
100
AcDbEntity
  8
0
100
AcDbPolyline
 62
7
  6
CONTINUOUS
 90
10
 70
0
 43
0.3500000019
 10
0.3618930664
 20
55.3772602539
 10
0.4333232422
 20
55.2344052734
 10
0.4333232422
 20
55.1629750977
 10
0.2904682617
 20
55.0201201172
 10
0.2190380859
 20
55.0201201172
 10
0.1476079102
 20
55.0915449219
 10
0.1476079102
 20
55.1629750977
 10
0.2190380859
 20
55.3058300781
 10
0.2904682617
 20
55.3772602539
 10
0.3618930664
 20
55.3772602539
  0
LINE
  5
3E6
100
AcDbEntity
  8
RACCORDO
100
AcDbLine
 62
250
  6
CONTINUOUS
 10
29.6605791962
 20
-41.7992706952
 11
29.6605791962
 21
45.9979459187
  0
LWPOLYLINE
  5
3E7
100
AcDbEntity
  8
0
100
AcDbPolyline
 62
7
  6
CONTINUOUS
 90
13
 70
0
 43
0.3500000019
 10
35.8148662109
 20
2.5279089661
 10
35.6005810547
 20
2.242194809
 10
34.9577255859
 20
2.242194809
 10
34.5291552734
 20
2.5279089661
 10
34.5291552734
 20
3.1707661133
 10
34.9577255859
 20
3.4564804382
 10
35.6005810547
 20
3.4564804382
 10
35.8148662109
 20
3.1707661133
 10
36.2434365234
 20
3.5993377686
 10
37.1005771484
 20
3.5993377686
 10
37.5291474609
 20
3.1707661133
 10
37.5291474609
 20
2.5279089661
 10
37.1005771484
 20
2.0993376465
  0
LWPOLYLINE
  5
3E8
100
AcDbEntity
  8
0
100
AcDbPolyline
 62
7
  6
CONTINUOUS
 90
13
 70
0
 43
0.3500000019
 10
35.8148662109
 20
0.1707661839
 10
35.6005810547
 20
-0.1149480991
 10
34.9577255859
 20
-0.1149480991
 10
34.5291552734
 20
0.1707661839
 10
34.5291552734
 20
0.8136233521
 10
34.9577255859
 20
1.0993375931
 10
35.6005810547
 20
1.0993375931
 10
35.8148662109
 20
0.8136233521
 10
36.2434365234
 20
1.2421947556
 10
37.1005771484
 20
1.2421947556
 10
37.5291474609
 20
0.8136233521
 10
37.5291474609
 20
0.1707661839
 10
37.1005771484
 20
-0.2578052406
  0
LWPOLYLINE
  5
3E9
100
AcDbEntity
  8
RACCORDO
100
AcDbPolyline
 62
250
  6
CONTINUOUS
 90
19
 70
0
 10
30.1605030438
 20
45.4980220712
 10
30.1585881512
 20
45.5415848801
 10
30.1528845786
 20
45.5848162782
 10
30.1434357167
 20
45.6273873761
 10
30.1303134492
 20
45.6689743075
 10
30.1136176057
 20
45.7092606934
 10
30.0934752026
 20
45.7479400487
 10
30.0700394763
 20
45.7847181144
 10
30.0434887177
 20
45.8193150955
 10
30.0140249158
 20
45.8514677904
 10
29.9818722209
 20
45.8809315924
 10
29.9472752396
 20
45.9074823512
 10
29.9104971739
 20
45.9309180775
 10
29.8718178186
 20
45.9510604806
 10
29.8315314328
 20
45.967756324
 10
29.7899445015
 20
45.9808785915
 10
29.7473734036
 20
45.9903274534
 10
29.7041420053
 20
45.9960310261
 10
29.6605791962
 20
45.9979459187
  0
LINE
  5
3EA
100
AcDbEntity
  8
RACCORDO
100
AcDbLine
 62
250
  6
CONTINUOUS
 10
30.1605030438
 20
-41.2993468476
 11
30.1605030438
 21
45.4980220712
  0
LINE
  5
3EB
100
AcDbEntity
  8
0
100
AcDbLine
 62
7
  6
CONTINUOUS
 10
30.2584037239
 20
-41.3972475277
 11
30.2584037239
 21
45.5959227512
  0
LWPOLYLINE
  5
3EC
100
AcDbEntity
  8
RACCORDO
100
AcDbPolyline
 62
250
  6
CONTINUOUS
 90
19
 70
0
 10
-30.4367897226
 20
45.9979459187
 10
-30.4803525315
 20
45.9960310261
 10
-30.5235839296
 20
45.9903274535
 10
-30.5661550275
 20
45.9808785916
 10
-30.6077419589
 20
45.9677563241
 10
-30.6480283448
 20
45.9510604807
 10
-30.6867077001
 20
45.9309180775
 10
-30.7234857658
 20
45.9074823512
 10
-30.7580827469
 20
45.8809315926
 10
-30.7902354418
 20
45.8514677907
 10
-30.8196992438
 20
45.8193150958
 10
-30.8462500026
 20
45.7847181145
 10
-30.8696857289
 20
45.7479400488
 10
-30.889828132
 20
45.7092606935
 10
-30.9065239754
 20
45.6689743077
 10
-30.9196462429
 20
45.6273873764
 10
-30.9290951049
 20
45.5848162785
 10
-30.9347986775
 20
45.5415848802
 10
-30.9367135701
 20
45.4980220712
  0
LINE
  5
3ED
100
AcDbEntity
  8
RACCORDO
100
AcDbLine
 62
250
  6
CONTINUOUS
 10
-30.9367135701
 20
45.4980220712
 11
30.1605030438
 21
45.4980220712
  0
LINE
  5
3EE
100
AcDbEntity
  8
RACCORDO
100
AcDbLine
 62
250
  6
CONTINUOUS
 10
29.6605791962
 20
45.9979459187
 11
-30.4367897226
 21
45.9979459187
  0
LINE
  5
3EF
100
AcDbEntity
  8
0
100
AcDbLine
 62
7
  6
CONTINUOUS
 10
29.7584798763
 20
46.0958465988
 11
-30.5346904026
 21
46.0958465988
  0
LWPOLYLINE
  5
3F0
100
AcDbEntity
  8
0
100
AcDbPolyline
 62
7
  6
CONTINUOUS
 90
6
 70
0
 43
0.3500000019
 10
1.4333242188
 20
54.8772597656
 10
2.50475
 20
54.8772597656
 10
2.7190351563
 20
55.0915449219
 10
2.7190351563
 20
56.1629760742
 10
2.2904648438
 20
56.5915463867
 10
1.8618945313
 20
56.5915463867
  0
LWPOLYLINE
  5
3F1
100
AcDbEntity
  8
0
100
AcDbPolyline
 62
7
  6
CONTINUOUS
 90
3
 70
0
 43
0.3500000019
 10
-63.5169022217
 20
67.0280756836
 10
-62.6597595825
 20
67.8852163086
 10
-62.6597595825
 20
64.88521875
  0
LINE
  5
3F2
100
AcDbEntity
  8
RACCORDO
100
AcDbLine
 62
7
  6
CONTINUOUS
 10
-58.7054737027
 20
-42.2506623882
 11
-58.6919832215
 21
-42.250426911
  0
LINE
  5
3F3
100
AcDbEntity
  8
RACCORDO
100
AcDbLine
 62
250
  6
CONTINUOUS
 10
-58.7054737027
 20
-42.0506928492
 11
-58.6919832215
 21
-42.050457372
  0
LINE
  5
3F4
100
AcDbEntity
  8
RACCORDO
100
AcDbLine
 62
250
  6
CONTINUOUS
 10
-58.4954737027
 20
-42.050457372
 11
-58.6919832215
 21
-42.050457372
  0
LINE
  5
3F5
100
AcDbEntity
  8
RACCORDO
100
AcDbLine
 62
250
  6
CONTINUOUS
 10
-59.798964184
 20
-42.0316059019
 11
-59.9954737027
 21
-42.0316059019
  0
LINE
  5
3F6
100
AcDbEntity
  8
RACCORDO
100
AcDbLine
 62
250
  6
CONTINUOUS
 10
-64.8454737027
 20
-41.2993468476
 11
-64.354199906
 21
-41.2993468476
  0
LINE
  5
3F7
100
AcDbEntity
  8
RACCORDO
100
AcDbLine
 62
7
  6
CONTINUOUS
 10
-59.798964184
 20
-42.2315754409
 11
-58.7054737027
 21
-42.2506623882
  0
LINE
  5
3F8
100
AcDbEntity
  8
RACCORDO
100
AcDbLine
 62
250
  6
CONTINUOUS
 10
-59.798964184
 20
-42.0316059019
 11
-58.7054737027
 21
-42.0506928492
  0
LINE
  5
3F9
100
AcDbEntity
  8
0
100
AcDbLine
 62
7
  6
CONTINUOUS
 10
-64.354199906
 20
-41.7992706952
 11
-58.7454737027
 21
-41.8971713753
  0
LINE
  5
3FA
100
AcDbEntity
  8
RACCORDO
100
AcDbLine
 62
7
  6
CONTINUOUS
 10
-58.7454737027
 20
-41.6471713753
 11
-58.5454737027
 21
-41.6506623882
  0
LINE
  5
3FB
100
AcDbEntity
  8
0
100
AcDbLine
 62
250
  6
CONTINUOUS
 10
-64.354199906
 20
-41.2993468476
 11
-58.7454737027
 21
-41.3972475277
  0
LINE
  5
3FC
100
AcDbEntity
  8
RACCORDO
100
AcDbLine
 62
250
  6
CONTINUOUS
 10
-58.7454730383
 20
-41.3972094631
 11
-58.5454737027
 21
-41.4007004645
  0
LINE
  5
3FD
100
AcDbEntity
  8
RACCORDO
100
AcDbLine
 62
7
  6
CONTINUOUS
 10
-58.5454737027
 20
-40.2534551986
 11
-58.4954737027
 21
-40.2543279519
  0
LINE
  5
3FE
100
AcDbEntity
  8
RACCORDO
100
AcDbLine
 62
7
  6
CONTINUOUS
 10
-58.5454737027
 20
-39.4685337129
 11
-57.0454737027
 21
-39.4423511155
  0
LINE
  5
3FF
100
AcDbEntity
  8
RACCORDO
100
AcDbLine
 62
250
  6
CONTINUOUS
 10
-58.5454737027
 20
-38.9686098654
 11
-57.0454737027
 21
-38.942427268
  0
LWPOLYLINE
  5
400
100
AcDbEntity
  8
RACCORDO
100
AcDbPolyline
 62
250
  6
CONTINUOUS
 90
19
 70
0
 10
-56.6559440834
 20
-35.6918220412
 10
-56.6729131748
 20
-35.6931874895
 10
-56.6894366408
 20
-35.6958673312
 10
-56.7055144815
 20
-35.6998615665
 10
-56.721232694
 20
-35.7052159143
 10
-56.7365052812
 20
-35.7118846556
 10
-56.7510742513
 20
-35.7197306333
 10
-56.7649299972
 20
-35.7287572652
 10
-56.7780821261
 20
-35.7389611335
 10
-56.7903014678
 20
-35.7501948279
 10
-56.8015825753
 20
-35.7624389294
 10
-56.8119308956
 20
-35.775712857
 10
-56.821133599
 20
-35.7899274571
 10
-56.8292272246
 20
-35.805167481
 10
-56.8361752333
 20
-35.8213481774
 10
-56.8416551783
 20
-35.8381261389
 10
-56.8455595773
 20
-35.8553868964
 10
-56.8479959125
 20
-35.873244919
 10
-56.848964184
 20
-35.8917002066
  0
LINE
  5
401
100
AcDbEntity
  8
RACCORDO
100
AcDbLine
 62
7
  6
CONTINUOUS
 10
-57.0454737027
 20
-34.7006623882
 11
-55.0177388191
 21
-34.594393306
  0
LINE
  5
402
100
AcDbEntity
  8
RACCORDO
100
AcDbLine
 62
7
  6
CONTINUOUS
 10
-56.0488440053
 20
-35.7658593123
 11
-54.2384938034
 21
-35.7026404902
  0
LINE
  5
403
100
AcDbEntity
  8
RACCORDO
100
AcDbLine
 62
250
  6
CONTINUOUS
 10
-55.7594113115
 20
-35.660514427
 11
-56.6559440834
 21
-35.6918220412
  0
LINE
  5
404
100
AcDbEntity
  8
RACCORDO
100
AcDbLine
 62
250
  6
CONTINUOUS
 10
-55.4414029157
 20
-35.5447688366
 11
-54.2384938034
 21
-35.5027623248
  0
LINE
  5
405
100
AcDbEntity
  8
RACCORDO
100
AcDbLine
 62
7
  6
CONTINUOUS
 10
-56.6594335014
 20
-35.4919438758
 11
-54.3350038537
 21
-35.4107730039
  0
LINE
  5
406
100
AcDbEntity
  8
RACCORDO
100
AcDbLine
 62
250
  6
CONTINUOUS
 10
-56.6594335014
 20
-34.9922484623
 11
-54.3350038537
 21
-34.9110775904
  0
LINE
  5
407
100
AcDbEntity
  8
RACCORDO
100
AcDbLine
 62
250
  6
CONTINUOUS
 10
-57.0454737027
 20
-35.8917002066
 11
-56.848964184
 21
-35.8917002066
  0
LINE
  5
408
100
AcDbEntity
  8
RACCORDO
100
AcDbLine
 62
250
  6
CONTINUOUS
 10
-54.2384938034
 20
-35.5027623248
 11
-54.0454737027
 21
-35.5027623248
  0
LINE
  5
409
100
AcDbEntity
  8
RACCORDO
100
AcDbLine
 62
250
  6
CONTINUOUS
 10
-57.0454737027
 20
-34.9922484623
 11
-56.6594335014
 21
-34.9922484623
  0
LINE
  5
40A
100
AcDbEntity
  8
RACCORDO
100
AcDbLine
 62
250
  6
CONTINUOUS
 10
-54.3350038537
 20
-34.9110775904
 11
-54.0454737027
 21
-34.9110775904
  0
LINE
  5
40B
100
AcDbEntity
  8
RACCORDO
100
AcDbLine
 62
250
  6
CONTINUOUS
 10
-54.2384938034
 20
-34.2985624517
 11
-54.0454737027
 21
-34.2985624517
  0
LINE
  5
40C
100
AcDbEntity
  8
RACCORDO
100
AcDbLine
 62
250
  6
CONTINUOUS
 10
-57.0454737027
 20
-34.2072809641
 11
-56.8524536021
 21
-34.2072809641
  0
LINE
  5
40D
100
AcDbEntity
  8
DRAFT
100
AcDbLine
 62
7
  6
CONTINUOUS
 10
-54.3770526963
 20
-34.3190833946
 11
-54.8492679916
 21
-34.3025932732
  0
LINE
  5
40E
100
AcDbEntity
  8
RACCORDO
100
AcDbLine
 62
250
  6
CONTINUOUS
 10
-56.8524536021
 20
-34.2072809641
 11
-54.2384938034
 21
-34.2985624517
  0
LINE
  5
40F
100
AcDbEntity
  8
RACCORDO
100
AcDbLine
 62
7
  6
CONTINUOUS
 10
-56.8524536021
 20
-34.0074027987
 11
-54.2384938034
 21
-34.0986842863
  0
LINE
  5
410
100
AcDbEntity
  8
DRAFT
100
AcDbLine
 62
7
  6
CONTINUOUS
 10
-54.8492679916
 20
-33.4987315033
 11
-54.3770526963
 21
-33.4822413818
  0
LINE
  5
411
100
AcDbEntity
  8
RACCORDO
100
AcDbLine
 62
7
  6
CONTINUOUS
 10
-57.8867474995
 20
-33.3437811108
 11
-58.5454737027
 21
-33.3552792194
  0
LINE
  5
412
100
AcDbEntity
  8
RACCORDO
100
AcDbLine
 62
250
  6
CONTINUOUS
 10
-54.3350038537
 20
-32.8902471861
 11
-54.0454737027
 21
-32.8902471861
  0
LINE
  5
413
100
AcDbEntity
  8
RACCORDO
100
AcDbLine
 62
250
  6
CONTINUOUS
 10
-57.0454737027
 20
-32.8090763142
 11
-56.6594335014
 21
-32.8090763135
  0
LINE
  5
414
100
AcDbEntity
  8
RACCORDO
100
AcDbLine
 62
250
  6
CONTINUOUS
 10
-54.3350038537
 20
-32.8902471861
 11
-56.6594335014
 21
-32.8090763142
  0
LINE
  5
415
100
AcDbEntity
  8
RACCORDO
100
AcDbLine
 62
7
  6
CONTINUOUS
 10
-54.3350038537
 20
-32.3905517726
 11
-56.6594335014
 21
-32.3093809007
  0
LINE
  5
416
100
AcDbEntity
  8
DRAFT
100
AcDbLine
 62
7
  6
CONTINUOUS
 10
-57.0454737027
 20
-33.489755613
 11
-58.5454737027
 21
-33.4111439441
  0
LINE
  5
417
100
AcDbEntity
  8
RACCORDO
100
AcDbLine
 62
7
  6
CONTINUOUS
 10
-57.0454737027
 20
-33.1006623882
 11
-55.0177388191
 21
-33.2069314705
  0
LINE
  5
418
100
AcDbEntity
  8
DRAFT
100
AcDbLine
 62
7
  6
CONTINUOUS
 10
-57.0454737027
 20
-28.3115691635
 11
-58.5454737027
 21
-28.3901808324
  0
LINE
  5
419
100
AcDbEntity
  8
RACCORDO
100
AcDbLine
 62
7
  6
CONTINUOUS
 10
-57.8867474995
 20
-28.4575436657
 11
-58.5454737027
 21
-28.4460455571
  0
LWPOLYLINE
  5
41A
100
AcDbEntity
  8
0
100
AcDbPolyline
 62
7
  6
CONTINUOUS
 90
3
 70
0
 43
0.3500000019
 10
-69.7026517487
 20
55.1451699219
 10
-69.7740803299
 20
54.9308847656
 10
-69.9169374924
 20
54.6451694336
  0
LWPOLYLINE
  5
41B
100
AcDbEntity
  8
RACCORDO
100
AcDbPolyline
 62
250
  6
CONTINUOUS
 90
14
 70
0
 10
-56.8524527992
 20
40.7425971733
 10
-56.8530436299
 20
40.7418544707
 10
-56.8535636861
 20
40.7396037248
 10
-56.8540160114
 20
40.7358848583
 10
-56.854406257
 20
40.7307584502
 10
-56.8547329334
 20
40.724278702
 10
-56.8549885867
 20
40.7164688566
 10
-56.8551743276
 20
40.7073717863
 10
-56.8552925519
 20
40.6970638558
 10
-56.855338251
 20
40.6856074821
 10
-56.8553117443
 20
40.6731245591
 10
-56.8552128878
 20
40.6596679422
 10
-56.855037704
 20
40.6451762976
 10
-56.8544566685
 20
40.6132254113
  0
LWPOLYLINE
  5
41C
100
AcDbEntity
  8
RACCORDO
100
AcDbPolyline
 62
250
  6
CONTINUOUS
 90
13
 70
0
 10
-56.8524485534
 20
38.4425969879
 10
-56.8530400038
 20
38.4418644209
 10
-56.8535606301
 20
38.4396225508
 10
-56.8540134891
 20
38.435911115
 10
-56.8544042642
 20
38.4307904489
 10
-56.8547314607
 20
38.4243146765
 10
-56.8549875739
 20
38.416507279
 10
-56.8551737025
 20
38.4074113259
 10
-56.85529226
 20
38.397103142
 10
-56.8553382236
 20
38.3856451661
 10
-56.8553119026
 20
38.3731591885
 10
-56.8552131694
 20
38.3596983305
 10
-56.8547843781
 20
38.3296559732
  0
LWPOLYLINE
  5
41D
100
AcDbEntity
  8
RACCORDO
100
AcDbPolyline
 62
250
  6
CONTINUOUS
 90
13
 70
0
 10
-56.6594329629
 20
39.6906190805
 10
-56.6603420749
 20
39.6895128655
 10
-56.661170609
 20
39.6861999487
 10
-56.6619193462
 20
39.6807939232
 10
-56.6625871509
 20
39.6734538094
 10
-56.6631738377
 20
39.6642830896
 10
-56.6636843794
 20
39.653237189
 10
-56.6641264915
 20
39.6403155782
 10
-56.6644971291
 20
39.6256167472
 10
-56.6647890787
 20
39.6091581285
 10
-56.6650024041
 20
39.5909560188
 10
-56.6651408047
 20
39.5711122941
 10
-56.6651841307
 20
39.5271956004
  0
LINE
  5
41E
100
AcDbEntity
  8
RACCORDO
100
AcDbLine
 62
7
  6
CONTINUOUS
 10
-54.3770526963
 20
38.5177586182
 11
-54.1333416684
 21
38.7614696461
  0
LWPOLYLINE
  5
41F
100
AcDbEntity
  8
0
100
AcDbPolyline
 62
7
  6
CONTINUOUS
 90
3
 70
0
 43
0.3500000019
 10
-58.7311878662
 20
65.1709287109
 10
-58.8026166992
 20
64.9566435547
 10
-58.9454743652
 20
64.6709335938
  0
LWPOLYLINE
  5
420
100
AcDbEntity
  8
RACCORDO
100
AcDbPolyline
 62
250
  6
CONTINUOUS
 90
12
 70
0
 10
-54.2384990593
 20
38.3513159343
 10
-54.2378701373
 20
38.3521319053
 10
-54.2373236618
 20
38.354651114
 10
-54.2368543998
 20
38.3588654648
 10
-54.2364532071
 20
38.3647866619
 10
-54.2361195548
 20
38.372358682
 10
-54.2358657081
 20
38.3813758179
 10
-54.2357070425
 20
38.3917137265
 10
-54.2356308428
 20
38.4032247906
 10
-54.2356165574
 20
38.4155174591
 10
-54.2356728293
 20
38.4281793915
 10
-54.2360010149
 20
38.4548615482
  0
LINE
  5
421
100
AcDbEntity
  8
IMPORT_IGES
100
AcDbLine
 62
250
  6
CONTINUOUS
 10
-55.7120619083
 20
23.3820180402
 11
-55.8838809222
 21
23.2796548325
  0
LINE
  5
422
100
AcDbEntity
  8
RACCORDO
100
AcDbLine
 62
7
  6
CONTINUOUS
 10
-54.3770526963
 20
-34.3190833946
 11
-54.1333416684
 21
-34.5627944226
  0
LWPOLYLINE
  5
423
100
AcDbEntity
  8
RACCORDO
100
AcDbPolyline
 62
250
  6
CONTINUOUS
 90
8
 70
0
 10
-64.354199906
 20
-41.7992706952
 10
-64.354926873
 20
-41.7973558026
 10
-64.3555819237
 20
-41.79165223
 10
-64.3561600745
 20
-41.7822033681
 10
-64.356656927
 20
-41.7690811006
 10
-64.3570687015
 20
-41.7523852571
 10
-64.3573922652
 20
-41.732242854
 10
-64.3576251566
 20
-41.7088071277
  0
LWPOLYLINE
  5
424
100
AcDbEntity
  8
RACCORDO
100
AcDbPolyline
 62
250
  6
CONTINUOUS
 90
13
 70
0
 10
-54.2384938034
 20
37.5473595098
 10
-54.2378038372
 20
37.5484781831
 10
-54.2371977726
 20
37.5517711108
 10
-54.2366822395
 20
37.5572022701
 10
-54.2362628775
 20
37.5647122441
 10
-54.2359442737
 20
37.5742188819
 10
-54.2357299131
 20
37.585618207
 10
-54.2356221411
 20
37.5987855281
 10
-54.2356221369
 20
37.6135768128
 10
-54.2357299014
 20
37.6298302879
 10
-54.235944257
 20
37.6473681923
 10
-54.2362628597
 20
37.6659986588
 10
-54.2371977599
 20
37.7057121464
  0
LWPOLYLINE
  5
425
100
AcDbEntity
  8
RACCORDO
100
AcDbPolyline
 62
250
  6
CONTINUOUS
 90
13
 70
0
 10
-54.2384980502
 20
39.8473593986
 10
-54.2378073645
 20
39.8484662151
 10
-54.237200607
 20
39.8517491024
 10
-54.2366844203
 20
39.8571721199
 10
-54.2362644556
 20
39.8646758936
 10
-54.23594531
 20
39.8741782768
 10
-54.2357304771
 20
39.8855752589
 10
-54.2356223091
 20
39.8987420778
 10
-54.2356219908
 20
39.9135345949
 10
-54.2357295262
 20
39.9297908981
 10
-54.2359437395
 20
39.9473330575
 10
-54.2362622862
 20
39.9659690107
 10
-54.2371973241
 20
40.0056962754
  0
LWPOLYLINE
  5
426
100
AcDbEntity
  8
0
100
AcDbPolyline
 62
7
  6
CONTINUOUS
 90
4
 70
0
 43
0.3500000019
 10
-72.7740803223
 20
57.2165966797
 10
-72.7740803223
 20
57.8594575195
 10
-71.2740803261
 20
57.8594575195
 10
-72.131223175
 20
54.8594545898
  0
LINE
  5
427
100
AcDbEntity
  8
DRAFT
100
AcDbLine
 62
7
  6
CONTINUOUS
 10
-54.8492679916
 20
37.6974067268
 11
-55.0177388191
 21
37.405606694
  0
LINE
  5
428
100
AcDbEntity
  8
DRAFT
100
AcDbLine
 62
7
  6
CONTINUOUS
 10
-55.0177388191
 20
-33.2069314705
 11
-54.8492679916
 21
-33.4987315033
  0
LWPOLYLINE
  5
429
100
AcDbEntity
  8
0
100
AcDbPolyline
 62
7
  6
CONTINUOUS
 90
4
 70
0
 43
0.3500000019
 10
-68.7026517792
 20
55.2880249023
 10
-68.7026517792
 20
56.1451708984
 10
-68.2740802917
 20
56.5737412109
 10
-67.6312231445
 20
56.5737412109
  0
LWPOLYLINE
  5
42A
100
AcDbEntity
  8
RACCORDO
100
AcDbPolyline
 62
250
  6
CONTINUOUS
 90
11
 70
0
 10
-54.3350038537
 20
36.5892269961
 10
-54.3341373098
 20
36.5911593756
 10
-54.3333549849
 20
36.5968434796
 10
-54.3326646342
 20
36.6061842707
 10
-54.3320754704
 20
36.6190363126
 10
-54.3315890748
 20
36.635267822
 10
-54.3312022034
 20
36.6548194505
 10
-54.3309192042
 20
36.6775719392
 10
-54.3307444959
 20
36.703346424
 10
-54.3306769133
 20
36.7320321015
 10
-54.330869399
 20
36.797289521
  0
LINE
  5
42B
100
AcDbEntity
  8
RACCORDO
100
AcDbLine
 62
7
  6
CONTINUOUS
 10
-57.8867474995
 20
-10.3437811108
 11
-58.5454737027
 21
-10.3552792194
  0
LINE
  5
42C
100
AcDbEntity
  8
DRAFT
100
AcDbLine
 62
7
  6
CONTINUOUS
 10
-57.0454737027
 20
-10.489755613
 11
-58.5454737027
 21
-10.4111439441
  0
LWPOLYLINE
  5
42D
100
AcDbEntity
  8
IMPORT_IGES
100
AcDbPolyline
 62
7
  6
CONTINUOUS
 90
13
 70
0
 10
-56.5240057961
 20
22.3021954052
 10
-56.5041811427
 20
22.3386724268
 10
-56.4818922985
 20
22.3735871861
 10
-56.4571392636
 20
22.4069396831
 10
-56.4296941779
 20
22.4389195371
 10
-56.3997849015
 20
22.4693371287
 10
-56.3680950139
 20
22.4976236004
 10
-56.3346252672
 20
22.5237798523
 10
-56.2993749093
 20
22.5478049843
 10
-56.2630252639
 20
22.5691274386
 10
-56.2258034387
 20
22.587556696
 10
-56.187482326
 20
22.6032832757
 10
-56.1480619257
 20
22.6163071778
  0
LWPOLYLINE
  5
42E
100
AcDbEntity
  8
RACCORDO
100
AcDbPolyline
 62
250
  6
CONTINUOUS
 90
6
 70
0
 10
-59.798964184
 20
-42.2315754409
 10
-59.7995229167
 20
-42.2284547048
 10
-59.7999556027
 20
-42.2192141648
 10
-59.8002488939
 20
-42.2041457641
 10
-59.8003940369
 20
-42.1836393322
 10
-59.8003852914
 20
-42.1583843475
  0
LINE
  5
42F
100
AcDbEntity
  8
RACCORDO
100
AcDbLine
 62
250
  6
CONTINUOUS
 10
-64.354199906
 20
45.4980220712
 11
-64.3561600745
 21
45.6273873761
  0
LINE
  5
430
100
AcDbEntity
  8
RACCORDO
100
AcDbLine
 62
250
  6
CONTINUOUS
 10
-64.3561600745
 20
45.6273873761
 11
-64.3573922652
 21
45.7479400487
  0
LINE
  5
431
100
AcDbEntity
  8
RACCORDO
100
AcDbLine
 62
250
  6
CONTINUOUS
 10
-64.3573922652
 20
45.7479400487
 11
-64.3577656039
 21
45.8193150955
  0
LINE
  5
432
100
AcDbEntity
  8
RACCORDO
100
AcDbLine
 62
250
  6
CONTINUOUS
 10
-64.3576251566
 20
-41.7088071277
 11
-64.3578125387
 21
-41.6527925672
  0
LINE
  5
433
100
AcDbEntity
  8
RACCORDO
100
AcDbLine
 62
7
  6
CONTINUOUS
 10
-64.8454737027
 20
-41.2993468476
 11
-64.8454737027
 21
45.4980220712
  0
LINE
  5
434
100
AcDbEntity
  8
RACCORDO
100
AcDbLine
 62
250
  6
CONTINUOUS
 10
-64.354199906
 20
-41.2993468476
 11
-64.354199906
 21
45.4980220712
  0
LWPOLYLINE
  5
435
100
AcDbEntity
  8
RACCORDO
100
AcDbPolyline
 62
250
  6
CONTINUOUS
 90
10
 70
0
 10
-64.3577656039
 20
45.8193150955
 10
-64.3577656039
 20
45.8809315924
 10
-64.3576251566
 20
45.9074823512
 10
-64.3573922652
 20
45.9309180775
 10
-64.3570687015
 20
45.9510604806
 10
-64.356656927
 20
45.967756324
 10
-64.3561600745
 20
45.9808785915
 10
-64.3555819237
 20
45.9903274534
 10
-64.354926873
 20
45.9960310261
 10
-64.354199906
 20
45.9979459187
  0
LINE
  5
436
100
AcDbEntity
  8
RACCORDO
100
AcDbLine
 62
250
  6
CONTINUOUS
 10
-64.3578125387
 20
-41.6527925672
 11
-64.3576251566
 21
-41.586042891
  0
LINE
  5
437
100
AcDbEntity
  8
RACCORDO
100
AcDbLine
 62
250
  6
CONTINUOUS
 10
-64.3576251566
 20
-41.586042891
 11
-64.356656927
 21
-41.4702990842
  0
LWPOLYLINE
  5
438
100
AcDbEntity
  8
RACCORDO
100
AcDbPolyline
 62
250
  6
CONTINUOUS
 90
3
 70
0
 10
-64.356656927
 20
-41.4702990842
 10
-64.354926873
 20
-41.3429096567
 10
-64.354199906
 20
-41.2993468476
  0
LWPOLYLINE
  5
439
100
AcDbEntity
  8
IMPORT_IGES
100
AcDbPolyline
 62
7
  6
CONTINUOUS
 90
13
 70
0
 10
-55.9409530029
 20
23.7662170359
 10
-55.9516304485
 20
23.7261044201
 10
-55.9594451497
 20
23.6854297842
 10
-55.9643971063
 20
23.6441931281
 10
-55.9664516916
 20
23.6020992435
 10
-55.9656435323
 20
23.5594433388
 10
-55.9620765093
 20
23.5171110394
 10
-55.9557506226
 20
23.4751023452
 10
-55.9466658721
 20
23.4334172563
 10
-55.9349261388
 20
23.392941398
 10
-55.9205660495
 20
23.3539699789
 10
-55.9035509773
 20
23.3162077904
 10
-55.8838809223
 20
23.2796548326
  0
LINE
  5
43A
100
AcDbEntity
  8
DRAFT
100
AcDbLine
 62
7
  6
CONTINUOUS
 10
-57.0454737027
 20
-5.3115691635
 11
-58.5454737027
 21
-5.3901808324
  0
LINE
  5
43B
100
AcDbEntity
  8
RACCORDO
100
AcDbLine
 62
7
  6
CONTINUOUS
 10
-57.8867474995
 20
-5.4575436657
 11
-58.5454737027
 21
-5.4460455571
  0
LWPOLYLINE
  5
43C
100
AcDbEntity
  8
RACCORDO
100
AcDbPolyline
 62
250
  6
CONTINUOUS
 90
9
 70
0
 10
-58.6919832215
 20
-42.050457372
 10
-58.691000413
 20
-42.1188382666
 10
-58.6907062778
 20
-42.150424563
 10
-58.6905569423
 20
-42.1789745818
 10
-58.6905569423
 20
-42.2036211806
 10
-58.6907062778
 20
-42.2236157746
 10
-58.691000413
 20
-42.2383510732
 10
-58.6914304144
 20
-42.2473795249
 10
-58.6919832215
 20
-42.250426911
  0
LWPOLYLINE
  5
43D
100
AcDbEntity
  8
0
100
AcDbPolyline
 62
7
  6
CONTINUOUS
 90
13
 70
0
 43
0.3500000019
 10
-61.802616272
 20
65.742359375
 10
-61.802616272
 20
67.0280756836
 10
-61.5883311157
 20
67.4566459961
 10
-61.1597594604
 20
67.8852163086
 10
-60.9454736328
 20
67.8852163086
 10
-60.5169019775
 20
67.4566459961
 10
-60.3026168213
 20
67.0280756836
 10
-60.3026168213
 20
65.742359375
 10
-60.5169019775
 20
65.3137890625
 10
-60.9454736328
 20
64.88521875
 10
-61.1597594604
 20
64.88521875
 10
-61.5883311157
 20
65.3137890625
 10
-61.802616272
 20
65.742359375
  0
LINE
  5
43E
100
AcDbEntity
  8
RACCORDO
100
AcDbLine
 62
7
  6
CONTINUOUS
 10
-59.9954737027
 20
-42.0316059019
 11
-59.9954737027
 21
-41.8753525441
  0
LINE
  5
43F
100
AcDbEntity
  8
RACCORDO
100
AcDbLine
 62
250
  6
CONTINUOUS
 10
-59.798964184
 20
-42.0316059019
 11
-59.798964184
 21
-41.8787826305
  0
LINE
  5
440
100
AcDbEntity
  8
RACCORDO
100
AcDbLine
 62
250
  6
CONTINUOUS
 10
-59.8003852914
 20
-42.1583843475
 11
-59.7999261637
 21
-42.0981263346
  0
LINE
  5
441
100
AcDbEntity
  8
RACCORDO
100
AcDbLine
 62
250
  6
CONTINUOUS
 10
-59.7999261637
 20
-42.0981263346
 11
-59.798964184
 21
-42.0316059019
  0
LINE
  5
442
100
AcDbEntity
  8
RACCORDO
100
AcDbLine
 62
250
  6
CONTINUOUS
 10
-56.6576304854
 20
-35.6401105818
 11
-56.6559440834
 21
-35.6918220412
  0
LINE
  5
443
100
AcDbEntity
  8
RACCORDO
100
AcDbLine
 62
250
  6
CONTINUOUS
 10
-56.853599733
 20
-34.1713215851
 11
-56.8524526418
 21
-34.2072809976
  0
LINE
  5
444
100
AcDbEntity
  8
RACCORDO
100
AcDbLine
 62
250
  6
CONTINUOUS
 10
-56.6589643973
 20
-35.5919197968
 11
-56.6576304854
 21
-35.6401105818
  0
LINE
  5
445
100
AcDbEntity
  8
RACCORDO
100
AcDbLine
 62
250
  6
CONTINUOUS
 10
-56.8544566685
 20
-34.1367745887
 11
-56.853599733
 21
-34.1713215851
  0
LINE
  5
446
100
AcDbEntity
  8
RACCORDO
100
AcDbLine
 62
250
  6
CONTINUOUS
 10
-56.6620549386
 20
-32.7037555123
 11
-56.6594328081
 21
-32.8090763384
  0
LINE
  5
447
100
AcDbEntity
  8
RACCORDO
100
AcDbLine
 62
250
  6
CONTINUOUS
 10
-56.8547843781
 20
38.3296559732
 11
-56.8540623006
 21
38.2961925598
  0
LINE
  5
448
100
AcDbEntity
  8
RACCORDO
100
AcDbLine
 62
250
  6
CONTINUOUS
 10
-56.6638858241
 20
-32.6062345429
 11
-56.6620549386
 21
-32.7037555123
  0
LINE
  5
449
100
AcDbEntity
  8
RACCORDO
100
AcDbLine
 62
250
  6
CONTINUOUS
 10
-56.6643153399
 20
39.4233191396
 11
-56.6633615768
 21
39.3625309464
  0
LINE
  5
44A
100
AcDbEntity
  8
RACCORDO
100
AcDbLine
 62
250
  6
CONTINUOUS
 10
-56.664650943
 20
-32.5486796225
 11
-56.6638858241
 21
-32.6062345429
  0
LINE
  5
44B
100
AcDbEntity
  8
RACCORDO
100
AcDbLine
 62
250
  6
CONTINUOUS
 10
-56.6649066247
 20
39.4780172968
 11
-56.6643153399
 21
39.4233191396
  0
LWPOLYLINE
  5
44C
100
AcDbEntity
  8
RACCORDO
100
AcDbPolyline
 62
250
  6
CONTINUOUS
 90
11
 70
0
 10
-56.6650785334
 20
-35.383233207
 10
-56.6648984803
 20
-35.4022985153
 10
-56.6646451293
 20
-35.4196042521
 10
-56.6643105419
 20
-35.4351931332
 10
-56.6638834543
 20
-35.4492479789
 10
-56.6633681472
 20
-35.4616740344
 10
-56.6627680356
 20
-35.4721991358
 10
-56.6620748776
 20
-35.4806448985
 10
-56.6612862412
 20
-35.4868501978
 10
-56.6604057912
 20
-35.4906651166
 10
-56.6594328191
 20
-35.491943852
  0
LWPOLYLINE
  5
44D
100
AcDbEntity
  8
RACCORDO
100
AcDbPolyline
 62
250
  6
CONTINUOUS
 90
11
 70
0
 10
-56.6650785334
 20
36.616766793
 10
-56.6648984803
 20
36.5977014847
 10
-56.6646451293
 20
36.5803957479
 10
-56.6643105419
 20
36.5648068668
 10
-56.6638834543
 20
36.5507520211
 10
-56.6633681472
 20
36.5383259656
 10
-56.6627680356
 20
36.5278008642
 10
-56.6620748776
 20
36.5193551015
 10
-56.6612862412
 20
36.5131498022
 10
-56.6604057912
 20
36.5093348834
 10
-56.6594328191
 20
36.508056148
  0
LINE
  5
44E
100
AcDbEntity
  8
RACCORDO
100
AcDbLine
 62
250
  6
CONTINUOUS
 10
-56.6650867337
 20
-32.496665884
 11
-56.664650943
 21
-32.5486796225
  0
LINE
  5
44F
100
AcDbEntity
  8
RACCORDO
100
AcDbLine
 62
250
  6
CONTINUOUS
 10
-56.6651841307
 20
39.5271956004
 11
-56.6649066247
 21
39.4780172968
  0
LINE
  5
450
100
AcDbEntity
  8
RACCORDO
100
AcDbLine
 62
250
  6
CONTINUOUS
 10
-56.6652015384
 20
-35.3403982052
 11
-56.6650785334
 21
-35.383233207
  0
LINE
  5
451
100
AcDbEntity
  8
RACCORDO
100
AcDbLine
 62
250
  6
CONTINUOUS
 10
-56.6652015384
 20
36.6596017948
 11
-56.6650785334
 21
36.616766793
  0
LINE
  5
452
100
AcDbEntity
  8
RACCORDO
100
AcDbLine
 62
250
  6
CONTINUOUS
 10
-56.6652015887
 20
-32.4502128116
 11
-56.6650867337
 21
-32.496665884
  0
LINE
  5
453
100
AcDbEntity
  8
0
100
AcDbLine
 62
7
  6
CONTINUOUS
 10
-58.7454737027
 20
-41.8971713753
 11
-58.7454737027
 21
46.0958465988
  0
LINE
  5
454
100
AcDbEntity
  8
RACCORDO
100
AcDbLine
 62
250
  6
CONTINUOUS
 10
-58.6919832215
 20
-41.6481050551
 11
-58.6919832215
 21
-42.050457372
  0
LINE
  5
455
100
AcDbEntity
  8
RACCORDO
100
AcDbLine
 62
7
  6
CONTINUOUS
 10
-58.5454737027
 20
-41.6506623882
 11
-58.5454737027
 21
45.8493376118
  0
LINE
  5
456
100
AcDbEntity
  8
DRAFT
100
AcDbLine
 62
7
  6
CONTINUOUS
 10
-58.4954737027
 20
-40.2543279519
 11
-58.4954737027
 21
-39.4676609597
  0
LINE
  5
457
100
AcDbEntity
  8
RACCORDO
100
AcDbLine
 62
7
  6
CONTINUOUS
 10
-58.4954737027
 20
-40.2543279519
 11
-58.4954737027
 21
-42.050457372
  0
LWPOLYLINE
  5
458
100
AcDbEntity
  8
0
100
AcDbPolyline
 62
7
  6
CONTINUOUS
 90
4
 70
0
 43
0.3500000019
 10
-57.7311882324
 20
65.3137890625
 10
-57.7311882324
 20
66.1709296875
 10
-57.3026165771
 20
66.5995
 10
-56.6597597656
 20
66.5995
  0
LINE
  5
459
100
AcDbEntity
  8
RACCORDO
100
AcDbLine
 62
7
  6
CONTINUOUS
 10
-57.3954737027
 20
-32.8438572632
 11
-57.3954737027
 21
-28.9574675133
  0
LINE
  5
45A
100
AcDbEntity
  8
RACCORDO
100
AcDbLine
 62
7
  6
CONTINUOUS
 10
-57.3954737027
 20
-9.8438572632
 11
-57.3954737027
 21
-5.9574675133
  0
LINE
  5
45B
100
AcDbEntity
  8
RACCORDO
100
AcDbLine
 62
7
  6
CONTINUOUS
 10
-57.3954737027
 20
10.1561427368
 11
-57.3954737027
 21
14.0425324867
  0
LINE
  5
45C
100
AcDbEntity
  8
RACCORDO
100
AcDbLine
 62
7
  6
CONTINUOUS
 10
-57.3954737027
 20
33.1561427368
 11
-57.3954737027
 21
37.0425324867
  0
LINE
  5
45D
100
AcDbEntity
  8
DRAFT
100
AcDbLine
 62
7
  6
CONTINUOUS
 10
-57.0454737027
 20
-33.489755613
 11
-57.0454737027
 21
37.6884308365
  0
LINE
  5
45E
100
AcDbEntity
  8
RACCORDO
100
AcDbLine
 62
7
  6
CONTINUOUS
 10
-57.0454737027
 20
-33.489755613
 11
-57.0454737027
 21
-39.4423511155
  0
LINE
  5
45F
100
AcDbEntity
  8
RACCORDO
100
AcDbLine
 62
7
  6
CONTINUOUS
 10
-57.0454737027
 20
37.6884308365
 11
-57.0454737027
 21
43.6410263391
  0
LINE
  5
460
100
AcDbEntity
  8
IMPORT_IGES
100
AcDbLine
 62
7
  6
CONTINUOUS
 10
-56.9704737027
 20
18.0493376118
 11
-56.9704737027
 21
26.0993376118
  0
LINE
  5
461
100
AcDbEntity
  8
RACCORDO
100
AcDbLine
 62
250
  6
CONTINUOUS
 10
-56.8524536021
 20
40.5427190359
 11
-56.8524536021
 21
40.2557544647
  0
LINE
  5
462
100
AcDbEntity
  8
RACCORDO
100
AcDbLine
 62
250
  6
CONTINUOUS
 10
-56.8524536021
 20
38.8892218569
 11
-56.8524536021
 21
38.6424753667
  0
LINE
  5
463
100
AcDbEntity
  8
RACCORDO
100
AcDbLine
 62
250
  6
CONTINUOUS
 10
-56.8524536021
 20
38.2427190359
 11
-56.8524536021
 21
37.6559561876
  0
LINE
  5
464
100
AcDbEntity
  8
RACCORDO
100
AcDbLine
 62
250
  6
CONTINUOUS
 10
-56.8524536021
 20
-34.2072809641
 11
-56.8524536021
 21
-34.6905466334
  0
LINE
  5
465
100
AcDbEntity
  8
RACCORDO
100
AcDbLine
 62
250
  6
CONTINUOUS
 10
-56.848964184
 20
40.2557544647
 11
-56.848964184
 21
40.0903754302
  0
LINE
  5
466
100
AcDbEntity
  8
RACCORDO
100
AcDbLine
 62
250
  6
CONTINUOUS
 10
-56.848964184
 20
-35.8917002066
 11
-56.848964184
 21
-36.0570792412
  0
LINE
  5
467
100
AcDbEntity
  8
RACCORDO
100
AcDbLine
 62
250
  6
CONTINUOUS
 10
-56.6594335014
 20
39.1909236858
 11
-56.6594335014
 21
38.8791061021
  0
LINE
  5
468
100
AcDbEntity
  8
RACCORDO
100
AcDbLine
 62
250
  6
CONTINUOUS
 10
-56.6594335014
 20
37.3195691214
 11
-56.6594335014
 21
37.0077515377
  0
LINE
  5
469
100
AcDbEntity
  8
RACCORDO
100
AcDbLine
 62
250
  6
CONTINUOUS
 10
-56.6594335014
 20
-32.8090763142
 11
-56.6594335014
 21
-33.1208938979
  0
LINE
  5
46A
100
AcDbEntity
  8
RACCORDO
100
AcDbLine
 62
250
  6
CONTINUOUS
 10
-56.6594335014
 20
-34.6804308786
 11
-56.6594335014
 21
-34.9922484623
  0
LINE
  5
46B
100
AcDbEntity
  8
RACCORDO
100
AcDbLine
 62
7
  6
CONTINUOUS
 10
-58.7054737027
 20
-41.6471713753
 11
-58.7054737027
 21
-42.2506623882
  0
LWPOLYLINE
  5
46C
100
AcDbEntity
  8
RACCORDO
100
AcDbPolyline
 62
250
  6
CONTINUOUS
 90
11
 70
0
 10
-56.8552925519
 20
37.5287050346
 10
-56.855338251
 20
37.5159580203
 10
-56.8553117443
 20
37.5042652013
 10
-56.8552128878
 20
37.4936735629
 10
-56.855037704
 20
37.4841715453
 10
-56.854784007
 20
37.475829164
 10
-56.8544566685
 20
37.4688193249
 10
-56.8540620334
 20
37.4632822839
 10
-56.853599733
 20
37.4592886499
 10
-56.8530644674
 20
37.4568742445
 10
-56.8524526418
 20
37.4560780557
  0
LINE
  5
46D
100
AcDbEntity
  8
RACCORDO
100
AcDbLine
 62
250
  6
CONTINUOUS
 10
-56.6649995169
 20
36.7082984652
 11
-56.6652015384
 21
36.6596017948
  0
LINE
  5
46E
100
AcDbEntity
  8
RACCORDO
100
AcDbLine
 62
250
  6
CONTINUOUS
 10
-56.6649995169
 20
-35.2917015348
 11
-56.6652015384
 21
-35.3403982052
  0
LINE
  5
46F
100
AcDbEntity
  8
RACCORDO
100
AcDbLine
 62
250
  6
CONTINUOUS
 10
-56.6644817108
 20
36.7619207551
 11
-56.6649995169
 21
36.7082984652
  0
LINE
  5
470
100
AcDbEntity
  8
RACCORDO
100
AcDbLine
 62
250
  6
CONTINUOUS
 10
-56.6644817108
 20
-35.2380792449
 11
-56.6649995169
 21
-35.2917015348
  0
LINE
  5
471
100
AcDbEntity
  8
RACCORDO
100
AcDbLine
 62
250
  6
CONTINUOUS
 10
-56.8549885867
 20
37.5568753523
 11
-56.8552925519
 21
37.5287050346
  0
LWPOLYLINE
  5
472
100
AcDbEntity
  8
RACCORDO
100
AcDbPolyline
 62
250
  6
CONTINUOUS
 90
12
 70
0
 10
-56.8546851028
 20
38.5612075536
 10
-56.8550036507
 20
38.5425717861
 10
-56.8552178685
 20
38.5250297175
 10
-56.8553254108
 20
38.5087734063
 10
-56.8553251004
 20
38.493980807
 10
-56.8552169399
 20
38.4808138297
 10
-56.855002112
 20
38.4694166166
 10
-56.8546829676
 20
38.4599139913
 10
-56.854263001
 20
38.4524100306
 10
-56.8537468109
 20
38.4469868905
 10
-56.8531400481
 20
38.4437039306
 10
-56.8524493553
 20
38.4425970901
  0
LINE
  5
473
100
AcDbEntity
  8
RACCORDO
100
AcDbLine
 62
250
  6
CONTINUOUS
 10
-56.6631272522
 20
36.8494956001
 11
-56.6644817108
 21
36.7619207551
  0
LWPOLYLINE
  5
474
100
AcDbEntity
  8
RACCORDO
100
AcDbPolyline
 62
250
  6
CONTINUOUS
 90
3
 70
0
 10
-56.6625266184
 20
-35.1199152147
 10
-56.6631272522
 20
-35.1505043999
 10
-56.6644817108
 20
-35.2380792449
  0
LINE
  5
475
100
AcDbEntity
  8
RACCORDO
100
AcDbLine
 62
250
  6
CONTINUOUS
 10
-56.854406257
 20
37.5879032606
 11
-56.8549885867
 21
37.5568753523
  0
LINE
  5
476
100
AcDbEntity
  8
RACCORDO
100
AcDbLine
 62
250
  6
CONTINUOUS
 10
-56.6598550265
 20
39.7492050814
 11
-56.6589644627
 21
39.7905933096
  0
LINE
  5
477
100
AcDbEntity
  8
RACCORDO
100
AcDbLine
 62
250
  6
CONTINUOUS
 10
-56.6611238008
 20
36.9431122778
 11
-56.6631272522
 21
36.8494956001
  0
LINE
  5
478
100
AcDbEntity
  8
RACCORDO
100
AcDbLine
 62
250
  6
CONTINUOUS
 10
-56.8537500695
 20
38.6009343996
 11
-56.8546851028
 21
38.5612075536
  0
LINE
  5
479
100
AcDbEntity
  8
RACCORDO
100
AcDbLine
 62
250
  6
CONTINUOUS
 10
-56.8535636861
 20
37.6212160779
 11
-56.854406257
 21
37.5879032606
  0
LINE
  5
47A
100
AcDbEntity
  8
RACCORDO
100
AcDbLine
 62
250
  6
CONTINUOUS
 10
-56.6594329839
 20
37.0077515557
 11
-56.6611238008
 21
36.9431122778
  0
LINE
  5
47B
100
AcDbEntity
  8
RACCORDO
100
AcDbLine
 62
250
  6
CONTINUOUS
 10
-56.6589644627
 20
39.7905933096
 11
-56.6576305367
 21
39.8387845785
  0
LINE
  5
47C
100
AcDbEntity
  8
RACCORDO
100
AcDbLine
 62
250
  6
CONTINUOUS
 10
-56.8524536021
 20
38.6424753667
 11
-56.8537500695
 21
38.6009343996
  0
LINE
  5
47D
100
AcDbEntity
  8
RACCORDO
100
AcDbLine
 62
250
  6
CONTINUOUS
 10
-56.8524527992
 20
37.6559562156
 11
-56.8535636861
 21
37.6212160779
  0
LINE
  5
47E
100
AcDbEntity
  8
RACCORDO
100
AcDbLine
 62
250
  6
CONTINUOUS
 10
-56.6576305367
 20
39.8387845785
 11
-56.6559440834
 21
39.8904972648
  0
LWPOLYLINE
  5
47F
100
AcDbEntity
  8
RACCORDO
100
AcDbPolyline
 62
250
  6
CONTINUOUS
 90
19
 70
0
 10
-56.848964184
 20
40.0903754302
 10
-56.8482070123
 20
40.073446117
 10
-56.8461197619
 20
40.0568948803
 10
-56.8427024329
 20
40.0407217201
 10
-56.8379110385
 20
40.0248307405
 10
-56.8317895655
 20
40.0093178374
 10
-56.8244699742
 20
39.9944706982
 10
-56.815954983
 20
39.9803121156
 10
-56.8062418736
 20
39.966819297
 10
-56.795454451
 20
39.9542115522
 10
-56.7836034684
 20
39.9424847779
 10
-56.7706781727
 20
39.9316430774
 10
-56.7567701104
 20
39.9219180699
 10
-56.7417958212
 20
39.9132752785
 10
-56.7258387654
 20
39.90574918
 10
-56.709240871
 20
39.8996748245
 10
-56.6921161138
 20
39.895163895
 10
-56.6743505179
 20
39.8921047085
 10
-56.6559440834
 20
39.8904972648
  0
LINE
  5
480
100
AcDbEntity
  8
RACCORDO
100
AcDbLine
 62
250
  6
CONTINUOUS
 10
-54.2373727626
 20
38.5155871416
 11
-54.2384944599
 21
38.5511939021
  0
LINE
  5
481
100
AcDbEntity
  8
RACCORDO
100
AcDbLine
 62
250
  6
CONTINUOUS
 10
-56.853599733
 20
40.5786784149
 11
-56.8524526418
 21
40.5427190024
  0
LINE
  5
482
100
AcDbEntity
  8
RACCORDO
100
AcDbLine
 62
250
  6
CONTINUOUS
 10
-54.2371977599
 20
-35.5442878536
 11
-54.2384938034
 21
-35.5027623248
  0
LINE
  5
483
100
AcDbEntity
  8
RACCORDO
100
AcDbLine
 62
250
  6
CONTINUOUS
 10
-54.2371977599
 20
37.7057121464
 11
-54.2384938034
 21
37.7472376752
  0
LINE
  5
484
100
AcDbEntity
  8
RACCORDO
100
AcDbLine
 62
250
  6
CONTINUOUS
 10
-54.2371973241
 20
40.0056962754
 11
-54.2384938034
 21
40.0472376752
  0
LWPOLYLINE
  5
485
100
AcDbEntity
  8
RACCORDO
100
AcDbPolyline
 62
250
  6
CONTINUOUS
 90
3
 70
0
 10
-56.8540623006
 20
38.2961925598
 10
-56.8535999465
 20
38.278684794
 10
-56.852452641
 20
38.2427190023
  0
LINE
  5
486
100
AcDbEntity
  8
RACCORDO
100
AcDbLine
 62
250
  6
CONTINUOUS
 10
-54.2365380345
 20
38.4834839564
 11
-54.2373727626
 21
38.5155871416
  0
LINE
  5
487
100
AcDbEntity
  8
RACCORDO
100
AcDbLine
 62
250
  6
CONTINUOUS
 10
-56.8544566685
 20
40.6132254113
 11
-56.853599733
 21
40.5786784149
  0
LINE
  5
488
100
AcDbEntity
  8
RACCORDO
100
AcDbLine
 62
250
  6
CONTINUOUS
 10
-56.6620549386
 20
39.2962444877
 11
-56.6594328081
 21
39.1909236616
  0
LINE
  5
489
100
AcDbEntity
  8
RACCORDO
100
AcDbLine
 62
250
  6
CONTINUOUS
 10
-56.6633615768
 20
39.3625309464
 11
-56.6620549386
 21
39.2962444877
  0
LINE
  5
48A
100
AcDbEntity
  8
RACCORDO
100
AcDbLine
 62
250
  6
CONTINUOUS
 10
-54.2360010149
 20
38.4548615482
 11
-54.2365380345
 21
38.4834839564
  0
LINE
  5
48B
100
AcDbEntity
  8
RACCORDO
100
AcDbLine
 62
250
  6
CONTINUOUS
 10
-54.3325929415
 20
-35.0445313402
 11
-54.3350038537
 21
-34.9110775904
  0
LINE
  5
48C
100
AcDbEntity
  8
RACCORDO
100
AcDbLine
 62
250
  6
CONTINUOUS
 10
-54.3325929415
 20
36.9554686598
 11
-54.3350038537
 21
37.0889224096
  0
LINE
  5
48D
100
AcDbEntity
  8
RACCORDO
100
AcDbLine
 62
250
  6
CONTINUOUS
 10
-54.3315062789
 20
-35.1276254603
 11
-54.3325929415
 21
-35.0445313402
  0
LINE
  5
48E
100
AcDbEntity
  8
RACCORDO
100
AcDbLine
 62
250
  6
CONTINUOUS
 10
-54.3315062789
 20
36.8723745397
 11
-54.3325929415
 21
36.9554686598
  0
LWPOLYLINE
  5
48F
100
AcDbEntity
  8
RACCORDO
100
AcDbPolyline
 62
250
  6
CONTINUOUS
 90
8
 70
0
 10
-54.3308686302
 20
-32.4847571255
 10
-54.3311309653
 20
-32.4608932496
 10
-54.3315056741
 20
-32.4400801842
 10
-54.3319933634
 20
-32.4226276177
 10
-54.3325929926
 20
-32.4087919118
 10
-54.3332996265
 20
-32.3987507109
 10
-54.3341060351
 20
-32.3926328994
 10
-54.3350038537
 20
-32.3905517726
  0
LWPOLYLINE
  5
490
100
AcDbEntity
  8
RACCORDO
100
AcDbPolyline
 62
250
  6
CONTINUOUS
 90
8
 70
0
 10
-54.3308686302
 20
39.5152428745
 10
-54.3311309653
 20
39.5391067504
 10
-54.3315056741
 20
39.5599198158
 10
-54.3319933634
 20
39.5773723823
 10
-54.3325929926
 20
39.5912080882
 10
-54.3332996265
 20
39.6012492891
 10
-54.3341060351
 20
39.6073671006
 10
-54.3350038537
 20
39.6094482274
  0
LINE
  5
491
100
AcDbEntity
  8
RACCORDO
100
AcDbLine
 62
250
  6
CONTINUOUS
 10
-54.330869399
 20
-35.202710479
 11
-54.3315062789
 21
-35.1276254603
  0
LINE
  5
492
100
AcDbEntity
  8
RACCORDO
100
AcDbLine
 62
250
  6
CONTINUOUS
 10
-54.330869399
 20
36.797289521
 11
-54.3315062789
 21
36.8723745397
  0
LWPOLYLINE
  5
493
100
AcDbEntity
  8
RACCORDO
100
AcDbPolyline
 62
250
  6
CONTINUOUS
 90
10
 70
0
 10
-54.2356167995
 20
39.7945612848
 10
-54.2356735652
 20
39.8052961211
 10
-54.2358093579
 20
39.8146241902
 10
-54.236002692
 20
39.822824908
 10
-54.2362400689
 20
39.8298401431
 10
-54.236540597
 20
39.8356855616
 10
-54.2369194181
 20
39.8405246413
 10
-54.2373761684
 20
39.8442333725
 10
-54.2379032042
 20
39.8465671998
 10
-54.2384987045
 20
39.8473593016
  0
LINE
  5
494
100
AcDbEntity
  8
RACCORDO
100
AcDbLine
 62
250
  6
CONTINUOUS
 10
-54.3306769853
 20
-32.5408918496
 11
-54.3308686302
 21
-32.4847571255
  0
LINE
  5
495
100
AcDbEntity
  8
RACCORDO
100
AcDbLine
 62
250
  6
CONTINUOUS
 10
-54.3306769853
 20
39.4591081504
 11
-54.3308686302
 21
39.5152428745
  0
LINE
  5
496
100
AcDbEntity
  8
RACCORDO
100
AcDbLine
 62
250
  6
CONTINUOUS
 10
-54.3350038537
 20
-34.9110775904
 11
-54.3350038537
 21
-34.3611322373
  0
LINE
  5
497
100
AcDbEntity
  8
RACCORDO
100
AcDbLine
 62
250
  6
CONTINUOUS
 10
-54.3350038537
 20
-33.4401925392
 11
-54.3350038537
 21
-32.8902471861
  0
LINE
  5
498
100
AcDbEntity
  8
RACCORDO
100
AcDbLine
 62
250
  6
CONTINUOUS
 10
-54.3350038537
 20
37.0889224096
 11
-54.3350038537
 21
37.6388677627
  0
LINE
  5
499
100
AcDbEntity
  8
RACCORDO
100
AcDbLine
 62
250
  6
CONTINUOUS
 10
-54.3350038537
 20
38.5598074608
 11
-54.3350038537
 21
39.1097528139
  0
LINE
  5
49A
100
AcDbEntity
  8
RACCORDO
100
AcDbLine
 62
250
  6
CONTINUOUS
 10
-54.2384938034
 20
-35.5027623248
 11
-54.2384938034
 21
-35.3909407623
  0
LINE
  5
49B
100
AcDbEntity
  8
RACCORDO
100
AcDbLine
 62
250
  6
CONTINUOUS
 10
-54.2384938034
 20
-34.4576422876
 11
-54.2384938034
 21
-34.2985624517
  0
LINE
  5
49C
100
AcDbEntity
  8
RACCORDO
100
AcDbLine
 62
250
  6
CONTINUOUS
 10
-54.2384938034
 20
37.7472376752
 11
-54.2384938034
 21
38.1514375483
  0
LINE
  5
49D
100
AcDbEntity
  8
RACCORDO
100
AcDbLine
 62
250
  6
CONTINUOUS
 10
-54.2384938034
 20
38.5511938791
 11
-54.2384938034
 21
38.6563175111
  0
LINE
  5
49E
100
AcDbEntity
  8
RACCORDO
100
AcDbLine
 62
250
  6
CONTINUOUS
 10
-54.2384938034
 20
39.5896159415
 11
-54.2384938034
 21
39.6474813444
  0
LINE
  5
49F
100
AcDbEntity
  8
RACCORDO
100
AcDbLine
 62
250
  6
CONTINUOUS
 10
-54.2384938034
 20
40.0472376752
 11
-54.2384938034
 21
40.4514375483
  0
LINE
  5
4A0
100
AcDbEntity
  8
RACCORDO
100
AcDbLine
 62
7
  6
CONTINUOUS
 10
-54.0454737027
 20
-35.5027623248
 11
-54.0454737027
 21
-34.2985624517
  0
LINE
  5
4A1
100
AcDbEntity
  8
RACCORDO
100
AcDbLine
 62
7
  6
CONTINUOUS
 10
-54.0454737027
 20
-33.0263983195
 11
-54.0454737027
 21
-32.6903690207
  0
LINE
  5
4A2
100
AcDbEntity
  8
RACCORDO
100
AcDbLine
 62
7
  6
CONTINUOUS
 10
-54.0454737027
 20
36.8890442442
 11
-54.0454737027
 21
37.225073543
  0
LINE
  5
4A3
100
AcDbEntity
  8
RACCORDO
100
AcDbLine
 62
7
  6
CONTINUOUS
 10
-54.0454737027
 20
37.7472376752
 11
-54.0454737027
 21
40.4514375483
  0
LINE
  5
4A4
100
AcDbEntity
  8
RACCORDO
100
AcDbLine
 62
250
  6
CONTINUOUS
 10
-54.3309203879
 20
39.3930144448
 11
-54.3306769853
 21
39.4591081504
  0
LINE
  5
4A5
100
AcDbEntity
  8
RACCORDO
100
AcDbLine
 62
250
  6
CONTINUOUS
 10
-54.3309203879
 20
-32.6069855552
 11
-54.3306769853
 21
-32.5408918496
  0
LINE
  5
4A6
100
AcDbEntity
  8
RACCORDO
100
AcDbLine
 62
250
  6
CONTINUOUS
 10
-54.3315909815
 20
39.3187854819
 11
-54.3309203879
 21
39.3930144448
  0
LINE
  5
4A7
100
AcDbEntity
  8
RACCORDO
100
AcDbLine
 62
250
  6
CONTINUOUS
 10
-54.3315909815
 20
-32.6812145181
 11
-54.3309203879
 21
-32.6069855552
  0
LWPOLYLINE
  5
4A8
100
AcDbEntity
  8
RACCORDO
100
AcDbPolyline
 62
250
  6
CONTINUOUS
 90
3
 70
0
 10
-54.2358643502
 20
39.7532755763
 10
-54.2357062189
 20
39.768324699
 10
-54.2356167995
 20
39.7945612848
  0
LINE
  5
4A9
100
AcDbEntity
  8
RACCORDO
100
AcDbLine
 62
250
  6
CONTINUOUS
 10
-54.3333573966
 20
39.196190642
 11
-54.3315909815
 21
39.3187854819
  0
LINE
  5
4AA
100
AcDbEntity
  8
RACCORDO
100
AcDbLine
 62
250
  6
CONTINUOUS
 10
-54.3333573966
 20
-32.803809358
 11
-54.3315909815
 21
-32.6812145181
  0
LWPOLYLINE
  5
4AB
100
AcDbEntity
  8
RACCORDO
100
AcDbPolyline
 62
250
  6
CONTINUOUS
 90
12
 70
0
 10
-54.2362628775
 20
40.5326756411
 10
-54.2359442737
 20
40.5513058974
 10
-54.2357299131
 20
40.5688437068
 10
-54.2356221411
 20
40.585097216
 10
-54.2356221369
 20
40.5998886194
 10
-54.2357299014
 20
40.6130561232
 10
-54.235944257
 20
40.6244556863
 10
-54.2362628597
 20
40.6339625674
 10
-54.2366822234
 20
40.6414727299
 10
-54.2371977599
 20
40.6469040141
 10
-54.23780383
 20
40.6501970159
 10
-54.2384938034
 20
40.6513157137
  0
LWPOLYLINE
  5
4AC
100
AcDbEntity
  8
RACCORDO
100
AcDbPolyline
 62
250
  6
CONTINUOUS
 90
12
 70
0
 10
-54.2362623041
 20
38.232705288
 10
-54.2359437562
 20
38.2513410307
 10
-54.2357295379
 20
38.268883095
 10
-54.2356219949
 20
38.2851394324
 10
-54.235622305
 20
38.2999320685
 10
-54.2357304653
 20
38.3130990704
 10
-54.2359452933
 20
38.3244962909
 10
-54.2362644377
 20
38.3339989177
 10
-54.2366844041
 20
38.3415028801
 10
-54.2372005943
 20
38.3469260225
 10
-54.2378073573
 20
38.3502089839
 10
-54.2384980502
 20
38.3513158249
  0
LWPOLYLINE
  5
4AD
100
AcDbEntity
  8
RACCORDO
100
AcDbPolyline
 62
250
  6
CONTINUOUS
 90
12
 70
0
 10
-54.2362628775
 20
-34.2173243589
 10
-54.2359442737
 20
-34.1986941026
 10
-54.2357299131
 20
-34.1811562932
 10
-54.2356221411
 20
-34.164902784
 10
-54.2356221369
 20
-34.1501113806
 10
-54.2357299014
 20
-34.1369438768
 10
-54.235944257
 20
-34.1255443137
 10
-54.2362628597
 20
-34.1160374326
 10
-54.2366822234
 20
-34.1085272701
 10
-54.2371977599
 20
-34.1030959859
 10
-54.23780383
 20
-34.0998029841
 10
-54.2384938034
 20
-34.0986842863
  0
LINE
  5
4AE
100
AcDbEntity
  8
RACCORDO
100
AcDbLine
 62
250
  6
CONTINUOUS
 10
-54.2364507912
 20
39.7200151765
 11
-54.2358643502
 21
39.7532755763
  0
LINE
  5
4AF
100
AcDbEntity
  8
RACCORDO
100
AcDbLine
 62
250
  6
CONTINUOUS
 10
-54.3350038537
 20
39.1097528139
 11
-54.3333573966
 21
39.196190642
  0
LINE
  5
4B0
100
AcDbEntity
  8
RACCORDO
100
AcDbLine
 62
250
  6
CONTINUOUS
 10
-54.3350038537
 20
-32.8902471861
 11
-54.3333573966
 21
-32.803809358
  0
LINE
  5
4B1
100
AcDbEntity
  8
RACCORDO
100
AcDbLine
 62
250
  6
CONTINUOUS
 10
-54.2371977726
 20
40.492962615
 11
-54.2362628775
 21
40.5326756411
  0
LINE
  5
4B2
100
AcDbEntity
  8
RACCORDO
100
AcDbLine
 62
250
  6
CONTINUOUS
 10
-54.2371973368
 20
38.1929784854
 11
-54.2362623041
 21
38.232705288
  0
LINE
  5
4B3
100
AcDbEntity
  8
RACCORDO
100
AcDbLine
 62
250
  6
CONTINUOUS
 10
-54.2371977726
 20
-34.257037385
 11
-54.2362628775
 21
-34.2173243589
  0
LINE
  5
4B4
100
AcDbEntity
  8
RACCORDO
100
AcDbLine
 62
250
  6
CONTINUOUS
 10
-54.2373202825
 20
39.684242852
 11
-54.2364507912
 21
39.7200151765
  0
LWPOLYLINE
  5
4B5
100
AcDbEntity
  8
RACCORDO
100
AcDbPolyline
 62
250
  6
CONTINUOUS
 90
3
 70
0
 10
-56.6594329839
 20
-34.9922484443
 10
-56.6603164888
 20
-35.0246986051
 10
-56.6625266184
 20
-35.1199152147
  0
LINE
  5
4B6
100
AcDbEntity
  8
RACCORDO
100
AcDbLine
 62
250
  6
CONTINUOUS
 10
-54.2384938034
 20
40.4514375483
 11
-54.2371977726
 21
40.492962615
  0
LINE
  5
4B7
100
AcDbEntity
  8
RACCORDO
100
AcDbLine
 62
250
  6
CONTINUOUS
 10
-54.2384938034
 20
38.1514375483
 11
-54.2371973368
 21
38.1929784854
  0
LINE
  5
4B8
100
AcDbEntity
  8
RACCORDO
100
AcDbLine
 62
250
  6
CONTINUOUS
 10
-54.2384938034
 20
-34.2985624517
 11
-54.2371977726
 21
-34.257037385
  0
LINE
  5
4B9
100
AcDbEntity
  8
RACCORDO
100
AcDbLine
 62
250
  6
CONTINUOUS
 10
-54.2384948145
 20
39.6474813091
 11
-54.2373202825
 21
39.684242852
  0
LINE
  5
4BA
100
AcDbEntity
  8
IMPORT_IGES
100
AcDbLine
 62
250
  6
CONTINUOUS
 10
-56.0936566911
 20
22.423849207
 11
-56.1480619255
 21
22.6163071778
  0
LWPOLYLINE
  5
4BB
100
AcDbEntity
  8
RACCORDO
100
AcDbPolyline
 62
250
  6
CONTINUOUS
 90
8
 70
0
 10
-56.6594335014
 20
-35.4919438758
 10
-56.659828703
 20
-35.4936684968
 10
-56.660097807
 20
-35.4987810809
 10
-56.6602362136
 20
-35.5071941812
 10
-56.6602415574
 20
-35.5187639278
 10
-56.6601137485
 20
-35.5332924737
 10
-56.6598549741
 20
-35.550531366
 10
-56.6589643973
 20
-35.5919197968
  0
LINE
  5
4BC
100
AcDbEntity
  8
RACCORDO
100
AcDbLine
 62
7
  6
CONTINUOUS
 10
-57.8867474995
 20
9.6562188892
 11
-58.5454737027
 21
9.6447207806
  0
LINE
  5
4BD
100
AcDbEntity
  8
DRAFT
100
AcDbLine
 62
7
  6
CONTINUOUS
 10
-57.0454737027
 20
9.510244387
 11
-58.5454737027
 21
9.5888560559
  0
LWPOLYLINE
  5
4BE
100
AcDbEntity
  8
RACCORDO
100
AcDbPolyline
 62
250
  6
CONTINUOUS
 90
7
 70
0
 10
-56.6594335014
 20
39.6906190993
 10
-56.6598287036
 20
39.6923436452
 10
-56.6600978131
 20
39.6974560294
 10
-56.660236229
 20
39.7058688454
 10
-56.6602415847
 20
39.7174382588
 10
-56.6601137888
 20
39.7319664672
 10
-56.6598550265
 20
39.7492050814
  0
LINE
  5
4BF
100
AcDbEntity
  8
DRAFT
100
AcDbLine
 62
7
  6
CONTINUOUS
 10
-57.0454737027
 20
14.6884308365
 11
-58.5454737027
 21
14.6098191676
  0
LINE
  5
4C0
100
AcDbEntity
  8
RACCORDO
100
AcDbLine
 62
7
  6
CONTINUOUS
 10
-57.8867474995
 20
14.5424563343
 11
-58.5454737027
 21
14.5539544429
  0
LINE
  5
4C1
100
AcDbEntity
  8
IMPORT_IGES
100
AcDbLine
 62
7
  6
CONTINUOUS
 10
-55.8838809223
 20
23.2796548326
 11
-56.9704737027
 21
25.103525942
  0
LINE
  5
4C2
100
AcDbEntity
  8
IMPORT_IGES
100
AcDbLine
 62
7
  6
CONTINUOUS
 10
-56.9704737027
 20
25.4942913378
 11
-55.7120619086
 21
23.3820180416
  0
LWPOLYLINE
  5
4C3
100
AcDbEntity
  8
0
100
AcDbPolyline
 62
7
  6
CONTINUOUS
 90
10
 70
0
 43
0.3500000019
 10
-69.7740803299
 20
55.3594550781
 10
-69.7026517487
 20
55.2166000977
 10
-69.7026517487
 20
55.1451699219
 10
-69.8455089111
 20
55.0023149414
 10
-69.9169374924
 20
55.0023149414
 10
-69.9883660736
 20
55.0737397461
 10
-69.9883660736
 20
55.1451699219
 10
-69.9169374924
 20
55.2880249023
 10
-69.8455089111
 20
55.3594550781
 10
-69.7740803299
 20
55.3594550781
  0
LINE
  5
4C4
100
AcDbEntity
  8
IMPORT_IGES
100
AcDbLine
 62
7
  6
CONTINUOUS
 10
-56.9704737027
 20
18.0493376118
 11
-57.0454737027
 21
18.0493376118
  0
LWPOLYLINE
  5
4C5
100
AcDbEntity
  8
RACCORDO
100
AcDbPolyline
 62
250
  6
CONTINUOUS
 90
11
 70
0
 10
-54.3350038537
 20
-35.4107730039
 10
-54.3341373098
 20
-35.4088406244
 10
-54.3333549849
 20
-35.4031565204
 10
-54.3326646342
 20
-35.3938157293
 10
-54.3320754704
 20
-35.3809636874
 10
-54.3315890748
 20
-35.364732178
 10
-54.3312022034
 20
-35.3451805495
 10
-54.3309192042
 20
-35.3224280608
 10
-54.3307444959
 20
-35.296653576
 10
-54.3306769133
 20
-35.2679678985
 10
-54.330869399
 20
-35.202710479
  0
LINE
  5
4C6
100
AcDbEntity
  8
DRAFT
100
AcDbLine
 62
7
  6
CONTINUOUS
 10
-54.8492679916
 20
-34.3025932732
 11
-55.0177388191
 21
-34.594393306
  0
LINE
  5
4C7
100
AcDbEntity
  8
IMPORT_IGES
100
AcDbLine
 62
7
  6
CONTINUOUS
 10
-56.0936566915
 20
22.4238492068
 11
-56.9704737027
 21
22.1759850369
  0
LINE
  5
4C8
100
AcDbEntity
  8
IMPORT_IGES
100
AcDbLine
 62
7
  6
CONTINUOUS
 10
-56.9704737027
 20
22.3838226236
 11
-56.1480619257
 21
22.6163071778
  0
LWPOLYLINE
  5
4C9
100
AcDbEntity
  8
RACCORDO
100
AcDbPolyline
 62
250
  6
CONTINUOUS
 90
13
 70
0
 10
-54.2384938034
 20
-35.7026404902
 10
-54.2378038372
 20
-35.7015218169
 10
-54.2371977726
 20
-35.6982288892
 10
-54.2366822395
 20
-35.6927977299
 10
-54.2362628775
 20
-35.6852877559
 10
-54.2359442737
 20
-35.6757811181
 10
-54.2357299131
 20
-35.664381793
 10
-54.2356221411
 20
-35.6512144719
 10
-54.2356221369
 20
-35.6364231872
 10
-54.2357299014
 20
-35.6201697121
 10
-54.235944257
 20
-35.6026318077
 10
-54.2362628597
 20
-35.5840013412
 10
-54.2371977599
 20
-35.5442878536
  0
LWPOLYLINE
  5
4CA
100
AcDbEntity
  8
RACCORDO
100
AcDbPolyline
 62
250
  6
CONTINUOUS
 90
14
 70
0
 10
-56.8524527992
 20
-34.0074028267
 10
-56.8530436299
 20
-34.0081455293
 10
-56.8535636861
 20
-34.0103962752
 10
-56.8540160114
 20
-34.0141151417
 10
-56.854406257
 20
-34.0192415498
 10
-56.8547329334
 20
-34.025721298
 10
-56.8549885867
 20
-34.0335311434
 10
-56.8551743276
 20
-34.0426282137
 10
-56.8552925519
 20
-34.0529361442
 10
-56.855338251
 20
-34.0643925179
 10
-56.8553117443
 20
-34.0768754409
 10
-56.8552128878
 20
-34.0903320578
 10
-56.855037704
 20
-34.1048237024
 10
-56.8544566685
 20
-34.1367745887
  0
LWPOLYLINE
  5
4CB
100
AcDbEntity
  8
RACCORDO
100
AcDbPolyline
 62
250
  6
CONTINUOUS
 90
12
 70
0
 10
-56.6594329629
 20
-32.3093809195
 10
-56.6603420749
 20
-32.3104871345
 10
-56.661170609
 20
-32.3138000513
 10
-56.6619193462
 20
-32.3192060768
 10
-56.6625871509
 20
-32.3265461906
 10
-56.6631738377
 20
-32.3357169104
 10
-56.6636843794
 20
-32.346762811
 10
-56.6641264915
 20
-32.3596844218
 10
-56.6644971291
 20
-32.3743832528
 10
-56.6647890787
 20
-32.3908418715
 10
-56.6650024041
 20
-32.4090439812
 10
-56.6652015887
 20
-32.4502128116
  0
LINE
  5
4CC
100
AcDbEntity
  8
DRAFT
100
AcDbLine
 62
7
  6
CONTINUOUS
 10
-55.0177388191
 20
38.7930685295
 11
-54.8492679916
 21
38.5012684967
  0
LINE
  5
4CD
100
AcDbEntity
  8
RACCORDO
100
AcDbLine
 62
7
  6
CONTINUOUS
 10
-54.1333416684
 20
-33.2385303539
 11
-54.3770526963
 21
-33.4822413818
  0
LINE
  5
4CE
100
AcDbEntity
  8
IMPORT_IGES
100
AcDbLine
 62
7
  6
CONTINUOUS
 10
-57.0454737027
 20
26.0993376118
 11
-56.9704737027
 21
26.0993376118
  0
LINE
  5
4CF
100
AcDbEntity
  8
RACCORDO
100
AcDbLine
 62
7
  6
CONTINUOUS
 10
-54.1333416684
 20
37.4372055774
 11
-54.3770526963
 21
37.6809166054
  0
LWPOLYLINE
  5
4D0
100
AcDbEntity
  8
0
100
AcDbPolyline
 62
7
  6
CONTINUOUS
 90
10
 70
0
 43
0.3500000019
 10
-58.8026166992
 20
65.3852192383
 10
-58.7311878662
 20
65.2423588867
 10
-58.7311878662
 20
65.1709287109
 10
-58.8740455322
 20
65.0280737305
 10
-58.9454743652
 20
65.0280737305
 10
-59.0169018555
 20
65.0995039063
 10
-59.0169018555
 20
65.1709287109
 10
-58.9454743652
 20
65.3137890625
 10
-58.8740455322
 20
65.3852192383
 10
-58.8026166992
 20
65.3852192383
  0
LINE
  5
4D1
100
AcDbEntity
  8
RACCORDO
100
AcDbLine
 62
7
  6
CONTINUOUS
 10
-57.8867474995
 20
32.6562188892
 11
-58.5454737027
 21
32.6447207806
  0
LINE
  5
4D2
100
AcDbEntity
  8
DRAFT
100
AcDbLine
 62
7
  6
CONTINUOUS
 10
-57.0454737027
 20
32.510244387
 11
-58.5454737027
 21
32.5888560559
  0
LINE
  5
4D3
100
AcDbEntity
  8
RACCORDO
100
AcDbLine
 62
7
  6
CONTINUOUS
 10
-57.0454737027
 20
-36.1286028568
 11
-55.1515999033
 21
-35.4392891663
  0
LINE
  5
4D4
100
AcDbEntity
  8
RACCORDO
100
AcDbLine
 62
7
  6
CONTINUOUS
 10
-57.0454737027
 20
37.2993376118
 11
-55.0177388191
 21
37.405606694
  0
LINE
  5
4D5
100
AcDbEntity
  8
DRAFT
100
AcDbLine
 62
7
  6
CONTINUOUS
 10
-57.0454737027
 20
37.6884308365
 11
-58.5454737027
 21
37.6098191676
  0
LINE
  5
4D6
100
AcDbEntity
  8
RACCORDO
100
AcDbLine
 62
7
  6
CONTINUOUS
 10
-56.6594335014
 20
36.5080561242
 11
-54.3350038537
 21
36.5892269961
  0
LINE
  5
4D7
100
AcDbEntity
  8
RACCORDO
100
AcDbLine
 62
250
  6
CONTINUOUS
 10
-56.6594335014
 20
37.0077515377
 11
-54.3350038537
 21
37.0889224096
  0
LINE
  5
4D8
100
AcDbEntity
  8
RACCORDO
100
AcDbLine
 62
7
  6
CONTINUOUS
 10
-56.8524536021
 20
37.4560780222
 11
-54.9502478328
 21
37.5225045114
  0
LINE
  5
4D9
100
AcDbEntity
  8
RACCORDO
100
AcDbLine
 62
250
  6
CONTINUOUS
 10
-57.0454737027
 20
37.0077515377
 11
-56.6594335014
 21
37.0077515377
  0
LINE
  5
4DA
100
AcDbEntity
  8
RACCORDO
100
AcDbLine
 62
250
  6
CONTINUOUS
 10
-54.3350038537
 20
37.0889224096
 11
-54.0454737027
 21
37.0889224096
  0
LINE
  5
4DB
100
AcDbEntity
  8
RACCORDO
100
AcDbLine
 62
250
  6
CONTINUOUS
 10
-56.8524536021
 20
37.6559561876
 11
-54.2384938034
 21
37.7472376752
  0
LINE
  5
4DC
100
AcDbEntity
  8
DRAFT
100
AcDbLine
 62
7
  6
CONTINUOUS
 10
-54.8492679916
 20
38.5012684967
 11
-54.3770526963
 21
38.5177586182
  0
LINE
  5
4DD
100
AcDbEntity
  8
RACCORDO
100
AcDbLine
 62
250
  6
CONTINUOUS
 10
-54.2384938034
 20
39.6474813444
 11
-54.8313118138
 21
39.6267796833
  0
LINE
  5
4DE
100
AcDbEntity
  8
RACCORDO
100
AcDbLine
 62
7
  6
CONTINUOUS
 10
-55.5966054651
 20
39.7999331684
 11
-54.2384987045
 21
39.8473593016
  0
LINE
  5
4DF
100
AcDbEntity
  8
RACCORDO
100
AcDbLine
 62
250
  6
CONTINUOUS
 10
-56.0976902241
 20
39.9823131055
 11
-54.2384938034
 21
40.0472376752
  0
LINE
  5
4E0
100
AcDbEntity
  8
RACCORDO
100
AcDbLine
 62
250
  6
CONTINUOUS
 10
-57.0454737027
 20
37.6559561876
 11
-56.8524536021
 21
37.6559561876
  0
LINE
  5
4E1
100
AcDbEntity
  8
RACCORDO
100
AcDbLine
 62
250
  6
CONTINUOUS
 10
-54.2384938034
 20
37.7472376752
 11
-54.0454737027
 21
37.7472376752
  0
LINE
  5
4E2
100
AcDbEntity
  8
RACCORDO
100
AcDbLine
 62
250
  6
CONTINUOUS
 10
-54.2384938034
 20
38.1514375483
 11
-54.0454737027
 21
38.1514375483
  0
LINE
  5
4E3
100
AcDbEntity
  8
RACCORDO
100
AcDbLine
 62
250
  6
CONTINUOUS
 10
-57.0454737027
 20
38.2427190359
 11
-56.8524536021
 21
38.2427190359
  0
LINE
  5
4E4
100
AcDbEntity
  8
RACCORDO
100
AcDbLine
 62
250
  6
CONTINUOUS
 10
-54.2384938034
 20
38.5511938791
 11
-54.0454737027
 21
38.5511938791
  0
LINE
  5
4E5
100
AcDbEntity
  8
RACCORDO
100
AcDbLine
 62
250
  6
CONTINUOUS
 10
-57.0454737027
 20
38.6424753667
 11
-56.8524536021
 21
38.6424753667
  0
LINE
  5
4E6
100
AcDbEntity
  8
RACCORDO
100
AcDbLine
 62
250
  6
CONTINUOUS
 10
-54.3350038537
 20
39.1097528139
 11
-54.0454737027
 21
39.1097528139
  0
LINE
  5
4E7
100
AcDbEntity
  8
RACCORDO
100
AcDbLine
 62
250
  6
CONTINUOUS
 10
-57.0454737027
 20
39.1909236858
 11
-56.6594335014
 21
39.1909236865
  0
LINE
  5
4E8
100
AcDbEntity
  8
RACCORDO
100
AcDbLine
 62
250
  6
CONTINUOUS
 10
-54.2384938034
 20
39.6474813444
 11
-54.0454737027
 21
39.6474813444
  0
LINE
  5
4E9
100
AcDbEntity
  8
RACCORDO
100
AcDbLine
 62
250
  6
CONTINUOUS
 10
-54.2384938034
 20
40.0472376752
 11
-54.0454737027
 21
40.0472376752
  0
LINE
  5
4EA
100
AcDbEntity
  8
RACCORDO
100
AcDbLine
 62
250
  6
CONTINUOUS
 10
-57.0454737027
 20
40.0903754302
 11
-56.848964184
 21
40.0903754302
  0
LINE
  5
4EB
100
AcDbEntity
  8
RACCORDO
100
AcDbLine
 62
250
  6
CONTINUOUS
 10
-54.2384938034
 20
40.4514375483
 11
-54.0454737027
 21
40.4514375483
  0
LINE
  5
4EC
100
AcDbEntity
  8
RACCORDO
100
AcDbLine
 62
250
  6
CONTINUOUS
 10
-57.0454737027
 20
40.5427190359
 11
-56.8524536021
 21
40.5427190359
  0
LINE
  5
4ED
100
AcDbEntity
  8
RACCORDO
100
AcDbLine
 62
7
  6
CONTINUOUS
 10
-57.8867474995
 20
37.5424563343
 11
-58.5454737027
 21
37.5539544429
  0
LINE
  5
4EE
100
AcDbEntity
  8
DRAFT
100
AcDbLine
 62
7
  6
CONTINUOUS
 10
-54.3770526963
 20
37.6809166054
 11
-54.8492679916
 21
37.6974067268
  0
LINE
  5
4EF
100
AcDbEntity
  8
RACCORDO
100
AcDbLine
 62
250
  6
CONTINUOUS
 10
-56.8524536021
 20
38.2427190359
 11
-54.2384938034
 21
38.1514375483
  0
LINE
  5
4F0
100
AcDbEntity
  8
RACCORDO
100
AcDbLine
 62
7
  6
CONTINUOUS
 10
-56.8524493553
 20
38.4425970901
 11
-54.2384990593
 21
38.3513159343
  0
LINE
  5
4F1
100
AcDbEntity
  8
RACCORDO
100
AcDbLine
 62
250
  6
CONTINUOUS
 10
-54.2384938034
 20
38.5511938791
 11
-54.3351867335
 21
38.5545704706
  0
LINE
  5
4F2
100
AcDbEntity
  8
RACCORDO
100
AcDbLine
 62
250
  6
CONTINUOUS
 10
-54.8912530402
 20
38.573988734
 11
-56.8524536021
 21
38.6424753667
  0
LINE
  5
4F3
100
AcDbEntity
  8
RACCORDO
100
AcDbLine
 62
250
  6
CONTINUOUS
 10
-54.3350038537
 20
39.1097528139
 11
-56.6594335014
 21
39.1909236858
  0
LINE
  5
4F4
100
AcDbEntity
  8
RACCORDO
100
AcDbLine
 62
7
  6
CONTINUOUS
 10
-54.3350038537
 20
39.6094482274
 11
-56.6594335014
 21
39.6906190993
  0
LINE
  5
4F5
100
AcDbEntity
  8
RACCORDO
100
AcDbLine
 62
250
  6
CONTINUOUS
 10
-56.6559440834
 20
39.8904972648
 11
-55.7594113115
 21
39.8591896505
  0
LINE
  5
4F6
100
AcDbEntity
  8
RACCORDO
100
AcDbLine
 62
250
  6
CONTINUOUS
 10
-56.8524536021
 20
40.5427190359
 11
-54.2384938034
 21
40.4514375483
  0
LINE
  5
4F7
100
AcDbEntity
  8
RACCORDO
100
AcDbLine
 62
7
  6
CONTINUOUS
 10
-57.0454737027
 20
38.8993376118
 11
-55.0177388191
 21
38.7930685295
  0
LINE
  5
4F8
100
AcDbEntity
  8
RACCORDO
100
AcDbLine
 62
7
  6
CONTINUOUS
 10
-55.1515999033
 20
39.6379643898
 11
-57.0454737027
 21
40.3272780803
  0
LWPOLYLINE
  5
4F9
100
AcDbEntity
  8
0
100
AcDbPolyline
 62
7
  6
CONTINUOUS
 90
13
 70
0
 43
0.3500000019
 10
-68.2740802917
 20
56.5737412109
 10
-68.5597946167
 20
56.7880263672
 10
-68.5597946167
 20
57.4308818359
 10
-68.2740802917
 20
57.8594575195
 10
-67.6312231445
 20
57.8594575195
 10
-67.3455088196
 20
57.4308818359
 10
-67.3455088196
 20
56.7880263672
 10
-67.6312231445
 20
56.5737412109
 10
-67.202651825
 20
56.1451708984
 10
-67.202651825
 20
55.2880249023
 10
-67.6312231445
 20
54.8594545898
 10
-68.2740802917
 20
54.8594545898
 10
-68.7026517792
 20
55.2880249023
  0
LINE
  5
4FA
100
AcDbEntity
  8
RACCORDO
100
AcDbLine
 62
250
  6
CONTINUOUS
 10
-58.7454730383
 20
45.5958846866
 11
-58.5454737027
 21
45.599375688
  0
LINE
  5
4FB
100
AcDbEntity
  8
0
100
AcDbLine
 62
250
  6
CONTINUOUS
 10
-64.354199906
 20
45.4980220712
 11
-58.7454737027
 21
45.5959227512
  0
LINE
  5
4FC
100
AcDbEntity
  8
RACCORDO
100
AcDbLine
 62
7
  6
CONTINUOUS
 10
-58.7454737027
 20
45.8458465988
 11
-58.5454737027
 21
45.8493376118
  0
LINE
  5
4FD
100
AcDbEntity
  8
0
100
AcDbLine
 62
7
  6
CONTINUOUS
 10
-64.354199906
 20
45.9979459187
 11
-58.7454737027
 21
46.0958465988
  0
LINE
  5
4FE
100
AcDbEntity
  8
RACCORDO
100
AcDbLine
 62
250
  6
CONTINUOUS
 10
-64.8454737027
 20
45.4980220712
 11
-64.354199906
 21
45.4980220712
  0
LINE
  5
4FF
100
AcDbEntity
  8
RACCORDO
100
AcDbLine
 62
250
  6
CONTINUOUS
 10
-58.5454737027
 20
43.1672850889
 11
-57.0454737027
 21
43.1411024915
  0
LINE
  5
500
100
AcDbEntity
  8
RACCORDO
100
AcDbLine
 62
7
  6
CONTINUOUS
 10
-58.5454737027
 20
43.6672089364
 11
-57.0454737027
 21
43.6410263391
  0
LINE
  5
501
100
AcDbEntity
  8
RACCORDO
100
AcDbLine
 62
7
  6
CONTINUOUS
 10
-56.8524536021
 20
40.7425972013
 11
-54.2384938034
 21
40.6513157137
  0
LWPOLYLINE
  5
502
100
AcDbEntity
  8
0
100
AcDbPolyline
 62
7
  6
CONTINUOUS
 90
13
 70
0
 43
0.3500000019
 10
-57.3026165771
 20
66.5995
 10
-57.5883305664
 20
66.8137905273
 10
-57.5883305664
 20
67.4566459961
 10
-57.3026165771
 20
67.8852163086
 10
-56.6597597656
 20
67.8852163086
 10
-56.3740457764
 20
67.4566459961
 10
-56.3740457764
 20
66.8137905273
 10
-56.6597597656
 20
66.5995
 10
-56.2311881104
 20
66.1709296875
 10
-56.2311881104
 20
65.3137890625
 10
-56.6597597656
 20
64.88521875
 10
-57.3026165771
 20
64.88521875
 10
-57.7311882324
 20
65.3137890625
  0
ARC
  5
503
100
AcDbEntity
  8
RACCORDO
100
AcDbCircle
 62
7
  6
CONTINUOUS
 10
-3.0381052632
 20
-39.5506623882
 40
0.2
100
AcDbArc
 50
180.0
 51
270.0
  0
ARC
  5
504
100
AcDbEntity
  8
RACCORDO
100
AcDbCircle
 62
7
  6
CONTINUOUS
 10
-3.0381052632
 20
-37.2506623882
 40
0.2
100
AcDbArc
 50
90.0
 51
180.0
  0
ARC
  5
505
100
AcDbEntity
  8
RACCORDO
100
AcDbCircle
 62
7
  6
CONTINUOUS
 10
2.2618947368
 20
-37.2506623882
 40
0.2
100
AcDbArc
 50
0.0
 51
90.0
  0
ARC
  5
506
100
AcDbEntity
  8
RACCORDO
100
AcDbCircle
 62
7
  6
CONTINUOUS
 10
2.2618947368
 20
-39.5506623882
 40
0.2
100
AcDbArc
 50
270.0
 51
360.0
  0
ARC
  5
507
100
AcDbEntity
  8
RACCORDO
100
AcDbCircle
 62
7
  6
CONTINUOUS
 10
-64.3454737027
 20
-41.2993468476
 40
0.5
100
AcDbArc
 50
180.0
 51
269.0
  0
ARC
  5
508
100
AcDbEntity
  8
RACCORDO
100
AcDbCircle
 62
7
  6
CONTINUOUS
 10
-59.7954737027
 20
-42.0316059019
 40
0.2
100
AcDbArc
 50
180.0
 51
269.0
  0
ARC
  5
509
100
AcDbEntity
  8
RACCORDO
100
AcDbCircle
 62
7
  6
CONTINUOUS
 10
-64.3454737027
 20
45.4980220712
 40
0.5
100
AcDbArc
 50
91.0
 51
180.0
  0
ARC
  5
50A
100
AcDbEntity
  8
RACCORDO
100
AcDbCircle
 62
7
  6
CONTINUOUS
 10
-58.6954737027
 20
-42.050457372
 40
0.2
100
AcDbArc
 50
271.0
 51
360.0
  0
ARC
  5
50B
100
AcDbEntity
  8
RACCORDO
100
AcDbCircle
 62
7
  6
CONTINUOUS
 10
-57.8954737027
 20
-32.8438572632
 40
0.5
100
AcDbArc
 50
271.0
 51
360.0
  0
ARC
  5
50C
100
AcDbEntity
  8
RACCORDO
100
AcDbCircle
 62
7
  6
CONTINUOUS
 10
-57.8954737027
 20
-28.9574675133
 40
0.5
100
AcDbArc
 50
0.0
 51
89.0
  0
ARC
  5
50D
100
AcDbEntity
  8
RACCORDO
100
AcDbCircle
 62
7
  6
CONTINUOUS
 10
-56.6454737027
 20
-35.8917002066
 40
0.4
100
AcDbArc
 50
92.0
 51
180.0
  0
ARC
  5
50E
100
AcDbEntity
  8
RACCORDO
100
AcDbCircle
 62
7
  6
CONTINUOUS
 10
-56.6454737027
 20
-31.9096245698
 40
0.4
100
AcDbArc
 50
180.0
 51
268.0
  0
ARC
  5
50F
100
AcDbEntity
  8
RACCORDO
100
AcDbCircle
 62
7
  6
CONTINUOUS
 10
-56.8454737027
 20
-33.8075246333
 40
0.2
100
AcDbArc
 50
179.9999999999
 51
268.0
  0
ARC
  5
510
100
AcDbEntity
  8
RACCORDO
100
AcDbCircle
 62
7
  6
CONTINUOUS
 10
-57.8954737027
 20
-9.8438572632
 40
0.5
100
AcDbArc
 50
271.0
 51
360.0
  0
ARC
  5
511
100
AcDbEntity
  8
RACCORDO
100
AcDbCircle
 62
7
  6
CONTINUOUS
 10
-57.8954737027
 20
-5.9574675133
 40
0.5
100
AcDbArc
 50
0.0
 51
89.0
  0
ARC
  5
512
100
AcDbEntity
  8
RACCORDO
100
AcDbCircle
 62
7
  6
CONTINUOUS
 10
-54.3454737027
 20
-33.0263983195
 40
0.3
100
AcDbArc
 50
315.0
 51
360.0
  0
ARC
  5
513
100
AcDbEntity
  8
RACCORDO
100
AcDbCircle
 62
7
  6
CONTINUOUS
 10
-54.3454737027
 20
-34.774926457
 40
0.3
100
AcDbArc
 50
0.0
 51
45.0
  0
ARC
  5
514
100
AcDbEntity
  8
RACCORDO
100
AcDbCircle
 62
7
  6
CONTINUOUS
 10
-54.3454737027
 20
-35.1109557558
 40
0.3
100
AcDbArc
 50
272.0
 51
360.0
  0
ARC
  5
515
100
AcDbEntity
  8
RACCORDO
100
AcDbCircle
 62
7
  6
CONTINUOUS
 10
-54.3454737027
 20
-32.6903690207
 40
0.3
100
AcDbArc
 50
0.0000000001
 51
88.0
  0
ARC
  5
516
100
AcDbEntity
  8
RACCORDO
100
AcDbCircle
 62
7
  6
CONTINUOUS
 10
-54.2454737027
 20
-34.2985624517
 40
0.2
100
AcDbArc
 50
0.0
 51
88.0
  0
ARC
  5
517
100
AcDbEntity
  8
RACCORDO
100
AcDbCircle
 62
7
  6
CONTINUOUS
 10
-54.2454737027
 20
-35.5027623248
 40
0.2
100
AcDbArc
 50
272.0
 51
360.0
  0
ARC
  5
518
100
AcDbEntity
  8
IMPORT_IGES
100
AcDbCircle
 62
7
  6
CONTINUOUS
 10
-56.2704737027
 20
23.0493376118
 40
0.65
100
AcDbArc
 50
285.784871518
 51
30.7848714842
  0
ARC
  5
519
100
AcDbEntity
  8
RACCORDO
100
AcDbCircle
 62
7
  6
CONTINUOUS
 10
-57.8954737027
 20
10.1561427368
 40
0.5
100
AcDbArc
 50
271.0
 51
360.0
  0
ARC
  5
51A
100
AcDbEntity
  8
RACCORDO
100
AcDbCircle
 62
7
  6
CONTINUOUS
 10
-57.8954737027
 20
14.0425324867
 40
0.5
100
AcDbArc
 50
0.0
 51
89.0
  0
ARC
  5
51B
100
AcDbEntity
  8
IMPORT_IGES
100
AcDbCircle
 62
7
  6
CONTINUOUS
 10
-56.2704737027
 20
23.0493376118
 40
0.45
100
AcDbArc
 50
285.7848715184
 51
30.7848714623
  0
ARC
  5
51C
100
AcDbEntity
  8
RACCORDO
100
AcDbCircle
 62
7
  6
CONTINUOUS
 10
-57.8954737027
 20
33.1561427368
 40
0.5
100
AcDbArc
 50
271.0
 51
360.0
  0
ARC
  5
51D
100
AcDbEntity
  8
RACCORDO
100
AcDbCircle
 62
7
  6
CONTINUOUS
 10
-57.8954737027
 20
37.0425324867
 40
0.5
100
AcDbArc
 50
0.0
 51
89.0
  0
ARC
  5
51E
100
AcDbEntity
  8
RACCORDO
100
AcDbCircle
 62
7
  6
CONTINUOUS
 10
-56.6454737027
 20
36.1082997934
 40
0.4
100
AcDbArc
 50
92.0
 51
180.0
  0
ARC
  5
51F
100
AcDbEntity
  8
RACCORDO
100
AcDbCircle
 62
7
  6
CONTINUOUS
 10
-56.6454737027
 20
40.0903754302
 40
0.4
100
AcDbArc
 50
180.0
 51
268.0
  0
ARC
  5
520
100
AcDbEntity
  8
RACCORDO
100
AcDbCircle
 62
7
  6
CONTINUOUS
 10
-56.8454737027
 20
38.6424753248
 40
0.2000000376
100
AcDbArc
 50
180.000605368
 51
268.001216998
  0
ARC
  5
521
100
AcDbEntity
  8
RACCORDO
100
AcDbCircle
 62
7
  6
CONTINUOUS
 10
-56.8454737027
 20
40.9424753667
 40
0.2
100
AcDbArc
 50
179.9999999999
 51
268.0
  0
ARC
  5
522
100
AcDbEntity
  8
RACCORDO
100
AcDbCircle
 62
7
  6
CONTINUOUS
 10
-56.8454737027
 20
37.2561998568
 40
0.2
100
AcDbArc
 50
92.0
 51
167.4457842157
  0
ARC
  5
523
100
AcDbEntity
  8
RACCORDO
100
AcDbCircle
 62
7
  6
CONTINUOUS
 10
-54.3454737027
 20
38.9736016805
 40
0.3
100
AcDbArc
 50
315.0
 51
360.0
  0
ARC
  5
524
100
AcDbEntity
  8
RACCORDO
100
AcDbCircle
 62
7
  6
CONTINUOUS
 10
-54.3454737027
 20
39.3096309793
 40
0.3
100
AcDbArc
 50
0.0000000001
 51
88.0
  0
ARC
  5
525
100
AcDbEntity
  8
RACCORDO
100
AcDbCircle
 62
7
  6
CONTINUOUS
 10
-54.3454737027
 20
37.225073543
 40
0.3
100
AcDbArc
 50
0.0
 51
45.0
  0
ARC
  5
526
100
AcDbEntity
  8
RACCORDO
100
AcDbCircle
 62
7
  6
CONTINUOUS
 10
-54.3454737027
 20
36.8890442442
 40
0.3
100
AcDbArc
 50
272.0
 51
360.0
  0
ARC
  5
527
100
AcDbEntity
  8
RACCORDO
100
AcDbCircle
 62
7
  6
CONTINUOUS
 10
-54.2454737027
 20
38.1514375908
 40
0.2000000379
100
AcDbArc
 50
0.000598172
 51
88.0012165986
  0
ARC
  5
528
100
AcDbEntity
  8
RACCORDO
100
AcDbCircle
 62
7
  6
CONTINUOUS
 10
-54.2454737027
 20
40.0472376334
 40
0.2000000375
100
AcDbArc
 50
271.9987834019
 51
359.9994020551
  0
ARC
  5
529
100
AcDbEntity
  8
RACCORDO
100
AcDbCircle
 62
7
  6
CONTINUOUS
 10
-54.2454737027
 20
37.7472376752
 40
0.2
100
AcDbArc
 50
272.0
 51
360.0
  0
ARC
  5
52A
100
AcDbEntity
  8
RACCORDO
100
AcDbCircle
 62
7
  6
CONTINUOUS
 10
-54.2454737027
 20
40.4514375483
 40
0.2
100
AcDbArc
 50
0.0
 51
88.0
  0
ELLIPSE
  5
52B
100
AcDbEntity
  8
RACCORDO
100
AcDbEllipse
 62
7
  6
CONTINUOUS
 10
-6.5881052632
 20
-41.8709887779
 30
0.0
 11
0.3
 21
0.0
 31
0.0
 40
0.0174550649
 41
-0.0
 42
1.5707963268
  0
ELLIPSE
  5
52C
100
AcDbEntity
  8
RACCORDO
100
AcDbEllipse
 62
7
  6
CONTINUOUS
 10
-10.1881052632
 20
-41.8709887779
 30
0.0
 11
0.3
 21
0.0
 31
0.0
 40
0.0174550649
 41
1.5707963268
 42
3.1415926536
  0
ELLIPSE
  5
52D
100
AcDbEntity
  8
0
100
AcDbEllipse
 62
7
  6
CONTINUOUS
 10
-30.5345380862
 20
45.5957704347
 30
0.0
 11
0.3536610946
 21
-0.3536610946
 31
0.0
 40
0.9996954599
 41
2.3563467834
 42
3.9268385237
  0
ELLIPSE
  5
52E
100
AcDbEntity
  8
0
100
AcDbEllipse
 62
7
  6
CONTINUOUS
 10
29.7583275598
 20
45.5957704347
 30
0.0
 11
0.3536610946
 21
0.3536610946
 31
0.0
 40
0.9996954599
 41
-0.7852458701
 42
0.7852458701
  0
ELLIPSE
  5
52F
100
AcDbEntity
  8
0
100
AcDbEllipse
 62
7
  6
CONTINUOUS
 10
29.7583275598
 20
-41.3970952112
 30
0.0
 11
0.3536610946
 21
-0.3536610946
 31
0.0
 40
0.9996954599
 41
-0.7852458701
 42
0.7852458701
  0
ELLIPSE
  5
530
100
AcDbEntity
  8
0
100
AcDbEllipse
 62
7
  6
CONTINUOUS
 10
-30.5345380862
 20
-41.3970952112
 30
0.0
 11
0.3536610946
 21
0.3536610946
 31
0.0
 40
0.9996954599
 41
-3.9268385237
 42
-2.3563467834
  0
ELLIPSE
  5
531
100
AcDbEntity
  8
DRAFT
100
AcDbEllipse
 62
7
  6
CONTINUOUS
 10
2.5468985731
 20
31.0993376118
 30
0.0
 11
85.9349424461
 21
0.0
 31
0.0
 40
0.0174550649
 41
2.3370754262
 42
2.3615936222
  0
ELLIPSE
  5
532
100
AcDbEntity
  8
DRAFT
100
AcDbEllipse
 62
7
  6
CONTINUOUS
 10
2.5468985731
 20
16.0993376118
 30
0.0
 11
85.9349424461
 21
-0.0
 31
0.0
 40
0.0174550649
 41
-2.3615936222
 42
-2.3370754262
  0
ELLIPSE
  5
533
100
AcDbEntity
  8
DRAFT
100
AcDbEllipse
 62
7
  6
CONTINUOUS
 10
2.5468985731
 20
-26.9006623882
 30
0.0
 11
85.9349424461
 21
-0.0
 31
0.0
 40
0.0174550649
 41
-2.3615936222
 42
-2.3370754262
  0
ELLIPSE
  5
534
100
AcDbEntity
  8
DRAFT
100
AcDbEllipse
 62
7
  6
CONTINUOUS
 10
2.5468985731
 20
-11.9006623882
 30
0.0
 11
85.9349424461
 21
0.0
 31
0.0
 40
0.0174550649
 41
2.3370754262
 42
2.3615936222
  0
ELLIPSE
  5
535
100
AcDbEntity
  8
DRAFT
100
AcDbEllipse
 62
7
  6
CONTINUOUS
 10
2.5468985731
 20
31.0993376118
 30
0.0
 11
85.9349424461
 21
-0.0
 31
0.0
 40
0.0174550649
 41
-2.3615936222
 42
-2.3370754262
  0
ELLIPSE
  5
536
100
AcDbEntity
  8
DRAFT
100
AcDbEllipse
 62
7
  6
CONTINUOUS
 10
2.5468985731
 20
16.0993376118
 30
0.0
 11
85.9349424461
 21
-0.0
 31
0.0
 40
0.0174550649
 41
2.3370754262
 42
2.3615936222
  0
ELLIPSE
  5
537
100
AcDbEntity
  8
DRAFT
100
AcDbEllipse
 62
7
  6
CONTINUOUS
 10
2.5468985731
 20
-26.9006623882
 30
0.0
 11
85.9349424461
 21
0.0
 31
0.0
 40
0.0174550649
 41
2.3370754262
 42
2.3615936222
  0
ELLIPSE
  5
538
100
AcDbEntity
  8
DRAFT
100
AcDbEllipse
 62
7
  6
CONTINUOUS
 10
2.5468985731
 20
-11.9006623882
 30
0.0
 11
85.9349424461
 21
-0.0
 31
0.0
 40
0.0174550649
 41
-2.3615936222
 42
-2.3370754262
  0
ENDSEC
  0
SECTION
  2
OBJECTS
  0
DICTIONARY
  5
C
100
AcDbDictionary
280
0
281
1
  3
ACAD_GROUP
350
D
  3
ACAD_MLINESTYLE
350
17
  3
ACAD_LAYOUT
350
1A
  3
ACAD_PLOTSETTINGS
350
19
  3
ACAD_PLOTSTYLENAME
350
E
  0
DICTIONARY
  5
D
102
{ACAD_REACTORS
330
C
102
}
100
AcDbDictionary
280
0
281
1
  0
ACDBDICTIONARYWDFLT
  5
E
102
{ACAD_REACTORS
330
C
102
}
100
AcDbDictionary
281
1
  3
Normal
350
F
100
AcDbDictionaryWithDefault
340
F
  0
DICTIONARY
  5
17
102
{ACAD_REACTORS
330
C
102
}
100
AcDbDictionary
280
0
281
1
  3
Standard
350
18
  0
DICTIONARY
  5
19
102
{ACAD_REACTORS
330
C
102
}
100
AcDbDictionary
281
1
  0
DICTIONARY
  5
1A
102
{ACAD_REACTORS
330
C
102
}
100
AcDbDictionary
281
1
  3
Model
350
539
  3
Layout1
350
53A
  0
ACDBPLACEHOLDER
  5
F
102
{ACAD_REACTORS
330
E
102
}
  0
MLINESTYLE
  5
18
102
{ACAD_REACTORS
330
17
102
}
100
AcDbMlineStyle
  2
STANDARD
 70
0
  3

 62
256
 51
90.0
 52
90.0
 71
2
 49
0.5
 62
256
  6
BYLAYER
 49
-0.5
 62
256
  6
BYLAYER
  0
LAYOUT
  5
539
102
{ACAD_REACTORS
330
1A
102
}
100
AcDbPlotSettings
  1

  2
none_device
  4

  6

 40
0.0
 41
0.0
 42
0.0
 43
0.0
 44
210.0
 45
297.0
 46
0.0
 47
0.0
 48
0.0
 49
0.0
140
0.0
141
0.0
142
1.0
143
1.0
 70
1024
 72
1
 73
0
 74
0
  7

 75
0
147
1.0
148
0.0
149
0.0
100
AcDbLayout
  1
Model
 70
0
 71
0
 10
0.0
 20
0.0
 11
210.0
 21
297.0
 12
0.0
 22
0.0
 32
0.0
 14
0.0
 24
0.0
 34
0.0
 15
0.0
 25
0.0
 35
0.0
146
0.0
 13
0.0
 23
0.0
 33
0.0
 16
1.0
 26
0.0
 36
0.0
 17
0.0
 27
1.0
 37
0.0
 76
0
330
37A
345
0
346
0
  0
LAYOUT
  5
53A
102
{ACAD_REACTORS
330
1A
102
}
100
AcDbPlotSettings
  1

  2
none_device
  4

  6

 40
0.0
 41
0.0
 42
0.0
 43
0.0
 44
210.0
 45
297.0
 46
0.0
 47
0.0
 48
0.0
 49
0.0
140
0.0
141
0.0
142
1.0
143
1.0
 70
0
 72
1
 73
0
 74
0
  7

 75
0
147
1.0
148
0.0
149
0.0
100
AcDbLayout
  1
Layout1
 70
0
 71
1
 10
0.0
 20
0.0
 11
210.0
 21
297.0
 12
0.0
 22
0.0
 32
0.0
 14
0.0
 24
0.0
 34
0.0
 15
0.0
 25
0.0
 35
0.0
146
0.0
 13
0.0
 23
0.0
 33
0.0
 16
1.0
 26
0.0
 36
0.0
 17
0.0
 27
1.0
 37
0.0
 76
0
330
37B
345
0
346
0
  0
ENDSEC
  0
EOF
