  0
SECTION
  2
HEADER
  9
$ACADVER
  1
AC1024
  9
$DWGCODEPAGE
  3
ANSI_1252
  9
$EXTMAX
 10
297.0
 20
210.0
 30
0.0
  9
$EXTMIN
 10
0.0
 20
0.0
 30
0.0
  9
$LIMMIN
 10
0.0
 20
0.0
  9
$LIMMAX
 10
297.0
 20
210.0
  9
$VIEWCTR
 10
148.5
 20
105.0
  9
$VIEWSIZE
 40
210.0
  9
$CLAYER
  8
0
  9
$LTSCALE
 40
16.335
  9
$CELTYPE
  6
BYLAYER
  9
$DIMSCALE
 40
1.0
  9
$DIMASZ
 40
3.0
  9
$DIMEXO
 40
0.5
  9
$DIMDLI
 40
11.286
  9
$DIMEXE
 40
1.5
  9
$DIMCEN
 40
2.673
  9
$DIMLFAC
 40
1.0
  9
$DIMBLK
  1
_FILLED
  9
$DIMALT
 70
0
  9
$DIMALTF
 40
0.0393700787
  9
$DIMTXT
 40
3.0
  9
$DIMTOL
 70
1
  9
$DIMLIM
 70
0
  9
$DIMTFAC
 40
1.0
  9
$DIMTP
 40
0.01
  9
$DIMTM
 40
0.01
  9
$DIMGAP
 40
0.625
  9
$DIMDSEP
 70
44
  9
$AUNITS
 70
0
  9
$PDMODE
 70
3
  9
$PDSIZE
 40
3.0
  9
$HANDSEED
  5
533
  9
$TILEMODE
 70
1
  9
$MEASUREMENT
 70
1
  9
$INSUNITS
 70
4
  0
ENDSEC
  0
SECTION
  2
CLASSES
  0
CLASS
  1
ACDBDICTIONARYWDFLT
  2
AcDbDictionaryWithDefault
  3
AutoCAD 2000
 90
0
 91
1
280
0
281
0
  0
CLASS
  1
ACDBPLACEHOLDER
  2
AcDbPlaceHolder
  3
AutoCAD 2000
 90
0
 91
1
280
0
281
0
  0
CLASS
  1
LAYOUT
  2
AcDbLayout
  3
AutoCAD 2000
 90
0
 91
0
280
0
281
0
  0
ENDSEC
  0
SECTION
  2
TABLES
  0
TABLE
  2
VPORT
  5
8
100
AcDbSymbolTable
 70
2
  0
VPORT
  5
1F4
100
AcDbSymbolTableRecord
100
AcDbViewportTableRecord
  2
*ACTIVE
 70
0
 10
0.0
 20
0.0
 11
1.0
 21
1.0
 12
148.5
 22
105.0
 13
0.0
 23
0.0
 14
1.0
 24
1.0
 15
0.0
 25
0.0
 16
0.0
 26
0.0
 36
1.0
 17
0.0
 27
0.0
 37
0.0
 40
210.0
 41
1.4142857143
 42
50.0
 43
0.0
 44
0.0
 50
0.0
 51
0.0
 71
0
 72
100
 73
1
 74
1
 75
0
 76
0
 77
0
 78
0
  0
ENDTAB
  0
TABLE
  2
LTYPE
  5
5
100
AcDbSymbolTable
 70
6
  0
LTYPE
  5
14
100
AcDbSymbolTableRecord
100
AcDbLinetypeTableRecord
  2
BYBLOCK
 70
0
  3

 72
65
 73
0
 40
0.0
  0
LTYPE
  5
15
100
AcDbSymbolTableRecord
100
AcDbLinetypeTableRecord
  2
BYLAYER
 70
0
  3

 72
65
 73
0
 40
0.0
  0
LTYPE
  5
16
100
AcDbSymbolTableRecord
100
AcDbLinetypeTableRecord
  2
CONTINUOUS
 70
64
  3
Solid line
 72
65
 73
0
 40
0.0
  0
LTYPE
  5
1F5
100
AcDbSymbolTableRecord
100
AcDbLinetypeTableRecord
  2
CENTER
 70
64
  3
____ _ ____ _ ____ _ ____ _ ____ _ ____ _ ____
 72
65
 73
4
 40
0.6
 49
0.375
 74
0
 49
-0.075
 74
0
 49
0.075
 74
0
 49
-0.075
 74
0
  0
LTYPE
  5
1F6
100
AcDbSymbolTableRecord
100
AcDbLinetypeTableRecord
  2
HIDDEN
 70
64
  3
- - - - - - - - - - - - - - - - - - - -
 72
65
 73
2
 40
0.2
 49
0.1
 74
0
 49
-0.1
 74
0
  0
LTYPE
  5
1F7
100
AcDbSymbolTableRecord
100
AcDbLinetypeTableRecord
  2
PHANTOM
 70
64
  3
_____ _ _ _____ _ _ _____ _ _ _____
 72
65
 73
6
 40
0.8
 49
0.45
 74
0
 49
-0.05
 74
0
 49
0.1
 74
0
 49
-0.05
 74
0
 49
0.1
 74
0
 49
-0.05
 74
0
  0
LTYPE
  5
1F8
100
AcDbSymbolTableRecord
100
AcDbLinetypeTableRecord
  2
DOT
 70
64
  3
. . . . . . . . . . . . . . . . . . . .
 72
65
 73
2
 40
0.2
 49
0.1
 74
0
 49
-0.1
 74
0
  0
LTYPE
  5
1F9
100
AcDbSymbolTableRecord
100
AcDbLinetypeTableRecord
  2
DASHED
 70
64
  3
- - - - - - - - - - - - - - - - - - - -
 72
65
 73
2
 40
0.2
 49
0.1
 74
0
 49
-0.1
 74
0
  0
ENDTAB
  0
TABLE
  2
LAYER
  5
2
100
AcDbSymbolTable
 70
36
  0
LAYER
  5
10
100
AcDbSymbolTableRecord
100
AcDbLayerTableRecord
  2
0
 70
0
 62
7
  6
CONTINUOUS
370
-3
390
F
  0
LAYER
  5
1FA
100
AcDbSymbolTableRecord
100
AcDbLayerTableRecord
  2
DEFAULT_1
 70
0
 62
7
  6
CENTER
370
-3
390
F
  0
LAYER
  5
1FB
100
AcDbSymbolTableRecord
100
AcDbLayerTableRecord
  2
DEFAULT_2
 70
0
 62
7
  6
HIDDEN
370
-3
390
F
  0
LAYER
  5
1FC
100
AcDbSymbolTableRecord
100
AcDbLayerTableRecord
  2
DEFAULT_3
 70
0
 62
7
  6
PHANTOM
370
-3
390
F
  0
LAYER
  5
1FD
100
AcDbSymbolTableRecord
100
AcDbLayerTableRecord
  2
ASSI
 70
0
 62
7
  6
CONTINUOUS
370
-3
390
F
  0
LAYER
  5
1FE
100
AcDbSymbolTableRecord
100
AcDbLayerTableRecord
  2
COLOR
 70
0
 62
7
  6
CONTINUOUS
370
-3
390
F
  0
LAYER
  5
1FF
100
AcDbSymbolTableRecord
100
AcDbLayerTableRecord
  2
COORDINATE
 70
0
 62
7
  6
CONTINUOUS
370
-3
390
F
  0
LAYER
  5
200
100
AcDbSymbolTableRecord
100
AcDbLayerTableRecord
  2
COPY_PUBLISH
 70
0
 62
7
  6
CONTINUOUS
370
-3
390
F
  0
LAYER
  5
201
100
AcDbSymbolTableRecord
100
AcDbLayerTableRecord
  2
COSMETICI
 70
0
 62
7
  6
CONTINUOUS
370
-3
390
F
  0
LAYER
  5
202
100
AcDbSymbolTableRecord
100
AcDbLayerTableRecord
  2
CURVE
 70
0
 62
7
  6
CONTINUOUS
370
-3
390
F
  0
LAYER
  5
203
100
AcDbSymbolTableRecord
100
AcDbLayerTableRecord
  2
DRAFT
 70
0
 62
7
  6
CONTINUOUS
370
-3
390
F
  0
LAYER
  5
204
100
AcDbSymbolTableRecord
100
AcDbLayerTableRecord
  2
IMPORT_IGES
 70
0
 62
7
  6
CONTINUOUS
370
-3
390
F
  0
LAYER
  5
205
100
AcDbSymbolTableRecord
100
AcDbLayerTableRecord
  2
INTF_10000
 70
0
 62
7
  6
CONTINUOUS
370
-3
390
F
  0
LAYER
  5
206
100
AcDbSymbolTableRecord
100
AcDbLayerTableRecord
  2
INTF_11
 70
0
 62
7
  6
CONTINUOUS
370
-3
390
F
  0
LAYER
  5
207
100
AcDbSymbolTableRecord
100
AcDbLayerTableRecord
  2
INTF_7
 70
0
 62
7
  6
CONTINUOUS
370
-3
390
F
  0
LAYER
  5
208
100
AcDbSymbolTableRecord
100
AcDbLayerTableRecord
  2
INTF_GREEN
 70
0
 62
7
  6
CONTINUOUS
370
-3
390
F
  0
LAYER
  5
209
100
AcDbSymbolTableRecord
100
AcDbLayerTableRecord
  2
INTF_RED
 70
0
 62
7
  6
CONTINUOUS
370
-3
390
F
  0
LAYER
  5
20A
100
AcDbSymbolTableRecord
100
AcDbLayerTableRecord
  2
INTF_YELLOW
 70
0
 62
7
  6
CONTINUOUS
370
-3
390
F
  0
LAYER
  5
20B
100
AcDbSymbolTableRecord
100
AcDbLayerTableRecord
  2
NOTE
 70
0
 62
7
  6
CONTINUOUS
370
-3
390
F
  0
LAYER
  5
20C
100
AcDbSymbolTableRecord
100
AcDbLayerTableRecord
  2
PIANI
 70
0
 62
7
  6
CONTINUOUS
370
-3
390
F
  0
LAYER
  5
20D
100
AcDbSymbolTableRecord
100
AcDbLayerTableRecord
  2
PUNTI
 70
0
 62
7
  6
CONTINUOUS
370
-3
390
F
  0
LAYER
  5
20E
100
AcDbSymbolTableRecord
100
AcDbLayerTableRecord
  2
RACCORDO
 70
0
 62
7
  6
CONTINUOUS
370
-3
390
F
  0
LAYER
  5
20F
100
AcDbSymbolTableRecord
100
AcDbLayerTableRecord
  2
SIMBOLI
 70
0
 62
7
  6
CONTINUOUS
370
-3
390
F
  0
LAYER
  5
210
100
AcDbSymbolTableRecord
100
AcDbLayerTableRecord
  2
SMUSSO
 70
0
 62
7
  6
CONTINUOUS
370
-3
390
F
  0
LAYER
  5
211
100
AcDbSymbolTableRecord
100
AcDbLayerTableRecord
  2
SNAPLINE
 70
0
 62
7
  6
CONTINUOUS
370
-3
390
F
  0
LAYER
  5
212
100
AcDbSymbolTableRecord
100
AcDbLayerTableRecord
  2
SUPERFICI
 70
0
 62
7
  6
CONTINUOUS
370
-3
390
F
  0
LAYER
  5
213
100
AcDbSymbolTableRecord
100
AcDbLayerTableRecord
  2
TRASH
 70
0
 62
7
  6
CONTINUOUS
370
-3
390
F
  0
ENDTAB
  0
TABLE
  2
STYLE
  5
3
100
AcDbSymbolTable
 70
1
  0
STYLE
  5
11
100
AcDbSymbolTableRecord
100
AcDbTextStyleTableRecord
  2
STANDARD
 70
0
 40
0.0
 41
0.8
 50
0.0
 71
0
 42
0.2
  3
txt
  4

  0
STYLE
  5
214
100
AcDbSymbolTableRecord
100
AcDbTextStyleTableRecord
  2
TEXTSTYLE_1
 70
0
 40
0.0
 41
0.8
 50
0.0
 71
0
 42
0.2
  3
gdt
  4

  0
ENDTAB
  0
TABLE
  2
VIEW
  5
6
100
AcDbSymbolTable
 70
0
  0
ENDTAB
  0
TABLE
  2
UCS
  5
7
100
AcDbSymbolTable
 70
0
  0
ENDTAB
  0
TABLE
  2
APPID
  5
9
100
AcDbSymbolTable
 70
1
  0
APPID
  5
215
100
AcDbSymbolTableRecord
100
AcDbRegAppTableRecord
  2
ACAD
 70
0
  0
ENDTAB
  0
TABLE
  2
BLOCK_RECORD
  5
1
100
AcDbSymbolTable
 70
0
  0
BLOCK_RECORD
  5
216
100
AcDbSymbolTableRecord
100
AcDbBlockTableRecord
  2
*Model_Space
  0
BLOCK_RECORD
  5
217
100
AcDbSymbolTableRecord
100
AcDbBlockTableRecord
  2
*Paper_Space
  0
BLOCK_RECORD
  5
218
100
AcDbSymbolTableRecord
100
AcDbBlockTableRecord
  2
_FILLED
  0
BLOCK_RECORD
  5
219
100
AcDbSymbolTableRecord
100
AcDbBlockTableRecord
  2
*D0
  0
BLOCK_RECORD
  5
21A
100
AcDbSymbolTableRecord
100
AcDbBlockTableRecord
  2
*D1
  0
BLOCK_RECORD
  5
21B
100
AcDbSymbolTableRecord
100
AcDbBlockTableRecord
  2
*D2
  0
BLOCK_RECORD
  5
21C
100
AcDbSymbolTableRecord
100
AcDbBlockTableRecord
  2
*D3
  0
ENDTAB
  0
TABLE
  2
DIMSTYLE
  5
A
100
AcDbSymbolTable
 70
1
100
AcDbDimStyleTable
 71
0
  0
DIMSTYLE
105
21D
100
AcDbSymbolTableRecord
100
AcDbDimStyleTableRecord
  2
STANDARD
 70
0
  3

  4

 40
1.0
 41
3.0
 42
0.5
 43
0.38
 44
1.5
 45
0.0
 46
0.0
 47
0.01
 48
0.01
140
3.0
141
0.09
142
0.0
143
25.4
144
1.0
145
0.0
146
1.0
147
0.625
 71
1
 72
0
 73
0
 74
0
 75
0
 76
0
 77
1
 78
8
 79
2
170
0
171
1
172
0
173
0
174
0
175
0
176
0
177
0
178
0
270
2
179
2
271
2
272
2
273
2
274
2
275
0
280
0
281
0
282
0
283
1
284
8
285
0
286
0
287
3
288
0
340
11
278
44
341
218
342
218
343
218
344
218
  0
DIMSTYLE
105
21E
100
AcDbSymbolTableRecord
100
AcDbDimStyleTableRecord
  2
DIMSTYLE_1
 70
0
  3

  4

 40
1.0
 41
3.0
 42
0.5
 43
0.38
 44
1.5
 45
0.0
 46
0.0
 47
0.0
 48
0.0
140
3.0
141
0.09
142
0.0
143
25.4
144
1.0
145
0.0
146
1.0
147
0.75
 71
0
 72
0
 73
0
 74
0
 75
0
 76
0
 77
1
 78
8
 79
2
170
0
171
1
172
0
173
0
174
0
175
0
176
0
177
0
178
0
270
2
179
2
271
1
272
1
273
2
274
2
275
0
280
0
281
0
282
0
283
1
284
8
285
0
286
0
287
3
288
0
340
11
278
44
341
218
342
218
343
218
344
218
  0
ENDTAB
  0
ENDSEC
  0
SECTION
  2
BLOCKS
  0
BLOCK
  5
20
100
AcDbEntity
  8
0
100
AcDbBlockBegin
  2
*Model_Space
 70
0
 10
0.0
 20
0.0
 30
0.0
  3
*Model_Space
  1

  0
ENDBLK
  5
21
100
AcDbEntity
  8
0
100
AcDbBlockEnd
  0
BLOCK
  5
1C
100
AcDbEntity
  8
0
100
AcDbBlockBegin
  2
*Paper_Space
 70
0
 10
0.0
 20
0.0
 30
0.0
  3
*Paper_Space
  1

  0
ENDBLK
  5
1D
100
AcDbEntity
  8
0
100
AcDbBlockEnd
  0
BLOCK
  5
21F
100
AcDbEntity
  8
0
100
AcDbBlockBegin
  2
_FILLED
 70
64
 10
0.0
 20
0.0
  3
_FILLED
  1

  0
SOLID
  5
220
100
AcDbEntity
  8
0
  6
BYBLOCK
 62
0
100
AcDbTrace
 10
0.0
 20
0.0
 11
-1.0
 21
0.3166666667
 12
-1.0
 22
-0.3166666667
 13
-1.0
 23
-0.3166666667
  0
ENDBLK
  5
221
100
AcDbEntity
  8
0
  6
BYBLOCK
 62
0
100
AcDbBlockEnd
  0
BLOCK
  5
222
100
AcDbEntity
  8
0
100
AcDbBlockBegin
 62
7
  6
CONTINUOUS
  2
*D0
 70
65
 10
0.0
 20
0.0
  3
*D0
  1

  0
LINE
  5
223
100
AcDbEntity
  8
0
100
AcDbLine
 62
7
  6
CONTINUOUS
 10
21.4190554251
 20
81.4860226852
 11
21.4190554251
 21
96.315
  0
LINE
  5
224
100
AcDbEntity
  8
0
100
AcDbLine
 62
7
  6
CONTINUOUS
 10
122.1540968158
 20
81.4860227546
 11
122.1540968158
 21
96.315
  0
LINE
  5
225
100
AcDbEntity
  8
0
100
AcDbLine
 62
7
  6
CONTINUOUS
 10
21.4190554251
 20
94.815
 11
71.7865761205
 21
94.815
  0
LINE
  5
226
100
AcDbEntity
  8
0
100
AcDbLine
 62
7
  6
CONTINUOUS
 10
122.1540968158
 20
94.815
 11
71.7865761205
 21
94.815
  0
INSERT
  5
227
100
AcDbEntity
  8
0
100
AcDbBlockReference
 62
7
  6
CONTINUOUS
  2
_FILLED
 10
21.4190554251
 20
94.815
 41
3.0
 42
3.0
 43
3.0
 50
180.0
  0
INSERT
  5
228
100
AcDbEntity
  8
0
100
AcDbBlockReference
 62
7
  6
CONTINUOUS
  2
_FILLED
 10
122.1540968158
 20
94.815
 41
3.0
 42
3.0
 43
3.0
  0
ENDBLK
  5
229
100
AcDbEntity
  8
0
  6
BYBLOCK
 62
0
100
AcDbBlockEnd
  0
BLOCK
  5
22A
100
AcDbEntity
  8
0
100
AcDbBlockBegin
 62
7
  6
CONTINUOUS
  2
*D1
 70
65
 10
0.0
 20
0.0
  3
*D1
  1

  0
LINE
  5
22B
100
AcDbEntity
  8
0
100
AcDbLine
 62
7
  6
CONTINUOUS
 10
109.8827310464
 20
-86.815
 11
137.0821852667
 21
-86.815
  0
LINE
  5
22C
100
AcDbEntity
  8
0
100
AcDbLine
 62
7
  6
CONTINUOUS
 10
72.2865761205
 20
86.815
 11
137.0821852667
 21
86.815
  0
LINE
  5
22D
100
AcDbEntity
  8
0
100
AcDbLine
 62
7
  6
CONTINUOUS
 10
135.5821852667
 20
-86.815
 11
135.5821852667
 21
0.0
  0
LINE
  5
22E
100
AcDbEntity
  8
0
100
AcDbLine
 62
7
  6
CONTINUOUS
 10
135.5821852667
 20
86.815
 11
135.5821852667
 21
0.0
  0
INSERT
  5
22F
100
AcDbEntity
  8
0
100
AcDbBlockReference
 62
7
  6
CONTINUOUS
  2
_FILLED
 10
135.5821852667
 20
-86.815
 41
3.0
 42
3.0
 43
3.0
 50
270.0
  0
INSERT
  5
230
100
AcDbEntity
  8
0
100
AcDbBlockReference
 62
7
  6
CONTINUOUS
  2
_FILLED
 10
135.5821852667
 20
86.815
 41
3.0
 42
3.0
 43
3.0
 50
90.0
  0
ENDBLK
  5
231
100
AcDbEntity
  8
0
  6
BYBLOCK
 62
0
100
AcDbBlockEnd
  0
BLOCK
  5
232
100
AcDbEntity
  8
0
100
AcDbBlockBegin
 62
7
  6
CONTINUOUS
  2
*D2
 70
65
 10
0.0
 20
0.0
  3
*D2
  1

  0
LINE
  5
233
100
AcDbEntity
  8
0
100
AcDbLine
 62
7
  6
CONTINUOUS
 10
-30.0938246014
 20
87.315
 11
-30.0938246014
 21
96.315
  0
LINE
  5
234
100
AcDbEntity
  8
0
100
AcDbLine
 62
7
  6
CONTINUOUS
 10
-55.5256023458
 20
86.8148652279
 11
-55.5256023458
 21
96.315
  0
LINE
  5
235
100
AcDbEntity
  8
0
100
AcDbLine
 62
7
  6
CONTINUOUS
 10
-30.0938246014
 20
94.815
 11
-42.8097134736
 21
94.815
  0
LINE
  5
236
100
AcDbEntity
  8
0
100
AcDbLine
 62
7
  6
CONTINUOUS
 10
-55.5256023458
 20
94.815
 11
-42.8097134736
 21
94.815
  0
INSERT
  5
237
100
AcDbEntity
  8
0
100
AcDbBlockReference
 62
7
  6
CONTINUOUS
  2
_FILLED
 10
-30.0938246014
 20
94.815
 41
3.0
 42
3.0
 43
3.0
 50
0.0
  0
INSERT
  5
238
100
AcDbEntity
  8
0
100
AcDbBlockReference
 62
7
  6
CONTINUOUS
  2
_FILLED
 10
-55.5256023458
 20
94.815
 41
3.0
 42
3.0
 43
3.0
 50
180.0
  0
ENDBLK
  5
239
100
AcDbEntity
  8
0
  6
BYBLOCK
 62
0
100
AcDbBlockEnd
  0
BLOCK
  5
23A
100
AcDbEntity
  8
0
100
AcDbBlockBegin
 62
7
  6
CONTINUOUS
  2
*D3
 70
65
 10
0.0
 20
0.0
  3
*D3
  1

  0
LINE
  5
23B
100
AcDbEntity
  8
0
100
AcDbLine
 62
7
  6
CONTINUOUS
 10
-15.8938246014
 20
81.7612684788
 11
-15.8938246014
 21
106.315
  0
LINE
  5
23C
100
AcDbEntity
  8
0
100
AcDbLine
 62
7
  6
CONTINUOUS
 10
-55.5256023458
 20
86.8148652279
 11
-55.5256023458
 21
106.315
  0
LINE
  5
23D
100
AcDbEntity
  8
0
100
AcDbLine
 62
7
  6
CONTINUOUS
 10
-15.8938246014
 20
104.815
 11
-35.7097134736
 21
104.815
  0
LINE
  5
23E
100
AcDbEntity
  8
0
100
AcDbLine
 62
7
  6
CONTINUOUS
 10
-55.5256023458
 20
104.815
 11
-35.7097134736
 21
104.815
  0
INSERT
  5
23F
100
AcDbEntity
  8
0
100
AcDbBlockReference
 62
7
  6
CONTINUOUS
  2
_FILLED
 10
-15.8938246014
 20
104.815
 41
3.0
 42
3.0
 43
3.0
  0
INSERT
  5
240
100
AcDbEntity
  8
0
100
AcDbBlockReference
 62
7
  6
CONTINUOUS
  2
_FILLED
 10
-55.5256023458
 20
104.815
 41
3.0
 42
3.0
 43
3.0
 50
180.0
  0
ENDBLK
  5
241
100
AcDbEntity
  8
0
  6
BYBLOCK
 62
0
100
AcDbBlockEnd
  0
ENDSEC
  0
SECTION
  2
ENTITIES
  0
DIMENSION
  5
242
100
AcDbEntity
  8
0
100
AcDbDimension
 62
7
  6
CONTINUOUS
  2
*D0
 10
122.1540968158
 20
94.815
 11
66.5365761205
 21
94.815
 70
160
 71
2
 72
2
 41
0.9
 42
100.7350413907
  3
DIMSTYLE_1
100
AcDbAlignedDimension
 13
21.4190554251
 23
80.9860226852
 14
122.1540968158
 24
80.9860227546
100
AcDbRotatedDimension
  0
DIMENSION
  5
243
100
AcDbEntity
  8
0
100
AcDbDimension
 62
7
  6
CONTINUOUS
  2
*D1
 10
135.5821852667
 20
86.815
 11
135.5821852667
 21
-5.1428571429
 70
160
 71
2
 72
2
 41
0.9
 42
173.63
  3
DIMSTYLE_1
100
AcDbAlignedDimension
 13
109.3827310464
 23
-86.815
 14
71.7865761205
 24
86.815
 50
90.0
100
AcDbRotatedDimension
  0
DIMENSION
  5
244
100
AcDbEntity
  8
0
100
AcDbDimension
 62
7
  6
CONTINUOUS
  2
*D2
 10
-55.5256023458
 20
94.815
 11
-47.0954277593
 21
94.815
 70
160
 71
2
 72
2
 41
0.9
 42
25.4317777443
  3
DIMSTYLE_1
100
AcDbAlignedDimension
 13
-30.0938246014
 23
86.815
 14
-55.5256023458
 24
86.3148652279
 50
180.0
100
AcDbRotatedDimension
  0
DIMENSION
  5
245
100
AcDbEntity
  8
0
100
AcDbDimension
 62
7
  6
CONTINUOUS
  2
*D3
 10
-55.5256023458
 20
104.815
 11
-39.9954277593
 21
104.815
 70
160
 71
2
 72
2
 41
0.9
 42
39.6317777443
  3
DIMSTYLE_1
100
AcDbAlignedDimension
 13
-15.8938246014
 23
81.2612684788
 14
-55.5256023458
 24
86.3148652279
 50
180.0
100
AcDbRotatedDimension
  0
LINE
  5
246
100
AcDbEntity
  8
RACCORDO
100
AcDbLine
 62
7
  6
CONTINUOUS
 10
112.4264940706
 20
-86.1971036107
 11
112.4298732529
 21
-86.196277107
  0
LINE
  5
247
100
AcDbEntity
  8
RACCORDO
100
AcDbLine
 62
7
  6
CONTINUOUS
 10
112.7238359025
 20
-86.1271166181
 11
112.4264940706
 21
-86.1971036107
  0
LINE
  5
248
100
AcDbEntity
  8
RACCORDO
100
AcDbLine
 62
250
  6
CONTINUOUS
 10
112.8781614096
 20
-85.9323694682
 11
112.5805338612
 21
-86.0024237114
  0
LINE
  5
249
100
AcDbEntity
  8
DRAFT
100
AcDbLine
 62
7
  6
CONTINUOUS
 10
112.3428658295
 20
-84.0177432793
 11
114.2865761205
 21
-83.815
  0
LWPOLYLINE
  5
24A
100
AcDbEntity
  8
RACCORDO
100
AcDbPolyline
 62
7
  6
CONTINUOUS
 90
10
 70
0
 10
112.2868064147
 20
-86.2113473372
 10
112.3068024908
 20
-86.2102177313
 10
112.324966333
 20
-86.2090843885
 10
112.3414264797
 20
-86.2079403938
 10
112.3565740434
 20
-86.2067547571
 10
112.3699421914
 20
-86.2055623861
 10
112.3821732385
 20
-86.204303462
 10
112.3953513891
 20
-86.2026951792
 10
112.4102161009
 20
-86.2004097001
 10
112.4261301926
 20
-86.1971808149
  0
LINE
  5
24B
100
AcDbEntity
  8
RACCORDO
100
AcDbLine
 62
7
  6
CONTINUOUS
 10
112.2410792354
 20
-86.2136023719
 11
112.2868064147
 21
-86.2113473372
  0
LINE
  5
24C
100
AcDbEntity
  8
RACCORDO
100
AcDbLine
 62
7
  6
CONTINUOUS
 10
112.1867988963
 20
-86.2158807108
 11
112.2410792354
 21
-86.2136023719
  0
LINE
  5
24D
100
AcDbEntity
  8
RACCORDO
100
AcDbLine
 62
7
  6
CONTINUOUS
 10
112.1233330417
 20
-86.2181870013
 11
112.1867988963
 21
-86.2158807108
  0
LINE
  5
24E
100
AcDbEntity
  8
RACCORDO
100
AcDbLine
 62
7
  6
CONTINUOUS
 10
112.0095748359
 20
-86.2217010756
 11
112.1233330417
 21
-86.2181870013
  0
LINE
  5
24F
100
AcDbEntity
  8
RACCORDO
100
AcDbLine
 62
7
  6
CONTINUOUS
 10
111.8203412806
 20
-86.2264774866
 11
112.0095748359
 21
-86.2217010756
  0
LINE
  5
250
100
AcDbEntity
  8
RACCORDO
100
AcDbLine
 62
7
  6
CONTINUOUS
 10
111.5174479431
 20
-86.2325529115
 11
111.8203412806
 21
-86.2264774866
  0
LINE
  5
251
100
AcDbEntity
  8
RACCORDO
100
AcDbLine
 62
7
  6
CONTINUOUS
 10
110.9563825955
 20
-86.2411050178
 11
111.5174479431
 21
-86.2325529115
  0
LINE
  5
252
100
AcDbEntity
  8
RACCORDO
100
AcDbLine
 62
7
  6
CONTINUOUS
 10
109.8467746977
 20
-86.2529015224
 11
110.9563825955
 21
-86.2411050178
  0
LINE
  5
253
100
AcDbEntity
  8
RACCORDO
100
AcDbLine
 62
7
  6
CONTINUOUS
 10
107.4343273944
 20
-86.2676100305
 11
109.8467746977
 21
-86.2529015224
  0
LINE
  5
254
100
AcDbEntity
  8
RACCORDO
100
AcDbLine
 62
7
  6
CONTINUOUS
 10
98.0593397225
 20
-86.815
 11
109.5138125185
 21
-86.815
  0
LINE
  5
255
100
AcDbEntity
  8
RACCORDO
100
AcDbLine
 62
250
  6
CONTINUOUS
 10
97.8593397868
 20
-86.615
 11
109.7136751944
 21
-86.615
  0
LINE
  5
256
100
AcDbEntity
  8
RACCORDO
100
AcDbLine
 62
7
  6
CONTINUOUS
 10
120.9297975446
 20
-85.915
 11
22.6433551603
 21
-85.915
  0
LINE
  5
257
100
AcDbEntity
  8
RACCORDO
100
AcDbLine
 62
250
  6
CONTINUOUS
 10
121.4297572664
 20
-85.415
 11
22.1433949745
 21
-85.415
  0
LINE
  5
258
100
AcDbEntity
  8
ASSI
100
AcDbLine
 62
7
  6
CONTINUOUS
 10
22.1460484104
 20
-83.815
 11
121.4271038305
 21
-83.815
  0
LINE
  5
259
100
AcDbEntity
  8
CURVE
100
AcDbLine
 62
7
  6
CONTINUOUS
 10
22.1434611511
 20
-83.815
 11
121.4296910899
 21
-83.815
  0
LINE
  5
25A
100
AcDbEntity
  8
RACCORDO
100
AcDbLine
 62
7
  6
CONTINUOUS
 10
103.4363145475
 20
-86.2746317983
 11
107.4343273944
 21
-86.2676100305
  0
LINE
  5
25B
100
AcDbEntity
  8
RACCORDO
100
AcDbLine
 62
7
  6
CONTINUOUS
 10
99.6345576698
 20
-86.265370126
 11
103.4363145475
 21
-86.2746317983
  0
LINE
  5
25C
100
AcDbEntity
  8
RACCORDO
100
AcDbLine
 62
7
  6
CONTINUOUS
 10
97.5720882342
 20
-86.2515303885
 11
99.6345576698
 21
-86.265370126
  0
LINE
  5
25D
100
AcDbEntity
  8
RACCORDO
100
AcDbLine
 62
7
  6
CONTINUOUS
 10
96.5636356832
 20
-86.2403971689
 11
97.5720882342
 21
-86.2515303885
  0
LINE
  5
25E
100
AcDbEntity
  8
RACCORDO
100
AcDbLine
 62
7
  6
CONTINUOUS
 10
96.0670377196
 20
-86.2327546186
 11
96.5636356832
 21
-86.2403971689
  0
LINE
  5
25F
100
AcDbEntity
  8
RACCORDO
100
AcDbLine
 62
7
  6
CONTINUOUS
 10
95.7506990273
 20
-86.2264293975
 11
96.0670377196
 21
-86.2327546186
  0
LINE
  5
260
100
AcDbEntity
  8
RACCORDO
100
AcDbLine
 62
7
  6
CONTINUOUS
 10
95.555176322
 20
-86.2214622026
 11
95.7506990273
 21
-86.2264293975
  0
LINE
  5
261
100
AcDbEntity
  8
RACCORDO
100
AcDbLine
 62
7
  6
CONTINUOUS
 10
95.4388796499
 20
-86.217811089
 11
95.555176322
 21
-86.2214622026
  0
LINE
  5
262
100
AcDbEntity
  8
RACCORDO
100
AcDbLine
 62
7
  6
CONTINUOUS
 10
95.3746264526
 20
-86.2154166279
 11
95.4388796499
 21
-86.217811089
  0
LINE
  5
263
100
AcDbEntity
  8
DRAFT
100
AcDbLine
 62
7
  6
CONTINUOUS
 10
29.2865761205
 20
-83.815
 11
31.2302864115
 21
-84.0177432793
  0
LINE
  5
264
100
AcDbEntity
  8
CURVE
100
AcDbLine
 62
250
  6
CONTINUOUS
 10
98.0677241205
 20
-79.419956
 11
101.2974551263
 21
-79.419956
  0
LINE
  5
265
100
AcDbEntity
  8
CURVE
100
AcDbLine
 62
250
  6
CONTINUOUS
 10
101.6155171205
 20
-79.419956
 11
104.2111891036
 21
-79.419956
  0
LINE
  5
266
100
AcDbEntity
  8
CURVE
100
AcDbLine
 62
250
  6
CONTINUOUS
 10
106.3449131205
 20
-79.419956
 11
109.3263441606
 21
-79.419956
  0
LINE
  5
267
100
AcDbEntity
  8
CURVE
100
AcDbLine
 62
250
  6
CONTINUOUS
 10
109.6067711205
 20
-79.412383
 11
110.611903158
 21
-79.412383
  0
LINE
  5
268
100
AcDbEntity
  8
CURVE
100
AcDbLine
 62
250
  6
CONTINUOUS
 10
111.7859331205
 20
-79.412383
 11
112.7908351003
 21
-79.412383
  0
LINE
  5
269
100
AcDbEntity
  8
CURVE
100
AcDbLine
 62
250
  6
CONTINUOUS
 10
108.3701691205
 20
-78.822347
 11
107.3010881574
 21
-78.822347
  0
LINE
  5
26A
100
AcDbEntity
  8
CURVE
100
AcDbLine
 62
250
  6
CONTINUOUS
 10
104.2111891205
 20
-78.670468
 11
102.5203651198
 21
-78.670468
  0
LINE
  5
26B
100
AcDbEntity
  8
CURVE
100
AcDbLine
 62
250
  6
CONTINUOUS
 10
101.2974551205
 20
-78.670468
 11
98.9920781262
 21
-78.670468
  0
LINE
  5
26C
100
AcDbEntity
  8
CURVE
100
AcDbLine
 62
250
  6
CONTINUOUS
 10
98.9920781205
 20
-78.295724
 11
100.116081121
 21
-78.295724
  0
LINE
  5
26D
100
AcDbEntity
  8
CURVE
100
AcDbLine
 62
250
  6
CONTINUOUS
 10
107.3010881205
 20
-78.143845
 11
108.3701690836
 21
-78.143845
  0
LINE
  5
26E
100
AcDbEntity
  8
CURVE
100
AcDbLine
 62
250
  6
CONTINUOUS
 10
109.3263441205
 20
-77.546235
 11
106.3449130802
 21
-77.546235
  0
LINE
  5
26F
100
AcDbEntity
  8
CURVE
100
AcDbLine
 62
250
  6
CONTINUOUS
 10
102.5203651205
 20
-77.546235
 11
101.615517138
 21
-77.546235
  0
LINE
  5
270
100
AcDbEntity
  8
CURVE
100
AcDbLine
 62
250
  6
CONTINUOUS
 10
100.1160811205
 20
-77.546235
 11
98.99207812
 21
-77.546235
  0
LINE
  5
271
100
AcDbEntity
  8
CURVE
100
AcDbLine
 62
250
  6
CONTINUOUS
 10
98.9920781205
 20
-77.171491
 11
100.9596571688
 21
-77.171491
  0
LINE
  5
272
100
AcDbEntity
  8
CURVE
100
AcDbLine
 62
250
  6
CONTINUOUS
 10
101.2751951205
 20
-77.171491
 11
103.6822331034
 21
-77.171491
  0
LINE
  5
273
100
AcDbEntity
  8
CURVE
100
AcDbLine
 62
250
  6
CONTINUOUS
 10
106.2678071205
 20
-77.171491
 11
109.7398709729
 21
-77.171491
  0
LINE
  5
274
100
AcDbEntity
  8
CURVE
100
AcDbLine
 62
250
  6
CONTINUOUS
 10
109.1950801205
 20
-76.422003
 11
105.7994341036
 21
-76.422003
  0
LINE
  5
275
100
AcDbEntity
  8
CURVE
100
AcDbLine
 62
250
  6
CONTINUOUS
 10
104.1506051205
 20
-76.422003
 11
101.2751950222
 21
-76.422003
  0
LINE
  5
276
100
AcDbEntity
  8
CURVE
100
AcDbLine
 62
250
  6
CONTINUOUS
 10
100.9596571205
 20
-76.422003
 11
98.0677240604
 21
-76.422003
  0
LINE
  5
277
100
AcDbEntity
  8
CURVE
100
AcDbLine
 62
250
  6
CONTINUOUS
 10
112.7908351205
 20
-76.419019
 11
111.7859331407
 21
-76.419019
  0
LINE
  5
278
100
AcDbEntity
  8
CURVE
100
AcDbLine
 62
250
  6
CONTINUOUS
 10
110.6119031205
 20
-76.419019
 11
109.6067710829
 21
-76.419019
  0
LINE
  5
279
100
AcDbEntity
  8
RACCORDO
100
AcDbLine
 62
250
  6
CONTINUOUS
 10
94.9926183798
 20
-86.0024237114
 11
94.6949908313
 21
-85.9323694682
  0
LWPOLYLINE
  5
27A
100
AcDbEntity
  8
RACCORDO
100
AcDbPolyline
 62
7
  6
CONTINUOUS
 90
13
 70
0
 10
94.8493163385
 20
-86.1271166181
 10
95.1487439804
 20
-86.1975765716
 10
95.1648725768
 20
-86.2007413096
 10
95.1801083183
 20
-86.2030006279
 10
95.1938358091
 20
-86.2046145381
 10
95.2068027196
 20
-86.205898968
 10
95.2210841084
 20
-86.2071233461
 10
95.2373250083
 20
-86.2083441931
 10
95.2550730783
 20
-86.2095280437
 10
95.2747251237
 20
-86.2107040985
 10
95.2964213195
 20
-86.2118789001
 10
95.3201828448
 20
-86.2130517499
 10
95.3746264526
 20
-86.2154166279
  0
LINE
  5
27B
100
AcDbEntity
  8
RACCORDO
100
AcDbLine
 62
7
  6
CONTINUOUS
 10
95.1466581704
 20
-86.1971036107
 11
95.1434051424
 21
-86.196309086
  0
LWPOLYLINE
  5
27C
100
AcDbEntity
  8
0
100
AcDbPolyline
 62
7
  6
CONTINUOUS
 90
3
 70
0
 43
0.3500000006
 10
66.5365742798
 20
97.7078560181
 10
67.3937167511
 20
98.5650030212
 10
67.3937167511
 20
95.5650021057
  0
LINE
  5
27D
100
AcDbEntity
  8
DRAFT
100
AcDbLine
 62
7
  6
CONTINUOUS
 10
22.8215942588
 20
-83.815
 11
22.1698037156
 21
-83.9450402337
  0
LINE
  5
27E
100
AcDbEntity
  8
DRAFT
100
AcDbLine
 62
7
  6
CONTINUOUS
 10
121.4033485254
 20
-83.9450402337
 11
120.7515579821
 21
-83.815
  0
LINE
  5
27F
100
AcDbEntity
  8
ASSI
100
AcDbLine
 62
7
  6
CONTINUOUS
 10
21.4190554251
 20
80.9860226852
 11
21.4190554251
 21
78.9312753145
  0
LINE
  5
280
100
AcDbEntity
  8
ASSI
100
AcDbLine
 62
7
  6
CONTINUOUS
 10
22.1433949745
 20
-85.415
 11
22.1433949745
 21
-83.9548556231
  0
LINE
  5
281
100
AcDbEntity
  8
ASSI
100
AcDbLine
 62
7
  6
CONTINUOUS
 10
22.1459819397
 20
-83.815
 11
22.1459819397
 21
78.8726324601
  0
LINE
  5
282
100
AcDbEntity
  8
RACCORDO
100
AcDbLine
 62
7
  6
CONTINUOUS
 10
22.4198604903
 20
-83.8951508302
 11
22.4198604903
 21
-83.815
  0
LINE
  5
283
100
AcDbEntity
  8
RACCORDO
100
AcDbLine
 62
7
  6
CONTINUOUS
 10
22.4198604903
 20
78.9253999167
 11
22.4198604903
 21
79.1254025243
  0
LINE
  5
284
100
AcDbEntity
  8
RACCORDO
100
AcDbLine
 62
250
  6
CONTINUOUS
 10
22.6198604903
 20
-83.8552483692
 11
22.6198604903
 21
-83.815
  0
LINE
  5
285
100
AcDbEntity
  8
RACCORDO
100
AcDbLine
 62
250
  6
CONTINUOUS
 10
22.6198604903
 20
78.9637635019
 11
22.6198604903
 21
79.1637693018
  0
LINE
  5
286
100
AcDbEntity
  8
RACCORDO
100
AcDbLine
 62
7
  6
CONTINUOUS
 10
25.7737732216
 20
81.7281436358
 11
25.7737287099
 21
79.7500155549
  0
LINE
  5
287
100
AcDbEntity
  8
RACCORDO
100
AcDbLine
 62
250
  6
CONTINUOUS
 10
26.5329454858
 20
-84.0557429576
 11
26.5329454858
 21
-85.415
  0
LINE
  5
288
100
AcDbEntity
  8
ASSI
100
AcDbLine
 62
250
  6
CONTINUOUS
 10
26.5356279109
 20
-83.815
 11
26.5356279109
 21
79.6863576837
  0
LINE
  5
289
100
AcDbEntity
  8
0
100
AcDbLine
 62
250
  6
CONTINUOUS
 10
26.5356279109
 20
-83.815
 11
26.5356279109
 21
79.6863576837
  0
LINE
  5
28A
100
AcDbEntity
  8
DRAFT
100
AcDbLine
 62
250
  6
CONTINUOUS
 10
31.2302864115
 20
-84.0177432793
 11
31.2302864115
 21
-83.815
  0
LINE
  5
28B
100
AcDbEntity
  8
ASSI
100
AcDbLine
 62
7
  6
CONTINUOUS
 10
42.2865761205
 20
-46.015
 11
101.2865761205
 21
-46.015
  0
LINE
  5
28C
100
AcDbEntity
  8
RACCORDO
100
AcDbLine
 62
250
  6
CONTINUOUS
 10
42.2865918009
 20
-45.8608341463
 11
101.2865604401
 21
-45.8608341463
  0
LINE
  5
28D
100
AcDbEntity
  8
RACCORDO
100
AcDbLine
 62
250
  6
CONTINUOUS
 10
72.483068393
 20
-45.8272073079
 11
42.2867206472
 21
-45.8266075599
  0
LINE
  5
28E
100
AcDbEntity
  8
RACCORDO
100
AcDbLine
 62
250
  6
CONTINUOUS
 10
101.2864315937
 20
-45.8266075599
 11
42.2867206472
 21
-45.8266075599
  0
LINE
  5
28F
100
AcDbEntity
  8
RACCORDO
100
AcDbLine
 62
250
  6
CONTINUOUS
 10
101.3206719741
 20
-45.6266528396
 11
42.2524802669
 21
-45.6266528396
  0
LINE
  5
290
100
AcDbEntity
  8
DRAFT
100
AcDbLine
 62
250
  6
CONTINUOUS
 10
33.1164116188
 20
-84.0529897419
 11
33.1164116188
 21
-83.815
  0
LWPOLYLINE
  5
291
100
AcDbEntity
  8
RACCORDO
100
AcDbPolyline
 62
7
  6
CONTINUOUS
 90
3
 70
0
 10
100.2578676364
 20
-30.1643901496
 10
100.1435703046
 20
-30.1802053232
 10
100.1423145623
 20
-30.1803735948
  0
LINE
  5
292
100
AcDbEntity
  8
RACCORDO
100
AcDbLine
 62
7
  6
CONTINUOUS
 10
100.312459863
 20
-30.1571344629
 11
100.2578676364
 21
-30.1643901496
  0
LINE
  5
293
100
AcDbEntity
  8
RACCORDO
100
AcDbLine
 62
7
  6
CONTINUOUS
 10
100.3538297535
 20
-30.1518487946
 11
100.312459863
 21
-30.1571344629
  0
LINE
  5
294
100
AcDbEntity
  8
RACCORDO
100
AcDbLine
 62
250
  6
CONTINUOUS
 10
102.7464750042
 20
-37.014999991
 11
102.0831169467
 21
-37.015
  0
LINE
  5
295
100
AcDbEntity
  8
RACCORDO
100
AcDbLine
 62
250
  6
CONTINUOUS
 10
99.8286700849
 20
-37.0150000089
 11
100.7652091197
 21
-37.015
  0
LINE
  5
296
100
AcDbEntity
  8
RACCORDO
100
AcDbLine
 62
250
  6
CONTINUOUS
 10
108.6423595646
 20
-37.015
 11
109.8158896104
 21
-37.0149999878
  0
LINE
  5
297
100
AcDbEntity
  8
RACCORDO
100
AcDbLine
 62
250
  6
CONTINUOUS
 10
93.8842651623
 20
-37.015
 11
92.7140479118
 21
-37.0149999775
  0
LINE
  5
298
100
AcDbEntity
  8
RACCORDO
100
AcDbLine
 62
250
  6
CONTINUOUS
 10
42.2865918009
 20
-28.1691658537
 11
42.2867206472
 21
-28.2033924401
  0
LINE
  5
299
100
AcDbEntity
  8
RACCORDO
100
AcDbLine
 62
250
  6
CONTINUOUS
 10
42.2865918009
 20
-45.8608341464
 11
42.2867206472
 21
-45.8266075611
  0
LWPOLYLINE
  5
29A
100
AcDbEntity
  8
0
100
AcDbPolyline
 62
7
  6
CONTINUOUS
 90
3
 70
0
 43
0.3500000006
 10
73.6794342499
 20
95.8507177734
 10
73.608003067
 20
95.6364242249
 10
73.465149765
 20
95.3507176208
  0
LINE
  5
29B
100
AcDbEntity
  8
RACCORDO
100
AcDbLine
 62
7
  6
CONTINUOUS
 10
100.399097038
 20
-30.1462990368
 11
100.3538297535
 21
-30.1518487946
  0
LINE
  5
29C
100
AcDbEntity
  8
RACCORDO
100
AcDbLine
 62
7
  6
CONTINUOUS
 10
100.4481971802
 20
-30.1405684731
 11
100.399097038
 21
-30.1462990368
  0
LINE
  5
29D
100
AcDbEntity
  8
RACCORDO
100
AcDbLine
 62
7
  6
CONTINUOUS
 10
100.5010001298
 20
-30.1347449644
 11
100.4481971802
 21
-30.1405684731
  0
LINE
  5
29E
100
AcDbEntity
  8
RACCORDO
100
AcDbLine
 62
7
  6
CONTINUOUS
 10
100.5574120238
 20
-30.1289256424
 11
100.5010001298
 21
-30.1347449644
  0
LINE
  5
29F
100
AcDbEntity
  8
RACCORDO
100
AcDbLine
 62
7
  6
CONTINUOUS
 10
100.617311214
 20
-30.1232110334
 11
100.5574120238
 21
-30.1289256424
  0
LWPOLYLINE
  5
2A0
100
AcDbEntity
  8
RACCORDO
100
AcDbPolyline
 62
7
  6
CONTINUOUS
 90
17
 70
0
 10
101.2381669156
 20
-30.092656913
 10
101.1975920851
 20
-30.0930400283
 10
101.1573343336
 20
-30.0936431281
 10
101.117443087
 20
-30.094461805
 10
101.077961537
 20
-30.0954870826
 10
101.0389227038
 20
-30.0967105207
 10
101.000365512
 20
-30.098125133
 10
100.9623274506
 20
-30.0997214562
 10
100.9248397522
 20
-30.101487525
 10
100.8879356516
 20
-30.1034128519
 10
100.8516492946
 20
-30.105488501
 10
100.816012918
 20
-30.1077035627
 10
100.7810542226
 20
-30.1100440946
 10
100.746798526
 20
-30.1124974668
 10
100.713273698
 20
-30.1150523162
 10
100.6805007966
 20
-30.1176987005
 10
100.617311214
 20
-30.1232110334
  0
LINE
  5
2A1
100
AcDbEntity
  8
RACCORDO
100
AcDbLine
 62
250
  6
CONTINUOUS
 10
42.2524802669
 20
-28.4033471604
 11
101.3206719741
 21
-28.4033471604
  0
LINE
  5
2A2
100
AcDbEntity
  8
RACCORDO
100
AcDbLine
 62
250
  6
CONTINUOUS
 10
42.2867206472
 20
-28.2033924401
 11
101.2864315937
 21
-28.2033924401
  0
LINE
  5
2A3
100
AcDbEntity
  8
RACCORDO
100
AcDbLine
 62
250
  6
CONTINUOUS
 10
101.2865604401
 20
-28.1691658537
 11
42.2865918009
 21
-28.1691658537
  0
LINE
  5
2A4
100
AcDbEntity
  8
ASSI
100
AcDbLine
 62
7
  6
CONTINUOUS
 10
42.2865761205
 20
-28.015
 11
101.2865761205
 21
-28.015
  0
LWPOLYLINE
  5
2A5
100
AcDbEntity
  8
RACCORDO
100
AcDbPolyline
 62
7
  6
CONTINUOUS
 90
15
 70
0
 10
101.7514589578
 20
-30.1073376556
 10
101.7189517063
 20
-30.1053372504
 10
101.685901158
 20
-30.1034508891
 10
101.6523292068
 20
-30.1016868998
 10
101.6182550204
 20
-30.1000546005
 10
101.5837032856
 20
-30.0985628296
 10
101.5487011371
 20
-30.097218043
 10
101.5132704905
 20
-30.0960273517
 10
101.4774404882
 20
-30.0949991378
 10
101.4412411926
 20
-30.0941396401
 10
101.4046953022
 20
-30.0934540726
 10
101.3678356761
 20
-30.0929489786
 10
101.3306984306
 20
-30.0926290793
 10
101.2933122032
 20
-30.0924979763
 10
101.2381669156
 20
-30.092656913
  0
LINE
  5
2A6
100
AcDbEntity
  8
RACCORDO
100
AcDbLine
 62
7
  6
CONTINUOUS
 10
101.8147566796
 20
-30.1116486419
 11
101.7514589578
 21
-30.1073376556
  0
LINE
  5
2A7
100
AcDbEntity
  8
RACCORDO
100
AcDbLine
 62
7
  6
CONTINUOUS
 10
101.87564201
 20
-30.1163074254
 11
101.8147566796
 21
-30.1116486419
  0
LINE
  5
2A8
100
AcDbEntity
  8
RACCORDO
100
AcDbLine
 62
7
  6
CONTINUOUS
 10
101.933975313
 20
-30.1212414581
 11
101.87564201
 21
-30.1163074254
  0
LINE
  5
2A9
100
AcDbEntity
  8
RACCORDO
100
AcDbLine
 62
7
  6
CONTINUOUS
 10
101.9896308533
 20
-30.1263762744
 11
101.933975313
 21
-30.1212414581
  0
LINE
  5
2AA
100
AcDbEntity
  8
RACCORDO
100
AcDbLine
 62
7
  6
CONTINUOUS
 10
102.0424888567
 20
-30.1316320725
 11
101.9896308533
 21
-30.1263762744
  0
LWPOLYLINE
  5
2AB
100
AcDbEntity
  8
RACCORDO
100
AcDbPolyline
 62
7
  6
CONTINUOUS
 90
3
 70
0
 10
102.1162572034
 20
-30.1395837397
 10
102.0924167572
 20
-30.136936425
 10
102.0424888567
 20
-30.1316320725
  0
LINE
  5
2AC
100
AcDbEntity
  8
SUPERFICI
100
AcDbLine
 62
7
  6
CONTINUOUS
 10
24.218962003
 20
79.4654202437
 11
24.2596768848
 21
79.272960296
  0
LINE
  5
2AD
100
AcDbEntity
  8
RACCORDO
100
AcDbLine
 62
250
  6
CONTINUOUS
 10
27.0621678934
 20
79.9793846428
 11
27.097832349
 21
79.7838262834
  0
LWPOLYLINE
  5
2AE
100
AcDbEntity
  8
RACCORDO
100
AcDbPolyline
 62
7
  6
CONTINUOUS
 90
4
 70
0
 10
102.4383950165
 20
-30.1813759298
 10
102.4397129043
 20
-30.1815231481
 10
102.4394547442
 20
-30.1814920502
 10
102.4371777658
 20
-30.1812059573
  0
LINE
  5
2AF
100
AcDbEntity
  8
RACCORDO
100
AcDbLine
 62
7
  6
CONTINUOUS
 10
102.1616487692
 20
-30.1448226288
 11
102.1162572034
 21
-30.1395837397
  0
LINE
  5
2B0
100
AcDbEntity
  8
RACCORDO
100
AcDbLine
 62
7
  6
CONTINUOUS
 10
102.203936519
 20
-30.1499339546
 11
102.1616487692
 21
-30.1448226288
  0
LINE
  5
2B1
100
AcDbEntity
  8
RACCORDO
100
AcDbLine
 62
7
  6
CONTINUOUS
 10
102.2430342885
 20
-30.1548539567
 11
102.203936519
 21
-30.1499339546
  0
LINE
  5
2B2
100
AcDbEntity
  8
RACCORDO
100
AcDbLine
 62
7
  6
CONTINUOUS
 10
102.2955878701
 20
-30.1617373187
 11
102.2430342885
 21
-30.1548539567
  0
LINE
  5
2B3
100
AcDbEntity
  8
RACCORDO
100
AcDbLine
 62
7
  6
CONTINUOUS
 10
102.4371777658
 20
-30.1812059573
 11
102.4289420584
 21
-30.1801193565
  0
LINE
  5
2B4
100
AcDbEntity
  8
RACCORDO
100
AcDbLine
 62
7
  6
CONTINUOUS
 10
102.3541460662
 20
-30.1697250725
 11
102.2955878701
 21
-30.1617373187
  0
LINE
  5
2B5
100
AcDbEntity
  8
RACCORDO
100
AcDbLine
 62
7
  6
CONTINUOUS
 10
102.4289420584
 20
-30.1801193565
 11
102.3541460662
 21
-30.1697250725
  0
LINE
  5
2B6
100
AcDbEntity
  8
CURVE
100
AcDbLine
 62
250
  6
CONTINUOUS
 10
111.1989181205
 20
-77.22519
 11
110.6119031205
 21
-76.419019
  0
LINE
  5
2B7
100
AcDbEntity
  8
CURVE
100
AcDbLine
 62
250
  6
CONTINUOUS
 10
109.6067711205
 20
-76.419019
 11
110.6963521205
 21
-77.915701
  0
LINE
  5
2B8
100
AcDbEntity
  8
CURVE
100
AcDbLine
 62
250
  6
CONTINUOUS
 10
111.1989181205
 20
-78.605983
 11
111.7859331205
 21
-79.412383
  0
LINE
  5
2B9
100
AcDbEntity
  8
CURVE
100
AcDbLine
 62
250
  6
CONTINUOUS
 10
112.7908351205
 20
-79.412383
 11
111.7014841205
 21
-77.915701
  0
LINE
  5
2BA
100
AcDbEntity
  8
CURVE
100
AcDbLine
 62
250
  6
CONTINUOUS
 10
109.7398711205
 20
-77.171491
 11
109.1950801205
 21
-76.422003
  0
LINE
  5
2BB
100
AcDbEntity
  8
ASSI
100
AcDbLine
 62
7
  6
CONTINUOUS
 10
65.5589548309
 20
-8.5175663517
 11
65.5589548309
 21
-8.4784162104
  0
LINE
  5
2BC
100
AcDbEntity
  8
ASSI
100
AcDbLine
 62
7
  6
CONTINUOUS
 10
65.5589548309
 20
27.4824336483
 11
65.5589548309
 21
28.8875496563
  0
LINE
  5
2BD
100
AcDbEntity
  8
CURVE
100
AcDbLine
 62
250
  6
CONTINUOUS
 10
103.6822331205
 20
-77.171491
 11
104.9751351205
 21
-79.419956
  0
LINE
  5
2BE
100
AcDbEntity
  8
CURVE
100
AcDbLine
 62
250
  6
CONTINUOUS
 10
104.9751351205
 20
-77.855807
 11
104.1506051205
 21
-76.422003
  0
LWPOLYLINE
  5
2BF
100
AcDbEntity
  8
0
100
AcDbPolyline
 62
7
  6
CONTINUOUS
 90
13
 70
0
 43
0.3500000006
 10
68.2508637543
 20
96.4221400452
 10
68.2508637543
 20
97.7078560181
 10
68.4651482391
 20
98.1364249878
 10
68.8937172089
 20
98.5650030212
 10
69.1080062256
 20
98.5650030212
 10
69.5365751953
 20
98.1364249878
 10
69.7508596802
 20
97.7078560181
 10
69.7508596802
 20
96.4221400452
 10
69.5365751953
 20
95.9935710754
 10
69.1080062256
 20
95.5650021057
 10
68.8937172089
 20
95.5650021057
 10
68.4651482391
 20
95.9935710754
 10
68.2508637543
 20
96.4221400452
  0
LWPOLYLINE
  5
2C0
100
AcDbEntity
  8
0
100
AcDbPolyline
 62
7
  6
CONTINUOUS
 90
13
 70
0
 43
0.3500000006
 10
70.6080066833
 20
96.4221400452
 10
70.6080066833
 20
97.7078560181
 10
70.8222911682
 20
98.1364249878
 10
71.2508601379
 20
98.5650030212
 10
71.4651491547
 20
98.5650030212
 10
71.8937181244
 20
98.1364249878
 10
72.1080026093
 20
97.7078560181
 10
72.1080026093
 20
96.4221400452
 10
71.8937181244
 20
95.9935710754
 10
71.4651491547
 20
95.5650021057
 10
71.2508601379
 20
95.5650021057
 10
70.8222911682
 20
95.9935710754
 10
70.6080066833
 20
96.4221400452
  0
LINE
  5
2C1
100
AcDbEntity
  8
RACCORDO
100
AcDbLine
 62
7
  6
CONTINUOUS
 10
71.7865765008
 20
86.3148652279
 11
71.7865760845
 21
84.1849999999
  0
LINE
  5
2C2
100
AcDbEntity
  8
RACCORDO
100
AcDbLine
 62
7
  6
CONTINUOUS
 10
71.7865761205
 20
86.815
 11
71.7865761205
 21
86.3298260754
  0
LWPOLYLINE
  5
2C3
100
AcDbEntity
  8
RACCORDO
100
AcDbPolyline
 62
250
  6
CONTINUOUS
 90
4
 70
0
 10
71.7754296237
 20
86.8147516575
 10
71.775413484
 20
86.8134054633
 10
71.7754588638
 20
86.8093763984
 10
71.7755656596
 20
86.8026861492
  0
LINE
  5
2C4
100
AcDbEntity
  8
RACCORDO
100
AcDbLine
 62
250
  6
CONTINUOUS
 10
71.7977226166
 20
86.8147516267
 11
71.7955621251
 21
86.731079029
  0
LWPOLYLINE
  5
2C5
100
AcDbEntity
  8
RACCORDO
100
AcDbPolyline
 62
250
  6
CONTINUOUS
 90
3
 70
0
 10
71.7977226166
 20
86.8147516267
 10
71.7976518194
 20
86.8134073695
 10
71.7975215914
 20
86.809380199
  0
LWPOLYLINE
  5
2C6
100
AcDbEntity
  8
0
100
AcDbPolyline
 62
7
  6
CONTINUOUS
 90
4
 70
0
 43
0.3500000006
 10
132.4750426941
 20
-3.4285713387
 10
131.8321892395
 20
-3.4285713387
 10
131.8321892395
 20
-1.9285708809
 10
134.8321810913
 20
-2.7857144852
  0
LINE
  5
2C7
100
AcDbEntity
  8
RACCORDO
100
AcDbLine
 62
250
  6
CONTINUOUS
 10
71.7754296237
 20
86.8147516575
 11
71.776992711
 21
86.7310656584
  0
LWPOLYLINE
  5
2C8
100
AcDbEntity
  8
0
100
AcDbPolyline
 62
7
  6
CONTINUOUS
 90
4
 70
0
 43
0.3500000006
 10
74.6794345551
 20
97.9221405029
 10
74.6794345551
 20
98.5650030212
 10
76.179430481
 20
98.5650030212
 10
75.3222925415
 20
95.5650021057
  0
LINE
  5
2C9
100
AcDbEntity
  8
ASSI
100
AcDbLine
 62
7
  6
CONTINUOUS
 10
78.0141974101
 20
-8.5175496563
 11
78.0141974101
 21
-8.4784162104
  0
LINE
  5
2CA
100
AcDbEntity
  8
ASSI
100
AcDbLine
 62
7
  6
CONTINUOUS
 10
78.0141974101
 20
27.4824503437
 11
78.0141974101
 21
28.8875663517
  0
LWPOLYLINE
  5
2CB
100
AcDbEntity
  8
0
100
AcDbPolyline
 62
7
  6
CONTINUOUS
 90
3
 70
0
 43
0.3500000006
 10
134.5464744873
 20
1.7857135391
 10
134.7607589722
 20
1.7142846222
 10
135.0464746399
 20
1.5714290543
  0
LINE
  5
2CC
100
AcDbEntity
  8
RACCORDO
100
AcDbLine
 62
7
  6
CONTINUOUS
 10
94.6949908313
 20
-85.9323694682
 11
94.6949908313
 21
-85.915
  0
LINE
  5
2CD
100
AcDbEntity
  8
RACCORDO
100
AcDbLine
 62
250
  6
CONTINUOUS
 10
94.9926183798
 20
-86.0024237114
 11
94.9926183798
 21
-85.915
  0
LINE
  5
2CE
100
AcDbEntity
  8
RACCORDO
100
AcDbLine
 62
7
  6
CONTINUOUS
 10
97.8593397225
 20
-86.2540258129
 11
97.8593397225
 21
-86.615
  0
LINE
  5
2CF
100
AcDbEntity
  8
RACCORDO
100
AcDbLine
 62
250
  6
CONTINUOUS
 10
97.9905585187
 20
-86.2550935103
 11
97.9905585187
 21
-86.615
  0
LINE
  5
2D0
100
AcDbEntity
  8
CURVE
100
AcDbLine
 62
250
  6
CONTINUOUS
 10
98.0677241205
 20
-76.422003
 11
98.0677241205
 21
-79.419956
  0
LINE
  5
2D1
100
AcDbEntity
  8
CURVE
100
AcDbLine
 62
250
  6
CONTINUOUS
 10
98.9920781205
 20
-78.670468
 11
98.9920781205
 21
-78.295724
  0
LINE
  5
2D2
100
AcDbEntity
  8
CURVE
100
AcDbLine
 62
250
  6
CONTINUOUS
 10
98.9920781205
 20
-77.546235
 11
98.9920781205
 21
-77.171491
  0
LINE
  5
2D3
100
AcDbEntity
  8
CURVE
100
AcDbLine
 62
250
  6
CONTINUOUS
 10
100.1160811205
 20
-78.295724
 11
100.1160811205
 21
-77.546235
  0
LWPOLYLINE
  5
2D4
100
AcDbEntity
  8
0
100
AcDbPolyline
 62
7
  6
CONTINUOUS
 90
10
 70
0
 43
0.3500000006
 10
134.3321809387
 20
1.7142846222
 10
134.4750433044
 20
1.7857135391
 10
134.5464744873
 20
1.7857135391
 10
134.6893277893
 20
1.6428579712
 10
134.6893277893
 20
1.5714290543
 10
134.6178966064
 20
1.5000001373
 10
134.5464744873
 20
1.5000001373
 10
134.4036121216
 20
1.5714290543
 10
134.3321809387
 20
1.6428579712
 10
134.3321809387
 20
1.7142846222
  0
LINE
  5
2D5
100
AcDbEntity
  8
RACCORDO
100
AcDbLine
 62
250
  6
CONTINUOUS
 10
101.2865604401
 20
-45.8608341464
 11
101.2864315937
 21
-45.8266075611
  0
LINE
  5
2D6
100
AcDbEntity
  8
CURVE
100
AcDbLine
 62
250
  6
CONTINUOUS
 10
100.9596571205
 20
-77.171491
 11
100.9596571205
 21
-76.422003
  0
LINE
  5
2D7
100
AcDbEntity
  8
CURVE
100
AcDbLine
 62
250
  6
CONTINUOUS
 10
101.2751951205
 20
-76.422003
 11
101.2751951205
 21
-77.171491
  0
LINE
  5
2D8
100
AcDbEntity
  8
CURVE
100
AcDbLine
 62
250
  6
CONTINUOUS
 10
101.2974551205
 20
-79.419956
 11
101.2974551205
 21
-78.670468
  0
LINE
  5
2D9
100
AcDbEntity
  8
CURVE
100
AcDbLine
 62
250
  6
CONTINUOUS
 10
101.6155171205
 20
-77.546235
 11
101.6155171205
 21
-79.419956
  0
LINE
  5
2DA
100
AcDbEntity
  8
CURVE
100
AcDbLine
 62
250
  6
CONTINUOUS
 10
102.5203651205
 20
-78.670468
 11
102.5203651205
 21
-77.546235
  0
LINE
  5
2DB
100
AcDbEntity
  8
CURVE
100
AcDbLine
 62
250
  6
CONTINUOUS
 10
104.2111891205
 20
-79.419956
 11
104.2111891205
 21
-78.670468
  0
LINE
  5
2DC
100
AcDbEntity
  8
CURVE
100
AcDbLine
 62
250
  6
CONTINUOUS
 10
106.3449131205
 20
-77.546235
 11
106.3449131205
 21
-79.419956
  0
LINE
  5
2DD
100
AcDbEntity
  8
RACCORDO
100
AcDbLine
 62
250
  6
CONTINUOUS
 10
101.2865604401
 20
-28.1691658536
 11
101.2864315937
 21
-28.2033924389
  0
LINE
  5
2DE
100
AcDbEntity
  8
RACCORDO
100
AcDbLine
 62
250
  6
CONTINUOUS
 10
116.5109843476
 20
79.9793846428
 11
116.4753138557
 21
79.7838272611
  0
LINE
  5
2DF
100
AcDbEntity
  8
SUPERFICI
100
AcDbLine
 62
7
  6
CONTINUOUS
 10
119.3134753537
 20
79.2729602845
 11
119.3541902378
 21
79.4654202437
  0
LINE
  5
2E0
100
AcDbEntity
  8
CURVE
100
AcDbLine
 62
250
  6
CONTINUOUS
 10
107.3010881205
 20
-78.822347
 11
107.3010881205
 21
-78.143845
  0
LINE
  5
2E1
100
AcDbEntity
  8
CURVE
100
AcDbLine
 62
250
  6
CONTINUOUS
 10
108.3701691205
 20
-78.143845
 11
108.3701691205
 21
-78.822347
  0
LINE
  5
2E2
100
AcDbEntity
  8
CURVE
100
AcDbLine
 62
250
  6
CONTINUOUS
 10
109.3263441205
 20
-79.419956
 11
109.3263441205
 21
-77.546235
  0
LINE
  5
2E3
100
AcDbEntity
  8
RACCORDO
100
AcDbLine
 62
250
  6
CONTINUOUS
 10
109.5825937223
 20
-86.2550942387
 11
109.5825937223
 21
-86.615
  0
LINE
  5
2E4
100
AcDbEntity
  8
RACCORDO
100
AcDbLine
 62
7
  6
CONTINUOUS
 10
109.7138125185
 20
-86.615
 11
109.7138125185
 21
-86.2540286101
  0
LINE
  5
2E5
100
AcDbEntity
  8
DRAFT
100
AcDbLine
 62
250
  6
CONTINUOUS
 10
110.4567406221
 20
-84.0529897419
 11
110.4567406221
 21
-83.815
  0
LINE
  5
2E6
100
AcDbEntity
  8
DRAFT
100
AcDbLine
 62
250
  6
CONTINUOUS
 10
112.3428658295
 20
-84.0177432793
 11
112.3428658295
 21
-83.815
  0
LINE
  5
2E7
100
AcDbEntity
  8
RACCORDO
100
AcDbLine
 62
250
  6
CONTINUOUS
 10
112.5805338612
 20
-86.0024237114
 11
112.5805338612
 21
-85.915
  0
LINE
  5
2E8
100
AcDbEntity
  8
RACCORDO
100
AcDbLine
 62
7
  6
CONTINUOUS
 10
112.8781614096
 20
-85.9323694682
 11
112.8781614096
 21
-85.915
  0
LINE
  5
2E9
100
AcDbEntity
  8
RACCORDO
100
AcDbLine
 62
250
  6
CONTINUOUS
 10
93.2957653097
 20
36.285
 11
92.5931909524
 21
36.285
  0
LINE
  5
2EA
100
AcDbEntity
  8
RACCORDO
100
AcDbLine
 62
250
  6
CONTINUOUS
 10
86.980091637
 20
36.285
 11
85.393560934
 21
36.285
  0
LINE
  5
2EB
100
AcDbEntity
  8
RACCORDO
100
AcDbLine
 62
250
  6
CONTINUOUS
 10
79.7799274593
 20
36.285
 11
78.1932304322
 21
36.285
  0
LINE
  5
2EC
100
AcDbEntity
  8
RACCORDO
100
AcDbLine
 62
250
  6
CONTINUOUS
 10
72.5799201395
 20
36.285
 11
70.9932335105
 21
36.285
  0
LINE
  5
2ED
100
AcDbEntity
  8
RACCORDO
100
AcDbLine
 62
250
  6
CONTINUOUS
 10
65.3799232274
 20
36.285
 11
63.7932260249
 21
36.285
  0
LINE
  5
2EE
100
AcDbEntity
  8
RACCORDO
100
AcDbLine
 62
250
  6
CONTINUOUS
 10
58.1795904485
 20
36.285
 11
56.5930428038
 21
36.285
  0
LINE
  5
2EF
100
AcDbEntity
  8
RACCORDO
100
AcDbLine
 62
250
  6
CONTINUOUS
 10
50.9799621768
 20
36.285
 11
50.2773869313
 21
36.285
  0
LWPOLYLINE
  5
2F0
100
AcDbEntity
  8
0
100
AcDbPolyline
 62
7
  6
CONTINUOUS
 90
3
 70
0
 43
0.3500000006
 10
132.689327179
 20
-5.1428574142
 10
131.8321892395
 20
-4.28571381
 10
134.8321810913
 20
-4.28571381
  0
LINE
  5
2F1
100
AcDbEntity
  8
ASSI
100
AcDbLine
 62
250
  6
CONTINUOUS
 10
117.03752433
 20
-83.815
 11
117.03752433
 21
79.6863576837
  0
LINE
  5
2F2
100
AcDbEntity
  8
0
100
AcDbLine
 62
250
  6
CONTINUOUS
 10
117.03752433
 20
-83.815
 11
117.03752433
 21
79.6863576837
  0
LINE
  5
2F3
100
AcDbEntity
  8
RACCORDO
100
AcDbLine
 62
250
  6
CONTINUOUS
 10
117.0402067552
 20
-84.0557429576
 11
117.0402067552
 21
-85.415
  0
LINE
  5
2F4
100
AcDbEntity
  8
RACCORDO
100
AcDbLine
 62
7
  6
CONTINUOUS
 10
117.799351087
 20
81.7274319204
 11
117.7994235311
 21
79.7500155549
  0
LWPOLYLINE
  5
2F5
100
AcDbEntity
  8
0
100
AcDbPolyline
 62
7
  6
CONTINUOUS
 90
10
 70
0
 43
0.3500000006
 10
131.8321892395
 20
3.8571430664
 10
132.4750426941
 20
3.21428508
 10
133.3321896973
 20
2.7857138443
 10
134.4036121216
 20
2.7857138443
 10
134.8321810913
 20
3.21428508
 10
134.8321810913
 20
3.8571430664
 10
134.4036121216
 20
4.2857143021
 10
133.5464741821
 20
4.2857143021
 10
133.1178961487
 20
3.8571430664
 10
133.1178961487
 20
2.9285716782
  0
LWPOLYLINE
  5
2F6
100
AcDbEntity
  8
0
100
AcDbPolyline
 62
7
  6
CONTINUOUS
 90
10
 70
0
 43
0.3500000006
 10
73.608003067
 20
96.0650022583
 10
73.6794342499
 20
95.9221398926
 10
73.6794342499
 20
95.8507177734
 10
73.536576416
 20
95.7078554077
 10
73.465149765
 20
95.7078554077
 10
73.3937185822
 20
95.7792865906
 10
73.3937185822
 20
95.8507177734
 10
73.465149765
 20
95.9935710754
 10
73.536576416
 20
96.0650022583
 10
73.608003067
 20
96.0650022583
  0
LINE
  5
2F7
100
AcDbEntity
  8
RACCORDO
100
AcDbLine
 62
250
  6
CONTINUOUS
 10
120.9532917506
 20
79.1637693018
 11
120.9532917506
 21
78.9637635
  0
LINE
  5
2F8
100
AcDbEntity
  8
RACCORDO
100
AcDbLine
 62
250
  6
CONTINUOUS
 10
120.9532917506
 20
-83.815
 11
120.9532917506
 21
-83.8552483692
  0
LINE
  5
2F9
100
AcDbEntity
  8
RACCORDO
100
AcDbLine
 62
7
  6
CONTINUOUS
 10
121.1532917506
 20
79.1254025243
 11
121.1532917506
 21
78.9253998874
  0
LINE
  5
2FA
100
AcDbEntity
  8
RACCORDO
100
AcDbLine
 62
7
  6
CONTINUOUS
 10
121.1532917506
 20
-83.815
 11
121.1532917506
 21
-83.8951508302
  0
LINE
  5
2FB
100
AcDbEntity
  8
ASSI
100
AcDbLine
 62
7
  6
CONTINUOUS
 10
121.4271703012
 20
-83.815
 11
121.4271703012
 21
78.8726324601
  0
LINE
  5
2FC
100
AcDbEntity
  8
ASSI
100
AcDbLine
 62
7
  6
CONTINUOUS
 10
121.4297572664
 20
-85.415
 11
121.4297572664
 21
-83.9548556231
  0
LINE
  5
2FD
100
AcDbEntity
  8
ASSI
100
AcDbLine
 62
7
  6
CONTINUOUS
 10
122.1540968158
 20
80.9860227546
 11
122.1540968158
 21
78.9312753145
  0
LWPOLYLINE
  5
2FE
100
AcDbEntity
  8
0
100
AcDbPolyline
 62
7
  6
CONTINUOUS
 90
5
 70
0
 43
0.3500000006
 10
133.1178961487
 20
-0.2142848053
 10
132.9036116638
 20
0.1428575134
 10
132.2607582092
 20
0.1428575134
 10
131.8321892395
 20
-0.2142848053
 10
131.8321892395
 20
-1.0714295425
  0
LWPOLYLINE
  5
2FF
100
AcDbEntity
  8
0
100
AcDbPolyline
 62
7
  6
CONTINUOUS
 90
6
 70
0
 43
0.3500000006
 10
134.8321810913
 20
-1.0714295425
 10
134.8321810913
 20
-0.0000003204
 10
134.6178966064
 20
0.2142864304
 10
133.5464741821
 20
0.2142864304
 10
133.1178961487
 20
-0.2142848053
 10
133.1178961487
 20
-0.642856041
  0
LINE
  5
300
100
AcDbEntity
  8
CURVE
100
AcDbLine
 62
250
  6
CONTINUOUS
 10
105.7994341205
 20
-76.422003
 11
104.9751351205
 21
-77.855807
  0
LINE
  5
301
100
AcDbEntity
  8
CURVE
100
AcDbLine
 62
250
  6
CONTINUOUS
 10
104.9751351205
 20
-79.419956
 11
106.2678071205
 21
-77.171491
  0
LINE
  5
302
100
AcDbEntity
  8
CURVE
100
AcDbLine
 62
250
  6
CONTINUOUS
 10
111.7014841205
 20
-77.915701
 11
112.7908351205
 21
-76.419019
  0
LINE
  5
303
100
AcDbEntity
  8
CURVE
100
AcDbLine
 62
250
  6
CONTINUOUS
 10
110.6119031205
 20
-79.412383
 11
111.1989181205
 21
-78.605983
  0
LINE
  5
304
100
AcDbEntity
  8
CURVE
100
AcDbLine
 62
250
  6
CONTINUOUS
 10
110.6963521205
 20
-77.915701
 11
109.6067711205
 21
-79.412383
  0
LINE
  5
305
100
AcDbEntity
  8
CURVE
100
AcDbLine
 62
250
  6
CONTINUOUS
 10
111.7859331205
 20
-76.419019
 11
111.1989181205
 21
-77.22519
  0
LWPOLYLINE
  5
306
100
AcDbEntity
  8
0
100
AcDbPolyline
 62
7
  6
CONTINUOUS
 90
5
 70
0
 43
0.3500000006
 10
-39.138283493
 20
107.2792901001
 10
-38.7811411743
 20
107.493574585
 10
-38.7811411743
 20
108.1364280396
 10
-39.138283493
 20
108.5649970093
 10
-39.9954259644
 20
108.5649970093
  0
LINE
  5
307
100
AcDbEntity
  8
RACCORDO
100
AcDbLine
 62
7
  6
CONTINUOUS
 10
-16.2798648027
 20
-84.5360979711
 11
-29.7868447021
 21
-85.0077721026
  0
LINE
  5
308
100
AcDbEntity
  8
RACCORDO
100
AcDbLine
 62
250
  6
CONTINUOUS
 10
-20.5450422327
 20
-84.2857718111
 11
-29.7798733067
 21
-84.6082592183
  0
LINE
  5
309
100
AcDbEntity
  8
RACCORDO
100
AcDbLine
 62
250
  6
CONTINUOUS
 10
-15.8938246014
 20
-84.1363416402
 11
-20.5450422327
 21
-84.2857718111
  0
LINE
  5
30A
100
AcDbEntity
  8
RACCORDO
100
AcDbLine
 62
7
  6
CONTINUOUS
 10
-30.0938246014
 20
-85.015
 11
-31.8903341201
 21
-85.0463581903
  0
LINE
  5
30B
100
AcDbEntity
  8
RACCORDO
100
AcDbLine
 62
250
  6
CONTINUOUS
 10
-30.0938246014
 20
-84.5156844906
 11
-31.8763934529
 21
-84.5467993456
  0
LINE
  5
30C
100
AcDbEntity
  8
RACCORDO
100
AcDbLine
 62
7
  6
CONTINUOUS
 10
-53.6727135847
 20
-84.1637328044
 11
-47.4859794049
 21
-84.0557429576
  0
LINE
  5
30D
100
AcDbEntity
  8
DRAFT
100
AcDbLine
 62
7
  6
CONTINUOUS
 10
-47.4859794049
 20
-84.0557429576
 11
-33.6938246014
 21
-83.815
  0
LINE
  5
30E
100
AcDbEntity
  8
RACCORDO
100
AcDbLine
 62
7
  6
CONTINUOUS
 10
-30.0938246014
 20
-86.115
 11
-48.3920458465
 21
-86.2746861576
  0
LINE
  5
30F
100
AcDbEntity
  8
RACCORDO
100
AcDbLine
 62
250
  6
CONTINUOUS
 10
-30.0938246014
 20
-85.915102112
 11
-40.1198725347
 21
-86.0024237114
  0
LINE
  5
310
100
AcDbEntity
  8
RACCORDO
100
AcDbLine
 62
250
  6
CONTINUOUS
 10
-40.1198725347
 20
-86.0024237114
 11
-48.5938207773
 21
-86.0746940323
  0
LINE
  5
311
100
AcDbEntity
  8
RACCORDO
100
AcDbLine
 62
7
  6
CONTINUOUS
 10
-33.2938246014
 20
-86.815
 11
-45.3938246014
 21
-86.815
  0
LINE
  5
312
100
AcDbEntity
  8
RACCORDO
100
AcDbLine
 62
250
  6
CONTINUOUS
 10
-33.0938246014
 20
-86.615
 11
-45.5938246014
 21
-86.615
  0
LINE
  5
313
100
AcDbEntity
  8
RACCORDO
100
AcDbLine
 62
7
  6
CONTINUOUS
 10
-32.0938246014
 20
-85.915
 11
-53.1727135847
 21
-85.915
  0
LINE
  5
314
100
AcDbEntity
  8
RACCORDO
100
AcDbLine
 62
250
  6
CONTINUOUS
 10
-32.0938246014
 20
-85.415
 11
-53.6727135847
 21
-85.415
  0
LINE
  5
315
100
AcDbEntity
  8
RACCORDO
100
AcDbLine
 62
250
  6
CONTINUOUS
 10
-29.9938246014
 20
-84.6082592183
 11
-29.7798733067
 21
-84.6082592183
  0
LINE
  5
316
100
AcDbEntity
  8
RACCORDO
100
AcDbLine
 62
250
  6
CONTINUOUS
 10
-31.8763934529
 20
-84.5467993456
 11
-32.0938246014
 21
-84.5467993456
  0
LINE
  5
317
100
AcDbEntity
  8
CURVE
100
AcDbLine
 62
7
  6
CONTINUOUS
 10
-32.0938246014
 20
-83.815
 11
-53.6727135847
 21
-83.815
  0
LINE
  5
318
100
AcDbEntity
  8
ASSI
100
AcDbLine
 62
7
  6
CONTINUOUS
 10
-32.0938246014
 20
-83.815
 11
-53.6438246014
 21
-83.815
  0
LINE
  5
319
100
AcDbEntity
  8
DRAFT
100
AcDbLine
 62
7
  6
CONTINUOUS
 10
-33.6938246014
 20
-83.815
 11
-32.0938246014
 21
-83.8429281039
  0
LINE
  5
31A
100
AcDbEntity
  8
RACCORDO
100
AcDbLine
 62
7
  6
CONTINUOUS
 10
-29.9938246014
 20
-83.515
 11
-30.0938246014
 21
-83.5132544935
  0
LINE
  5
31B
100
AcDbEntity
  8
CURVE
100
AcDbLine
 62
250
  6
CONTINUOUS
 10
-51.5828928701
 20
-79.419956
 11
-51.0410174099
 21
-79.419956
  0
LINE
  5
31C
100
AcDbEntity
  8
CURVE
100
AcDbLine
 62
250
  6
CONTINUOUS
 10
-50.9841580916
 20
-79.419956
 11
-50.4965503961
 21
-79.419956
  0
LINE
  5
31D
100
AcDbEntity
  8
CURVE
100
AcDbLine
 62
250
  6
CONTINUOUS
 10
-50.0640698557
 20
-79.419956
 11
-49.4114790091
 21
-79.419956
  0
LINE
  5
31E
100
AcDbEntity
  8
CURVE
100
AcDbLine
 62
250
  6
CONTINUOUS
 10
-49.3471807758
 20
-79.412383
 11
-49.1125723276
 21
-79.412383
  0
LINE
  5
31F
100
AcDbEntity
  8
CURVE
100
AcDbLine
 62
250
  6
CONTINUOUS
 10
-48.8303058494
 20
-79.412383
 11
-48.5816206778
 21
-79.412383
  0
LINE
  5
320
100
AcDbEntity
  8
CURVE
100
AcDbLine
 62
250
  6
CONTINUOUS
 10
-49.626936503
 20
-78.822347
 11
-49.8609336489
 21
-78.822347
  0
LINE
  5
321
100
AcDbEntity
  8
CURVE
100
AcDbLine
 62
250
  6
CONTINUOUS
 10
-50.4965503928
 20
-78.670468
 11
-50.818956071
 21
-78.670468
  0
LINE
  5
322
100
AcDbEntity
  8
CURVE
100
AcDbLine
 62
250
  6
CONTINUOUS
 10
-51.041017411
 20
-78.670468
 11
-51.4343912229
 21
-78.670468
  0
LINE
  5
323
100
AcDbEntity
  8
CURVE
100
AcDbLine
 62
250
  6
CONTINUOUS
 10
-51.4343912238
 20
-78.295724
 11
-51.2467100951
 21
-78.295724
  0
LINE
  5
324
100
AcDbEntity
  8
CURVE
100
AcDbLine
 62
250
  6
CONTINUOUS
 10
-49.8609336569
 20
-78.143845
 11
-49.6269365112
 21
-78.143845
  0
LINE
  5
325
100
AcDbEntity
  8
CURVE
100
AcDbLine
 62
250
  6
CONTINUOUS
 10
-49.4114790183
 20
-77.546235
 11
-50.0640698642
 21
-77.546235
  0
LINE
  5
326
100
AcDbEntity
  8
CURVE
100
AcDbLine
 62
250
  6
CONTINUOUS
 10
-50.8189560708
 20
-77.546235
 11
-50.9841580884
 21
-77.546235
  0
LINE
  5
327
100
AcDbEntity
  8
CURVE
100
AcDbLine
 62
250
  6
CONTINUOUS
 10
-51.2467100952
 20
-77.546235
 11
-51.4343912239
 21
-77.546235
  0
LINE
  5
328
100
AcDbEntity
  8
CURVE
100
AcDbLine
 62
250
  6
CONTINUOUS
 10
-51.4343912238
 20
-77.171491
 11
-51.1007164853
 21
-77.171491
  0
LINE
  5
329
100
AcDbEntity
  8
CURVE
100
AcDbLine
 62
250
  6
CONTINUOUS
 10
-51.0449732404
 20
-77.171491
 11
-50.5993351277
 21
-77.171491
  0
LINE
  5
32A
100
AcDbEntity
  8
CURVE
100
AcDbLine
 62
250
  6
CONTINUOUS
 10
-50.0801984974
 20
-77.171491
 11
-49.3164863862
 21
-77.171491
  0
LINE
  5
32B
100
AcDbEntity
  8
CURVE
100
AcDbLine
 62
250
  6
CONTINUOUS
 10
-49.4414031374
 20
-76.422003
 11
-50.177362963
 21
-76.422003
  0
LINE
  5
32C
100
AcDbEntity
  8
CURVE
100
AcDbLine
 62
250
  6
CONTINUOUS
 10
-50.5084118305
 20
-76.422003
 11
-51.0449732579
 21
-76.422003
  0
LINE
  5
32D
100
AcDbEntity
  8
CURVE
100
AcDbLine
 62
250
  6
CONTINUOUS
 10
-51.1007164938
 20
-76.422003
 11
-51.5828928796
 21
-76.422003
  0
LINE
  5
32E
100
AcDbEntity
  8
CURVE
100
AcDbLine
 62
250
  6
CONTINUOUS
 10
-48.5816206727
 20
-76.419019
 11
-48.8303058444
 21
-76.419019
  0
LINE
  5
32F
100
AcDbEntity
  8
CURVE
100
AcDbLine
 62
250
  6
CONTINUOUS
 10
-49.1125723365
 20
-76.419019
 11
-49.3471807844
 21
-76.419019
  0
LINE
  5
330
100
AcDbEntity
  8
RACCORDO
100
AcDbLine
 62
250
  6
CONTINUOUS
 10
-29.9938246014
 20
-80.215502606
 11
-30.0938246014
 21
-80.2137570995
  0
LWPOLYLINE
  5
331
100
AcDbEntity
  8
0
100
AcDbPolyline
 62
7
  6
CONTINUOUS
 90
10
 70
0
 43
0.3500000006
 10
-37.4239985504
 20
105.5649960938
 10
-36.5668560791
 20
106.4221430969
 10
-36.3525715942
 20
107.2792901001
 10
-36.3525715942
 20
108.1364280396
 10
-36.7811428299
 20
108.5649970093
 10
-37.4239985504
 20
108.5649970093
 10
-37.8525697861
 20
108.1364280396
 10
-37.8525697861
 20
107.2792901001
 10
-37.4239985504
 20
106.8507120667
 10
-36.4954271622
 20
106.8507120667
  0
LWPOLYLINE
  5
332
100
AcDbEntity
  8
0
100
AcDbPolyline
 62
7
  6
CONTINUOUS
 90
10
 70
0
 43
0.3500000006
 10
-32.7097126923
 20
108.5649970093
 10
-33.3525706787
 20
107.9221435547
 10
-33.7811419144
 20
107.0649965515
 10
-33.7811419144
 20
105.9935741272
 10
-33.3525706787
 20
105.5649960938
 10
-32.7097126923
 20
105.5649960938
 10
-32.2811414566
 20
105.9935741272
 10
-32.2811414566
 20
106.8507120667
 10
-32.7097126923
 20
107.2792901001
 10
-33.6382840805
 20
107.2792901001
  0
LINE
  5
333
100
AcDbEntity
  8
RACCORDO
100
AcDbLine
 62
250
  6
CONTINUOUS
 10
-51.0672989912
 20
-45.8266075599
 11
-53.6680115183
 21
-45.8272076716
  0
LINE
  5
334
100
AcDbEntity
  8
RACCORDO
100
AcDbLine
 62
250
  6
CONTINUOUS
 10
-51.2600254669
 20
-45.6266528396
 11
-53.8638246014
 21
-45.6272515348
  0
LINE
  5
335
100
AcDbEntity
  8
ASSI
100
AcDbLine
 62
7
  6
CONTINUOUS
 10
-53.6438246014
 20
-46.015
 11
-51.0429511051
 21
-46.015
  0
LINE
  5
336
100
AcDbEntity
  8
RACCORDO
100
AcDbLine
 62
250
  6
CONTINUOUS
 10
-52.0596361173
 20
-45.8608983335
 11
-50.7398738514
 21
-45.8608663256
  0
LINE
  5
337
100
AcDbEntity
  8
RACCORDO
100
AcDbLine
 62
7
  6
CONTINUOUS
 10
-50.3101242589
 20
-43.9270704175
 11
-50.8092527622
 21
-43.9227145891
  0
LINE
  5
338
100
AcDbEntity
  8
0
100
AcDbLine
 62
7
  6
CONTINUOUS
 10
-53.6680129692
 20
-45.8272076412
 11
-52.0596361173
 21
-45.8608983335
  0
LINE
  5
339
100
AcDbEntity
  8
RACCORDO
100
AcDbLine
 62
250
  6
CONTINUOUS
 10
-50.715079425
 20
-45.8339854045
 11
-51.0672989911
 21
-45.8266075611
  0
LWPOLYLINE
  5
33A
100
AcDbEntity
  8
0
100
AcDbPolyline
 62
7
  6
CONTINUOUS
 90
3
 70
0
 43
0.3500000006
 10
-41.8811421204
 20
95.8507177734
 10
-41.9525687714
 20
95.6364242249
 10
-42.0954266052
 20
95.3507176208
  0
LINE
  5
33B
100
AcDbEntity
  8
RACCORDO
100
AcDbLine
 62
250
  6
CONTINUOUS
 10
-50.8465903824
 20
-37.0149999829
 11
-51.3378175888
 21
-37.015
  0
LINE
  5
33C
100
AcDbEntity
  8
RACCORDO
100
AcDbLine
 62
250
  6
CONTINUOUS
 10
-49.5241885664
 20
-37.0149999878
 11
-49.5293303152
 21
-37.0149999883
  0
LINE
  5
33D
100
AcDbEntity
  8
RACCORDO
100
AcDbLine
 62
250
  6
CONTINUOUS
 10
-51.5779323962
 20
-37.015000008
 11
-51.5661878763
 21
-37.015
  0
LWPOLYLINE
  5
33E
100
AcDbEntity
  8
0
100
AcDbPolyline
 62
7
  6
CONTINUOUS
 90
3
 70
0
 43
0.3500000006
 10
-34.7811422195
 20
105.8507117615
 10
-34.8525711365
 20
105.6364272766
 10
-34.9954267044
 20
105.3507116089
  0
LWPOLYLINE
  5
33F
100
AcDbEntity
  8
RACCORDO
100
AcDbPolyline
 62
7
  6
CONTINUOUS
 90
24
 70
0
 10
-50.8753945576
 20
-35.5851219459
 10
-50.9086860969
 20
-35.5934871754
 10
-50.9947346461
 20
-35.6257626133
 10
-51.0756043733
 20
-35.6667871529
 10
-51.1503225922
 20
-35.7155128889
 10
-51.2168477952
 20
-35.7695805505
 10
-51.2751021161
 20
-35.8273979593
 10
-51.3256272605
 20
-35.8879085834
 10
-51.368344786
 20
-35.9491904601
 10
-51.4037928693
 20
-36.0097451817
 10
-51.4333570894
 20
-36.0696509331
 10
-51.4584620541
 20
-36.1299802038
 10
-51.4799739315
 20
-36.1914637584
 10
-51.4984063058
 20
-36.2542965753
 10
-51.5143115984
 20
-36.319121683
 10
-51.5280827781
 20
-36.3865060114
 10
-51.5400640942
 20
-36.4573841127
 10
-51.550414637
 20
-36.5321953706
 10
-51.5591744232
 20
-36.6110367661
 10
-51.566363821
 20
-36.6942922735
 10
-51.5719194998
 20
-36.7817989322
 10
-51.5757317704
 20
-36.8731867131
 10
-51.5776900114
 20
-36.9680985596
 10
-51.5779323962
 20
-37.015000008
  0
LWPOLYLINE
  5
340
100
AcDbEntity
  8
RACCORDO
100
AcDbPolyline
 62
7
  6
CONTINUOUS
 90
37
 70
0
 10
-50.8143771848
 20
-30.1073489263
 10
-50.8794418289
 20
-30.1100416723
 10
-51.0235841797
 20
-30.1291847392
 10
-51.1619393394
 20
-30.1653168172
 10
-51.2942234951
 20
-30.2174993913
 10
-51.4181156117
 20
-30.2839366748
 10
-51.5300288872
 20
-30.3608767732
 10
-51.629668957
 20
-30.4454072019
 10
-51.7187983443
 20
-30.536391705
 10
-51.7982610428
 20
-30.632283727
 10
-51.8688516646
 20
-30.7315013957
 10
-51.9324358802
 20
-30.8342847079
 10
-51.9912063078
 20
-30.9425157818
 10
-52.0458477886
 20
-31.0562963315
 10
-52.097155112
 20
-31.1762781117
 10
-52.1466848676
 20
-31.3057207517
 10
-52.1949584137
 20
-31.4462586609
 10
-52.2419128159
 20
-31.5981148995
 10
-52.2877432514
 20
-31.7624049816
 10
-52.332565932
 20
-31.9402763927
 10
-52.376273467
 20
-32.1321358626
 10
-52.418557695
 20
-32.3373020555
 10
-52.4592606076
 20
-32.5555748251
 10
-52.4983740876
 20
-32.7876315207
 10
-52.535753866
 20
-33.033475923
 10
-52.5711922976
 20
-33.2925338868
 10
-52.6046078913
 20
-33.5651827483
 10
-52.6359665645
 20
-33.8526613602
 10
-52.6650485574
 20
-34.154796561
 10
-52.6916240967
 20
-34.4712152902
 10
-52.7155378028
 20
-34.8028579997
 10
-52.7364864202
 20
-35.1491967314
 10
-52.7541843021
 20
-35.5096053997
 10
-52.7683791285
 20
-35.8848394561
 10
-52.7787129423
 20
-36.2744662032
 10
-52.7848218478
 20
-36.6765468729
 10
-52.7864387426
 20
-37.0150000002
  0
LINE
  5
341
100
AcDbEntity
  8
RACCORDO
100
AcDbLine
 62
7
  6
CONTINUOUS
 10
-50.310144947
 20
-30.102929763
 11
-50.8092527622
 21
-30.1072854109
  0
LINE
  5
342
100
AcDbEntity
  8
RACCORDO
100
AcDbLine
 62
250
  6
CONTINUOUS
 10
-50.8999296458
 20
-43.9170917699
 11
-50.897899661
 21
-43.9217814918
  0
LINE
  5
343
100
AcDbEntity
  8
RACCORDO
100
AcDbLine
 62
250
  6
CONTINUOUS
 10
-50.8999003493
 20
-43.9169449779
 11
-50.8978834831
 21
-43.9217809703
  0
LINE
  5
344
100
AcDbEntity
  8
RACCORDO
100
AcDbLine
 62
7
  6
CONTINUOUS
 10
-55.5256023472
 20
86.3148652026
 11
-55.5259225365
 21
86.3073122964
  0
LWPOLYLINE
  5
345
100
AcDbEntity
  8
RACCORDO
100
AcDbPolyline
 62
7
  6
CONTINUOUS
 90
3
 70
0
 10
-55.5240667692
 20
86.3540173338
 10
-55.5251592368
 20
86.3373281834
 10
-55.5257786339
 20
86.3203465123
  0
LINE
  5
346
100
AcDbEntity
  8
RACCORDO
100
AcDbLine
 62
7
  6
CONTINUOUS
 10
-55.5237400655
 20
86.3579785025
 11
-55.5240667692
 21
86.3540173338
  0
LINE
  5
347
100
AcDbEntity
  8
RACCORDO
100
AcDbLine
 62
250
  6
CONTINUOUS
 10
-50.7150803764
 20
-28.1960146155
 11
-51.0672989911
 21
-28.2033924389
  0
LINE
  5
348
100
AcDbEntity
  8
0
100
AcDbLine
 62
7
  6
CONTINUOUS
 10
-52.0596361173
 20
-28.1691016665
 11
-53.6680129692
 21
-28.2027923588
  0
LINE
  5
349
100
AcDbEntity
  8
RACCORDO
100
AcDbLine
 62
250
  6
CONTINUOUS
 10
-50.7398751633
 20
-28.1691336748
 11
-52.0596361173
 21
-28.1691016665
  0
LINE
  5
34A
100
AcDbEntity
  8
ASSI
100
AcDbLine
 62
7
  6
CONTINUOUS
 10
-53.6438246014
 20
-28.015
 11
-51.0429511051
 21
-28.015
  0
LINE
  5
34B
100
AcDbEntity
  8
RACCORDO
100
AcDbLine
 62
250
  6
CONTINUOUS
 10
-53.8638246014
 20
-28.4027484652
 11
-51.2600254669
 21
-28.4033471604
  0
LINE
  5
34C
100
AcDbEntity
  8
RACCORDO
100
AcDbLine
 62
250
  6
CONTINUOUS
 10
-53.6680115181
 20
-28.2027923284
 11
-51.0672989912
 21
-28.2033924401
  0
LINE
  5
34D
100
AcDbEntity
  8
RACCORDO
100
AcDbLine
 62
7
  6
CONTINUOUS
 10
-50.7683020685
 20
-28.9597145279
 11
-50.7666257419
 21
-28.9624540871
  0
LWPOLYLINE
  5
34E
100
AcDbEntity
  8
RACCORDO
100
AcDbPolyline
 62
7
  6
CONTINUOUS
 90
30
 70
0
 10
-50.7683111283
 20
-28.9597012251
 10
-50.7096778505
 20
-29.0616227078
 10
-50.64721215
 20
-29.183918096
 10
-50.5838301304
 20
-29.3225341861
 10
-50.5197441128
 20
-29.4779489808
 10
-50.4556200064
 20
-29.6493583729
 10
-50.3917393766
 20
-29.8365975251
 10
-50.3283254917
 20
-30.0395937576
 10
-50.2658439266
 20
-30.2572623048
 10
-50.2045118166
 20
-30.4891800312
 10
-50.1445416767
 20
-30.7350917802
 10
-50.0863360023
 20
-30.9939350145
 10
-50.0301071549
 20
-31.2652028708
 10
-49.9760342229
 20
-31.5484209025
 10
-49.9244136225
 20
-31.8422625978
 10
-49.8754335402
 20
-32.1458277931
 10
-49.8292057373
 20
-32.4586944951
 10
-49.7858857653
 20
-32.7802002983
 10
-49.7456274886
 20
-33.1095486664
 10
-49.7085307484
 20
-33.4461574285
 10
-49.6746586643
 20
-33.7896694917
 10
-49.6441179342
 20
-34.1393711668
 10
-49.6170212636
 20
-34.4945668245
 10
-49.5934426252
 20
-34.8549601433
 10
-49.5734547212
 20
-35.2198000421
 10
-49.5571101614
 20
-35.5883206201
 10
-49.544461423
 20
-35.960202905
 10
-49.5355915917
 20
-36.3348509516
 10
-49.5305697623
 20
-36.7113547798
 10
-49.5293303152
 20
-37.0149999883
  0
LINE
  5
34F
100
AcDbEntity
  8
ASSI
100
AcDbLine
 62
7
  6
CONTINUOUS
 10
-53.6438246014
 20
-6.6151917467
 11
-53.6438201493
 21
-6.6157923368
  0
LINE
  5
350
100
AcDbEntity
  8
ASSI
100
AcDbLine
 62
7
  6
CONTINUOUS
 10
-53.6438246014
 20
0.5848082533
 11
-53.6438201493
 21
0.5842076632
  0
LINE
  5
351
100
AcDbEntity
  8
ASSI
100
AcDbLine
 62
7
  6
CONTINUOUS
 10
-53.6438246014
 20
7.7848082533
 11
-53.6438201493
 21
7.7842076632
  0
LINE
  5
352
100
AcDbEntity
  8
ASSI
100
AcDbLine
 62
7
  6
CONTINUOUS
 10
-53.6438246014
 20
14.9848082533
 11
-53.6438201493
 21
14.9842076632
  0
LINE
  5
353
100
AcDbEntity
  8
ASSI
100
AcDbLine
 62
7
  6
CONTINUOUS
 10
-53.6438246014
 20
22.1848082533
 11
-53.6438201493
 21
22.1842076632
  0
LINE
  5
354
100
AcDbEntity
  8
ASSI
100
AcDbLine
 62
7
  6
CONTINUOUS
 10
-53.6438246014
 20
29.3848082533
 11
-53.6438201493
 21
29.3842076632
  0
LINE
  5
355
100
AcDbEntity
  8
ASSI
100
AcDbLine
 62
7
  6
CONTINUOUS
 10
-53.6438246014
 20
36.5848082533
 11
-53.6438201493
 21
36.5842076632
  0
LWPOLYLINE
  5
356
100
AcDbEntity
  8
RACCORDO
100
AcDbPolyline
 62
7
  6
CONTINUOUS
 90
37
 70
0
 10
-52.7864371823
 20
-37.0150000001
 10
-52.7847595852
 20
-37.3598297066
 10
-52.778576388
 20
-37.7620993196
 10
-52.76816275
 20
-38.1518625448
 10
-52.7538862819
 20
-38.5272199991
 10
-52.7361056277
 20
-38.8877421352
 10
-52.7150715247
 20
-39.2341585806
 10
-52.691071923
 20
-39.565837717
 10
-52.6644121092
 20
-39.8822588958
 10
-52.6352459114
 20
-40.1843576296
 10
-52.6038023113
 20
-40.4717616714
 10
-52.5703038453
 20
-40.7443089368
 10
-52.534784621
 20
-41.0032334796
 10
-52.4973250751
 20
-41.2489112989
 10
-52.458132993
 20
-41.4807711461
 10
-52.4173545948
 20
-41.6988236399
 10
-52.3749977318
 20
-41.9037440912
 10
-52.3312188306
 20
-42.0953378726
 10
-52.2863238034
 20
-42.272937092
 10
-52.2404213489
 20
-42.4369533422
 10
-52.1933912748
 20
-42.588542923
 10
-52.1450263655
 20
-42.7288480514
 10
-52.09538419
 20
-42.8580937016
 10
-52.0439388731
 20
-42.9779115719
 10
-51.9891165798
 20
-43.0915724724
 10
-51.930106516
 20
-43.1997304041
 10
-51.8662181658
 20
-43.3024667133
 10
-51.795253871
 20
-43.4016318896
 10
-51.7153307771
 20
-43.4974538187
 10
-51.6256578252
 20
-43.5883222454
 10
-51.5254337269
 20
-43.6726333274
 10
-51.4129130426
 20
-43.7492267436
 10
-51.2884152034
 20
-43.8151794144
 10
-51.155606055
 20
-43.8667351784
 10
-51.0168551173
 20
-43.9021207084
 10
-50.8724574649
 20
-43.9204234227
 10
-50.8146515867
 20
-43.9226476968
  0
LINE
  5
357
100
AcDbEntity
  8
ASSI
100
AcDbLine
 62
7
  6
CONTINUOUS
 10
-55.5259225365
 20
86.3072994661
 11
-55.5259225365
 21
84.3773854975
  0
LINE
  5
358
100
AcDbEntity
  8
0
100
AcDbLine
 62
7
  6
CONTINUOUS
 10
-53.8638246014
 20
-45.6272514978
 11
-53.8638246014
 21
-28.4027485022
  0
LINE
  5
359
100
AcDbEntity
  8
ASSI
100
AcDbLine
 62
7
  6
CONTINUOUS
 10
-53.6727135847
 20
-85.415
 11
-53.6727135847
 21
-84.1637328044
  0
LINE
  5
35A
100
AcDbEntity
  8
ASSI
100
AcDbLine
 62
7
  6
CONTINUOUS
 10
-53.6438246014
 20
-83.815
 11
-53.6438246014
 21
-46.015
  0
LINE
  5
35B
100
AcDbEntity
  8
ASSI
100
AcDbLine
 62
7
  6
CONTINUOUS
 10
-53.6438246014
 20
-28.015
 11
-53.6438246014
 21
-9.015
  0
LINE
  5
35C
100
AcDbEntity
  8
ASSI
100
AcDbLine
 62
7
  6
CONTINUOUS
 10
-53.6438246014
 20
-6.615
 11
-53.6438246014
 21
-1.815
  0
LINE
  5
35D
100
AcDbEntity
  8
ASSI
100
AcDbLine
 62
7
  6
CONTINUOUS
 10
-53.6438246014
 20
0.585
 11
-53.6438246014
 21
5.385
  0
LINE
  5
35E
100
AcDbEntity
  8
ASSI
100
AcDbLine
 62
7
  6
CONTINUOUS
 10
-53.6438246014
 20
7.785
 11
-53.6438246014
 21
12.585
  0
LINE
  5
35F
100
AcDbEntity
  8
ASSI
100
AcDbLine
 62
7
  6
CONTINUOUS
 10
-53.6438246014
 20
14.985
 11
-53.6438246014
 21
19.785
  0
LINE
  5
360
100
AcDbEntity
  8
ASSI
100
AcDbLine
 62
7
  6
CONTINUOUS
 10
-53.6438246014
 20
22.185
 11
-53.6438246014
 21
26.985
  0
LINE
  5
361
100
AcDbEntity
  8
ASSI
100
AcDbLine
 62
7
  6
CONTINUOUS
 10
-53.6438246014
 20
29.385
 11
-53.6438246014
 21
34.185
  0
LINE
  5
362
100
AcDbEntity
  8
ASSI
100
AcDbLine
 62
7
  6
CONTINUOUS
 10
-53.6438246014
 20
36.585
 11
-53.6438246014
 21
82.6942922146
  0
LINE
  5
363
100
AcDbEntity
  8
ASSI
100
AcDbLine
 62
7
  6
CONTINUOUS
 10
-53.6438238295
 20
34.1852930172
 11
-53.6438246014
 21
34.1851917467
  0
LINE
  5
364
100
AcDbEntity
  8
ASSI
100
AcDbLine
 62
7
  6
CONTINUOUS
 10
-53.6438238295
 20
26.9852930172
 11
-53.6438246014
 21
26.9851917467
  0
LINE
  5
365
100
AcDbEntity
  8
ASSI
100
AcDbLine
 62
7
  6
CONTINUOUS
 10
-53.6438238295
 20
19.7852930172
 11
-53.6438246014
 21
19.7851917467
  0
LINE
  5
366
100
AcDbEntity
  8
ASSI
100
AcDbLine
 62
7
  6
CONTINUOUS
 10
-53.6438238295
 20
12.5852930172
 11
-53.6438246014
 21
12.5851917467
  0
LINE
  5
367
100
AcDbEntity
  8
ASSI
100
AcDbLine
 62
7
  6
CONTINUOUS
 10
-53.6438238295
 20
5.3852930172
 11
-53.6438246014
 21
5.3851917467
  0
LINE
  5
368
100
AcDbEntity
  8
ASSI
100
AcDbLine
 62
7
  6
CONTINUOUS
 10
-53.6438238295
 20
-1.8147069828
 11
-53.6438246014
 21
-1.8148082533
  0
LINE
  5
369
100
AcDbEntity
  8
ASSI
100
AcDbLine
 62
7
  6
CONTINUOUS
 10
-53.6438238295
 20
-9.0147069828
 11
-53.6438246014
 21
-9.0148082533
  0
LINE
  5
36A
100
AcDbEntity
  8
RACCORDO
100
AcDbLine
 62
7
  6
CONTINUOUS
 10
-55.5257786339
 20
86.3203465123
 11
-55.5259221722
 21
86.3073063471
  0
LINE
  5
36B
100
AcDbEntity
  8
RACCORDO
100
AcDbLine
 62
7
  6
CONTINUOUS
 10
-51.1052963518
 20
-33.0245193036
 11
-51.0887422198
 21
-33.1324594639
  0
LWPOLYLINE
  5
36C
100
AcDbEntity
  8
RACCORDO
100
AcDbPolyline
 62
7
  6
CONTINUOUS
 90
13
 70
0
 10
-51.088781914
 20
-33.1322001023
 10
-51.0661522554
 20
-33.2897856627
 10
-51.0298956936
 20
-33.5703302655
 10
-50.9962998516
 20
-33.868127755
 10
-50.9656128836
 20
-34.181943186
 10
-50.9380590446
 20
-34.5102487502
 10
-50.9138379591
 20
-34.8514271415
 10
-50.8931292785
 20
-35.2039151936
 10
-50.8760741389
 20
-35.5661629719
 10
-50.8627934242
 20
-35.9366686004
 10
-50.8534078506
 20
-36.3138179175
 10
-50.848005343
 20
-36.6956295465
 10
-50.8465903823
 20
-37.0150000001
  0
LINE
  5
36D
100
AcDbEntity
  8
RACCORDO
100
AcDbLine
 62
250
  6
CONTINUOUS
 10
-55.0256226085
 20
86.815
 11
-55.0256026596
 21
86.8147516575
  0
LWPOLYLINE
  5
36E
100
AcDbEntity
  8
RACCORDO
100
AcDbPolyline
 62
7
  6
CONTINUOUS
 90
24
 70
0
 10
-51.5779321149
 20
-37.0150000067
 10
-51.5776480293
 20
-37.0658185863
 10
-51.5756201322
 20
-37.1603615976
 10
-51.5717554112
 20
-37.2512997881
 10
-51.5661703229
 20
-37.3382839095
 10
-51.55897509
 20
-37.4209812362
 10
-51.5502281542
 20
-37.4992993948
 10
-51.539910895
 20
-37.5736157642
 10
-51.5279823961
 20
-37.6440339379
 10
-51.5142701606
 20
-37.711062386
 10
-51.4984248759
 20
-37.7756343666
 10
-51.4800558073
 20
-37.8382813042
 10
-51.458599463
 20
-37.899658913
 10
-51.4335235505
 20
-37.9599803704
 10
-51.403962259
 20
-38.0199386648
 10
-51.3685065375
 20
-38.0805560902
 10
-51.3257741661
 20
-38.1418992988
 10
-51.2752145687
 20
-38.2024800356
 10
-51.2169047077
 20
-38.2603684364
 10
-51.1502915743
 20
-38.3145092227
 10
-51.0754592496
 20
-38.3632957854
 10
-50.9944844172
 20
-38.4043464605
 10
-50.9083464554
 20
-38.4366180756
 10
-50.8753737062
 20
-38.4448868638
  0
LINE
  5
36F
100
AcDbEntity
  8
0
100
AcDbLine
 62
7
  6
CONTINUOUS
 10
-51.8727135847
 20
-84.1323136875
 11
-51.8727135847
 21
-83.815
  0
LINE
  5
370
100
AcDbEntity
  8
CURVE
100
AcDbLine
 62
250
  6
CONTINUOUS
 10
-51.5828928701
 20
-76.422003
 11
-51.5828928701
 21
-79.419956
  0
LINE
  5
371
100
AcDbEntity
  8
CURVE
100
AcDbLine
 62
250
  6
CONTINUOUS
 10
-51.4343912238
 20
-78.670468
 11
-51.4343912238
 21
-78.295724
  0
LINE
  5
372
100
AcDbEntity
  8
CURVE
100
AcDbLine
 62
250
  6
CONTINUOUS
 10
-51.4343912238
 20
-77.546235
 11
-51.4343912238
 21
-77.171491
  0
LINE
  5
373
100
AcDbEntity
  8
CURVE
100
AcDbLine
 62
250
  6
CONTINUOUS
 10
-51.2467100952
 20
-78.295724
 11
-51.2467100952
 21
-77.546235
  0
LINE
  5
374
100
AcDbEntity
  8
CURVE
100
AcDbLine
 62
250
  6
CONTINUOUS
 10
-51.1007164938
 20
-77.171491
 11
-51.1007164938
 21
-76.422003
  0
LINE
  5
375
100
AcDbEntity
  8
CURVE
100
AcDbLine
 62
250
  6
CONTINUOUS
 10
-51.0449732404
 20
-76.422003
 11
-51.0449732404
 21
-77.171491
  0
LINE
  5
376
100
AcDbEntity
  8
CURVE
100
AcDbLine
 62
250
  6
CONTINUOUS
 10
-51.041017411
 20
-79.419956
 11
-51.041017411
 21
-78.670468
  0
LINE
  5
377
100
AcDbEntity
  8
CURVE
100
AcDbLine
 62
250
  6
CONTINUOUS
 10
-50.9841580916
 20
-77.546235
 11
-50.9841580916
 21
-79.419956
  0
LINE
  5
378
100
AcDbEntity
  8
CURVE
100
AcDbLine
 62
250
  6
CONTINUOUS
 10
-50.8189560708
 20
-78.670468
 11
-50.8189560708
 21
-77.546235
  0
LINE
  5
379
100
AcDbEntity
  8
CURVE
100
AcDbLine
 62
250
  6
CONTINUOUS
 10
-50.4965503928
 20
-79.419956
 11
-50.4965503928
 21
-78.670468
  0
LINE
  5
37A
100
AcDbEntity
  8
CURVE
100
AcDbLine
 62
250
  6
CONTINUOUS
 10
-50.0640698557
 20
-77.546235
 11
-50.0640698557
 21
-79.419956
  0
LINE
  5
37B
100
AcDbEntity
  8
CURVE
100
AcDbLine
 62
250
  6
CONTINUOUS
 10
-49.8609336569
 20
-78.822347
 11
-49.8609336569
 21
-78.143845
  0
LINE
  5
37C
100
AcDbEntity
  8
CURVE
100
AcDbLine
 62
250
  6
CONTINUOUS
 10
-49.626936503
 20
-78.143845
 11
-49.626936503
 21
-78.822347
  0
LINE
  5
37D
100
AcDbEntity
  8
CURVE
100
AcDbLine
 62
250
  6
CONTINUOUS
 10
-49.4114790183
 20
-79.419956
 11
-49.4114790183
 21
-77.546235
  0
LINE
  5
37E
100
AcDbEntity
  8
RACCORDO
100
AcDbLine
 62
7
  6
CONTINUOUS
 10
-49.3338446086
 20
81.7274319204
 11
-49.3338246014
 21
79.7500155549
  0
LINE
  5
37F
100
AcDbEntity
  8
0
100
AcDbLine
 62
7
  6
CONTINUOUS
 10
-48.5938246014
 20
-85.915
 11
-48.5938246014
 21
-86.0746940308
  0
LINE
  5
380
100
AcDbEntity
  8
RACCORDO
100
AcDbLine
 62
250
  6
CONTINUOUS
 10
-47.4859794049
 20
-84.0557429576
 11
-47.4859794049
 21
-85.415
  0
LINE
  5
381
100
AcDbEntity
  8
ASSI
100
AcDbLine
 62
250
  6
CONTINUOUS
 10
-47.4578378088
 20
-83.815
 11
-47.4578378088
 21
79.2088317852
  0
LINE
  5
382
100
AcDbEntity
  8
0
100
AcDbLine
 62
250
  6
CONTINUOUS
 10
-47.4578378088
 20
-83.815
 11
-47.4578378088
 21
79.2088317852
  0
LINE
  5
383
100
AcDbEntity
  8
DRAFT
100
AcDbLine
 62
250
  6
CONTINUOUS
 10
-47.3282477813
 20
-84.0529897419
 11
-47.3282477813
 21
-83.815
  0
LWPOLYLINE
  5
384
100
AcDbEntity
  8
RACCORDO
100
AcDbPolyline
 62
7
  6
CONTINUOUS
 90
30
 70
0
 10
-49.5293303152
 20
-37.0149999883
 10
-49.530505887
 20
-37.3105673934
 10
-49.535421683
 20
-37.6858798792
 10
-49.5441667705
 20
-38.0595163575
 10
-49.5566775898
 20
-38.4305919514
 10
-49.5728770401
 20
-38.7985070792
 10
-49.5927167081
 20
-39.1629228553
 10
-49.6161492755
 20
-39.5230882051
 10
-49.64310767
 20
-39.8782435245
 10
-49.6735200935
 20
-40.2280479661
 10
-49.7072762982
 20
-40.5717992596
 10
-49.7442729452
 20
-40.9087757045
 10
-49.7844464101
 20
-41.2385821247
 10
-49.8276994976
 20
-41.5606281076
 10
-49.8738811821
 20
-41.8741146997
 10
-49.9228337343
 20
-42.1783496006
 10
-49.9744452798
 20
-42.4729001486
 10
-50.0285286413
 20
-42.7568641861
 10
-50.0847864474
 20
-43.0288853715
 10
-50.1430409313
 20
-43.2884853471
 10
-50.2030762579
 20
-43.535181038
 10
-50.2644894922
 20
-43.7678400771
 10
-50.3270701722
 20
-43.9861986598
 10
-50.3905958742
 20
-44.1898933436
 10
-50.4545943988
 20
-44.3777991327
 10
-50.518846229
 20
-44.5497596256
 10
-50.5830700396
 20
-44.705694875
 10
-50.6465882513
 20
-44.8448035364
 10
-50.7091893547
 20
-44.9674987947
 10
-50.7694321824
 20
-45.0721217504
  0
LWPOLYLINE
  5
385
100
AcDbEntity
  8
RACCORDO
100
AcDbPolyline
 62
7
  6
CONTINUOUS
 90
13
 70
0
 10
-50.8465891452
 20
-37.015
 10
-50.8479562909
 20
-37.3288603367
 10
-50.8533096262
 20
-37.7110821325
 10
-50.8626535399
 20
-38.0887050375
 10
-50.8759028632
 20
-38.4597039756
 10
-50.8929376613
 20
-38.8224549133
 10
-50.9136366077
 20
-39.1754688686
 10
-50.937861012
 20
-39.5171929061
 10
-50.9654314047
 20
-39.8460511037
 10
-50.9961468448
 20
-40.1604175957
 10
-51.0297837398
 20
-40.4587458214
 10
-51.0660939436
 20
-40.7397905288
 10
-51.0886828094
 20
-40.8971341435
  0
LINE
  5
386
100
AcDbEntity
  8
ASSI
100
AcDbLine
 62
7
  6
CONTINUOUS
 10
-45.5938246014
 20
-86.2502664508
 11
-45.5938246014
 21
-86.615
  0
LINE
  5
387
100
AcDbEntity
  8
DRAFT
100
AcDbLine
 62
250
  6
CONTINUOUS
 10
-45.308979293
 20
-84.0177432793
 11
-45.308979293
 21
-83.815
  0
LINE
  5
388
100
AcDbEntity
  8
RACCORDO
100
AcDbLine
 62
7
  6
CONTINUOUS
 10
-43.1938220876
 20
80.9878579005
 11
-43.1938246014
 21
78.9335104325
  0
LINE
  5
389
100
AcDbEntity
  8
ASSI
100
AcDbLine
 62
7
  6
CONTINUOUS
 10
-41.1649609356
 20
-83.815
 11
-41.1649609356
 21
78.8768759187
  0
LINE
  5
38A
100
AcDbEntity
  8
0
100
AcDbLine
 62
7
  6
CONTINUOUS
 10
-41.1649609356
 20
-83.815
 11
-41.1649609356
 21
78.8768759187
  0
LINE
  5
38B
100
AcDbEntity
  8
RACCORDO
100
AcDbLine
 62
7
  6
CONTINUOUS
 10
-41.1438246014
 20
-83.9450402337
 11
-41.1438246014
 21
-85.415
  0
LINE
  5
38C
100
AcDbEntity
  8
RACCORDO
100
AcDbLine
 62
7
  6
CONTINUOUS
 10
-51.0886398407
 20
-40.8968548312
 11
-51.1053031044
 21
-41.0055236511
  0
LINE
  5
38D
100
AcDbEntity
  8
RACCORDO
100
AcDbLine
 62
250
  6
CONTINUOUS
 10
-40.1198725347
 20
-86.0024237114
 11
-40.1198725347
 21
-85.915
  0
LINE
  5
38E
100
AcDbEntity
  8
RACCORDO
100
AcDbLine
 62
250
  6
CONTINUOUS
 10
-40.0087198302
 20
-86.2015259798
 11
-40.0087198302
 21
-86.615
  0
LWPOLYLINE
  5
38F
100
AcDbEntity
  8
0
100
AcDbPolyline
 62
7
  6
CONTINUOUS
 90
2
 70
0
 43
0.3500000006
 10
-39.88114151
 20
95.5650021057
 10
-39.88114151
 20
97.0650025635
  0
LINE
  5
390
100
AcDbEntity
  8
RACCORDO
100
AcDbLine
 62
250
  6
CONTINUOUS
 10
-36.4732736315
 20
-86.615
 11
-36.4732736315
 21
-86.1706726083
  0
LINE
  5
391
100
AcDbEntity
  8
RACCORDO
100
AcDbLine
 62
7
  6
CONTINUOUS
 10
-36.2658634512
 20
-86.615
 11
-36.2658634512
 21
-86.168862567
  0
LINE
  5
392
100
AcDbEntity
  8
RACCORDO
100
AcDbLine
 62
250
  6
CONTINUOUS
 10
-33.5850983982
 20
-86.1454678848
 11
-33.5850983982
 21
-86.615
  0
LINE
  5
393
100
AcDbEntity
  8
RACCORDO
100
AcDbLine
 62
7
  6
CONTINUOUS
 10
-33.0938246014
 20
-86.1411806034
 11
-33.0938246014
 21
-86.615
  0
LINE
  5
394
100
AcDbEntity
  8
RACCORDO
100
AcDbLine
 62
7
  6
CONTINUOUS
 10
-32.0924513607
 20
-85.9323694682
 11
-32.0938246014
 21
79.1218891398
  0
LINE
  5
395
100
AcDbEntity
  8
RACCORDO
100
AcDbLine
 62
250
  6
CONTINUOUS
 10
-31.8763934529
 20
79.1255487912
 11
-31.8763934529
 21
-84.5467993456
  0
LINE
  5
396
100
AcDbEntity
  8
RACCORDO
100
AcDbLine
 62
7
  6
CONTINUOUS
 10
-30.0938246014
 20
-86.115
 11
-30.0938246014
 21
86.815
  0
LINE
  5
397
100
AcDbEntity
  8
RACCORDO
100
AcDbLine
 62
7
  6
CONTINUOUS
 10
-29.9938246014
 20
-84.8078939372
 11
-29.9938246014
 21
86.600473084
  0
LINE
  5
398
100
AcDbEntity
  8
RACCORDO
100
AcDbLine
 62
250
  6
CONTINUOUS
 10
-29.7798733067
 20
-84.6082592183
 11
-29.7798733067
 21
81.2782871282
  0
LINE
  5
399
100
AcDbEntity
  8
RACCORDO
100
AcDbLine
 62
250
  6
CONTINUOUS
 10
-29.7798733067
 20
81.6703632581
 11
-29.7798733067
 21
86.8000353613
  0
LINE
  5
39A
100
AcDbEntity
  8
RACCORDO
100
AcDbLine
 62
7
  6
CONTINUOUS
 10
-50.7666819472
 20
-45.067649357
 11
-50.7695057233
 21
-45.0722580761
  0
LINE
  5
39B
100
AcDbEntity
  8
RACCORDO
100
AcDbLine
 62
250
  6
CONTINUOUS
 10
-20.5450422327
 20
80.7427119061
 11
-20.5450422327
 21
-84.2857718111
  0
LINE
  5
39C
100
AcDbEntity
  8
RACCORDO
100
AcDbLine
 62
250
  6
CONTINUOUS
 10
-16.2659220119
 20
85.8548129433
 11
-16.2659220119
 21
81.6545674266
  0
LINE
  5
39D
100
AcDbEntity
  8
RACCORDO
100
AcDbLine
 62
7
  6
CONTINUOUS
 10
-15.8938246014
 20
85.4556876926
 11
-15.8938246014
 21
-84.1363416402
  0
LWPOLYLINE
  5
39E
100
AcDbEntity
  8
0
100
AcDbPolyline
 62
7
  6
CONTINUOUS
 90
10
 70
0
 43
0.3500000006
 10
-41.9525687714
 20
96.0650022583
 10
-41.8811421204
 20
95.9221398926
 10
-41.8811421204
 20
95.8507177734
 10
-42.0239999542
 20
95.7078554077
 10
-42.0954266052
 20
95.7078554077
 10
-42.1668577881
 20
95.7792865906
 10
-42.1668577881
 20
95.8507177734
 10
-42.0954266052
 20
95.9935710754
 10
-42.0239999542
 20
96.0650022583
 10
-41.9525687714
 20
96.0650022583
  0
LWPOLYLINE
  5
39F
100
AcDbEntity
  8
0
100
AcDbPolyline
 62
7
  6
CONTINUOUS
 90
10
 70
0
 43
0.3500000006
 10
-34.8525711365
 20
106.0649962463
 10
-34.7811422195
 20
105.9221429443
 10
-34.7811422195
 20
105.8507117615
 10
-34.9240000534
 20
105.7078584595
 10
-34.9954267044
 20
105.7078584595
 10
-35.0668556213
 20
105.7792896423
 10
-35.0668556213
 20
105.8507117615
 10
-34.9954267044
 20
105.9935741272
 10
-34.9240000534
 20
106.0649962463
 10
-34.8525711365
 20
106.0649962463
  0
LINE
  5
3A0
100
AcDbEntity
  8
RACCORDO
100
AcDbLine
 62
250
  6
CONTINUOUS
 10
-29.9938246014
 20
77.7012335476
 11
-30.0938246014
 21
77.6997687113
  0
LINE
  5
3A1
100
AcDbEntity
  8
RACCORDO
100
AcDbLine
 62
7
  6
CONTINUOUS
 10
-30.0938246014
 20
85.3834549378
 11
-29.9938246014
 21
85.3852008814
  0
LINE
  5
3A2
100
AcDbEntity
  8
RACCORDO
100
AcDbLine
 62
250
  6
CONTINUOUS
 10
-29.9938246014
 20
80.9506729949
 11
-30.0938246014
 21
80.9492110122
  0
LINE
  5
3A3
100
AcDbEntity
  8
RACCORDO
100
AcDbLine
 62
250
  6
CONTINUOUS
 10
-29.9938246014
 20
81.2782871282
 11
-29.7798733067
 21
81.2782871287
  0
LINE
  5
3A4
100
AcDbEntity
  8
RACCORDO
100
AcDbLine
 62
7
  6
CONTINUOUS
 10
-30.0938246014
 20
86.815
 11
-55.0256226085
 21
86.815
  0
LWPOLYLINE
  5
3A5
100
AcDbEntity
  8
0
100
AcDbPolyline
 62
7
  6
CONTINUOUS
 90
8
 70
0
 43
0.3500000006
 10
-44.738285202
 20
95.5650021057
 10
-43.8811427307
 20
95.5650021057
 10
-43.4525692291
 20
95.9935710754
 10
-43.4525692291
 20
96.8507180786
 10
-43.8811427307
 20
97.2792870483
 10
-44.738285202
 20
97.2792870483
 10
-44.738285202
 20
98.5650030212
 10
-43.4525692291
 20
98.5650030212
  0
LWPOLYLINE
  5
3A6
100
AcDbEntity
  8
0
100
AcDbPolyline
 62
7
  6
CONTINUOUS
 90
7
 70
0
 43
0.3500000006
 10
-45.5954276733
 20
95.5650021057
 10
-47.0954281311
 20
95.5650021057
 10
-45.5954276733
 20
97.7078560181
 10
-45.5954276733
 20
98.1364249878
 10
-46.0240011749
 20
98.5650030212
 10
-46.6668546295
 20
98.5650030212
 10
-47.0954281311
 20
97.9221405029
  0
LWPOLYLINE
  5
3A7
100
AcDbEntity
  8
0
100
AcDbPolyline
 62
7
  6
CONTINUOUS
 90
3
 70
0
 43
0.3500000006
 10
-39.3811413574
 20
96.2078555603
 10
-40.8811418152
 20
96.2078555603
 10
-40.2382838287
 20
98.5650030212
  0
LWPOLYLINE
  5
3A8
100
AcDbEntity
  8
0
100
AcDbPolyline
 62
7
  6
CONTINUOUS
 90
6
 70
0
 43
0.3500000006
 10
-39.9954259644
 20
105.5649960938
 10
-38.9239990082
 20
105.5649960938
 10
-38.7097145233
 20
105.7792896423
 10
-38.7097145233
 20
106.8507120667
 10
-39.138283493
 20
107.2792901001
 10
-39.5668569946
 20
107.2792901001
  0
LINE
  5
3A9
100
AcDbEntity
  8
RACCORDO
100
AcDbLine
 62
7
  6
CONTINUOUS
 10
-16.2659220119
 20
85.8548129433
 11
-29.7798733067
 21
86.8000353613
  0
ARC
  5
3AA
100
AcDbEntity
  8
RACCORDO
100
AcDbCircle
 62
250
  6
CONTINUOUS
 10
82.7558068401
 20
-265.786208173
 40
352.155046632
100
AcDbArc
 50
99.3119419629
 51
100.0306743839
  0
ARC
  5
3AB
100
AcDbEntity
  8
RACCORDO
100
AcDbCircle
 62
250
  6
CONTINUOUS
 10
78.45582742
 20
-213.6308250256
 40
300.0198260273
100
AcDbArc
 50
91.2737538471
 51
100.113299396
  0
ARC
  5
3AC
100
AcDbEntity
  8
RACCORDO
100
AcDbCircle
 62
250
  6
CONTINUOUS
 10
65.1173284749
 20
-213.6307702017
 40
300.0197711274
100
AcDbArc
 50
79.8867048445
 51
88.7262464724
  0
ARC
  5
3AD
100
AcDbEntity
  8
RACCORDO
100
AcDbCircle
 62
7
  6
CONTINUOUS
 10
78.4365761205
 20
-211.910990667
 40
298.8
100
AcDbArc
 50
91.2774002692
 51
100.9215905727
  0
ARC
  5
3AE
100
AcDbEntity
  8
RACCORDO
100
AcDbCircle
 62
7
  6
CONTINUOUS
 10
65.1365761205
 20
-211.910990667
 40
298.8
100
AcDbArc
 50
79.0783866089
 51
88.7225997308
  0
ARC
  5
3AF
100
AcDbEntity
  8
ASSI
100
AcDbCircle
 62
7
  6
CONTINUOUS
 10
65.1365761205
 20
-212.540491827
 40
296.8
100
AcDbArc
 50
79.0671545536
 51
88.7161427889
  0
ARC
  5
3B0
100
AcDbEntity
  8
ASSI
100
AcDbCircle
 62
7
  6
CONTINUOUS
 10
78.4365761205
 20
-212.540491827
 40
296.8
100
AcDbArc
 50
91.2838572111
 51
100.9328454531
  0
ARC
  5
3B1
100
AcDbEntity
  8
0
100
AcDbCircle
 62
7
  6
CONTINUOUS
 10
65.1365761205
 20
-212.540491827
 40
296.8
100
AcDbArc
 50
79.0671545536
 51
88.7161427889
  0
ARC
  5
3B2
100
AcDbEntity
  8
0
100
AcDbCircle
 62
7
  6
CONTINUOUS
 10
78.4365761205
 20
-212.540491827
 40
296.8
100
AcDbArc
 50
91.2838572111
 51
100.9328454531
  0
ARC
  5
3B3
100
AcDbEntity
  8
ASSI
100
AcDbCircle
 62
7
  6
CONTINUOUS
 10
65.1365761205
 20
-212.340491827
 40
296.8
100
AcDbArc
 50
78.9241966673
 51
88.7161427889
  0
ARC
  5
3B4
100
AcDbEntity
  8
ASSI
100
AcDbCircle
 62
7
  6
CONTINUOUS
 10
78.4365761205
 20
-212.340491827
 40
296.8
100
AcDbArc
 50
91.2838572111
 51
101.0758033216
  0
ARC
  5
3B5
100
AcDbEntity
  8
ASSI
100
AcDbCircle
 62
7
  6
CONTINUOUS
 10
42.2865761205
 20
-37.015
 40
9.0
100
AcDbArc
 50
90.0
 51
270.0
  0
ARC
  5
3B6
100
AcDbEntity
  8
RACCORDO
100
AcDbCircle
 62
250
  6
CONTINUOUS
 10
42.2857439251
 20
-36.979095355
 40
8.8817388318
100
AcDbArc
 50
267.2035353014
 51
270.0054696163
  0
ARC
  5
3B7
100
AcDbEntity
  8
RACCORDO
100
AcDbCircle
 62
250
  6
CONTINUOUS
 10
42.2858080109
 20
-37.0505037396
 40
8.8813379205
100
AcDbArc
 50
89.9949435707
 51
92.7972272046
  0
ARC
  5
3B8
100
AcDbEntity
  8
RACCORDO
100
AcDbCircle
 62
250
  6
CONTINUOUS
 10
42.2874401534
 20
-36.978746042
 40
8.8478615484
100
AcDbArc
 50
267.1926310663
 51
269.9953407198
  0
ARC
  5
3B9
100
AcDbEntity
  8
RACCORDO
100
AcDbCircle
 62
250
  6
CONTINUOUS
 10
42.2874918624
 20
-37.0507962011
 40
8.8474037959
100
AcDbArc
 50
90.0049943887
 51
92.8077193325
  0
ARC
  5
3BA
100
AcDbEntity
  8
RACCORDO
100
AcDbCircle
 62
250
  6
CONTINUOUS
 10
42.2856401081
 20
-37.0150005098
 40
8.8458033924
100
AcDbArc
 50
92.8073632914
 51
267.1928606667
  0
ARC
  5
3BB
100
AcDbEntity
  8
RACCORDO
100
AcDbCircle
 62
7
  6
CONTINUOUS
 10
42.288231062
 20
-37.0150015442
 40
8.8116966731
100
AcDbArc
 50
92.823920916
 51
267.1759483172
  0
CIRCLE
  5
3BC
100
AcDbEntity
  8
ASSI
100
AcDbCircle
 62
7
  6
CONTINUOUS
 10
50.1865761205
 20
-7.815
 40
1.2
  0
CIRCLE
  5
3BD
100
AcDbEntity
  8
ASSI
100
AcDbCircle
 62
7
  6
CONTINUOUS
 10
57.3865761205
 20
-7.815
 40
1.2
  0
CIRCLE
  5
3BE
100
AcDbEntity
  8
ASSI
100
AcDbCircle
 62
7
  6
CONTINUOUS
 10
64.5865761205
 20
-7.815
 40
1.2
  0
ARC
  5
3BF
100
AcDbEntity
  8
RACCORDO
100
AcDbCircle
 62
250
  6
CONTINUOUS
 10
41.3397041061
 20
-27.9747540798
 40
0.9813482038
100
AcDbArc
 50
355.9090083131
 51
357.6462405717
  0
ARC
  5
3C0
100
AcDbEntity
  8
RACCORDO
100
AcDbCircle
 62
250
  6
CONTINUOUS
 10
41.3397101496
 20
-46.0552460155
 40
0.9813421677
100
AcDbArc
 50
2.3537794572
 51
4.0910056131
  0
ARC
  5
3C1
100
AcDbEntity
  8
RACCORDO
100
AcDbCircle
 62
7
  6
CONTINUOUS
 10
22.6433949745
 20
-85.415
 40
0.5
100
AcDbArc
 50
180.0
 51
270.0
  0
ARC
  5
3C2
100
AcDbEntity
  8
ASSI
100
AcDbCircle
 62
7
  6
CONTINUOUS
 10
65.0593324465
 20
-8.4784483889
 40
0.4996248822
100
AcDbArc
 50
0.0036901781
 51
67.9438273008
  0
ARC
  5
3C3
100
AcDbEntity
  8
RACCORDO
100
AcDbCircle
 62
7
  6
CONTINUOUS
 10
21.919058808
 20
80.9860225261
 40
0.5000000003
100
AcDbArc
 50
100.9215849641
 51
179.9999817988
  0
CIRCLE
  5
3C4
100
AcDbEntity
  8
ASSI
100
AcDbCircle
 62
7
  6
CONTINUOUS
 10
57.3865761205
 20
13.785
 40
1.2
  0
CIRCLE
  5
3C5
100
AcDbEntity
  8
ASSI
100
AcDbCircle
 62
7
  6
CONTINUOUS
 10
50.1865761205
 20
13.785
 40
1.2
  0
CIRCLE
  5
3C6
100
AcDbEntity
  8
ASSI
100
AcDbCircle
 62
7
  6
CONTINUOUS
 10
57.3865761205
 20
6.585
 40
1.2
  0
CIRCLE
  5
3C7
100
AcDbEntity
  8
ASSI
100
AcDbCircle
 62
7
  6
CONTINUOUS
 10
50.1865761205
 20
6.585
 40
1.2
  0
CIRCLE
  5
3C8
100
AcDbEntity
  8
ASSI
100
AcDbCircle
 62
7
  6
CONTINUOUS
 10
50.1865761205
 20
-0.615
 40
1.2
  0
CIRCLE
  5
3C9
100
AcDbEntity
  8
ASSI
100
AcDbCircle
 62
7
  6
CONTINUOUS
 10
57.3865761205
 20
-0.615
 40
1.2
  0
CIRCLE
  5
3CA
100
AcDbEntity
  8
ASSI
100
AcDbCircle
 62
7
  6
CONTINUOUS
 10
57.3865761205
 20
35.385
 40
1.2
  0
CIRCLE
  5
3CB
100
AcDbEntity
  8
ASSI
100
AcDbCircle
 62
7
  6
CONTINUOUS
 10
50.1865761205
 20
35.385
 40
1.2
  0
CIRCLE
  5
3CC
100
AcDbEntity
  8
ASSI
100
AcDbCircle
 62
7
  6
CONTINUOUS
 10
57.3865761205
 20
28.185
 40
1.2
  0
CIRCLE
  5
3CD
100
AcDbEntity
  8
ASSI
100
AcDbCircle
 62
7
  6
CONTINUOUS
 10
50.1865761205
 20
28.185
 40
1.2
  0
CIRCLE
  5
3CE
100
AcDbEntity
  8
ASSI
100
AcDbCircle
 62
7
  6
CONTINUOUS
 10
57.3865761205
 20
20.985
 40
1.2
  0
CIRCLE
  5
3CF
100
AcDbEntity
  8
ASSI
100
AcDbCircle
 62
7
  6
CONTINUOUS
 10
50.1865761205
 20
20.985
 40
1.2
  0
ARC
  5
3D0
100
AcDbEntity
  8
ASSI
100
AcDbCircle
 62
7
  6
CONTINUOUS
 10
71.7835761628
 20
8.1204432674
 40
17.4118027595
100
AcDbArc
 50
292.0711734867
 51
298.2553435045
  0
ARC
  5
3D1
100
AcDbEntity
  8
ASSI
100
AcDbCircle
 62
7
  6
CONTINUOUS
 10
71.7649952711
 20
8.0885674101
 40
17.370718679
100
AcDbArc
 50
207.6323816699
 51
214.7396072091
  0
CIRCLE
  5
3D2
100
AcDbEntity
  8
ASSI
100
AcDbCircle
 62
7
  6
CONTINUOUS
 10
64.5865761205
 20
13.785
 40
1.2
  0
CIRCLE
  5
3D3
100
AcDbEntity
  8
ASSI
100
AcDbCircle
 62
7
  6
CONTINUOUS
 10
64.5865761205
 20
6.585
 40
1.2
  0
CIRCLE
  5
3D4
100
AcDbEntity
  8
ASSI
100
AcDbCircle
 62
7
  6
CONTINUOUS
 10
64.5865761205
 20
-0.615
 40
1.2
  0
CIRCLE
  5
3D5
100
AcDbEntity
  8
ASSI
100
AcDbCircle
 62
7
  6
CONTINUOUS
 10
64.5865761205
 20
35.385
 40
1.2
  0
CIRCLE
  5
3D6
100
AcDbEntity
  8
ASSI
100
AcDbCircle
 62
7
  6
CONTINUOUS
 10
64.5865761205
 20
28.185
 40
1.2
  0
CIRCLE
  5
3D7
100
AcDbEntity
  8
ASSI
100
AcDbCircle
 62
7
  6
CONTINUOUS
 10
64.5865761205
 20
20.985
 40
1.2
  0
ARC
  5
3D8
100
AcDbEntity
  8
RACCORDO
100
AcDbCircle
 62
7
  6
CONTINUOUS
 10
94.8950628157
 20
-85.9323318417
 40
0.2000783628
100
AcDbArc
 50
180.0107753139
 51
256.7832386275
  0
ARC
  5
3D9
100
AcDbEntity
  8
RACCORDO
100
AcDbCircle
 62
250
  6
CONTINUOUS
 10
95.1925006828
 20
-86.0025506472
 40
0.1998798237
100
AcDbArc
 50
179.9636141847
 51
255.7813470196
  0
CIRCLE
  5
3DA
100
AcDbEntity
  8
ASSI
100
AcDbCircle
 62
7
  6
CONTINUOUS
 10
71.7865761205
 20
-7.815
 40
1.2
  0
CIRCLE
  5
3DB
100
AcDbEntity
  8
ASSI
100
AcDbCircle
 62
7
  6
CONTINUOUS
 10
78.9865761205
 20
-7.815
 40
1.2
  0
CIRCLE
  5
3DC
100
AcDbEntity
  8
ASSI
100
AcDbCircle
 62
7
  6
CONTINUOUS
 10
86.1865761205
 20
-7.815
 40
1.2
  0
CIRCLE
  5
3DD
100
AcDbEntity
  8
ASSI
100
AcDbCircle
 62
7
  6
CONTINUOUS
 10
93.3865761205
 20
-7.815
 40
1.2
  0
ARC
  5
3DE
100
AcDbEntity
  8
ASSI
100
AcDbCircle
 62
7
  6
CONTINUOUS
 10
78.5138197369
 20
-8.4784483506
 40
0.4996248791
100
AcDbArc
 50
112.0561682352
 51
179.9963142195
  0
ARC
  5
3DF
100
AcDbEntity
  8
RACCORDO
100
AcDbCircle
 62
7
  6
CONTINUOUS
 10
120.9297572664
 20
-85.415
 40
0.5
100
AcDbArc
 50
270.0
 51
360.0
  0
ARC
  5
3E0
100
AcDbEntity
  8
RACCORDO
100
AcDbCircle
 62
7
  6
CONTINUOUS
 10
112.6780898844
 20
-85.9323329147
 40
0.2000771162
100
AcDbArc
 50
283.2167036571
 51
359.9395892507
  0
ARC
  5
3E1
100
AcDbEntity
  8
RACCORDO
100
AcDbCircle
 62
7
  6
CONTINUOUS
 10
98.0593397225
 20
-86.615
 40
0.2
100
AcDbArc
 50
180.0
 51
270.0000000001
  0
ARC
  5
3E2
100
AcDbEntity
  8
RACCORDO
100
AcDbCircle
 62
7
  6
CONTINUOUS
 10
109.5138125185
 20
-86.615
 40
0.2
100
AcDbArc
 50
270.0
 51
360.0
  0
ARC
  5
3E3
100
AcDbEntity
  8
RACCORDO
100
AcDbCircle
 62
250
  6
CONTINUOUS
 10
98.1904946465
 20
-86.6150734085
 40
0.1999313733
100
AcDbArc
 50
179.978963302
 51
269.9789498359
  0
ARC
  5
3E4
100
AcDbEntity
  8
RACCORDO
100
AcDbCircle
 62
250
  6
CONTINUOUS
 10
109.3826575944
 20
-86.6150734085
 40
0.1999313733
100
AcDbArc
 50
270.0210501641
 51
0.021036698
  0
ARC
  5
3E5
100
AcDbEntity
  8
RACCORDO
100
AcDbCircle
 62
250
  6
CONTINUOUS
 10
112.3806513084
 20
-86.0025505352
 40
0.1998800008
100
AcDbArc
 50
284.2560201161
 51
0.0363536831
  0
ARC
  5
3E6
100
AcDbEntity
  8
ASSI
100
AcDbCircle
 62
7
  6
CONTINUOUS
 10
101.2865761205
 20
-37.015
 40
9.0
100
AcDbArc
 50
270.0
 51
90.0
  0
ARC
  5
3E7
100
AcDbEntity
  8
RACCORDO
100
AcDbCircle
 62
250
  6
CONTINUOUS
 10
101.2874083159
 20
-37.050904645
 40
8.8817388318
100
AcDbArc
 50
87.2035353013
 51
90.0054696163
  0
ARC
  5
3E8
100
AcDbEntity
  8
RACCORDO
100
AcDbCircle
 62
250
  6
CONTINUOUS
 10
101.2873442301
 20
-36.9794962604
 40
8.8813379205
100
AcDbArc
 50
269.9949435707
 51
272.7972272046
  0
ARC
  5
3E9
100
AcDbEntity
  8
RACCORDO
100
AcDbCircle
 62
250
  6
CONTINUOUS
 10
101.2857120876
 20
-37.051253958
 40
8.8478615484
100
AcDbArc
 50
87.1926310663
 51
89.9953407198
  0
ARC
  5
3EA
100
AcDbEntity
  8
RACCORDO
100
AcDbCircle
 62
250
  6
CONTINUOUS
 10
101.2856603786
 20
-36.9792037989
 40
8.8474037959
100
AcDbArc
 50
270.0049943887
 51
272.8077193325
  0
ARC
  5
3EB
100
AcDbEntity
  8
RACCORDO
100
AcDbCircle
 62
250
  6
CONTINUOUS
 10
101.2875121329
 20
-37.0150001599
 40
8.8458033924
100
AcDbArc
 50
272.8073635038
 51
87.1928608792
  0
ARC
  5
3EC
100
AcDbEntity
  8
RACCORDO
100
AcDbCircle
 62
7
  6
CONTINUOUS
 10
101.2849198139
 20
-37.0149984558
 40
8.8116966731
100
AcDbArc
 50
272.823929781
 51
87.1759394522
  0
ARC
  5
3ED
100
AcDbEntity
  8
RACCORDO
100
AcDbCircle
 62
250
  6
CONTINUOUS
 10
101.2866530423
 20
-37.3721937341
 40
7.2796760672
100
AcDbArc
 50
90.0006054246
 51
92.117783663
  0
CIRCLE
  5
3EE
100
AcDbEntity
  8
RACCORDO
100
AcDbCircle
 62
250
  6
CONTINUOUS
 10
101.2865761205
 20
-37.015
 40
7.228575216
  0
CIRCLE
  5
3EF
100
AcDbEntity
  8
DRAFT
100
AcDbCircle
 62
7
  6
CONTINUOUS
 10
101.2865761205
 20
-37.015
 40
6.95
  0
CIRCLE
  5
3F0
100
AcDbEntity
  8
RACCORDO
100
AcDbCircle
 62
250
  6
CONTINUOUS
 10
101.2951034252
 20
-37.0149180928
 40
6.9076379452
  0
ARC
  5
3F1
100
AcDbEntity
  8
RACCORDO
100
AcDbCircle
 62
250
  6
CONTINUOUS
 10
101.2865222045
 20
-36.6902013564
 40
6.6178115528
100
AcDbArc
 50
89.5629791893
 51
89.9995332053
  0
ARC
  5
3F2
100
AcDbEntity
  8
RACCORDO
100
AcDbCircle
 62
250
  6
CONTINUOUS
 10
101.4598818442
 20
-37.0131580069
 40
5.6846437868
100
AcDbArc
 50
180.018566143
 51
269.8454422735
  0
ARC
  5
3F3
100
AcDbEntity
  8
RACCORDO
100
AcDbCircle
 62
250
  6
CONTINUOUS
 10
101.4598795289
 20
-37.0168413255
 40
5.6846425143
100
AcDbArc
 50
90.1545344097
 51
179.9814405782
  0
ARC
  5
3F4
100
AcDbEntity
  8
RACCORDO
100
AcDbCircle
 62
250
  6
CONTINUOUS
 10
101.4632274468
 20
-37.0164464341
 40
5.684281151
100
AcDbArc
 50
0.0145799981
 51
90.1882900516
  0
ARC
  5
3F5
100
AcDbEntity
  8
RACCORDO
100
AcDbCircle
 62
250
  6
CONTINUOUS
 10
101.4632289447
 20
-37.0135541266
 40
5.6842796742
100
AcDbArc
 50
269.8116948321
 51
359.9854256501
  0
CIRCLE
  5
3F6
100
AcDbEntity
  8
0
100
AcDbCircle
 62
7
  6
CONTINUOUS
 10
101.2865761205
 20
-37.015
 40
1.55
  0
CIRCLE
  5
3F7
100
AcDbEntity
  8
DRAFT
100
AcDbCircle
 62
7
  6
CONTINUOUS
 10
101.2883581198
 20
-37.0149900214
 40
1.4606808025
  0
CIRCLE
  5
3F8
100
AcDbEntity
  8
RACCORDO
100
AcDbCircle
 62
250
  6
CONTINUOUS
 10
101.2875725991
 20
-37.0149967594
 40
1.4589058407
  0
ARC
  5
3F9
100
AcDbEntity
  8
RACCORDO
100
AcDbCircle
 62
250
  6
CONTINUOUS
 10
102.2334481349
 20
-46.0552459202
 40
0.9813482038
100
AcDbArc
 50
175.9090083131
 51
177.6462405717
  0
ARC
  5
3FA
100
AcDbEntity
  8
RACCORDO
100
AcDbCircle
 62
250
  6
CONTINUOUS
 10
102.2334420914
 20
-27.9747539845
 40
0.9813421678
100
AcDbArc
 50
182.3537794572
 51
184.0910056131
  0
CIRCLE
  5
3FB
100
AcDbEntity
  8
RACCORDO
100
AcDbCircle
 62
250
  6
CONTINUOUS
 10
101.4241630332
 20
-37.0150099089
 40
0.658955783
  0
ARC
  5
3FC
100
AcDbEntity
  8
ASSI
100
AcDbCircle
 62
7
  6
CONTINUOUS
 10
71.7895653279
 20
8.1204201275
 40
17.4117772759
100
AcDbArc
 50
241.7446116531
 51
247.9288306837
  0
ARC
  5
3FD
100
AcDbEntity
  8
ASSI
100
AcDbCircle
 62
7
  6
CONTINUOUS
 10
71.8080214343
 20
8.088651139
 40
17.3708777803
100
AcDbArc
 50
325.2608119105
 51
332.3678797884
  0
CIRCLE
  5
3FE
100
AcDbEntity
  8
ASSI
100
AcDbCircle
 62
7
  6
CONTINUOUS
 10
78.9865761205
 20
13.785
 40
1.2
  0
CIRCLE
  5
3FF
100
AcDbEntity
  8
ASSI
100
AcDbCircle
 62
7
  6
CONTINUOUS
 10
71.7865761205
 20
13.785
 40
1.2
  0
CIRCLE
  5
400
100
AcDbEntity
  8
ASSI
100
AcDbCircle
 62
7
  6
CONTINUOUS
 10
78.9865761205
 20
6.585
 40
1.2
  0
CIRCLE
  5
401
100
AcDbEntity
  8
ASSI
100
AcDbCircle
 62
7
  6
CONTINUOUS
 10
71.7865761205
 20
6.585
 40
1.2
  0
CIRCLE
  5
402
100
AcDbEntity
  8
ASSI
100
AcDbCircle
 62
7
  6
CONTINUOUS
 10
71.7865761205
 20
-0.615
 40
1.2
  0
CIRCLE
  5
403
100
AcDbEntity
  8
ASSI
100
AcDbCircle
 62
7
  6
CONTINUOUS
 10
78.9865761205
 20
-0.615
 40
1.2
  0
CIRCLE
  5
404
100
AcDbEntity
  8
ASSI
100
AcDbCircle
 62
7
  6
CONTINUOUS
 10
78.9865761205
 20
35.385
 40
1.2
  0
CIRCLE
  5
405
100
AcDbEntity
  8
ASSI
100
AcDbCircle
 62
7
  6
CONTINUOUS
 10
71.7865761205
 20
35.385
 40
1.2
  0
CIRCLE
  5
406
100
AcDbEntity
  8
ASSI
100
AcDbCircle
 62
7
  6
CONTINUOUS
 10
78.9865761205
 20
28.185
 40
1.2
  0
CIRCLE
  5
407
100
AcDbEntity
  8
ASSI
100
AcDbCircle
 62
7
  6
CONTINUOUS
 10
71.7865761205
 20
28.185
 40
1.2
  0
CIRCLE
  5
408
100
AcDbEntity
  8
ASSI
100
AcDbCircle
 62
7
  6
CONTINUOUS
 10
78.9865761205
 20
20.985
 40
1.2
  0
CIRCLE
  5
409
100
AcDbEntity
  8
ASSI
100
AcDbCircle
 62
7
  6
CONTINUOUS
 10
71.7865761205
 20
20.985
 40
1.2
  0
CIRCLE
  5
40A
100
AcDbEntity
  8
ASSI
100
AcDbCircle
 62
7
  6
CONTINUOUS
 10
93.3865761205
 20
13.785
 40
1.2
  0
CIRCLE
  5
40B
100
AcDbEntity
  8
ASSI
100
AcDbCircle
 62
7
  6
CONTINUOUS
 10
86.1865761205
 20
13.785
 40
1.2
  0
CIRCLE
  5
40C
100
AcDbEntity
  8
ASSI
100
AcDbCircle
 62
7
  6
CONTINUOUS
 10
93.3865761205
 20
6.585
 40
1.2
  0
CIRCLE
  5
40D
100
AcDbEntity
  8
ASSI
100
AcDbCircle
 62
7
  6
CONTINUOUS
 10
86.1865761205
 20
6.585
 40
1.2
  0
CIRCLE
  5
40E
100
AcDbEntity
  8
ASSI
100
AcDbCircle
 62
7
  6
CONTINUOUS
 10
93.3865761205
 20
-0.615
 40
1.2
  0
CIRCLE
  5
40F
100
AcDbEntity
  8
ASSI
100
AcDbCircle
 62
7
  6
CONTINUOUS
 10
86.1865761205
 20
-0.615
 40
1.2
  0
CIRCLE
  5
410
100
AcDbEntity
  8
ASSI
100
AcDbCircle
 62
7
  6
CONTINUOUS
 10
93.3865761205
 20
35.385
 40
1.2
  0
CIRCLE
  5
411
100
AcDbEntity
  8
ASSI
100
AcDbCircle
 62
7
  6
CONTINUOUS
 10
86.1865761205
 20
35.385
 40
1.2
  0
CIRCLE
  5
412
100
AcDbEntity
  8
ASSI
100
AcDbCircle
 62
7
  6
CONTINUOUS
 10
93.3865761205
 20
28.185
 40
1.2
  0
CIRCLE
  5
413
100
AcDbEntity
  8
ASSI
100
AcDbCircle
 62
7
  6
CONTINUOUS
 10
86.1865761205
 20
28.185
 40
1.2
  0
CIRCLE
  5
414
100
AcDbEntity
  8
ASSI
100
AcDbCircle
 62
7
  6
CONTINUOUS
 10
93.3865761205
 20
20.985
 40
1.2
  0
CIRCLE
  5
415
100
AcDbEntity
  8
ASSI
100
AcDbCircle
 62
7
  6
CONTINUOUS
 10
86.1865761205
 20
20.985
 40
1.2
  0
ARC
  5
416
100
AcDbEntity
  8
RACCORDO
100
AcDbCircle
 62
7
  6
CONTINUOUS
 10
121.6540932076
 20
80.9860225843
 40
0.5000000003
100
AcDbArc
 50
0.000019509
 51
79.0782612342
  0
ARC
  5
417
100
AcDbEntity
  8
RACCORDO
100
AcDbCircle
 62
250
  6
CONTINUOUS
 10
254.2972989263
 20
82.4416091671
 40
182.5521390846
100
AcDbArc
 50
178.6535848648
 51
178.78424601
  0
ARC
  5
418
100
AcDbEntity
  8
ASSI
100
AcDbCircle
 62
7
  6
CONTINUOUS
 10
-222.2705998729
 20
6.5848985095
 40
168.6310457883
100
AcDbArc
 50
0.0000344834
 51
0.4075483546
  0
ARC
  5
419
100
AcDbEntity
  8
ASSI
100
AcDbCircle
 62
7
  6
CONTINUOUS
 10
-222.2705998729
 20
-0.6151014905
 40
168.6310457883
100
AcDbArc
 50
0.0000344834
 51
0.4075483546
  0
ARC
  5
41A
100
AcDbEntity
  8
ASSI
100
AcDbCircle
 62
7
  6
CONTINUOUS
 10
-222.2705998654
 20
-7.8151014905
 40
168.6310457808
100
AcDbArc
 50
0.0000344834
 51
0.4075483546
  0
ARC
  5
41B
100
AcDbEntity
  8
ASSI
100
AcDbCircle
 62
7
  6
CONTINUOUS
 10
-222.2550391951
 20
-0.6149559754
 40
168.6154851104
100
AcDbArc
 50
359.5922290612
 51
359.9999850404
  0
ARC
  5
41C
100
AcDbEntity
  8
ASSI
100
AcDbCircle
 62
7
  6
CONTINUOUS
 10
-222.255039195
 20
6.5850440246
 40
168.6154851103
100
AcDbArc
 50
359.5922290612
 51
359.9999850404
  0
ARC
  5
41D
100
AcDbEntity
  8
ASSI
100
AcDbCircle
 62
7
  6
CONTINUOUS
 10
-222.2550391935
 20
-7.8149559754
 40
168.6154851088
100
AcDbArc
 50
359.5922290612
 51
359.9999850404
  0
ARC
  5
41E
100
AcDbEntity
  8
ASSI
100
AcDbCircle
 62
7
  6
CONTINUOUS
 10
-222.2705998733
 20
35.3848985095
 40
168.6310457887
100
AcDbArc
 50
0.0000344834
 51
0.4075483546
  0
ARC
  5
41F
100
AcDbEntity
  8
ASSI
100
AcDbCircle
 62
7
  6
CONTINUOUS
 10
-222.270599869
 20
20.9848985095
 40
168.6310457844
100
AcDbArc
 50
0.0000344834
 51
0.4075483546
  0
ARC
  5
420
100
AcDbEntity
  8
ASSI
100
AcDbCircle
 62
7
  6
CONTINUOUS
 10
-222.270599869
 20
13.7848985095
 40
168.6310457843
100
AcDbArc
 50
0.0000344834
 51
0.4075483546
  0
ARC
  5
421
100
AcDbEntity
  8
ASSI
100
AcDbCircle
 62
7
  6
CONTINUOUS
 10
-222.2705998686
 20
28.1848985095
 40
168.631045784
100
AcDbArc
 50
0.0000344834
 51
0.4075483546
  0
ARC
  5
422
100
AcDbEntity
  8
ASSI
100
AcDbCircle
 62
7
  6
CONTINUOUS
 10
-222.2550391955
 20
13.7850440246
 40
168.6154851108
100
AcDbArc
 50
359.5922290612
 51
359.9999850404
  0
ARC
  5
423
100
AcDbEntity
  8
ASSI
100
AcDbCircle
 62
7
  6
CONTINUOUS
 10
-222.2550391956
 20
20.9850440246
 40
168.6154851109
100
AcDbArc
 50
359.5922290612
 51
359.9999850404
  0
ARC
  5
424
100
AcDbEntity
  8
ASSI
100
AcDbCircle
 62
7
  6
CONTINUOUS
 10
-222.2550391956
 20
35.3850440246
 40
168.6154851109
100
AcDbArc
 50
359.5922290612
 51
359.9999850404
  0
ARC
  5
425
100
AcDbEntity
  8
ASSI
100
AcDbCircle
 62
7
  6
CONTINUOUS
 10
-222.2550391941
 20
28.1850440246
 40
168.6154851095
100
AcDbArc
 50
359.5922290612
 51
359.9999850404
  0
ARC
  5
426
100
AcDbEntity
  8
RACCORDO
100
AcDbCircle
 62
7
  6
CONTINUOUS
 10
-53.1727135847
 20
-85.415
 40
0.5
100
AcDbArc
 50
180.0
 51
270.0
  0
ARC
  5
427
100
AcDbEntity
  8
RACCORDO
100
AcDbCircle
 62
250
  6
CONTINUOUS
 10
-85.7111331894
 20
-37.0246934576
 40
36.2160828171
100
AcDbArc
 50
356.0233563616
 51
359.9708446072
  0
ARC
  5
428
100
AcDbEntity
  8
RACCORDO
100
AcDbCircle
 62
250
  6
CONTINUOUS
 10
-85.6820389082
 20
-37.0234601168
 40
36.1578513316
100
AcDbArc
 50
355.9063523584
 51
0.0134059317
  0
ARC
  5
429
100
AcDbEntity
  8
RACCORDO
100
AcDbCircle
 62
250
  6
CONTINUOUS
 10
-85.1439540738
 20
-36.8903736353
 40
35.8366290598
100
AcDbArc
 50
3.6545614114
 51
3.8824588687
  0
ARC
  5
42A
100
AcDbEntity
  8
RACCORDO
100
AcDbCircle
 62
250
  6
CONTINUOUS
 10
-85.1119702286
 20
-36.9851255231
 40
35.6169383237
100
AcDbArc
 50
359.9520561481
 51
4.1813983646
  0
ARC
  5
42B
100
AcDbEntity
  8
RACCORDO
100
AcDbCircle
 62
250
  6
CONTINUOUS
 10
-85.0646228977
 20
-36.9839835177
 40
35.5403890121
100
AcDbArc
 50
0.0658782175
 51
4.193587881
  0
ARC
  5
42C
100
AcDbEntity
  8
RACCORDO
100
AcDbCircle
 62
250
  6
CONTINUOUS
 10
-83.7475829087
 20
-37.2399305752
 40
34.4366534005
100
AcDbArc
 50
355.4909426633
 51
355.6791887404
  0
ARC
  5
42D
100
AcDbEntity
  8
RACCORDO
100
AcDbCircle
 62
250
  6
CONTINUOUS
 10
-83.1803632231
 20
-37.1733021995
 40
33.681110965
100
AcDbArc
 50
355.7728155154
 51
355.9769879788
  0
ARC
  5
42E
100
AcDbEntity
  8
RACCORDO
100
AcDbCircle
 62
250
  6
CONTINUOUS
 10
-82.2715104247
 20
-37.2413098761
 40
32.769717666
100
AcDbArc
 50
355.0075415113
 51
355.7742665109
  0
ARC
  5
42F
100
AcDbEntity
  8
RACCORDO
100
AcDbCircle
 62
250
  6
CONTINUOUS
 10
-82.1114711714
 20
-37.2471957752
 40
32.5804357426
100
AcDbArc
 50
354.9815420404
 51
355.7807021554
  0
ARC
  5
430
100
AcDbEntity
  8
RACCORDO
100
AcDbCircle
 62
250
  6
CONTINUOUS
 10
-81.3842860652
 20
-36.599880307
 40
32.0659394102
100
AcDbArc
 50
3.8194556781
 51
6.6006131288
  0
ARC
  5
431
100
AcDbEntity
  8
ASSI
100
AcDbCircle
 62
7
  6
CONTINUOUS
 10
-79.8666069431
 20
-36.467860806
 40
30.6553439558
100
AcDbArc
 50
6.1712464435
 51
6.3171773898
  0
ARC
  5
432
100
AcDbEntity
  8
RACCORDO
100
AcDbCircle
 62
250
  6
CONTINUOUS
 10
-76.6743926084
 20
-36.049397653
 40
27.3239890972
100
AcDbArc
 50
6.5892017794
 51
8.4128128412
  0
ARC
  5
433
100
AcDbEntity
  8
RACCORDO
100
AcDbCircle
 62
250
  6
CONTINUOUS
 10
-74.4017398944
 20
-35.7190406765
 40
25.0274589619
100
AcDbArc
 50
8.4258540236
 51
8.638268477
  0
ARC
  5
434
100
AcDbEntity
  8
RACCORDO
100
AcDbCircle
 62
250
  6
CONTINUOUS
 10
-58.7095717774
 20
-41.5681645911
 40
8.7688182188
100
AcDbArc
 50
341.6044503932
 51
343.0784692
  0
ARC
  5
435
100
AcDbEntity
  8
RACCORDO
100
AcDbCircle
 62
250
  6
CONTINUOUS
 10
-58.6585917363
 20
-32.4452957911
 40
8.7152368501
100
AcDbArc
 50
16.8089793489
 51
18.1532775555
  0
ARC
  5
436
100
AcDbEntity
  8
RACCORDO
100
AcDbCircle
 62
250
  6
CONTINUOUS
 10
-57.6275652084
 20
-41.9238667218
 40
7.6298518089
100
AcDbArc
 50
340.7615370521
 51
341.574948543
  0
ARC
  5
437
100
AcDbEntity
  8
RACCORDO
100
AcDbCircle
 62
250
  6
CONTINUOUS
 10
-53.2821896563
 20
-43.719761345
 40
2.923477025
100
AcDbArc
 50
331.4240441378
 51
332.6597435244
  0
ARC
  5
438
100
AcDbEntity
  8
RACCORDO
100
AcDbCircle
 62
250
  6
CONTINUOUS
 10
-53.2449698479
 20
-30.2905161714
 40
2.8813579523
100
AcDbArc
 50
27.2256880763
 51
28.570151633
  0
ARC
  5
439
100
AcDbEntity
  8
RACCORDO
100
AcDbCircle
 62
250
  6
CONTINUOUS
 10
-53.1691587205
 20
-43.7390177342
 40
2.7755384999
100
AcDbArc
 50
330.4834032297
 51
332.4592150101
  0
ARC
  5
43A
100
AcDbEntity
  8
RACCORDO
100
AcDbCircle
 62
250
  6
CONTINUOUS
 10
-53.11101704
 20
-30.2593086394
 40
2.7093314302
100
AcDbArc
 50
27.3999637685
 51
29.5539014217
  0
ARC
  5
43B
100
AcDbEntity
  8
RACCORDO
100
AcDbCircle
 62
7
  6
CONTINUOUS
 10
-53.663824485
 20
-28.4027485022
 40
0.2
100
AcDbArc
 50
91.2
 51
179.9999999983
  0
ARC
  5
43C
100
AcDbEntity
  8
RACCORDO
100
AcDbCircle
 62
7
  6
CONTINUOUS
 10
-53.663824485
 20
-45.6272514978
 40
0.2
100
AcDbArc
 50
180.0000000017
 51
268.8
  0
ARC
  5
43D
100
AcDbEntity
  8
RACCORDO
100
AcDbCircle
 62
7
  6
CONTINUOUS
 10
-52.0638246013
 20
-46.0608544701
 40
0.2
100
AcDbArc
 50
13.2652309126
 51
88.8
  0
ARC
  5
43E
100
AcDbEntity
  8
RACCORDO
100
AcDbCircle
 62
7
  6
CONTINUOUS
 10
-52.0638246013
 20
-27.9691455299
 40
0.2
100
AcDbArc
 50
271.2
 51
346.7347690872
  0
ARC
  5
43F
100
AcDbEntity
  8
RACCORDO
100
AcDbCircle
 62
7
  6
CONTINUOUS
 10
-29.5519366583
 20
-85.9316401631
 40
2.5405148631
100
AcDbArc
 50
180.0203809948
 51
180.4112709651
  0
ARC
  5
440
100
AcDbEntity
  8
RACCORDO
100
AcDbCircle
 62
7
  6
CONTINUOUS
 10
-16.2938246014
 20
-84.1363416402
 40
0.4
100
AcDbArc
 50
272.0
 51
360.0
  0
ARC
  5
441
100
AcDbEntity
  8
RACCORDO
100
AcDbCircle
 62
7
  6
CONTINUOUS
 10
-29.7938246014
 20
-84.8078939372
 40
0.2
100
AcDbArc
 50
180.0
 51
272.0
  0
ARC
  5
442
100
AcDbEntity
  8
RACCORDO
100
AcDbCircle
 62
7
  6
CONTINUOUS
 10
-45.3938246014
 20
-86.615
 40
0.2
100
AcDbArc
 50
180.0
 51
270.0
  0
ARC
  5
443
100
AcDbEntity
  8
RACCORDO
100
AcDbCircle
 62
7
  6
CONTINUOUS
 10
-36.4658634512
 20
-86.615
 40
0.2
100
AcDbArc
 50
270.0
 51
360.0
  0
ARC
  5
444
100
AcDbEntity
  8
RACCORDO
100
AcDbCircle
 62
7
  6
CONTINUOUS
 10
-48.3938208642
 20
-86.0746940323
 40
0.2
100
AcDbArc
 50
179.9999995651
 51
270.5
  0
ARC
  5
445
100
AcDbEntity
  8
RACCORDO
100
AcDbCircle
 62
7
  6
CONTINUOUS
 10
-31.8938246014
 20
-84.8463886513
 40
0.2
100
AcDbArc
 50
180.0
 51
271.0
  0
ARC
  5
446
100
AcDbEntity
  8
RACCORDO
100
AcDbCircle
 62
7
  6
CONTINUOUS
 10
-33.2938246014
 20
-86.615
 40
0.2
100
AcDbArc
 50
270.0
 51
360.0
  0
ARC
  5
447
100
AcDbEntity
  8
RACCORDO
100
AcDbCircle
 62
250
  6
CONTINUOUS
 10
-47.7768618845
 20
-37.0153112129
 40
3.7893260047
100
AcDbArc
 50
179.0425066809
 51
180.9571255975
  0
ARC
  5
448
100
AcDbEntity
  8
RACCORDO
100
AcDbCircle
 62
250
  6
CONTINUOUS
 10
-48.8653985976
 20
-43.0399689632
 40
2.2155482185
100
AcDbArc
 50
203.4538942918
 51
205.2898465238
  0
ARC
  5
449
100
AcDbEntity
  8
RACCORDO
100
AcDbCircle
 62
250
  6
CONTINUOUS
 10
-48.8659829739
 20
-30.989583437
 40
2.2148388452
100
AcDbArc
 50
155.1462823829
 51
156.6710817942
  0
ARC
  5
44A
100
AcDbEntity
  8
ASSI
100
AcDbCircle
 62
7
  6
CONTINUOUS
 10
-41.6755611783
 20
109.6019763108
 40
30.7293427641
100
AcDbArc
 50
267.1657681263
 51
270.9520732517
  0
ARC
  5
44B
100
AcDbEntity
  8
0
100
AcDbCircle
 62
7
  6
CONTINUOUS
 10
-41.6755611783
 20
109.6019763108
 40
30.7293427641
100
AcDbArc
 50
267.1657681263
 51
270.9520732517
  0
ARC
  5
44C
100
AcDbEntity
  8
ASSI
100
AcDbCircle
 62
7
  6
CONTINUOUS
 10
-41.7925587435
 20
106.813976885
 40
27.938975849
100
AcDbArc
 50
266.3625638011
 51
267.0782052639
  0
ARC
  5
44D
100
AcDbEntity
  8
0
100
AcDbCircle
 62
7
  6
CONTINUOUS
 10
-41.7925587435
 20
106.813976885
 40
27.938975849
100
AcDbArc
 50
266.3625638011
 51
267.0782052639
  0
ARC
  5
44E
100
AcDbEntity
  8
RACCORDO
100
AcDbCircle
 62
250
  6
CONTINUOUS
 10
-55.0237134204
 20
86.3145726117
 40
0.501897003
100
AcDbArc
 50
170.26905396
 51
175.0387531895
  0
ARC
  5
44F
100
AcDbEntity
  8
RACCORDO
100
AcDbCircle
 62
7
  6
CONTINUOUS
 10
-55.0265754057
 20
86.3147740499
 40
0.4990277952
100
AcDbArc
 50
90.004945681
 51
178.2721858386
  0
ARC
  5
450
100
AcDbEntity
  8
RACCORDO
100
AcDbCircle
 62
7
  6
CONTINUOUS
 10
-16.2938861908
 20
85.455735964
 40
0.4000584761
100
AcDbArc
 50
359.9930866953
 51
85.9917137869
  0
ARC
  5
451
100
AcDbEntity
  8
RACCORDO
100
AcDbCircle
 62
7
  6
CONTINUOUS
 10
-29.7937901266
 20
86.600489492
 40
0.2000337039
100
AcDbArc
 50
86.0105112826
 51
180.0046997438
  0
SPLINE
  5
452
100
AcDbEntity
  8
RACCORDO
100
AcDbSpline
 62
250
  6
CONTINUOUS
 70
0
 71
3
 72
9
 73
5
 74
0
 42
0.0000001
 43
0.0000001
 44
0.0000000001
 40
0.0
 40
0.0
 40
0.0
 40
0.0
 40
0.5788502888
 40
1.0
 40
1.0
 40
1.0
 40
1.0
 10
101.3369987553
 20
-30.0725823083
 30
0.0
 10
101.5336353273
 20
-30.0740812539
 30
0.0
 10
101.8734104062
 20
-30.0918828174
 30
0.0
 10
102.210572312
 20
-30.1358247936
 30
0.0
 10
102.3515836598
 20
-30.160005191
 30
0.0
  0
SPLINE
  5
453
100
AcDbEntity
  8
RACCORDO
100
AcDbSpline
 62
250
  6
CONTINUOUS
 70
0
 71
3
 72
10
 73
6
 74
0
 42
0.0000001
 43
0.0000001
 44
0.0000000001
 40
0.0
 40
0.0
 40
0.0
 40
0.0
 40
0.476071502
 40
0.8064494862
 40
1.0
 40
1.0
 40
1.0
 40
1.0
 10
102.3515836598
 20
-30.160005191
 30
0.0
 10
102.373194981
 20
-30.1637110653
 30
0.0
 10
102.4168297971
 20
-30.1717261438
 30
0.0
 10
102.4411104015
 20
-30.1761348596
 30
0.0
 10
102.4957743912
 20
-30.1878730195
 30
0.0
 10
102.4868614965
 20
-30.1877043119
 30
0.0
  0
SPLINE
  5
454
100
AcDbEntity
  8
RACCORDO
100
AcDbSpline
 62
250
  6
CONTINUOUS
 70
0
 71
3
 72
9
 73
5
 74
0
 42
0.0000001
 43
0.0000001
 44
0.0000000001
 40
0.0
 40
0.0
 40
0.0
 40
0.0
 40
0.5752780683
 40
1.0
 40
1.0
 40
1.0
 40
1.0
 10
101.0176407522
 20
-30.0974898892
 30
0.0
 10
100.8670121363
 20
-30.1030583129
 30
0.0
 10
100.6053904181
 20
-30.1208280496
 30
0.0
 10
100.3452173713
 20
-30.1523818871
 30
0.0
 10
100.2349817364
 20
-30.1676176974
 30
0.0
  0
SPLINE
  5
455
100
AcDbEntity
  8
RACCORDO
100
AcDbSpline
 62
250
  6
CONTINUOUS
 70
0
 71
3
 72
19
 73
15
 74
0
 42
0.0000001
 43
0.0000001
 44
0.0000000001
 40
0.0
 40
0.0
 40
0.0
 40
0.0
 40
0.2154326702
 40
0.3730424503
 40
0.4289662798
 40
0.469269221
 40
0.4937579379
 40
0.5023574486
 40
0.5104502095
 40
0.5343611654
 40
0.5740771424
 40
0.6294510434
 40
0.7858275104
 40
1.0
 40
1.0
 40
1.0
 40
1.0
 10
100.2349817364
 20
-30.1676176974
 30
0.0
 10
100.2134799064
 20
-30.1705894933
 30
0.0
 10
100.1764242469
 20
-30.1758395708
 30
0.0
 10
100.1331772996
 20
-30.181950399
 30
0.0
 10
100.1084494661
 20
-30.1853956168
 30
0.0
 10
100.0953466983
 20
-30.1868563627
 30
0.0
 10
100.0898442095
 20
-30.1876660893
 30
0.0
 10
100.0832243357
 20
-30.1877374986
 30
0.0
 10
100.0891882043
 20
-30.1854799469
 30
0.0
 10
100.0946339874
 20
-30.184448418
 30
0.0
 10
100.1072136091
 20
-30.1814076056
 30
0.0
 10
100.1314879205
 20
-30.1764906014
 30
0.0
 10
100.1740395164
 20
-30.1682446104
 30
0.0
 10
100.2106700458
 20
-30.161838935
 30
0.0
 10
100.2319464693
 20
-30.158236429
 30
0.0
  0
SPLINE
  5
456
100
AcDbEntity
  8
RACCORDO
100
AcDbSpline
 62
250
  6
CONTINUOUS
 70
0
 71
3
 72
9
 73
5
 74
0
 42
0.0000001
 43
0.0000001
 44
0.0000000001
 40
0.0
 40
0.0
 40
0.0
 40
0.0
 40
0.4246056624
 40
1.0
 40
1.0
 40
1.0
 40
1.0
 10
100.2319464693
 20
-30.158236429
 30
0.0
 10
100.3797288489
 20
-30.1332140419
 30
0.0
 10
100.7302542118
 20
-30.0887186621
 30
0.0
 10
101.0834619243
 20
-30.0723902579
 30
0.0
 10
101.2865761205
 20
-30.0723898039
 30
0.0
  0
SPLINE
  5
457
100
AcDbEntity
  8
RACCORDO
100
AcDbSpline
 62
250
  6
CONTINUOUS
 70
0
 71
3
 72
11
 73
7
 74
0
 42
0.0000001
 43
0.0000001
 44
0.0000000001
 40
0.0
 40
0.0
 40
0.0
 40
0.0
 40
0.1051133602
 40
0.308734199
 40
0.6083190139
 40
1.0
 40
1.0
 40
1.0
 40
1.0
 10
102.4868614965
 20
-30.1877043119
 30
0.0
 10
102.4828011334
 20
-30.1876274553
 30
0.0
 10
102.4709428605
 20
-30.1860719521
 30
0.0
 10
102.4476505288
 20
-30.1831086205
 30
0.0
 10
102.4134162714
 20
-30.1781859274
 30
0.0
 10
102.3869758431
 20
-30.1744460105
 30
0.0
 10
102.3719908046
 20
-30.172336963
 30
0.0
  0
SPLINE
  5
458
100
AcDbEntity
  8
RACCORDO
100
AcDbSpline
 62
250
  6
CONTINUOUS
 70
0
 71
3
 72
9
 73
5
 74
0
 42
0.0000001
 43
0.0000001
 44
0.0000000001
 40
0.0
 40
0.0
 40
0.0
 40
0.0
 40
0.4145464395
 40
1.0
 40
1.0
 40
1.0
 40
1.0
 10
102.3719908046
 20
-30.172336963
 30
0.0
 10
102.2229756217
 20
-30.1513640371
 30
0.0
 10
101.8623688614
 20
-30.1083171568
 30
0.0
 10
101.4991006917
 20
-30.0925178771
 30
0.0
 10
101.2865761205
 20
-30.0925176673
 30
0.0
  0
SPLINE
  5
459
100
AcDbEntity
  8
RACCORDO
100
AcDbSpline
 62
250
  6
CONTINUOUS
 70
0
 71
3
 72
14
 73
10
 74
0
 42
0.0000001
 43
0.0000001
 44
0.0000000001
 40
0.0
 40
0.0
 40
0.0
 40
0.0
 40
0.1189095371
 40
0.1637665561
 40
0.2151753618
 40
0.3368588659
 40
0.4811779803
 40
0.6435723985
 40
1.0
 40
1.0
 40
1.0
 40
1.0
 10
116.9060026311
 20
-85.915
 30
0.0
 10
116.9273125715
 20
-85.915
 30
0.0
 10
116.9519543195
 20
-85.8881221826
 30
0.0
 10
116.9700436448
 20
-85.8552125939
 30
0.0
 10
116.9860112132
 20
-85.8192153904
 30
0.0
 10
117.0029880378
 20
-85.7649321747
 30
0.0
 10
117.0191431164
 20
-85.6897451873
 30
0.0
 10
117.0356277577
 20
-85.5720027976
 30
0.0
 10
117.0402067552
 20
-85.4788758768
 30
0.0
 10
117.0402067552
 20
-85.415
 30
0.0
  0
SPLINE
  5
45A
100
AcDbEntity
  8
RACCORDO
100
AcDbSpline
 62
250
  6
CONTINUOUS
 70
0
 71
3
 72
14
 73
10
 74
0
 42
0.0000001
 43
0.0000001
 44
0.0000000001
 40
0.0
 40
0.0
 40
0.0
 40
0.0
 40
0.1189095371
 40
0.1637665561
 40
0.2151753618
 40
0.3368588659
 40
0.4811779803
 40
0.6435723985
 40
1.0
 40
1.0
 40
1.0
 40
1.0
 10
26.6671496098
 20
-85.915
 30
0.0
 10
26.6458396694
 20
-85.915
 30
0.0
 10
26.6211979215
 20
-85.8881221826
 30
0.0
 10
26.6031085961
 20
-85.8552125939
 30
0.0
 10
26.5871410278
 20
-85.8192153904
 30
0.0
 10
26.5701642032
 20
-85.7649321747
 30
0.0
 10
26.5540091246
 20
-85.6897451873
 30
0.0
 10
26.5375244832
 20
-85.5720027976
 30
0.0
 10
26.5329454859
 20
-85.4788758768
 30
0.0
 10
26.5329454859
 20
-85.415
 30
0.0
  0
SPLINE
  5
45B
100
AcDbEntity
  8
RACCORDO
100
AcDbSpline
 62
250
  6
CONTINUOUS
 70
0
 71
3
 72
12
 73
8
 74
0
 42
0.0000001
 43
0.0000001
 44
0.0000000001
 40
0.0
 40
0.0
 40
0.0
 40
0.0
 40
0.0391971459
 40
0.1044103178
 40
0.3218580172
 40
0.6347991699
 40
1.0
 40
1.0
 40
1.0
 40
1.0
 10
101.2864315937
 20
-28.2033924395
 30
0.0
 10
101.2891164229
 20
-28.2037190196
 30
0.0
 10
101.2950326302
 20
-28.2091717224
 30
0.0
 10
101.3040698967
 20
-28.2291896519
 30
0.0
 10
101.3127350878
 20
-28.2699849617
 30
0.0
 10
101.3191790809
 20
-28.3312698489
 30
0.0
 10
101.3206729858
 20
-28.378148157
 30
0.0
 10
101.3206719741
 20
-28.4033471604
 30
0.0
  0
SPLINE
  5
45C
100
AcDbEntity
  8
RACCORDO
100
AcDbSpline
 62
250
  6
CONTINUOUS
 70
0
 71
3
 72
12
 73
8
 74
0
 42
0.0000001
 43
0.0000001
 44
0.0000000001
 40
0.0
 40
0.0
 40
0.0
 40
0.0
 40
0.0391971631
 40
0.1044103402
 40
0.321858034
 40
0.6347991773
 40
1.0
 40
1.0
 40
1.0
 40
1.0
 10
42.2867206472
 20
-28.2033924401
 30
0.0
 10
42.2840358167
 20
-28.2037190201
 30
0.0
 10
42.2781196058
 20
-28.2091717209
 30
0.0
 10
42.2690823342
 20
-28.2291896515
 30
0.0
 10
42.2604171417
 20
-28.2699849607
 30
0.0
 10
42.2539731517
 20
-28.3312698487
 30
0.0
 10
42.2524792518
 20
-28.3781481569
 30
0.0
 10
42.252480267
 20
-28.4033471604
 30
0.0
  0
SPLINE
  5
45D
100
AcDbEntity
  8
RACCORDO
100
AcDbSpline
 62
250
  6
CONTINUOUS
 70
0
 71
3
 72
12
 73
8
 74
0
 42
0.0000001
 43
0.0000001
 44
0.0000000001
 40
0.0
 40
0.0
 40
0.0
 40
0.0
 40
0.0391971459
 40
0.1044103178
 40
0.3218580172
 40
0.6347991699
 40
1.0
 40
1.0
 40
1.0
 40
1.0
 10
42.2867206472
 20
-45.8266075605
 30
0.0
 10
42.284035818
 20
-45.8262809804
 30
0.0
 10
42.2781196108
 20
-45.8208282776
 30
0.0
 10
42.2690823442
 20
-45.8008103481
 30
0.0
 10
42.2604171531
 20
-45.7600150383
 30
0.0
 10
42.2539731601
 20
-45.6987301511
 30
0.0
 10
42.2524792552
 20
-45.651851843
 30
0.0
 10
42.2524802669
 20
-45.6266528396
 30
0.0
  0
SPLINE
  5
45E
100
AcDbEntity
  8
RACCORDO
100
AcDbSpline
 62
250
  6
CONTINUOUS
 70
0
 71
3
 72
12
 73
8
 74
0
 42
0.0000001
 43
0.0000001
 44
0.0000000001
 40
0.0
 40
0.0
 40
0.0
 40
0.0
 40
0.0391971631
 40
0.1044103402
 40
0.321858034
 40
0.6347991773
 40
1.0
 40
1.0
 40
1.0
 40
1.0
 10
101.2864315937
 20
-45.8266075599
 30
0.0
 10
101.2891164242
 20
-45.8262809799
 30
0.0
 10
101.2950326352
 20
-45.8208282791
 30
0.0
 10
101.3040699068
 20
-45.8008103485
 30
0.0
 10
101.3127350993
 20
-45.7600150393
 30
0.0
 10
101.3191790893
 20
-45.6987301513
 30
0.0
 10
101.3206729892
 20
-45.6518518431
 30
0.0
 10
101.320671974
 20
-45.6266528396
 30
0.0
  0
SPLINE
  5
45F
100
AcDbEntity
  8
RACCORDO
100
AcDbSpline
 62
250
  6
CONTINUOUS
 70
0
 71
3
 72
37
 73
33
 74
0
 42
0.0000001
 43
0.0000001
 44
0.0000000001
 40
0.0
 40
0.0
 40
0.0
 40
0.0
 40
0.0310721539
 40
0.0621234678
 40
0.0931658717
 40
0.1242120821
 40
0.1552751249
 40
0.1863654621
 40
0.2174934671
 40
0.2486691045
 40
0.2799002951
 40
0.3111931496
 40
0.3738893486
 40
0.4053609894
 40
0.436878742
 40
0.4684297323
 40
0.4999990453
 40
0.5315678372
 40
0.5631180012
 40
0.5946350873
 40
0.6261063327
 40
0.688802548
 40
0.7200954078
 40
0.7513267732
 40
0.7825031283
 40
0.8136321522
 40
0.8447229764
 40
0.8757854241
 40
0.9068312032
 40
0.9378739304
 40
0.9689263305
 40
1.0
 40
1.0
 40
1.0
 40
1.0
 10
42.2524802669
 20
-45.6266528396
 30
0.0
 10
41.9722704654
 20
-45.6266400547
 30
0.0
 10
41.411636441
 20
-45.599503127
 30
0.0
 10
40.579237337
 20
-45.4765028521
 30
0.0
 10
39.7627114077
 20
-45.2739758875
 30
0.0
 10
38.9697387878
 20
-44.9926715281
 30
0.0
 10
38.2076270798
 20
-44.6351633584
 30
0.0
 10
37.4830184382
 20
-44.2052568107
 30
0.0
 10
36.803147068
 20
-43.7058252169
 30
0.0
 10
36.1745112433
 20
-43.1414526525
 30
0.0
 10
35.6025380796
 20
-42.5175084618
 30
0.0
 10
34.9246578059
 20
-41.6126613236
 30
0.0
 10
34.3820453555
 20
-40.6098245198
 30
0.0
 10
33.9965172696
 20
-39.5424692803
 30
0.0
 10
33.7864670334
 20
-38.7146722662
 30
0.0
 10
33.6594300234
 20
-37.8693071227
 30
0.0
 10
33.6174524179
 20
-37.0150303415
 30
0.0
 10
33.6594165036
 20
-36.160759723
 30
0.0
 10
33.7864558588
 20
-35.3154134926
 30
0.0
 10
33.9964856113
 20
-34.4876292593
 30
0.0
 10
34.3819993812
 20
-33.4202785622
 30
0.0
 10
34.9245963625
 20
-32.4174375814
 30
0.0
 10
35.602465127
 20
-31.5125796718
 30
0.0
 10
36.174434753
 20
-30.8886209404
 30
0.0
 10
36.8030806669
 20
-30.3242339277
 30
0.0
 10
37.4829593896
 20
-29.8247784716
 30
0.0
 10
38.2075728518
 20
-29.3948635072
 30
0.0
 10
38.969676999
 20
-29.0373508078
 30
0.0
 10
39.7626422638
 20
-28.7560447725
 30
0.0
 10
40.5791744905
 20
-28.5535068382
 30
0.0
 10
41.4115991986
 20
-28.4304975192
 30
0.0
 10
41.9722567976
 20
-28.403359816
 30
0.0
 10
42.2524802669
 20
-28.4033471604
 30
0.0
  0
SPLINE
  5
460
100
AcDbEntity
  8
RACCORDO
100
AcDbSpline
 62
250
  6
CONTINUOUS
 70
0
 71
3
 72
37
 73
33
 74
0
 42
0.0000001
 43
0.0000001
 44
0.0000000001
 40
0.0
 40
0.0
 40
0.0
 40
0.0
 40
0.0310721539
 40
0.0621234678
 40
0.0931658717
 40
0.1242120821
 40
0.1552751249
 40
0.1863654621
 40
0.2174934671
 40
0.2486691045
 40
0.2799002951
 40
0.3111931496
 40
0.3738893486
 40
0.4053609894
 40
0.436878742
 40
0.4684297323
 40
0.4999990453
 40
0.5315678372
 40
0.5631180012
 40
0.5946350873
 40
0.6261063327
 40
0.688802548
 40
0.7200954078
 40
0.7513267732
 40
0.7825031283
 40
0.8136321522
 40
0.8447229764
 40
0.8757854241
 40
0.9068312032
 40
0.9378739304
 40
0.9689263305
 40
1.0
 40
1.0
 40
1.0
 40
1.0
 10
101.3206719741
 20
-28.4033471604
 30
0.0
 10
101.6008817756
 20
-28.4033599453
 30
0.0
 10
102.1615157999
 20
-28.430496873
 30
0.0
 10
102.993914904
 20
-28.5534971479
 30
0.0
 10
103.8104408333
 20
-28.7560241125
 30
0.0
 10
104.6034134532
 20
-29.0373284719
 30
0.0
 10
105.3655251611
 20
-29.3948366416
 30
0.0
 10
106.0901338028
 20
-29.8247431893
 30
0.0
 10
106.770005173
 20
-30.3241747831
 30
0.0
 10
107.3986409977
 20
-30.8885473475
 30
0.0
 10
107.9706141613
 20
-31.5124915382
 30
0.0
 10
108.648494435
 20
-32.4173386764
 30
0.0
 10
109.1911068855
 20
-33.4201754802
 30
0.0
 10
109.5766349714
 20
-34.4875307197
 30
0.0
 10
109.7866852076
 20
-35.3153277338
 30
0.0
 10
109.9137222175
 20
-36.1606928773
 30
0.0
 10
109.9556998231
 20
-37.0149696585
 30
0.0
 10
109.9137357373
 20
-37.869240277
 30
0.0
 10
109.7866963821
 20
-38.7145865074
 30
0.0
 10
109.5766666297
 20
-39.5423707407
 30
0.0
 10
109.1911528598
 20
-40.6097214378
 30
0.0
 10
108.6485558784
 20
-41.6125624186
 30
0.0
 10
107.970687114
 20
-42.5174203282
 30
0.0
 10
107.398717488
 20
-43.1413790596
 30
0.0
 10
106.7700715741
 20
-43.7057660723
 30
0.0
 10
106.0901928514
 20
-44.2052215284
 30
0.0
 10
105.3655793892
 20
-44.6351364928
 30
0.0
 10
104.603475242
 20
-44.9926491922
 30
0.0
 10
103.8105099772
 20
-45.2739552275
 30
0.0
 10
102.9939777505
 20
-45.4764931618
 30
0.0
 10
102.1615530424
 20
-45.5995024808
 30
0.0
 10
101.6008954434
 20
-45.626640184
 30
0.0
 10
101.3206719741
 20
-45.6266528396
 30
0.0
  0
SPLINE
  5
461
100
AcDbEntity
  8
RACCORDO
100
AcDbSpline
 62
250
  6
CONTINUOUS
 70
0
 71
3
 72
34
 73
30
 74
0
 42
0.0000001
 43
0.0000001
 44
0.0000000001
 40
0.0
 40
0.0
 40
0.0
 40
0.0
 40
0.0315063914
 40
0.0630076057
 40
0.0944984096
 40
0.12597442
 40
0.1574309658
 40
0.1888631306
 40
0.2515640705
 40
0.2829008984
 40
0.3141991467
 40
0.3454565515
 40
0.3766723792
 40
0.438900613
 40
0.5009615097
 40
0.5629033309
 40
0.5938922525
 40
0.6248871614
 40
0.6558995465
 40
0.686940231
 40
0.7180182737
 40
0.7491421776
 40
0.8114838339
 40
0.8427835677
 40
0.8741437078
 40
0.9055570111
 40
0.937013305
 40
0.9684991256
 40
1.0
 40
1.0
 40
1.0
 40
1.0
 10
92.7140479118
 20
-37.0149999775
 30
0.0
 10
92.714048423
 20
-36.7330408996
 30
0.0
 10
92.7418217565
 20
-36.1687544856
 30
0.0
 10
92.8673861885
 20
-35.3311167042
 30
0.0
 10
93.074283584
 20
-34.5099614352
 30
0.0
 10
93.3615945239
 20
-33.7138479215
 30
0.0
 10
93.7253896131
 20
-32.9501113633
 30
0.0
 10
94.3074843242
 20
-31.9870485127
 30
0.0
 10
95.0288219506
 20
-31.1151625351
 30
0.0
 10
95.8648975778
 20
-30.3653705444
 30
0.0
 10
96.5431935562
 20
-29.8670458739
 30
0.0
 10
97.266211232
 20
-29.438269898
 30
0.0
 10
98.278865663
 20
-28.9657839192
 30
0.0
 10
99.6216176079
 20
-28.5646883352
 30
0.0
 10
101.2909373007
 20
-28.4064439788
 30
0.0
 10
102.6805571115
 20
-28.5467945148
 30
0.0
 10
103.7574222397
 20
-28.8179781199
 30
0.0
 10
104.5421441999
 20
-29.0992622261
 30
0.0
 10
105.296418828
 20
-29.4551558256
 30
0.0
 10
106.0127161091
 20
-29.8838579523
 30
0.0
 10
106.6846563141
 20
-30.3809734268
 30
0.0
 10
107.5135102679
 20
-31.1281436234
 30
0.0
 10
108.2291725713
 20
-31.9963575171
 30
0.0
 10
108.8075925737
 20
-32.9554641419
 30
0.0
 10
109.1698586886
 20
-33.7170256273
 30
0.0
 10
109.4562343563
 20
-34.5116284147
 30
0.0
 10
109.6627175369
 20
-35.3318387847
 30
0.0
 10
109.7881947627
 20
-36.1689879707
 30
0.0
 10
109.815889568
 20
-36.733090283
 30
0.0
 10
109.8158896104
 20
-37.0149999878
 30
0.0
  0
SPLINE
  5
462
100
AcDbEntity
  8
RACCORDO
100
AcDbSpline
 62
250
  6
CONTINUOUS
 70
0
 71
3
 72
33
 73
29
 74
0
 42
0.0000001
 43
0.0000001
 44
0.0000000001
 40
0.0
 40
0.0
 40
0.0
 40
0.0
 40
0.0315079496
 40
0.0629989976
 40
0.0944584565
 40
0.1258741104
 40
0.157236133
 40
0.1885379277
 40
0.2508861302
 40
0.2820143113
 40
0.3130965272
 40
0.3441394768
 40
0.3751526827
 40
0.4370664977
 40
0.49901912
 40
0.561090973
 40
0.6233151464
 40
0.6545283339
 40
0.6857841101
 40
0.717082027
 40
0.7484189597
 40
0.8111218163
 40
0.8425558198
 40
0.8740145906
 40
0.9054925899
 40
0.9369858489
 40
0.9684894025
 40
1.0
 40
1.0
 40
1.0
 40
1.0
 10
109.8158896104
 20
-37.0149999878
 30
0.0
 10
109.8158898701
 20
-37.2969523527
 30
0.0
 10
109.788181017
 20
-37.8611232321
 30
0.0
 10
109.6626837832
 20
-38.6983468628
 30
0.0
 10
109.4561692582
 20
-39.5185852435
 30
0.0
 10
109.1697672509
 20
-40.3131829703
 30
0.0
 10
108.8074914862
 20
-41.0747334232
 30
0.0
 10
108.2290406696
 20
-42.0338376901
 30
0.0
 10
107.5133177807
 20
-42.9020370267
 30
0.0
 10
106.6844330199
 20
-43.6492624076
 30
0.0
 10
106.0124153394
 20
-44.1463074434
 30
0.0
 10
105.2960658191
 20
-44.5750358074
 30
0.0
 10
104.2914927852
 20
-45.0490997629
 30
0.0
 10
102.9565808505
 20
-45.4557260513
 30
0.0
 10
101.2906944517
 20
-45.6234575272
 30
0.0
 10
99.6210705108
 20
-45.4651973483
 30
0.0
 10
98.2784277595
 20
-45.0641290261
 30
0.0
 10
97.2659986426
 20
-44.5915228056
 30
0.0
 10
96.5430122975
 20
-44.1629017801
 30
0.0
 10
95.8648300699
 20
-43.6645476173
 30
0.0
 10
95.0287931738
 20
-42.9148192252
 30
0.0
 10
94.3074944424
 20
-42.0429594539
 30
0.0
 10
93.7254121553
 20
-41.0799239691
 30
0.0
 10
93.3616133473
 20
-40.3161978002
 30
0.0
 10
93.0742950227
 20
-39.5200888467
 30
0.0
 10
92.8674041245
 20
-38.698933613
 30
0.0
 10
92.7418165617
 20
-37.8612805194
 30
0.0
 10
92.7140484214
 20
-37.2969760377
 30
0.0
 10
92.7140479118
 20
-37.0149999775
 30
0.0
  0
SPLINE
  5
463
100
AcDbEntity
  8
RACCORDO
100
AcDbSpline
 62
250
  6
CONTINUOUS
 70
0
 71
3
 72
9
 73
5
 74
0
 42
0.0000001
 43
0.0000001
 44
0.0000000001
 40
0.0
 40
0.0
 40
0.0
 40
0.0
 40
0.2720028676
 40
1.0
 40
1.0
 40
1.0
 40
1.0
 10
42.318551852
 20
-45.9852362179
 30
0.0
 10
42.3181301414
 20
-45.9793760061
 30
0.0
 10
42.3163612004
 20
-45.9578498559
 30
0.0
 10
42.3137659368
 20
-45.9363751768
 30
0.0
 10
42.3110864228
 20
-45.920880135
 30
0.0
  0
SPLINE
  5
464
100
AcDbEntity
  8
RACCORDO
100
AcDbSpline
 62
250
  6
CONTINUOUS
 70
0
 71
3
 72
10
 73
6
 74
0
 42
0.0000001
 43
0.0000001
 44
0.0000000001
 40
0.0
 40
0.0
 40
0.0
 40
0.0
 40
0.6748848212
 40
0.8776141348
 40
1.0
 40
1.0
 40
1.0
 40
1.0
 10
42.3110864228
 20
-45.920880135
 30
0.0
 10
42.3085282453
 20
-45.9060867563
 30
0.0
 10
42.3044040884
 20
-45.8866052545
 30
0.0
 10
42.2952618525
 20
-45.8665914083
 30
0.0
 10
42.2892947521
 20
-45.8611597848
 30
0.0
 10
42.2865918009
 20
-45.860834145
 30
0.0
  0
SPLINE
  5
465
100
AcDbEntity
  8
RACCORDO
100
AcDbSpline
 62
250
  6
CONTINUOUS
 70
0
 71
3
 72
9
 73
5
 74
0
 42
0.0000001
 43
0.0000001
 44
0.0000000001
 40
0.0
 40
0.0
 40
0.0
 40
0.0
 40
0.2720027708
 40
1.0
 40
1.0
 40
1.0
 40
1.0
 10
42.3185518462
 20
-28.0447640702
 30
0.0
 10
42.3181301351
 20
-28.0506243091
 30
0.0
 10
42.3163611911
 20
-28.0721505669
 30
0.0
 10
42.313765923
 20
-28.0936253535
 30
0.0
 10
42.3110864064
 20
-28.1091204763
 30
0.0
  0
SPLINE
  5
466
100
AcDbEntity
  8
RACCORDO
100
AcDbSpline
 62
250
  6
CONTINUOUS
 70
0
 71
3
 72
10
 73
6
 74
0
 42
0.0000001
 43
0.0000001
 44
0.0000000001
 40
0.0
 40
0.0
 40
0.0
 40
0.0
 40
0.6748853355
 40
0.8776146452
 40
1.0
 40
1.0
 40
1.0
 40
1.0
 10
42.3110864064
 20
-28.1091204763
 30
0.0
 10
42.3085282255
 20
-28.123913938
 30
0.0
 10
42.304404062
 20
-28.1433955509
 30
0.0
 10
42.2952618448
 20
-28.1634095019
 30
0.0
 10
42.2892947566
 20
-28.1688411848
 30
0.0
 10
42.2865918046
 20
-28.1691668303
 30
0.0
  0
SPLINE
  5
467
100
AcDbEntity
  8
RACCORDO
100
AcDbSpline
 62
250
  6
CONTINUOUS
 70
0
 71
3
 72
9
 73
5
 74
0
 42
0.0000001
 43
0.0000001
 44
0.0000000001
 40
0.0
 40
0.0
 40
0.0
 40
0.0
 40
0.2720028676
 40
1.0
 40
1.0
 40
1.0
 40
1.0
 10
101.2546003889
 20
-28.0447637821
 30
0.0
 10
101.2550220995
 20
-28.0506239939
 30
0.0
 10
101.2567910406
 20
-28.0721501441
 30
0.0
 10
101.2593863041
 20
-28.0936248232
 30
0.0
 10
101.2620658182
 20
-28.109119865
 30
0.0
  0
SPLINE
  5
468
100
AcDbEntity
  8
RACCORDO
100
AcDbSpline
 62
250
  6
CONTINUOUS
 70
0
 71
3
 72
10
 73
6
 74
0
 42
0.0000001
 43
0.0000001
 44
0.0000000001
 40
0.0
 40
0.0
 40
0.0
 40
0.0
 40
0.6748848212
 40
0.8776141348
 40
1.0
 40
1.0
 40
1.0
 40
1.0
 10
101.2620658182
 20
-28.109119865
 30
0.0
 10
101.2646239957
 20
-28.1239132437
 30
0.0
 10
101.2687481525
 20
-28.1433947455
 30
0.0
 10
101.2778903885
 20
-28.1634085917
 30
0.0
 10
101.2838574889
 20
-28.1688402152
 30
0.0
 10
101.2865604401
 20
-28.169165855
 30
0.0
  0
SPLINE
  5
469
100
AcDbEntity
  8
RACCORDO
100
AcDbSpline
 62
250
  6
CONTINUOUS
 70
0
 71
3
 72
9
 73
5
 74
0
 42
0.0000001
 43
0.0000001
 44
0.0000000001
 40
0.0
 40
0.0
 40
0.0
 40
0.0
 40
0.2720027708
 40
1.0
 40
1.0
 40
1.0
 40
1.0
 10
101.2546003947
 20
-45.9852359298
 30
0.0
 10
101.2550221059
 20
-45.9793756909
 30
0.0
 10
101.2567910498
 20
-45.9578494331
 30
0.0
 10
101.2593863179
 20
-45.9363746465
 30
0.0
 10
101.2620658346
 20
-45.9208795237
 30
0.0
  0
SPLINE
  5
46A
100
AcDbEntity
  8
RACCORDO
100
AcDbSpline
 62
250
  6
CONTINUOUS
 70
0
 71
3
 72
10
 73
6
 74
0
 42
0.0000001
 43
0.0000001
 44
0.0000000001
 40
0.0
 40
0.0
 40
0.0
 40
0.0
 40
0.6748853355
 40
0.8776146452
 40
1.0
 40
1.0
 40
1.0
 40
1.0
 10
101.2620658346
 20
-45.9208795237
 30
0.0
 10
101.2646240155
 20
-45.906086062
 30
0.0
 10
101.2687481789
 20
-45.8866044491
 30
0.0
 10
101.2778903961
 20
-45.8665904981
 30
0.0
 10
101.2838574844
 20
-45.8611588152
 30
0.0
 10
101.2865604364
 20
-45.8608331697
 30
0.0
  0
SPLINE
  5
46B
100
AcDbEntity
  8
RACCORDO
100
AcDbSpline
 62
250
  6
CONTINUOUS
 70
0
 71
3
 72
34
 73
30
 74
0
 42
0.0000001
 43
0.0000001
 44
0.0000000001
 40
0.0
 40
0.0
 40
0.0
 40
0.0
 40
0.0315078933
 40
0.0630105578
 40
0.0945026796
 40
0.1259798508
 40
0.1574373664
 40
0.188870151
 40
0.2515716181
 40
0.2829081055
 40
0.3142058393
 40
0.3454624161
 40
0.3766769934
 40
0.4389023465
 40
0.5009600256
 40
0.5628987963
 40
0.5938862928
 40
0.6248801304
 40
0.6558917668
 40
0.6869317886
 40
0.7180096061
 40
0.7491336404
 40
0.8114763479
 40
0.8427769887
 40
0.8741381481
 40
0.9055527058
 40
0.9370103651
 40
0.9684976386
 40
1.0
 40
1.0
 40
1.0
 40
1.0
 10
92.8104631663
 20
-37.0149999777
 30
0.0
 10
92.8104635837
 20
-36.7365872331
 30
0.0
 10
92.837873844
 20
-36.1793992543
 30
0.0
 10
92.9617766064
 20
-35.3522886887
 30
0.0
 10
93.1659476728
 20
-34.5414356484
 30
0.0
 10
93.4495063902
 20
-33.7552985145
 30
0.0
 10
93.8084903946
 20
-33.0010724383
 30
0.0
 10
94.3830490962
 20
-32.0500345749
 30
0.0
 10
95.0949709353
 20
-31.1888912806
 30
0.0
 10
95.9203361151
 20
-30.4483926173
 30
0.0
 10
96.5899032749
 20
-29.9561635494
 30
0.0
 10
97.3036604082
 20
-29.5326137905
 30
0.0
 10
98.303430999
 20
-29.065980482
 30
0.0
 10
99.6291162777
 20
-28.6697692266
 30
0.0
 10
101.2772953123
 20
-28.5135403782
 30
0.0
 10
102.6493014895
 20
-28.6522199789
 30
0.0
 10
103.7124768857
 20
-28.9201692271
 30
0.0
 10
104.4872006626
 20
-29.1980637533
 30
0.0
 10
105.2318996842
 20
-29.5495297663
 30
0.0
 10
105.9390090163
 20
-29.9730415493
 30
0.0
 10
106.6023312099
 20
-30.4640438307
 30
0.0
 10
107.4206208798
 20
-31.2019105795
 30
0.0
 10
108.1270023593
 20
-32.0593827752
 30
0.0
 10
108.6980689731
 20
-33.0064407666
 30
0.0
 10
109.0556189198
 20
-33.7584880596
 30
0.0
 10
109.3383409981
 20
-34.543103861
 30
0.0
 10
109.5421742314
 20
-35.3530080551
 30
0.0
 10
109.6660445561
 20
-36.1796294484
 30
0.0
 10
109.6933851513
 20
-36.7366361252
 30
0.0
 10
109.6933851884
 20
-37.014999988
 30
0.0
  0
SPLINE
  5
46C
100
AcDbEntity
  8
RACCORDO
100
AcDbSpline
 62
250
  6
CONTINUOUS
 70
0
 71
3
 72
29
 73
25
 74
0
 42
0.0000001
 43
0.0000001
 44
0.0000000001
 40
0.0
 40
0.0
 40
0.0
 40
0.0
 40
0.0629362118
 40
0.0944094855
 40
0.1258431256
 40
0.1884762309
 40
0.2508772871
 40
0.2820323944
 40
0.3131391013
 40
0.344205161
 40
0.3752437115
 40
0.4372017726
 40
0.4991734265
 40
0.5612357815
 40
0.6234449973
 40
0.6546490762
 40
0.6858998119
 40
0.7171932406
 40
0.7485276195
 40
0.8112362296
 40
0.8740668779
 40
0.9055537566
 40
0.9370541368
 40
1.0
 40
1.0
 40
1.0
 40
1.0
 10
108.7648831099
 20
-37.0149999999
 30
0.0
 10
108.7648827864
 20
-36.5227511295
 30
0.0
 10
108.6912546749
 20
-35.7816266733
 30
0.0
 10
108.4496759643
 20
-34.8262820951
 30
0.0
 10
108.1159765017
 20
-33.9012746865
 30
0.0
 10
107.5316566203
 20
-32.8164377704
 30
0.0
 10
106.747907794
 20
-31.8684674672
 30
0.0
 10
106.0222741795
 20
-31.2152533108
 30
0.0
 10
105.4339051831
 20
-30.781207456
 30
0.0
 10
104.80680528
 20
-30.4070413772
 30
0.0
 10
103.9279503061
 20
-29.9927560202
 30
0.0
 10
102.7601785912
 20
-29.6382224445
 30
0.0
 10
101.3037047582
 20
-29.492217285
 30
0.0
 10
99.8444863566
 20
-29.630745493
 30
0.0
 10
98.6711745223
 20
-29.9810153318
 30
0.0
 10
97.7864307576
 20
-30.3938747027
 30
0.0
 10
97.1544729636
 20
-30.7681264975
 30
0.0
 10
96.5614158654
 20
-31.2031088465
 30
0.0
 10
95.8305611742
 20
-31.8584314259
 30
0.0
 10
95.042127683
 20
-32.809632861
 30
0.0
 10
94.4553052677
 20
-33.898176923
 30
0.0
 10
94.1208272466
 20
-34.8252199317
 30
0.0
 10
93.8791428388
 20
-35.7812668551
 30
0.0
 10
93.805506558
 20
-36.5226756328
 30
0.0
 10
93.8055064606
 20
-37.01499999
 30
0.0
  0
SPLINE
  5
46D
100
AcDbEntity
  8
RACCORDO
100
AcDbSpline
 62
250
  6
CONTINUOUS
 70
0
 71
3
 72
27
 73
23
 74
0
 42
0.0000001
 43
0.0000001
 44
0.0000000001
 40
0.0
 40
0.0
 40
0.0
 40
0.0
 40
0.0629867524
 40
0.0945051419
 40
0.1260079734
 40
0.1888648139
 40
0.2515950164
 40
0.282937553
 40
0.3142380414
 40
0.3766238814
 40
0.4388312463
 40
0.5008837266
 40
0.5628412858
 40
0.6247828259
 40
0.6868004501
 40
0.717902141
 40
0.7490550355
 40
0.8114594248
 40
0.8741076305
 40
0.9055506932
 40
0.9370351251
 40
1.0
 40
1.0
 40
1.0
 40
1.0
 10
93.8842651623
 20
-37.015
 30
0.0
 10
93.8842656665
 20
-37.5011835391
 30
0.0
 10
93.9569285954
 20
-38.2333216272
 30
0.0
 10
94.1954113001
 20
-39.1774339106
 30
0.0
 10
94.5254229118
 20
-40.0928393188
 30
0.0
 10
95.1044315106
 20
-41.1677372102
 30
0.0
 10
95.8824160289
 20
-42.1070736748
 30
0.0
 10
96.603668611
 20
-42.754342218
 30
0.0
 10
97.3826906056
 20
-43.3262515348
 30
0.0
 10
98.4540488493
 20
-43.8923356188
 30
0.0
 10
99.8431874274
 20
-44.3069783103
 30
0.0
 10
101.2832564497
 20
-44.4439115933
 30
0.0
 10
102.7204791782
 20
-44.2993858822
 30
0.0
 10
104.1020977178
 20
-43.8796755941
 30
0.0
 10
105.1654693083
 20
-43.3125663623
 30
0.0
 10
105.9380794401
 20
-42.7418418829
 30
0.0
 10
106.653697588
 20
-42.0965895491
 30
0.0
 10
107.4265944765
 20
-41.1604647962
 30
0.0
 10
108.0026497765
 20
-40.0892828855
 30
0.0
 10
108.3316181072
 20
-39.1759912405
 30
0.0
 10
108.5697655917
 20
-38.2327190315
 30
0.0
 10
108.6423594279
 20
-37.5010146706
 30
0.0
 10
108.6423595646
 20
-37.015
 30
0.0
  0
SPLINE
  5
46E
100
AcDbEntity
  8
RACCORDO
100
AcDbSpline
 62
250
  6
CONTINUOUS
 70
0
 71
3
 72
27
 73
23
 74
0
 42
0.0000001
 43
0.0000001
 44
0.0000000001
 40
0.0
 40
0.0
 40
0.0
 40
0.0
 40
0.0629677059
 40
0.094454784
 40
0.1259001249
 40
0.1885489149
 40
0.2509538868
 40
0.2821067211
 40
0.3132091972
 40
0.3752264851
 40
0.4371683414
 40
0.4991255166
 40
0.5611787148
 40
0.6233863638
 40
0.6857731662
 40
0.7170731807
 40
0.7484161127
 40
0.8111465455
 40
0.8740043501
 40
0.9055061254
 40
0.9370220234
 40
1.0
 40
1.0
 40
1.0
 40
1.0
 10
108.6423595646
 20
-37.015
 30
0.0
 10
108.6423593833
 20
-36.528963472
 30
0.0
 10
108.5697574497
 20
-35.797216593
 30
0.0
 10
108.3315839811
 20
-34.8538888683
 30
0.0
 10
108.0025810301
 20
-33.9405641676
 30
0.0
 10
107.426487109
 20
-32.8693725542
 30
0.0
 10
106.653558365
 20
-31.9332625434
 30
0.0
 10
105.9379146714
 20
-31.2880235548
 30
0.0
 10
105.165285944
 20
-30.7173189581
 30
0.0
 10
104.1018916607
 20
-30.1502398864
 30
0.0
 10
102.7202639252
 20
-29.7305704089
 30
0.0
 10
101.283031853
 20
-29.5860873886
 30
0.0
 10
99.8429620447
 20
-29.7230651476
 30
0.0
 10
98.4538217995
 20
-30.1377559141
 30
0.0
 10
97.3824774137
 20
-30.7038797878
 30
0.0
 10
96.6034695368
 20
-31.2758197146
 30
0.0
 10
95.8822378707
 20
-31.923113515
 30
0.0
 10
95.1042800672
 20
-32.8624879801
 30
0.0
 10
94.525308464
 20
-33.9374075142
 30
0.0
 10
94.1953397477
 20
-34.8528070397
 30
0.0
 10
93.9569086751
 20
-35.7968339504
 30
0.0
 10
93.8842652273
 20
-36.5288841939
 30
0.0
 10
93.8842651623
 20
-37.015
 30
0.0
  0
SPLINE
  5
46F
100
AcDbEntity
  8
RACCORDO
100
AcDbSpline
 62
250
  6
CONTINUOUS
 70
0
 71
3
 72
33
 73
29
 74
0
 42
0.0000001
 43
0.0000001
 44
0.0000000001
 40
0.0
 40
0.0
 40
0.0
 40
0.0
 40
0.0315094245
 40
0.0630019165
 40
0.094462736
 40
0.1258796482
 40
0.1572426923
 40
0.1885454085
 40
0.2508946721
 40
0.2820229874
 40
0.3131050434
 40
0.3441472185
 40
0.3751597309
 40
0.4370710529
 40
0.4990206749
 40
0.5610892448
 40
0.6233104267
 40
0.6545224575
 40
0.6857773269
 40
0.7170747836
 40
0.7484113695
 40
0.811114763
 40
0.8425493945
 40
0.8740091397
 40
0.9054883028
 40
0.9369828872
 40
0.9684878944
 40
1.0
 40
1.0
 40
1.0
 40
1.0
 10
109.6933851884
 20
-37.014999988
 30
0.0
 10
109.6933853471
 20
-37.2934057362
 30
0.0
 10
109.6660293331
 20
-37.8504795384
 30
0.0
 10
109.5421419235
 20
-38.6771741713
 30
0.0
 10
109.3382771847
 20
-39.4871054737
 30
0.0
 10
109.055529057
 20
-40.2717158688
 30
0.0
 10
108.6979691027
 20
-41.0237517184
 30
0.0
 10
108.1268719306
 20
-41.9708075181
 30
0.0
 10
107.4204221107
 20
-42.8282565069
 30
0.0
 10
106.6021113869
 20
-43.5661888173
 30
0.0
 10
105.9387039486
 20
-44.057108909
 30
0.0
 10
105.2315451511
 20
-44.4806487255
 30
0.0
 10
104.2397369663
 20
-44.9488220342
 30
0.0
 10
102.9218317168
 20
-45.3506237068
 30
0.0
 10
101.2770496485
 20
-45.5163520052
 30
0.0
 10
99.628575861
 20
-45.3601061833
 30
0.0
 10
98.3029932801
 20
-44.963936937
 30
0.0
 10
97.3034535765
 20
-44.4971710553
 30
0.0
 10
96.5897191365
 20
-44.0737879919
 30
0.0
 10
95.9202690043
 20
-43.5815237521
 30
0.0
 10
95.0949405714
 20
-42.8410901768
 30
0.0
 10
94.3830578503
 20
-41.9799721051
 30
0.0
 10
93.8085129751
 20
-41.0289608167
 30
0.0
 10
93.4495245458
 20
-40.2747456667
 30
0.0
 10
93.1659585674
 20
-39.4886131793
 30
0.0
 10
92.9617955275
 20
-38.677760192
 30
0.0
 10
92.8378658763
 20
-37.8506352735
 30
0.0
 10
92.8104635924
 20
-37.2934294157
 30
0.0
 10
92.8104631663
 20
-37.0149999777
 30
0.0
  0
SPLINE
  5
470
100
AcDbEntity
  8
RACCORDO
100
AcDbSpline
 62
250
  6
CONTINUOUS
 70
0
 71
3
 72
29
 73
25
 74
0
 42
0.0000001
 43
0.0000001
 44
0.0000000001
 40
0.0
 40
0.0
 40
0.0
 40
0.0
 40
0.0629546422
 40
0.0944575232
 40
0.125945466
 40
0.1887751374
 40
0.2514835157
 40
0.2828174852
 40
0.3141113852
 40
0.3453614571
 40
0.3765652301
 40
0.4387741822
 40
0.5008358178
 40
0.5628078567
 40
0.6247656065
 40
0.6558041329
 40
0.6868705375
 40
0.7179764557
 40
0.7491316076
 40
0.8115320918
 40
0.874164616
 40
0.9055959887
 40
0.9370666152
 40
1.0
 40
1.0
 40
1.0
 40
1.0
 10
93.8055064606
 20
-37.01499999
 30
0.0
 10
93.8055072072
 20
-37.5073932401
 30
0.0
 10
93.8791635434
 20
-38.2488913495
 30
0.0
 10
94.1208992238
 20
-39.205025724
 30
0.0
 10
94.4554222244
 20
-40.1320747184
 30
0.0
 10
95.0422827437
 20
-41.220596965
 30
0.0
 10
95.8307435516
 20
-42.171760189
 30
0.0
 10
96.5616200557
 20
-42.8270569763
 30
0.0
 10
97.1546885776
 20
-43.2620163884
 30
0.0
 10
97.7866553663
 20
-43.6362459222
 30
0.0
 10
98.6714045369
 20
-44.0490718743
 30
0.0
 10
99.8447174519
 20
-44.399304093
 30
0.0
 10
101.3039356573
 20
-44.5377889035
 30
0.0
 10
102.7604013542
 20
-44.3917443117
 30
0.0
 10
103.9281631541
 20
-44.0371747321
 30
0.0
 10
104.8070064629
 20
-43.6228633197
 30
0.0
 10
105.4340913645
 20
-43.2486785739
 30
0.0
 10
106.0224461194
 20
-42.8146183066
 30
0.0
 10
106.7480532055
 20
-42.1613891406
 30
0.0
 10
107.5317670114
 20
-41.213400925
 30
0.0
 10
108.1160468705
 20
-40.1285725577
 30
0.0
 10
108.4497098827
 20
-39.2035975359
 30
0.0
 10
108.6912624514
 20
-38.2483087181
 30
0.0
 10
108.76488284
 20
-37.5072269874
 30
0.0
 10
108.7648831099
 20
-37.0149999999
 30
0.0
  0
SPLINE
  5
471
100
AcDbEntity
  8
RACCORDO
100
AcDbSpline
 62
250
  6
CONTINUOUS
 70
0
 71
3
 72
9
 73
5
 74
0
 42
0.0000001
 43
0.0000001
 44
0.0000000001
 40
0.0
 40
0.0
 40
0.0
 40
0.0
 40
0.2395063222
 40
1.0
 40
1.0
 40
1.0
 40
1.0
 10
93.3043275807
 20
36.5817247913
 30
0.0
 10
93.3028910634
 20
36.5580673107
 30
0.0
 10
93.2977678185
 20
36.4592392466
 30
0.0
 10
93.2957653097
 20
36.360256894
 30
0.0
 10
93.2957653097
 20
36.285
 30
0.0
  0
SPLINE
  5
472
100
AcDbEntity
  8
RACCORDO
100
AcDbSpline
 62
250
  6
CONTINUOUS
 70
0
 71
3
 72
9
 73
5
 74
0
 42
0.0000001
 43
0.0000001
 44
0.0000000001
 40
0.0
 40
0.0
 40
0.0
 40
0.0
 40
0.2395094214
 40
1.0
 40
1.0
 40
1.0
 40
1.0
 10
50.2688271146
 20
36.5816843852
 30
0.0
 10
50.2702632164
 20
36.5580298092
 30
0.0
 10
50.2753849559
 20
36.4592151776
 30
0.0
 10
50.2773869316
 20
36.3602463278
 30
0.0
 10
50.2773869313
 20
36.285
 30
0.0
  0
SPLINE
  5
473
100
AcDbEntity
  8
RACCORDO
100
AcDbSpline
 62
250
  6
CONTINUOUS
 70
0
 71
3
 72
15
 73
11
 74
0
 42
0.0000001
 43
0.0000001
 44
0.0000000001
 40
0.0
 40
0.0
 40
0.0
 40
0.0
 40
0.1249958893
 40
0.2502784487
 40
0.3757066707
 40
0.5010821739
 40
0.6262275201
 40
0.7510549539
 40
0.8755981716
 40
1.0
 40
1.0
 40
1.0
 40
1.0
 10
94.0435102396
 20
34.381170513
 30
0.0
 10
94.1229744832
 20
34.4557213767
 30
0.0
 10
94.2605376475
 20
34.629981569
 30
0.0
 10
94.3804225237
 20
34.9397787604
 30
0.0
 10
94.4042581428
 20
35.2716973004
 30
0.0
 10
94.3295873633
 20
35.5958070672
 30
0.0
 10
94.1633086031
 20
35.8832556159
 30
0.0
 10
93.920304724
 20
36.1085969351
 30
0.0
 10
93.6226049934
 20
36.2521478022
 30
0.0
 10
93.4042079899
 20
36.2849960897
 30
0.0
 10
93.2957653097
 20
36.285
 30
0.0
  0
SPLINE
  5
474
100
AcDbEntity
  8
RACCORDO
100
AcDbSpline
 62
250
  6
CONTINUOUS
 70
0
 71
3
 72
15
 73
11
 74
0
 42
0.0000001
 43
0.0000001
 44
0.0000000001
 40
0.0
 40
0.0
 40
0.0
 40
0.0
 40
0.1243978437
 40
0.2489399026
 40
0.3737682021
 40
0.4989144653
 40
0.6242910309
 40
0.7497201783
 40
0.8750034788
 40
1.0
 40
1.0
 40
1.0
 40
1.0
 10
50.2773869313
 20
36.285
 30
0.0
 10
50.1689066841
 20
36.284996287
 30
0.0
 10
49.9504305395
 20
36.2521244911
 30
0.0
 10
49.6526415304
 20
36.1084713235
 30
0.0
 10
49.4096042502
 20
35.882975321
 30
0.0
 10
49.2433698638
 20
35.5953486705
 30
0.0
 10
49.1688326563
 20
35.2710722538
 30
0.0
 10
49.1928838217
 20
34.9390368649
 30
0.0
 10
49.3130427615
 20
34.6292047644
 30
0.0
 10
49.4508097711
 20
34.4549931694
 30
0.0
 10
49.5303720893
 20
34.3804858328
 30
0.0
  0
LINE
  5
475
100
AcDbEntity
  8
ASSI
100
AcDbLine
 62
250
  6
CONTINUOUS
 10
65.5365761205
 20
-8.4934740492
 11
65.5589548309
 21
-8.4784162104
  0
LINE
  5
476
100
AcDbEntity
  8
ASSI
100
AcDbLine
 62
250
  6
CONTINUOUS
 10
65.2251697174
 20
-8.0304567423
 11
65.2469508049
 21
-8.0153842562
  0
LINE
  5
477
100
AcDbEntity
  8
ASSI
100
AcDbLine
 62
250
  6
CONTINUOUS
 10
78.3479825235
 20
-8.0304567423
 11
78.3262014361
 21
-8.0153842562
  0
LINE
  5
478
100
AcDbEntity
  8
ASSI
100
AcDbLine
 62
250
  6
CONTINUOUS
 10
78.0365761205
 20
-8.4934740492
 11
78.0141974101
 21
-8.4784162104
  0
SPLINE
  5
479
100
AcDbEntity
  8
RACCORDO
100
AcDbSpline
 62
250
  6
CONTINUOUS
 70
0
 71
3
 72
18
 73
14
 74
0
 42
0.0000001
 43
0.0000001
 44
0.0000000001
 40
0.0
 40
0.0
 40
0.0
 40
0.0
 40
0.2068929331
 40
0.3990504943
 40
0.5715210581
 40
0.7197235767
 40
0.8396159729
 40
0.8878635186
 40
0.9278308752
 40
0.9592266719
 40
0.9818221265
 40
0.9954475034
 40
1.0
 40
1.0
 40
1.0
 40
1.0
 10
117.7993512272
 20
81.7281481283
 30
0.0
 10
118.099989626
 20
81.6788519788
 30
0.0
 10
118.6797312391
 20
81.5830183749
 30
0.0
 10
119.5096923137
 20
81.4436891659
 30
0.0
 10
120.2541350327
 20
81.3169627334
 30
0.0
 10
120.8934559405
 20
81.2068154181
 30
0.0
 10
121.3523754495
 20
81.1269346438
 30
0.0
 10
121.6542271894
 20
81.0740988795
 30
0.0
 10
121.8276910732
 20
81.0435722039
 30
0.0
 10
121.9639696185
 20
81.0197007317
 30
0.0
 10
122.0619732811
 20
81.0020976651
 30
0.0
 10
122.1211799848
 20
80.9921727137
 30
0.0
 10
122.1474514165
 20
80.9869671337
 30
0.0
 10
122.1540883046
 20
80.986023577
 30
0.0
  0
SPLINE
  5
47A
100
AcDbEntity
  8
RACCORDO
100
AcDbSpline
 62
250
  6
CONTINUOUS
 70
0
 71
3
 72
39
 73
35
 74
0
 42
0.0000001
 43
0.0000001
 44
0.0000000001
 40
0.0
 40
0.0
 40
0.0
 40
0.0
 40
0.0014764128
 40
0.0040913311
 40
0.0078428257
 40
0.0127231201
 40
0.0187214995
 40
0.0258249425
 40
0.0432785127
 40
0.0649243099
 40
0.0905640682
 40
0.1199627074
 40
0.1528504595
 40
0.1889254082
 40
0.2278563911
 40
0.3128340394
 40
0.404670152
 40
0.4999994937
 40
0.5953288512
 40
0.6871650238
 40
0.7721427643
 40
0.8110737985
 40
0.847148802
 40
0.8800366216
 40
0.909435356
 40
0.9350752208
 40
0.9567210856
 40
0.9741747371
 40
0.9812782613
 40
0.9872767014
 40
0.992157089
 40
0.9959086392
 40
0.9985235797
 40
1.0
 40
1.0
 40
1.0
 40
1.0
 10
112.5805338612
 20
-86.0024237114
 30
0.0
 10
112.572097528
 20
-86.0043640503
 30
0.0
 10
112.5481361798
 20
-86.0067477498
 30
0.0
 10
112.5023412646
 20
-86.0102652779
 30
0.0
 10
112.4364492631
 20
-86.0135649627
 30
0.0
 10
112.350750026
 20
-86.0170328007
 30
0.0
 10
112.2453659142
 20
-86.0204376748
 30
0.0
 10
112.0662792117
 20
-86.0253025629
 30
0.0
 10
111.7954366649
 20
-86.0310034151
 30
0.0
 10
111.4159059475
 20
-86.0372718983
 30
0.0
 10
110.9663250853
 20
-86.0432330861
 30
0.0
 10
110.4508211484
 20
-86.0488298567
 30
0.0
 10
109.8741256848
 20
-86.0539959705
 30
0.0
 10
109.2415339051
 20
-86.0586805495
 30
0.0
 10
108.3035254219
 20
-86.064387073
 30
0.0
 10
107.0385683252
 20
-86.0698618335
 30
0.0
 10
105.4429261934
 20
-86.0738108959
 30
0.0
 10
103.7865849342
 20
-86.0751438355
 30
0.0
 10
102.1302433232
 20
-86.0738109207
 30
0.0
 10
100.5346002061
 20
-86.0698618912
 30
0.0
 10
99.2696419155
 20
-86.064387151
 30
0.0
 10
98.3316322691
 20
-86.0586806421
 30
0.0
 10
97.6990394717
 20
-86.0539960734
 30
0.0
 10
97.1223427335
 20
-86.0488299684
 30
0.0
 10
96.606837218
 20
-86.0432332099
 30
0.0
 10
96.1572547767
 20
-86.0372720232
 30
0.0
 10
95.7777225612
 20
-86.0310035571
 30
0.0
 10
95.5068786661
 20
-86.0253026784
 30
0.0
 10
95.3277906536
 20
-86.020437821
 30
0.0
 10
95.2224051644
 20
-86.0170328955
 30
0.0
 10
95.1367046987
 20
-86.0135650435
 30
0.0
 10
95.0708116949
 20
-86.0102653161
 30
0.0
 10
95.0250162804
 20
-86.0067477586
 30
0.0
 10
95.0010547577
 20
-86.0043640529
 30
0.0
 10
94.9926183798
 20
-86.0024237114
 30
0.0
  0
SPLINE
  5
47B
100
AcDbEntity
  8
RACCORDO
100
AcDbSpline
 62
250
  6
CONTINUOUS
 70
0
 71
3
 72
14
 73
10
 74
0
 42
0.0000001
 43
0.0000001
 44
0.0000000001
 40
0.0
 40
0.0
 40
0.0
 40
0.0
 40
0.0525318268
 40
0.0850724509
 40
0.1233244387
 40
0.2185643867
 40
0.3388988109
 40
0.6429401206
 40
1.0
 40
1.0
 40
1.0
 40
1.0
 10
117.7503547548
 20
82.2203239648
 30
0.0
 10
117.75924759
 20
82.2187330598
 30
0.0
 10
117.7725335526
 20
82.2101493632
 30
0.0
 10
117.7851892735
 20
82.1931534536
 30
0.0
 10
117.7983209139
 20
82.1676342708
 30
0.0
 10
117.81045291
 20
82.1253954897
 30
0.0
 10
117.8231708934
 20
82.0368167092
 30
0.0
 10
117.8224812102
 20
81.9018117977
 30
0.0
 10
117.8094445827
 20
81.788717508
 30
0.0
 10
117.7994228174
 20
81.7281364427
 30
0.0
  0
SPLINE
  5
47C
100
AcDbEntity
  8
RACCORDO
100
AcDbSpline
 62
250
  6
CONTINUOUS
 70
0
 71
3
 72
9
 73
5
 74
0
 42
0.0000001
 43
0.0000001
 44
0.0000000001
 40
0.0
 40
0.0
 40
0.0
 40
0.0
 40
0.1923446177
 40
1.0
 40
1.0
 40
1.0
 40
1.0
 10
71.7769935931
 20
86.7310626832
 30
0.0
 10
71.7775337998
 20
86.7053357656
 30
0.0
 10
71.7804414997
 20
86.5715841178
 30
0.0
 10
71.7831225351
 20
86.4378220525
 30
0.0
 10
71.7865761205
 20
86.3298260754
 30
0.0
  0
SPLINE
  5
47D
100
AcDbEntity
  8
RACCORDO
100
AcDbSpline
 62
250
  6
CONTINUOUS
 70
0
 71
3
 72
14
 73
10
 74
0
 42
0.0000001
 43
0.0000001
 44
0.0000000001
 40
0.0
 40
0.0
 40
0.0
 40
0.0
 40
0.1180184231
 40
0.1624845713
 40
0.2134696362
 40
0.3343252793
 40
0.4780740785
 40
0.6404770224
 40
1.0
 40
1.0
 40
1.0
 40
1.0
 10
25.8187843761
 20
82.2196061234
 30
0.0
 10
25.7989212788
 20
82.2160527525
 30
0.0
 10
25.7803276948
 20
82.1870565553
 30
0.0
 10
25.7687857069
 20
82.1534252937
 30
0.0
 10
25.7597167435
 20
82.1172615203
 30
0.0
 10
25.752630531
 20
82.0637772967
 30
0.0
 10
25.7496266264
 20
81.9907104606
 30
0.0
 10
25.7530812734
 20
81.8769026216
 30
0.0
 10
25.763649744
 20
81.7880579684
 30
0.0
 10
25.7737287266
 20
81.7274197554
 30
0.0
  0
SPLINE
  5
47E
100
AcDbEntity
  8
0
100
AcDbSpline
 62
7
  6
CONTINUOUS
 70
0
 71
3
 72
9
 73
5
 74
0
 42
0.0000001
 43
0.0000001
 44
0.0000000001
 40
0.0
 40
0.0
 40
0.0
 40
0.0
 40
0.214754448
 40
1.0
 40
1.0
 40
1.0
 40
1.0
 10
-50.8784324001
 20
-38.5149166919
 30
0.0
 10
-50.8812828046
 20
-38.5096175459
 30
0.0
 10
-50.8936928398
 20
-38.4844776597
 30
0.0
 10
-50.9032742146
 20
-38.458037133
 30
0.0
 10
-50.9100303433
 20
-38.4370986437
 30
0.0
  0
SPLINE
  5
47F
100
AcDbEntity
  8
RACCORDO
100
AcDbSpline
 62
250
  6
CONTINUOUS
 70
0
 71
3
 72
23
 73
19
 74
0
 42
0.0000001
 43
0.0000001
 44
0.0000000001
 40
0.0
 40
0.0
 40
0.0
 40
0.0
 40
0.1908540568
 40
0.3743099324
 40
0.5433438025
 40
0.6204428311
 40
0.6916433148
 40
0.7563089076
 40
0.8139056411
 40
0.8639718784
 40
0.906189853
 40
0.9403781157
 40
0.9544927745
 40
0.9666791562
 40
0.9770435362
 40
0.9857868468
 40
0.9932543872
 40
1.0
 40
1.0
 40
1.0
 40
1.0
 10
-49.8553137005
 20
-37.015
 30
0.0
 10
-49.8553203992
 20
-37.4666590619
 30
0.0
 10
-49.8669891526
 20
-38.3525217396
 30
0.0
 10
-49.9192280249
 20
-39.63744601
 30
0.0
 10
-49.9916526876
 20
-40.6517226789
 30
0.0
 10
-50.0672150637
 20
-41.3989356248
 30
0.0
 10
-50.129091825
 20
-41.8991572961
 30
0.0
 10
-50.1973297241
 20
-42.3519433815
 30
0.0
 10
-50.2711850736
 20
-42.7531021675
 30
0.0
 10
-50.3499443341
 20
-43.0991027805
 30
0.0
 10
-50.4327181244
 20
-43.3868857714
 30
0.0
 10
-50.5083095324
 20
-43.5878301231
 30
0.0
 10
-50.5723150686
 20
-43.7160229708
 30
0.0
 10
-50.6178473203
 20
-43.7900605273
 30
0.0
 10
-50.664035452
 20
-43.8482521176
 30
0.0
 10
-50.7110744584
 20
-43.8906045841
 30
0.0
 10
-50.7593934417
 20
-43.9168618538
 30
0.0
 10
-50.793289731
 20
-43.9228489411
 30
0.0
 10
-50.8092527622
 20
-43.9227145891
 30
0.0
  0
SPLINE
  5
480
100
AcDbEntity
  8
0
100
AcDbSpline
 62
7
  6
CONTINUOUS
 70
0
 71
3
 72
9
 73
5
 74
0
 42
0.0000001
 43
0.0000001
 44
0.0000000001
 40
0.0
 40
0.0
 40
0.0
 40
0.0
 40
0.2856203049
 40
1.0
 40
1.0
 40
1.0
 40
1.0
 10
-50.9100147332
 20
-35.5928525819
 30
0.0
 10
-50.9075577187
 20
-35.5852394989
 30
0.0
 10
-50.8985486604
 20
-35.5587337274
 30
0.0
 10
-50.8878976721
 20
-35.5326750243
 30
0.0
 10
-50.8784171151
 20
-35.515055083
 30
0.0
  0
SPLINE
  5
481
100
AcDbEntity
  8
RACCORDO
100
AcDbSpline
 62
250
  6
CONTINUOUS
 70
0
 71
3
 72
22
 73
18
 74
0
 42
0.0000001
 43
0.0000001
 44
0.0000000001
 40
0.0
 40
0.0
 40
0.0
 40
0.0
 40
0.1892083253
 40
0.371088984
 40
0.5387330273
 40
0.6152612063
 40
0.6860098346
 40
0.7503748993
 40
0.8078585665
 40
0.858040337
 40
0.9006494949
 40
0.9355651568
 40
0.962981274
 40
0.9741042103
 40
0.9837389648
 40
0.9922107832
 40
1.0
 40
1.0
 40
1.0
 40
1.0
 10
-52.7081012638
 20
-37.015
 30
0.0
 10
-52.7080871046
 20
-36.6435327588
 30
0.0
 10
-52.6960452828
 20
-35.9149171268
 30
0.0
 10
-52.6422437559
 20
-34.8584092573
 30
0.0
 10
-52.5681214912
 20
-34.0249589985
 30
0.0
 10
-52.4914078776
 20
-33.4114030955
 30
0.0
 10
-52.4288834566
 20
-33.0005644777
 30
0.0
 10
-52.3603013987
 20
-32.6286432459
 30
0.0
 10
-52.2864941366
 20
-32.298954085
 30
0.0
 10
-52.2082215652
 20
-32.0143670751
 30
0.0
 10
-52.1264515948
 20
-31.7770526802
 30
0.0
 10
-52.0419690312
 20
-31.5888809978
 30
0.0
 10
-51.9652808146
 20
-31.4655682568
 30
0.0
 10
-51.9009986537
 20
-31.3957842583
 30
0.0
 10
-51.8555339328
 20
-31.3602224453
 30
0.0
 10
-51.8093068536
 20
-31.3379334701
 30
0.0
 10
-51.7773326531
 20
-31.332327099
 30
0.0
 10
-51.7620430493
 20
-31.3320375927
 30
0.0
  0
SPLINE
  5
482
100
AcDbEntity
  8
RACCORDO
100
AcDbSpline
 62
250
  6
CONTINUOUS
 70
0
 71
3
 72
17
 73
13
 74
0
 42
0.0000001
 43
0.0000001
 44
0.0000000001
 40
0.0
 40
0.0
 40
0.0
 40
0.0
 40
0.0246195869
 40
0.051177127
 40
0.0813345371
 40
0.1162277376
 40
0.2026797478
 40
0.313455903
 40
0.4492302494
 40
0.6096041574
 40
0.7936667199
 40
1.0
 40
1.0
 40
1.0
 40
1.0
 10
-51.7620430493
 20
-31.3320375927
 30
0.0
 10
-51.7465718594
 20
-31.3317627873
 30
0.0
 10
-51.7141454375
 20
-31.3363036563
 30
0.0
 10
-51.6671423457
 20
-31.3577336718
 30
0.0
 10
-51.6211574121
 20
-31.3929980808
 30
0.0
 10
-51.5563368373
 20
-31.4632029256
 30
0.0
 10
-51.4796008704
 20
-31.5885647066
 30
0.0
 10
-51.3957952116
 20
-31.7806116157
 30
0.0
 10
-51.3152705508
 20
-32.0236765581
 30
0.0
 10
-51.2387640054
 20
-32.3157660376
 30
0.0
 10
-51.167191113
 20
-32.6545582095
 30
0.0
 10
-51.1254739827
 20
-32.8964054865
 30
0.0
 10
-51.1052980275
 20
-33.024508696
 30
0.0
  0
SPLINE
  5
483
100
AcDbEntity
  8
RACCORDO
100
AcDbSpline
 62
250
  6
CONTINUOUS
 70
0
 71
3
 72
23
 73
19
 74
0
 42
0.0000001
 43
0.0000001
 44
0.0000000001
 40
0.0
 40
0.0
 40
0.0
 40
0.0
 40
0.0067455828
 40
0.014213091
 40
0.0229563627
 40
0.0333206959
 40
0.0455069899
 40
0.0596215054
 40
0.0938095006
 40
0.1360271735
 40
0.1860930916
 40
0.2436894987
 40
0.3083546871
 40
0.3795547165
 40
0.4566531255
 40
0.6256857675
 40
0.809144357
 40
1.0
 40
1.0
 40
1.0
 40
1.0
 10
-50.8092527622
 20
-30.1072854109
 30
0.0
 10
-50.7932898022
 20
-30.107150947
 30
0.0
 10
-50.7593936149
 20
-30.1131377955
 30
0.0
 10
-50.7110747115
 20
-30.1393947278
 30
0.0
 10
-50.6640357853
 20
-30.1817468873
 30
0.0
 10
-50.6178479414
 20
-30.2399381928
 30
0.0
 10
-50.572315998
 20
-30.3139751599
 30
0.0
 10
-50.5083106236
 20
-30.4421667772
 30
0.0
 10
-50.4327196762
 20
-30.6431095194
 30
0.0
 10
-50.3499458159
 20
-30.9308903055
 30
0.0
 10
-50.2711866898
 20
-31.2768886794
 30
0.0
 10
-50.1973315217
 20
-31.6780449899
 30
0.0
 10
-50.1290936554
 20
-32.1308282673
 30
0.0
 10
-50.0672169057
 20
-32.6310464402
 30
0.0
 10
-49.9916545903
 20
-33.3782539585
 30
0.0
 10
-49.9192296874
 20
-34.3925327045
 30
0.0
 10
-49.866988767
 20
-35.6774642512
 30
0.0
 10
-49.855321004
 20
-36.5633371614
 30
0.0
 10
-49.8553137005
 20
-37.015
 30
0.0
  0
SPLINE
  5
484
100
AcDbEntity
  8
RACCORDO
100
AcDbSpline
 62
250
  6
CONTINUOUS
 70
0
 71
3
 72
22
 73
18
 74
0
 42
0.0000001
 43
0.0000001
 44
0.0000000001
 40
0.0
 40
0.0
 40
0.0
 40
0.0
 40
0.0077892121
 40
0.0162610382
 40
0.0258958211
 40
0.0370187816
 40
0.0644348475
 40
0.0993504198
 40
0.1419596203
 40
0.1921414959
 40
0.2496251995
 40
0.3139902504
 40
0.3847388714
 40
0.4612670842
 40
0.6289112691
 40
0.8107917239
 40
1.0
 40
1.0
 40
1.0
 40
1.0
 10
-51.7620430493
 20
-42.6979624073
 30
0.0
 10
-51.7773326464
 20
-42.6976730588
 30
0.0
 10
-51.8093069108
 20
-42.6920667594
 30
0.0
 10
-51.8555339208
 20
-42.6697774686
 30
0.0
 10
-51.9009985057
 20
-42.6342153065
 30
0.0
 10
-51.9652805046
 20
-42.5644311899
 30
0.0
 10
-52.0419691473
 20
-42.4411190416
 30
0.0
 10
-52.1264520858
 20
-42.252947689
 30
0.0
 10
-52.2082217213
 20
-42.0156330571
 30
0.0
 10
-52.2864939234
 20
-41.7310455836
 30
0.0
 10
-52.3603011402
 20
-41.4013561694
 30
0.0
 10
-52.4288832924
 20
-41.0294349348
 30
0.0
 10
-52.491407899
 20
-40.618596331
 30
0.0
 10
-52.5681213507
 20
-40.0050400751
 30
0.0
 10
-52.6422415249
 20
-39.1715897531
 30
0.0
 10
-52.6960469943
 20
-38.115082297
 30
0.0
 10
-52.7080854454
 20
-37.3864671355
 30
0.0
 10
-52.7081012638
 20
-37.015
 30
0.0
  0
SPLINE
  5
485
100
AcDbEntity
  8
RACCORDO
100
AcDbSpline
 62
250
  6
CONTINUOUS
 70
0
 71
3
 72
17
 73
13
 74
0
 42
0.0000001
 43
0.0000001
 44
0.0000000001
 40
0.0
 40
0.0
 40
0.0
 40
0.0
 40
0.2063331384
 40
0.3903953543
 40
0.5507685547
 40
0.6865426423
 40
0.7973191804
 40
0.8837718187
 40
0.9186650758
 40
0.9488225498
 40
0.9753802253
 40
1.0
 40
1.0
 40
1.0
 40
1.0
 10
-51.1053045515
 20
-41.0055328757
 30
0.0
 10
-51.1254805397
 20
-41.1336330535
 30
0.0
 10
-51.1671974191
 20
-41.3754744878
 30
0.0
 10
-51.2387696586
 20
-41.7142581246
 30
0.0
 10
-51.3152756278
 20
-42.0063399106
 30
0.0
 10
-51.3957992737
 20
-42.2493987941
 30
0.0
 10
-51.4796042426
 20
-42.4414413544
 30
0.0
 10
-51.5563391579
 20
-42.5668008034
 30
0.0
 10
-51.6211594295
 20
-42.6370036851
 30
0.0
 10
-51.667143836
 20
-42.6722669064
 30
0.0
 10
-51.7141462473
 20
-42.6936961627
 30
0.0
 10
-51.7465720844
 20
-42.6982370405
 30
0.0
 10
-51.7620430493
 20
-42.6979624073
 30
0.0
  0
SPLINE
  5
486
100
AcDbEntity
  8
RACCORDO
100
AcDbSpline
 62
250
  6
CONTINUOUS
 70
0
 71
3
 72
27
 73
23
 74
0
 42
0.0000001
 43
0.0000001
 44
0.0000000001
 40
0.0
 40
0.0
 40
0.0
 40
0.0
 40
0.0960753364
 40
0.1887659698
 40
0.2745273374
 40
0.350491354
 40
0.4141914152
 40
0.4638065007
 40
0.4984830477
 40
0.5105687952
 40
0.5199322684
 40
0.5281856281
 40
0.537549562
 40
0.5496359819
 40
0.5651599068
 40
0.5843814447
 40
0.6073636375
 40
0.664190358
 40
0.7343088973
 40
0.8155055782
 40
0.9051099426
 40
1.0
 40
1.0
 40
1.0
 40
1.0
 10
-51.3378175888
 20
-37.015
 30
0.0
 10
-51.3378208848
 20
-37.0568527863
 30
0.0
 10
-51.3391722797
 20
-37.1390911239
 30
0.0
 10
-51.3451676871
 20
-37.2585529272
 30
0.0
 10
-51.3548935591
 20
-37.3689945029
 30
0.0
 10
-51.3679125396
 20
-37.4663450042
 30
0.0
 10
-51.3836040376
 20
-37.5474298
 30
0.0
 10
-51.4013543448
 20
-37.6093534159
 30
0.0
 10
-51.4185746501
 20
-37.6482589839
 30
0.0
 10
-51.4344122715
 20
-37.6671091764
 30
0.0
 10
-51.44580896
 20
-37.674123636
 30
0.0
 10
-51.458200158
 20
-37.6741236577
 30
0.0
 10
-51.4695907446
 20
-37.6671019404
 30
0.0
 10
-51.4800569147
 20
-37.6547148244
 30
0.0
 10
-51.4902281209
 20
-37.6369407065
 30
0.0
 10
-51.5000803304
 20
-37.6137653562
 30
0.0
 10
-51.5136765513
 20
-37.5727877591
 30
0.0
 10
-51.5285305282
 20
-37.5090741374
 30
0.0
 10
-51.5429841381
 20
-37.419525992
 30
0.0
 10
-51.5544133478
 20
-37.3151588459
 30
0.0
 10
-51.5623294593
 20
-37.1996636444
 30
0.0
 10
-51.5649688181
 20
-37.1193179413
 30
0.0
 10
-51.5656591657
 20
-37.0779872567
 30
0.0
  0
SPLINE
  5
487
100
AcDbEntity
  8
RACCORDO
100
AcDbSpline
 62
250
  6
CONTINUOUS
 70
0
 71
3
 72
27
 73
23
 74
0
 42
0.0000001
 43
0.0000001
 44
0.0000000001
 40
0.0
 40
0.0
 40
0.0
 40
0.0
 40
0.0948902721
 40
0.1844942566
 40
0.265689844
 40
0.3358068645
 40
0.3926320325
 40
0.4156134382
 40
0.4348341651
 40
0.4503572996
 40
0.4624430688
 40
0.4718066168
 40
0.4800600286
 40
0.4894239572
 40
0.5015103597
 40
0.5361883521
 40
0.5858046956
 40
0.6495059373
 40
0.7254710712
 40
0.8112331333
 40
0.9039241532
 40
1.0
 40
1.0
 40
1.0
 40
1.0
 10
-51.5656587766
 20
-36.9519891761
 30
0.0
 10
-51.5649681764
 20
-36.9106591469
 30
0.0
 10
-51.5623283528
 20
-36.8303149808
 30
0.0
 10
-51.5544118137
 20
-36.7148224493
 30
0.0
 10
-51.5429822286
 20
-36.6104585523
 30
0.0
 10
-51.5285282448
 20
-36.5209139599
 30
0.0
 10
-51.5136741737
 20
-36.4572032886
 30
0.0
 10
-51.5000779361
 20
-36.41622796
 30
0.0
 10
-51.4902257614
 20
-36.3930542098
 30
0.0
 10
-51.4800545665
 20
-36.3752816325
 30
0.0
 10
-51.4695884204
 20
-36.3628958865
 30
0.0
 10
-51.4581976796
 20
-36.3558755464
 30
0.0
 10
-51.4458066634
 20
-36.3558771642
 30
0.0
 10
-51.4344103945
 20
-36.3628926378
 30
0.0
 10
-51.4185731345
 20
-36.3817439687
 30
0.0
 10
-51.4013531639
 20
-36.4206503661
 30
0.0
 10
-51.3836030717
 20
-36.4825746174
 30
0.0
 10
-51.3679119313
 20
-36.5636595349
 30
0.0
 10
-51.3548933193
 20
-36.6610096153
 30
0.0
 10
-51.345167542
 20
-36.7714501518
 30
0.0
 10
-51.3391722171
 20
-36.8909104983
 30
0.0
 10
-51.337820901
 20
-36.9731477453
 30
0.0
 10
-51.3378175888
 20
-37.015
 30
0.0
  0
SPLINE
  5
488
100
AcDbEntity
  8
RACCORDO
100
AcDbSpline
 62
7
  6
CONTINUOUS
 70
0
 71
3
 72
18
 73
14
 74
0
 42
0.0000001
 43
0.0000001
 44
0.0000000001
 40
0.0
 40
0.0
 40
0.0
 40
0.0
 40
0.0075446392
 40
0.0232901684
 40
0.0481064493
 40
0.0819232997
 40
0.1243389825
 40
0.1749475937
 40
0.2989031379
 40
0.4494451829
 40
0.6208576818
 40
0.8068243636
 40
1.0
 40
1.0
 40
1.0
 40
1.0
 10
-41.1874024728
 20
-85.915
 30
0.0
 10
-41.1861328795
 20
-85.915
 30
0.0
 10
-41.1833025157
 20
-85.9112169823
 30
0.0
 10
-41.180519358
 20
-85.9041696596
 30
0.0
 10
-41.1766198994
 20
-85.8919823345
 30
0.0
 10
-41.1725113987
 20
-85.8755910897
 30
0.0
 10
-41.1682223247
 20
-85.8546316457
 30
0.0
 10
-41.162563134
 20
-85.8185688775
 30
0.0
 10
-41.1567928694
 20
-85.7641303471
 30
0.0
 10
-41.1511571008
 20
-85.6893058787
 30
0.0
 10
-41.146974961
 20
-85.6039250234
 30
0.0
 10
-41.1444077532
 20
-85.5113100699
 30
0.0
 10
-41.143825563
 20
-85.4475071194
 30
0.0
 10
-41.1438246248
 20
-85.415
 30
0.0
  0
SPLINE
  5
489
100
AcDbEntity
  8
RACCORDO
100
AcDbSpline
 62
250
  6
CONTINUOUS
 70
0
 71
3
 72
11
 73
7
 74
0
 42
0.0000001
 43
0.0000001
 44
0.0000000001
 40
0.0
 40
0.0
 40
0.0
 40
0.0
 40
0.2456862923
 40
0.49389588
 40
0.745680381
 40
1.0
 40
1.0
 40
1.0
 40
1.0
 10
-47.0043267779
 20
-85.915
 30
0.0
 10
-47.067067706
 20
-85.915
 30
0.0
 10
-47.1946419906
 20
-85.888625211
 30
0.0
 10
-47.3547317905
 20
-85.776648679
 30
0.0
 10
-47.4612257069
 20
-85.6105315055
 30
0.0
 10
-47.4859794049
 20
-85.4799456215
 30
0.0
 10
-47.4859794049
 20
-85.415
 30
0.0
  0
SPLINE
  5
48A
100
AcDbEntity
  8
RACCORDO
100
AcDbSpline
 62
250
  6
CONTINUOUS
 70
0
 71
3
 72
16
 73
12
 74
0
 42
0.0000001
 43
0.0000001
 44
0.0000000001
 40
0.0
 40
0.0
 40
0.0
 40
0.0
 40
0.0933050007
 40
0.1796162727
 40
0.269248799
 40
0.371562295
 40
0.4296458206
 40
0.4930261955
 40
0.6370386089
 40
0.8057072208
 40
1.0
 40
1.0
 40
1.0
 40
1.0
 10
-50.4831817104
 20
-29.5755658047
 30
0.0
 10
-50.5095428681
 20
-29.5612202132
 30
0.0
 10
-50.5642808649
 20
-29.5395948045
 30
0.0
 10
-50.6528026757
 20
-29.5374332958
 30
0.0
 10
-50.7386063948
 20
-29.5684903808
 30
0.0
 10
-50.8035206883
 20
-29.6174298859
 30
0.0
 10
-50.8538196023
 20
-29.6689906987
 30
0.0
 10
-50.9077460765
 20
-29.7353457081
 30
0.0
 10
-50.9727289571
 20
-29.8378157803
 30
0.0
 10
-51.0450490812
 20
-29.9841795022
 30
0.0
 10
-51.0884478589
 20
-30.0926802234
 30
0.0
 10
-51.1100281277
 20
-30.1513307452
 30
0.0
  0
SPLINE
  5
48B
100
AcDbEntity
  8
RACCORDO
100
AcDbSpline
 62
250
  6
CONTINUOUS
 70
0
 71
3
 72
12
 73
8
 74
0
 42
0.0000001
 43
0.0000001
 44
0.0000000001
 40
0.0
 40
0.0
 40
0.0
 40
0.0
 40
0.089546715
 40
0.1835896714
 40
0.3990246895
 40
0.6678617376
 40
1.0
 40
1.0
 40
1.0
 40
1.0
 10
-50.461541716
 20
-29.6332574227
 30
0.0
 10
-50.4800178987
 20
-29.6341869921
 30
0.0
 10
-50.5178008539
 20
-29.6405865205
 30
0.0
 10
-50.5945435
 20
-29.6722314523
 30
0.0
 10
-50.6885197296
 20
-29.7496774019
 30
0.0
 10
-50.789173113
 20
-29.8859956799
 30
0.0
 10
-50.846842109
 20
-29.9964228993
 30
0.0
 10
-50.8756919117
 20
-30.058680061
 30
0.0
  0
SPLINE
  5
48C
100
AcDbEntity
  8
RACCORDO
100
AcDbSpline
 62
250
  6
CONTINUOUS
 70
0
 71
3
 72
22
 73
18
 74
0
 42
0.0000001
 43
0.0000001
 44
0.0000000001
 40
0.0
 40
0.0
 40
0.0
 40
0.0
 40
0.0497468755
 40
0.0907535284
 40
0.1243112132
 40
0.1528762199
 40
0.1665720252
 40
0.1805991731
 40
0.2116328711
 40
0.2493371119
 40
0.2954722928
 40
0.3508811836
 40
0.415896626
 40
0.4905710789
 40
0.5748356445
 40
0.7706522739
 40
1.0
 40
1.0
 40
1.0
 40
1.0
 10
-50.7695057221
 20
-45.0722414587
 30
0.0
 10
-50.8050180384
 20
-45.1300235824
 30
0.0
 10
-50.8748693953
 20
-45.232598032
 30
0.0
 10
-50.9906692687
 20
-45.3574898781
 30
0.0
 10
-51.1077285872
 20
-45.4383898471
 30
0.0
 10
-51.2103710514
 20
-45.4659698002
 30
0.0
 10
-51.2875080929
 20
-45.4606919372
 30
0.0
 10
-51.3650701048
 20
-45.4385504035
 30
0.0
 10
-51.4615172335
 20
-45.3755930313
 30
0.0
 10
-51.5657737564
 20
-45.2573394514
 30
0.0
 10
-51.6652437882
 20
-45.0948732389
 30
0.0
 10
-51.7601172207
 20
-44.8881712121
 30
0.0
 10
-51.8504198094
 20
-44.6377392616
 30
0.0
 10
-51.9359032898
 20
-44.3444625929
 30
0.0
 10
-52.0483507633
 20
-43.8739096754
 30
0.0
 10
-52.170253546
 20
-43.1896369396
 30
0.0
 10
-52.2435560077
 20
-42.6144833866
 30
0.0
 10
-52.2777452542
 20
-42.3036762604
 30
0.0
  0
SPLINE
  5
48D
100
AcDbEntity
  8
RACCORDO
100
AcDbSpline
 62
250
  6
CONTINUOUS
 70
0
 71
3
 72
12
 73
8
 74
0
 42
0.0000001
 43
0.0000001
 44
0.0000000001
 40
0.0
 40
0.0
 40
0.0
 40
0.0
 40
0.3306721148
 40
0.5990298093
 40
0.8150408022
 40
0.9097062512
 40
1.0
 40
1.0
 40
1.0
 40
1.0
 10
-50.868604838
 20
-43.9864459396
 30
0.0
 10
-50.8401611003
 20
-44.0465352614
 30
0.0
 10
-50.7832835611
 20
-44.1531623611
 30
0.0
 10
-50.6841863205
 20
-44.2846494992
 30
0.0
 10
-50.5919023949
 20
-44.3591814653
 30
0.0
 10
-50.5166780702
 20
-44.3896507833
 30
0.0
 10
-50.4796331494
 20
-44.395834279
 30
0.0
 10
-50.4615024694
 20
-44.3967439904
 30
0.0
  0
SPLINE
  5
48E
100
AcDbEntity
  8
RACCORDO
100
AcDbSpline
 62
250
  6
CONTINUOUS
 70
0
 71
3
 72
21
 73
17
 74
0
 42
0.0000001
 43
0.0000001
 44
0.0000000001
 40
0.0
 40
0.0
 40
0.0
 40
0.0
 40
0.0226177469
 40
0.0479462774
 40
0.0776542405
 40
0.1126904557
 40
0.1323928696
 40
0.1536103852
 40
0.2007001943
 40
0.2540903343
 40
0.3137650831
 40
0.3796300035
 40
0.4515837507
 40
0.613132386
 40
0.7966382174
 40
1.0
 40
1.0
 40
1.0
 40
1.0
 10
-51.0672989911
 20
-28.2033924389
 30
0.0
 10
-51.0360354691
 20
-28.2034153163
 30
0.0
 10
-50.9694148838
 20
-28.2155652996
 30
0.0
 10
-50.8736427419
 20
-28.2665952883
 30
0.0
 10
-50.7787667161
 20
-28.3482876887
 30
0.0
 10
-50.7029878384
 20
-28.4375289209
 30
0.0
 10
-50.6418446371
 20
-28.5229130474
 30
0.0
 10
-50.5760811172
 20
-28.6253160981
 30
0.0
 10
-50.4947946823
 20
-28.7728006334
 30
0.0
 10
-50.4009783734
 20
-28.9734413188
 30
0.0
 10
-50.3081531371
 20
-29.2027909081
 30
0.0
 10
-50.2167133865
 20
-29.4600823685
 30
0.0
 10
-50.0925232374
 20
-29.8548890275
 30
0.0
 10
-49.9464597431
 20
-30.4128377366
 30
0.0
 10
-49.7896858265
 20
-31.1547114734
 30
0.0
 10
-49.7004070951
 20
-31.6821145155
 30
0.0
 10
-49.6581853136
 20
-31.9600236775
 30
0.0
  0
SPLINE
  5
48F
100
AcDbEntity
  8
RACCORDO
100
AcDbSpline
 62
250
  6
CONTINUOUS
 70
0
 71
3
 72
9
 73
5
 74
0
 42
0.0000001
 43
0.0000001
 44
0.0000000001
 40
0.0
 40
0.0
 40
0.0
 40
0.0
 40
0.5018553445
 40
1.0
 40
1.0
 40
1.0
 40
1.0
 10
-49.3801994444
 20
-34.6061150729
 30
0.0
 10
-49.3244139472
 20
-35.479478966
 30
0.0
 10
-49.2760512416
 20
-37.2241450908
 30
0.0
 10
-49.343354412
 20
-38.9682160821
 30
0.0
 10
-49.4088042075
 20
-39.8344198772
 30
0.0
  0
SPLINE
  5
490
100
AcDbEntity
  8
RACCORDO
100
AcDbSpline
 62
250
  6
CONTINUOUS
 70
0
 71
3
 72
9
 73
5
 74
0
 42
0.0000001
 43
0.0000001
 44
0.0000000001
 40
0.0
 40
0.0
 40
0.0
 40
0.0
 40
0.261328214
 40
1.0
 40
1.0
 40
1.0
 40
1.0
 10
-49.4175137593
 20
-39.9472262039
 30
0.0
 10
-49.4312770155
 20
-40.1217440668
 30
0.0
 10
-49.4890947897
 20
-40.7891285803
 30
0.0
 10
-49.5675789767
 20
-41.4548012283
 30
0.0
 10
-49.6394304961
 20
-41.9443816313
 30
0.0
  0
SPLINE
  5
491
100
AcDbEntity
  8
RACCORDO
100
AcDbSpline
 62
250
  6
CONTINUOUS
 70
0
 71
3
 72
19
 73
15
 74
0
 42
0.0000001
 43
0.0000001
 44
0.0000000001
 40
0.0
 40
0.0
 40
0.0
 40
0.0
 40
0.2033144614
 40
0.3869517509
 40
0.548741791
 40
0.686777029
 40
0.746543085
 40
0.8000010028
 40
0.8471210348
 40
0.888008858
 40
0.9229656124
 40
0.9525284884
 40
0.9776453207
 40
1.0
 40
1.0
 40
1.0
 40
1.0
 10
-49.6394304961
 20
-41.9443816313
 30
0.0
 10
-49.6814857643
 20
-42.230936952
 30
0.0
 10
-49.7707520575
 20
-42.7750323553
 30
0.0
 10
-49.928497278
 20
-43.5408996787
 30
0.0
 10
-50.0995369969
 20
-44.2083144457
 30
0.0
 10
-50.2569086052
 20
-44.6963397674
 30
0.0
 10
-50.3890830443
 20
-45.0290999741
 30
0.0
 10
-50.484460042
 20
-45.2367891568
 30
0.0
 10
-50.5805136034
 20
-45.4141540905
 30
0.0
 10
-50.6769184336
 20
-45.5607355552
 30
0.0
 10
-50.7733842854
 20
-45.6763553267
 30
0.0
 10
-50.8699555591
 20
-45.760987306
 30
0.0
 10
-50.9674732069
 20
-45.8139335606
 30
0.0
 10
-51.0354543768
 20
-45.8265843117
 30
0.0
 10
-51.0672989911
 20
-45.8266075611
 30
0.0
  0
SPLINE
  5
492
100
AcDbEntity
  8
RACCORDO
100
AcDbSpline
 62
250
  6
CONTINUOUS
 70
0
 71
3
 72
11
 73
7
 74
0
 42
0.0000001
 43
0.0000001
 44
0.0000000001
 40
0.0
 40
0.0
 40
0.0
 40
0.0
 40
0.2482038374
 40
0.4974839855
 40
0.748231433
 40
1.0
 40
1.0
 40
1.0
 40
1.0
 10
-51.0672989911
 20
-28.2033924395
 30
0.0
 10
-51.0925795071
 20
-28.2039389003
 30
0.0
 10
-51.1435803197
 20
-28.2152253793
 30
0.0
 10
-51.2075321959
 20
-28.2600870806
 30
0.0
 10
-51.2501085132
 20
-28.3259687958
 30
0.0
 10
-51.2600252839
 20
-28.3776975726
 30
0.0
 10
-51.2600254669
 20
-28.4033471604
 30
0.0
  0
SPLINE
  5
493
100
AcDbEntity
  8
RACCORDO
100
AcDbSpline
 62
250
  6
CONTINUOUS
 70
0
 71
3
 72
11
 73
7
 74
0
 42
0.0000001
 43
0.0000001
 44
0.0000000001
 40
0.0
 40
0.0
 40
0.0
 40
0.0
 40
0.2482038315
 40
0.4974839774
 40
0.7482314281
 40
1.0
 40
1.0
 40
1.0
 40
1.0
 10
-51.0672989912
 20
-45.8266075599
 30
0.0
 10
-51.0925795064
 20
-45.8260610991
 30
0.0
 10
-51.1435803177
 20
-45.8147746202
 30
0.0
 10
-51.2075321929
 20
-45.7699129194
 30
0.0
 10
-51.2501085108
 20
-45.7040312047
 30
0.0
 10
-51.2600252827
 20
-45.6523024277
 30
0.0
 10
-51.2600254663
 20
-45.6266528396
 30
0.0
  0
SPLINE
  5
494
100
AcDbEntity
  8
RACCORDO
100
AcDbSpline
 62
250
  6
CONTINUOUS
 70
0
 71
3
 72
13
 73
9
 74
0
 42
0.0000001
 43
0.0000001
 44
0.0000000001
 40
0.0
 40
0.0
 40
0.0
 40
0.0
 40
0.0863527908
 40
0.1783879399
 40
0.2799476939
 40
0.393787697
 40
0.6646403668
 40
1.0
 40
1.0
 40
1.0
 40
1.0
 10
-51.2600254669
 20
-28.4033471604
 30
0.0
 10
-51.2376511204
 20
-28.403352905
 30
0.0
 10
-51.1912724867
 20
-28.4091253517
 30
0.0
 10
-51.1227222861
 20
-28.4343498793
 30
0.0
 10
-51.0542235365
 20
-28.4757779023
 30
0.0
 10
-50.9572755527
 20
-28.5568161081
 30
0.0
 10
-50.8375499875
 20
-28.7016142458
 30
0.0
 10
-50.7560329254
 20
-28.8362444869
 30
0.0
 10
-50.7144684226
 20
-28.9125516633
 30
0.0
  0
SPLINE
  5
495
100
AcDbEntity
  8
RACCORDO
100
AcDbSpline
 62
250
  6
CONTINUOUS
 70
0
 71
3
 72
9
 73
5
 74
0
 42
0.0000001
 43
0.0000001
 44
0.0000000001
 40
0.0
 40
0.0
 40
0.0
 40
0.0
 40
0.4585260762
 40
1.0
 40
1.0
 40
1.0
 40
1.0
 10
-50.6828336593
 20
-28.9723045799
 30
0.0
 10
-50.6256223024
 20
-29.0834065442
 30
0.0
 10
-50.5149665189
 20
-29.3329686568
 30
0.0
 10
-50.4231433077
 20
-29.5897539124
 30
0.0
 10
-50.3771433164
 20
-29.7299752901
 30
0.0
  0
SPLINE
  5
496
100
AcDbEntity
  8
RACCORDO
100
AcDbSpline
 62
250
  6
CONTINUOUS
 70
0
 71
3
 72
11
 73
7
 74
0
 42
0.0000001
 43
0.0000001
 44
0.0000000001
 40
0.0
 40
0.0
 40
0.0
 40
0.0
 40
0.2030644477
 40
0.4411373352
 40
0.7089676957
 40
1.0
 40
1.0
 40
1.0
 40
1.0
 10
-50.3157204492
 20
-29.9250077044
 30
0.0
 10
-50.2269297597
 20
-30.2184575529
 30
0.0
 10
-50.0635373945
 20
-30.8648838695
 30
0.0
 10
-49.8645136277
 20
-31.9170694552
 30
0.0
 10
-49.7005006444
 20
-33.1095125386
 30
0.0
 10
-49.6220417104
 20
-33.9499160432
 30
0.0
 10
-49.5898369943
 20
-34.3881376441
 30
0.0
  0
LINE
  5
497
100
AcDbEntity
  8
RACCORDO
100
AcDbLine
 62
250
  6
CONTINUOUS
 10
-49.4950443743
 20
-37.0149289926
 11
-49.495055061
 21
-37.0431222858
  0
SPLINE
  5
498
100
AcDbEntity
  8
RACCORDO
100
AcDbSpline
 62
250
  6
CONTINUOUS
 70
0
 71
3
 72
11
 73
7
 74
0
 42
0.0000001
 43
0.0000001
 44
0.0000000001
 40
0.0
 40
0.0
 40
0.0
 40
0.0
 40
0.2903415347
 40
0.5572778448
 40
0.7952775524
 40
1.0
 40
1.0
 40
1.0
 40
1.0
 10
-49.6261157828
 20
-40.0930820596
 30
0.0
 10
-49.660623471
 20
-40.4876980002
 30
0.0
 10
-49.7410332635
 20
-41.2439730947
 30
0.0
 10
-49.9001359454
 20
-42.3176344733
 30
0.0
 10
-50.0879485218
 20
-43.2678245637
 30
0.0
 10
-50.2390607174
 20
-43.8532306628
 30
0.0
 10
-50.3204058968
 20
-44.1204319716
 30
0.0
  0
SPLINE
  5
499
100
AcDbEntity
  8
RACCORDO
100
AcDbSpline
 62
250
  6
CONTINUOUS
 70
0
 71
3
 72
9
 73
5
 74
0
 42
0.0000001
 43
0.0000001
 44
0.0000000001
 40
0.0
 40
0.0
 40
0.0
 40
0.0
 40
0.5364419604
 40
1.0
 40
1.0
 40
1.0
 40
1.0
 10
-50.4237995163
 20
-44.4379069919
 30
0.0
 10
-50.4637342736
 20
-44.5522758675
 30
0.0
 10
-50.5434373451
 20
-44.763696937
 30
0.0
 10
-50.637193277
 20
-44.9694544138
 30
0.0
 10
-50.6852803267
 20
-45.0624377207
 30
0.0
  0
SPLINE
  5
49A
100
AcDbEntity
  8
RACCORDO
100
AcDbSpline
 62
250
  6
CONTINUOUS
 70
0
 71
3
 72
13
 73
9
 74
0
 42
0.0000001
 43
0.0000001
 44
0.0000000001
 40
0.0
 40
0.0
 40
0.0
 40
0.0
 40
0.3353029978
 40
0.6061374715
 40
0.7199818533
 40
0.8215611472
 40
0.9136201978
 40
1.0
 40
1.0
 40
1.0
 40
1.0
 10
-50.7148395492
 20
-45.11812873
 30
0.0
 10
-50.7563781039
 20
-45.194334795
 30
0.0
 10
-50.8378410598
 20
-45.3287915542
 30
0.0
 10
-50.9574829564
 20
-45.4733942023
 30
0.0
 10
-51.0543650183
 20
-45.5543159242
 30
0.0
 10
-51.1228145511
 20
-45.5956961184
 30
0.0
 10
-51.1913219971
 20
-45.6208772393
 30
0.0
 10
-51.2376664126
 20
-45.6266471572
 30
0.0
 10
-51.2600254669
 20
-45.6266528396
 30
0.0
  0
SPLINE
  5
49B
100
AcDbEntity
  8
RACCORDO
100
AcDbSpline
 62
250
  6
CONTINUOUS
 70
0
 71
3
 72
24
 73
20
 74
0
 42
0.0000001
 43
0.0000001
 44
0.0000000001
 40
0.0
 40
0.0
 40
0.0
 40
0.0
 40
0.2302688491
 40
0.4273862555
 40
0.5122503303
 40
0.587407324
 40
0.6526366176
 40
0.7079837202
 40
0.7537232076
 40
0.7906406695
 40
0.8205616955
 40
0.8339874053
 40
0.8471161526
 40
0.8748489085
 40
0.8906567753
 40
0.9082229546
 40
0.9277961929
 40
0.9495495475
 40
1.0
 40
1.0
 40
1.0
 40
1.0
 10
-52.3538828427
 20
-32.0335576267
 30
0.0
 10
-52.3200385178
 20
-31.6826933389
 30
0.0
 10
-52.2465252327
 20
-31.0324376867
 30
0.0
 10
-52.1214438444
 20
-30.2577837277
 30
0.0
 10
-52.004138997
 20
-29.7236616231
 30
0.0
 10
-51.9144724884
 20
-29.3905475039
 30
0.0
 10
-51.818981815
 20
-29.1062860006
 30
0.0
 10
-51.7182266754
 20
-28.8720653232
 30
0.0
 10
-51.6122307613
 20
-28.6884897474
 30
0.0
 10
-51.5007659701
 20
-28.5555432405
 30
0.0
 10
-51.3965222934
 20
-28.4852846341
 30
0.0
 10
-51.3125625804
 20
-28.4619067431
 30
0.0
 10
-51.2288372101
 20
-28.458119202
 30
0.0
 10
-51.1434607604
 20
-28.4851418787
 30
0.0
 10
-51.0640197031
 20
-28.5347616145
 30
0.0
 10
-51.0015421301
 20
-28.586797969
 30
0.0
 10
-50.9390516971
 20
-28.6519664339
 30
0.0
 10
-50.8512307707
 20
-28.7618100918
 30
0.0
 10
-50.7923050188
 20
-28.8557834495
 30
0.0
 10
-50.7541911415
 20
-28.9229522189
 30
0.0
  0
SPLINE
  5
49C
100
AcDbEntity
  8
RACCORDO
100
AcDbSpline
 62
250
  6
CONTINUOUS
 70
0
 71
3
 72
9
 73
5
 74
0
 42
0.0000001
 43
0.0000001
 44
0.0000000001
 40
0.0
 40
0.0
 40
0.0
 40
0.0
 40
0.463033612
 40
1.0
 40
1.0
 40
1.0
 40
1.0
 10
-50.7056301245
 20
-29.0124764194
 30
0.0
 10
-50.657894046
 20
-29.1043651974
 30
0.0
 10
-50.5646595466
 20
-29.3079534725
 30
0.0
 10
-50.4856594371
 20
-29.5173047925
 30
0.0
 10
-50.4460789479
 20
-29.6306762557
 30
0.0
  0
SPLINE
  5
49D
100
AcDbEntity
  8
RACCORDO
100
AcDbSpline
 62
250
  6
CONTINUOUS
 70
0
 71
3
 72
12
 73
8
 74
0
 42
0.0000001
 43
0.0000001
 44
0.0000000001
 40
0.0
 40
0.0
 40
0.0
 40
0.0
 40
0.0915405326
 40
0.1941266348
 40
0.4299174875
 40
0.7011862906
 40
1.0
 40
1.0
 40
1.0
 40
1.0
 10
-50.4460789479
 20
-29.6306762557
 30
0.0
 10
-50.3977357029
 20
-29.7691471164
 30
0.0
 10
-50.3041947798
 20
-30.0659550874
 30
0.0
 10
-50.1269714389
 20
-30.7317520197
 30
0.0
 10
-49.9312965721
 20
-31.6895842504
 30
0.0
 10
-49.7449037733
 20
-32.9677310485
 30
0.0
 10
-49.6573197139
 20
-33.8773196104
 30
0.0
 10
-49.621636863
 20
-34.3547502547
 30
0.0
  0
LINE
  5
49E
100
AcDbEntity
  8
RACCORDO
100
AcDbLine
 62
250
  6
CONTINUOUS
 10
-49.621636863
 20
-34.3547502547
 11
-49.6193873328
 21
-34.385036253
  0
LINE
  5
49F
100
AcDbEntity
  8
RACCORDO
100
AcDbLine
 62
250
  6
CONTINUOUS
 10
-49.5242573782
 20
-36.9431194788
 11
-49.5241885664
 21
-37.0149999878
  0
LINE
  5
4A0
100
AcDbEntity
  8
RACCORDO
100
AcDbLine
 62
250
  6
CONTINUOUS
 10
-49.6164369693
 20
-39.6046555177
 11
-49.6193364495
 21
-39.6442719924
  0
LINE
  5
4A1
100
AcDbEntity
  8
RACCORDO
100
AcDbLine
 62
250
  6
CONTINUOUS
 10
-49.6559302816
 20
-40.097223622
 11
-49.6593493092
 21
-40.1358614542
  0
SPLINE
  5
4A2
100
AcDbEntity
  8
RACCORDO
100
AcDbSpline
 62
250
  6
CONTINUOUS
 70
0
 71
3
 72
12
 73
8
 74
0
 42
0.0000001
 43
0.0000001
 44
0.0000000001
 40
0.0
 40
0.0
 40
0.0
 40
0.0
 40
0.2954356152
 40
0.5644893042
 40
0.8009758077
 40
0.9054182404
 40
1.0
 40
1.0
 40
1.0
 40
1.0
 10
-49.6593493092
 20
-40.1358614542
 30
0.0
 10
-49.6964364424
 20
-40.552086672
 30
0.0
 10
-49.7828398549
 20
-41.3461270331
 30
0.0
 10
-49.9558724913
 20
-42.4661367224
 30
0.0
 10
-50.1318280845
 20
-43.3113929158
 30
0.0
 10
-50.2886579777
 20
-43.9072139347
 30
0.0
 10
-50.3709900617
 20
-44.1765264978
 30
0.0
 10
-50.4133420261
 20
-44.3034253297
 30
0.0
  0
SPLINE
  5
4A3
100
AcDbEntity
  8
RACCORDO
100
AcDbSpline
 62
250
  6
CONTINUOUS
 70
0
 71
3
 72
9
 73
5
 74
0
 42
0.0000001
 43
0.0000001
 44
0.0000000001
 40
0.0
 40
0.0
 40
0.0
 40
0.0
 40
0.5412920741
 40
1.0
 40
1.0
 40
1.0
 40
1.0
 10
-50.4133420261
 20
-44.3034253297
 30
0.0
 10
-50.4577604329
 20
-44.4365158258
 30
0.0
 10
-50.5464084901
 20
-44.6802730465
 30
0.0
 10
-50.6531346572
 20
-44.9169579913
 30
0.0
 10
-50.708138912
 20
-45.0223709461
 30
0.0
  0
SPLINE
  5
4A4
100
AcDbEntity
  8
RACCORDO
100
AcDbSpline
 62
250
  6
CONTINUOUS
 70
0
 71
3
 72
25
 73
21
 74
0
 42
0.0000001
 43
0.0000001
 44
0.0000000001
 40
0.0
 40
0.0
 40
0.0
 40
0.0
 40
0.0504673096
 40
0.0722311016
 40
0.0918106381
 40
0.1093827393
 40
0.1251969202
 40
0.1396033981
 40
0.1530763954
 40
0.1662054366
 40
0.1796294589
 40
0.2095456331
 40
0.2464555908
 40
0.2921684532
 40
0.3474965414
 40
0.4127152927
 40
0.4878353391
 40
0.5726876938
 40
0.7697641718
 40
1.0
 40
1.0
 40
1.0
 40
1.0
 10
-50.7538489806
 20
-45.1064579796
 30
0.0
 10
-50.7919787548
 20
-45.1736804808
 30
0.0
 10
-50.8509247146
 20
-45.2677390614
 30
0.0
 10
-50.9387418771
 20
-45.3777120018
 30
0.0
 10
-51.0012813688
 20
-45.4429496753
 30
0.0
 10
-51.0637126277
 20
-45.4950482993
 30
0.0
 10
-51.1260667408
 20
-45.5339104745
 30
0.0
 10
-51.1883927998
 20
-45.5593043241
 30
0.0
 10
-51.2506288534
 20
-45.5708232648
 30
0.0
 10
-51.3124019755
 20
-45.5681294319
 30
0.0
 10
-51.3963977531
 20
-45.5447929029
 30
0.0
 10
-51.5006811109
 20
-45.4745369536
 30
0.0
 10
-51.6121486604
 20
-45.3415903673
 30
0.0
 10
-51.7182098856
 20
-45.1580562653
 30
0.0
 10
-51.8189517683
 20
-44.9238157758
 30
0.0
 10
-51.9144160943
 20
-44.6395377472
 30
0.0
 10
-52.004153408
 20
-44.3064033826
 30
0.0
 10
-52.1214208442
 20
-43.7722038002
 30
0.0
 10
-52.246562291
 20
-42.9973989624
 30
0.0
 10
-52.3200714772
 20
-42.3470101306
 30
0.0
 10
-52.3539191498
 20
-41.9960650683
 30
0.0
  0
SPLINE
  5
4A5
100
AcDbEntity
  8
RACCORDO
100
AcDbSpline
 62
250
  6
CONTINUOUS
 70
0
 71
3
 72
16
 73
12
 74
0
 42
0.0000001
 43
0.0000001
 44
0.0000000001
 40
0.0
 40
0.0
 40
0.0
 40
0.0
 40
0.1943088089
 40
0.3629837561
 40
0.506991178
 40
0.5703664005
 40
0.6284439749
 40
0.7307459655
 40
0.8203696417
 40
0.9066803697
 40
1.0
 40
1.0
 40
1.0
 40
1.0
 10
-51.1100795625
 20
-43.8785330102
 30
0.0
 10
-51.0884927364
 20
-43.9372074768
 30
0.0
 10
-51.0450807863
 20
-44.0457500201
 30
0.0
 10
-50.9727429109
 20
-44.1921684127
 30
0.0
 10
-50.9077390648
 20
-44.2946690476
 30
0.0
 10
-50.853796772
 20
-44.3610391282
 30
0.0
 10
-50.8034833402
 20
-44.4126071751
 30
0.0
 10
-50.7385488781
 20
-44.4615492447
 30
0.0
 10
-50.6527149058
 20
-44.4925914511
 30
0.0
 10
-50.5641634838
 20
-44.490392047
 30
0.0
 10
-50.509414017
 20
-44.4687334529
 30
0.0
 10
-50.4830463015
 20
-44.4543703994
 30
0.0
  0
SPLINE
  5
4A6
100
AcDbEntity
  8
RACCORDO
100
AcDbSpline
 62
250
  6
CONTINUOUS
 70
0
 71
3
 72
22
 73
18
 74
0
 42
0.0000001
 43
0.0000001
 44
0.0000000001
 40
0.0
 40
0.0
 40
0.0
 40
0.0
 40
0.2293598016
 40
0.4251638138
 40
0.5094143209
 40
0.5840743948
 40
0.6490410208
 40
0.7044140873
 40
0.7505094344
 40
0.7881580056
 40
0.8191491572
 40
0.8331661315
 40
0.8468606359
 40
0.8754540508
 40
0.9090694159
 40
0.9501613023
 40
1.0
 40
1.0
 40
1.0
 40
1.0
 10
-52.2777018564
 20
-31.7259269318
 30
0.0
 10
-52.2434903014
 20
-31.4149591454
 30
0.0
 10
-52.1701321452
 20
-30.8395417339
 30
0.0
 10
-52.0481383122
 20
-30.1549734598
 30
0.0
 10
-51.9355582526
 20
-29.6842794972
 30
0.0
 10
-51.8500538407
 20
-29.3909684816
 30
0.0
 10
-51.7595919247
 20
-29.140603687
 30
0.0
 10
-51.6646348982
 20
-28.9340125699
 30
0.0
 10
-51.5651095439
 20
-28.7716817465
 30
0.0
 10
-51.4607261327
 20
-28.6536749433
 30
0.0
 10
-51.364180473
 20
-28.591033095
 30
0.0
 10
-51.286586488
 20
-28.5691317806
 30
0.0
 10
-51.2093686563
 20
-28.5641289658
 30
0.0
 10
-51.1066751836
 20
-28.5921246706
 30
0.0
 10
-50.9895687011
 20
-28.6734633647
 30
0.0
 10
-50.8737421742
 20
-28.7988717547
 30
0.0
 10
-50.8038256373
 20
-28.901759806
 30
0.0
 10
-50.7683007463
 20
-28.959718237
 30
0.0
  0
SPLINE
  5
4A7
100
AcDbEntity
  8
RACCORDO
100
AcDbSpline
 62
250
  6
CONTINUOUS
 70
0
 71
3
 72
16
 73
12
 74
0
 42
0.0000001
 43
0.0000001
 44
0.0000000001
 40
0.0
 40
0.0
 40
0.0
 40
0.0
 40
0.0082934595
 40
0.0240672373
 40
0.0819573088
 40
0.1743376293
 40
0.2980812498
 40
0.4486105271
 40
0.6201718608
 40
0.8064246671
 40
1.0
 40
1.0
 40
1.0
 40
1.0
 10
-20.5589850235
 20
-84.6855281419
 30
0.0
 10
-20.5578735573
 20
-84.6854893287
 30
0.0
 10
-20.5553660787
 20
-84.6826379827
 30
0.0
 10
-20.5520726278
 20
-84.6725144666
 30
0.0
 10
-20.5483796446
 20
-84.6501188494
 30
0.0
 10
-20.5453308879
 20
-84.6137014615
 30
0.0
 10
-20.5430092514
 20
-84.5644927038
 30
0.0
 10
-20.5417893815
 20
-84.5047460621
 30
0.0
 10
-20.5416738649
 20
-84.4365643418
 30
0.0
 10
-20.542715363
 20
-84.3626315779
 30
0.0
 10
-20.5441407062
 20
-84.311714388
 30
0.0
 10
-20.5450422327
 20
-84.2857718111
 30
0.0
  0
SPLINE
  5
4A8
100
AcDbEntity
  8
RACCORDO
100
AcDbSpline
 62
250
  6
CONTINUOUS
 70
0
 71
3
 72
13
 73
9
 74
0
 42
0.0000001
 43
0.0000001
 44
0.0000000001
 40
0.0
 40
0.0
 40
0.0
 40
0.0
 40
0.3448077066
 40
0.6487107622
 40
0.7738432167
 40
0.87595046
 40
0.952070468
 40
1.0
 40
1.0
 40
1.0
 40
1.0
 10
-29.7798733067
 20
81.2782871282
 30
0.0
 10
-29.7785767562
 20
81.3233505097
 30
0.0
 10
-29.7766289248
 20
81.4081452728
 30
0.0
 10
-29.7755556883
 20
81.5093230962
 30
0.0
 10
-29.7758762894
 20
81.5787648896
 30
0.0
 10
-29.7765636911
 20
81.6184302883
 30
0.0
 10
-29.7777681143
 20
81.647963055
 30
0.0
 10
-29.7789233654
 20
81.6641691098
 30
0.0
 10
-29.7798733067
 20
81.6703632581
 30
0.0
  0
SPLINE
  5
4A9
100
AcDbEntity
  8
RACCORDO
100
AcDbSpline
 62
250
  6
CONTINUOUS
 70
0
 71
3
 72
13
 73
9
 74
0
 42
0.0000001
 43
0.0000001
 44
0.0000000001
 40
0.0
 40
0.0
 40
0.0
 40
0.0
 40
0.344546031
 40
0.648089025
 40
0.7730925651
 40
0.8751710233
 40
0.9514595012
 40
1.0
 40
1.0
 40
1.0
 40
1.0
 10
-20.5450422328
 20
80.7427119061
 30
0.0
 10
-20.5424402761
 20
80.7877551592
 30
0.0
 10
-20.5385317646
 20
80.8725375634
 30
0.0
 10
-20.5363815266
 20
80.9737784645
 30
0.0
 10
-20.5370199725
 20
81.0432548701
 30
0.0
 10
-20.53841185
 20
81.0829874989
 30
0.0
 10
-20.5408105016
 20
81.1125640624
 30
0.0
 10
-20.5431755046
 20
81.128844538
 30
0.0
 10
-20.5450422327
 20
81.134920634
 30
0.0
  0
SPLINE
  5
4AA
100
AcDbEntity
  8
RACCORDO
100
AcDbSpline
 62
250
  6
CONTINUOUS
 70
0
 71
3
 72
11
 73
7
 74
0
 42
0.0000001
 43
0.0000001
 44
0.0000000001
 40
0.0
 40
0.0
 40
0.0
 40
0.0
 40
0.2484183786
 40
0.497711049
 40
0.7483258329
 40
1.0
 40
1.0
 40
1.0
 40
1.0
 10
-15.8938246014
 20
81.2612684788
 30
0.0
 10
-15.8938246014
 20
81.3103226981
 30
0.0
 10
-15.912901181
 20
81.4096068554
 30
0.0
 10
-15.9946579141
 20
81.5368062224
 30
0.0
 10
-16.1176976548
 20
81.6256924796
 30
0.0
 10
-16.2163425067
 20
81.6511502459
 30
0.0
 10
-16.2659220119
 20
81.6545674266
 30
0.0
  0
SPLINE
  5
4AB
100
AcDbEntity
  8
RACCORDO
100
AcDbSpline
 62
250
  6
CONTINUOUS
 70
0
 71
3
 72
8
 73
4
 74
0
 42
0.0000001
 43
0.0000001
 44
0.0000000001
 40
0.0
 40
0.0
 40
0.0
 40
0.0
 40
1.0
 40
1.0
 40
1.0
 40
1.0
 10
-20.5450422327
 20
80.7427119061
 30
0.0
 10
-23.623309811
 20
80.921399788
 30
0.0
 10
-26.7015868614
 20
81.0999245661
 30
0.0
 10
-29.7798733067
 20
81.2782871282
 30
0.0
  0
SPLINE
  5
4AC
100
AcDbEntity
  8
RACCORDO
100
AcDbSpline
 62
250
  6
CONTINUOUS
 70
0
 71
3
 72
11
 73
7
 74
0
 42
0.0000001
 43
0.0000001
 44
0.0000000001
 40
0.0
 40
0.0
 40
0.0
 40
0.0
 40
0.2479215719
 40
0.4970639811
 40
0.7479501392
 40
1.0
 40
1.0
 40
1.0
 40
1.0
 10
-29.9938246014
 20
81.4743251932
 30
0.0
 10
-29.9938246014
 20
81.5010276793
 30
0.0
 10
-29.9823867572
 20
81.555221568
 30
0.0
 10
-29.9338396053
 20
81.6222971155
 30
0.0
 10
-29.8623899108
 20
81.6649020006
 30
0.0
 10
-29.806956578
 20
81.6722241214
 30
0.0
 10
-29.7798733067
 20
81.6703632581
 30
0.0
  0
SPLINE
  5
4AD
100
AcDbEntity
  8
RACCORDO
100
AcDbSpline
 62
250
  6
CONTINUOUS
 70
0
 71
3
 72
21
 73
17
 74
0
 42
0.0000001
 43
0.0000001
 44
0.0000000001
 40
0.0
 40
0.0
 40
0.0
 40
0.0
 40
0.0082867598
 40
0.0170356303
 40
0.0267376718
 40
0.0377546409
 40
0.0645764248
 40
0.0986016275
 40
0.1401693935
 40
0.1892814784
 40
0.2457430145
 40
0.3092222791
 40
0.4553584486
 40
0.6231338622
 40
0.8068396895
 40
1.0
 40
1.0
 40
1.0
 40
1.0
 10
-16.2659220119
 20
81.6545674266
 30
0.0
 10
-16.2659242906
 20
81.6423380741
 30
0.0
 10
-16.2694532755
 20
81.6170733172
 30
0.0
 10
-16.2851523654
 20
81.5804614282
 30
0.0
 10
-16.3108310679
 20
81.5450116033
 30
0.0
 10
-16.3614250528
 20
81.4960245478
 30
0.0
 10
-16.4518548095
 20
81.4389101301
 30
0.0
 10
-16.5906138787
 20
81.3783933199
 30
0.0
 10
-16.7661269027
 20
81.3221856287
 30
0.0
 10
-16.9772550746
 20
81.2709083151
 30
0.0
 10
-17.2226054199
 20
81.2251430016
 30
0.0
 10
-17.6114254888
 20
81.1696640034
 30
0.0
 10
-18.1665919461
 20
81.1206752236
 30
0.0
 10
-18.9006492985
 20
81.0928011371
 30
0.0
 10
-19.7046149115
 20
81.0958017014
 30
0.0
 10
-20.2604607256
 20
81.1184071559
 30
0.0
 10
-20.5450422327
 20
81.134920634
 30
0.0
  0
SPLINE
  5
4AE
100
AcDbEntity
  8
RACCORDO
100
AcDbSpline
 62
250
  6
CONTINUOUS
 70
0
 71
3
 72
8
 73
4
 74
0
 42
0.0000001
 43
0.0000001
 44
0.0000000001
 40
0.0
 40
0.0
 40
0.0
 40
0.0
 40
1.0
 40
1.0
 40
1.0
 40
1.0
 10
-20.5450422327
 20
81.134920634
 30
0.0
 10
-23.6233098062
 20
81.3135644395
 30
0.0
 10
-26.7015868567
 20
81.4920450177
 30
0.0
 10
-29.7798733067
 20
81.6703632581
 30
0.0
  0
SPLINE
  5
4AF
100
AcDbEntity
  8
RACCORDO
100
AcDbSpline
 62
250
  6
CONTINUOUS
 70
0
 71
3
 72
22
 73
18
 74
0
 42
0.0000001
 43
0.0000001
 44
0.0000000001
 40
0.0
 40
0.0
 40
0.0
 40
0.0
 40
0.0076745247
 40
0.0158744184
 40
0.0251204351
 40
0.0357774586
 40
0.0621290431
 40
0.0959327834
 40
0.1374539344
 40
0.186643468
 40
0.2432696323
 40
0.3069724182
 40
0.3772885916
 40
0.4536663839
 40
0.6220214716
 40
0.8062923451
 40
1.0
 40
1.0
 40
1.0
 40
1.0
 10
-15.8938246014
 20
81.2612684788
 30
0.0
 10
-15.8938258017
 20
81.2490101216
 30
0.0
 10
-15.8977380341
 20
81.2235114462
 30
0.0
 10
-15.9150030252
 20
81.1868145813
 30
0.0
 10
-15.9430802481
 20
81.1514003346
 30
0.0
 10
-15.9985895953
 20
81.1022325462
 30
0.0
 10
-16.0973440662
 20
81.0452674549
 30
0.0
 10
-16.2483533819
 20
80.9849430323
 30
0.0
 10
-16.4394354114
 20
80.9288921152
 30
0.0
 10
-16.6692586006
 20
80.8777480786
 30
0.0
 10
-16.9362498566
 20
80.8321324455
 30
0.0
 10
-17.2382506317
 20
80.7926261225
 30
0.0
 10
-17.5727490554
 20
80.7597327015
 30
0.0
 10
-18.0747600325
 20
80.7241469229
 30
0.0
 10
-18.7598278783
 20
80.7005106153
 30
0.0
 10
-19.632631635
 20
80.7035950884
 30
0.0
 10
-20.2360772125
 20
80.7262140839
 30
0.0
 10
-20.5450422327
 20
80.7427119061
 30
0.0
  0
SPLINE
  5
4B0
100
AcDbEntity
  8
RACCORDO
100
AcDbSpline
 62
250
  6
CONTINUOUS
 70
0
 71
3
 72
18
 73
14
 74
0
 42
0.0000001
 43
0.0000001
 44
0.0000000001
 40
0.0
 40
0.0
 40
0.0
 40
0.0
 40
0.005931385
 40
0.0207173882
 40
0.0447567129
 40
0.0778980223
 40
0.119862808
 40
0.1702713701
 40
0.2944176469
 40
0.4456347566
 40
0.6181191026
 40
0.8053290334
 40
1.0
 40
1.0
 40
1.0
 40
1.0
 10
-29.7868447021
 20
-85.0077721026
 30
0.0
 10
-29.786053795
 20
-85.0077465345
 30
0.0
 10
-29.7850376005
 20
-85.004180052
 30
0.0
 10
-29.7840086436
 20
-84.9991193398
 30
0.0
 10
-29.782916391
 20
-84.9891268876
 30
0.0
 10
-29.7819226733
 20
-84.9761297696
 30
0.0
 10
-29.7810090725
 20
-84.9593350965
 30
0.0
 10
-29.7798670779
 20
-84.9305044027
 30
0.0
 10
-29.7788647807
 20
-84.8870302642
 30
0.0
 10
-29.7782442383
 20
-84.8272929066
 30
0.0
 10
-29.778189789
 20
-84.7591272255
 30
0.0
 10
-29.7787085507
 20
-84.6851701477
 30
0.0
 10
-29.7794220833
 20
-84.6342268158
 30
0.0
 10
-29.7798733067
 20
-84.6082592183
 30
0.0
  0
LINE
  5
4B1
100
AcDbEntity
  8
ASSI
100
AcDbLine
 62
7
  6
CONTINUOUS
 10
-43.1950198301
 20
78.9102224978
 11
-43.2166876659
 21
78.9113205902
  0
SPLINE
  5
4B2
100
AcDbEntity
  8
ASSI
100
AcDbSpline
 62
7
  6
CONTINUOUS
 70
0
 71
3
 72
17
 73
13
 74
0
 42
0.0000001
 43
0.0000001
 44
0.0000000001
 40
0.0
 40
0.0
 40
0.0
 40
0.0
 40
0.0309054258
 40
0.0570187419
 40
0.0912139113
 40
0.1335271628
 40
0.1837549467
 40
0.241546163
 40
0.3064329781
 40
0.4551962878
 40
0.6247254445
 40
1.0
 40
1.0
 40
1.0
 40
1.0
 10
-52.2544700953
 20
36.5849965653
 30
0.0
 10
-52.2418132953
 20
36.5849962944
 30
0.0
 10
-52.2231034527
 20
36.5635357771
 30
0.0
 10
-52.2075603415
 20
36.5312557877
 30
0.0
 10
-52.1930406873
 20
36.4911675175
 30
0.0
 10
-52.1794312088
 20
36.4412519479
 30
0.0
 10
-52.1662041165
 20
36.3810348149
 30
0.0
 10
-52.153770757
 20
36.3113318706
 30
0.0
 10
-52.1375965936
 20
36.2013285434
 30
0.0
 10
-52.1207858539
 20
36.0452538557
 30
0.0
 10
-52.1006421808
 20
35.7618941307
 30
0.0
 10
-52.0950742226
 20
35.5386874142
 30
0.0
 10
-52.0950742226
 20
35.385
 30
0.0
  0
SPLINE
  5
4B3
100
AcDbEntity
  8
ASSI
100
AcDbSpline
 62
7
  6
CONTINUOUS
 70
0
 71
3
 72
19
 73
15
 74
0
 42
0.0000001
 43
0.0000001
 44
0.0000000001
 40
0.0
 40
0.0
 40
0.0
 40
0.0
 40
0.0095746882
 40
0.0168061667
 40
0.0260515958
 40
0.0509217501
 40
0.0844582283
 40
0.1265129124
 40
0.1767868123
 40
0.3001763786
 40
0.4502019919
 40
0.6212845121
 40
0.8069200656
 40
1.0
 40
1.0
 40
1.0
 40
1.0
 10
-53.0277523247
 20
36.5849969435
 30
0.0
 10
-53.0238750216
 20
36.584995231
 30
0.0
 10
-53.0176788503
 20
36.5801598421
 30
0.0
 10
-53.0120380608
 20
36.5714911304
 30
0.0
 10
-53.0046067383
 20
36.5563367419
 30
0.0
 10
-52.9961764163
 20
36.5302430014
 30
0.0
 10
-52.9866946975
 20
36.4906467639
 30
0.0
 10
-52.9775003895
 20
36.4404995843
 30
0.0
 10
-52.9648013243
 20
36.3540582485
 30
0.0
 10
-52.9510812711
 20
36.2236532127
 30
0.0
 10
-52.9379662472
 20
36.0441142244
 30
0.0
 10
-52.9280932099
 20
35.8391249208
 30
0.0
 10
-52.9219451494
 20
35.6165546422
 30
0.0
 10
-52.9205650987
 20
35.4631883938
 30
0.0
 10
-52.9205650987
 20
35.385
 30
0.0
  0
SPLINE
  5
4B4
100
AcDbEntity
  8
ASSI
100
AcDbSpline
 62
7
  6
CONTINUOUS
 70
0
 71
3
 72
20
 73
16
 74
0
 42
0.0000001
 43
0.0000001
 44
0.0000000001
 40
0.0
 40
0.0
 40
0.0
 40
0.0
 40
0.0024157275
 40
0.006583334
 40
0.0215371598
 40
0.0456498536
 40
0.0788295542
 40
0.1208013914
 40
0.1711859834
 40
0.2295158624
 40
0.295235538
 40
0.4462885804
 40
0.6185980094
 40
0.8055544926
 40
1.0
 40
1.0
 40
1.0
 40
1.0
 10
-53.4900176866
 20
36.5849963716
 30
0.0
 10
-53.4890477232
 20
36.5849963134
 30
0.0
 10
-53.486699074
 20
36.5831195249
 30
0.0
 10
-53.4830712905
 20
36.5753773784
 30
0.0
 10
-53.4787292743
 20
36.5583455163
 30
0.0
 10
-53.4740091427
 20
36.5298104956
 30
0.0
 10
-53.4691795556
 20
36.4901973794
 30
0.0
 10
-53.4644371262
 20
36.4400280879
 30
0.0
 10
-53.4598370389
 20
36.3796915179
 30
0.0
 10
-53.4554598449
 20
36.3097898227
 30
0.0
 10
-53.449729964
 20
36.1994769035
 30
0.0
 10
-53.4437254499
 20
36.0433616399
 30
0.0
 10
-53.4384644277
 20
35.8385215219
 30
0.0
 10
-53.4351816497
 20
35.6162155002
 30
0.0
 10
-53.4344419172
 20
35.4630738069
 30
0.0
 10
-53.4344419172
 20
35.385
 30
0.0
  0
SPLINE
  5
4B5
100
AcDbEntity
  8
ASSI
100
AcDbSpline
 62
7
  6
CONTINUOUS
 70
0
 71
3
 72
17
 73
13
 74
0
 42
0.0000001
 43
0.0000001
 44
0.0000000001
 40
0.0
 40
0.0
 40
0.0
 40
0.0
 40
0.0309054258
 40
0.0570187419
 40
0.0912139113
 40
0.1335271628
 40
0.1837549467
 40
0.241546163
 40
0.3064329781
 40
0.4551962878
 40
0.6247254445
 40
1.0
 40
1.0
 40
1.0
 40
1.0
 10
-52.2544700953
 20
29.3849965653
 30
0.0
 10
-52.2418132953
 20
29.3849962944
 30
0.0
 10
-52.2231034527
 20
29.3635357771
 30
0.0
 10
-52.2075603415
 20
29.3312557877
 30
0.0
 10
-52.1930406873
 20
29.2911675175
 30
0.0
 10
-52.1794312088
 20
29.2412519479
 30
0.0
 10
-52.1662041165
 20
29.1810348149
 30
0.0
 10
-52.153770757
 20
29.1113318706
 30
0.0
 10
-52.1375965936
 20
29.0013285434
 30
0.0
 10
-52.1207858539
 20
28.8452538557
 30
0.0
 10
-52.1006421808
 20
28.5618941307
 30
0.0
 10
-52.0950742226
 20
28.3386874142
 30
0.0
 10
-52.0950742226
 20
28.185
 30
0.0
  0
SPLINE
  5
4B6
100
AcDbEntity
  8
ASSI
100
AcDbSpline
 62
7
  6
CONTINUOUS
 70
0
 71
3
 72
19
 73
15
 74
0
 42
0.0000001
 43
0.0000001
 44
0.0000000001
 40
0.0
 40
0.0
 40
0.0
 40
0.0
 40
0.0095746882
 40
0.0168061667
 40
0.0260515958
 40
0.0509217501
 40
0.0844582283
 40
0.1265129124
 40
0.1767868123
 40
0.3001763786
 40
0.4502019919
 40
0.6212845121
 40
0.8069200656
 40
1.0
 40
1.0
 40
1.0
 40
1.0
 10
-53.0277523247
 20
29.3849969435
 30
0.0
 10
-53.0238750216
 20
29.384995231
 30
0.0
 10
-53.0176788503
 20
29.3801598421
 30
0.0
 10
-53.0120380608
 20
29.3714911304
 30
0.0
 10
-53.0046067383
 20
29.3563367419
 30
0.0
 10
-52.9961764163
 20
29.3302430014
 30
0.0
 10
-52.9866946975
 20
29.2906467639
 30
0.0
 10
-52.9775003895
 20
29.2404995843
 30
0.0
 10
-52.9648013243
 20
29.1540582485
 30
0.0
 10
-52.9510812711
 20
29.0236532127
 30
0.0
 10
-52.9379662472
 20
28.8441142244
 30
0.0
 10
-52.9280932099
 20
28.6391249208
 30
0.0
 10
-52.9219451494
 20
28.4165546422
 30
0.0
 10
-52.9205650987
 20
28.2631883938
 30
0.0
 10
-52.9205650987
 20
28.185
 30
0.0
  0
SPLINE
  5
4B7
100
AcDbEntity
  8
ASSI
100
AcDbSpline
 62
7
  6
CONTINUOUS
 70
0
 71
3
 72
20
 73
16
 74
0
 42
0.0000001
 43
0.0000001
 44
0.0000000001
 40
0.0
 40
0.0
 40
0.0
 40
0.0
 40
0.0024157275
 40
0.006583334
 40
0.0215371598
 40
0.0456498536
 40
0.0788295542
 40
0.1208013914
 40
0.1711859834
 40
0.2295158624
 40
0.295235538
 40
0.4462885804
 40
0.6185980094
 40
0.8055544926
 40
1.0
 40
1.0
 40
1.0
 40
1.0
 10
-53.4900176866
 20
29.3849963716
 30
0.0
 10
-53.4890477232
 20
29.3849963134
 30
0.0
 10
-53.486699074
 20
29.3831195249
 30
0.0
 10
-53.4830712905
 20
29.3753773784
 30
0.0
 10
-53.4787292743
 20
29.3583455163
 30
0.0
 10
-53.4740091427
 20
29.3298104956
 30
0.0
 10
-53.4691795556
 20
29.2901973794
 30
0.0
 10
-53.4644371262
 20
29.2400280879
 30
0.0
 10
-53.4598370389
 20
29.1796915179
 30
0.0
 10
-53.4554598449
 20
29.1097898227
 30
0.0
 10
-53.449729964
 20
28.9994769035
 30
0.0
 10
-53.4437254499
 20
28.8433616399
 30
0.0
 10
-53.4384644277
 20
28.6385215219
 30
0.0
 10
-53.4351816497
 20
28.4162155002
 30
0.0
 10
-53.4344419172
 20
28.2630738069
 30
0.0
 10
-53.4344419172
 20
28.185
 30
0.0
  0
SPLINE
  5
4B8
100
AcDbEntity
  8
ASSI
100
AcDbSpline
 62
7
  6
CONTINUOUS
 70
0
 71
3
 72
17
 73
13
 74
0
 42
0.0000001
 43
0.0000001
 44
0.0000000001
 40
0.0
 40
0.0
 40
0.0
 40
0.0
 40
0.0309054258
 40
0.0570187419
 40
0.0912139113
 40
0.1335271628
 40
0.1837549467
 40
0.241546163
 40
0.3064329781
 40
0.4551962878
 40
0.6247254445
 40
1.0
 40
1.0
 40
1.0
 40
1.0
 10
-52.2544700953
 20
22.1849965653
 30
0.0
 10
-52.2418132953
 20
22.1849962944
 30
0.0
 10
-52.2231034527
 20
22.1635357771
 30
0.0
 10
-52.2075603415
 20
22.1312557877
 30
0.0
 10
-52.1930406873
 20
22.0911675175
 30
0.0
 10
-52.1794312088
 20
22.0412519479
 30
0.0
 10
-52.1662041165
 20
21.9810348149
 30
0.0
 10
-52.153770757
 20
21.9113318706
 30
0.0
 10
-52.1375965936
 20
21.8013285434
 30
0.0
 10
-52.1207858539
 20
21.6452538557
 30
0.0
 10
-52.1006421808
 20
21.3618941307
 30
0.0
 10
-52.0950742226
 20
21.1386874142
 30
0.0
 10
-52.0950742226
 20
20.985
 30
0.0
  0
SPLINE
  5
4B9
100
AcDbEntity
  8
ASSI
100
AcDbSpline
 62
7
  6
CONTINUOUS
 70
0
 71
3
 72
19
 73
15
 74
0
 42
0.0000001
 43
0.0000001
 44
0.0000000001
 40
0.0
 40
0.0
 40
0.0
 40
0.0
 40
0.0095746882
 40
0.0168061667
 40
0.0260515958
 40
0.0509217501
 40
0.0844582283
 40
0.1265129124
 40
0.1767868123
 40
0.3001763786
 40
0.4502019919
 40
0.6212845121
 40
0.8069200656
 40
1.0
 40
1.0
 40
1.0
 40
1.0
 10
-53.0277523247
 20
22.1849969435
 30
0.0
 10
-53.0238750216
 20
22.184995231
 30
0.0
 10
-53.0176788503
 20
22.1801598421
 30
0.0
 10
-53.0120380608
 20
22.1714911304
 30
0.0
 10
-53.0046067383
 20
22.1563367419
 30
0.0
 10
-52.9961764163
 20
22.1302430014
 30
0.0
 10
-52.9866946975
 20
22.0906467639
 30
0.0
 10
-52.9775003895
 20
22.0404995843
 30
0.0
 10
-52.9648013243
 20
21.9540582485
 30
0.0
 10
-52.9510812711
 20
21.8236532127
 30
0.0
 10
-52.9379662472
 20
21.6441142244
 30
0.0
 10
-52.9280932099
 20
21.4391249208
 30
0.0
 10
-52.9219451494
 20
21.2165546422
 30
0.0
 10
-52.9205650987
 20
21.0631883938
 30
0.0
 10
-52.9205650987
 20
20.985
 30
0.0
  0
SPLINE
  5
4BA
100
AcDbEntity
  8
ASSI
100
AcDbSpline
 62
7
  6
CONTINUOUS
 70
0
 71
3
 72
20
 73
16
 74
0
 42
0.0000001
 43
0.0000001
 44
0.0000000001
 40
0.0
 40
0.0
 40
0.0
 40
0.0
 40
0.0024157275
 40
0.006583334
 40
0.0215371598
 40
0.0456498536
 40
0.0788295542
 40
0.1208013914
 40
0.1711859834
 40
0.2295158624
 40
0.295235538
 40
0.4462885804
 40
0.6185980094
 40
0.8055544926
 40
1.0
 40
1.0
 40
1.0
 40
1.0
 10
-53.4900176866
 20
22.1849963716
 30
0.0
 10
-53.4890477232
 20
22.1849963134
 30
0.0
 10
-53.486699074
 20
22.1831195249
 30
0.0
 10
-53.4830712905
 20
22.1753773784
 30
0.0
 10
-53.4787292743
 20
22.1583455163
 30
0.0
 10
-53.4740091427
 20
22.1298104956
 30
0.0
 10
-53.4691795556
 20
22.0901973794
 30
0.0
 10
-53.4644371262
 20
22.0400280879
 30
0.0
 10
-53.4598370389
 20
21.9796915179
 30
0.0
 10
-53.4554598449
 20
21.9097898227
 30
0.0
 10
-53.449729964
 20
21.7994769035
 30
0.0
 10
-53.4437254499
 20
21.6433616399
 30
0.0
 10
-53.4384644277
 20
21.4385215219
 30
0.0
 10
-53.4351816497
 20
21.2162155002
 30
0.0
 10
-53.4344419172
 20
21.0630738069
 30
0.0
 10
-53.4344419172
 20
20.985
 30
0.0
  0
SPLINE
  5
4BB
100
AcDbEntity
  8
ASSI
100
AcDbSpline
 62
7
  6
CONTINUOUS
 70
0
 71
3
 72
17
 73
13
 74
0
 42
0.0000001
 43
0.0000001
 44
0.0000000001
 40
0.0
 40
0.0
 40
0.0
 40
0.0
 40
0.0309054258
 40
0.0570187419
 40
0.0912139113
 40
0.1335271628
 40
0.1837549467
 40
0.241546163
 40
0.3064329781
 40
0.4551962878
 40
0.6247254445
 40
1.0
 40
1.0
 40
1.0
 40
1.0
 10
-52.2544700953
 20
14.9849965653
 30
0.0
 10
-52.2418132953
 20
14.9849962944
 30
0.0
 10
-52.2231034527
 20
14.9635357771
 30
0.0
 10
-52.2075603415
 20
14.9312557877
 30
0.0
 10
-52.1930406873
 20
14.8911675175
 30
0.0
 10
-52.1794312088
 20
14.8412519479
 30
0.0
 10
-52.1662041165
 20
14.7810348149
 30
0.0
 10
-52.153770757
 20
14.7113318706
 30
0.0
 10
-52.1375965936
 20
14.6013285434
 30
0.0
 10
-52.1207858539
 20
14.4452538557
 30
0.0
 10
-52.1006421808
 20
14.1618941307
 30
0.0
 10
-52.0950742226
 20
13.9386874142
 30
0.0
 10
-52.0950742226
 20
13.785
 30
0.0
  0
SPLINE
  5
4BC
100
AcDbEntity
  8
ASSI
100
AcDbSpline
 62
7
  6
CONTINUOUS
 70
0
 71
3
 72
19
 73
15
 74
0
 42
0.0000001
 43
0.0000001
 44
0.0000000001
 40
0.0
 40
0.0
 40
0.0
 40
0.0
 40
0.0095746882
 40
0.0168061667
 40
0.0260515958
 40
0.0509217501
 40
0.0844582283
 40
0.1265129124
 40
0.1767868123
 40
0.3001763786
 40
0.4502019919
 40
0.6212845121
 40
0.8069200656
 40
1.0
 40
1.0
 40
1.0
 40
1.0
 10
-53.0277523247
 20
14.9849969435
 30
0.0
 10
-53.0238750216
 20
14.984995231
 30
0.0
 10
-53.0176788503
 20
14.9801598421
 30
0.0
 10
-53.0120380608
 20
14.9714911304
 30
0.0
 10
-53.0046067383
 20
14.9563367419
 30
0.0
 10
-52.9961764163
 20
14.9302430014
 30
0.0
 10
-52.9866946975
 20
14.8906467639
 30
0.0
 10
-52.9775003895
 20
14.8404995843
 30
0.0
 10
-52.9648013243
 20
14.7540582485
 30
0.0
 10
-52.9510812711
 20
14.6236532127
 30
0.0
 10
-52.9379662472
 20
14.4441142244
 30
0.0
 10
-52.9280932099
 20
14.2391249208
 30
0.0
 10
-52.9219451494
 20
14.0165546422
 30
0.0
 10
-52.9205650987
 20
13.8631883938
 30
0.0
 10
-52.9205650987
 20
13.785
 30
0.0
  0
SPLINE
  5
4BD
100
AcDbEntity
  8
ASSI
100
AcDbSpline
 62
7
  6
CONTINUOUS
 70
0
 71
3
 72
20
 73
16
 74
0
 42
0.0000001
 43
0.0000001
 44
0.0000000001
 40
0.0
 40
0.0
 40
0.0
 40
0.0
 40
0.0024157275
 40
0.006583334
 40
0.0215371598
 40
0.0456498536
 40
0.0788295542
 40
0.1208013914
 40
0.1711859834
 40
0.2295158624
 40
0.295235538
 40
0.4462885804
 40
0.6185980094
 40
0.8055544926
 40
1.0
 40
1.0
 40
1.0
 40
1.0
 10
-53.4900176866
 20
14.9849963716
 30
0.0
 10
-53.4890477232
 20
14.9849963134
 30
0.0
 10
-53.486699074
 20
14.9831195249
 30
0.0
 10
-53.4830712905
 20
14.9753773784
 30
0.0
 10
-53.4787292743
 20
14.9583455163
 30
0.0
 10
-53.4740091427
 20
14.9298104956
 30
0.0
 10
-53.4691795556
 20
14.8901973794
 30
0.0
 10
-53.4644371262
 20
14.8400280879
 30
0.0
 10
-53.4598370389
 20
14.7796915179
 30
0.0
 10
-53.4554598449
 20
14.7097898227
 30
0.0
 10
-53.449729964
 20
14.5994769035
 30
0.0
 10
-53.4437254499
 20
14.4433616399
 30
0.0
 10
-53.4384644277
 20
14.2385215219
 30
0.0
 10
-53.4351816497
 20
14.0162155002
 30
0.0
 10
-53.4344419172
 20
13.8630738069
 30
0.0
 10
-53.4344419172
 20
13.785
 30
0.0
  0
SPLINE
  5
4BE
100
AcDbEntity
  8
ASSI
100
AcDbSpline
 62
7
  6
CONTINUOUS
 70
0
 71
3
 72
17
 73
13
 74
0
 42
0.0000001
 43
0.0000001
 44
0.0000000001
 40
0.0
 40
0.0
 40
0.0
 40
0.0
 40
0.0309054258
 40
0.0570187419
 40
0.0912139113
 40
0.1335271628
 40
0.1837549467
 40
0.241546163
 40
0.3064329781
 40
0.4551962878
 40
0.6247254445
 40
1.0
 40
1.0
 40
1.0
 40
1.0
 10
-52.2544700953
 20
7.7849965653
 30
0.0
 10
-52.2418132953
 20
7.7849962944
 30
0.0
 10
-52.2231034527
 20
7.7635357771
 30
0.0
 10
-52.2075603415
 20
7.7312557877
 30
0.0
 10
-52.1930406873
 20
7.6911675175
 30
0.0
 10
-52.1794312088
 20
7.6412519479
 30
0.0
 10
-52.1662041165
 20
7.5810348149
 30
0.0
 10
-52.153770757
 20
7.5113318706
 30
0.0
 10
-52.1375965936
 20
7.4013285434
 30
0.0
 10
-52.1207858539
 20
7.2452538557
 30
0.0
 10
-52.1006421808
 20
6.9618941307
 30
0.0
 10
-52.0950742226
 20
6.7386874142
 30
0.0
 10
-52.0950742226
 20
6.585
 30
0.0
  0
SPLINE
  5
4BF
100
AcDbEntity
  8
ASSI
100
AcDbSpline
 62
7
  6
CONTINUOUS
 70
0
 71
3
 72
19
 73
15
 74
0
 42
0.0000001
 43
0.0000001
 44
0.0000000001
 40
0.0
 40
0.0
 40
0.0
 40
0.0
 40
0.0095746882
 40
0.0168061667
 40
0.0260515958
 40
0.0509217501
 40
0.0844582283
 40
0.1265129124
 40
0.1767868123
 40
0.3001763786
 40
0.4502019919
 40
0.6212845121
 40
0.8069200656
 40
1.0
 40
1.0
 40
1.0
 40
1.0
 10
-53.0277523247
 20
7.7849969435
 30
0.0
 10
-53.0238750216
 20
7.784995231
 30
0.0
 10
-53.0176788503
 20
7.7801598421
 30
0.0
 10
-53.0120380608
 20
7.7714911304
 30
0.0
 10
-53.0046067383
 20
7.7563367419
 30
0.0
 10
-52.9961764163
 20
7.7302430014
 30
0.0
 10
-52.9866946975
 20
7.6906467639
 30
0.0
 10
-52.9775003895
 20
7.6404995843
 30
0.0
 10
-52.9648013243
 20
7.5540582485
 30
0.0
 10
-52.9510812711
 20
7.4236532127
 30
0.0
 10
-52.9379662472
 20
7.2441142244
 30
0.0
 10
-52.9280932099
 20
7.0391249208
 30
0.0
 10
-52.9219451494
 20
6.8165546422
 30
0.0
 10
-52.9205650987
 20
6.6631883938
 30
0.0
 10
-52.9205650987
 20
6.585
 30
0.0
  0
SPLINE
  5
4C0
100
AcDbEntity
  8
ASSI
100
AcDbSpline
 62
7
  6
CONTINUOUS
 70
0
 71
3
 72
20
 73
16
 74
0
 42
0.0000001
 43
0.0000001
 44
0.0000000001
 40
0.0
 40
0.0
 40
0.0
 40
0.0
 40
0.0024157275
 40
0.006583334
 40
0.0215371598
 40
0.0456498536
 40
0.0788295542
 40
0.1208013914
 40
0.1711859834
 40
0.2295158624
 40
0.295235538
 40
0.4462885804
 40
0.6185980094
 40
0.8055544926
 40
1.0
 40
1.0
 40
1.0
 40
1.0
 10
-53.4900176866
 20
7.7849963716
 30
0.0
 10
-53.4890477232
 20
7.7849963134
 30
0.0
 10
-53.486699074
 20
7.7831195249
 30
0.0
 10
-53.4830712905
 20
7.7753773784
 30
0.0
 10
-53.4787292743
 20
7.7583455163
 30
0.0
 10
-53.4740091427
 20
7.7298104956
 30
0.0
 10
-53.4691795556
 20
7.6901973794
 30
0.0
 10
-53.4644371262
 20
7.6400280879
 30
0.0
 10
-53.4598370389
 20
7.5796915179
 30
0.0
 10
-53.4554598449
 20
7.5097898227
 30
0.0
 10
-53.449729964
 20
7.3994769035
 30
0.0
 10
-53.4437254499
 20
7.2433616399
 30
0.0
 10
-53.4384644277
 20
7.0385215219
 30
0.0
 10
-53.4351816497
 20
6.8162155002
 30
0.0
 10
-53.4344419172
 20
6.6630738069
 30
0.0
 10
-53.4344419172
 20
6.585
 30
0.0
  0
SPLINE
  5
4C1
100
AcDbEntity
  8
ASSI
100
AcDbSpline
 62
7
  6
CONTINUOUS
 70
0
 71
3
 72
20
 73
16
 74
0
 42
0.0000001
 43
0.0000001
 44
0.0000000001
 40
0.0
 40
0.0
 40
0.0
 40
0.0
 40
0.194444988
 40
0.3813997599
 40
0.5537079633
 40
0.7047612211
 40
0.7704813261
 40
0.8288116653
 40
0.8791966644
 40
0.9211691255
 40
0.9543494547
 40
0.9784626197
 40
0.9934165665
 40
0.9975843695
 40
1.0
 40
1.0
 40
1.0
 40
1.0
 10
-53.4344419172
 20
-7.815
 30
0.0
 10
-53.4344419172
 20
-7.8930736024
 30
0.0
 10
-53.4351816394
 20
-8.046214408
 30
0.0
 10
-53.4384643868
 20
-8.2685190536
 30
0.0
 10
-53.443725339
 20
-8.4733580904
 30
0.0
 10
-53.4497297945
 20
-8.6294731316
 30
0.0
 10
-53.4554596612
 20
-8.7397865005
 30
0.0
 10
-53.459836838
 20
-8.8096887245
 30
0.0
 10
-53.4644369543
 20
-8.8700258888
 30
0.0
 10
-53.4691793546
 20
-8.9201958743
 30
0.0
 10
-53.474009124
 20
-8.9598096207
 30
0.0
 10
-53.4787290171
 20
-8.9883452759
 30
0.0
 10
-53.4830715695
 20
-9.0053772006
 30
0.0
 10
-53.4866989097
 20
-9.0131196904
 30
0.0
 10
-53.4890477585
 20
-9.0149964219
 30
0.0
 10
-53.4900176831
 20
-9.0149963706
 30
0.0
  0
SPLINE
  5
4C2
100
AcDbEntity
  8
ASSI
100
AcDbSpline
 62
7
  6
CONTINUOUS
 70
0
 71
3
 72
19
 73
15
 74
0
 42
0.0000001
 43
0.0000001
 44
0.0000000001
 40
0.0
 40
0.0
 40
0.0
 40
0.0
 40
0.1930817471
 40
0.3787169873
 40
0.5497980219
 40
0.6998235529
 40
0.8232129029
 40
0.8734865511
 40
0.9155413116
 40
0.949078083
 40
0.9739483289
 40
0.9831937992
 40
0.9904253942
 40
1.0
 40
1.0
 40
1.0
 40
1.0
 10
-52.9205650987
 20
-7.815
 30
0.0
 10
-52.9205650987
 20
-7.8931891267
 30
0.0
 10
-52.9219451699
 20
-8.04655598
 30
0.0
 10
-52.9280932508
 20
-8.2691262603
 30
0.0
 10
-52.937966288
 20
-8.4741147982
 30
0.0
 10
-52.9510812702
 20
-8.6536530614
 30
0.0
 10
-52.9648012629
 20
-8.7840578782
 30
0.0
 10
-52.9775003024
 20
-8.8704990553
 30
0.0
 10
-52.9866946183
 20
-8.9206462833
 30
0.0
 10
-52.996176321
 20
-8.9602427077
 30
0.0
 10
-53.004606682
 20
-8.9863366359
 30
0.0
 10
-53.0120381214
 20
-9.0014910645
 30
0.0
 10
-53.0176787579
 20
-9.010159917
 30
0.0
 10
-53.0238750521
 20
-9.0149952327
 30
0.0
 10
-53.0277523217
 20
-9.0149968798
 30
0.0
  0
SPLINE
  5
4C3
100
AcDbEntity
  8
ASSI
100
AcDbSpline
 62
7
  6
CONTINUOUS
 70
0
 71
3
 72
17
 73
13
 74
0
 42
0.0000001
 43
0.0000001
 44
0.0000000001
 40
0.0
 40
0.0
 40
0.0
 40
0.0
 40
0.375272134
 40
0.544800164
 40
0.6935637931
 40
0.7584510669
 40
0.8162427621
 40
0.8664709598
 40
0.9087848366
 40
0.942980638
 40
0.9690944151
 40
1.0
 40
1.0
 40
1.0
 40
1.0
 10
-52.0950742226
 20
-7.815
 30
0.0
 10
-52.0950742226
 20
-7.9686864181
 30
0.0
 10
-52.100642119
 20
-8.1918916725
 30
0.0
 10
-52.1207855246
 20
-8.4752500814
 30
0.0
 10
-52.1375961001
 20
-8.6313246378
 30
0.0
 10
-52.1537702234
 20
-8.7413284887
 30
0.0
 10
-52.1662035466
 20
-8.8110319962
 30
0.0
 10
-52.1794306799
 20
-8.8712497656
 30
0.0
 10
-52.1930402064
 20
-8.9211659968
 30
0.0
 10
-52.2075600484
 20
-8.961255044
 30
0.0
 10
-52.2231032322
 20
-8.9935352845
 30
0.0
 10
-52.2418132196
 20
-9.014996746
 30
0.0
 10
-52.2544700843
 20
-9.0149965624
 30
0.0
  0
SPLINE
  5
4C4
100
AcDbEntity
  8
ASSI
100
AcDbSpline
 62
7
  6
CONTINUOUS
 70
0
 71
3
 72
20
 73
16
 74
0
 42
0.0000001
 43
0.0000001
 44
0.0000000001
 40
0.0
 40
0.0
 40
0.0
 40
0.0
 40
0.194444988
 40
0.3813997599
 40
0.5537079633
 40
0.7047612211
 40
0.7704813261
 40
0.8288116653
 40
0.8791966644
 40
0.9211691255
 40
0.9543494547
 40
0.9784626197
 40
0.9934165665
 40
0.9975843695
 40
1.0
 40
1.0
 40
1.0
 40
1.0
 10
-53.4344419172
 20
-0.615
 30
0.0
 10
-53.4344419172
 20
-0.6930736024
 30
0.0
 10
-53.4351816394
 20
-0.846214408
 30
0.0
 10
-53.4384643868
 20
-1.0685190536
 30
0.0
 10
-53.443725339
 20
-1.2733580904
 30
0.0
 10
-53.4497297945
 20
-1.4294731316
 30
0.0
 10
-53.4554596612
 20
-1.5397865005
 30
0.0
 10
-53.459836838
 20
-1.6096887245
 30
0.0
 10
-53.4644369543
 20
-1.6700258888
 30
0.0
 10
-53.4691793546
 20
-1.7201958743
 30
0.0
 10
-53.474009124
 20
-1.7598096207
 30
0.0
 10
-53.4787290171
 20
-1.7883452759
 30
0.0
 10
-53.4830715695
 20
-1.8053772006
 30
0.0
 10
-53.4866989097
 20
-1.8131196904
 30
0.0
 10
-53.4890477585
 20
-1.8149964219
 30
0.0
 10
-53.4900176831
 20
-1.8149963706
 30
0.0
  0
SPLINE
  5
4C5
100
AcDbEntity
  8
ASSI
100
AcDbSpline
 62
7
  6
CONTINUOUS
 70
0
 71
3
 72
19
 73
15
 74
0
 42
0.0000001
 43
0.0000001
 44
0.0000000001
 40
0.0
 40
0.0
 40
0.0
 40
0.0
 40
0.1930817471
 40
0.3787169873
 40
0.5497980219
 40
0.6998235529
 40
0.8232129029
 40
0.8734865511
 40
0.9155413116
 40
0.949078083
 40
0.9739483289
 40
0.9831937992
 40
0.9904253942
 40
1.0
 40
1.0
 40
1.0
 40
1.0
 10
-52.9205650987
 20
-0.615
 30
0.0
 10
-52.9205650987
 20
-0.6931891267
 30
0.0
 10
-52.9219451699
 20
-0.84655598
 30
0.0
 10
-52.9280932508
 20
-1.0691262603
 30
0.0
 10
-52.937966288
 20
-1.2741147982
 30
0.0
 10
-52.9510812702
 20
-1.4536530614
 30
0.0
 10
-52.9648012629
 20
-1.5840578782
 30
0.0
 10
-52.9775003024
 20
-1.6704990553
 30
0.0
 10
-52.9866946183
 20
-1.7206462833
 30
0.0
 10
-52.996176321
 20
-1.7602427077
 30
0.0
 10
-53.004606682
 20
-1.7863366359
 30
0.0
 10
-53.0120381214
 20
-1.8014910645
 30
0.0
 10
-53.0176787579
 20
-1.810159917
 30
0.0
 10
-53.0238750521
 20
-1.8149952327
 30
0.0
 10
-53.0277523217
 20
-1.8149968798
 30
0.0
  0
SPLINE
  5
4C6
100
AcDbEntity
  8
ASSI
100
AcDbSpline
 62
7
  6
CONTINUOUS
 70
0
 71
3
 72
17
 73
13
 74
0
 42
0.0000001
 43
0.0000001
 44
0.0000000001
 40
0.0
 40
0.0
 40
0.0
 40
0.0
 40
0.375272134
 40
0.544800164
 40
0.6935637931
 40
0.7584510669
 40
0.8162427621
 40
0.8664709598
 40
0.9087848366
 40
0.942980638
 40
0.9690944151
 40
1.0
 40
1.0
 40
1.0
 40
1.0
 10
-52.0950742226
 20
-0.615
 30
0.0
 10
-52.0950742226
 20
-0.7686864181
 30
0.0
 10
-52.100642119
 20
-0.9918916725
 30
0.0
 10
-52.1207855246
 20
-1.2752500814
 30
0.0
 10
-52.1375961001
 20
-1.4313246378
 30
0.0
 10
-52.1537702234
 20
-1.5413284887
 30
0.0
 10
-52.1662035466
 20
-1.6110319962
 30
0.0
 10
-52.1794306799
 20
-1.6712497656
 30
0.0
 10
-52.1930402064
 20
-1.7211659968
 30
0.0
 10
-52.2075600484
 20
-1.761255044
 30
0.0
 10
-52.2231032322
 20
-1.7935352845
 30
0.0
 10
-52.2418132196
 20
-1.814996746
 30
0.0
 10
-52.2544700843
 20
-1.8149965624
 30
0.0
  0
SPLINE
  5
4C7
100
AcDbEntity
  8
ASSI
100
AcDbSpline
 62
7
  6
CONTINUOUS
 70
0
 71
3
 72
20
 73
16
 74
0
 42
0.0000001
 43
0.0000001
 44
0.0000000001
 40
0.0
 40
0.0
 40
0.0
 40
0.0
 40
0.194444988
 40
0.3813997599
 40
0.5537079633
 40
0.7047612211
 40
0.7704813261
 40
0.8288116653
 40
0.8791966644
 40
0.9211691255
 40
0.9543494547
 40
0.9784626197
 40
0.9934165665
 40
0.9975843695
 40
1.0
 40
1.0
 40
1.0
 40
1.0
 10
-53.4344419172
 20
6.585
 30
0.0
 10
-53.4344419172
 20
6.5069263976
 30
0.0
 10
-53.4351816394
 20
6.353785592
 30
0.0
 10
-53.4384643868
 20
6.1314809464
 30
0.0
 10
-53.443725339
 20
5.9266419096
 30
0.0
 10
-53.4497297945
 20
5.7705268684
 30
0.0
 10
-53.4554596612
 20
5.6602134995
 30
0.0
 10
-53.459836838
 20
5.5903112755
 30
0.0
 10
-53.4644369543
 20
5.5299741112
 30
0.0
 10
-53.4691793546
 20
5.4798041257
 30
0.0
 10
-53.474009124
 20
5.4401903793
 30
0.0
 10
-53.4787290171
 20
5.4116547241
 30
0.0
 10
-53.4830715695
 20
5.3946227994
 30
0.0
 10
-53.4866989097
 20
5.3868803096
 30
0.0
 10
-53.4890477585
 20
5.3850035781
 30
0.0
 10
-53.4900176831
 20
5.3850036294
 30
0.0
  0
SPLINE
  5
4C8
100
AcDbEntity
  8
ASSI
100
AcDbSpline
 62
7
  6
CONTINUOUS
 70
0
 71
3
 72
19
 73
15
 74
0
 42
0.0000001
 43
0.0000001
 44
0.0000000001
 40
0.0
 40
0.0
 40
0.0
 40
0.0
 40
0.1930817471
 40
0.3787169873
 40
0.5497980219
 40
0.6998235529
 40
0.8232129029
 40
0.8734865511
 40
0.9155413116
 40
0.949078083
 40
0.9739483289
 40
0.9831937992
 40
0.9904253942
 40
1.0
 40
1.0
 40
1.0
 40
1.0
 10
-52.9205650987
 20
6.585
 30
0.0
 10
-52.9205650987
 20
6.5068108733
 30
0.0
 10
-52.9219451699
 20
6.35344402
 30
0.0
 10
-52.9280932508
 20
6.1308737397
 30
0.0
 10
-52.937966288
 20
5.9258852018
 30
0.0
 10
-52.9510812702
 20
5.7463469386
 30
0.0
 10
-52.9648012629
 20
5.6159421218
 30
0.0
 10
-52.9775003024
 20
5.5295009447
 30
0.0
 10
-52.9866946183
 20
5.4793537167
 30
0.0
 10
-52.996176321
 20
5.4397572923
 30
0.0
 10
-53.004606682
 20
5.4136633641
 30
0.0
 10
-53.0120381214
 20
5.3985089355
 30
0.0
 10
-53.0176787579
 20
5.389840083
 30
0.0
 10
-53.0238750521
 20
5.3850047673
 30
0.0
 10
-53.0277523217
 20
5.3850031202
 30
0.0
  0
SPLINE
  5
4C9
100
AcDbEntity
  8
ASSI
100
AcDbSpline
 62
7
  6
CONTINUOUS
 70
0
 71
3
 72
17
 73
13
 74
0
 42
0.0000001
 43
0.0000001
 44
0.0000000001
 40
0.0
 40
0.0
 40
0.0
 40
0.0
 40
0.375272134
 40
0.544800164
 40
0.6935637931
 40
0.7584510669
 40
0.8162427621
 40
0.8664709598
 40
0.9087848366
 40
0.942980638
 40
0.9690944151
 40
1.0
 40
1.0
 40
1.0
 40
1.0
 10
-52.0950742226
 20
6.585
 30
0.0
 10
-52.0950742226
 20
6.4313135819
 30
0.0
 10
-52.100642119
 20
6.2081083275
 30
0.0
 10
-52.1207855246
 20
5.9247499186
 30
0.0
 10
-52.1375961001
 20
5.7686753622
 30
0.0
 10
-52.1537702234
 20
5.6586715113
 30
0.0
 10
-52.1662035466
 20
5.5889680038
 30
0.0
 10
-52.1794306799
 20
5.5287502344
 30
0.0
 10
-52.1930402064
 20
5.4788340032
 30
0.0
 10
-52.2075600484
 20
5.438744956
 30
0.0
 10
-52.2231032322
 20
5.4064647155
 30
0.0
 10
-52.2418132196
 20
5.385003254
 30
0.0
 10
-52.2544700843
 20
5.3850034376
 30
0.0
  0
SPLINE
  5
4CA
100
AcDbEntity
  8
ASSI
100
AcDbSpline
 62
7
  6
CONTINUOUS
 70
0
 71
3
 72
17
 73
13
 74
0
 42
0.0000001
 43
0.0000001
 44
0.0000000001
 40
0.0
 40
0.0
 40
0.0
 40
0.0
 40
0.0309054258
 40
0.0570187419
 40
0.0912139113
 40
0.1335271628
 40
0.1837549467
 40
0.241546163
 40
0.3064329781
 40
0.4551962878
 40
0.6247254445
 40
1.0
 40
1.0
 40
1.0
 40
1.0
 10
-52.2544700953
 20
0.5849965653
 30
0.0
 10
-52.2418132953
 20
0.5849962944
 30
0.0
 10
-52.2231034527
 20
0.5635357771
 30
0.0
 10
-52.2075603415
 20
0.5312557877
 30
0.0
 10
-52.1930406873
 20
0.4911675175
 30
0.0
 10
-52.1794312088
 20
0.4412519479
 30
0.0
 10
-52.1662041165
 20
0.3810348149
 30
0.0
 10
-52.153770757
 20
0.3113318706
 30
0.0
 10
-52.1375965936
 20
0.2013285434
 30
0.0
 10
-52.1207858539
 20
0.0452538557
 30
0.0
 10
-52.1006421808
 20
-0.2381058693
 30
0.0
 10
-52.0950742226
 20
-0.4613125858
 30
0.0
 10
-52.0950742226
 20
-0.615
 30
0.0
  0
SPLINE
  5
4CB
100
AcDbEntity
  8
ASSI
100
AcDbSpline
 62
7
  6
CONTINUOUS
 70
0
 71
3
 72
20
 73
16
 74
0
 42
0.0000001
 43
0.0000001
 44
0.0000000001
 40
0.0
 40
0.0
 40
0.0
 40
0.0
 40
0.194444988
 40
0.3813997599
 40
0.5537079633
 40
0.7047612211
 40
0.7704813261
 40
0.8288116653
 40
0.8791966644
 40
0.9211691255
 40
0.9543494547
 40
0.9784626197
 40
0.9934165665
 40
0.9975843695
 40
1.0
 40
1.0
 40
1.0
 40
1.0
 10
-53.4344419172
 20
13.785
 30
0.0
 10
-53.4344419172
 20
13.7069263976
 30
0.0
 10
-53.4351816394
 20
13.553785592
 30
0.0
 10
-53.4384643868
 20
13.3314809464
 30
0.0
 10
-53.443725339
 20
13.1266419096
 30
0.0
 10
-53.4497297945
 20
12.9705268684
 30
0.0
 10
-53.4554596612
 20
12.8602134995
 30
0.0
 10
-53.459836838
 20
12.7903112755
 30
0.0
 10
-53.4644369543
 20
12.7299741112
 30
0.0
 10
-53.4691793546
 20
12.6798041257
 30
0.0
 10
-53.474009124
 20
12.6401903793
 30
0.0
 10
-53.4787290171
 20
12.6116547241
 30
0.0
 10
-53.4830715695
 20
12.5946227994
 30
0.0
 10
-53.4866989097
 20
12.5868803096
 30
0.0
 10
-53.4890477585
 20
12.5850035781
 30
0.0
 10
-53.4900176831
 20
12.5850036294
 30
0.0
  0
SPLINE
  5
4CC
100
AcDbEntity
  8
ASSI
100
AcDbSpline
 62
7
  6
CONTINUOUS
 70
0
 71
3
 72
19
 73
15
 74
0
 42
0.0000001
 43
0.0000001
 44
0.0000000001
 40
0.0
 40
0.0
 40
0.0
 40
0.0
 40
0.1930817471
 40
0.3787169873
 40
0.5497980219
 40
0.6998235529
 40
0.8232129029
 40
0.8734865511
 40
0.9155413116
 40
0.949078083
 40
0.9739483289
 40
0.9831937992
 40
0.9904253942
 40
1.0
 40
1.0
 40
1.0
 40
1.0
 10
-52.9205650987
 20
13.785
 30
0.0
 10
-52.9205650987
 20
13.7068108733
 30
0.0
 10
-52.9219451699
 20
13.55344402
 30
0.0
 10
-52.9280932508
 20
13.3308737397
 30
0.0
 10
-52.937966288
 20
13.1258852018
 30
0.0
 10
-52.9510812702
 20
12.9463469386
 30
0.0
 10
-52.9648012629
 20
12.8159421218
 30
0.0
 10
-52.9775003024
 20
12.7295009447
 30
0.0
 10
-52.9866946183
 20
12.6793537167
 30
0.0
 10
-52.996176321
 20
12.6397572923
 30
0.0
 10
-53.004606682
 20
12.6136633641
 30
0.0
 10
-53.0120381214
 20
12.5985089355
 30
0.0
 10
-53.0176787579
 20
12.589840083
 30
0.0
 10
-53.0238750521
 20
12.5850047673
 30
0.0
 10
-53.0277523217
 20
12.5850031202
 30
0.0
  0
SPLINE
  5
4CD
100
AcDbEntity
  8
ASSI
100
AcDbSpline
 62
7
  6
CONTINUOUS
 70
0
 71
3
 72
17
 73
13
 74
0
 42
0.0000001
 43
0.0000001
 44
0.0000000001
 40
0.0
 40
0.0
 40
0.0
 40
0.0
 40
0.375272134
 40
0.544800164
 40
0.6935637931
 40
0.7584510669
 40
0.8162427621
 40
0.8664709598
 40
0.9087848366
 40
0.942980638
 40
0.9690944151
 40
1.0
 40
1.0
 40
1.0
 40
1.0
 10
-52.0950742226
 20
13.785
 30
0.0
 10
-52.0950742226
 20
13.6313135819
 30
0.0
 10
-52.100642119
 20
13.4081083275
 30
0.0
 10
-52.1207855246
 20
13.1247499186
 30
0.0
 10
-52.1375961
 20
12.9686753622
 30
0.0
 10
-52.1537702234
 20
12.8586715113
 30
0.0
 10
-52.1662035466
 20
12.7889680038
 30
0.0
 10
-52.1794306799
 20
12.7287502344
 30
0.0
 10
-52.1930402064
 20
12.6788340032
 30
0.0
 10
-52.2075600484
 20
12.638744956
 30
0.0
 10
-52.2231032322
 20
12.6064647155
 30
0.0
 10
-52.2418132196
 20
12.585003254
 30
0.0
 10
-52.2544700843
 20
12.5850034376
 30
0.0
  0
SPLINE
  5
4CE
100
AcDbEntity
  8
ASSI
100
AcDbSpline
 62
7
  6
CONTINUOUS
 70
0
 71
3
 72
19
 73
15
 74
0
 42
0.0000001
 43
0.0000001
 44
0.0000000001
 40
0.0
 40
0.0
 40
0.0
 40
0.0
 40
0.0095746882
 40
0.0168061667
 40
0.0260515958
 40
0.0509217501
 40
0.0844582283
 40
0.1265129124
 40
0.1767868123
 40
0.3001763786
 40
0.4502019919
 40
0.6212845121
 40
0.8069200656
 40
1.0
 40
1.0
 40
1.0
 40
1.0
 10
-53.0277523247
 20
0.5849969435
 30
0.0
 10
-53.0238750216
 20
0.584995231
 30
0.0
 10
-53.0176788503
 20
0.5801598421
 30
0.0
 10
-53.0120380608
 20
0.5714911304
 30
0.0
 10
-53.0046067383
 20
0.5563367419
 30
0.0
 10
-52.9961764163
 20
0.5302430014
 30
0.0
 10
-52.9866946975
 20
0.4906467639
 30
0.0
 10
-52.9775003895
 20
0.4404995843
 30
0.0
 10
-52.9648013243
 20
0.3540582485
 30
0.0
 10
-52.9510812711
 20
0.2236532127
 30
0.0
 10
-52.9379662472
 20
0.0441142244
 30
0.0
 10
-52.9280932099
 20
-0.1608750792
 30
0.0
 10
-52.9219451494
 20
-0.3834453578
 30
0.0
 10
-52.9205650987
 20
-0.5368116062
 30
0.0
 10
-52.9205650987
 20
-0.615
 30
0.0
  0
SPLINE
  5
4CF
100
AcDbEntity
  8
ASSI
100
AcDbSpline
 62
7
  6
CONTINUOUS
 70
0
 71
3
 72
20
 73
16
 74
0
 42
0.0000001
 43
0.0000001
 44
0.0000000001
 40
0.0
 40
0.0
 40
0.0
 40
0.0
 40
0.194444988
 40
0.3813997599
 40
0.5537079633
 40
0.7047612211
 40
0.7704813261
 40
0.8288116653
 40
0.8791966644
 40
0.9211691255
 40
0.9543494547
 40
0.9784626197
 40
0.9934165665
 40
0.9975843695
 40
1.0
 40
1.0
 40
1.0
 40
1.0
 10
-53.4344419172
 20
20.985
 30
0.0
 10
-53.4344419172
 20
20.9069263976
 30
0.0
 10
-53.4351816394
 20
20.753785592
 30
0.0
 10
-53.4384643868
 20
20.5314809464
 30
0.0
 10
-53.443725339
 20
20.3266419096
 30
0.0
 10
-53.4497297945
 20
20.1705268684
 30
0.0
 10
-53.4554596612
 20
20.0602134995
 30
0.0
 10
-53.459836838
 20
19.9903112755
 30
0.0
 10
-53.4644369543
 20
19.9299741112
 30
0.0
 10
-53.4691793546
 20
19.8798041257
 30
0.0
 10
-53.474009124
 20
19.8401903793
 30
0.0
 10
-53.4787290171
 20
19.8116547241
 30
0.0
 10
-53.4830715695
 20
19.7946227994
 30
0.0
 10
-53.4866989097
 20
19.7868803096
 30
0.0
 10
-53.4890477585
 20
19.7850035781
 30
0.0
 10
-53.4900176831
 20
19.7850036294
 30
0.0
  0
SPLINE
  5
4D0
100
AcDbEntity
  8
ASSI
100
AcDbSpline
 62
7
  6
CONTINUOUS
 70
0
 71
3
 72
19
 73
15
 74
0
 42
0.0000001
 43
0.0000001
 44
0.0000000001
 40
0.0
 40
0.0
 40
0.0
 40
0.0
 40
0.1930817471
 40
0.3787169873
 40
0.5497980219
 40
0.6998235529
 40
0.8232129029
 40
0.8734865511
 40
0.9155413116
 40
0.949078083
 40
0.9739483289
 40
0.9831937992
 40
0.9904253942
 40
1.0
 40
1.0
 40
1.0
 40
1.0
 10
-52.9205650987
 20
20.985
 30
0.0
 10
-52.9205650987
 20
20.9068108733
 30
0.0
 10
-52.9219451699
 20
20.75344402
 30
0.0
 10
-52.9280932508
 20
20.5308737397
 30
0.0
 10
-52.937966288
 20
20.3258852018
 30
0.0
 10
-52.9510812702
 20
20.1463469386
 30
0.0
 10
-52.9648012629
 20
20.0159421218
 30
0.0
 10
-52.9775003024
 20
19.9295009447
 30
0.0
 10
-52.9866946183
 20
19.8793537167
 30
0.0
 10
-52.996176321
 20
19.8397572923
 30
0.0
 10
-53.004606682
 20
19.8136633641
 30
0.0
 10
-53.0120381214
 20
19.7985089355
 30
0.0
 10
-53.0176787579
 20
19.789840083
 30
0.0
 10
-53.0238750521
 20
19.7850047673
 30
0.0
 10
-53.0277523217
 20
19.7850031202
 30
0.0
  0
SPLINE
  5
4D1
100
AcDbEntity
  8
ASSI
100
AcDbSpline
 62
7
  6
CONTINUOUS
 70
0
 71
3
 72
17
 73
13
 74
0
 42
0.0000001
 43
0.0000001
 44
0.0000000001
 40
0.0
 40
0.0
 40
0.0
 40
0.0
 40
0.375272134
 40
0.544800164
 40
0.6935637931
 40
0.7584510669
 40
0.8162427621
 40
0.8664709598
 40
0.9087848366
 40
0.942980638
 40
0.9690944151
 40
1.0
 40
1.0
 40
1.0
 40
1.0
 10
-52.0950742226
 20
20.985
 30
0.0
 10
-52.0950742226
 20
20.8313135819
 30
0.0
 10
-52.100642119
 20
20.6081083275
 30
0.0
 10
-52.1207855246
 20
20.3247499186
 30
0.0
 10
-52.1375961001
 20
20.1686753622
 30
0.0
 10
-52.1537702234
 20
20.0586715113
 30
0.0
 10
-52.1662035466
 20
19.9889680038
 30
0.0
 10
-52.1794306799
 20
19.9287502344
 30
0.0
 10
-52.1930402064
 20
19.8788340032
 30
0.0
 10
-52.2075600484
 20
19.838744956
 30
0.0
 10
-52.2231032322
 20
19.8064647155
 30
0.0
 10
-52.2418132196
 20
19.785003254
 30
0.0
 10
-52.2544700843
 20
19.7850034376
 30
0.0
  0
SPLINE
  5
4D2
100
AcDbEntity
  8
ASSI
100
AcDbSpline
 62
7
  6
CONTINUOUS
 70
0
 71
3
 72
20
 73
16
 74
0
 42
0.0000001
 43
0.0000001
 44
0.0000000001
 40
0.0
 40
0.0
 40
0.0
 40
0.0
 40
0.0024157275
 40
0.006583334
 40
0.0215371598
 40
0.0456498536
 40
0.0788295542
 40
0.1208013914
 40
0.1711859834
 40
0.2295158624
 40
0.295235538
 40
0.4462885804
 40
0.6185980094
 40
0.8055544926
 40
1.0
 40
1.0
 40
1.0
 40
1.0
 10
-53.4900176866
 20
0.5849963716
 30
0.0
 10
-53.4890477232
 20
0.5849963134
 30
0.0
 10
-53.486699074
 20
0.5831195249
 30
0.0
 10
-53.4830712905
 20
0.5753773784
 30
0.0
 10
-53.4787292743
 20
0.5583455163
 30
0.0
 10
-53.4740091427
 20
0.5298104956
 30
0.0
 10
-53.4691795556
 20
0.4901973794
 30
0.0
 10
-53.4644371262
 20
0.4400280879
 30
0.0
 10
-53.4598370389
 20
0.3796915179
 30
0.0
 10
-53.4554598449
 20
0.3097898227
 30
0.0
 10
-53.449729964
 20
0.1994769035
 30
0.0
 10
-53.4437254499
 20
0.0433616399
 30
0.0
 10
-53.4384644277
 20
-0.1614784781
 30
0.0
 10
-53.4351816497
 20
-0.3837844998
 30
0.0
 10
-53.4344419172
 20
-0.5369261931
 30
0.0
 10
-53.4344419172
 20
-0.615
 30
0.0
  0
SPLINE
  5
4D3
100
AcDbEntity
  8
ASSI
100
AcDbSpline
 62
7
  6
CONTINUOUS
 70
0
 71
3
 72
20
 73
16
 74
0
 42
0.0000001
 43
0.0000001
 44
0.0000000001
 40
0.0
 40
0.0
 40
0.0
 40
0.0
 40
0.194444988
 40
0.3813997599
 40
0.5537079633
 40
0.7047612211
 40
0.7704813261
 40
0.8288116653
 40
0.8791966644
 40
0.9211691255
 40
0.9543494547
 40
0.9784626197
 40
0.9934165665
 40
0.9975843695
 40
1.0
 40
1.0
 40
1.0
 40
1.0
 10
-53.4344419172
 20
28.185
 30
0.0
 10
-53.4344419172
 20
28.1069263976
 30
0.0
 10
-53.4351816394
 20
27.953785592
 30
0.0
 10
-53.4384643868
 20
27.7314809464
 30
0.0
 10
-53.443725339
 20
27.5266419096
 30
0.0
 10
-53.4497297945
 20
27.3705268684
 30
0.0
 10
-53.4554596612
 20
27.2602134995
 30
0.0
 10
-53.459836838
 20
27.1903112755
 30
0.0
 10
-53.4644369543
 20
27.1299741112
 30
0.0
 10
-53.4691793546
 20
27.0798041257
 30
0.0
 10
-53.474009124
 20
27.0401903793
 30
0.0
 10
-53.4787290171
 20
27.0116547241
 30
0.0
 10
-53.4830715695
 20
26.9946227994
 30
0.0
 10
-53.4866989097
 20
26.9868803096
 30
0.0
 10
-53.4890477585
 20
26.9850035781
 30
0.0
 10
-53.4900176831
 20
26.9850036294
 30
0.0
  0
SPLINE
  5
4D4
100
AcDbEntity
  8
ASSI
100
AcDbSpline
 62
7
  6
CONTINUOUS
 70
0
 71
3
 72
19
 73
15
 74
0
 42
0.0000001
 43
0.0000001
 44
0.0000000001
 40
0.0
 40
0.0
 40
0.0
 40
0.0
 40
0.1930817471
 40
0.3787169873
 40
0.5497980219
 40
0.6998235529
 40
0.8232129029
 40
0.8734865511
 40
0.9155413116
 40
0.949078083
 40
0.9739483289
 40
0.9831937992
 40
0.9904253942
 40
1.0
 40
1.0
 40
1.0
 40
1.0
 10
-52.9205650987
 20
28.185
 30
0.0
 10
-52.9205650987
 20
28.1068108733
 30
0.0
 10
-52.9219451699
 20
27.95344402
 30
0.0
 10
-52.9280932508
 20
27.7308737397
 30
0.0
 10
-52.937966288
 20
27.5258852018
 30
0.0
 10
-52.9510812702
 20
27.3463469386
 30
0.0
 10
-52.9648012629
 20
27.2159421218
 30
0.0
 10
-52.9775003024
 20
27.1295009447
 30
0.0
 10
-52.9866946183
 20
27.0793537167
 30
0.0
 10
-52.996176321
 20
27.0397572923
 30
0.0
 10
-53.004606682
 20
27.0136633641
 30
0.0
 10
-53.0120381214
 20
26.9985089355
 30
0.0
 10
-53.0176787579
 20
26.989840083
 30
0.0
 10
-53.0238750521
 20
26.9850047673
 30
0.0
 10
-53.0277523217
 20
26.9850031202
 30
0.0
  0
SPLINE
  5
4D5
100
AcDbEntity
  8
ASSI
100
AcDbSpline
 62
7
  6
CONTINUOUS
 70
0
 71
3
 72
17
 73
13
 74
0
 42
0.0000001
 43
0.0000001
 44
0.0000000001
 40
0.0
 40
0.0
 40
0.0
 40
0.0
 40
0.375272134
 40
0.544800164
 40
0.6935637931
 40
0.7584510669
 40
0.8162427621
 40
0.8664709598
 40
0.9087848366
 40
0.942980638
 40
0.9690944151
 40
1.0
 40
1.0
 40
1.0
 40
1.0
 10
-52.0950742226
 20
28.185
 30
0.0
 10
-52.0950742226
 20
28.0313135819
 30
0.0
 10
-52.100642119
 20
27.8081083275
 30
0.0
 10
-52.1207855246
 20
27.5247499186
 30
0.0
 10
-52.1375961001
 20
27.3686753622
 30
0.0
 10
-52.1537702234
 20
27.2586715113
 30
0.0
 10
-52.1662035466
 20
27.1889680038
 30
0.0
 10
-52.1794306799
 20
27.1287502344
 30
0.0
 10
-52.1930402064
 20
27.0788340032
 30
0.0
 10
-52.2075600484
 20
27.038744956
 30
0.0
 10
-52.2231032322
 20
27.0064647155
 30
0.0
 10
-52.2418132196
 20
26.985003254
 30
0.0
 10
-52.2544700843
 20
26.9850034376
 30
0.0
  0
SPLINE
  5
4D6
100
AcDbEntity
  8
ASSI
100
AcDbSpline
 62
7
  6
CONTINUOUS
 70
0
 71
3
 72
20
 73
16
 74
0
 42
0.0000001
 43
0.0000001
 44
0.0000000001
 40
0.0
 40
0.0
 40
0.0
 40
0.0
 40
0.194444988
 40
0.3813997599
 40
0.5537079633
 40
0.7047612211
 40
0.7704813261
 40
0.8288116653
 40
0.8791966644
 40
0.9211691255
 40
0.9543494547
 40
0.9784626197
 40
0.9934165665
 40
0.9975843695
 40
1.0
 40
1.0
 40
1.0
 40
1.0
 10
-53.4344419172
 20
35.385
 30
0.0
 10
-53.4344419172
 20
35.3069263976
 30
0.0
 10
-53.4351816394
 20
35.153785592
 30
0.0
 10
-53.4384643868
 20
34.9314809464
 30
0.0
 10
-53.443725339
 20
34.7266419096
 30
0.0
 10
-53.4497297945
 20
34.5705268684
 30
0.0
 10
-53.4554596612
 20
34.4602134995
 30
0.0
 10
-53.459836838
 20
34.3903112755
 30
0.0
 10
-53.4644369543
 20
34.3299741112
 30
0.0
 10
-53.4691793546
 20
34.2798041257
 30
0.0
 10
-53.474009124
 20
34.2401903793
 30
0.0
 10
-53.4787290171
 20
34.2116547241
 30
0.0
 10
-53.4830715695
 20
34.1946227994
 30
0.0
 10
-53.4866989097
 20
34.1868803096
 30
0.0
 10
-53.4890477585
 20
34.1850035781
 30
0.0
 10
-53.4900176831
 20
34.1850036294
 30
0.0
  0
SPLINE
  5
4D7
100
AcDbEntity
  8
ASSI
100
AcDbSpline
 62
7
  6
CONTINUOUS
 70
0
 71
3
 72
19
 73
15
 74
0
 42
0.0000001
 43
0.0000001
 44
0.0000000001
 40
0.0
 40
0.0
 40
0.0
 40
0.0
 40
0.1930817471
 40
0.3787169873
 40
0.5497980219
 40
0.6998235529
 40
0.8232129029
 40
0.8734865511
 40
0.9155413116
 40
0.949078083
 40
0.9739483289
 40
0.9831937992
 40
0.9904253942
 40
1.0
 40
1.0
 40
1.0
 40
1.0
 10
-52.9205650987
 20
35.385
 30
0.0
 10
-52.9205650987
 20
35.3068108733
 30
0.0
 10
-52.9219451699
 20
35.15344402
 30
0.0
 10
-52.9280932508
 20
34.9308737397
 30
0.0
 10
-52.937966288
 20
34.7258852018
 30
0.0
 10
-52.9510812702
 20
34.5463469386
 30
0.0
 10
-52.9648012629
 20
34.4159421218
 30
0.0
 10
-52.9775003024
 20
34.3295009447
 30
0.0
 10
-52.9866946183
 20
34.2793537167
 30
0.0
 10
-52.996176321
 20
34.2397572923
 30
0.0
 10
-53.004606682
 20
34.2136633641
 30
0.0
 10
-53.0120381214
 20
34.1985089355
 30
0.0
 10
-53.0176787579
 20
34.189840083
 30
0.0
 10
-53.0238750521
 20
34.1850047673
 30
0.0
 10
-53.0277523217
 20
34.1850031202
 30
0.0
  0
SPLINE
  5
4D8
100
AcDbEntity
  8
ASSI
100
AcDbSpline
 62
7
  6
CONTINUOUS
 70
0
 71
3
 72
17
 73
13
 74
0
 42
0.0000001
 43
0.0000001
 44
0.0000000001
 40
0.0
 40
0.0
 40
0.0
 40
0.0
 40
0.375272134
 40
0.544800164
 40
0.6935637931
 40
0.7584510669
 40
0.8162427621
 40
0.8664709598
 40
0.9087848366
 40
0.942980638
 40
0.9690944151
 40
1.0
 40
1.0
 40
1.0
 40
1.0
 10
-52.0950742226
 20
35.385
 30
0.0
 10
-52.0950742226
 20
35.2313135819
 30
0.0
 10
-52.100642119
 20
35.0081083275
 30
0.0
 10
-52.1207855246
 20
34.7247499186
 30
0.0
 10
-52.1375961001
 20
34.5686753622
 30
0.0
 10
-52.1537702234
 20
34.4586715113
 30
0.0
 10
-52.1662035466
 20
34.3889680038
 30
0.0
 10
-52.1794306799
 20
34.3287502344
 30
0.0
 10
-52.1930402064
 20
34.2788340032
 30
0.0
 10
-52.2075600484
 20
34.238744956
 30
0.0
 10
-52.2231032322
 20
34.2064647155
 30
0.0
 10
-52.2418132196
 20
34.185003254
 30
0.0
 10
-52.2544700843
 20
34.1850034376
 30
0.0
  0
SPLINE
  5
4D9
100
AcDbEntity
  8
ASSI
100
AcDbSpline
 62
7
  6
CONTINUOUS
 70
0
 71
3
 72
19
 73
15
 74
0
 42
0.0000001
 43
0.0000001
 44
0.0000000001
 40
0.0
 40
0.0
 40
0.0
 40
0.0
 40
0.0208723171
 40
0.0448695259
 40
0.0737643481
 40
0.1085194587
 40
0.1495980063
 40
0.1971879436
 40
0.2513125271
 40
0.3118904285
 40
0.4517100561
 40
0.6148021744
 40
0.7986079522
 40
1.0
 40
1.0
 40
1.0
 40
1.0
 10
-51.0429511051
 20
-28.015
 30
0.0
 10
-51.0046385462
 20
-28.015
 30
0.0
 10
-50.9218592486
 20
-28.0326043619
 30
0.0
 10
-50.8047874843
 20
-28.1038130783
 30
0.0
 10
-50.688945708
 20
-28.2167587751
 30
0.0
 10
-50.5733838669
 20
-28.3710330529
 30
0.0
 10
-50.4579932701
 20
-28.5663717434
 30
0.0
 10
-50.3432867382
 20
-28.8022842107
 30
0.0
 10
-50.2298992391
 20
-29.0779247285
 30
0.0
 10
-50.0739518847
 20
-29.5184828601
 30
0.0
 10
-49.8915137137
 20
-30.1609251969
 30
0.0
 10
-49.6984656005
 20
-31.0335892929
 30
0.0
 10
-49.5285503805
 20
-32.0259053554
 30
0.0
 10
-49.4380782292
 20
-32.7273587824
 30
0.0
 10
-49.3974018612
 20
-33.0947828754
 30
0.0
  0
SPLINE
  5
4DA
100
AcDbEntity
  8
ASSI
100
AcDbSpline
 62
7
  6
CONTINUOUS
 70
0
 71
3
 72
25
 73
21
 74
0
 42
0.0000001
 43
0.0000001
 44
0.0000000001
 40
0.0
 40
0.0
 40
0.0
 40
0.0
 40
0.1629636994
 40
0.3339644085
 40
0.4190990783
 40
0.5021701395
 40
0.5818824243
 40
0.6570303403
 40
0.7265236177
 40
0.7894056977
 40
0.844866009
 40
0.8922588233
 40
0.912788829
 40
0.9311599077
 40
0.9473685798
 40
0.9614465455
 40
0.9734817569
 40
0.9836557295
 40
0.9923053923
 40
1.0
 40
1.0
 40
1.0
 40
1.0
 10
-49.3889095518
 20
-33.1723980509
 30
0.0
 10
-49.3113377991
 20
-33.8897955375
 30
0.0
 10
-49.202990663
 20
-35.3656978228
 30
0.0
 10
-49.1767507632
 20
-37.2223132439
 30
0.0
 10
-49.2218976971
 20
-38.7237836179
 30
0.0
 10
-49.2880326701
 20
-39.8197129939
 30
0.0
 10
-49.3844042039
 20
-40.8690010635
 30
0.0
 10
-49.5081465376
 20
-41.8548705818
 30
0.0
 10
-49.6557093775
 20
-42.7620510028
 30
0.0
 10
-49.8230164294
 20
-43.5770562199
 30
0.0
 10
-50.0057577277
 20
-44.2881075365
 30
0.0
 10
-50.1740952032
 20
-44.8084488937
 30
0.0
 10
-50.3158020132
 20
-45.1634461319
 30
0.0
 10
-50.4181780293
 20
-45.3851033656
 30
0.0
 10
-50.5212699494
 20
-45.5745091968
 30
0.0
 10
-50.6246697755
 20
-45.7311465687
 30
0.0
 10
-50.7280908717
 20
-45.8547075445
 30
0.0
 10
-50.8317048573
 20
-45.9449779202
 30
0.0
 10
-50.9361492536
 20
-46.0013675808
 30
0.0
 10
-51.0088805187
 20
-46.015
 30
0.0
 10
-51.0429511051
 20
-46.015
 30
0.0
  0
SPLINE
  5
4DB
100
AcDbEntity
  8
ASSI
100
AcDbSpline
 62
7
  6
CONTINUOUS
 70
0
 71
3
 72
17
 73
13
 74
0
 42
0.0000001
 43
0.0000001
 44
0.0000000001
 40
0.0
 40
0.0
 40
0.0
 40
0.0
 40
0.0309054258
 40
0.0570187419
 40
0.0912139113
 40
0.1335271628
 40
0.1837549467
 40
0.241546163
 40
0.3064329781
 40
0.4551962878
 40
0.6247254445
 40
1.0
 40
1.0
 40
1.0
 40
1.0
 10
-52.2544700953
 20
-6.6150034347
 30
0.0
 10
-52.2418132953
 20
-6.6150037056
 30
0.0
 10
-52.2231034527
 20
-6.6364642229
 30
0.0
 10
-52.2075603415
 20
-6.6687442123
 30
0.0
 10
-52.1930406873
 20
-6.7088324825
 30
0.0
 10
-52.1794312088
 20
-6.7587480521
 30
0.0
 10
-52.1662041165
 20
-6.8189651851
 30
0.0
 10
-52.153770757
 20
-6.8886681294
 30
0.0
 10
-52.1375965936
 20
-6.9986714566
 30
0.0
 10
-52.1207858539
 20
-7.1547461443
 30
0.0
 10
-52.1006421808
 20
-7.4381058693
 30
0.0
 10
-52.0950742226
 20
-7.6613125858
 30
0.0
 10
-52.0950742226
 20
-7.815
 30
0.0
  0
SPLINE
  5
4DC
100
AcDbEntity
  8
ASSI
100
AcDbSpline
 62
7
  6
CONTINUOUS
 70
0
 71
3
 72
19
 73
15
 74
0
 42
0.0000001
 43
0.0000001
 44
0.0000000001
 40
0.0
 40
0.0
 40
0.0
 40
0.0
 40
0.0095746882
 40
0.0168061667
 40
0.0260515958
 40
0.0509217501
 40
0.0844582283
 40
0.1265129124
 40
0.1767868123
 40
0.3001763786
 40
0.4502019919
 40
0.6212845121
 40
0.8069200656
 40
1.0
 40
1.0
 40
1.0
 40
1.0
 10
-53.0277523247
 20
-6.6150030565
 30
0.0
 10
-53.0238750216
 20
-6.615004769
 30
0.0
 10
-53.0176788503
 20
-6.6198401579
 30
0.0
 10
-53.0120380608
 20
-6.6285088696
 30
0.0
 10
-53.0046067383
 20
-6.6436632581
 30
0.0
 10
-52.9961764163
 20
-6.6697569986
 30
0.0
 10
-52.9866946975
 20
-6.7093532361
 30
0.0
 10
-52.9775003895
 20
-6.7595004157
 30
0.0
 10
-52.9648013243
 20
-6.8459417515
 30
0.0
 10
-52.9510812711
 20
-6.9763467873
 30
0.0
 10
-52.9379662472
 20
-7.1558857756
 30
0.0
 10
-52.9280932099
 20
-7.3608750792
 30
0.0
 10
-52.9219451494
 20
-7.5834453578
 30
0.0
 10
-52.9205650987
 20
-7.7368116062
 30
0.0
 10
-52.9205650987
 20
-7.815
 30
0.0
  0
SPLINE
  5
4DD
100
AcDbEntity
  8
ASSI
100
AcDbSpline
 62
7
  6
CONTINUOUS
 70
0
 71
3
 72
20
 73
16
 74
0
 42
0.0000001
 43
0.0000001
 44
0.0000000001
 40
0.0
 40
0.0
 40
0.0
 40
0.0
 40
0.0024157275
 40
0.006583334
 40
0.0215371598
 40
0.0456498536
 40
0.0788295542
 40
0.1208013914
 40
0.1711859834
 40
0.2295158624
 40
0.295235538
 40
0.4462885804
 40
0.6185980094
 40
0.8055544926
 40
1.0
 40
1.0
 40
1.0
 40
1.0
 10
-53.4900176866
 20
-6.6150036284
 30
0.0
 10
-53.4890477232
 20
-6.6150036866
 30
0.0
 10
-53.486699074
 20
-6.6168804751
 30
0.0
 10
-53.4830712905
 20
-6.6246226216
 30
0.0
 10
-53.4787292743
 20
-6.6416544837
 30
0.0
 10
-53.4740091427
 20
-6.6701895044
 30
0.0
 10
-53.4691795556
 20
-6.7098026206
 30
0.0
 10
-53.4644371262
 20
-6.7599719121
 30
0.0
 10
-53.4598370389
 20
-6.8203084821
 30
0.0
 10
-53.4554598449
 20
-6.8902101773
 30
0.0
 10
-53.449729964
 20
-7.0005230965
 30
0.0
 10
-53.4437254499
 20
-7.1566383601
 30
0.0
 10
-53.4384644277
 20
-7.3614784781
 30
0.0
 10
-53.4351816497
 20
-7.5837844998
 30
0.0
 10
-53.4344419172
 20
-7.7369261931
 30
0.0
 10
-53.4344419172
 20
-7.815
 30
0.0
  0
SPLINE
  5
4DE
100
AcDbEntity
  8
ASSI
100
AcDbSpline
 62
7
  6
CONTINUOUS
 70
0
 71
3
 72
20
 73
16
 74
0
 42
0.0000001
 43
0.0000001
 44
0.0000000001
 40
0.0
 40
0.0
 40
0.0
 40
0.0
 40
0.1945083031
 40
0.3815247007
 40
0.5538865763
 40
0.704973855
 40
0.7706991105
 40
0.8290248003
 40
0.8793944048
 40
0.9213405593
 40
0.9544842516
 40
0.9785520645
 40
0.9934550085
 40
0.9975983981
 40
1.0
 40
1.0
 40
1.0
 40
1.0
 10
-53.5370292122
 20
35.385
 30
0.0
 10
-53.5370292122
 20
35.4630636829
 30
0.0
 10
-53.5365029775
 20
35.6161848042
 30
0.0
 10
-53.5341380189
 20
35.8384704486
 30
0.0
 10
-53.530249722
 20
36.0433056319
 30
0.0
 10
-53.5256527711
 20
36.1994332779
 30
0.0
 10
-53.5210879749
 20
36.3097645281
 30
0.0
 10
-53.5175112326
 20
36.3796743861
 30
0.0
 10
-53.5136487179
 20
36.4400167891
 30
0.0
 10
-53.5095532555
 20
36.4901895873
 30
0.0
 10
-53.5052545976
 20
36.5298011178
 30
0.0
 10
-53.5009329464
 20
36.5583354875
 30
0.0
 10
-53.4968270425
 20
36.5753628514
 30
0.0
 10
-53.4933140065
 20
36.5831204777
 30
0.0
 10
-53.4909815421
 20
36.5849964294
 30
0.0
 10
-53.4900176866
 20
36.5849963716
 30
0.0
  0
SPLINE
  5
4DF
100
AcDbEntity
  8
ASSI
100
AcDbSpline
 62
7
  6
CONTINUOUS
 70
0
 71
3
 72
19
 73
15
 74
0
 42
0.0000001
 43
0.0000001
 44
0.0000000001
 40
0.0
 40
0.0
 40
0.0
 40
0.0
 40
0.1931886804
 40
0.3789213388
 40
0.5500942104
 40
0.7001830256
 40
0.8235756177
 40
0.8738172424
 40
0.9158276711
 40
0.9492947957
 40
0.9740855514
 40
0.983285133
 40
0.990476257
 40
1.0
 40
1.0
 40
1.0
 40
1.0
 10
-53.1263043547
 20
35.385
 30
0.0
 10
-53.1263043547
 20
35.4631648381
 30
0.0
 10
-53.1251408698
 20
35.6164807726
 30
0.0
 10
-53.1199228062
 20
35.8389988119
 30
0.0
 10
-53.1114401096
 20
36.043970734
 30
0.0
 10
-53.0999603717
 20
36.2235259259
 30
0.0
 10
-53.0876886903
 20
36.3539721506
 30
0.0
 10
-53.076048898
 20
36.4404554819
 30
0.0
 10
-53.0675102355
 20
36.4906141249
 30
0.0
 10
-53.0585594317
 20
36.5302162483
 30
0.0
 10
-53.0505003234
 20
36.5563220912
 30
0.0
 10
-53.043272471
 20
36.5714842223
 30
0.0
 10
-53.0377626848
 20
36.5801615699
 30
0.0
 10
-53.0316056651
 20
36.5849986453
 30
0.0
 10
-53.0277523247
 20
36.5849969435
 30
0.0
  0
SPLINE
  5
4E0
100
AcDbEntity
  8
ASSI
100
AcDbSpline
 62
7
  6
CONTINUOUS
 70
0
 71
3
 72
20
 73
16
 74
0
 42
0.0000001
 43
0.0000001
 44
0.0000000001
 40
0.0
 40
0.0
 40
0.0
 40
0.0
 40
0.1945083031
 40
0.3815247007
 40
0.5538865763
 40
0.704973855
 40
0.7706991105
 40
0.8290248003
 40
0.8793944048
 40
0.9213405593
 40
0.9544842516
 40
0.9785520645
 40
0.9934550085
 40
0.9975983981
 40
1.0
 40
1.0
 40
1.0
 40
1.0
 10
-53.5370292122
 20
-7.815
 30
0.0
 10
-53.5370292122
 20
-7.7369363171
 30
0.0
 10
-53.5365029775
 20
-7.5838151958
 30
0.0
 10
-53.5341380189
 20
-7.3615295514
 30
0.0
 10
-53.530249722
 20
-7.1566943681
 30
0.0
 10
-53.5256527711
 20
-7.0005667221
 30
0.0
 10
-53.5210879749
 20
-6.8902354719
 30
0.0
 10
-53.5175112326
 20
-6.8203256139
 30
0.0
 10
-53.5136487179
 20
-6.7599832109
 30
0.0
 10
-53.5095532555
 20
-6.7098104127
 30
0.0
 10
-53.5052545976
 20
-6.6701988822
 30
0.0
 10
-53.5009329464
 20
-6.6416645125
 30
0.0
 10
-53.4968270425
 20
-6.6246371486
 30
0.0
 10
-53.4933140065
 20
-6.6168795223
 30
0.0
 10
-53.4909815421
 20
-6.6150035706
 30
0.0
 10
-53.4900176866
 20
-6.6150036284
 30
0.0
  0
SPLINE
  5
4E1
100
AcDbEntity
  8
ASSI
100
AcDbSpline
 62
7
  6
CONTINUOUS
 70
0
 71
3
 72
17
 73
13
 74
0
 42
0.0000001
 43
0.0000001
 44
0.0000000001
 40
0.0
 40
0.0
 40
0.0
 40
0.0
 40
0.3756052164
 40
0.5452718712
 40
0.6941176256
 40
0.7590119755
 40
0.8167830278
 40
0.8669607876
 40
0.9091951032
 40
0.9432861188
 40
0.9692794483
 40
1.0
 40
1.0
 40
1.0
 40
1.0
 10
-52.4051104473
 20
35.385
 30
0.0
 10
-52.4051104473
 20
35.538630363
 30
0.0
 10
-52.4001748534
 20
35.761734121
 30
0.0
 10
-52.3819854716
 20
36.0450904669
 30
0.0
 10
-52.3666189517
 20
36.2012046334
 30
0.0
 10
-52.3516305176
 20
36.3112634834
 30
0.0
 10
-52.3400131595
 20
36.3809906248
 30
0.0
 10
-52.3275354888
 20
36.4412261435
 30
0.0
 10
-52.3145891553
 20
36.4911516229
 30
0.0
 10
-52.3006037192
 20
36.5312438735
 30
0.0
 10
-52.2855670333
 20
36.5635231159
 30
0.0
 10
-52.2670354413
 20
36.5849968343
 30
0.0
 10
-52.2544700953
 20
36.5849965653
 30
0.0
  0
SPLINE
  5
4E2
100
AcDbEntity
  8
ASSI
100
AcDbSpline
 62
7
  6
CONTINUOUS
 70
0
 71
3
 72
19
 73
15
 74
0
 42
0.0000001
 43
0.0000001
 44
0.0000000001
 40
0.0
 40
0.0
 40
0.0
 40
0.0
 40
0.1931886804
 40
0.3789213388
 40
0.5500942104
 40
0.7001830256
 40
0.8235756177
 40
0.8738172424
 40
0.9158276711
 40
0.9492947957
 40
0.9740855514
 40
0.983285133
 40
0.990476257
 40
1.0
 40
1.0
 40
1.0
 40
1.0
 10
-53.1263043547
 20
-7.815
 30
0.0
 10
-53.1263043547
 20
-7.7368351619
 30
0.0
 10
-53.1251408698
 20
-7.5835192274
 30
0.0
 10
-53.1199228062
 20
-7.3610011881
 30
0.0
 10
-53.1114401096
 20
-7.156029266
 30
0.0
 10
-53.0999603717
 20
-6.9764740741
 30
0.0
 10
-53.0876886903
 20
-6.8460278494
 30
0.0
 10
-53.076048898
 20
-6.7595445181
 30
0.0
 10
-53.0675102355
 20
-6.7093858751
 30
0.0
 10
-53.0585594317
 20
-6.6697837517
 30
0.0
 10
-53.0505003234
 20
-6.6436779088
 30
0.0
 10
-53.043272471
 20
-6.6285157777
 30
0.0
 10
-53.0377626848
 20
-6.6198384301
 30
0.0
 10
-53.0316056651
 20
-6.6150013547
 30
0.0
 10
-53.0277523247
 20
-6.6150030565
 30
0.0
  0
SPLINE
  5
4E3
100
AcDbEntity
  8
ASSI
100
AcDbSpline
 62
7
  6
CONTINUOUS
 70
0
 71
3
 72
17
 73
13
 74
0
 42
0.0000001
 43
0.0000001
 44
0.0000000001
 40
0.0
 40
0.0
 40
0.0
 40
0.0
 40
0.3756052164
 40
0.5452718712
 40
0.6941176256
 40
0.7590119755
 40
0.8167830278
 40
0.8669607876
 40
0.9091951032
 40
0.9432861188
 40
0.9692794483
 40
1.0
 40
1.0
 40
1.0
 40
1.0
 10
-52.4051104473
 20
-7.815
 30
0.0
 10
-52.4051104473
 20
-7.661369637
 30
0.0
 10
-52.4001748534
 20
-7.438265879
 30
0.0
 10
-52.3819854716
 20
-7.1549095331
 30
0.0
 10
-52.3666189517
 20
-6.9987953666
 30
0.0
 10
-52.3516305176
 20
-6.8887365166
 30
0.0
 10
-52.3400131595
 20
-6.8190093752
 30
0.0
 10
-52.3275354888
 20
-6.7587738565
 30
0.0
 10
-52.3145891553
 20
-6.7088483771
 30
0.0
 10
-52.3006037192
 20
-6.6687561265
 30
0.0
 10
-52.2855670333
 20
-6.6364768841
 30
0.0
 10
-52.2670354413
 20
-6.6150031657
 30
0.0
 10
-52.2544700953
 20
-6.6150034347
 30
0.0
  0
SPLINE
  5
4E4
100
AcDbEntity
  8
ASSI
100
AcDbSpline
 62
7
  6
CONTINUOUS
 70
0
 71
3
 72
20
 73
16
 74
0
 42
0.0000001
 43
0.0000001
 44
0.0000000001
 40
0.0
 40
0.0
 40
0.0
 40
0.0
 40
0.0024016904
 40
0.0065448865
 40
0.0214477127
 40
0.0455150534
 40
0.0786581187
 40
0.1206036497
 40
0.1709728483
 40
0.2292980795
 40
0.2950229082
 40
0.4461099797
 40
0.6184730878
 40
0.8054911917
 40
1.0
 40
1.0
 40
1.0
 40
1.0
 10
-53.4900176831
 20
12.5850036294
 30
0.0
 10
-53.490981574
 20
12.5850036804
 30
0.0
 10
-53.4933138296
 20
12.5868796961
 30
0.0
 10
-53.4968273441
 20
12.5946369572
 30
0.0
 10
-53.5009326815
 20
12.6116642792
 30
0.0
 10
-53.5052546009
 20
12.640198004
 30
0.0
 10
-53.5095530715
 20
12.6798089097
 30
0.0
 10
-53.5136485759
 20
12.729981013
 30
0.0
 10
-53.5175110641
 20
12.790322824
 30
0.0
 10
-53.5210878288
 20
12.8602321553
 30
0.0
 10
-53.525652638
 20
12.9705629612
 30
0.0
 10
-53.5302496405
 20
13.1266908366
 30
0.0
 10
-53.5341379896
 20
13.3315271043
 30
0.0
 10
-53.5365029717
 20
13.5538141183
 30
0.0
 10
-53.5370292122
 20
13.7069361187
 30
0.0
 10
-53.5370292122
 20
13.785
 30
0.0
  0
LINE
  5
4E5
100
AcDbEntity
  8
0
100
AcDbLine
 62
7
  6
CONTINUOUS
 10
-43.1950198301
 20
78.9102224978
 11
-43.2166876659
 21
78.9113205902
  0
SPLINE
  5
4E6
100
AcDbEntity
  8
ASSI
100
AcDbSpline
 62
7
  6
CONTINUOUS
 70
0
 71
3
 72
17
 73
13
 74
0
 42
0.0000001
 43
0.0000001
 44
0.0000000001
 40
0.0
 40
0.0
 40
0.0
 40
0.0
 40
0.0307203953
 40
0.0567132613
 40
0.0908036493
 40
0.1330373407
 40
0.1832146903
 40
0.2409852678
 40
0.3058791663
 40
0.4547246242
 40
0.6243924246
 40
1.0
 40
1.0
 40
1.0
 40
1.0
 10
-52.2544700843
 20
-9.0149965624
 30
0.0
 10
-52.2670353667
 20
-9.0149963802
 30
0.0
 10
-52.2855668165
 20
-8.9935236058
 30
0.0
 10
-52.3006034451
 20
-8.961244617
 30
0.0
 10
-52.3145886938
 20
-8.9211531404
 30
0.0
 10
-52.3275349918
 20
-8.8712283198
 30
0.0
 10
-52.3400126249
 20
-8.8109934325
 30
0.0
 10
-52.3516300261
 20
-8.7412668472
 30
0.0
 10
-52.3666185006
 20
-8.6312085051
 30
0.0
 10
-52.3819851787
 20
-8.4750941856
 30
0.0
 10
-52.4001747999
 20
-8.1917365315
 30
0.0
 10
-52.4051104473
 20
-7.968631332
 30
0.0
 10
-52.4051104473
 20
-7.815
 30
0.0
  0
SPLINE
  5
4E7
100
AcDbEntity
  8
ASSI
100
AcDbSpline
 62
7
  6
CONTINUOUS
 70
0
 71
3
 72
19
 73
15
 74
0
 42
0.0000001
 43
0.0000001
 44
0.0000000001
 40
0.0
 40
0.0
 40
0.0
 40
0.0
 40
0.0095236418
 40
0.0167146942
 40
0.0259141968
 40
0.0507044433
 40
0.0841709469
 40
0.126180948
 40
0.1764222339
 40
0.2998140892
 40
0.4499025499
 40
0.621076394
 40
0.8068107175
 40
1.0
 40
1.0
 40
1.0
 40
1.0
 10
-53.0277523217
 20
-9.0149968798
 30
0.0
 10
-53.0316056213
 20
-9.0149985167
 30
0.0
 10
-53.0377626781
 20
-9.0101617601
 30
0.0
 10
-53.043272397
 20
-9.0014844202
 30
0.0
 10
-53.0505001094
 20
-8.9863225511
 30
0.0
 10
-53.0585592165
 20
-8.9602172067
 30
0.0
 10
-53.0675099268
 20
-8.9206157107
 30
0.0
 10
-53.0760485606
 20
-8.870457631
 30
0.0
 10
-53.0876883946
 20
-8.783974918
 30
0.0
 10
-53.0999601014
 20
-8.6535292738
 30
0.0
 10
-53.1114399372
 20
-8.4739741343
 30
0.0
 10
-53.1199227382
 20
-8.2690012887
 30
0.0
 10
-53.1251408565
 20
-8.0464819365
 30
0.0
 10
-53.1263043547
 20
-7.8931650827
 30
0.0
 10
-53.1263043547
 20
-7.815
 30
0.0
  0
SPLINE
  5
4E8
100
AcDbEntity
  8
ASSI
100
AcDbSpline
 62
7
  6
CONTINUOUS
 70
0
 71
3
 72
20
 73
16
 74
0
 42
0.0000001
 43
0.0000001
 44
0.0000000001
 40
0.0
 40
0.0
 40
0.0
 40
0.0
 40
0.1945083031
 40
0.3815247007
 40
0.5538865763
 40
0.704973855
 40
0.7706991105
 40
0.8290248003
 40
0.8793944048
 40
0.9213405593
 40
0.9544842516
 40
0.9785520645
 40
0.9934550085
 40
0.9975983981
 40
1.0
 40
1.0
 40
1.0
 40
1.0
 10
-53.5370292122
 20
-0.615
 30
0.0
 10
-53.5370292122
 20
-0.5369363171
 30
0.0
 10
-53.5365029775
 20
-0.3838151958
 30
0.0
 10
-53.5341380189
 20
-0.1615295514
 30
0.0
 10
-53.530249722
 20
0.0433056319
 30
0.0
 10
-53.5256527711
 20
0.1994332779
 30
0.0
 10
-53.5210879749
 20
0.3097645281
 30
0.0
 10
-53.5175112326
 20
0.3796743861
 30
0.0
 10
-53.5136487179
 20
0.4400167891
 30
0.0
 10
-53.5095532555
 20
0.4901895873
 30
0.0
 10
-53.5052545976
 20
0.5298011178
 30
0.0
 10
-53.5009329464
 20
0.5583354875
 30
0.0
 10
-53.4968270425
 20
0.5753628514
 30
0.0
 10
-53.4933140065
 20
0.5831204777
 30
0.0
 10
-53.4909815421
 20
0.5849964294
 30
0.0
 10
-53.4900176866
 20
0.5849963716
 30
0.0
  0
SPLINE
  5
4E9
100
AcDbEntity
  8
ASSI
100
AcDbSpline
 62
7
  6
CONTINUOUS
 70
0
 71
3
 72
17
 73
13
 74
0
 42
0.0000001
 43
0.0000001
 44
0.0000000001
 40
0.0
 40
0.0
 40
0.0
 40
0.0
 40
0.0307203953
 40
0.0567132613
 40
0.0908036493
 40
0.1330373407
 40
0.1832146903
 40
0.2409852678
 40
0.3058791663
 40
0.4547246242
 40
0.6243924246
 40
1.0
 40
1.0
 40
1.0
 40
1.0
 10
-52.2544700843
 20
26.9850034376
 30
0.0
 10
-52.2670353667
 20
26.9850036198
 30
0.0
 10
-52.2855668165
 20
27.0064763942
 30
0.0
 10
-52.3006034451
 20
27.038755383
 30
0.0
 10
-52.3145886938
 20
27.0788468596
 30
0.0
 10
-52.3275349918
 20
27.1287716802
 30
0.0
 10
-52.3400126249
 20
27.1890065675
 30
0.0
 10
-52.3516300261
 20
27.2587331528
 30
0.0
 10
-52.3666185006
 20
27.3687914949
 30
0.0
 10
-52.3819851787
 20
27.5249058144
 30
0.0
 10
-52.4001747999
 20
27.8082634685
 30
0.0
 10
-52.4051104473
 20
28.031368668
 30
0.0
 10
-52.4051104473
 20
28.185
 30
0.0
  0
SPLINE
  5
4EA
100
AcDbEntity
  8
ASSI
100
AcDbSpline
 62
7
  6
CONTINUOUS
 70
0
 71
3
 72
20
 73
16
 74
0
 42
0.0000001
 43
0.0000001
 44
0.0000000001
 40
0.0
 40
0.0
 40
0.0
 40
0.0
 40
0.0024016904
 40
0.0065448865
 40
0.0214477127
 40
0.0455150534
 40
0.0786581187
 40
0.1206036497
 40
0.1709728483
 40
0.2292980795
 40
0.2950229082
 40
0.4461099797
 40
0.6184730878
 40
0.8054911917
 40
1.0
 40
1.0
 40
1.0
 40
1.0
 10
-53.4900176831
 20
-9.0149963706
 30
0.0
 10
-53.490981574
 20
-9.0149963196
 30
0.0
 10
-53.4933138296
 20
-9.0131203039
 30
0.0
 10
-53.4968273441
 20
-9.0053630428
 30
0.0
 10
-53.5009326815
 20
-8.9883357208
 30
0.0
 10
-53.5052546009
 20
-8.959801996
 30
0.0
 10
-53.5095530715
 20
-8.9201910903
 30
0.0
 10
-53.5136485759
 20
-8.870018987
 30
0.0
 10
-53.5175110641
 20
-8.809677176
 30
0.0
 10
-53.5210878288
 20
-8.7397678447
 30
0.0
 10
-53.525652638
 20
-8.6294370388
 30
0.0
 10
-53.5302496405
 20
-8.4733091634
 30
0.0
 10
-53.5341379896
 20
-8.2684728957
 30
0.0
 10
-53.5365029717
 20
-8.0461858817
 30
0.0
 10
-53.5370292122
 20
-7.8930638813
 30
0.0
 10
-53.5370292122
 20
-7.815
 30
0.0
  0
SPLINE
  5
4EB
100
AcDbEntity
  8
ASSI
100
AcDbSpline
 62
7
  6
CONTINUOUS
 70
0
 71
3
 72
19
 73
15
 74
0
 42
0.0000001
 43
0.0000001
 44
0.0000000001
 40
0.0
 40
0.0
 40
0.0
 40
0.0
 40
0.1931886804
 40
0.3789213388
 40
0.5500942104
 40
0.7001830256
 40
0.8235756177
 40
0.8738172424
 40
0.9158276711
 40
0.9492947957
 40
0.9740855514
 40
0.983285133
 40
0.990476257
 40
1.0
 40
1.0
 40
1.0
 40
1.0
 10
-53.1263043547
 20
-0.615
 30
0.0
 10
-53.1263043547
 20
-0.5368351619
 30
0.0
 10
-53.1251408698
 20
-0.3835192274
 30
0.0
 10
-53.1199228062
 20
-0.1610011881
 30
0.0
 10
-53.1114401096
 20
0.043970734
 30
0.0
 10
-53.0999603717
 20
0.2235259259
 30
0.0
 10
-53.0876886903
 20
0.3539721506
 30
0.0
 10
-53.076048898
 20
0.4404554819
 30
0.0
 10
-53.0675102355
 20
0.4906141249
 30
0.0
 10
-53.0585594317
 20
0.5302162483
 30
0.0
 10
-53.0505003234
 20
0.5563220912
 30
0.0
 10
-53.043272471
 20
0.5714842223
 30
0.0
 10
-53.0377626848
 20
0.5801615699
 30
0.0
 10
-53.0316056651
 20
0.5849986453
 30
0.0
 10
-53.0277523247
 20
0.5849969435
 30
0.0
  0
SPLINE
  5
4EC
100
AcDbEntity
  8
ASSI
100
AcDbSpline
 62
7
  6
CONTINUOUS
 70
0
 71
3
 72
17
 73
13
 74
0
 42
0.0000001
 43
0.0000001
 44
0.0000000001
 40
0.0
 40
0.0
 40
0.0
 40
0.0
 40
0.3756052164
 40
0.5452718712
 40
0.6941176256
 40
0.7590119755
 40
0.8167830278
 40
0.8669607876
 40
0.9091951032
 40
0.9432861188
 40
0.9692794483
 40
1.0
 40
1.0
 40
1.0
 40
1.0
 10
-52.4051104473
 20
-0.615
 30
0.0
 10
-52.4051104473
 20
-0.461369637
 30
0.0
 10
-52.4001748534
 20
-0.238265879
 30
0.0
 10
-52.3819854716
 20
0.0450904669
 30
0.0
 10
-52.3666189517
 20
0.2012046334
 30
0.0
 10
-52.3516305176
 20
0.3112634834
 30
0.0
 10
-52.3400131595
 20
0.3809906248
 30
0.0
 10
-52.3275354888
 20
0.4412261435
 30
0.0
 10
-52.3145891553
 20
0.4911516229
 30
0.0
 10
-52.3006037192
 20
0.5312438735
 30
0.0
 10
-52.2855670333
 20
0.5635231159
 30
0.0
 10
-52.2670354413
 20
0.5849968343
 30
0.0
 10
-52.2544700953
 20
0.5849965653
 30
0.0
  0
SPLINE
  5
4ED
100
AcDbEntity
  8
ASSI
100
AcDbSpline
 62
7
  6
CONTINUOUS
 70
0
 71
3
 72
19
 73
15
 74
0
 42
0.0000001
 43
0.0000001
 44
0.0000000001
 40
0.0
 40
0.0
 40
0.0
 40
0.0
 40
0.0095236418
 40
0.0167146942
 40
0.0259141968
 40
0.0507044433
 40
0.0841709469
 40
0.126180948
 40
0.1764222339
 40
0.2998140892
 40
0.4499025499
 40
0.621076394
 40
0.8068107175
 40
1.0
 40
1.0
 40
1.0
 40
1.0
 10
-53.0277523217
 20
19.7850031202
 30
0.0
 10
-53.0316056213
 20
19.7850014833
 30
0.0
 10
-53.0377626781
 20
19.7898382399
 30
0.0
 10
-53.043272397
 20
19.7985155798
 30
0.0
 10
-53.0505001094
 20
19.8136774489
 30
0.0
 10
-53.0585592165
 20
19.8397827933
 30
0.0
 10
-53.0675099268
 20
19.8793842893
 30
0.0
 10
-53.0760485606
 20
19.929542369
 30
0.0
 10
-53.0876883946
 20
20.016025082
 30
0.0
 10
-53.0999601014
 20
20.1464707262
 30
0.0
 10
-53.1114399372
 20
20.3260258657
 30
0.0
 10
-53.1199227382
 20
20.5309987113
 30
0.0
 10
-53.1251408565
 20
20.7535180635
 30
0.0
 10
-53.1263043547
 20
20.9068349173
 30
0.0
 10
-53.1263043547
 20
20.985
 30
0.0
  0
SPLINE
  5
4EE
100
AcDbEntity
  8
ASSI
100
AcDbSpline
 62
7
  6
CONTINUOUS
 70
0
 71
3
 72
17
 73
13
 74
0
 42
0.0000001
 43
0.0000001
 44
0.0000000001
 40
0.0
 40
0.0
 40
0.0
 40
0.0
 40
0.0307203953
 40
0.0567132613
 40
0.0908036493
 40
0.1330373407
 40
0.1832146903
 40
0.2409852678
 40
0.3058791663
 40
0.4547246242
 40
0.6243924246
 40
1.0
 40
1.0
 40
1.0
 40
1.0
 10
-52.2544700843
 20
34.1850034376
 30
0.0
 10
-52.2670353667
 20
34.1850036198
 30
0.0
 10
-52.2855668165
 20
34.2064763942
 30
0.0
 10
-52.3006034451
 20
34.238755383
 30
0.0
 10
-52.3145886938
 20
34.2788468596
 30
0.0
 10
-52.3275349918
 20
34.3287716802
 30
0.0
 10
-52.3400126249
 20
34.3890065675
 30
0.0
 10
-52.3516300261
 20
34.4587331528
 30
0.0
 10
-52.3666185006
 20
34.5687914949
 30
0.0
 10
-52.3819851787
 20
34.7249058144
 30
0.0
 10
-52.4001747999
 20
35.0082634685
 30
0.0
 10
-52.4051104473
 20
35.231368668
 30
0.0
 10
-52.4051104473
 20
35.385
 30
0.0
  0
SPLINE
  5
4EF
100
AcDbEntity
  8
ASSI
100
AcDbSpline
 62
7
  6
CONTINUOUS
 70
0
 71
3
 72
20
 73
16
 74
0
 42
0.0000001
 43
0.0000001
 44
0.0000000001
 40
0.0
 40
0.0
 40
0.0
 40
0.0
 40
0.1945083031
 40
0.3815247007
 40
0.5538865763
 40
0.704973855
 40
0.7706991105
 40
0.8290248003
 40
0.8793944048
 40
0.9213405593
 40
0.9544842516
 40
0.9785520645
 40
0.9934550085
 40
0.9975983981
 40
1.0
 40
1.0
 40
1.0
 40
1.0
 10
-53.5370292122
 20
6.585
 30
0.0
 10
-53.5370292122
 20
6.6630636829
 30
0.0
 10
-53.5365029775
 20
6.8161848042
 30
0.0
 10
-53.5341380189
 20
7.0384704486
 30
0.0
 10
-53.530249722
 20
7.2433056319
 30
0.0
 10
-53.5256527711
 20
7.3994332779
 30
0.0
 10
-53.5210879749
 20
7.5097645281
 30
0.0
 10
-53.5175112326
 20
7.5796743861
 30
0.0
 10
-53.5136487179
 20
7.6400167891
 30
0.0
 10
-53.5095532555
 20
7.6901895873
 30
0.0
 10
-53.5052545976
 20
7.7298011178
 30
0.0
 10
-53.5009329464
 20
7.7583354875
 30
0.0
 10
-53.4968270425
 20
7.7753628514
 30
0.0
 10
-53.4933140065
 20
7.7831204777
 30
0.0
 10
-53.4909815421
 20
7.7849964294
 30
0.0
 10
-53.4900176866
 20
7.7849963716
 30
0.0
  0
SPLINE
  5
4F0
100
AcDbEntity
  8
ASSI
100
AcDbSpline
 62
7
  6
CONTINUOUS
 70
0
 71
3
 72
19
 73
15
 74
0
 42
0.0000001
 43
0.0000001
 44
0.0000000001
 40
0.0
 40
0.0
 40
0.0
 40
0.0
 40
0.1931886804
 40
0.3789213388
 40
0.5500942104
 40
0.7001830256
 40
0.8235756177
 40
0.8738172424
 40
0.9158276711
 40
0.9492947957
 40
0.9740855514
 40
0.983285133
 40
0.990476257
 40
1.0
 40
1.0
 40
1.0
 40
1.0
 10
-53.1263043547
 20
6.585
 30
0.0
 10
-53.1263043547
 20
6.6631648381
 30
0.0
 10
-53.1251408698
 20
6.8164807726
 30
0.0
 10
-53.1199228062
 20
7.0389988119
 30
0.0
 10
-53.1114401096
 20
7.243970734
 30
0.0
 10
-53.0999603717
 20
7.4235259259
 30
0.0
 10
-53.0876886903
 20
7.5539721506
 30
0.0
 10
-53.076048898
 20
7.6404554819
 30
0.0
 10
-53.0675102355
 20
7.6906141249
 30
0.0
 10
-53.0585594317
 20
7.7302162483
 30
0.0
 10
-53.0505003234
 20
7.7563220912
 30
0.0
 10
-53.043272471
 20
7.7714842223
 30
0.0
 10
-53.0377626848
 20
7.7801615699
 30
0.0
 10
-53.0316056651
 20
7.7849986453
 30
0.0
 10
-53.0277523247
 20
7.7849969435
 30
0.0
  0
SPLINE
  5
4F1
100
AcDbEntity
  8
ASSI
100
AcDbSpline
 62
7
  6
CONTINUOUS
 70
0
 71
3
 72
17
 73
13
 74
0
 42
0.0000001
 43
0.0000001
 44
0.0000000001
 40
0.0
 40
0.0
 40
0.0
 40
0.0
 40
0.3756052164
 40
0.5452718712
 40
0.6941176256
 40
0.7590119755
 40
0.8167830278
 40
0.8669607876
 40
0.9091951032
 40
0.9432861188
 40
0.9692794483
 40
1.0
 40
1.0
 40
1.0
 40
1.0
 10
-52.4051104473
 20
6.585
 30
0.0
 10
-52.4051104473
 20
6.738630363
 30
0.0
 10
-52.4001748534
 20
6.961734121
 30
0.0
 10
-52.3819854716
 20
7.2450904669
 30
0.0
 10
-52.3666189517
 20
7.4012046334
 30
0.0
 10
-52.3516305176
 20
7.5112634834
 30
0.0
 10
-52.3400131595
 20
7.5809906248
 30
0.0
 10
-52.3275354888
 20
7.6412261435
 30
0.0
 10
-52.3145891553
 20
7.6911516229
 30
0.0
 10
-52.3006037192
 20
7.7312438735
 30
0.0
 10
-52.2855670333
 20
7.7635231159
 30
0.0
 10
-52.2670354413
 20
7.7849968343
 30
0.0
 10
-52.2544700953
 20
7.7849965653
 30
0.0
  0
SPLINE
  5
4F2
100
AcDbEntity
  8
ASSI
100
AcDbSpline
 62
7
  6
CONTINUOUS
 70
0
 71
3
 72
17
 73
13
 74
0
 42
0.0000001
 43
0.0000001
 44
0.0000000001
 40
0.0
 40
0.0
 40
0.0
 40
0.0
 40
0.0307203953
 40
0.0567132613
 40
0.0908036493
 40
0.1330373407
 40
0.1832146903
 40
0.2409852678
 40
0.3058791663
 40
0.4547246242
 40
0.6243924246
 40
1.0
 40
1.0
 40
1.0
 40
1.0
 10
-52.2544700843
 20
-1.8149965624
 30
0.0
 10
-52.2670353667
 20
-1.8149963802
 30
0.0
 10
-52.2855668165
 20
-1.7935236058
 30
0.0
 10
-52.3006034451
 20
-1.761244617
 30
0.0
 10
-52.3145886938
 20
-1.7211531404
 30
0.0
 10
-52.3275349918
 20
-1.6712283198
 30
0.0
 10
-52.3400126249
 20
-1.6109934325
 30
0.0
 10
-52.3516300261
 20
-1.5412668472
 30
0.0
 10
-52.3666185006
 20
-1.4312085051
 30
0.0
 10
-52.3819851787
 20
-1.2750941856
 30
0.0
 10
-52.4001747999
 20
-0.9917365315
 30
0.0
 10
-52.4051104473
 20
-0.768631332
 30
0.0
 10
-52.4051104473
 20
-0.615
 30
0.0
  0
SPLINE
  5
4F3
100
AcDbEntity
  8
ASSI
100
AcDbSpline
 62
7
  6
CONTINUOUS
 70
0
 71
3
 72
19
 73
15
 74
0
 42
0.0000001
 43
0.0000001
 44
0.0000000001
 40
0.0
 40
0.0
 40
0.0
 40
0.0
 40
0.0095236418
 40
0.0167146942
 40
0.0259141968
 40
0.0507044433
 40
0.0841709469
 40
0.126180948
 40
0.1764222339
 40
0.2998140892
 40
0.4499025499
 40
0.621076394
 40
0.8068107175
 40
1.0
 40
1.0
 40
1.0
 40
1.0
 10
-53.0277523217
 20
34.1850031202
 30
0.0
 10
-53.0316056213
 20
34.1850014833
 30
0.0
 10
-53.0377626781
 20
34.1898382399
 30
0.0
 10
-53.043272397
 20
34.1985155798
 30
0.0
 10
-53.0505001094
 20
34.2136774489
 30
0.0
 10
-53.0585592165
 20
34.2397827933
 30
0.0
 10
-53.0675099268
 20
34.2793842893
 30
0.0
 10
-53.0760485606
 20
34.329542369
 30
0.0
 10
-53.0876883946
 20
34.416025082
 30
0.0
 10
-53.0999601014
 20
34.5464707262
 30
0.0
 10
-53.1114399372
 20
34.7260258657
 30
0.0
 10
-53.1199227382
 20
34.9309987113
 30
0.0
 10
-53.1251408565
 20
35.1535180635
 30
0.0
 10
-53.1263043547
 20
35.3068349173
 30
0.0
 10
-53.1263043547
 20
35.385
 30
0.0
  0
SPLINE
  5
4F4
100
AcDbEntity
  8
ASSI
100
AcDbSpline
 62
7
  6
CONTINUOUS
 70
0
 71
3
 72
20
 73
16
 74
0
 42
0.0000001
 43
0.0000001
 44
0.0000000001
 40
0.0
 40
0.0
 40
0.0
 40
0.0
 40
0.1945083031
 40
0.3815247007
 40
0.5538865763
 40
0.704973855
 40
0.7706991105
 40
0.8290248003
 40
0.8793944048
 40
0.9213405593
 40
0.9544842516
 40
0.9785520645
 40
0.9934550085
 40
0.9975983981
 40
1.0
 40
1.0
 40
1.0
 40
1.0
 10
-53.5370292122
 20
13.785
 30
0.0
 10
-53.5370292122
 20
13.8630636829
 30
0.0
 10
-53.5365029775
 20
14.0161848042
 30
0.0
 10
-53.5341380189
 20
14.2384704486
 30
0.0
 10
-53.530249722
 20
14.4433056319
 30
0.0
 10
-53.5256527711
 20
14.5994332779
 30
0.0
 10
-53.5210879749
 20
14.7097645281
 30
0.0
 10
-53.5175112326
 20
14.7796743861
 30
0.0
 10
-53.5136487179
 20
14.8400167891
 30
0.0
 10
-53.5095532555
 20
14.8901895873
 30
0.0
 10
-53.5052545976
 20
14.9298011178
 30
0.0
 10
-53.5009329464
 20
14.9583354875
 30
0.0
 10
-53.4968270425
 20
14.9753628514
 30
0.0
 10
-53.4933140065
 20
14.9831204777
 30
0.0
 10
-53.4909815421
 20
14.9849964294
 30
0.0
 10
-53.4900176866
 20
14.9849963716
 30
0.0
  0
SPLINE
  5
4F5
100
AcDbEntity
  8
ASSI
100
AcDbSpline
 62
7
  6
CONTINUOUS
 70
0
 71
3
 72
19
 73
15
 74
0
 42
0.0000001
 43
0.0000001
 44
0.0000000001
 40
0.0
 40
0.0
 40
0.0
 40
0.0
 40
0.1931886804
 40
0.3789213388
 40
0.5500942104
 40
0.7001830256
 40
0.8235756177
 40
0.8738172424
 40
0.9158276711
 40
0.9492947957
 40
0.9740855514
 40
0.983285133
 40
0.990476257
 40
1.0
 40
1.0
 40
1.0
 40
1.0
 10
-53.1263043547
 20
13.785
 30
0.0
 10
-53.1263043547
 20
13.8631648381
 30
0.0
 10
-53.1251408698
 20
14.0164807726
 30
0.0
 10
-53.1199228062
 20
14.2389988119
 30
0.0
 10
-53.1114401096
 20
14.443970734
 30
0.0
 10
-53.0999603717
 20
14.6235259259
 30
0.0
 10
-53.0876886903
 20
14.7539721506
 30
0.0
 10
-53.076048898
 20
14.8404554819
 30
0.0
 10
-53.0675102355
 20
14.8906141249
 30
0.0
 10
-53.0585594317
 20
14.9302162483
 30
0.0
 10
-53.0505003234
 20
14.9563220912
 30
0.0
 10
-53.043272471
 20
14.9714842223
 30
0.0
 10
-53.0377626848
 20
14.9801615699
 30
0.0
 10
-53.0316056651
 20
14.9849986453
 30
0.0
 10
-53.0277523247
 20
14.9849969435
 30
0.0
  0
SPLINE
  5
4F6
100
AcDbEntity
  8
ASSI
100
AcDbSpline
 62
7
  6
CONTINUOUS
 70
0
 71
3
 72
17
 73
13
 74
0
 42
0.0000001
 43
0.0000001
 44
0.0000000001
 40
0.0
 40
0.0
 40
0.0
 40
0.0
 40
0.3756052164
 40
0.5452718712
 40
0.6941176256
 40
0.7590119755
 40
0.8167830278
 40
0.8669607876
 40
0.9091951032
 40
0.9432861188
 40
0.9692794483
 40
1.0
 40
1.0
 40
1.0
 40
1.0
 10
-52.4051104473
 20
13.785
 30
0.0
 10
-52.4051104473
 20
13.938630363
 30
0.0
 10
-52.4001748534
 20
14.161734121
 30
0.0
 10
-52.3819854716
 20
14.4450904669
 30
0.0
 10
-52.3666189517
 20
14.6012046334
 30
0.0
 10
-52.3516305176
 20
14.7112634834
 30
0.0
 10
-52.3400131595
 20
14.7809906248
 30
0.0
 10
-52.3275354888
 20
14.8412261435
 30
0.0
 10
-52.3145891553
 20
14.8911516229
 30
0.0
 10
-52.3006037192
 20
14.9312438735
 30
0.0
 10
-52.2855670333
 20
14.9635231159
 30
0.0
 10
-52.2670354413
 20
14.9849968343
 30
0.0
 10
-52.2544700953
 20
14.9849965653
 30
0.0
  0
SPLINE
  5
4F7
100
AcDbEntity
  8
ASSI
100
AcDbSpline
 62
7
  6
CONTINUOUS
 70
0
 71
3
 72
19
 73
15
 74
0
 42
0.0000001
 43
0.0000001
 44
0.0000000001
 40
0.0
 40
0.0
 40
0.0
 40
0.0
 40
0.0095236418
 40
0.0167146942
 40
0.0259141968
 40
0.0507044433
 40
0.0841709469
 40
0.126180948
 40
0.1764222339
 40
0.2998140892
 40
0.4499025499
 40
0.621076394
 40
0.8068107175
 40
1.0
 40
1.0
 40
1.0
 40
1.0
 10
-53.0277523217
 20
-1.8149968798
 30
0.0
 10
-53.0316056213
 20
-1.8149985167
 30
0.0
 10
-53.0377626781
 20
-1.8101617601
 30
0.0
 10
-53.043272397
 20
-1.8014844202
 30
0.0
 10
-53.0505001094
 20
-1.7863225511
 30
0.0
 10
-53.0585592165
 20
-1.7602172067
 30
0.0
 10
-53.0675099268
 20
-1.7206157107
 30
0.0
 10
-53.0760485606
 20
-1.670457631
 30
0.0
 10
-53.0876883946
 20
-1.583974918
 30
0.0
 10
-53.0999601014
 20
-1.4535292738
 30
0.0
 10
-53.1114399372
 20
-1.2739741343
 30
0.0
 10
-53.1199227382
 20
-1.0690012887
 30
0.0
 10
-53.1251408565
 20
-0.8464819365
 30
0.0
 10
-53.1263043547
 20
-0.6931650827
 30
0.0
 10
-53.1263043547
 20
-0.615
 30
0.0
  0
SPLINE
  5
4F8
100
AcDbEntity
  8
ASSI
100
AcDbSpline
 62
7
  6
CONTINUOUS
 70
0
 71
3
 72
20
 73
16
 74
0
 42
0.0000001
 43
0.0000001
 44
0.0000000001
 40
0.0
 40
0.0
 40
0.0
 40
0.0
 40
0.1945083031
 40
0.3815247007
 40
0.5538865763
 40
0.704973855
 40
0.7706991105
 40
0.8290248003
 40
0.8793944048
 40
0.9213405593
 40
0.9544842516
 40
0.9785520645
 40
0.9934550085
 40
0.9975983981
 40
1.0
 40
1.0
 40
1.0
 40
1.0
 10
-53.5370292122
 20
20.985
 30
0.0
 10
-53.5370292122
 20
21.0630636829
 30
0.0
 10
-53.5365029775
 20
21.2161848042
 30
0.0
 10
-53.5341380189
 20
21.4384704486
 30
0.0
 10
-53.530249722
 20
21.6433056319
 30
0.0
 10
-53.5256527711
 20
21.7994332779
 30
0.0
 10
-53.5210879749
 20
21.9097645281
 30
0.0
 10
-53.5175112326
 20
21.9796743861
 30
0.0
 10
-53.5136487179
 20
22.0400167891
 30
0.0
 10
-53.5095532555
 20
22.0901895873
 30
0.0
 10
-53.5052545976
 20
22.1298011178
 30
0.0
 10
-53.5009329464
 20
22.1583354875
 30
0.0
 10
-53.4968270425
 20
22.1753628514
 30
0.0
 10
-53.4933140065
 20
22.1831204777
 30
0.0
 10
-53.4909815421
 20
22.1849964294
 30
0.0
 10
-53.4900176866
 20
22.1849963716
 30
0.0
  0
SPLINE
  5
4F9
100
AcDbEntity
  8
ASSI
100
AcDbSpline
 62
7
  6
CONTINUOUS
 70
0
 71
3
 72
20
 73
16
 74
0
 42
0.0000001
 43
0.0000001
 44
0.0000000001
 40
0.0
 40
0.0
 40
0.0
 40
0.0
 40
0.0024016904
 40
0.0065448865
 40
0.0214477127
 40
0.0455150534
 40
0.0786581187
 40
0.1206036497
 40
0.1709728483
 40
0.2292980795
 40
0.2950229082
 40
0.4461099797
 40
0.6184730878
 40
0.8054911917
 40
1.0
 40
1.0
 40
1.0
 40
1.0
 10
-53.4900176831
 20
19.7850036294
 30
0.0
 10
-53.490981574
 20
19.7850036804
 30
0.0
 10
-53.4933138296
 20
19.7868796961
 30
0.0
 10
-53.4968273441
 20
19.7946369572
 30
0.0
 10
-53.5009326815
 20
19.8116642792
 30
0.0
 10
-53.5052546009
 20
19.840198004
 30
0.0
 10
-53.5095530715
 20
19.8798089097
 30
0.0
 10
-53.5136485759
 20
19.929981013
 30
0.0
 10
-53.5175110641
 20
19.990322824
 30
0.0
 10
-53.5210878288
 20
20.0602321553
 30
0.0
 10
-53.525652638
 20
20.1705629612
 30
0.0
 10
-53.5302496405
 20
20.3266908366
 30
0.0
 10
-53.5341379896
 20
20.5315271043
 30
0.0
 10
-53.5365029717
 20
20.7538141183
 30
0.0
 10
-53.5370292122
 20
20.9069361187
 30
0.0
 10
-53.5370292122
 20
20.985
 30
0.0
  0
SPLINE
  5
4FA
100
AcDbEntity
  8
ASSI
100
AcDbSpline
 62
7
  6
CONTINUOUS
 70
0
 71
3
 72
19
 73
15
 74
0
 42
0.0000001
 43
0.0000001
 44
0.0000000001
 40
0.0
 40
0.0
 40
0.0
 40
0.0
 40
0.1931886804
 40
0.3789213388
 40
0.5500942104
 40
0.7001830256
 40
0.8235756177
 40
0.8738172424
 40
0.9158276711
 40
0.9492947957
 40
0.9740855514
 40
0.983285133
 40
0.990476257
 40
1.0
 40
1.0
 40
1.0
 40
1.0
 10
-53.1263043547
 20
20.985
 30
0.0
 10
-53.1263043547
 20
21.0631648381
 30
0.0
 10
-53.1251408698
 20
21.2164807726
 30
0.0
 10
-53.1199228062
 20
21.4389988119
 30
0.0
 10
-53.1114401096
 20
21.643970734
 30
0.0
 10
-53.0999603717
 20
21.8235259259
 30
0.0
 10
-53.0876886903
 20
21.9539721506
 30
0.0
 10
-53.076048898
 20
22.0404554819
 30
0.0
 10
-53.0675102355
 20
22.0906141249
 30
0.0
 10
-53.0585594317
 20
22.1302162483
 30
0.0
 10
-53.0505003234
 20
22.1563220912
 30
0.0
 10
-53.043272471
 20
22.1714842223
 30
0.0
 10
-53.0377626848
 20
22.1801615699
 30
0.0
 10
-53.0316056651
 20
22.1849986453
 30
0.0
 10
-53.0277523247
 20
22.1849969435
 30
0.0
  0
SPLINE
  5
4FB
100
AcDbEntity
  8
ASSI
100
AcDbSpline
 62
7
  6
CONTINUOUS
 70
0
 71
3
 72
17
 73
13
 74
0
 42
0.0000001
 43
0.0000001
 44
0.0000000001
 40
0.0
 40
0.0
 40
0.0
 40
0.0
 40
0.0307203953
 40
0.0567132613
 40
0.0908036493
 40
0.1330373407
 40
0.1832146903
 40
0.2409852678
 40
0.3058791663
 40
0.4547246242
 40
0.6243924246
 40
1.0
 40
1.0
 40
1.0
 40
1.0
 10
-52.2544700843
 20
5.3850034376
 30
0.0
 10
-52.2670353667
 20
5.3850036198
 30
0.0
 10
-52.2855668165
 20
5.4064763942
 30
0.0
 10
-52.3006034451
 20
5.438755383
 30
0.0
 10
-52.3145886938
 20
5.4788468596
 30
0.0
 10
-52.3275349918
 20
5.5287716802
 30
0.0
 10
-52.3400126249
 20
5.5890065675
 30
0.0
 10
-52.3516300261
 20
5.6587331528
 30
0.0
 10
-52.3666185006
 20
5.7687914949
 30
0.0
 10
-52.3819851787
 20
5.9249058144
 30
0.0
 10
-52.4001747999
 20
6.2082634685
 30
0.0
 10
-52.4051104473
 20
6.431368668
 30
0.0
 10
-52.4051104473
 20
6.585
 30
0.0
  0
SPLINE
  5
4FC
100
AcDbEntity
  8
ASSI
100
AcDbSpline
 62
7
  6
CONTINUOUS
 70
0
 71
3
 72
17
 73
13
 74
0
 42
0.0000001
 43
0.0000001
 44
0.0000000001
 40
0.0
 40
0.0
 40
0.0
 40
0.0
 40
0.3756052164
 40
0.5452718712
 40
0.6941176256
 40
0.7590119755
 40
0.8167830278
 40
0.8669607876
 40
0.9091951032
 40
0.9432861188
 40
0.9692794483
 40
1.0
 40
1.0
 40
1.0
 40
1.0
 10
-52.4051104473
 20
20.985
 30
0.0
 10
-52.4051104473
 20
21.138630363
 30
0.0
 10
-52.4001748534
 20
21.361734121
 30
0.0
 10
-52.3819854716
 20
21.6450904669
 30
0.0
 10
-52.3666189517
 20
21.8012046334
 30
0.0
 10
-52.3516305176
 20
21.9112634834
 30
0.0
 10
-52.3400131595
 20
21.9809906248
 30
0.0
 10
-52.3275354888
 20
22.0412261435
 30
0.0
 10
-52.3145891553
 20
22.0911516229
 30
0.0
 10
-52.3006037192
 20
22.1312438735
 30
0.0
 10
-52.2855670333
 20
22.1635231159
 30
0.0
 10
-52.2670354413
 20
22.1849968343
 30
0.0
 10
-52.2544700953
 20
22.1849965653
 30
0.0
  0
SPLINE
  5
4FD
100
AcDbEntity
  8
ASSI
100
AcDbSpline
 62
7
  6
CONTINUOUS
 70
0
 71
3
 72
17
 73
13
 74
0
 42
0.0000001
 43
0.0000001
 44
0.0000000001
 40
0.0
 40
0.0
 40
0.0
 40
0.0
 40
0.0307203953
 40
0.0567132613
 40
0.0908036493
 40
0.1330373407
 40
0.1832146903
 40
0.2409852678
 40
0.3058791663
 40
0.4547246242
 40
0.6243924246
 40
1.0
 40
1.0
 40
1.0
 40
1.0
 10
-52.2544700843
 20
12.5850034376
 30
0.0
 10
-52.2670353667
 20
12.5850036198
 30
0.0
 10
-52.2855668165
 20
12.6064763942
 30
0.0
 10
-52.3006034451
 20
12.638755383
 30
0.0
 10
-52.3145886938
 20
12.6788468596
 30
0.0
 10
-52.3275349918
 20
12.7287716802
 30
0.0
 10
-52.3400126249
 20
12.7890065675
 30
0.0
 10
-52.3516300261
 20
12.8587331528
 30
0.0
 10
-52.3666185006
 20
12.9687914949
 30
0.0
 10
-52.3819851787
 20
13.1249058144
 30
0.0
 10
-52.4001747999
 20
13.4082634685
 30
0.0
 10
-52.4051104473
 20
13.631368668
 30
0.0
 10
-52.4051104473
 20
13.785
 30
0.0
  0
SPLINE
  5
4FE
100
AcDbEntity
  8
ASSI
100
AcDbSpline
 62
7
  6
CONTINUOUS
 70
0
 71
3
 72
20
 73
16
 74
0
 42
0.0000001
 43
0.0000001
 44
0.0000000001
 40
0.0
 40
0.0
 40
0.0
 40
0.0
 40
0.0024016904
 40
0.0065448865
 40
0.0214477127
 40
0.0455150534
 40
0.0786581187
 40
0.1206036497
 40
0.1709728483
 40
0.2292980795
 40
0.2950229082
 40
0.4461099797
 40
0.6184730878
 40
0.8054911917
 40
1.0
 40
1.0
 40
1.0
 40
1.0
 10
-53.4900176831
 20
-1.8149963706
 30
0.0
 10
-53.490981574
 20
-1.8149963196
 30
0.0
 10
-53.4933138296
 20
-1.8131203039
 30
0.0
 10
-53.4968273441
 20
-1.8053630428
 30
0.0
 10
-53.5009326815
 20
-1.7883357208
 30
0.0
 10
-53.5052546009
 20
-1.759801996
 30
0.0
 10
-53.5095530715
 20
-1.7201910903
 30
0.0
 10
-53.5136485759
 20
-1.670018987
 30
0.0
 10
-53.5175110641
 20
-1.609677176
 30
0.0
 10
-53.5210878288
 20
-1.5397678447
 30
0.0
 10
-53.525652638
 20
-1.4294370388
 30
0.0
 10
-53.5302496405
 20
-1.2733091634
 30
0.0
 10
-53.5341379896
 20
-1.0684728957
 30
0.0
 10
-53.5365029717
 20
-0.8461858817
 30
0.0
 10
-53.5370292122
 20
-0.6930638813
 30
0.0
 10
-53.5370292122
 20
-0.615
 30
0.0
  0
SPLINE
  5
4FF
100
AcDbEntity
  8
ASSI
100
AcDbSpline
 62
7
  6
CONTINUOUS
 70
0
 71
3
 72
19
 73
15
 74
0
 42
0.0000001
 43
0.0000001
 44
0.0000000001
 40
0.0
 40
0.0
 40
0.0
 40
0.0
 40
0.0095236418
 40
0.0167146942
 40
0.0259141968
 40
0.0507044433
 40
0.0841709469
 40
0.126180948
 40
0.1764222339
 40
0.2998140892
 40
0.4499025499
 40
0.621076394
 40
0.8068107175
 40
1.0
 40
1.0
 40
1.0
 40
1.0
 10
-53.0277523217
 20
5.3850031202
 30
0.0
 10
-53.0316056213
 20
5.3850014833
 30
0.0
 10
-53.0377626781
 20
5.3898382399
 30
0.0
 10
-53.043272397
 20
5.3985155798
 30
0.0
 10
-53.0505001094
 20
5.4136774489
 30
0.0
 10
-53.0585592165
 20
5.4397827933
 30
0.0
 10
-53.0675099268
 20
5.4793842893
 30
0.0
 10
-53.0760485606
 20
5.529542369
 30
0.0
 10
-53.0876883946
 20
5.616025082
 30
0.0
 10
-53.0999601014
 20
5.7464707262
 30
0.0
 10
-53.1114399372
 20
5.9260258657
 30
0.0
 10
-53.1199227382
 20
6.1309987113
 30
0.0
 10
-53.1251408565
 20
6.3535180635
 30
0.0
 10
-53.1263043547
 20
6.5068349173
 30
0.0
 10
-53.1263043547
 20
6.585
 30
0.0
  0
SPLINE
  5
500
100
AcDbEntity
  8
ASSI
100
AcDbSpline
 62
7
  6
CONTINUOUS
 70
0
 71
3
 72
19
 73
15
 74
0
 42
0.0000001
 43
0.0000001
 44
0.0000000001
 40
0.0
 40
0.0
 40
0.0
 40
0.0
 40
0.0095236418
 40
0.0167146942
 40
0.0259141968
 40
0.0507044433
 40
0.0841709469
 40
0.126180948
 40
0.1764222339
 40
0.2998140892
 40
0.4499025499
 40
0.621076394
 40
0.8068107175
 40
1.0
 40
1.0
 40
1.0
 40
1.0
 10
-53.0277523217
 20
26.9850031202
 30
0.0
 10
-53.0316056213
 20
26.9850014833
 30
0.0
 10
-53.0377626781
 20
26.9898382399
 30
0.0
 10
-53.043272397
 20
26.9985155798
 30
0.0
 10
-53.0505001094
 20
27.0136774489
 30
0.0
 10
-53.0585592165
 20
27.0397827933
 30
0.0
 10
-53.0675099268
 20
27.0793842893
 30
0.0
 10
-53.0760485606
 20
27.129542369
 30
0.0
 10
-53.0876883946
 20
27.216025082
 30
0.0
 10
-53.0999601014
 20
27.3464707262
 30
0.0
 10
-53.1114399372
 20
27.5260258657
 30
0.0
 10
-53.1199227382
 20
27.7309987113
 30
0.0
 10
-53.1251408565
 20
27.9535180635
 30
0.0
 10
-53.1263043547
 20
28.1068349173
 30
0.0
 10
-53.1263043547
 20
28.185
 30
0.0
  0
SPLINE
  5
501
100
AcDbEntity
  8
ASSI
100
AcDbSpline
 62
7
  6
CONTINUOUS
 70
0
 71
3
 72
17
 73
13
 74
0
 42
0.0000001
 43
0.0000001
 44
0.0000000001
 40
0.0
 40
0.0
 40
0.0
 40
0.0
 40
0.0307203953
 40
0.0567132613
 40
0.0908036493
 40
0.1330373407
 40
0.1832146903
 40
0.2409852678
 40
0.3058791663
 40
0.4547246242
 40
0.6243924246
 40
1.0
 40
1.0
 40
1.0
 40
1.0
 10
-52.2544700843
 20
19.7850034376
 30
0.0
 10
-52.2670353667
 20
19.7850036198
 30
0.0
 10
-52.2855668165
 20
19.8064763942
 30
0.0
 10
-52.3006034451
 20
19.838755383
 30
0.0
 10
-52.3145886938
 20
19.8788468596
 30
0.0
 10
-52.3275349918
 20
19.9287716802
 30
0.0
 10
-52.3400126249
 20
19.9890065675
 30
0.0
 10
-52.3516300261
 20
20.0587331528
 30
0.0
 10
-52.3666185006
 20
20.1687914949
 30
0.0
 10
-52.3819851787
 20
20.3249058144
 30
0.0
 10
-52.4001747999
 20
20.6082634685
 30
0.0
 10
-52.4051104473
 20
20.831368668
 30
0.0
 10
-52.4051104473
 20
20.985
 30
0.0
  0
SPLINE
  5
502
100
AcDbEntity
  8
ASSI
100
AcDbSpline
 62
7
  6
CONTINUOUS
 70
0
 71
3
 72
20
 73
16
 74
0
 42
0.0000001
 43
0.0000001
 44
0.0000000001
 40
0.0
 40
0.0
 40
0.0
 40
0.0
 40
0.1945083031
 40
0.3815247007
 40
0.5538865763
 40
0.704973855
 40
0.7706991105
 40
0.8290248003
 40
0.8793944048
 40
0.9213405593
 40
0.9544842516
 40
0.9785520645
 40
0.9934550085
 40
0.9975983981
 40
1.0
 40
1.0
 40
1.0
 40
1.0
 10
-53.5370292122
 20
28.185
 30
0.0
 10
-53.5370292122
 20
28.2630636829
 30
0.0
 10
-53.5365029775
 20
28.4161848042
 30
0.0
 10
-53.5341380189
 20
28.6384704486
 30
0.0
 10
-53.530249722
 20
28.8433056319
 30
0.0
 10
-53.5256527711
 20
28.9994332779
 30
0.0
 10
-53.5210879749
 20
29.1097645281
 30
0.0
 10
-53.5175112326
 20
29.1796743861
 30
0.0
 10
-53.5136487179
 20
29.2400167891
 30
0.0
 10
-53.5095532555
 20
29.2901895873
 30
0.0
 10
-53.5052545976
 20
29.3298011178
 30
0.0
 10
-53.5009329464
 20
29.3583354875
 30
0.0
 10
-53.4968270425
 20
29.3753628514
 30
0.0
 10
-53.4933140065
 20
29.3831204777
 30
0.0
 10
-53.4909815421
 20
29.3849964294
 30
0.0
 10
-53.4900176866
 20
29.3849963716
 30
0.0
  0
SPLINE
  5
503
100
AcDbEntity
  8
ASSI
100
AcDbSpline
 62
7
  6
CONTINUOUS
 70
0
 71
3
 72
20
 73
16
 74
0
 42
0.0000001
 43
0.0000001
 44
0.0000000001
 40
0.0
 40
0.0
 40
0.0
 40
0.0
 40
0.0024016904
 40
0.0065448865
 40
0.0214477127
 40
0.0455150534
 40
0.0786581187
 40
0.1206036497
 40
0.1709728483
 40
0.2292980795
 40
0.2950229082
 40
0.4461099797
 40
0.6184730878
 40
0.8054911917
 40
1.0
 40
1.0
 40
1.0
 40
1.0
 10
-53.4900176831
 20
5.3850036294
 30
0.0
 10
-53.490981574
 20
5.3850036804
 30
0.0
 10
-53.4933138296
 20
5.3868796961
 30
0.0
 10
-53.4968273441
 20
5.3946369572
 30
0.0
 10
-53.5009326815
 20
5.4116642792
 30
0.0
 10
-53.5052546009
 20
5.440198004
 30
0.0
 10
-53.5095530715
 20
5.4798089097
 30
0.0
 10
-53.5136485759
 20
5.529981013
 30
0.0
 10
-53.5175110641
 20
5.590322824
 30
0.0
 10
-53.5210878288
 20
5.6602321553
 30
0.0
 10
-53.525652638
 20
5.7705629612
 30
0.0
 10
-53.5302496405
 20
5.9266908366
 30
0.0
 10
-53.5341379896
 20
6.1315271043
 30
0.0
 10
-53.5365029717
 20
6.3538141183
 30
0.0
 10
-53.5370292122
 20
6.5069361187
 30
0.0
 10
-53.5370292122
 20
6.585
 30
0.0
  0
SPLINE
  5
504
100
AcDbEntity
  8
ASSI
100
AcDbSpline
 62
7
  6
CONTINUOUS
 70
0
 71
3
 72
19
 73
15
 74
0
 42
0.0000001
 43
0.0000001
 44
0.0000000001
 40
0.0
 40
0.0
 40
0.0
 40
0.0
 40
0.1931886804
 40
0.3789213388
 40
0.5500942104
 40
0.7001830256
 40
0.8235756177
 40
0.8738172424
 40
0.9158276711
 40
0.9492947957
 40
0.9740855514
 40
0.983285133
 40
0.990476257
 40
1.0
 40
1.0
 40
1.0
 40
1.0
 10
-53.1263043547
 20
28.185
 30
0.0
 10
-53.1263043547
 20
28.2631648381
 30
0.0
 10
-53.1251408698
 20
28.4164807726
 30
0.0
 10
-53.1199228062
 20
28.6389988119
 30
0.0
 10
-53.1114401096
 20
28.843970734
 30
0.0
 10
-53.0999603717
 20
29.0235259259
 30
0.0
 10
-53.0876886903
 20
29.1539721506
 30
0.0
 10
-53.076048898
 20
29.2404554819
 30
0.0
 10
-53.0675102355
 20
29.2906141249
 30
0.0
 10
-53.0585594317
 20
29.3302162483
 30
0.0
 10
-53.0505003234
 20
29.3563220912
 30
0.0
 10
-53.043272471
 20
29.3714842223
 30
0.0
 10
-53.0377626848
 20
29.3801615699
 30
0.0
 10
-53.0316056651
 20
29.3849986453
 30
0.0
 10
-53.0277523247
 20
29.3849969435
 30
0.0
  0
SPLINE
  5
505
100
AcDbEntity
  8
ASSI
100
AcDbSpline
 62
7
  6
CONTINUOUS
 70
0
 71
3
 72
19
 73
15
 74
0
 42
0.0000001
 43
0.0000001
 44
0.0000000001
 40
0.0
 40
0.0
 40
0.0
 40
0.0
 40
0.0095236418
 40
0.0167146942
 40
0.0259141968
 40
0.0507044433
 40
0.0841709469
 40
0.126180948
 40
0.1764222339
 40
0.2998140892
 40
0.4499025499
 40
0.621076394
 40
0.8068107175
 40
1.0
 40
1.0
 40
1.0
 40
1.0
 10
-53.0277523217
 20
12.5850031202
 30
0.0
 10
-53.0316056213
 20
12.5850014833
 30
0.0
 10
-53.0377626781
 20
12.5898382399
 30
0.0
 10
-53.043272397
 20
12.5985155798
 30
0.0
 10
-53.0505001094
 20
12.6136774489
 30
0.0
 10
-53.0585592165
 20
12.6397827933
 30
0.0
 10
-53.0675099268
 20
12.6793842893
 30
0.0
 10
-53.0760485606
 20
12.729542369
 30
0.0
 10
-53.0876883946
 20
12.816025082
 30
0.0
 10
-53.0999601014
 20
12.9464707262
 30
0.0
 10
-53.1114399372
 20
13.1260258657
 30
0.0
 10
-53.1199227382
 20
13.3309987113
 30
0.0
 10
-53.1251408565
 20
13.5535180635
 30
0.0
 10
-53.1263043547
 20
13.7068349173
 30
0.0
 10
-53.1263043547
 20
13.785
 30
0.0
  0
SPLINE
  5
506
100
AcDbEntity
  8
ASSI
100
AcDbSpline
 62
7
  6
CONTINUOUS
 70
0
 71
3
 72
17
 73
13
 74
0
 42
0.0000001
 43
0.0000001
 44
0.0000000001
 40
0.0
 40
0.0
 40
0.0
 40
0.0
 40
0.3756052164
 40
0.5452718712
 40
0.6941176256
 40
0.7590119755
 40
0.8167830278
 40
0.8669607876
 40
0.9091951032
 40
0.9432861188
 40
0.9692794483
 40
1.0
 40
1.0
 40
1.0
 40
1.0
 10
-52.4051104473
 20
28.185
 30
0.0
 10
-52.4051104473
 20
28.338630363
 30
0.0
 10
-52.4001748534
 20
28.561734121
 30
0.0
 10
-52.3819854716
 20
28.8450904669
 30
0.0
 10
-52.3666189517
 20
29.0012046334
 30
0.0
 10
-52.3516305176
 20
29.1112634834
 30
0.0
 10
-52.3400131595
 20
29.1809906248
 30
0.0
 10
-52.3275354888
 20
29.2412261435
 30
0.0
 10
-52.3145891553
 20
29.2911516229
 30
0.0
 10
-52.3006037192
 20
29.3312438735
 30
0.0
 10
-52.2855670333
 20
29.3635231159
 30
0.0
 10
-52.2670354413
 20
29.3849968343
 30
0.0
 10
-52.2544700953
 20
29.3849965653
 30
0.0
  0
SPLINE
  5
507
100
AcDbEntity
  8
ASSI
100
AcDbSpline
 62
7
  6
CONTINUOUS
 70
0
 71
3
 72
20
 73
16
 74
0
 42
0.0000001
 43
0.0000001
 44
0.0000000001
 40
0.0
 40
0.0
 40
0.0
 40
0.0
 40
0.0024016904
 40
0.0065448865
 40
0.0214477127
 40
0.0455150534
 40
0.0786581187
 40
0.1206036497
 40
0.1709728483
 40
0.2292980795
 40
0.2950229082
 40
0.4461099797
 40
0.6184730878
 40
0.8054911917
 40
1.0
 40
1.0
 40
1.0
 40
1.0
 10
-53.4900176831
 20
34.1850036294
 30
0.0
 10
-53.490981574
 20
34.1850036804
 30
0.0
 10
-53.4933138296
 20
34.1868796961
 30
0.0
 10
-53.4968273441
 20
34.1946369572
 30
0.0
 10
-53.5009326815
 20
34.2116642792
 30
0.0
 10
-53.5052546009
 20
34.240198004
 30
0.0
 10
-53.5095530715
 20
34.2798089097
 30
0.0
 10
-53.5136485759
 20
34.329981013
 30
0.0
 10
-53.5175110641
 20
34.390322824
 30
0.0
 10
-53.5210878288
 20
34.4602321553
 30
0.0
 10
-53.525652638
 20
34.5705629612
 30
0.0
 10
-53.5302496405
 20
34.7266908366
 30
0.0
 10
-53.5341379896
 20
34.9315271043
 30
0.0
 10
-53.5365029717
 20
35.1538141183
 30
0.0
 10
-53.5370292122
 20
35.3069361187
 30
0.0
 10
-53.5370292122
 20
35.385
 30
0.0
  0
SPLINE
  5
508
100
AcDbEntity
  8
ASSI
100
AcDbSpline
 62
7
  6
CONTINUOUS
 70
0
 71
3
 72
20
 73
16
 74
0
 42
0.0000001
 43
0.0000001
 44
0.0000000001
 40
0.0
 40
0.0
 40
0.0
 40
0.0
 40
0.0024016904
 40
0.0065448865
 40
0.0214477127
 40
0.0455150534
 40
0.0786581187
 40
0.1206036497
 40
0.1709728483
 40
0.2292980795
 40
0.2950229082
 40
0.4461099797
 40
0.6184730878
 40
0.8054911917
 40
1.0
 40
1.0
 40
1.0
 40
1.0
 10
-53.4900176831
 20
26.9850036294
 30
0.0
 10
-53.490981574
 20
26.9850036804
 30
0.0
 10
-53.4933138296
 20
26.9868796961
 30
0.0
 10
-53.4968273441
 20
26.9946369572
 30
0.0
 10
-53.5009326815
 20
27.0116642792
 30
0.0
 10
-53.5052546009
 20
27.040198004
 30
0.0
 10
-53.5095530715
 20
27.0798089097
 30
0.0
 10
-53.5136485759
 20
27.129981013
 30
0.0
 10
-53.5175110641
 20
27.190322824
 30
0.0
 10
-53.5210878288
 20
27.2602321553
 30
0.0
 10
-53.525652638
 20
27.3705629612
 30
0.0
 10
-53.5302496405
 20
27.5266908366
 30
0.0
 10
-53.5341379896
 20
27.7315271043
 30
0.0
 10
-53.5365029717
 20
27.9538141183
 30
0.0
 10
-53.5370292122
 20
28.1069361187
 30
0.0
 10
-53.5370292122
 20
28.185
 30
0.0
  0
SPLINE
  5
509
100
AcDbEntity
  8
ASSI
100
AcDbSpline
 62
7
  6
CONTINUOUS
 70
0
 71
3
 72
16
 73
12
 74
0
 42
0.0000001
 43
0.0000001
 44
0.0000000001
 40
0.0
 40
0.0
 40
0.0
 40
0.0
 40
0.0289316309
 40
0.0634649589
 40
0.1035945686
 40
0.1492079708
 40
0.2559996418
 40
0.3815349459
 40
0.5226980692
 40
0.6757321699
 40
1.0
 40
1.0
 40
1.0
 40
1.0
 10
-49.3338246014
 20
79.7500155549
 30
0.0
 10
-49.2829656309
 20
79.7178583626
 30
0.0
 10
-49.1661820289
 20
79.6555869653
 30
0.0
 10
-48.9674120906
 20
79.5720141159
 30
0.0
 10
-48.7306472206
 20
79.4907841666
 30
0.0
 10
-48.3454964149
 20
79.3807255155
 30
0.0
 10
-47.780088206
 20
79.2578174858
 30
0.0
 10
-47.0126093049
 20
79.1361904658
 30
0.0
 10
-46.1447928288
 20
79.0389252605
 30
0.0
 10
-44.8617079549
 20
78.9453384534
 30
0.0
 10
-43.8681921534
 20
78.9253559934
 30
0.0
 10
-43.1938246014
 20
78.9335104325
 30
0.0
  0
SPLINE
  5
50A
100
AcDbEntity
  8
ASSI
100
AcDbSpline
 62
7
  6
CONTINUOUS
 70
0
 71
3
 72
20
 73
16
 74
0
 42
0.0000001
 43
0.0000001
 44
0.0000000001
 40
0.0
 40
0.0
 40
0.0
 40
0.0
 40
0.004923337
 40
0.0111675706
 40
0.0189398597
 40
0.0283460865
 40
0.0522621491
 40
0.0831592864
 40
0.121122079
 40
0.1661763892
 40
0.277523172
 40
0.4169974368
 40
0.5842288503
 40
0.7787483731
 40
1.0
 40
1.0
 40
1.0
 40
1.0
 10
-55.5259224039
 20
84.3773853793
 30
0.0
 10
-55.5259219921
 20
84.364636416
 30
0.0
 10
-55.5202484403
 20
84.3357850158
 30
0.0
 10
-55.500585685
 20
84.2906864524
 30
0.0
 10
-55.4690611693
 20
84.2387057609
 30
0.0
 10
-55.4057137446
 20
84.1530893825
 30
0.0
 10
-55.2937957024
 20
84.0296597255
 30
0.0
 10
-55.1207840095
 20
83.8628943198
 30
0.0
 10
-54.8993348475
 20
83.6678928214
 30
0.0
 10
-54.5113415014
 20
83.3472302786
 30
0.0
 10
-53.9035049558
 20
82.8804727361
 30
0.0
 10
-53.0275745398
 20
82.2442569162
 30
0.0
 10
-51.9629473177
 20
81.5017289917
 30
0.0
 10
-50.7123780948
 20
80.6559594116
 30
0.0
 10
-49.8135716586
 20
80.0632117781
 30
0.0
 10
-49.3338246014
 20
79.7500155549
 30
0.0
  0
SPLINE
  5
50B
100
AcDbEntity
  8
RACCORDO
100
AcDbSpline
 62
250
  6
CONTINUOUS
 70
0
 71
3
 72
9
 73
5
 74
0
 42
0.0000001
 43
0.0000001
 44
0.0000000001
 40
0.0
 40
0.0
 40
0.0
 40
0.0
 40
0.2228325957
 40
1.0
 40
1.0
 40
1.0
 40
1.0
 10
-55.5259225906
 20
86.3073105691
 30
0.0
 10
-55.5259225511
 20
86.3035375954
 30
0.0
 10
-55.5248895026
 20
86.286602404
 30
0.0
 10
-55.5202465416
 20
86.270061294
 30
0.0
 10
-55.5156913366
 20
86.2577159791
 30
0.0
  0
SPLINE
  5
50C
100
AcDbEntity
  8
RACCORDO
100
AcDbSpline
 62
250
  6
CONTINUOUS
 70
0
 71
3
 72
19
 73
15
 74
0
 42
0.0000001
 43
0.0000001
 44
0.0000000001
 40
0.0
 40
0.0
 40
0.0
 40
0.0
 40
0.0063925555
 40
0.0142328494
 40
0.034539959
 40
0.0612588226
 40
0.0945055154
 40
0.1343257024
 40
0.1807272812
 40
0.2932199336
 40
0.4317734745
 40
0.596046927
 40
0.7856208833
 40
1.0
 40
1.0
 40
1.0
 40
1.0
 10
-55.5156913366
 20
86.2577159791
 30
0.0
 10
-55.5100194099
 20
86.2423441745
 30
0.0
 10
-55.493919642
 20
86.2094146752
 30
0.0
 10
-55.445820553
 20
86.134970327
 30
0.0
 10
-55.3549680617
 20
86.0270612513
 30
0.0
 10
-55.2101745466
 20
85.8808209582
 30
0.0
 10
-55.0207616312
 20
85.7087921602
 30
0.0
 10
-54.786861267
 20
85.5111146633
 30
0.0
 10
-54.3892963361
 20
85.1926719492
 30
0.0
 10
-53.7797438492
 20
84.7345091325
 30
0.0
 10
-52.913511912
 20
84.1156852629
 30
0.0
 10
-51.8736759575
 20
83.400334753
 30
0.0
 10
-50.6626600781
 20
82.591187367
 30
0.0
 10
-49.7954210192
 20
82.0255481224
 30
0.0
 10
-49.3338446086
 20
81.7274319204
 30
0.0
  0
SPLINE
  5
50D
100
AcDbEntity
  8
RACCORDO
100
AcDbSpline
 62
250
  6
CONTINUOUS
 70
0
 71
3
 72
17
 73
13
 74
0
 42
0.0000001
 43
0.0000001
 44
0.0000000001
 40
0.0
 40
0.0
 40
0.0
 40
0.0
 40
0.194531418
 40
0.3817474451
 40
0.5541878339
 40
0.7054206986
 40
0.8295887887
 40
0.9219761756
 40
0.9551388601
 40
0.979177568
 40
0.9939784491
 40
1.0
 40
1.0
 40
1.0
 40
1.0
 10
-40.0087198302
 20
-86.615
 30
0.0
 10
-40.0087198302
 20
-86.6280019112
 30
0.0
 10
-40.0086282255
 20
-86.6535165307
 30
0.0
 10
-40.0082208821
 20
-86.6905564904
 30
0.0
 10
-40.0075604547
 20
-86.7246919291
 30
0.0
 10
-40.006678904
 20
-86.7546271992
 30
0.0
 10
-40.005617515
 20
-86.7791452561
 30
0.0
 10
-40.0045483198
 20
-86.795894914
 30
0.0
 10
-40.0035796753
 20
-86.8057219053
 30
0.0
 10
-40.0028896804
 20
-86.810700413
 30
0.0
 10
-40.0023201213
 20
-86.8132490471
 30
0.0
 10
-40.0017121127
 20
-86.815
 30
0.0
 10
-40.0013096499
 20
-86.815
 30
0.0
  0
SPLINE
  5
50E
100
AcDbEntity
  8
RACCORDO
100
AcDbSpline
 62
250
  6
CONTINUOUS
 70
0
 71
3
 72
17
 73
13
 74
0
 42
0.0000001
 43
0.0000001
 44
0.0000000001
 40
0.0
 40
0.0
 40
0.0
 40
0.0
 40
0.1945836691
 40
0.3819483318
 40
0.5544544809
 40
0.7056584893
 40
0.8297718392
 40
0.9220861419
 40
0.9551997287
 40
0.9792149342
 40
0.9939905194
 40
1.0
 40
1.0
 40
1.0
 40
1.0
 10
-36.4732736315
 20
-86.615
 30
0.0
 10
-36.4732736315
 20
-86.6280054324
 30
0.0
 10
-36.4731817882
 20
-86.6535335353
 30
0.0
 10
-36.4727741993
 20
-86.690591395
 30
0.0
 10
-36.472113329
 20
-86.7247393155
 30
0.0
 10
-36.4712308996
 20
-86.7546733971
 30
0.0
 10
-36.4701693348
 20
-86.7791811404
 30
0.0
 10
-36.4691003918
 20
-86.7959186952
 30
0.0
 10
-36.4681315811
 20
-86.8057364137
 30
0.0
 10
-36.4674421832
 20
-86.8107075349
 30
0.0
 10
-36.4668744908
 20
-86.8132541136
 30
0.0
 10
-36.4662651082
 20
-86.815
 30
0.0
 10
-36.4658634512
 20
-86.815
 30
0.0
  0
SPLINE
  5
50F
100
AcDbEntity
  8
RACCORDO
100
AcDbSpline
 62
250
  6
CONTINUOUS
 70
0
 71
3
 72
8
 73
4
 74
0
 42
0.0000001
 43
0.0000001
 44
0.0000000001
 40
0.0
 40
0.0
 40
0.0
 40
0.0
 40
1.0
 40
1.0
 40
1.0
 40
1.0
 10
-43.1938220876
 20
80.9878579005
 30
0.0
 10
-38.8271692622
 20
81.0615621877
 30
0.0
 10
-34.4605032867
 20
81.134491443
 30
0.0
 10
-30.0938246014
 20
81.2066473804
 30
0.0
  0
SPLINE
  5
510
100
AcDbEntity
  8
RACCORDO
100
AcDbSpline
 62
250
  6
CONTINUOUS
 70
0
 71
3
 72
18
 73
14
 74
0
 42
0.0000001
 43
0.0000001
 44
0.0000000001
 40
0.0
 40
0.0
 40
0.0
 40
0.0
 40
0.0051164291
 40
0.0196029353
 40
0.0434868833
 40
0.0765772175
 40
0.1185298417
 40
0.1689741186
 40
0.2932871578
 40
0.4447621043
 40
0.6175142494
 40
0.8050881574
 40
1.0
 40
1.0
 40
1.0
 40
1.0
 10
-33.5885888795
 20
-86.815
 30
0.0
 10
-33.5882475815
 20
-86.815
 30
0.0
 10
-33.588284113
 20
-86.8130254178
 30
0.0
 10
-33.5877316643
 20
-86.8107794425
 30
0.0
 10
-33.587569803
 20
-86.8056629265
 30
0.0
 10
-33.587196796
 20
-86.7992273762
 30
0.0
 10
-33.5869199458
 20
-86.7908024372
 30
0.0
 10
-33.5864961331
 20
-86.7763797399
 30
0.0
 10
-33.5860624848
 20
-86.7546049242
 30
0.0
 10
-33.585643532
 20
-86.7246943087
 30
0.0
 10
-33.5853337033
 20
-86.6905529516
 30
0.0
 10
-33.5851414552
 20
-86.6535162375
 30
0.0
 10
-33.5850983982
 20
-86.6280018438
 30
0.0
 10
-33.5850983982
 20
-86.615
 30
0.0
  0
SPLINE
  5
511
100
AcDbEntity
  8
RACCORDO
100
AcDbSpline
 62
7
  6
CONTINUOUS
 70
0
 71
3
 72
18
 73
14
 74
0
 42
0.0000001
 43
0.0000001
 44
0.0000000001
 40
0.0
 40
0.0
 40
0.0
 40
0.0
 40
0.1997528621
 40
0.3892170793
 40
0.561981442
 40
0.7122139087
 40
0.8347183476
 40
0.8842273218
 40
0.925327818
 40
0.9576888208
 40
0.9810033118
 40
0.9951131622
 40
1.0
 40
1.0
 40
1.0
 40
1.0
 10
-32.0923860727
 20
-85.9498759047
 30
0.0
 10
-32.0923031141
 20
-85.9620355744
 30
0.0
 10
-32.0920240865
 20
-85.9857278974
 30
0.0
 10
-32.0919230737
 20
-86.0199379149
 30
0.0
 10
-32.091913579
 20
-86.0511362074
 30
0.0
 10
-32.0919745858
 20
-86.078249289
 30
0.0
 10
-32.0921167275
 20
-86.0978821281
 30
0.0
 10
-32.0923131904
 20
-86.1108280381
 30
0.0
 10
-32.0924310596
 20
-86.1183689634
 30
0.0
 10
-32.092676055
 20
-86.1241096704
 30
0.0
 10
-32.0926750672
 20
-86.1286939255
 30
0.0
 10
-32.0931767854
 20
-86.1306601594
 30
0.0
 10
-32.0929967238
 20
-86.1324465108
 30
0.0
 10
-32.0932941986
 20
-86.1324491068
 30
0.0
  0
SPLINE
  5
512
100
AcDbEntity
  8
RACCORDO
100
AcDbSpline
 62
250
  6
CONTINUOUS
 70
0
 71
3
 72
17
 73
13
 74
0
 42
0.0000001
 43
0.0000001
 44
0.0000000001
 40
0.0
 40
0.0
 40
0.0
 40
0.0
 40
0.0060264558
 40
0.0208362484
 40
0.0448605846
 40
0.0780248477
 40
0.1704193476
 40
0.2946285838
 40
0.4458090347
 40
0.6182576437
 40
0.8055863716
 40
1.0
 40
1.0
 40
1.0
 40
1.0
 10
-40.1107170473
 20
-86.202416096
 30
0.0
 10
-40.1111199511
 20
-86.2024196121
 30
0.0
 10
-40.111741034
 20
-86.2006701024
 30
0.0
 10
-40.1123341745
 20
-86.1981273865
 30
0.0
 10
-40.1130683222
 20
-86.1931532319
 30
0.0
 10
-40.1141232637
 20
-86.1833327389
 30
0.0
 10
-40.115338825
 20
-86.1665840394
 30
0.0
 10
-40.1166128476
 20
-86.1420687018
 30
0.0
 10
-40.1177570357
 20
-86.112132928
 30
0.0
 10
-40.118714994
 20
-86.0779890771
 30
0.0
 10
-40.1194447503
 20
-86.040942041
 30
0.0
 10
-40.1197592613
 20
-86.0154214
 30
0.0
 10
-40.1198725347
 20
-86.0024237114
 30
0.0
  0
SPLINE
  5
513
100
AcDbEntity
  8
RACCORDO
100
AcDbSpline
 62
250
  6
CONTINUOUS
 70
0
 71
3
 72
19
 73
15
 74
0
 42
0.0000001
 43
0.0000001
 44
0.0000000001
 40
0.0
 40
0.0
 40
0.0
 40
0.0
 40
0.1947466141
 40
0.3820244042
 40
0.5545505961
 40
0.7057714673
 40
0.7715426465
 40
0.8298872355
 40
0.8802713684
 40
0.9222086529
 40
0.9553215929
 40
0.9793295165
 40
0.9940846802
 40
1.0
 40
1.0
 40
1.0
 40
1.0
 10
-31.8763934529
 20
-84.5467993456
 30
0.0
 10
-31.8761677062
 20
-84.5792944019
 30
0.0
 10
-31.8759415259
 20
-84.6430399262
 30
0.0
 10
-31.8762581983
 20
-84.7355740302
 30
0.0
 10
-31.8772191856
 20
-84.8208392465
 30
0.0
 10
-31.8785680003
 20
-84.8858252996
 30
0.0
 10
-31.8799956048
 20
-84.9317423457
 30
0.0
 10
-31.8811445435
 20
-84.9608483775
 30
0.0
 10
-31.882402171
 20
-84.9859252778
 30
0.0
 10
-31.8837653869
 20
-85.006904949
 30
0.0
 10
-31.8851772386
 20
-85.0231320301
 30
0.0
 10
-31.8866780857
 20
-85.0355994163
 30
0.0
 10
-31.8880206668
 20
-85.0419035955
 30
0.0
 10
-31.8893472358
 20
-85.0463404897
 30
0.0
 10
-31.8903341201
 20
-85.0463581903
 30
0.0
  0
SPLINE
  5
514
100
AcDbEntity
  8
RACCORDO
100
AcDbSpline
 62
250
  6
CONTINUOUS
 70
0
 71
3
 72
14
 73
10
 74
0
 42
0.0000001
 43
0.0000001
 44
0.0000000001
 40
0.0
 40
0.0
 40
0.0
 40
0.0
 40
0.343266682
 40
0.5022056597
 40
0.6463693351
 40
0.7714832448
 40
0.8738990696
 40
0.9507360804
 40
1.0
 40
1.0
 40
1.0
 40
1.0
 10
-43.1938246173
 20
80.9880413397
 30
0.0
 10
-43.1948912123
 20
81.0444417822
 30
0.0
 10
-43.1974950848
 20
81.1269445214
 30
0.0
 10
-43.2030425792
 20
81.23302032
 30
0.0
 10
-43.2075112119
 20
81.3032552135
 30
0.0
 10
-43.2126041269
 20
81.3641196075
 30
0.0
 10
-43.2179995497
 20
81.4138798843
 30
0.0
 10
-43.2236637255
 20
81.4509593154
 30
0.0
 10
-43.2280660512
 20
81.4713302689
 30
0.0
 10
-43.2308977969
 20
81.4789146277
 30
0.0
  0
SPLINE
  5
515
100
AcDbEntity
  8
RACCORDO
100
AcDbSpline
 62
250
  6
CONTINUOUS
 70
0
 71
3
 72
11
 73
7
 74
0
 42
0.0000001
 43
0.0000001
 44
0.0000000001
 40
0.0
 40
0.0
 40
0.0
 40
0.0
 40
0.2459314323
 40
0.4963758292
 40
0.7489042592
 40
1.0
 40
1.0
 40
1.0
 40
1.0
 10
-48.8529912681
 20
82.2203239648
 30
0.0
 10
-48.9143158473
 20
82.2172926228
 30
0.0
 10
-49.038006421
 20
82.1864154944
 30
0.0
 10
-49.1936356674
 20
82.0756495825
 30
0.0
 10
-49.301145574
 20
81.9163314567
 30
0.0
 10
-49.3308682973
 20
81.7907555924
 30
0.0
 10
-49.333822158
 20
81.7281364427
 30
0.0
  0
SPLINE
  5
516
100
AcDbEntity
  8
RACCORDO
100
AcDbSpline
 62
250
  6
CONTINUOUS
 70
0
 71
3
 72
8
 73
4
 74
0
 42
0.0000001
 43
0.0000001
 44
0.0000000001
 40
0.0
 40
0.0
 40
0.0
 40
0.0
 40
1.0
 40
1.0
 40
1.0
 40
1.0
 10
-43.2308977969
 20
81.4789146127
 30
0.0
 10
-38.851886519
 20
81.5529506138
 30
0.0
 10
-34.4728619719
 20
81.6262058854
 30
0.0
 10
-30.0938246014
 20
81.6986821584
 30
0.0
  0
SPLINE
  5
517
100
AcDbEntity
  8
RACCORDO
100
AcDbSpline
 62
250
  6
CONTINUOUS
 70
0
 71
3
 72
16
 73
12
 74
0
 42
0.0000001
 43
0.0000001
 44
0.0000000001
 40
0.0
 40
0.0
 40
0.0
 40
0.0
 40
0.0288780479
 40
0.0633625614
 40
0.1034435844
 40
0.149009344
 40
0.2557195637
 40
0.3812104187
 40
0.5223774179
 40
0.6754718266
 40
1.0
 40
1.0
 40
1.0
 40
1.0
 10
-48.852630929
 20
82.2201415311
 30
0.0
 10
-48.8060791357
 20
82.1908933266
 30
0.0
 10
-48.6991946919
 20
82.134283181
 30
0.0
 10
-48.5173176066
 20
82.0583654854
 30
0.0
 10
-48.3006777115
 20
81.9846177064
 30
0.0
 10
-47.9482358455
 20
81.884726938
 30
0.0
 10
-47.4308052652
 20
81.7732446263
 30
0.0
 10
-46.7283542695
 20
81.6629869314
 30
0.0
 10
-45.9338596666
 20
81.5748128346
 30
0.0
 10
-44.7587013462
 20
81.4899171337
 30
0.0
 10
-43.8486863444
 20
81.4716760614
 30
0.0
 10
-43.2308977969
 20
81.4789146127
 30
0.0
  0
SPLINE
  5
518
100
AcDbEntity
  8
RACCORDO
100
AcDbSpline
 62
250
  6
CONTINUOUS
 70
0
 71
3
 72
18
 73
14
 74
0
 42
0.0000001
 43
0.0000001
 44
0.0000000001
 40
0.0
 40
0.0
 40
0.0
 40
0.0
 40
0.0132171174
 40
0.0317720105
 40
0.0565723888
 40
0.0879826978
 40
0.1261674627
 40
0.1712076065
 40
0.281984916
 40
0.4204026429
 40
0.5863579186
 40
0.779648519
 40
1.0
 40
1.0
 40
1.0
 40
1.0
 10
-55.0256026596
 20
86.8147516575
 30
0.0
 10
-55.0271843769
 20
86.7965103604
 30
0.0
 10
-55.0169736525
 20
86.7520747716
 30
0.0
 10
-54.9795035151
 20
86.6831396793
 30
0.0
 10
-54.9177781224
 20
86.59957544
 30
0.0
 10
-54.8310526106
 20
86.5016245209
 30
0.0
 10
-54.719112309
 20
86.388878138
 30
0.0
 10
-54.522024719
 20
86.2060946257
 30
0.0
 10
-54.2103442195
 20
85.943133221
 30
0.0
 10
-53.7580117404
 20
85.5878789296
 30
0.0
 10
-53.2054320623
 20
85.1755292693
 30
0.0
 10
-52.5533697527
 20
84.7069787605
 30
0.0
 10
-52.0833719547
 20
84.379143847
 30
0.0
 10
-51.8320823419
 20
84.2058417985
 30
0.0
  0
SPLINE
  5
519
100
AcDbEntity
  8
RACCORDO
100
AcDbSpline
 62
250
  6
CONTINUOUS
 70
0
 71
3
 72
9
 73
5
 74
0
 42
0.0000001
 43
0.0000001
 44
0.0000000001
 40
0.0
 40
0.0
 40
0.0
 40
0.0
 40
0.4627678361
 40
1.0
 40
1.0
 40
1.0
 40
1.0
 10
-51.8320823419
 20
84.2058417985
 30
0.0
 10
-51.3773962554
 20
83.8922672368
 30
0.0
 10
-50.3884098663
 20
83.2240071826
 30
0.0
 10
-49.390526743
 20
82.56915879
 30
0.0
 10
-48.852630929
 20
82.2201415311
 30
0.0
  0
SPLINE
  5
51A
100
AcDbEntity
  8
RACCORDO
100
AcDbSpline
 62
250
  6
CONTINUOUS
 70
0
 71
3
 72
16
 73
12
 74
0
 42
0.0000001
 43
0.0000001
 44
0.0000000001
 40
0.0
 40
0.0
 40
0.0
 40
0.0
 40
0.0284666531
 40
0.0626783568
 40
0.1025973246
 40
0.1480902285
 40
0.254842415
 40
0.3805137986
 40
0.5219024174
 40
0.6751979444
 40
1.0
 40
1.0
 40
1.0
 40
1.0
 10
-49.3338452185
 20
81.7281481283
 30
0.0
 10
-49.2826607509
 20
81.6987164262
 30
0.0
 10
-49.1653632767
 20
81.6419384883
 30
0.0
 10
-48.9664173852
 20
81.566021183
 30
0.0
 10
-48.7293762308
 20
81.4922684272
 30
0.0
 10
-48.3434287261
 20
81.3923188804
 30
0.0
 10
-47.7773884433
 20
81.2809589333
 30
0.0
 10
-47.0096830431
 20
81.1709525265
 30
0.0
 10
-46.1420210784
 20
81.083097911
 30
0.0
 10
-44.8597502215
 20
80.9986704714
 30
0.0
 10
-43.8674573267
 20
80.9806827142
 30
0.0
 10
-43.1938220818
 20
80.9880413403
 30
0.0
  0
ELLIPSE
  5
51B
100
AcDbEntity
  8
DRAFT
100
AcDbEllipse
 62
7
  6
CONTINUOUS
 10
115.4297572664
 20
-83.9548556231
 30
0.0
 11
6.0
 21
-0.0
 31
0.0
 40
0.0174550649
 41
-1.2990560624
 42
0.0938582915
  0
ELLIPSE
  5
51C
100
AcDbEntity
  8
DRAFT
100
AcDbEllipse
 62
7
  6
CONTINUOUS
 10
109.8771518257
 20
-84.0105409876
 30
0.0
 11
2.5
 21
-0.0
 31
0.0
 40
0.0174550649
 41
-1.336832139
 42
-0.1658062789
  0
ELLIPSE
  5
51D
100
AcDbEntity
  8
DRAFT
100
AcDbEllipse
 62
7
  6
CONTINUOUS
 10
33.6960004153
 20
-84.0105409876
 30
0.0
 11
2.5
 21
-0.0
 31
0.0
 40
0.0174550649
 41
-2.9757863747
 42
-1.8047605146
  0
ELLIPSE
  5
51E
100
AcDbEntity
  8
DRAFT
100
AcDbEllipse
 62
7
  6
CONTINUOUS
 10
28.1433949745
 20
-83.9548556231
 30
0.0
 11
6.0
 21
-0.0
 31
0.0
 40
0.0174550649
 41
3.0477343621
 42
4.440648716
  0
ELLIPSE
  5
51F
100
AcDbEntity
  8
DRAFT
100
AcDbEllipse
 62
7
  6
CONTINUOUS
 10
71.7865761205
 20
-81.2208088575
 30
0.0
 11
166.8
 21
0.0
 31
0.0
 40
0.0174550649
 41
-1.8047605146
 42
-1.336832139
  0
ELLIPSE
  5
520
100
AcDbEntity
  8
RACCORDO
100
AcDbEllipse
 62
7
  6
CONTINUOUS
 10
71.7865761205
 20
-81.2208088575
 30
0.0
 11
168.6
 21
0.0
 31
0.0
 40
0.0174550649
 41
-1.8425365912
 42
-1.2990560624
  0
ELLIPSE
  5
521
100
AcDbEntity
  8
ASSI
100
AcDbEllipse
 62
7
  6
CONTINUOUS
 10
601.9883268942
 20
-212.540491827
 30
0.0
 11
3392.4395234593
 21
-0.0
 31
0.0
 40
0.0874886635
 41
1.7588124787
 42
1.7615350825
  0
ELLIPSE
  5
522
100
AcDbEntity
  8
CURVE
100
AcDbEllipse
 62
250
  6
CONTINUOUS
 10
114.9561753986
 20
-137.1479127531
 30
0.0
 11
0.0
 21
293.2617083065
 31
0.0
 40
0.5749131074
 41
1.3648281057
 42
1.372654436
  0
ELLIPSE
  5
523
100
AcDbEntity
  8
CURVE
100
AcDbEllipse
 62
250
  6
CONTINUOUS
 10
114.9561753986
 20
-21.702268726
 30
0.0
 11
-0.0
 21
293.2095386967
 31
0.0
 40
0.5750153994
 41
-4.5220625303
 42
-4.5142470896
  0
ELLIPSE
  5
524
100
AcDbEntity
  8
CURVE
100
AcDbEllipse
 62
250
  6
CONTINUOUS
 10
114.9561753986
 20
-132.7478917907
 30
0.0
 11
0.0
 21
231.6108446973
 31
0.0
 40
0.7279451885
 41
1.3348508119
 42
1.3384301954
  0
ELLIPSE
  5
525
100
AcDbEntity
  8
CURVE
100
AcDbEllipse
 62
250
  6
CONTINUOUS
 10
114.9561753986
 20
-131.3633669957
 30
0.0
 11
0.0
 21
231.5941496777
 31
0.0
 40
0.7279976642
 41
1.3379154469
 42
1.3445520849
  0
ELLIPSE
  5
526
100
AcDbEntity
  8
CURVE
100
AcDbEllipse
 62
250
  6
CONTINUOUS
 10
114.9561753986
 20
-20.1430631963
 30
0.0
 11
-0.0
 21
293.1844255515
 31
0.0
 40
0.5750646532
 41
-4.5192326617
 42
-4.5142470896
  0
ELLIPSE
  5
527
100
AcDbEntity
  8
CURVE
100
AcDbEllipse
 62
250
  6
CONTINUOUS
 10
114.9561753986
 20
-24.4680350043
 30
0.0
 11
-0.0
 21
231.5941496777
 31
0.0
 40
0.7279976642
 41
-4.4861447385
 42
-4.4795081005
  0
ELLIPSE
  5
528
100
AcDbEntity
  8
CURVE
100
AcDbEllipse
 62
250
  6
CONTINUOUS
 10
114.9561753986
 20
-135.5847241143
 30
0.0
 11
0.0
 21
293.266587003
 31
0.0
 40
0.5749035433
 41
1.3676652672
 42
1.372654436
  0
ELLIPSE
  5
529
100
AcDbEntity
  8
CURVE
100
AcDbEllipse
 62
250
  6
CONTINUOUS
 10
114.9561753986
 20
-23.0986563297
 30
0.0
 11
-0.0
 21
231.5450722724
 31
0.0
 40
0.7281519678
 41
-4.480022849
 42
-4.4764434655
  0
ELLIPSE
  5
52A
100
AcDbEntity
  8
CURVE
100
AcDbEllipse
 62
250
  6
CONTINUOUS
 10
114.9561753986
 20
-131.3517236703
 30
0.0
 11
0.0
 21
231.5450722724
 31
0.0
 40
0.7281519678
 41
1.3312683454
 42
1.3348508119
  0
ELLIPSE
  5
52B
100
AcDbEntity
  8
CURVE
100
AcDbEllipse
 62
250
  6
CONTINUOUS
 10
114.9561753986
 20
-24.9578179346
 30
0.0
 11
0.0
 21
231.9489066449
 31
0.0
 40
0.7268842196
 41
-4.4886496951
 42
-4.4853345759
  0
ELLIPSE
  5
52C
100
AcDbEntity
  8
CURVE
100
AcDbEllipse
 62
250
  6
CONTINUOUS
 10
114.9561753986
 20
-132.7556234265
 30
0.0
 11
0.0
 21
231.6430472823
 31
0.0
 40
0.7278439909
 41
1.3251282641
 42
1.3317839172
  0
ELLIPSE
  5
52D
100
AcDbEntity
  8
CURVE
100
AcDbEllipse
 62
250
  6
CONTINUOUS
 10
114.9561753986
 20
-23.0757785735
 30
0.0
 11
-0.0
 21
231.6430472823
 31
0.0
 40
0.7278439909
 41
-4.4733765708
 42
-4.4667209177
  0
ELLIPSE
  5
52E
100
AcDbEntity
  8
CURVE
100
AcDbEllipse
 62
250
  6
CONTINUOUS
 10
114.9561753986
 20
-24.4640742093
 30
0.0
 11
-0.0
 21
231.6108446973
 31
0.0
 40
0.7279451885
 41
-4.4764434655
 42
-4.472860999
  0
ELLIPSE
  5
52F
100
AcDbEntity
  8
0
100
AcDbEllipse
 62
7
  6
CONTINUOUS
 10
601.9883268942
 20
-212.540491827
 30
0.0
 11
3392.4395234593
 21
-0.0
 31
0.0
 40
0.0874886635
 41
1.7588124787
 42
1.7615350825
  0
ELLIPSE
  5
530
100
AcDbEntity
  8
RACCORDO
100
AcDbEllipse
 62
7
  6
CONTINUOUS
 10
608.3888970686
 20
-212.340491827
 30
0.0
 11
3392.4395234595
 21
-0.0
 31
0.0
 40
0.0874886635
 41
1.7606681269
 42
1.7640663693
  0
ENDSEC
  0
SECTION
  2
OBJECTS
  0
DICTIONARY
  5
C
100
AcDbDictionary
280
0
281
1
  3
ACAD_GROUP
350
D
  3
ACAD_MLINESTYLE
350
17
  3
ACAD_LAYOUT
350
1A
  3
ACAD_PLOTSETTINGS
350
19
  3
ACAD_PLOTSTYLENAME
350
E
  0
DICTIONARY
  5
D
102
{ACAD_REACTORS
330
C
102
}
100
AcDbDictionary
280
0
281
1
  0
ACDBDICTIONARYWDFLT
  5
E
102
{ACAD_REACTORS
330
C
102
}
100
AcDbDictionary
281
1
  3
Normal
350
F
100
AcDbDictionaryWithDefault
340
F
  0
DICTIONARY
  5
17
102
{ACAD_REACTORS
330
C
102
}
100
AcDbDictionary
280
0
281
1
  3
Standard
350
18
  0
DICTIONARY
  5
19
102
{ACAD_REACTORS
330
C
102
}
100
AcDbDictionary
281
1
  0
DICTIONARY
  5
1A
102
{ACAD_REACTORS
330
C
102
}
100
AcDbDictionary
281
1
  3
Model
350
531
  3
Layout1
350
532
  0
ACDBPLACEHOLDER
  5
F
102
{ACAD_REACTORS
330
E
102
}
  0
MLINESTYLE
  5
18
102
{ACAD_REACTORS
330
17
102
}
100
AcDbMlineStyle
  2
STANDARD
 70
0
  3

 62
256
 51
90.0
 52
90.0
 71
2
 49
0.5
 62
256
  6
BYLAYER
 49
-0.5
 62
256
  6
BYLAYER
  0
LAYOUT
  5
531
102
{ACAD_REACTORS
330
1A
102
}
100
AcDbPlotSettings
  1

  2
none_device
  4
ISO_A4_(297.00_x_210.00_MM)
  6

 40
0.0
 41
0.0
 42
0.0
 43
0.0
 44
297.0
 45
210.0
 46
0.0
 47
0.0
 48
0.0
 49
0.0
140
0.0
141
0.0
142
1.0
143
1.0
 70
1024
 72
1
 73
0
 74
0
  7

 75
0
147
1.0
148
0.0
149
0.0
100
AcDbLayout
  1
Model
 70
0
 71
0
 10
0.0
 20
0.0
 11
297.0
 21
210.0
 12
0.0
 22
0.0
 32
0.0
 14
0.0
 24
0.0
 34
0.0
 15
0.0
 25
0.0
 35
0.0
146
0.0
 13
0.0
 23
0.0
 33
0.0
 16
1.0
 26
0.0
 36
0.0
 17
0.0
 27
1.0
 37
0.0
 76
0
330
216
345
0
346
0
  0
LAYOUT
  5
532
102
{ACAD_REACTORS
330
1A
102
}
100
AcDbPlotSettings
  1

  2
none_device
  4
ISO_A4_(297.00_x_210.00_MM)
  6

 40
0.0
 41
0.0
 42
0.0
 43
0.0
 44
297.0
 45
210.0
 46
0.0
 47
0.0
 48
0.0
 49
0.0
140
0.0
141
0.0
142
1.0
143
1.0
 70
0
 72
1
 73
0
 74
0
  7

 75
0
147
1.0
148
0.0
149
0.0
100
AcDbLayout
  1
Layout1
 70
0
 71
1
 10
0.0
 20
0.0
 11
297.0
 21
210.0
 12
0.0
 22
0.0
 32
0.0
 14
0.0
 24
0.0
 34
0.0
 15
0.0
 25
0.0
 35
0.0
146
0.0
 13
0.0
 23
0.0
 33
0.0
 16
1.0
 26
0.0
 36
0.0
 17
0.0
 27
1.0
 37
0.0
 76
0
330
217
345
0
346
0
  0
ENDSEC
  0
EOF
