  0
SECTION
  2
HEADER
  9
$ACADVER
  1
AC1024
  9
$DWGCODEPAGE
  3
ANSI_1252
  9
$EXTMAX
 10
297.0
 20
210.0
 30
0.0
  9
$EXTMIN
 10
0.0
 20
0.0
 30
0.0
  9
$LIMMIN
 10
0.0
 20
0.0
  9
$LIMMAX
 10
297.0
 20
210.0
  9
$VIEWCTR
 10
148.5
 20
105.0
  9
$VIEWSIZE
 40
210.0
  9
$CLAYER
  8
0
  9
$LTSCALE
 40
16.335
  9
$CELTYPE
  6
BYLAYER
  9
$DIMSCALE
 40
1.0
  9
$DIMASZ
 40
3.5
  9
$DIMEXO
 40
1.0
  9
$DIMDLI
 40
11.286
  9
$DIMEXE
 40
1.5
  9
$DIMCEN
 40
2.673
  9
$DIMLFAC
 40
1.0
  9
$DIMBLK
  1
_FILLED
  9
$DIMALT
 70
0
  9
$DIMALTF
 40
0.0393700787
  9
$DIMTXT
 40
3.5
  9
$DIMTOL
 70
1
  9
$DIMLIM
 70
0
  9
$DIMTFAC
 40
1.0
  9
$DIMTP
 40
0.01
  9
$DIMTM
 40
0.01
  9
$DIMGAP
 40
0.625
  9
$DIMDSEP
 70
44
  9
$AUNITS
 70
0
  9
$PDMODE
 70
3
  9
$PDSIZE
 40
8.0
  9
$HANDSEED
  5
4DA
  9
$TILEMODE
 70
1
  9
$MEASUREMENT
 70
1
  9
$INSUNITS
 70
4
  0
ENDSEC
  0
SECTION
  2
CLASSES
  0
CLASS
  1
ACDBDICTIONARYWDFLT
  2
AcDbDictionaryWithDefault
  3
AutoCAD 2000
 90
0
 91
1
280
0
281
0
  0
CLASS
  1
ACDBPLACEHOLDER
  2
AcDbPlaceHolder
  3
AutoCAD 2000
 90
0
 91
1
280
0
281
0
  0
CLASS
  1
LAYOUT
  2
AcDbLayout
  3
AutoCAD 2000
 90
0
 91
0
280
0
281
0
  0
ENDSEC
  0
SECTION
  2
TABLES
  0
TABLE
  2
VPORT
  5
8
100
AcDbSymbolTable
 70
2
  0
VPORT
  5
1F4
100
AcDbSymbolTableRecord
100
AcDbViewportTableRecord
  2
*ACTIVE
 70
0
 10
0.0
 20
0.0
 11
1.0
 21
1.0
 12
148.5
 22
105.0
 13
0.0
 23
0.0
 14
1.0
 24
1.0
 15
0.0
 25
0.0
 16
0.0
 26
0.0
 36
1.0
 17
0.0
 27
0.0
 37
0.0
 40
210.0
 41
1.4142857143
 42
50.0
 43
0.0
 44
0.0
 50
0.0
 51
0.0
 71
0
 72
100
 73
1
 74
1
 75
0
 76
0
 77
0
 78
0
  0
ENDTAB
  0
TABLE
  2
LTYPE
  5
5
100
AcDbSymbolTable
 70
6
  0
LTYPE
  5
14
100
AcDbSymbolTableRecord
100
AcDbLinetypeTableRecord
  2
BYBLOCK
 70
0
  3

 72
65
 73
0
 40
0.0
  0
LTYPE
  5
15
100
AcDbSymbolTableRecord
100
AcDbLinetypeTableRecord
  2
BYLAYER
 70
0
  3

 72
65
 73
0
 40
0.0
  0
LTYPE
  5
16
100
AcDbSymbolTableRecord
100
AcDbLinetypeTableRecord
  2
CONTINUOUS
 70
64
  3
Solid line
 72
65
 73
0
 40
0.0
  0
LTYPE
  5
1F5
100
AcDbSymbolTableRecord
100
AcDbLinetypeTableRecord
  2
CENTER
 70
64
  3
____ _ ____ _ ____ _ ____ _ ____ _ ____ _ ____
 72
65
 73
4
 40
0.6
 49
0.375
 74
0
 49
-0.075
 74
0
 49
0.075
 74
0
 49
-0.075
 74
0
  0
LTYPE
  5
1F6
100
AcDbSymbolTableRecord
100
AcDbLinetypeTableRecord
  2
HIDDEN
 70
64
  3
- - - - - - - - - - - - - - - - - - - -
 72
65
 73
2
 40
0.2
 49
0.1
 74
0
 49
-0.1
 74
0
  0
LTYPE
  5
1F7
100
AcDbSymbolTableRecord
100
AcDbLinetypeTableRecord
  2
PHANTOM
 70
64
  3
_____ _ _ _____ _ _ _____ _ _ _____
 72
65
 73
6
 40
0.8
 49
0.45
 74
0
 49
-0.05
 74
0
 49
0.1
 74
0
 49
-0.05
 74
0
 49
0.1
 74
0
 49
-0.05
 74
0
  0
LTYPE
  5
1F8
100
AcDbSymbolTableRecord
100
AcDbLinetypeTableRecord
  2
DOT
 70
64
  3
. . . . . . . . . . . . . . . . . . . .
 72
65
 73
2
 40
0.2
 49
0.1
 74
0
 49
-0.1
 74
0
  0
LTYPE
  5
1F9
100
AcDbSymbolTableRecord
100
AcDbLinetypeTableRecord
  2
DASHED
 70
64
  3
- - - - - - - - - - - - - - - - - - - -
 72
65
 73
2
 40
0.2
 49
0.1
 74
0
 49
-0.1
 74
0
  0
ENDTAB
  0
TABLE
  2
LAYER
  5
2
100
AcDbSymbolTable
 70
36
  0
LAYER
  5
10
100
AcDbSymbolTableRecord
100
AcDbLayerTableRecord
  2
0
 70
0
 62
7
  6
CONTINUOUS
370
-3
390
F
  0
LAYER
  5
1FA
100
AcDbSymbolTableRecord
100
AcDbLayerTableRecord
  2
DEFAULT_1
 70
0
 62
7
  6
CENTER
370
-3
390
F
  0
LAYER
  5
1FB
100
AcDbSymbolTableRecord
100
AcDbLayerTableRecord
  2
DEFAULT_2
 70
0
 62
7
  6
HIDDEN
370
-3
390
F
  0
LAYER
  5
1FC
100
AcDbSymbolTableRecord
100
AcDbLayerTableRecord
  2
DEFAULT_3
 70
0
 62
7
  6
PHANTOM
370
-3
390
F
  0
LAYER
  5
1FD
100
AcDbSymbolTableRecord
100
AcDbLayerTableRecord
  2
3_ALL_SYMBOLS
 70
0
 62
7
  6
CONTINUOUS
370
-3
390
F
  0
LAYER
  5
1FE
100
AcDbSymbolTableRecord
100
AcDbLayerTableRecord
  2
ASSI
 70
0
 62
7
  6
CONTINUOUS
370
-3
390
F
  0
LAYER
  5
1FF
100
AcDbSymbolTableRecord
100
AcDbLayerTableRecord
  2
COLOR5
 70
0
 62
7
  6
CONTINUOUS
370
-3
390
F
  0
LAYER
  5
200
100
AcDbSymbolTableRecord
100
AcDbLayerTableRecord
  2
COORDINATE
 70
0
 62
7
  6
CONTINUOUS
370
-3
390
F
  0
LAYER
  5
201
100
AcDbSymbolTableRecord
100
AcDbLayerTableRecord
  2
COORD_ORIGINE
 70
0
 62
7
  6
CONTINUOUS
370
-3
390
F
  0
LAYER
  5
202
100
AcDbSymbolTableRecord
100
AcDbLayerTableRecord
  2
COPY_PUBLISH
 70
0
 62
7
  6
CONTINUOUS
370
-3
390
F
  0
LAYER
  5
203
100
AcDbSymbolTableRecord
100
AcDbLayerTableRecord
  2
COSMETICI
 70
0
 62
7
  6
CONTINUOUS
370
-3
390
F
  0
LAYER
  5
204
100
AcDbSymbolTableRecord
100
AcDbLayerTableRecord
  2
CURVE
 70
0
 62
7
  6
CONTINUOUS
370
-3
390
F
  0
LAYER
  5
205
100
AcDbSymbolTableRecord
100
AcDbLayerTableRecord
  2
DRAFT
 70
0
 62
7
  6
CONTINUOUS
370
-3
390
F
  0
LAYER
  5
206
100
AcDbSymbolTableRecord
100
AcDbLayerTableRecord
  2
IMPORT_IGES
 70
0
 62
7
  6
CONTINUOUS
370
-3
390
F
  0
LAYER
  5
207
100
AcDbSymbolTableRecord
100
AcDbLayerTableRecord
  2
NOTE
 70
0
 62
7
  6
CONTINUOUS
370
-3
390
F
  0
LAYER
  5
208
100
AcDbSymbolTableRecord
100
AcDbLayerTableRecord
  2
PIANI
 70
0
 62
7
  6
CONTINUOUS
370
-3
390
F
  0
LAYER
  5
209
100
AcDbSymbolTableRecord
100
AcDbLayerTableRecord
  2
PIANI_ORIGINE
 70
0
 62
7
  6
CONTINUOUS
370
-3
390
F
  0
LAYER
  5
20A
100
AcDbSymbolTableRecord
100
AcDbLayerTableRecord
  2
PUNTI
 70
0
 62
7
  6
CONTINUOUS
370
-3
390
F
  0
LAYER
  5
20B
100
AcDbSymbolTableRecord
100
AcDbLayerTableRecord
  2
RACCORDO
 70
0
 62
7
  6
CONTINUOUS
370
-3
390
F
  0
LAYER
  5
20C
100
AcDbSymbolTableRecord
100
AcDbLayerTableRecord
  2
SIMBOLI
 70
0
 62
7
  6
CONTINUOUS
370
-3
390
F
  0
LAYER
  5
20D
100
AcDbSymbolTableRecord
100
AcDbLayerTableRecord
  2
SMUSSO
 70
0
 62
7
  6
CONTINUOUS
370
-3
390
F
  0
LAYER
  5
20E
100
AcDbSymbolTableRecord
100
AcDbLayerTableRecord
  2
SNAPLINE
 70
0
 62
7
  6
CONTINUOUS
370
-3
390
F
  0
LAYER
  5
20F
100
AcDbSymbolTableRecord
100
AcDbLayerTableRecord
  2
SUPERFICI
 70
0
 62
7
  6
CONTINUOUS
370
-3
390
F
  0
LAYER
  5
210
100
AcDbSymbolTableRecord
100
AcDbLayerTableRecord
  2
TRASH
 70
0
 62
7
  6
CONTINUOUS
370
-3
390
F
  0
ENDTAB
  0
TABLE
  2
STYLE
  5
3
100
AcDbSymbolTable
 70
1
  0
STYLE
  5
11
100
AcDbSymbolTableRecord
100
AcDbTextStyleTableRecord
  2
STANDARD
 70
0
 40
0.0
 41
0.85
 50
0.0
 71
0
 42
0.2
  3
txt
  4

  0
STYLE
  5
211
100
AcDbSymbolTableRecord
100
AcDbTextStyleTableRecord
  2
TEXTSTYLE_1
 70
0
 40
0.0
 41
0.8
 50
0.0
 71
0
 42
0.2
  3
gdt
  4

  0
ENDTAB
  0
TABLE
  2
VIEW
  5
6
100
AcDbSymbolTable
 70
0
  0
ENDTAB
  0
TABLE
  2
UCS
  5
7
100
AcDbSymbolTable
 70
0
  0
ENDTAB
  0
TABLE
  2
APPID
  5
9
100
AcDbSymbolTable
 70
1
  0
APPID
  5
212
100
AcDbSymbolTableRecord
100
AcDbRegAppTableRecord
  2
ACAD
 70
0
  0
ENDTAB
  0
TABLE
  2
BLOCK_RECORD
  5
1
100
AcDbSymbolTable
 70
0
  0
BLOCK_RECORD
  5
213
100
AcDbSymbolTableRecord
100
AcDbBlockTableRecord
  2
*Model_Space
  0
BLOCK_RECORD
  5
214
100
AcDbSymbolTableRecord
100
AcDbBlockTableRecord
  2
*Paper_Space
  0
BLOCK_RECORD
  5
215
100
AcDbSymbolTableRecord
100
AcDbBlockTableRecord
  2
_FILLED
  0
BLOCK_RECORD
  5
216
100
AcDbSymbolTableRecord
100
AcDbBlockTableRecord
  2
*D0
  0
BLOCK_RECORD
  5
217
100
AcDbSymbolTableRecord
100
AcDbBlockTableRecord
  2
*D1
  0
BLOCK_RECORD
  5
218
100
AcDbSymbolTableRecord
100
AcDbBlockTableRecord
  2
*D2
  0
ENDTAB
  0
TABLE
  2
DIMSTYLE
  5
A
100
AcDbSymbolTable
 70
1
100
AcDbDimStyleTable
 71
0
  0
DIMSTYLE
105
219
100
AcDbSymbolTableRecord
100
AcDbDimStyleTableRecord
  2
STANDARD
 70
0
  3

  4

 40
1.0
 41
3.5
 42
1.0
 43
0.38
 44
1.5
 45
0.0
 46
0.0
 47
0.01
 48
0.01
140
3.5
141
0.09
142
0.0
143
25.4
144
1.0
145
0.0
146
1.0
147
0.625
 71
1
 72
0
 73
0
 74
0
 75
0
 76
0
 77
1
 78
8
 79
2
170
0
171
1
172
0
173
0
174
0
175
0
176
0
177
0
178
0
270
2
179
2
271
2
272
2
273
2
274
2
275
0
280
0
281
0
282
0
283
1
284
8
285
0
286
0
287
3
288
0
340
11
278
44
341
215
342
215
343
215
344
215
  0
DIMSTYLE
105
21A
100
AcDbSymbolTableRecord
100
AcDbDimStyleTableRecord
  2
DIMSTYLE_1
 70
0
  3

  4

 40
1.0
 41
3.5
 42
1.0
 43
0.38
 44
1.5
 45
0.0
 46
0.0
 47
0.01
 48
0.01
140
3.5
141
0.09
142
0.0
143
25.4
144
1.0
145
0.0
146
1.0
147
0.875
 71
0
 72
0
 73
0
 74
0
 75
0
 76
0
 77
1
 78
8
 79
2
170
0
171
1
172
0
173
0
174
0
175
0
176
0
177
0
178
0
270
2
179
2
271
0
272
0
273
2
274
2
275
0
280
0
281
0
282
0
283
1
284
8
285
0
286
0
287
3
288
0
340
11
278
44
341
215
342
215
343
215
344
215
  0
ENDTAB
  0
ENDSEC
  0
SECTION
  2
BLOCKS
  0
BLOCK
  5
20
100
AcDbEntity
  8
0
100
AcDbBlockBegin
  2
*Model_Space
 70
0
 10
0.0
 20
0.0
 30
0.0
  3
*Model_Space
  1

  0
ENDBLK
  5
21
100
AcDbEntity
  8
0
100
AcDbBlockEnd
  0
BLOCK
  5
1C
100
AcDbEntity
  8
0
100
AcDbBlockBegin
  2
*Paper_Space
 70
0
 10
0.0
 20
0.0
 30
0.0
  3
*Paper_Space
  1

  0
ENDBLK
  5
1D
100
AcDbEntity
  8
0
100
AcDbBlockEnd
  0
BLOCK
  5
21B
100
AcDbEntity
  8
0
100
AcDbBlockBegin
  2
_FILLED
 70
64
 10
0.0
 20
0.0
  3
_FILLED
  1

  0
SOLID
  5
21C
100
AcDbEntity
  8
0
  6
BYBLOCK
 62
0
100
AcDbTrace
 10
0.0
 20
0.0
 11
-1.0
 21
0.2142857143
 12
-1.0
 22
-0.2142857143
 13
-1.0
 23
-0.2142857143
  0
ENDBLK
  5
21D
100
AcDbEntity
  8
0
  6
BYBLOCK
 62
0
100
AcDbBlockEnd
  0
BLOCK
  5
21E
100
AcDbEntity
  8
0
100
AcDbBlockBegin
 62
7
  6
CONTINUOUS
  2
*D0
 70
65
 10
0.0
 20
0.0
  3
*D0
  1

  0
LINE
  5
21F
100
AcDbEntity
  8
0
100
AcDbLine
 62
7
  6
CONTINUOUS
 10
-48.5820232521
 20
-1.219006036
 11
-48.5820232521
 21
26.0973818225
  0
LINE
  5
220
100
AcDbEntity
  8
0
100
AcDbLine
 62
7
  6
CONTINUOUS
 10
-31.0820232521
 20
11.3730914099
 11
-31.0820232521
 21
26.0973818225
  0
LINE
  5
221
100
AcDbEntity
  8
0
100
AcDbLine
 62
7
  6
CONTINUOUS
 10
-48.5820232521
 20
24.5973818225
 11
-39.8320232521
 21
24.5973818225
  0
LINE
  5
222
100
AcDbEntity
  8
0
100
AcDbLine
 62
7
  6
CONTINUOUS
 10
-31.0820232521
 20
24.5973818225
 11
-39.8320232521
 21
24.5973818225
  0
INSERT
  5
223
100
AcDbEntity
  8
0
100
AcDbBlockReference
 62
7
  6
CONTINUOUS
  2
_FILLED
 10
-48.5820232521
 20
24.5973818225
 41
3.5
 42
3.5
 43
3.5
 50
180.0
  0
INSERT
  5
224
100
AcDbEntity
  8
0
100
AcDbBlockReference
 62
7
  6
CONTINUOUS
  2
_FILLED
 10
-31.0820232521
 20
24.5973818225
 41
3.5
 42
3.5
 43
3.5
 50
0.0
  0
ENDBLK
  5
225
100
AcDbEntity
  8
0
  6
BYBLOCK
 62
0
100
AcDbBlockEnd
  0
BLOCK
  5
226
100
AcDbEntity
  8
0
100
AcDbBlockBegin
 62
7
  6
CONTINUOUS
  2
*D1
 70
65
 10
0.0
 20
0.0
  3
*D1
  1

  0
LINE
  5
227
100
AcDbEntity
  8
0
100
AcDbLine
 62
7
  6
CONTINUOUS
 10
-15.1574781069
 20
11.5973341315
 11
-15.1575029323
 21
26.0973561411
  0
LINE
  5
228
100
AcDbEntity
  8
0
100
AcDbLine
 62
7
  6
CONTINUOUS
 10
14.8425218931
 20
11.5973341315
 11
14.8424970676
 21
26.0974075039
  0
LINE
  5
229
100
AcDbEntity
  8
0
100
AcDbLine
 62
7
  6
CONTINUOUS
 10
-15.1575003641
 20
24.5973561411
 11
-0.1575003642
 21
24.5973818225
  0
LINE
  5
22A
100
AcDbEntity
  8
0
100
AcDbLine
 62
7
  6
CONTINUOUS
 10
14.8424996358
 20
24.5974075039
 11
-0.1575003642
 21
24.5973818225
  0
INSERT
  5
22B
100
AcDbEntity
  8
0
100
AcDbBlockReference
 62
7
  6
CONTINUOUS
  2
_FILLED
 10
-15.1575003641
 20
24.5973561411
 41
3.5
 42
3.5
 43
3.5
 50
180.0000980956
  0
INSERT
  5
22C
100
AcDbEntity
  8
0
100
AcDbBlockReference
 62
7
  6
CONTINUOUS
  2
_FILLED
 10
14.8424996358
 20
24.5974075039
 41
3.5
 42
3.5
 43
3.5
 50
0.0000980956
  0
ENDBLK
  5
22D
100
AcDbEntity
  8
0
  6
BYBLOCK
 62
0
100
AcDbBlockEnd
  0
BLOCK
  5
22E
100
AcDbEntity
  8
0
100
AcDbBlockBegin
 62
7
  6
CONTINUOUS
  2
*D2
 70
65
 10
0.0
 20
0.0
  3
*D2
  1

  0
LINE
  5
22F
100
AcDbEntity
  8
0
100
AcDbLine
 62
7
  6
CONTINUOUS
 10
15.5755021734
 20
-16.5973818225
 11
24.7011140571
 21
-16.5973818225
  0
LINE
  5
230
100
AcDbEntity
  8
0
100
AcDbLine
 62
7
  6
CONTINUOUS
 10
13.417257347
 20
14.730784198
 11
24.7011140571
 21
14.730784198
  0
LINE
  5
231
100
AcDbEntity
  8
0
100
AcDbLine
 62
7
  6
CONTINUOUS
 10
23.2011140571
 20
-16.5973818225
 11
23.2011140571
 21
-0.9332988123
  0
LINE
  5
232
100
AcDbEntity
  8
0
100
AcDbLine
 62
7
  6
CONTINUOUS
 10
23.2011140571
 20
14.730784198
 11
23.2011140571
 21
-0.9332988123
  0
INSERT
  5
233
100
AcDbEntity
  8
0
100
AcDbBlockReference
 62
7
  6
CONTINUOUS
  2
_FILLED
 10
23.2011140571
 20
-16.5973818225
 41
3.5
 42
3.5
 43
3.5
 50
270.0
  0
INSERT
  5
234
100
AcDbEntity
  8
0
100
AcDbBlockReference
 62
7
  6
CONTINUOUS
  2
_FILLED
 10
23.2011140571
 20
14.730784198
 41
3.5
 42
3.5
 43
3.5
 50
90.0
  0
ENDBLK
  5
235
100
AcDbEntity
  8
0
  6
BYBLOCK
 62
0
100
AcDbBlockEnd
  0
ENDSEC
  0
SECTION
  2
ENTITIES
  0
DIMENSION
  5
236
100
AcDbEntity
  8
0
100
AcDbDimension
 62
7
  6
CONTINUOUS
  2
*D0
 10
-31.0820232521
 20
24.5973818225
 11
-42.8070232521
 21
24.5973818225
 70
160
 71
2
 72
2
 41
0.9
 42
17.5
  3
DIMSTYLE_1
100
AcDbAlignedDimension
 13
-48.5820232521
 23
-2.219006036
 14
-31.0820232521
 24
10.3730914099
100
AcDbRotatedDimension
  0
DIMENSION
  5
237
100
AcDbEntity
  8
0
100
AcDbDimension
 62
7
  6
CONTINUOUS
  2
*D1
 10
14.8424996358
 20
24.5974075039
 11
-3.1324985933
 21
24.597376729
 70
160
 71
2
 72
2
 41
0.9
 42
30.0
  3
DIMSTYLE_1
100
AcDbAlignedDimension
 13
-15.1574763948
 23
10.5973341315
 14
14.8425236052
 24
10.5973341315
 50
0.0000980956
100
AcDbRotatedDimension
  0
DIMENSION
  5
238
100
AcDbEntity
  8
0
100
AcDbDimension
 62
7
  6
CONTINUOUS
  2
*D2
 10
23.2011140571
 20
14.730784198
 11
23.2011140571
 21
-3.9082988123
 70
160
 71
2
 72
2
 41
0.9
 42
31.3281660205
  3
DIMSTYLE_1
100
AcDbAlignedDimension
 13
14.5755021734
 23
-16.5973818225
 14
12.417257347
 24
14.730784198
 50
90.0
100
AcDbRotatedDimension
  0
LWPOLYLINE
  5
239
100
AcDbEntity
  8
0
100
AcDbPolyline
 62
7
  6
CONTINUOUS
 90
9
 70
0
 43
0.3500000006
 10
-2.2028125491
 20
28.6807163086
 10
-1.8309375772
 20
28.972382309
 10
-1.4590626054
 20
28.972382309
 10
-1.0871875627
 20
28.6807163086
 10
-0.9012500768
 20
28.3890503082
 10
-0.9012500768
 20
28.097379776
 10
-1.0871875627
 20
27.8057137756
 10
-1.4590626054
 20
27.5140477753
 10
-1.0871875627
 20
27.2223817749
  0
LWPOLYLINE
  5
23A
100
AcDbEntity
  8
0
100
AcDbPolyline
 62
7
  6
CONTINUOUS
 90
5
 70
0
 43
0.3500000006
 10
-1.0871875627
 20
25.7640472412
 10
-1.4590626054
 20
25.4723812408
 10
-1.8309375772
 20
25.4723812408
 10
-2.2028125491
 20
25.7640472412
 10
-2.3887501059
 20
26.0557132416
  0
LWPOLYLINE
  5
23B
100
AcDbEntity
  8
RACCORDO
100
AcDbPolyline
 62
7
  6
CONTINUOUS
 90
16
 70
0
 10
14.5755021734
 20
-16.597427514
 10
14.6092794781
 20
-16.5955193861
 10
14.6415235602
 20
-16.5900723249
 10
14.6723338898
 20
-16.5813704989
 10
14.7019104507
 20
-16.569495418
 10
14.7301497644
 20
-16.5544957716
 10
14.7564626582
 20
-16.5367041382
 10
14.7803029831
 20
-16.5166456474
 10
14.8017878062
 20
-16.4943914982
 10
14.8210503052
 20
-16.4697821337
 10
14.8378110014
 20
-16.4430093327
 10
14.8517366991
 20
-16.4144509319
 10
14.8626793
 20
-16.384199041
 10
14.870393237
 20
-16.3525556913
 10
14.8746479743
 20
-16.320045215
 10
14.8755020857
 20
-16.297427514
  0
LINE
  5
23C
100
AcDbEntity
  8
RACCORDO
100
AcDbLine
 62
7
  6
CONTINUOUS
 10
-14.890454963
 20
-16.597427514
 11
-13.8814530542
 21
-16.597427514
  0
LINE
  5
23D
100
AcDbEntity
  8
RACCORDO
100
AcDbLine
 62
7
  6
CONTINUOUS
 10
14.5755021734
 20
-16.597427514
 11
13.5665002646
 21
-16.597427514
  0
LWPOLYLINE
  5
23E
100
AcDbEntity
  8
RACCORDO
100
AcDbPolyline
 62
7
  6
CONTINUOUS
 90
16
 70
0
 10
-14.890454963
 20
-16.597427514
 10
-14.9242322678
 20
-16.5955193861
 10
-14.9564763499
 20
-16.5900723249
 10
-14.9872866795
 20
-16.5813704989
 10
-15.0168632404
 20
-16.569495418
 10
-15.045102554
 20
-16.5544957716
 10
-15.0714154479
 20
-16.5367041382
 10
-15.0952557727
 20
-16.5166456474
 10
-15.1167405958
 20
-16.4943914982
 10
-15.1360030949
 20
-16.4697821337
 10
-15.152763791
 20
-16.4430093327
 10
-15.1666894888
 20
-16.4144509319
 10
-15.1776320897
 20
-16.384199041
 10
-15.1853460267
 20
-16.3525556913
 10
-15.1896007639
 20
-16.320045215
 10
-15.1904548753
 20
-16.297427514
  0
LWPOLYLINE
  5
23F
100
AcDbEntity
  8
RACCORDO
100
AcDbPolyline
 62
250
  6
CONTINUOUS
 90
13
 70
0
 10
-15.0491636024
 20
-14.1375737847
 10
-15.0465807907
 20
-14.1767062762
 10
-15.0389128738
 20
-14.2151695952
 10
-15.0262909746
 20
-14.2523060121
 10
-15.0089309298
 20
-14.2874804876
 10
-14.9871295992
 20
-14.3200915321
 10
-14.9612597894
 20
-14.3495814909
 10
-14.9317638786
 20
-14.3754460805
 10
-14.8991462523
 20
-14.3972430119
 10
-14.8639646775
 20
-14.4145995536
 10
-14.8268207654
 20
-14.4272189059
 10
-14.7883496834
 20
-14.4348852754
 10
-14.7492092939
 20
-14.437467566
  0
LINE
  5
240
100
AcDbEntity
  8
RACCORDO
100
AcDbLine
 62
250
  6
CONTINUOUS
 10
-15.1573369234
 20
8.6122938499
 11
-15.1574797757
 21
8.6226459777
  0
LINE
  5
241
100
AcDbEntity
  8
RACCORDO
100
AcDbLine
 62
7
  6
CONTINUOUS
 10
-15.1573369234
 20
8.6122938499
 11
-15.1566499793
 21
8.5873727742
  0
LINE
  5
242
100
AcDbEntity
  8
RACCORDO
100
AcDbLine
 62
250
  6
CONTINUOUS
 10
-15.1566499793
 20
8.5873727742
 11
-15.15668657
 21
8.5941397612
  0
LINE
  5
243
100
AcDbEntity
  8
RACCORDO
100
AcDbLine
 62
7
  6
CONTINUOUS
 10
-15.1573329418
 20
8.612422581
 11
-15.1574335832
 21
8.617282727
  0
LINE
  5
244
100
AcDbEntity
  8
RACCORDO
100
AcDbLine
 62
7
  6
CONTINUOUS
 10
-15.1566499793
 20
8.5873727742
 11
-15.1551836922
 21
8.5175863797
  0
LINE
  5
245
100
AcDbEntity
  8
RACCORDO
100
AcDbLine
 62
250
  6
CONTINUOUS
 10
-15.1551836922
 20
8.5175863797
 11
-15.1552720197
 21
8.5273356725
  0
LINE
  5
246
100
AcDbEntity
  8
RACCORDO
100
AcDbLine
 62
7
  6
CONTINUOUS
 10
-15.1551836922
 20
8.5175863797
 11
-15.1539432405
 21
8.430507659
  0
LINE
  5
247
100
AcDbEntity
  8
RACCORDO
100
AcDbLine
 62
7
  6
CONTINUOUS
 10
-15.1539432405
 20
8.430507659
 11
-15.1529841181
 21
8.3290432834
  0
LINE
  5
248
100
AcDbEntity
  8
RACCORDO
100
AcDbLine
 62
7
  6
CONTINUOUS
 10
-15.1574512072
 20
8.617282727
 11
-15.1574730125
 21
8.6217876469
  0
LINE
  5
249
100
AcDbEntity
  8
RACCORDO
100
AcDbLine
 62
250
  6
CONTINUOUS
 10
-15.0492134051
 20
-2.1853521748
 11
-15.0524832908
 21
-1.650886496
  0
LINE
  5
24A
100
AcDbEntity
  8
RACCORDO
100
AcDbLine
 62
7
  6
CONTINUOUS
 10
-15.1529841181
 20
8.3290432834
 11
-15.1522514214
 21
8.1578649184
  0
LINE
  5
24B
100
AcDbEntity
  8
RACCORDO
100
AcDbLine
 62
7
  6
CONTINUOUS
 10
-15.2011140571
 20
-14.3692870684
 11
-15.2011140571
 21
-12.381256085
  0
LINE
  5
24C
100
AcDbEntity
  8
RACCORDO
100
AcDbLine
 62
7
  6
CONTINUOUS
 10
-15.190454963
 20
-16.297427514
 11
-15.190454963
 21
-14.473649106
  0
LINE
  5
24D
100
AcDbEntity
  8
RACCORDO
100
AcDbLine
 62
7
  6
CONTINUOUS
 10
-15.1574763948
 20
10.5973341315
 11
-15.1574730125
 21
8.6217876469
  0
LINE
  5
24E
100
AcDbEntity
  8
RACCORDO
100
AcDbLine
 62
250
  6
CONTINUOUS
 10
-15.0524832908
 20
-1.650886496
 11
-15.0526524888
 21
10.3875785334
  0
LINE
  5
24F
100
AcDbEntity
  8
RACCORDO
100
AcDbLine
 62
250
  6
CONTINUOUS
 10
-15.0491636024
 20
-14.1375737847
 11
-15.0492134051
 21
-2.1853521748
  0
LINE
  5
250
100
AcDbEntity
  8
RACCORDO
100
AcDbLine
 62
250
  6
CONTINUOUS
 10
-14.890454963
 20
-16.597427514
 11
-14.890454963
 21
-14.669253962
  0
LINE
  5
251
100
AcDbEntity
  8
RACCORDO
100
AcDbLine
 62
7
  6
CONTINUOUS
 10
-15.1522514214
 20
8.1578649184
 11
-15.1522057148
 21
-11.1891794688
  0
LINE
  5
252
100
AcDbEntity
  8
RACCORDO
100
AcDbLine
 62
250
  6
CONTINUOUS
 10
-15.1521484855
 20
-11.1722262379
 11
-15.1522057148
 21
-11.1891794688
  0
LINE
  5
253
100
AcDbEntity
  8
RACCORDO
100
AcDbLine
 62
250
  6
CONTINUOUS
 10
-15.1522276506
 20
-11.2105954359
 11
-15.15218672
 21
-11.2241730896
  0
LINE
  5
254
100
AcDbEntity
  8
RACCORDO
100
AcDbLine
 62
7
  6
CONTINUOUS
 10
-15.1522057148
 20
-11.1891794688
 11
-15.1526846297
 21
-11.3550315692
  0
LINE
  5
255
100
AcDbEntity
  8
RACCORDO
100
AcDbLine
 62
250
  6
CONTINUOUS
 10
-15.1524962858
 20
-11.3255669456
 11
-15.1526846297
 21
-11.3550315692
  0
LINE
  5
256
100
AcDbEntity
  8
RACCORDO
100
AcDbLine
 62
250
  6
CONTINUOUS
 10
-15.1527952829
 20
-11.3745218253
 11
-15.1527698348
 21
-11.3754755717
  0
LINE
  5
257
100
AcDbEntity
  8
RACCORDO
100
AcDbLine
 62
7
  6
CONTINUOUS
 10
-15.1526846297
 20
-11.3550315692
 11
-15.1535511888
 21
-11.4661596962
  0
LINE
  5
258
100
AcDbEntity
  8
RACCORDO
100
AcDbLine
 62
7
  6
CONTINUOUS
 10
-15.1535511888
 20
-11.4661596962
 11
-15.1547203473
 21
-11.5609785082
  0
LINE
  5
259
100
AcDbEntity
  8
RACCORDO
100
AcDbLine
 62
250
  6
CONTINUOUS
 10
-15.1546067233
 20
-11.5583007628
 11
-15.1547203473
 21
-11.5609785082
  0
LINE
  5
25A
100
AcDbEntity
  8
RACCORDO
100
AcDbLine
 62
250
  6
CONTINUOUS
 10
-15.1551666954
 20
-11.588417446
 11
-15.1552298812
 21
-11.5972859475
  0
LINE
  5
25B
100
AcDbEntity
  8
RACCORDO
100
AcDbLine
 62
7
  6
CONTINUOUS
 10
-15.1547203473
 20
-11.5609785082
 11
-15.1558620773
 21
-11.625398872
  0
LINE
  5
25C
100
AcDbEntity
  8
RACCORDO
100
AcDbLine
 62
7
  6
CONTINUOUS
 10
-15.1558620773
 20
-11.625398872
 11
-15.1565876845
 21
-11.6571735087
  0
LINE
  5
25D
100
AcDbEntity
  8
RACCORDO
100
AcDbLine
 62
250
  6
CONTINUOUS
 10
-15.1573258743
 20
-11.6838358648
 11
-15.1574200399
 21
-11.6929951794
  0
LINE
  5
25E
100
AcDbEntity
  8
RACCORDO
100
AcDbLine
 62
7
  6
CONTINUOUS
 10
-15.1565876845
 20
-11.6571735087
 11
-15.1573258743
 21
-11.6838358648
  0
LWPOLYLINE
  5
25F
100
AcDbEntity
  8
RACCORDO
100
AcDbPolyline
 62
7
  6
CONTINUOUS
 90
13
 70
0
 10
-15.1574763948
 20
10.5973341315
 10
-15.1549350475
 20
10.6363011987
 10
-15.1473360805
 20
10.6746775213
 10
-15.1347808743
 20
10.7118053632
 10
-15.1174465537
 20
10.7470609638
 10
-15.095609868
 20
10.7798064604
 10
-15.069666668
 20
10.8094163038
 10
-15.0400524952
 20
10.8353840124
 10
-15.0072817142
 20
10.8572513518
 10
-14.9720038523
 20
10.8746017684
 10
-14.9348692871
 20
10.8871584936
 10
-14.8964952947
 20
10.8947537547
 10
-14.8575403618
 20
10.8972902682
  0
LWPOLYLINE
  5
260
100
AcDbEntity
  8
RACCORDO
100
AcDbPolyline
 62
7
  6
CONTINUOUS
 90
25
 70
0
 10
14.5862582706
 20
-14.6692590961
 10
14.6136110678
 20
-14.6676950605
 10
14.6400348266
 20
-14.6642989024
 10
14.6653468109
 20
-14.659070622
 10
14.6895115486
 20
-14.6517040939
 10
14.7122839848
 20
-14.6425054433
 10
14.7332514542
 20
-14.6323930465
 10
14.752253954
 20
-14.6214507388
 10
14.7694650877
 20
-14.6095946847
 10
14.7850387579
 20
-14.5974917545
 10
14.7990096822
 20
-14.5852109175
 10
14.8114465341
 20
-14.5726832043
 10
14.822530651
 20
-14.5603685763
 10
14.832329222
 20
-14.5482696708
 10
14.8408917287
 20
-14.5363838506
 10
14.8483389999
 20
-14.5251631658
 10
14.8546987157
 20
-14.5146050045
 10
14.8600693383
 20
-14.5047119786
 10
14.8646118582
 20
-14.4959439733
 10
14.8683573966
 20
-14.4881906613
 10
14.8712953403
 20
-14.4815623698
 10
14.8734569622
 20
-14.4768499661
 10
14.8748477086
 20
-14.4743170726
 10
14.8754662042
 20
-14.4737000669
 10
14.875502173
 20
-14.4738940089
  0
LWPOLYLINE
  5
261
100
AcDbEntity
  8
RACCORDO
100
AcDbPolyline
 62
7
  6
CONTINUOUS
 90
13
 70
0
 10
-13.8814530542
 20
-16.5974274297
 10
-13.8484487429
 20
-16.5956048137
 10
-13.8101131233
 20
-16.5888206128
 10
-13.7724370546
 20
-16.5769190377
 10
-13.7363501609
 20
-16.5600015654
 10
-13.7026767596
 20
-16.5383402081
 10
-13.6720203279
 20
-16.5122249374
 10
-13.6446840031
 20
-16.4816560815
 10
-13.6217711874
 20
-16.4476450475
 10
-13.6041724985
 20
-16.4119504087
 10
-13.5917149902
 20
-16.3752200054
 10
-13.5840887922
 20
-16.3371033279
 10
-13.5814530542
 20
-16.297427514
  0
LWPOLYLINE
  5
262
100
AcDbEntity
  8
RACCORDO
100
AcDbPolyline
 62
250
  6
CONTINUOUS
 90
16
 70
0
 10
14.4342565042
 20
-14.437467566
 10
14.4657561063
 20
-14.4357947308
 10
14.4968989366
 20
-14.4308257776
 10
14.5273412111
 20
-14.4226183004
 10
14.5567302485
 20
-14.4112732337
 10
14.5847612576
 20
-14.396914287
 10
14.6111719194
 20
-14.3796689628
 10
14.635711871
 20
-14.3596702636
 10
14.6580402657
 20
-14.337162969
 10
14.6778122646
 20
-14.3125059052
 10
14.6948184166
 20
-14.2860165387
 10
14.7089160459
 20
-14.257982045
 10
14.7199597185
 20
-14.2287806692
 10
14.7278717348
 20
-14.1987659547
 10
14.7326228375
 20
-14.1682533392
 10
14.7342108128
 20
-14.1375737847
  0
LINE
  5
263
100
AcDbEntity
  8
RACCORDO
100
AcDbLine
 62
250
  6
CONTINUOUS
 10
-15.190454963
 20
-16.297427514
 11
-13.5814530542
 21
-16.297427514
  0
LINE
  5
264
100
AcDbEntity
  8
RACCORDO
100
AcDbLine
 62
250
  6
CONTINUOUS
 10
14.8755021734
 20
-16.297427514
 11
13.2665002646
 21
-16.297427514
  0
LINE
  5
265
100
AcDbEntity
  8
RACCORDO
100
AcDbLine
 62
250
  6
CONTINUOUS
 10
-14.7494589827
 20
-2.0333106978
 11
-14.7523254404
 21
-1.6414811909
  0
LINE
  5
266
100
AcDbEntity
  8
RACCORDO
100
AcDbLine
 62
250
  6
CONTINUOUS
 10
-14.7523254404
 20
-1.6414811909
 11
-14.7526548976
 21
-1.5660613815
  0
LINE
  5
267
100
AcDbEntity
  8
RACCORDO
100
AcDbLine
 62
250
  6
CONTINUOUS
 10
-14.7526548976
 20
-1.5660613815
 11
-14.7526981802
 21
10.6873957815
  0
LINE
  5
268
100
AcDbEntity
  8
RACCORDO
100
AcDbLine
 62
250
  6
CONTINUOUS
 10
-14.7492092939
 20
-14.437467566
 11
-14.7494589827
 21
-2.0333106978
  0
LINE
  5
269
100
AcDbEntity
  8
RACCORDO
100
AcDbLine
 62
250
  6
CONTINUOUS
 10
-13.8814530542
 20
-16.597427514
 11
-13.8814530542
 21
-14.669253962
  0
LINE
  5
26A
100
AcDbEntity
  8
RACCORDO
100
AcDbLine
 62
7
  6
CONTINUOUS
 10
-13.5814530542
 20
-16.297427514
 11
-13.5814530542
 21
-14.4847837115
  0
LINE
  5
26B
100
AcDbEntity
  8
RACCORDO
100
AcDbLine
 62
250
  6
CONTINUOUS
 10
-15.1593280799
 20
-11.7323721867
 11
-15.1599230135
 21
-11.7519672017
  0
LINE
  5
26C
100
AcDbEntity
  8
RACCORDO
100
AcDbLine
 62
7
  6
CONTINUOUS
 10
-15.1573258743
 20
-11.6838358648
 11
-15.1578043942
 21
-11.6987332565
  0
LINE
  5
26D
100
AcDbEntity
  8
RACCORDO
100
AcDbLine
 62
250
  6
CONTINUOUS
 10
-15.1580355186
 20
-11.7052049974
 11
-15.1582196072
 21
-11.7167344323
  0
LINE
  5
26E
100
AcDbEntity
  8
RACCORDO
100
AcDbLine
 62
7
  6
CONTINUOUS
 10
-15.2011140571
 20
-12.3770679327
 11
-15.200523948
 21
-12.3614048266
  0
LINE
  5
26F
100
AcDbEntity
  8
RACCORDO
100
AcDbLine
 62
7
  6
CONTINUOUS
 10
-15.1578043942
 20
-11.6987332565
 11
-15.1582614468
 21
-11.7110502972
  0
LINE
  5
270
100
AcDbEntity
  8
RACCORDO
100
AcDbLine
 62
250
  6
CONTINUOUS
 10
-15.1586903594
 20
-11.7208480566
 11
-15.1590539317
 21
-11.7363917731
  0
LWPOLYLINE
  5
271
100
AcDbEntity
  8
RACCORDO
100
AcDbPolyline
 62
7
  6
CONTINUOUS
 90
5
 70
0
 10
-15.1582614468
 20
-11.7110502972
 10
-15.1586903594
 20
-11.7208480566
 10
-15.1588890337
 20
-11.7248242977
 10
-15.1590722214
 20
-11.7281821841
 10
-15.1592373291
 20
-11.7309541842
  0
LINE
  5
272
100
AcDbEntity
  8
RACCORDO
100
AcDbLine
 62
250
  6
CONTINUOUS
 10
-15.1590539317
 20
-11.7363917731
 11
-15.1599230135
 21
-11.7519672017
  0
LINE
  5
273
100
AcDbEntity
  8
RACCORDO
100
AcDbLine
 62
7
  6
CONTINUOUS
 10
-15.1592373291
 20
-11.7309541842
 11
-15.2005097681
 21
-12.3615181437
  0
LINE
  5
274
100
AcDbEntity
  8
RACCORDO
100
AcDbLine
 62
250
  6
CONTINUOUS
 10
-15.1599230135
 20
-11.7519672017
 11
-15.2011140571
 21
-12.381256085
  0
LWPOLYLINE
  5
275
100
AcDbEntity
  8
RACCORDO
100
AcDbPolyline
 62
250
  6
CONTINUOUS
 90
3
 70
0
 10
-13.762575833
 20
-14.4957477628
 10
-13.7234124267
 20
-14.4931987979
 10
-13.7079279747
 20
-14.4901256257
  0
LINE
  5
276
100
AcDbEntity
  8
RACCORDO
100
AcDbLine
 62
7
  6
CONTINUOUS
 10
-13.6834964111
 20
-14.4885689774
 11
-13.6657797789
 21
-14.487703581
  0
LINE
  5
277
100
AcDbEntity
  8
RACCORDO
100
AcDbLine
 62
250
  6
CONTINUOUS
 10
-13.6789233492
 20
-14.4878976906
 11
-13.6657797789
 21
-14.487703581
  0
LINE
  5
278
100
AcDbEntity
  8
RACCORDO
100
AcDbLine
 62
250
  6
CONTINUOUS
 10
-13.6554742178
 20
-14.4872599885
 11
-13.6446417481
 21
-14.4865145989
  0
LINE
  5
279
100
AcDbEntity
  8
RACCORDO
100
AcDbLine
 62
7
  6
CONTINUOUS
 10
-13.6657797789
 20
-14.487703581
 11
-13.6442458473
 21
-14.4868133482
  0
LINE
  5
27A
100
AcDbEntity
  8
RACCORDO
100
AcDbLine
 62
7
  6
CONTINUOUS
 10
-13.6442458473
 20
-14.4868133482
 11
-13.6189798368
 21
-14.4859096686
  0
LINE
  5
27B
100
AcDbEntity
  8
RACCORDO
100
AcDbLine
 62
250
  6
CONTINUOUS
 10
-13.6446417481
 20
-14.4865145989
 11
-13.6189798368
 21
-14.4859096686
  0
LINE
  5
27C
100
AcDbEntity
  8
RACCORDO
100
AcDbLine
 62
7
  6
CONTINUOUS
 10
-13.6189798368
 20
-14.4859096686
 11
-13.5901984087
 21
-14.4850216404
  0
LINE
  5
27D
100
AcDbEntity
  8
RACCORDO
100
AcDbLine
 62
250
  6
CONTINUOUS
 10
-13.6051527228
 20
-14.4852429785
 11
-13.5901984087
 21
-14.4850216404
  0
LINE
  5
27E
100
AcDbEntity
  8
RACCORDO
100
AcDbLine
 62
250
  6
CONTINUOUS
 10
-13.5745180274
 20
-14.484595035
 11
-13.5605588226
 21
-14.4840752536
  0
LINE
  5
27F
100
AcDbEntity
  8
RACCORDO
100
AcDbLine
 62
7
  6
CONTINUOUS
 10
-13.5901984087
 20
-14.4850216404
 11
-13.5579485111
 21
-14.4841826251
  0
LINE
  5
280
100
AcDbEntity
  8
RACCORDO
100
AcDbLine
 62
250
  6
CONTINUOUS
 10
-13.5605588226
 20
-14.4840752536
 11
-13.5579485111
 21
-14.4841826251
  0
LWPOLYLINE
  5
281
100
AcDbEntity
  8
RACCORDO
100
AcDbPolyline
 62
250
  6
CONTINUOUS
 90
3
 70
0
 10
-13.5221478214
 20
-14.4834021259
 10
-13.5121842774
 20
-14.4830454072
 10
-13.5029815089
 20
-14.4830316935
  0
LINE
  5
282
100
AcDbEntity
  8
RACCORDO
100
AcDbLine
 62
7
  6
CONTINUOUS
 10
-13.5579485111
 20
-14.4841826251
 11
-13.5029815089
 21
-14.4830316935
  0
LWPOLYLINE
  5
283
100
AcDbEntity
  8
RACCORDO
100
AcDbPolyline
 62
250
  6
CONTINUOUS
 90
3
 70
0
 10
-13.4622237146
 20
-14.4823289931
 10
-13.4598232641
 20
-14.4821563921
 10
-13.4406765781
 20
-14.4820058514
  0
LINE
  5
284
100
AcDbEntity
  8
RACCORDO
100
AcDbLine
 62
7
  6
CONTINUOUS
 10
-13.5029815089
 20
-14.4830316935
 11
-13.4406765781
 21
-14.4820058514
  0
LINE
  5
285
100
AcDbEntity
  8
RACCORDO
100
AcDbLine
 62
250
  6
CONTINUOUS
 10
-13.418385299
 20
-14.4817059892
 11
-13.4036816058
 21
-14.4814052556
  0
LINE
  5
286
100
AcDbEntity
  8
RACCORDO
100
AcDbLine
 62
7
  6
CONTINUOUS
 10
-13.4406765781
 20
-14.4820058514
 11
-13.3473375869
 21
-14.4809496076
  0
LINE
  5
287
100
AcDbEntity
  8
RACCORDO
100
AcDbLine
 62
7
  6
CONTINUOUS
 10
-13.3473375869
 20
-14.4809496076
 11
-13.244322569
 21
-14.4802850165
  0
LINE
  5
288
100
AcDbEntity
  8
RACCORDO
100
AcDbLine
 62
7
  6
CONTINUOUS
 10
-14.890454963
 20
-14.669253962
 11
-13.8814530542
 21
-14.669253962
  0
LINE
  5
289
100
AcDbEntity
  8
RACCORDO
100
AcDbLine
 62
7
  6
CONTINUOUS
 10
13.5665002646
 20
-14.669253962
 11
14.5755021734
 21
-14.669253962
  0
LINE
  5
28A
100
AcDbEntity
  8
RACCORDO
100
AcDbLine
 62
7
  6
CONTINUOUS
 10
-13.244322569
 20
-14.4802850165
 11
12.8477144262
 21
-14.480162092
  0
LINE
  5
28B
100
AcDbEntity
  8
RACCORDO
100
AcDbLine
 62
250
  6
CONTINUOUS
 10
-14.7492092939
 20
-14.437467566
 11
14.4342565042
 21
-14.437467566
  0
LINE
  5
28C
100
AcDbEntity
  8
RACCORDO
100
AcDbLine
 62
250
  6
CONTINUOUS
 10
14.7342108128
 20
-14.1375737847
 11
-15.0491636024
 21
-14.1375737847
  0
LINE
  5
28D
100
AcDbEntity
  8
RACCORDO
100
AcDbLine
 62
7
  6
CONTINUOUS
 10
12.8477144262
 20
-14.4801620911
 11
12.951030731
 21
-14.4803755157
  0
LINE
  5
28E
100
AcDbEntity
  8
RACCORDO
100
AcDbLine
 62
7
  6
CONTINUOUS
 10
12.951030731
 20
-14.4803755157
 11
13.0538111635
 21
-14.4811504588
  0
LINE
  5
28F
100
AcDbEntity
  8
RACCORDO
100
AcDbLine
 62
250
  6
CONTINUOUS
 10
13.0307482123
 20
-14.4808171229
 11
13.0538111635
 21
-14.4811504588
  0
LINE
  5
290
100
AcDbEntity
  8
RACCORDO
100
AcDbLine
 62
250
  6
CONTINUOUS
 10
13.0779266612
 20
-14.4814027503
 11
13.0887288162
 21
-14.4814052556
  0
LINE
  5
291
100
AcDbEntity
  8
RACCORDO
100
AcDbLine
 62
7
  6
CONTINUOUS
 10
13.0538111635
 20
-14.4811504588
 11
13.1240110765
 21
-14.4819816016
  0
LINE
  5
292
100
AcDbEntity
  8
RACCORDO
100
AcDbLine
 62
7
  6
CONTINUOUS
 10
13.1240110765
 20
-14.4819816016
 11
13.1873786977
 21
-14.4830195763
  0
LINE
  5
293
100
AcDbEntity
  8
RACCORDO
100
AcDbLine
 62
7
  6
CONTINUOUS
 10
13.1873786977
 20
-14.4830195763
 11
13.2433059725
 21
-14.4841900227
  0
LINE
  5
294
100
AcDbEntity
  8
RACCORDO
100
AcDbLine
 62
7
  6
CONTINUOUS
 10
13.2433059725
 20
-14.4841900227
 11
13.2761382767
 21
-14.4850470898
  0
LINE
  5
295
100
AcDbEntity
  8
RACCORDO
100
AcDbLine
 62
250
  6
CONTINUOUS
 10
13.3188045518
 20
-14.4864233
 11
13.3296889584
 21
-14.4865145989
  0
LINE
  5
296
100
AcDbEntity
  8
RACCORDO
100
AcDbLine
 62
7
  6
CONTINUOUS
 10
13.2761382767
 20
-14.4850470898
 11
13.305457411
 21
-14.4859576302
  0
LINE
  5
297
100
AcDbEntity
  8
RACCORDO
100
AcDbLine
 62
7
  6
CONTINUOUS
 10
13.305457411
 20
-14.4859576302
 11
13.3311856795
 21
-14.4868863164
  0
LINE
  5
298
100
AcDbEntity
  8
RACCORDO
100
AcDbLine
 62
250
  6
CONTINUOUS
 10
13.3296889584
 20
-14.4865145989
 11
13.3311856795
 21
-14.4868863164
  0
LINE
  5
299
100
AcDbEntity
  8
RACCORDO
100
AcDbLine
 62
250
  6
CONTINUOUS
 10
13.3425975337
 20
-14.4873464738
 11
13.3639705595
 21
-14.4878976906
  0
LWPOLYLINE
  5
29A
100
AcDbEntity
  8
RACCORDO
100
AcDbPolyline
 62
7
  6
CONTINUOUS
 90
8
 70
0
 10
13.3311856795
 20
-14.4868863164
 10
13.3530487556
 20
-14.4878042244
 10
13.3624809928
 20
-14.4882553572
 10
13.3709156749
 20
-14.4886975321
 10
13.3783497969
 20
-14.4891258603
 10
13.3846897728
 20
-14.4895279207
 10
13.3901186612
 20
-14.4899075913
 10
13.3915000454
 20
-14.4900107858
  0
LWPOLYLINE
  5
29B
100
AcDbEntity
  8
RACCORDO
100
AcDbPolyline
 62
250
  6
CONTINUOUS
 90
6
 70
0
 10
13.3709156749
 20
-14.4886975321
 10
13.3931472856
 20
-14.4893846778
 10
13.4162025552
 20
-14.4909188497
 10
13.4327975078
 20
-14.4924813027
 10
13.4432710038
 20
-14.4940909404
 10
13.4476230433
 20
-14.4957477628
  0
LINE
  5
29C
100
AcDbEntity
  8
RACCORDO
100
AcDbLine
 62
250
  6
CONTINUOUS
 10
-13.1626672159
 20
-14.480162092
 11
-13.1626672159
 21
-14.4800558732
  0
LWPOLYLINE
  5
29D
100
AcDbEntity
  8
RACCORDO
100
AcDbPolyline
 62
7
  6
CONTINUOUS
 90
10
 70
0
 10
-13.7092995873
 20
-14.4900537425
 10
-13.7123064273
 20
-14.4904679927
 10
-13.7135093356
 20
-14.4906111127
 10
-13.7128309086
 20
-14.4905425382
 10
-13.7108527424
 20
-14.4903639877
 10
-13.7076005864
 20
-14.4900989443
 10
-13.7029663122
 20
-14.4897558216
 10
-13.6973726019
 20
-14.4893794935
 10
-13.6909315515
 20
-14.4889847687
 10
-13.6834964111
 20
-14.4885689774
  0
LWPOLYLINE
  5
29E
100
AcDbEntity
  8
RACCORDO
100
AcDbPolyline
 62
7
  6
CONTINUOUS
 90
25
 70
0
 10
-15.1904549624
 20
-14.4740126591
 10
-15.1904079997
 20
-14.4738336558
 10
-15.1897231033
 20
-14.4745740666
 10
-15.1882395892
 20
-14.4772201812
 10
-15.1859980611
 20
-14.4820453437
 10
-15.183017111
 20
-14.4887762101
 10
-15.1792449248
 20
-14.4965927484
 10
-15.1746720687
 20
-14.5053749335
 10
-15.169283598
 20
-14.5152427906
 10
-15.1629304733
 20
-14.5257363627
 10
-15.1555289625
 20
-14.5368401793
 10
-15.1470503272
 20
-14.548569711
 10
-15.1373620662
 20
-14.5605114124
 10
-15.1264158967
 20
-14.5726698716
 10
-15.1141450358
 20
-14.5850405005
 10
-15.1003461931
 20
-14.5971959896
 10
-15.0849462195
 20
-14.6092134581
 10
-15.0679054633
 20
-14.6210157868
 10
-15.0490385132
 20
-14.6319443084
 10
-15.0281680764
 20
-14.6420975806
 10
-15.0054409535
 20
-14.6513770456
 10
-14.9812163386
 20
-14.6588283637
 10
-14.9557153862
 20
-14.6641334215
 10
-14.9289853552
 20
-14.6676103323
 10
-14.9012110603
 20
-14.6692590961
  0
LINE
  5
29F
100
AcDbEntity
  8
RACCORDO
100
AcDbLine
 62
250
  6
CONTINUOUS
 10
-15.1521941769
 20
-11.1722268862
 11
-15.1521484855
 21
-11.1722262377
  0
LINE
  5
2A0
100
AcDbEntity
  8
RACCORDO
100
AcDbLine
 62
250
  6
CONTINUOUS
 10
14.8372413873
 20
-11.1722262379
 11
14.8371956958
 21
-11.1722262379
  0
LINE
  5
2A1
100
AcDbEntity
  8
RACCORDO
100
AcDbLine
 62
250
  6
CONTINUOUS
 10
-15.0526524888
 20
10.3875785334
 11
-15.1574763948
 21
10.5972902403
  0
LINE
  5
2A2
100
AcDbEntity
  8
RACCORDO
100
AcDbLine
 62
250
  6
CONTINUOUS
 10
-14.7526981802
 20
10.6873957815
 11
-14.8576134483
 21
10.8972902682
  0
LINE
  5
2A3
100
AcDbEntity
  8
RACCORDO
100
AcDbLine
 62
250
  6
CONTINUOUS
 10
-15.0491636024
 20
-14.1375737847
 11
-15.2011140571
 21
-14.3692870684
  0
LINE
  5
2A4
100
AcDbEntity
  8
RACCORDO
100
AcDbLine
 62
250
  6
CONTINUOUS
 10
-14.7492092939
 20
-14.437467566
 11
-14.9012110603
 21
-14.6692590961
  0
LINE
  5
2A5
100
AcDbEntity
  8
0
100
AcDbLine
 62
7
  6
CONTINUOUS
 10
-5.0574763948
 20
2.7772851658
 11
-4.8574763948
 21
3.0772851658
  0
LINE
  5
2A6
100
AcDbEntity
  8
0
100
AcDbLine
 62
7
  6
CONTINUOUS
 10
10.7820756716
 20
11.6908201937
 11
10.5469597502
 21
11.5508712941
  0
LINE
  5
2A7
100
AcDbEntity
  8
0
100
AcDbLine
 62
7
  6
CONTINUOUS
 10
10.5469597502
 20
11.5508712941
 11
10.423225983
 21
11.4777489108
  0
LWPOLYLINE
  5
2A8
100
AcDbEntity
  8
0
100
AcDbPolyline
 62
7
  6
CONTINUOUS
 90
9
 70
0
 10
12.5419101131
 20
11.5352176739
 10
12.5814476779
 20
11.5518547224
 10
12.6193226197
 20
11.5684941692
 10
12.65544868
 20
11.5851360143
 10
12.6897352643
 20
11.601776153
 10
12.7221132696
 20
11.61841869
 10
12.7525304536
 20
11.6350759398
 10
12.7809275727
 20
11.6517570208
 10
12.805820442
 20
11.6675295888
  0
LINE
  5
2A9
100
AcDbEntity
  8
0
100
AcDbLine
 62
7
  6
CONTINUOUS
 10
-5.0574763948
 20
1.5772851658
 11
-5.1574763948
 21
2.0772851658
  0
LINE
  5
2AA
100
AcDbEntity
  8
RACCORDO
100
AcDbLine
 62
250
  6
CONTINUOUS
 10
-13.8763566251
 20
-14.6692551143
 11
-13.762575833
 21
-14.4957477628
  0
LINE
  5
2AB
100
AcDbEntity
  8
RACCORDO
100
AcDbLine
 62
7
  6
CONTINUOUS
 10
-13.6277876308
 20
-14.5373823344
 11
-13.5935155824
 21
-14.4851199776
  0
LINE
  5
2AC
100
AcDbEntity
  8
0
100
AcDbLine
 62
7
  6
CONTINUOUS
 10
12.8862430579
 20
11.7201566062
 11
12.9692142224
 21
11.7737164767
  0
LINE
  5
2AD
100
AcDbEntity
  8
0
100
AcDbLine
 62
7
  6
CONTINUOUS
 10
12.9692142224
 20
11.7737164767
 11
13.0353330063
 21
11.8159431694
  0
LWPOLYLINE
  5
2AE
100
AcDbEntity
  8
0
100
AcDbPolyline
 62
7
  6
CONTINUOUS
 90
5
 70
0
 10
10.423225983
 20
11.4777489108
 10
10.4176396889
 20
11.4742902682
 10
10.403578837
 20
11.4632902682
 10
10.3951968483
 20
11.4522902682
 10
10.3925236052
 20
11.4416579101
  0
LWPOLYLINE
  5
2AF
100
AcDbEntity
  8
0
100
AcDbPolyline
 62
7
  6
CONTINUOUS
 90
11
 70
0
 10
13.0353330063
 20
11.8159431694
 10
13.0292729913
 20
11.8122902682
 10
13.0130786677
 20
11.8039569348
 10
12.9935729962
 20
11.7956236015
 10
12.970743584
 20
11.7872902682
 10
12.9445871901
 20
11.7789569348
 10
12.9151098571
 20
11.7706236015
 10
12.8823270183
 20
11.7622902682
 10
12.8462635788
 20
11.7539569348
 10
12.806953971
 20
11.7456236015
 10
12.7644421837
 20
11.7372902682
  0
LINE
  5
2B0
100
AcDbEntity
  8
0
100
AcDbLine
 62
7
  6
CONTINUOUS
 10
12.9425236052
 20
12.0972902682
 11
13.1425236052
 21
12.212760322
  0
LWPOLYLINE
  5
2B1
100
AcDbEntity
  8
RACCORDO
100
AcDbPolyline
 62
7
  6
CONTINUOUS
 90
11
 70
0
 10
-13.6277648552
 20
-14.5374346085
 10
-13.6409464552
 20
-14.5558072313
 10
-13.6610349133
 20
-14.5789032146
 10
-13.6833711664
 20
-14.5998663764
 10
-13.7076925653
 20
-14.6181830313
 10
-13.733774533
 20
-14.6337643154
 10
-13.7612453248
 20
-14.6466990927
 10
-13.7895857692
 20
-14.6567402705
 10
-13.8183928272
 20
-14.6638054846
 10
-13.847415946
 20
-14.6679770992
 10
-13.8763566251
 20
-14.6692551143
  0
LINE
  5
2B2
100
AcDbEntity
  8
0
100
AcDbLine
 62
7
  6
CONTINUOUS
 10
13.0421773556
 20
11.8206236015
 11
13.0353330063
 21
11.8159431694
  0
LINE
  5
2B3
100
AcDbEntity
  8
0
100
AcDbLine
 62
7
  6
CONTINUOUS
 10
12.805820442
 20
11.6675295888
 11
12.8862430579
 21
11.7201566062
  0
LWPOLYLINE
  5
2B4
100
AcDbEntity
  8
RACCORDO
100
AcDbPolyline
 62
250
  6
CONTINUOUS
 90
13
 70
0
 10
-14.7494589827
 20
-2.0333106978
 10
-14.7882143347
 20
-2.0344776174
 10
-14.8263201642
 20
-2.0374922831
 10
-14.8631378342
 20
-2.0423041704
 10
-14.8980502968
 20
-2.0488326343
 10
-14.9304724345
 20
-2.0569682605
 10
-14.9598608665
 20
-2.0665746996
 10
-14.9857230559
 20
-2.0774909519
 10
-15.0076255636
 20
-2.0895340658
 10
-15.0252013133
 20
-2.102502204
 10
-15.0381557431
 20
-2.1161780262
 10
-15.0462717426
 20
-2.1303323318
 10
-15.0494132912
 20
-2.1447279007
  0
LINE
  5
2B5
100
AcDbEntity
  8
RACCORDO
100
AcDbLine
 62
250
  6
CONTINUOUS
 10
14.7342108128
 20
-2.219006036
 11
-15.0491636024
 21
-2.219006036
  0
LINE
  5
2B6
100
AcDbEntity
  8
RACCORDO
100
AcDbLine
 62
250
  6
CONTINUOUS
 10
14.434506193
 20
-2.0333106978
 11
-14.7494589827
 21
-2.0333106978
  0
LINE
  5
2B7
100
AcDbEntity
  8
RACCORDO
100
AcDbLine
 62
250
  6
CONTINUOUS
 10
14.4367466354
 20
-1.7124235571
 11
-14.751699425
 21
-1.7124235571
  0
LINE
  5
2B8
100
AcDbEntity
  8
RACCORDO
100
AcDbLine
 62
250
  6
CONTINUOUS
 10
14.7376996991
 20
-1.5267282189
 11
-15.0526524888
 21
-1.5267282189
  0
LWPOLYLINE
  5
2B9
100
AcDbEntity
  8
RACCORDO
100
AcDbPolyline
 62
250
  6
CONTINUOUS
 90
13
 70
0
 10
14.434506193
 20
-2.0333106978
 10
14.4732615451
 20
-2.0344776174
 10
14.5113673746
 20
-2.0374922831
 10
14.5481850445
 20
-2.0423041704
 10
14.5830975071
 20
-2.0488326343
 10
14.6155196448
 20
-2.0569682605
 10
14.6449080769
 20
-2.0665746996
 10
14.6707702662
 20
-2.0774909519
 10
14.6926727739
 20
-2.0895340658
 10
14.7102485236
 20
-2.102502204
 10
14.7232029535
 20
-2.1161780262
 10
14.731318953
 20
-2.1303323318
 10
14.7344605016
 20
-2.1447279007
  0
LINE
  5
2BA
100
AcDbEntity
  8
0
100
AcDbLine
 62
7
  6
CONTINUOUS
 10
-6.6574763948
 20
2.6772851658
 11
-5.0574763948
 21
1.5772851658
  0
LWPOLYLINE
  5
2BB
100
AcDbEntity
  8
0
100
AcDbPolyline
 62
7
  6
CONTINUOUS
 90
7
 70
0
 10
12.0706172293
 20
14.611881955
 10
12.0768799024
 20
14.6192511535
 10
12.0831293388
 20
14.6264446873
 10
12.0893655385
 20
14.6334625565
 10
12.0955885015
 20
14.6403047609
 10
12.1017982277
 20
14.6469713007
 10
12.1079947173
 20
14.6534621758
  0
LINE
  5
2BC
100
AcDbEntity
  8
0
100
AcDbLine
 62
7
  6
CONTINUOUS
 10
12.5419101131
 20
11.5352176739
 11
12.7644421837
 21
11.7372902682
  0
LWPOLYLINE
  5
2BD
100
AcDbEntity
  8
RACCORDO
100
AcDbPolyline
 62
250
  6
CONTINUOUS
 90
13
 70
0
 10
-14.751699425
 20
-1.7124235571
 10
-14.7904547771
 20
-1.7135904767
 10
-14.8285606066
 20
-1.7166051424
 10
-14.8653782765
 20
-1.7214170297
 10
-14.9002907391
 20
-1.7279454936
 10
-14.9327128768
 20
-1.7360811198
 10
-14.9621013089
 20
-1.7456875589
 10
-14.9879634982
 20
-1.7566038112
 10
-15.0098660059
 20
-1.7686469251
 10
-15.0274417556
 20
-1.7816150633
 10
-15.0403961855
 20
-1.7952908855
 10
-15.048512185
 20
-1.8094451911
 10
-15.0516537336
 20
-1.82384076
  0
LWPOLYLINE
  5
2BE
100
AcDbEntity
  8
RACCORDO
100
AcDbPolyline
 62
250
  6
CONTINUOUS
 90
13
 70
0
 10
14.4367466354
 20
-1.7124235571
 10
14.4755019874
 20
-1.7135904767
 10
14.5136078169
 20
-1.7166051424
 10
14.5504254869
 20
-1.7214170297
 10
14.5853379495
 20
-1.7279454936
 10
14.6177600872
 20
-1.7360811198
 10
14.6471485192
 20
-1.7456875589
 10
14.6730107086
 20
-1.7566038112
 10
14.6949132163
 20
-1.7686469251
 10
14.712488966
 20
-1.7816150633
 10
14.7254433958
 20
-1.7952908855
 10
14.7335593953
 20
-1.8094451911
 10
14.7367009439
 20
-1.82384076
  0
LINE
  5
2BF
100
AcDbEntity
  8
0
100
AcDbLine
 62
7
  6
CONTINUOUS
 10
-2.9574763948
 20
5.1772851658
 11
-1.4574763948
 21
2.3772851658
  0
LWPOLYLINE
  5
2C0
100
AcDbEntity
  8
0
100
AcDbPolyline
 62
7
  6
CONTINUOUS
 90
2
 70
0
 43
0.3500000006
 10
18.8261137848
 20
0.554200882
 10
22.3261148529
 20
0.554200882
  0
LINE
  5
2C1
100
AcDbEntity
  8
0
100
AcDbLine
 62
7
  6
CONTINUOUS
 10
-5.1574763948
 20
2.0772851658
 11
0.8425236052
 21
0.4772851658
  0
LINE
  5
2C2
100
AcDbEntity
  8
0
100
AcDbLine
 62
7
  6
CONTINUOUS
 10
0.8425236052
 20
0.4772851658
 11
-1.1574763948
 21
3.6772851658
  0
LWPOLYLINE
  5
2C3
100
AcDbEntity
  8
0
100
AcDbPolyline
 62
7
  6
CONTINUOUS
 90
13
 70
0
 10
13.058245635
 20
11.9372902682
 10
13.0518219646
 20
11.9289569348
 10
13.0421773555
 20
11.9206236015
 10
13.0292729913
 20
11.9122902681
 10
13.0130786677
 20
11.9039569348
 10
12.9935729962
 20
11.8956236015
 10
12.970743584
 20
11.8872902682
 10
12.9445871901
 20
11.8789569348
 10
12.9151098571
 20
11.8706236015
 10
12.8823270183
 20
11.8622902682
 10
12.8462635788
 20
11.8539569348
 10
12.806953971
 20
11.8456236015
 10
12.7644421837
 20
11.8372902682
  0
LWPOLYLINE
  5
2C4
100
AcDbEntity
  8
0
100
AcDbPolyline
 62
7
  6
CONTINUOUS
 90
3
 70
0
 10
13.058245635
 20
11.8372902682
 10
13.0518219646
 20
11.8289569348
 10
13.0421773556
 20
11.8206236015
  0
LINE
  5
2C5
100
AcDbEntity
  8
0
100
AcDbLine
 62
7
  6
CONTINUOUS
 10
-1.4574763948
 20
2.3772851658
 11
-5.0574763948
 21
2.7772851658
  0
LINE
  5
2C6
100
AcDbEntity
  8
0
100
AcDbLine
 62
7
  6
CONTINUOUS
 10
-1.1574763948
 20
3.6772851658
 11
5.1425236052
 21
1.0772851658
  0
LWPOLYLINE
  5
2C7
100
AcDbEntity
  8
RACCORDO
100
AcDbPolyline
 62
7
  6
CONTINUOUS
 90
11
 70
0
 10
13.3128105476
 20
-14.5373452829
 10
13.3259936655
 20
-14.5558072313
 10
13.3460840463
 20
-14.579016351
 10
13.3684182142
 20
-14.5998568095
 10
13.3927397757
 20
-14.6181830313
 10
13.4188237765
 20
-14.633883953
 10
13.4462939652
 20
-14.6467832401
 10
13.4746329796
 20
-14.6567402705
 10
13.5034391878
 20
-14.6637554837
 10
13.5324618655
 20
-14.6679011431
 10
13.5614038355
 20
-14.6692551143
  0
LINE
  5
2C8
100
AcDbEntity
  8
RACCORDO
100
AcDbLine
 62
7
  6
CONTINUOUS
 10
13.2785623953
 20
-14.4851193716
 11
13.3128348412
 21
-14.5373823344
  0
LINE
  5
2C9
100
AcDbEntity
  8
0
100
AcDbLine
 62
7
  6
CONTINUOUS
 10
-4.8574763948
 20
3.0772851658
 11
-6.6574763948
 21
2.6772851658
  0
LINE
  5
2CA
100
AcDbEntity
  8
0
100
AcDbLine
 62
7
  6
CONTINUOUS
 10
5.1425236052
 20
2.9772851658
 11
-2.9574763948
 21
5.1772851658
  0
LINE
  5
2CB
100
AcDbEntity
  8
RACCORDO
100
AcDbLine
 62
250
  6
CONTINUOUS
 10
13.4476230433
 20
-14.4957477628
 11
13.5614038355
 21
-14.6692551143
  0
LINE
  5
2CC
100
AcDbEntity
  8
RACCORDO
100
AcDbLine
 62
250
  6
CONTINUOUS
 10
14.5862582706
 20
-14.6692590961
 11
14.4342565042
 21
-14.437467566
  0
LINE
  5
2CD
100
AcDbEntity
  8
RACCORDO
100
AcDbLine
 62
250
  6
CONTINUOUS
 10
14.8861612675
 20
-14.3692870684
 11
14.7342108128
 21
-14.1375737847
  0
LINE
  5
2CE
100
AcDbEntity
  8
0
100
AcDbLine
 62
7
  6
CONTINUOUS
 10
5.1425236052
 20
1.0772851658
 11
5.1425236052
 21
2.9772851658
  0
LINE
  5
2CF
100
AcDbEntity
  8
0
100
AcDbLine
 62
7
  6
CONTINUOUS
 10
9.0425236052
 20
12.7972902682
 11
9.0425236052
 21
13.8321384685
  0
LWPOLYLINE
  5
2D0
100
AcDbEntity
  8
0
100
AcDbPolyline
 62
7
  6
CONTINUOUS
 90
19
 70
0
 10
10.7425236052
 20
11.1395853159
 10
10.7446580142
 20
11.150493196
 10
10.7510518526
 20
11.1613996599
 10
10.7616786606
 20
11.1723047077
 10
10.7764790544
 20
11.1831976726
 10
10.7954024666
 20
11.1940892214
 10
10.8184474712
 20
11.2050113536
 10
10.8456202191
 20
11.215987414
 10
10.8768021844
 20
11.2269940579
 10
10.9117750675
 20
11.2379932508
 10
10.9503518554
 20
11.2489737257
 10
10.9924074477
 20
11.2599467497
 10
11.0377515841
 20
11.2709080891
 10
11.0861252183
 20
11.2818421843
 10
11.1373920153
 20
11.2927645949
 10
11.1915583335
 20
11.3037177668
 10
11.2486180007
 20
11.3147363884
 10
11.3081984225
 20
11.3257857712
 10
11.3697314821
 20
11.3368042955
  0
LINE
  5
2D1
100
AcDbEntity
  8
RACCORDO
100
AcDbLine
 62
250
  6
CONTINUOUS
 10
14.5426606587
 20
10.8972902682
 11
14.4377453906
 21
10.6873957815
  0
LINE
  5
2D2
100
AcDbEntity
  8
RACCORDO
100
AcDbLine
 62
250
  6
CONTINUOUS
 10
14.8425236052
 20
10.5972902403
 11
14.7376996991
 21
10.3875785334
  0
LWPOLYLINE
  5
2D3
100
AcDbEntity
  8
RACCORDO
100
AcDbPolyline
 62
250
  6
CONTINUOUS
 90
6
 70
0
 10
-13.762575833
 20
-14.4957477628
 10
-13.7582237936
 20
-14.4940909404
 10
-13.7477502976
 20
-14.4924813027
 10
-13.7311553451
 20
-14.4909188497
 10
-13.7081000754
 20
-14.4893846778
 10
-13.6834964111
 20
-14.4885689774
  0
LWPOLYLINE
  5
2D4
100
AcDbEntity
  8
0
100
AcDbPolyline
 62
7
  6
CONTINUOUS
 90
5
 70
0
 10
12.3072889775
 20
11.4909537971
 10
12.3698563407
 20
11.502113847
 10
12.4298882865
 20
11.5131998551
 10
12.4873041649
 20
11.5242344641
 10
12.5419101131
 20
11.5352176739
  0
LINE
  5
2D5
100
AcDbEntity
  8
RACCORDO
100
AcDbLine
 62
250
  6
CONTINUOUS
 10
14.8372413873
 20
8.0998969056
 11
14.8371956958
 21
8.099896905
  0
LINE
  5
2D6
100
AcDbEntity
  8
RACCORDO
100
AcDbLine
 62
250
  6
CONTINUOUS
 10
-15.1521941769
 20
8.0998969072
 11
-15.1521484855
 21
8.099896907
  0
LINE
  5
2D7
100
AcDbEntity
  8
0
100
AcDbLine
 62
7
  6
CONTINUOUS
 10
10.3925236052
 20
11.4416579101
 11
10.3925236052
 21
11.3416579101
  0
LINE
  5
2D8
100
AcDbEntity
  8
RACCORDO
100
AcDbLine
 62
7
  6
CONTINUOUS
 10
10.5425236052
 20
12.212760322
 11
10.5425236052
 21
12.4972902682
  0
LWPOLYLINE
  5
2D9
100
AcDbEntity
  8
0
100
AcDbPolyline
 62
7
  6
CONTINUOUS
 90
19
 70
0
 10
12.9425236052
 20
11.0937305319
 10
12.9402103226
 20
11.0823746183
 10
12.9332579408
 20
11.070991331
 10
12.921662505
 20
11.05958067
 10
12.9054030922
 20
11.0481197503
 10
12.8845351213
 20
11.0366314568
 10
12.8592807518
 20
11.0251844442
 10
12.8298787394
 20
11.0138087687
 10
12.7964386692
 20
11.0024743741
 10
12.7590703266
 20
10.9911597457
 10
12.7180102713
 20
10.9798806757
 10
12.6733989904
 20
10.9686213718
 10
12.6251353898
 20
10.9573129429
 10
12.5733006523
 20
10.9459391403
 10
12.5181390475
 20
10.9345162126
 10
12.4597419808
 20
10.9230240138
 10
12.3981388561
 20
10.9114308537
 10
12.3337108017
 20
10.8997684224
 10
12.3195575664
 20
10.8972902682
  0
LWPOLYLINE
  5
2DA
100
AcDbEntity
  8
0
100
AcDbPolyline
 62
7
  6
CONTINUOUS
 90
5
 70
0
 10
12.5419101131
 20
12.0393628624
 10
12.4873041649
 20
12.0283796525
 10
12.4298882865
 20
12.0173450435
 10
12.3698563407
 20
12.0062590354
 10
12.3072889775
 20
11.9950989856
  0
LWPOLYLINE
  5
2DB
100
AcDbEntity
  8
0
100
AcDbPolyline
 62
7
  6
CONTINUOUS
 90
15
 70
0
 10
11.3697314821
 20
11.8409494839
 10
11.3081984225
 20
11.8299309596
 10
11.2486180007
 20
11.8188815768
 10
11.1915583335
 20
11.8078629552
 10
11.1373920153
 20
11.7969097834
 10
11.0861252183
 20
11.7859873727
 10
11.0377515841
 20
11.7750532775
 10
10.9924074477
 20
11.7640919381
 10
10.9503518554
 20
11.7531189141
 10
10.9117750675
 20
11.7421384392
 10
10.8768021844
 20
11.7311392463
 10
10.8456202191
 20
11.7201326024
 10
10.8184474712
 20
11.709156542
 10
10.7954024666
 20
11.6982344098
 10
10.7820756716
 20
11.6908201937
  0
LINE
  5
2DC
100
AcDbEntity
  8
0
100
AcDbLine
 62
7
  6
CONTINUOUS
 10
11.3697314821
 20
11.3368042955
 11
11.4972850767
 21
11.3586941886
  0
LINE
  5
2DD
100
AcDbEntity
  8
0
100
AcDbLine
 62
7
  6
CONTINUOUS
 10
11.4972850767
 20
11.8628393771
 11
11.3697314821
 21
11.8409494839
  0
LINE
  5
2DE
100
AcDbEntity
  8
0
100
AcDbLine
 62
7
  6
CONTINUOUS
 10
12.1762357229
 20
11.4685474277
 11
12.3072889775
 21
11.4909537971
  0
LINE
  5
2DF
100
AcDbEntity
  8
0
100
AcDbLine
 62
7
  6
CONTINUOUS
 10
12.3072889775
 20
11.9950989856
 11
12.1762357229
 21
11.9726926161
  0
LINE
  5
2E0
100
AcDbEntity
  8
0
100
AcDbLine
 62
7
  6
CONTINUOUS
 10
11.4972850767
 20
11.3586941886
 11
11.6298418412
 21
11.3805212788
  0
LINE
  5
2E1
100
AcDbEntity
  8
0
100
AcDbLine
 62
7
  6
CONTINUOUS
 10
11.6298418412
 20
11.8846664673
 11
11.4972850767
 21
11.8628393771
  0
LINE
  5
2E2
100
AcDbEntity
  8
0
100
AcDbLine
 62
7
  6
CONTINUOUS
 10
12.0401990801
 20
11.4462179706
 11
12.1762357229
 21
11.4685474277
  0
LINE
  5
2E3
100
AcDbEntity
  8
0
100
AcDbLine
 62
7
  6
CONTINUOUS
 10
12.1762357229
 20
11.9726926161
 11
12.0401990801
 21
11.950363159
  0
LINE
  5
2E4
100
AcDbEntity
  8
0
100
AcDbLine
 62
7
  6
CONTINUOUS
 10
11.6298418412
 20
11.3805212788
 11
12.0401990801
 21
11.4462179706
  0
LINE
  5
2E5
100
AcDbEntity
  8
0
100
AcDbLine
 62
7
  6
CONTINUOUS
 10
12.0401990801
 20
11.950363159
 11
11.6298418412
 21
11.8846664673
  0
LWPOLYLINE
  5
2E6
100
AcDbEntity
  8
0
100
AcDbPolyline
 62
7
  6
CONTINUOUS
 90
4
 70
0
 10
12.7644421837
 20
11.7372902682
 10
12.6923489444
 20
11.7262902682
 10
12.6169018266
 20
11.7152902682
 10
12.5383985866
 20
11.7042902682
  0
LWPOLYLINE
  5
2E7
100
AcDbEntity
  8
0
100
AcDbPolyline
 62
7
  6
CONTINUOUS
 90
4
 70
0
 10
12.7644421837
 20
11.8372902682
 10
12.6923489444
 20
11.8262902682
 10
12.6169018266
 20
11.8152902682
 10
12.5383985866
 20
11.8042902682
  0
LWPOLYLINE
  5
2E8
100
AcDbEntity
  8
0
100
AcDbPolyline
 62
7
  6
CONTINUOUS
 90
18
 70
0
 10
11.1413148145
 20
11.5282902682
 10
11.0630062484
 20
11.5172902682
 10
10.9877740874
 20
11.5062902682
 10
10.9159152386
 20
11.4952902682
 10
10.8477132962
 20
11.4842902682
 10
10.7834374223
 20
11.4732902682
 10
10.7233412844
 20
11.4622902682
 10
10.6676620547
 20
11.4512902682
 10
10.6166194736
 20
11.4402902682
 10
10.5704149828
 20
11.4292902682
 10
10.5292309302
 20
11.4182902682
 10
10.4932298505
 20
11.4072902682
 10
10.4625538232
 20
11.3962902682
 10
10.4373239124
 20
11.3852902682
 10
10.4176396889
 20
11.3742902682
 10
10.403578837
 20
11.3632902682
 10
10.3951968483
 20
11.3522902682
 10
10.3925236052
 20
11.3416579101
  0
LWPOLYLINE
  5
2E9
100
AcDbEntity
  8
0
100
AcDbPolyline
 62
7
  6
CONTINUOUS
 90
15
 70
0
 10
11.1413148145
 20
11.6282902682
 10
11.0630062484
 20
11.6172902682
 10
10.9877740874
 20
11.6062902682
 10
10.9159152386
 20
11.5952902682
 10
10.8477132962
 20
11.5842902682
 10
10.7834374223
 20
11.5732902682
 10
10.7233412844
 20
11.5622902682
 10
10.6676620547
 20
11.5512902682
 10
10.6166194736
 20
11.5402902682
 10
10.5704149828
 20
11.5292902682
 10
10.5292309302
 20
11.5182902682
 10
10.4932298505
 20
11.5072902682
 10
10.4625538232
 20
11.4962902682
 10
10.4373239124
 20
11.4852902682
 10
10.423225983
 20
11.4777489108
  0
LINE
  5
2EA
100
AcDbEntity
  8
0
100
AcDbLine
 62
7
  6
CONTINUOUS
 10
11.3059140465
 20
11.5502902682
 11
11.1413148145
 21
11.5282902682
  0
LINE
  5
2EB
100
AcDbEntity
  8
0
100
AcDbLine
 62
7
  6
CONTINUOUS
 10
11.3059140465
 20
11.6502902682
 11
11.1413148145
 21
11.6282902682
  0
LINE
  5
2EC
100
AcDbEntity
  8
0
100
AcDbLine
 62
7
  6
CONTINUOUS
 10
12.5383985866
 20
11.7042902682
 11
12.3734738475
 21
11.6822902682
  0
LINE
  5
2ED
100
AcDbEntity
  8
0
100
AcDbLine
 62
7
  6
CONTINUOUS
 10
12.5383985866
 20
11.8042902682
 11
12.3734738475
 21
11.7822902682
  0
LINE
  5
2EE
100
AcDbEntity
  8
0
100
AcDbLine
 62
7
  6
CONTINUOUS
 10
11.4789759525
 20
11.5722902682
 11
11.3059140465
 21
11.5502902682
  0
LINE
  5
2EF
100
AcDbEntity
  8
0
100
AcDbLine
 62
7
  6
CONTINUOUS
 10
11.4789759525
 20
11.6722902682
 11
11.3059140465
 21
11.6502902682
  0
LINE
  5
2F0
100
AcDbEntity
  8
0
100
AcDbLine
 62
7
  6
CONTINUOUS
 10
12.3734738475
 20
11.6822902682
 11
12.2001756959
 21
11.6602902682
  0
LINE
  5
2F1
100
AcDbEntity
  8
0
100
AcDbLine
 62
7
  6
CONTINUOUS
 10
12.3734738475
 20
11.7822902682
 11
12.2001756959
 21
11.7602902682
  0
LWPOLYLINE
  5
2F2
100
AcDbEntity
  8
0
100
AcDbPolyline
 62
7
  6
CONTINUOUS
 90
3
 70
0
 10
12.2001756959
 20
11.6602902682
 10
11.8394801941
 20
11.6162902682
 10
11.4789759525
 20
11.5722902682
  0
LWPOLYLINE
  5
2F3
100
AcDbEntity
  8
0
100
AcDbPolyline
 62
7
  6
CONTINUOUS
 90
3
 70
0
 10
12.2001756959
 20
11.7602902682
 10
11.8394801941
 20
11.7162902682
 10
11.4789759525
 20
11.6722902682
  0
LINE
  5
2F4
100
AcDbEntity
  8
RACCORDO
100
AcDbLine
 62
250
  6
CONTINUOUS
 10
-15.0526524888
 20
10.3875785334
 11
14.7376996991
 21
10.3875785334
  0
LINE
  5
2F5
100
AcDbEntity
  8
RACCORDO
100
AcDbLine
 62
250
  6
CONTINUOUS
 10
-14.7526981802
 20
10.6873957815
 11
14.4377453906
 21
10.6873957815
  0
LINE
  5
2F6
100
AcDbEntity
  8
0
100
AcDbLine
 62
7
  6
CONTINUOUS
 10
10.7425236052
 20
10.8972902682
 11
10.7425236052
 21
11.1395853159
  0
LINE
  5
2F7
100
AcDbEntity
  8
0
100
AcDbLine
 62
7
  6
CONTINUOUS
 10
10.7425236052
 20
11.667168203
 11
10.7425236052
 21
12.0972902682
  0
LWPOLYLINE
  5
2F8
100
AcDbEntity
  8
0
100
AcDbPolyline
 62
7
  6
CONTINUOUS
 90
3
 70
0
 10
13.0619500618
 20
11.9501382495
 10
13.061529737
 20
11.9457963181
 10
13.058245635
 20
11.9372902682
  0
LWPOLYLINE
  5
2F9
100
AcDbEntity
  8
0
100
AcDbPolyline
 62
7
  6
CONTINUOUS
 90
3
 70
0
 10
13.0619500618
 20
11.850138248
 10
13.061529737
 20
11.8457963171
 10
13.058245635
 20
11.8372902682
  0
LINE
  5
2FA
100
AcDbEntity
  8
0
100
AcDbLine
 62
7
  6
CONTINUOUS
 10
12.1079947173
 20
14.6534621758
 11
12.1217965585
 21
14.657362634
  0
LWPOLYLINE
  5
2FB
100
AcDbEntity
  8
0
100
AcDbPolyline
 62
7
  6
CONTINUOUS
 90
7
 70
0
 10
10.6818688365
 20
14.6534621758
 10
10.6549300221
 20
14.6472816338
 10
10.6275076284
 20
14.640801294
 10
10.5996016553
 20
14.6340211561
 10
10.571212103
 20
14.6269412204
 10
10.5423389714
 20
14.6195614867
 10
10.5129822604
 20
14.611881955
  0
LWPOLYLINE
  5
2FC
100
AcDbEntity
  8
RACCORDO
100
AcDbPolyline
 62
250
  6
CONTINUOUS
 90
16
 70
0
 10
-14.7526981802
 20
10.6873957815
 10
-14.7841932726
 20
10.6857192962
 10
-14.8153316832
 20
10.6807485401
 10
-14.8457697797
 20
10.672541129
 10
-14.8751552188
 20
10.6611979027
 10
-14.903183147
 20
10.6468425734
 10
-14.9295908815
 20
10.6296029445
 10
-14.9541276007
 20
10.609612732
 10
-14.9764535806
 20
10.587116209
 10
-14.9962255872
 20
10.5624702456
 10
-15.0132341654
 20
10.5359912032
 10
-15.0273358134
 20
10.5079662782
 10
-15.0383847275
 20
10.4787729807
 10
-15.0463026031
 20
10.448764421
 10
-15.0510594823
 20
10.4182559702
 10
-15.0526524888
 20
10.3875785334
  0
LINE
  5
2FD
100
AcDbEntity
  8
RACCORDO
100
AcDbLine
 62
7
  6
CONTINUOUS
 10
-14.8575403618
 20
10.8972902682
 11
14.5425875722
 21
10.8972902682
  0
LINE
  5
2FE
100
AcDbEntity
  8
0
100
AcDbLine
 62
7
  6
CONTINUOUS
 10
12.5419101131
 20
12.0393628624
 11
12.9425236052
 21
12.0393628624
  0
LINE
  5
2FF
100
AcDbEntity
  8
0
100
AcDbLine
 62
7
  6
CONTINUOUS
 10
12.9425236052
 20
12.0972902682
 11
10.7425236052
 21
12.0972902682
  0
LWPOLYLINE
  5
300
100
AcDbEntity
  8
RACCORDO
100
AcDbPolyline
 62
7
  6
CONTINUOUS
 90
16
 70
0
 10
13.2665002646
 20
-16.297427514
 10
13.26836839
 20
-16.3308502328
 10
13.2737041257
 20
-16.362774611
 10
13.2822322916
 20
-16.39330097
 10
13.2938766227
 20
-16.4226327347
 10
13.3085906302
 20
-16.4506678097
 10
13.3260471276
 20
-16.4768217417
 10
13.3457366393
 20
-16.5005614248
 10
13.3675937251
 20
-16.5220075383
 10
13.3917710381
 20
-16.5412916102
 10
13.4180848974
 20
-16.558143579
 10
13.4461723589
 20
-16.5722387021
 10
13.47594275
 20
-16.583433347
 10
13.507105089
 20
-16.591488863
 10
13.539156708
 20
-16.5961784373
 10
13.5665002646
 20
-16.597427489
  0
LINE
  5
301
100
AcDbEntity
  8
0
100
AcDbLine
 62
7
  6
CONTINUOUS
 10
12.7644421837
 20
11.7372902682
 11
12.7644421837
 21
11.8372902682
  0
LINE
  5
302
100
AcDbEntity
  8
RACCORDO
100
AcDbLine
 62
250
  6
CONTINUOUS
 10
12.8477144262
 20
-14.4800558732
 11
12.8477144262
 21
-14.480162092
  0
LINE
  5
303
100
AcDbEntity
  8
0
100
AcDbLine
 62
7
  6
CONTINUOUS
 10
12.9425236052
 20
11.0937305319
 11
12.9425236052
 21
11.7565413111
  0
LINE
  5
304
100
AcDbEntity
  8
0
100
AcDbLine
 62
7
  6
CONTINUOUS
 10
12.9425236052
 20
12.0393628624
 11
12.9425236052
 21
12.0972902682
  0
LINE
  5
305
100
AcDbEntity
  8
0
100
AcDbLine
 62
250
  6
CONTINUOUS
 10
13.058245635
 20
11.8372902682
 11
13.058245635
 21
11.9372902682
  0
LINE
  5
306
100
AcDbEntity
  8
0
100
AcDbLine
 62
7
  6
CONTINUOUS
 10
13.0619500618
 20
11.850138248
 11
13.0619500618
 21
11.9501382495
  0
LINE
  5
307
100
AcDbEntity
  8
RACCORDO
100
AcDbLine
 62
7
  6
CONTINUOUS
 10
13.1425236052
 20
12.212760322
 11
13.1425236052
 21
12.4972902682
  0
LINE
  5
308
100
AcDbEntity
  8
RACCORDO
100
AcDbLine
 62
7
  6
CONTINUOUS
 10
13.2665002646
 20
-14.4847837646
 11
13.2665002646
 21
-16.297427514
  0
LINE
  5
309
100
AcDbEntity
  8
RACCORDO
100
AcDbLine
 62
250
  6
CONTINUOUS
 10
13.5665002646
 20
-16.597427514
 11
13.5665002646
 21
-14.669253962
  0
LWPOLYLINE
  5
30A
100
AcDbEntity
  8
0
100
AcDbPolyline
 62
7
  6
CONTINUOUS
 90
4
 70
0
 43
0.3500000006
 10
20.5761143188
 20
-1.8629857979
 10
21.1594463196
 20
-1.4911115341
 10
21.4511145859
 20
-1.4911115341
 10
22.0344465866
 20
-1.8629857979
  0
LINE
  5
30B
100
AcDbEntity
  8
0
100
AcDbLine
 62
7
  6
CONTINUOUS
 10
10.7292809552
 20
14.6628884235
 11
10.6818688365
 21
14.6534621758
  0
LWPOLYLINE
  5
30C
100
AcDbEntity
  8
0
100
AcDbPolyline
 62
7
  6
CONTINUOUS
 90
13
 70
0
 10
10.9909531629
 20
14.7051450746
 10
10.9729744694
 20
14.7028124652
 10
10.9544813
 20
14.7003276653
 10
10.9354756442
 20
14.6976846032
 10
10.9157916137
 20
14.6948446143
 10
10.8954373232
 20
14.6918031531
 10
10.8744115437
 20
14.6885510907
 10
10.8525321537
 20
14.6850391663
 10
10.8298064188
 20
14.6812590426
 10
10.8062403494
 20
14.6771988615
 10
10.7816465303
 20
14.6727989529
 10
10.7559676258
 20
14.6680285376
 10
10.7292809552
 20
14.6628884235
  0
LWPOLYLINE
  5
30D
100
AcDbEntity
  8
0
100
AcDbPolyline
 62
7
  6
CONTINUOUS
 90
16
 70
0
 10
12.417257347
 20
14.730784198
 10
12.3981573074
 20
14.7283423295
 10
12.3788524215
 20
14.7255633861
 10
12.3593510982
 20
14.7224302852
 10
12.3396705453
 20
14.7189010669
 10
12.3197930038
 20
14.7149770988
 10
12.2997473919
 20
14.7107087337
 10
12.279711393
 20
14.7060755794
 10
12.2596926024
 20
14.7010600162
 10
12.2395786262
 20
14.6957265712
 10
12.219545435
 20
14.6900589163
 10
12.1996940862
 20
14.6840438672
 10
12.1798601703
 20
14.6777640533
 10
12.1601057179
 20
14.6712451316
 10
12.1406971432
 20
14.6644473417
 10
12.1217965585
 20
14.657362634
  0
LINE
  5
30E
100
AcDbEntity
  8
0
100
AcDbLine
 62
7
  6
CONTINUOUS
 10
11.0255350965
 20
14.7093949565
 11
10.9909531629
 21
14.7051450746
  0
LINE
  5
30F
100
AcDbEntity
  8
0
100
AcDbLine
 62
7
  6
CONTINUOUS
 10
11.0587313451
 20
14.713190587
 11
11.0255350965
 21
14.7093949565
  0
LINE
  5
310
100
AcDbEntity
  8
0
100
AcDbLine
 62
7
  6
CONTINUOUS
 10
11.0910915251
 20
14.7166228756
 11
11.0587313451
 21
14.713190587
  0
LINE
  5
311
100
AcDbEntity
  8
0
100
AcDbLine
 62
7
  6
CONTINUOUS
 10
11.1229705014
 20
14.7197463373
 11
11.0910915251
 21
14.7166228756
  0
LINE
  5
312
100
AcDbEntity
  8
0
100
AcDbLine
 62
7
  6
CONTINUOUS
 10
11.1549547286
 20
14.7226272663
 11
11.1229705014
 21
14.7197463373
  0
LINE
  5
313
100
AcDbEntity
  8
0
100
AcDbLine
 62
7
  6
CONTINUOUS
 10
10.5425236052
 20
12.212760322
 11
13.1425236052
 21
12.212760322
  0
LINE
  5
314
100
AcDbEntity
  8
RACCORDO
100
AcDbLine
 62
250
  6
CONTINUOUS
 10
13.1425236052
 20
12.4972902682
 11
10.5425236052
 21
12.4972902682
  0
LINE
  5
315
100
AcDbEntity
  8
0
100
AcDbLine
 62
7
  6
CONTINUOUS
 10
9.2425236052
 20
12.5972902682
 11
14.4425236052
 21
12.5972902682
  0
LINE
  5
316
100
AcDbEntity
  8
0
100
AcDbLine
 62
250
  6
CONTINUOUS
 10
9.0425236052
 20
12.7972902682
 11
14.6425236052
 21
12.7972902682
  0
LWPOLYLINE
  5
317
100
AcDbEntity
  8
0
100
AcDbPolyline
 62
7
  6
CONTINUOUS
 90
9
 70
0
 43
0.3500000006
 10
19.1177797852
 20
-2.9786108551
 10
18.8261137848
 20
-2.6067365913
 10
18.8261137848
 20
-2.2348611946
 10
19.1177797852
 20
-1.8629857979
 10
19.4094480515
 20
-1.6770492325
 10
19.7011140518
 20
-1.6770492325
 10
19.9927800522
 20
-1.8629857979
 10
20.2844483185
 20
-2.2348611946
 10
20.5761143188
 20
-1.8629857979
  0
LWPOLYLINE
  5
318
100
AcDbEntity
  8
0
100
AcDbPolyline
 62
7
  6
CONTINUOUS
 90
5
 70
0
 10
10.3925236052
 20
11.3416579101
 10
10.3955792363
 20
11.3302902682
 10
10.4043421032
 20
11.3192902682
 10
10.4187808198
 20
11.3082902682
 10
10.4232260093
 20
11.3055668917
  0
LINE
  5
319
100
AcDbEntity
  8
RACCORDO
100
AcDbLine
 62
250
  6
CONTINUOUS
 10
14.8861612675
 20
-12.381256085
 11
14.8449702238
 21
-11.7519672017
  0
LWPOLYLINE
  5
31A
100
AcDbEntity
  8
RACCORDO
100
AcDbPolyline
 62
7
  6
CONTINUOUS
 90
5
 70
0
 10
14.8855569785
 20
-12.3615181437
 10
14.8442201447
 20
-11.7299056777
 10
14.8439557629
 20
-11.7252110543
 10
14.843658414
 20
-11.7191956066
 10
14.8433426455
 20
-11.7119303974
  0
LWPOLYLINE
  5
31B
100
AcDbEntity
  8
RACCORDO
100
AcDbPolyline
 62
250
  6
CONTINUOUS
 90
3
 70
0
 10
14.8449702238
 20
-11.7519672017
 10
14.8441013262
 20
-11.7363967523
 10
14.843658414
 20
-11.7191956066
  0
LINE
  5
31C
100
AcDbEntity
  8
RACCORDO
100
AcDbLine
 62
7
  6
CONTINUOUS
 10
14.8433426455
 20
-11.7119303974
 11
14.842678399
 21
-11.6935953544
  0
LINE
  5
31D
100
AcDbEntity
  8
RACCORDO
100
AcDbLine
 62
250
  6
CONTINUOUS
 10
14.8432671384
 20
-11.7167438944
 11
14.842678399
 21
-11.6935953544
  0
LINE
  5
31E
100
AcDbEntity
  8
RACCORDO
100
AcDbLine
 62
250
  6
CONTINUOUS
 10
14.8443753817
 20
-11.7323735843
 11
14.8449702238
 21
-11.7519672017
  0
LINE
  5
31F
100
AcDbEntity
  8
RACCORDO
100
AcDbLine
 62
7
  6
CONTINUOUS
 10
14.8861612675
 20
-12.381256085
 11
14.8855635564
 21
-12.3616186363
  0
LINE
  5
320
100
AcDbEntity
  8
RACCORDO
100
AcDbLine
 62
7
  6
CONTINUOUS
 10
14.842678399
 20
-11.6935953544
 11
14.8419917941
 21
-11.6706100102
  0
LINE
  5
321
100
AcDbEntity
  8
RACCORDO
100
AcDbLine
 62
7
  6
CONTINUOUS
 10
14.8419917941
 20
-11.6706100102
 11
14.8413003816
 21
-11.643156971
  0
LINE
  5
322
100
AcDbEntity
  8
RACCORDO
100
AcDbLine
 62
7
  6
CONTINUOUS
 10
14.8413003816
 20
-11.643156971
 11
14.8403126507
 21
-11.594051228
  0
LINE
  5
323
100
AcDbEntity
  8
RACCORDO
100
AcDbLine
 62
250
  6
CONTINUOUS
 10
14.8402774845
 20
-11.5973083772
 11
14.8403126507
 21
-11.594051228
  0
LINE
  5
324
100
AcDbEntity
  8
RACCORDO
100
AcDbLine
 62
7
  6
CONTINUOUS
 10
14.8403126507
 20
-11.594051228
 11
14.8391216944
 21
-11.5142894712
  0
LINE
  5
325
100
AcDbEntity
  8
RACCORDO
100
AcDbLine
 62
250
  6
CONTINUOUS
 10
14.8390871491
 20
-11.5159973681
 11
14.8391216944
 21
-11.5142894712
  0
LINE
  5
326
100
AcDbEntity
  8
RACCORDO
100
AcDbLine
 62
7
  6
CONTINUOUS
 10
14.8391216944
 20
-11.5142894712
 11
14.8379904356
 21
-11.3942462472
  0
LINE
  5
327
100
AcDbEntity
  8
RACCORDO
100
AcDbLine
 62
7
  6
CONTINUOUS
 10
14.8379904356
 20
-11.3942462472
 11
14.8373327671
 21
-11.2566693972
  0
LINE
  5
328
100
AcDbEntity
  8
RACCORDO
100
AcDbLine
 62
250
  6
CONTINUOUS
 10
14.5755021734
 20
-16.597427514
 11
14.5755021734
 21
-14.669253962
  0
LINE
  5
329
100
AcDbEntity
  8
0
100
AcDbLine
 62
7
  6
CONTINUOUS
 10
14.6425236052
 20
12.7972902682
 11
14.6425236052
 21
13.8321384685
  0
LINE
  5
32A
100
AcDbEntity
  8
RACCORDO
100
AcDbLine
 62
7
  6
CONTINUOUS
 10
14.8425210398
 20
8.6218646899
 11
14.8425236052
 21
10.5973341315
  0
LINE
  5
32B
100
AcDbEntity
  8
RACCORDO
100
AcDbLine
 62
7
  6
CONTINUOUS
 10
14.8755021734
 20
-16.297427514
 11
14.8755021734
 21
-14.473649106
  0
LINE
  5
32C
100
AcDbEntity
  8
RACCORDO
100
AcDbLine
 62
7
  6
CONTINUOUS
 10
14.8861612675
 20
-14.3692870684
 11
14.8861612675
 21
-12.381256085
  0
LINE
  5
32D
100
AcDbEntity
  8
RACCORDO
100
AcDbLine
 62
7
  6
CONTINUOUS
 10
14.8373327671
 20
-11.2566693972
 11
14.8372278404
 21
8.1086282639
  0
LINE
  5
32E
100
AcDbEntity
  8
RACCORDO
100
AcDbLine
 62
250
  6
CONTINUOUS
 10
14.8372278404
 20
8.1086282639
 11
14.8371956958
 21
8.099896905
  0
LINE
  5
32F
100
AcDbEntity
  8
RACCORDO
100
AcDbLine
 62
250
  6
CONTINUOUS
 10
14.434506193
 20
-2.0333106978
 11
14.4342565042
 21
-14.437467566
  0
LINE
  5
330
100
AcDbEntity
  8
RACCORDO
100
AcDbLine
 62
250
  6
CONTINUOUS
 10
14.4377453906
 20
10.6873957815
 11
14.4375764509
 21
-1.6042682155
  0
LINE
  5
331
100
AcDbEntity
  8
RACCORDO
100
AcDbLine
 62
250
  6
CONTINUOUS
 10
14.7342108128
 20
-14.1375737847
 11
14.7343225652
 21
-2.1688071333
  0
LINE
  5
332
100
AcDbEntity
  8
RACCORDO
100
AcDbLine
 62
250
  6
CONTINUOUS
 10
14.7376996991
 20
10.3875785334
 11
14.7372430033
 21
-1.729662644
  0
LINE
  5
333
100
AcDbEntity
  8
RACCORDO
100
AcDbLine
 62
7
  6
CONTINUOUS
 10
14.8425210398
 20
8.6218646899
 11
14.8425004099
 21
8.6172141854
  0
LINE
  5
334
100
AcDbEntity
  8
RACCORDO
100
AcDbLine
 62
7
  6
CONTINUOUS
 10
14.8372278404
 20
8.1086282639
 11
14.8377596951
 21
8.2850326551
  0
LINE
  5
335
100
AcDbEntity
  8
RACCORDO
100
AcDbLine
 62
250
  6
CONTINUOUS
 10
14.7372430033
 20
-1.729662644
 11
14.7343225652
 21
-2.1688071333
  0
LINE
  5
336
100
AcDbEntity
  8
RACCORDO
100
AcDbLine
 62
250
  6
CONTINUOUS
 10
14.4375764509
 20
-1.6042682155
 11
14.4370955021
 21
-1.6774892914
  0
LINE
  5
337
100
AcDbEntity
  8
RACCORDO
100
AcDbLine
 62
7
  6
CONTINUOUS
 10
14.8377596951
 20
8.2850326551
 11
14.8385590529
 21
8.3915684371
  0
LINE
  5
338
100
AcDbEntity
  8
RACCORDO
100
AcDbLine
 62
250
  6
CONTINUOUS
 10
14.4370955021
 20
-1.6774892914
 11
14.434506193
 21
-2.0333106978
  0
LINE
  5
339
100
AcDbEntity
  8
RACCORDO
100
AcDbLine
 62
7
  6
CONTINUOUS
 10
14.8385590529
 20
8.3915684371
 11
14.8397117039
 21
8.4848617364
  0
LINE
  5
33A
100
AcDbEntity
  8
RACCORDO
100
AcDbLine
 62
250
  6
CONTINUOUS
 10
14.84102321
 20
8.5635746249
 11
14.8410965365
 21
8.5618929245
  0
LINE
  5
33B
100
AcDbEntity
  8
RACCORDO
100
AcDbLine
 62
7
  6
CONTINUOUS
 10
14.8397117039
 20
8.4848617364
 11
14.8410965365
 21
8.5618929245
  0
LINE
  5
33C
100
AcDbEntity
  8
RACCORDO
100
AcDbLine
 62
7
  6
CONTINUOUS
 10
14.84239032
 20
8.6123872622
 11
14.8424909333
 21
8.6172141854
  0
LINE
  5
33D
100
AcDbEntity
  8
RACCORDO
100
AcDbLine
 62
250
  6
CONTINUOUS
 10
14.8417472667
 20
8.594682434
 11
14.8418541952
 21
8.5933239336
  0
LINE
  5
33E
100
AcDbEntity
  8
RACCORDO
100
AcDbLine
 62
250
  6
CONTINUOUS
 10
14.8425261696
 20
8.6226101988
 11
14.8423858354
 21
8.6122399653
  0
LINE
  5
33F
100
AcDbEntity
  8
RACCORDO
100
AcDbLine
 62
7
  6
CONTINUOUS
 10
14.8410965365
 20
8.5618929245
 11
14.8423858354
 21
8.6122399653
  0
LINE
  5
340
100
AcDbEntity
  8
0
100
AcDbLine
 62
7
  6
CONTINUOUS
 10
11.187057392
 20
14.7252637229
 11
11.1549547286
 21
14.7226272663
  0
LINE
  5
341
100
AcDbEntity
  8
0
100
AcDbLine
 62
7
  6
CONTINUOUS
 10
11.2193094093
 20
14.7276593542
 11
11.187057392
 21
14.7252637229
  0
LWPOLYLINE
  5
342
100
AcDbEntity
  8
0
100
AcDbPolyline
 62
7
  6
CONTINUOUS
 90
3
 70
0
 10
11.2677898452
 20
14.7307841828
 10
11.2515968286
 20
14.7298026592
 10
11.2193094093
 20
14.7276593542
  0
LINE
  5
343
100
AcDbEntity
  8
0
100
AcDbLine
 62
250
  6
CONTINUOUS
 10
9.0425236052
 20
13.8321384685
 11
14.6425236052
 21
13.8321384685
  0
LINE
  5
344
100
AcDbEntity
  8
0
100
AcDbLine
 62
250
  6
CONTINUOUS
 10
9.1341902718
 20
14.0002571435
 11
14.5508569385
 21
14.0002571435
  0
LINE
  5
345
100
AcDbEntity
  8
0
100
AcDbLine
 62
7
  6
CONTINUOUS
 10
10.4935584875
 20
14.611881955
 11
10.5129822604
 21
14.611881955
  0
LINE
  5
346
100
AcDbEntity
  8
0
100
AcDbLine
 62
7
  6
CONTINUOUS
 10
11.6144094375
 20
14.611881955
 11
12.0706172293
 21
14.611881955
  0
LINE
  5
347
100
AcDbEntity
  8
0
100
AcDbLine
 62
7
  6
CONTINUOUS
 10
13.1720614261
 20
14.611881955
 11
13.1914887229
 21
14.611881955
  0
LINE
  5
348
100
AcDbEntity
  8
0
100
AcDbLine
 62
7
  6
CONTINUOUS
 10
10.4232260093
 20
11.3055668917
 11
10.6843817941
 21
11.1508388396
  0
LINE
  5
349
100
AcDbEntity
  8
0
100
AcDbLine
 62
7
  6
CONTINUOUS
 10
10.6843817941
 20
11.1508388396
 11
10.7425236052
 21
11.116147835
  0
LWPOLYLINE
  5
34A
100
AcDbEntity
  8
0
100
AcDbPolyline
 62
7
  6
CONTINUOUS
 90
4
 70
0
 43
0.3500000006
 10
-1.0871875627
 20
27.2223817749
 10
-0.7153125908
 20
26.6390497742
 10
-0.7153125908
 20
26.3473837738
 10
-1.0871875627
 20
25.7640472412
  0
LWPOLYLINE
  5
34B
100
AcDbEntity
  8
RACCORDO
100
AcDbPolyline
 62
250
  6
CONTINUOUS
 90
13
 70
0
 10
14.7376996991
 20
10.3875785334
 10
14.7351116978
 20
10.4266974568
 10
14.7274396159
 20
10.4651475628
 10
14.7148146233
 20
10.5022714688
 10
14.6974525697
 20
10.5374344664
 10
14.6756502949
 20
10.5700353725
 10
14.6497805528
 20
10.5995168087
 10
14.6202856393
 20
10.6253747299
 10
14.5876698297
 20
10.6471670425
 10
14.5524907575
 20
10.6645211627
 10
14.5153498804
 20
10.6771403865
 10
14.4768821971
 20
10.6848089627
 10
14.4377453906
 20
10.6873957815
  0
LWPOLYLINE
  5
34C
100
AcDbEntity
  8
RACCORDO
100
AcDbPolyline
 62
7
  6
CONTINUOUS
 90
13
 70
0
 10
14.8425236052
 20
10.5972902403
 10
14.8399829767
 20
10.6362820778
 10
14.8323829587
 20
10.6746735485
 10
14.8198272041
 20
10.7118074967
 10
14.8024967577
 20
10.747056992
 10
14.7806693889
 20
10.7797906918
 10
14.7547341746
 20
10.8093959967
 10
14.7251162622
 20
10.8353714031
 10
14.6923342927
 20
10.8572480632
 10
14.6570532619
 20
10.8746008605
 10
14.6199311948
 20
10.8871551371
 10
14.5815809227
 20
10.8947494373
 10
14.5426606587
 20
10.8972902682
  0
LINE
  5
34D
100
AcDbEntity
  8
0
100
AcDbLine
 62
7
  6
CONTINUOUS
 10
10.7425236052
 20
12.0972902682
 11
10.5425236052
 21
12.212760322
  0
LINE
  5
34E
100
AcDbEntity
  8
0
100
AcDbLine
 62
7
  6
CONTINUOUS
 10
13.261821184
 20
10.9277489898
 11
13.0027120935
 21
11.0812579899
  0
LINE
  5
34F
100
AcDbEntity
  8
0
100
AcDbLine
 62
7
  6
CONTINUOUS
 10
13.0027120935
 20
11.0812579899
 11
12.9425236052
 21
11.1171682634
  0
LWPOLYLINE
  5
350
100
AcDbEntity
  8
0
100
AcDbPolyline
 62
7
  6
CONTINUOUS
 90
5
 70
0
 10
13.261821184
 20
10.9277489898
 10
13.2674075996
 20
10.9242902682
 10
13.2814684172
 20
10.9132902682
 10
13.2898503797
 20
10.9022902682
 10
13.2911075008
 20
10.8972902682
  0
LWPOLYLINE
  5
351
100
AcDbEntity
  8
0
100
AcDbPolyline
 62
7
  6
CONTINUOUS
 90
5
 70
0
 43
0.3500000006
 10
22.0344465866
 20
-1.8629857979
 10
22.3261148529
 20
-2.2348611946
 10
22.3261148529
 20
-2.6067365913
 10
22.0344465866
 20
-2.9786108551
 10
21.7427805862
 20
-3.1645485535
  0
LWPOLYLINE
  5
352
100
AcDbEntity
  8
0
100
AcDbPolyline
 62
7
  6
CONTINUOUS
 90
25
 70
0
 10
13.0034876492
 20
14.6534000746
 10
12.9626181817
 20
14.6615475309
 10
12.9417709149
 20
14.6656164582
 10
12.9208979913
 20
14.6695718011
 10
12.8999780609
 20
14.6734201074
 10
12.8790221449
 20
14.6771593541
 10
12.85807228
 20
14.6807795788
 10
12.8371516885
 20
14.6842789732
 10
12.8162263185
 20
14.6876650611
 10
12.7952485311
 20
14.6909422991
 10
12.7742690754
 20
14.6941061721
 10
12.7532229551
 20
14.6971665523
 10
12.7318788441
 20
14.70014831
 10
12.7102435449
 20
14.7030540726
 10
12.6882843367
 20
14.7058840959
 10
12.6656901355
 20
14.7086578124
 10
12.6424267277
 20
14.7113832569
 10
12.6184818123
 20
14.7140533653
 10
12.593540614
 20
14.7166642974
 10
12.5675303573
 20
14.7192290536
 10
12.5404403121
 20
14.721735855
 10
12.5119816938
 20
14.7241458667
 10
12.4819806907
 20
14.726448798
 10
12.4504320427
 20
14.728660716
 10
12.417257347
 20
14.730784198
  0
LWPOLYLINE
  5
353
100
AcDbEntity
  8
0
100
AcDbPolyline
 62
7
  6
CONTINUOUS
 90
7
 70
0
 10
13.1720614261
 20
14.611881955
 10
13.1441660568
 20
14.6192024949
 10
13.1161905867
 20
14.6263626917
 10
13.0881350133
 20
14.6333625468
 10
13.0599993342
 20
14.6402020615
 10
13.031783547
 20
14.646881237
 10
13.0034876492
 20
14.6534000746
  0
LINE
  5
354
100
AcDbEntity
  8
0
100
AcDbLine
 62
7
  6
CONTINUOUS
 10
11.5772689357
 20
14.6534000764
 11
11.5632506022
 21
14.6573626527
  0
LWPOLYLINE
  5
355
100
AcDbEntity
  8
0
100
AcDbPolyline
 62
7
  6
CONTINUOUS
 90
16
 70
0
 10
11.5632506022
 20
14.6573626527
 10
11.5441758996
 20
14.6645031701
 10
11.5246504079
 20
14.6713396187
 10
11.5048277944
 20
14.6778812258
 10
11.4849659086
 20
14.6841658311
 10
11.4651151682
 20
14.6901721129
 10
11.4451025654
 20
14.6958272186
 10
11.4250271644
 20
14.7011458448
 10
11.4050563695
 20
14.7061433544
 10
11.3850690618
 20
14.7107601166
 10
11.3650739945
 20
14.7150147011
 10
11.3452461016
 20
14.7189262654
 10
11.3256070267
 20
14.7224455811
 10
11.306138927
 20
14.7255714929
 10
11.2868631496
 20
14.7283453789
 10
11.2677898452
 20
14.7307841828
  0
LINE
  5
356
100
AcDbEntity
  8
0
100
AcDbLine
 62
7
  6
CONTINUOUS
 10
12.9425236052
 20
12.0393628624
 11
13.0251515437
 21
11.9916575998
  0
LWPOLYLINE
  5
357
100
AcDbEntity
  8
0
100
AcDbPolyline
 62
7
  6
CONTINUOUS
 90
7
 70
0
 10
13.0251515437
 20
11.9916575998
 10
13.0307059574
 20
11.9883265665
 10
13.0429049334
 20
11.979820517
 10
13.0521741101
 20
11.9713144674
 10
13.0584223802
 20
11.9628084177
 10
13.0615661574
 20
11.9543023679
 10
13.0619500618
 20
11.9501382495
  0
LINE
  5
358
100
AcDbEntity
  8
0
100
AcDbLine
 62
7
  6
CONTINUOUS
 10
12.7644421837
 20
11.8372902682
 11
12.5419101131
 21
12.0393628624
  0
LWPOLYLINE
  5
359
100
AcDbEntity
  8
0
100
AcDbPolyline
 62
7
  6
CONTINUOUS
 90
7
 70
0
 10
11.6144094375
 20
14.611881955
 10
11.6082149439
 20
14.6192024948
 10
11.6020221972
 20
14.6263626917
 10
11.5958312102
 20
14.6333625471
 10
11.5896419958
 20
14.6402020621
 10
11.5834545666
 20
14.6468812381
 10
11.5772689357
 20
14.6534000764
  0
LWPOLYLINE
  5
35A
100
AcDbEntity
  8
0
100
AcDbPolyline
 62
7
  6
CONTINUOUS
 90
2
 70
0
 43
0.3500000006
 10
20.2844483185
 20
-2.6067365913
 10
20.2844483185
 20
-2.2348611946
  0
LWPOLYLINE
  5
35B
100
AcDbEntity
  8
0
100
AcDbPolyline
 62
7
  6
CONTINUOUS
 90
2
 70
0
 43
0.3500000006
 10
-1.8309375772
 20
27.5140477753
 10
-1.4590626054
 20
27.5140477753
  0
LWPOLYLINE
  5
35C
100
AcDbEntity
  8
0
100
AcDbPolyline
 62
7
  6
CONTINUOUS
 90
15
 70
0
 43
0.3500000006
 10
1.329999896
 20
25.4723812408
 10
0.9581249242
 20
25.7640472412
 10
0.7721874382
 20
26.0557132416
 10
0.5862499169
 20
26.6390497742
 10
0.5862499169
 20
27.8057137756
 10
0.7721874382
 20
28.3890503082
 10
0.9581249242
 20
28.6807163086
 10
1.329999896
 20
28.972382309
 10
1.7018748679
 20
28.6807163086
 10
1.8878124247
 20
28.3890503082
 10
2.0737498398
 20
27.8057137756
 10
2.0737498398
 20
26.6390497742
 10
1.8878124247
 20
26.0557132416
 10
1.7018748679
 20
25.7640472412
 10
1.329999896
 20
25.4723812408
  0
LWPOLYLINE
  5
35D
100
AcDbEntity
  8
0
100
AcDbPolyline
 62
7
  6
CONTINUOUS
 90
3
 70
0
 43
0.3500000006
 10
-37.7867105255
 20
25.7640472412
 10
-38.1585859222
 20
25.4723812408
 10
-38.530461319
 20
25.4723812408
  0
LINE
  5
35E
100
AcDbEntity
  8
RACCORDO
100
AcDbLine
 62
7
  6
CONTINUOUS
 10
-37.8767875302
 20
-16.5729447316
 11
-39.2767875302
 21
-16.5973818225
  0
LINE
  5
35F
100
AcDbEntity
  8
RACCORDO
100
AcDbLine
 62
250
  6
CONTINUOUS
 10
-37.8715534031
 20
-16.2729904231
 11
-39.2715534031
 21
-16.297427514
  0
LINE
  5
360
100
AcDbEntity
  8
RACCORDO
100
AcDbLine
 62
250
  6
CONTINUOUS
 10
-39.2715534031
 20
-16.297427514
 11
-39.5820232521
 21
-16.297427514
  0
LINE
  5
361
100
AcDbEntity
  8
RACCORDO
100
AcDbLine
 62
250
  6
CONTINUOUS
 10
-37.5820232521
 20
-16.2729904231
 11
-37.8715534031
 21
-16.2729904231
  0
LWPOLYLINE
  5
362
100
AcDbEntity
  8
0
100
AcDbPolyline
 62
7
  6
CONTINUOUS
 90
5
 70
0
 43
0.3500000006
 10
-39.2742121124
 20
26.6390497742
 10
-38.9023367157
 20
27.2223817749
 10
-38.530461319
 20
27.5140477753
 10
-38.1585859222
 20
27.5140477753
 10
-37.7867105255
 20
27.2223817749
  0
LINE
  5
363
100
AcDbEntity
  8
RACCORDO
100
AcDbLine
 62
250
  6
CONTINUOUS
 10
-48.287258974
 20
-14.1375737847
 11
-48.5820232521
 21
-14.1375737847
  0
LINE
  5
364
100
AcDbEntity
  8
RACCORDO
100
AcDbLine
 62
7
  6
CONTINUOUS
 10
-39.5818303674
 20
-14.6692590961
 11
-48.2900057324
 21
-14.437467566
  0
LINE
  5
365
100
AcDbEntity
  8
RACCORDO
100
AcDbLine
 62
250
  6
CONTINUOUS
 10
-39.5820232521
 20
-14.3692870684
 11
-48.287258974
 21
-14.1375737847
  0
LINE
  5
366
100
AcDbEntity
  8
RACCORDO
100
AcDbLine
 62
250
  6
CONTINUOUS
 10
-37.8715534031
 20
-12.8331932258
 11
-37.5820232521
 21
-12.8331932258
  0
LINE
  5
367
100
AcDbEntity
  8
RACCORDO
100
AcDbLine
 62
250
  6
CONTINUOUS
 10
-42.0820232521
 20
-11.1722262379
 11
-42.387258974
 21
-11.1722262379
  0
LINE
  5
368
100
AcDbEntity
  8
RACCORDO
100
AcDbLine
 62
250
  6
CONTINUOUS
 10
-39.5820232521
 20
-12.381256085
 11
-41.9418565644
 21
-11.7519672017
  0
LINE
  5
369
100
AcDbEntity
  8
RACCORDO
100
AcDbLine
 62
250
  6
CONTINUOUS
 10
-39.5820232521
 20
-12.3770679327
 11
-37.8715534031
 21
-12.8331932258
  0
LINE
  5
36A
100
AcDbEntity
  8
RACCORDO
100
AcDbLine
 62
7
  6
CONTINUOUS
 10
-37.8047244569
 20
-12.5433227439
 11
-41.8593220473
 21
-11.4620967198
  0
LWPOLYLINE
  5
36B
100
AcDbEntity
  8
RACCORDO
100
AcDbPolyline
 62
250
  6
CONTINUOUS
 90
16
 70
0
 10
-41.9418565644
 20
-11.7519672017
 10
-41.9916356745
 20
-11.7363967523
 10
-42.0394262641
 20
-11.7167438944
 10
-42.0852283332
 20
-11.6930086279
 10
-42.1294477857
 20
-11.6649471742
 10
-42.1716787177
 20
-11.6328033119
 10
-42.2107034172
 20
-11.5973083772
 10
-42.2464036702
 20
-11.5583284089
 10
-42.2788976908
 20
-11.5159973681
 10
-42.307322409
 20
-11.4714484743
 10
-42.3315171815
 20
-11.4246009639
 10
-42.3516426516
 20
-11.3755356006
 10
-42.3673176799
 20
-11.3256278952
 10
-42.3784152198
 20
-11.2753363515
 10
-42.3850623178
 20
-11.2242024657
 10
-42.387258974
 20
-11.1722262379
  0
LWPOLYLINE
  5
36C
100
AcDbEntity
  8
RACCORDO
100
AcDbPolyline
 62
250
  6
CONTINUOUS
 90
7
 70
0
 10
-48.2900057324
 20
-14.437467566
 10
-48.290511033
 20
-14.4357947308
 10
-48.2909223711
 20
-14.4308257776
 10
-48.2912352788
 20
-14.4226183004
 10
-48.2914462869
 20
-14.4112732337
 10
-48.291553368
 20
-14.396914287
 10
-48.2915553371
 20
-14.3796689628
  0
LINE
  5
36D
100
AcDbEntity
  8
0
100
AcDbLine
 62
7
  6
CONTINUOUS
 10
-35.967681991
 20
11.7185282038
 11
-35.8818221735
 21
11.7473006222
  0
LINE
  5
36E
100
AcDbEntity
  8
0
100
AcDbLine
 62
7
  6
CONTINUOUS
 10
-35.8818221735
 20
11.7473006222
 11
-35.808131109
 21
11.7714632511
  0
LINE
  5
36F
100
AcDbEntity
  8
0
100
AcDbLine
 62
7
  6
CONTINUOUS
 10
-35.3834118619
 20
11.9075209403
 11
-35.2859778921
 21
11.9393628557
  0
LINE
  5
370
100
AcDbEntity
  8
0
100
AcDbLine
 62
7
  6
CONTINUOUS
 10
-35.808131109
 20
11.7714632511
 11
-35.6578978242
 21
11.8197815127
  0
LINE
  5
371
100
AcDbEntity
  8
0
100
AcDbLine
 62
7
  6
CONTINUOUS
 10
-35.6578978242
 20
11.8197815127
 11
-35.3834118619
 21
11.9075209403
  0
LINE
  5
372
100
AcDbEntity
  8
0
100
AcDbLine
 62
7
  6
CONTINUOUS
 10
-48.5821450867
 20
0.4772851658
 11
-48.5821450867
 21
5.1772851658
  0
LINE
  5
373
100
AcDbEntity
  8
RACCORDO
100
AcDbLine
 62
7
  6
CONTINUOUS
 10
-48.5820232521
 20
-2.219006036
 11
-48.5820232521
 21
-14.1375737847
  0
LINE
  5
374
100
AcDbEntity
  8
0
100
AcDbLine
 62
7
  6
CONTINUOUS
 10
-36.6424712243
 20
11.9658199607
 11
-36.8775871407
 21
11.8258710683
  0
LINE
  5
375
100
AcDbEntity
  8
0
100
AcDbLine
 62
7
  6
CONTINUOUS
 10
-36.8775871407
 20
11.8258710683
 11
-37.0013209047
 21
11.7527486887
  0
LWPOLYLINE
  5
376
100
AcDbEntity
  8
0
100
AcDbPolyline
 62
7
  6
CONTINUOUS
 90
12
 70
0
 10
-36.4310571222
 20
11.5352176739
 10
-36.396879813
 20
11.5518547224
 10
-36.3608578244
 20
11.5684941692
 10
-36.3230717139
 20
11.5851360143
 10
-36.2836160148
 20
11.601776153
 10
-36.2425700121
 20
11.61841869
 10
-36.1999937496
 20
11.6350759398
 10
-36.1559552984
 20
11.6517570208
 10
-36.1105739212
 20
11.6684528147
 10
-36.063991944
 20
11.6851482809
 10
-36.0163297931
 20
11.7018384062
 10
-35.967681991
 20
11.7185282038
  0
LINE
  5
377
100
AcDbEntity
  8
RACCORDO
100
AcDbLine
 62
250
  6
CONTINUOUS
 10
-48.0873808086
 20
10.3875785334
 11
-48.0899104884
 21
10.4651475628
  0
LINE
  5
378
100
AcDbEntity
  8
RACCORDO
100
AcDbLine
 62
250
  6
CONTINUOUS
 10
-48.0899104884
 20
10.4651475628
 11
-48.0919113769
 21
10.5374344664
  0
LWPOLYLINE
  5
379
100
AcDbEntity
  8
RACCORDO
100
AcDbPolyline
 62
250
  6
CONTINUOUS
 90
8
 70
0
 10
-48.0919113769
 20
10.5374344664
 10
-48.0932472219
 20
10.5995168087
 10
-48.0936353648
 20
10.6253747299
 10
-48.093827058
 20
10.6471670425
 10
-48.0938190243
 20
10.6645211627
 10
-48.0936114008
 20
10.6771403865
 10
-48.0932077375
 20
10.6848089627
 10
-48.0926149357
 20
10.6873957815
  0
LINE
  5
37A
100
AcDbEntity
  8
RACCORDO
100
AcDbLine
 62
7
  6
CONTINUOUS
 10
-48.3821450867
 20
10.3875785334
 11
-48.3821450867
 21
-1.5267282189
  0
LINE
  5
37B
100
AcDbEntity
  8
RACCORDO
100
AcDbLine
 62
250
  6
CONTINUOUS
 10
-48.287258974
 20
-2.219006036
 11
-48.287258974
 21
-14.1375737847
  0
LINE
  5
37C
100
AcDbEntity
  8
RACCORDO
100
AcDbLine
 62
250
  6
CONTINUOUS
 10
-48.0873808086
 20
10.3875785334
 11
-48.0873808086
 21
-1.5267282189
  0
LINE
  5
37D
100
AcDbEntity
  8
RACCORDO
100
AcDbLine
 62
250
  6
CONTINUOUS
 10
-48.2915553371
 20
-14.3796689628
 11
-48.2912420156
 21
-14.337162969
  0
LWPOLYLINE
  5
37E
100
AcDbEntity
  8
RACCORDO
100
AcDbPolyline
 62
250
  6
CONTINUOUS
 90
16
 70
0
 10
-48.0873808086
 20
-1.5267282189
 10
-48.0876811518
 20
-1.5478846758
 10
-48.088506637
 20
-1.5688497612
 10
-48.0898572642
 20
-1.589623475
 10
-48.0917432702
 20
-1.6102061635
 10
-48.0941544183
 20
-1.6305974806
 10
-48.0970599982
 20
-1.6507963875
 10
-48.1004574676
 20
-1.6708033164
 10
-48.1043493689
 20
-1.6906178352
 10
-48.10871262
 20
-1.7102376091
 10
-48.1135448921
 20
-1.729662644
 10
-48.118848514
 20
-1.748892934
 10
-48.1246073909
 20
-1.7679261259
 10
-48.1308161576
 20
-1.7867614353
 10
-48.1374801793
 20
-1.8053996467
 10
-48.1445994559
 20
-1.82384076
  0
LINE
  5
37F
100
AcDbEntity
  8
RACCORDO
100
AcDbLine
 62
250
  6
CONTINUOUS
 10
-48.2912420156
 20
-14.337162969
 11
-48.2905225807
 21
-14.2860165387
  0
LWPOLYLINE
  5
380
100
AcDbEntity
  8
RACCORDO
100
AcDbPolyline
 62
250
  6
CONTINUOUS
 90
10
 70
0
 10
-48.287258974
 20
-2.219006036
 10
-48.2870782709
 20
-2.2105323123
 10
-48.2865430293
 20
-2.2021014846
 10
-48.2856532493
 20
-2.1937135528
 10
-48.284405781
 20
-2.1853521791
 10
-48.2828037743
 20
-2.1770337014
 10
-48.280856679
 20
-2.1688071333
 10
-48.2785676453
 20
-2.1606888128
 10
-48.275933523
 20
-2.1526624019
 10
-48.2729543122
 20
-2.1447279007
  0
LINE
  5
381
100
AcDbEntity
  8
RACCORDO
100
AcDbLine
 62
250
  6
CONTINUOUS
 10
-48.2905225807
 20
-14.2860165387
 11
-48.2887771194
 21
-14.1987659547
  0
LINE
  5
382
100
AcDbEntity
  8
RACCORDO
100
AcDbLine
 62
250
  6
CONTINUOUS
 10
-48.2887771194
 20
-14.1987659547
 11
-48.287258974
 21
-14.1375737847
  0
LINE
  5
383
100
AcDbEntity
  8
0
100
AcDbLine
 62
7
  6
CONTINUOUS
 10
-36.7012042627
 20
11.8372902682
 11
-36.4310571222
 21
12.0393628624
  0
LWPOLYLINE
  5
384
100
AcDbEntity
  8
RACCORDO
100
AcDbPolyline
 62
250
  6
CONTINUOUS
 90
13
 70
0
 10
-42.0818763383
 20
8.6226101988
 10
-42.1264996517
 20
8.594682434
 10
-42.167980836
 20
8.5635746249
 10
-42.2063198913
 20
8.5292867715
 10
-42.2417303435
 20
8.4915800079
 10
-42.2739986667
 20
8.4506932001
 10
-42.3024842823
 20
8.4073429449
 10
-42.3271744415
 20
8.361658675
 10
-42.3480818933
 20
8.3135109578
 10
-42.3646043056
 20
8.2632280923
 10
-42.3765409012
 20
8.2109195115
 10
-42.3840924573
 20
8.1564757824
 10
-42.387258974
 20
8.099896905
  0
LWPOLYLINE
  5
385
100
AcDbEntity
  8
0
100
AcDbPolyline
 62
7
  6
CONTINUOUS
 90
5
 70
0
 10
-37.0013209047
 20
11.7527486887
 10
-37.0069068577
 20
11.7492902682
 10
-37.0209678194
 20
11.7382902682
 10
-37.0293499129
 20
11.7272902682
 10
-37.0320232521
 20
11.7166577241
  0
LINE
  5
386
100
AcDbEntity
  8
0
100
AcDbLine
 62
7
  6
CONTINUOUS
 10
-36.642471114
 20
10.8658202041
 11
-36.7760158892
 21
10.7861452581
  0
LINE
  5
387
100
AcDbEntity
  8
0
100
AcDbLine
 62
7
  6
CONTINUOUS
 10
-34.2820232521
 20
12.212760322
 11
-34.4820232521
 21
12.0972902682
  0
LINE
  5
388
100
AcDbEntity
  8
RACCORDO
100
AcDbLine
 62
7
  6
CONTINUOUS
 10
-48.4179067413
 20
-1.7124235571
 11
-48.5462615976
 21
-2.0333106978
  0
LINE
  5
389
100
AcDbEntity
  8
RACCORDO
100
AcDbLine
 62
250
  6
CONTINUOUS
 10
-48.1445994559
 20
-1.82384076
 11
-48.2729543122
 21
-2.1447279007
  0
LINE
  5
38A
100
AcDbEntity
  8
0
100
AcDbLine
 62
7
  6
CONTINUOUS
 10
-34.5215752559
 20
10.8174957039
 11
-34.2884968394
 21
10.9562379709
  0
LINE
  5
38B
100
AcDbEntity
  8
0
100
AcDbLine
 62
7
  6
CONTINUOUS
 10
-34.2884968394
 20
10.9562379709
 11
-34.1627256793
 21
11.030566926
  0
LWPOLYLINE
  5
38C
100
AcDbEntity
  8
0
100
AcDbPolyline
 62
7
  6
CONTINUOUS
 90
15
 70
0
 10
-34.1627256793
 20
11.030566926
 10
-34.1783381425
 20
11.0222902682
 10
-34.2039354447
 20
11.0112902682
 10
-34.2349714292
 20
11.0002902682
 10
-34.2713236108
 20
10.9892902682
 10
-34.312848524
 20
10.9782902682
 10
-34.3593822887
 20
10.9672902682
 10
-34.4107412573
 20
10.9562902682
 10
-34.4667227392
 20
10.9452902682
 10
-34.527105801
 20
10.9342902682
 10
-34.5916521382
 20
10.9232902682
 10
-34.6601070159
 20
10.9122902682
 10
-34.7322002739
 20
10.9012902682
 10
-34.807647393
 20
10.8902902682
 10
-34.8861506179
 20
10.8792902682
  0
LWPOLYLINE
  5
38D
100
AcDbEntity
  8
0
100
AcDbPolyline
 62
7
  6
CONTINUOUS
 90
7
 70
0
 10
-35.353929628
 20
14.611881955
 10
-35.3473656957
 20
14.6195859196
 10
-35.3409355038
 20
14.6269803131
 10
-35.3346390522
 20
14.6340651354
 10
-35.3284763411
 20
14.6408403867
 10
-35.3224473704
 20
14.6473060668
 10
-35.31655214
 20
14.6534621758
  0
LWPOLYLINE
  5
38E
100
AcDbEntity
  8
0
100
AcDbPolyline
 62
7
  6
CONTINUOUS
 90
4
 70
0
 10
-37.0168736626
 20
8.441493159
 10
-37.0209678194
 20
8.4382902682
 10
-37.0293499129
 20
8.4272902682
 10
-37.0320232521
 20
8.4166577241
  0
LINE
  5
38F
100
AcDbEntity
  8
0
100
AcDbLine
 62
7
  6
CONTINUOUS
 10
-36.642471114
 20
7.5658202041
 11
-36.8775870449
 21
7.4258712908
  0
LINE
  5
390
100
AcDbEntity
  8
0
100
AcDbLine
 62
7
  6
CONTINUOUS
 10
-36.8775870449
 20
7.4258712908
 11
-37.001320818
 21
7.3527489009
  0
LINE
  5
391
100
AcDbEntity
  8
RACCORDO
100
AcDbLine
 62
250
  6
CONTINUOUS
 10
-48.439934967
 20
-2.0774909519
 11
-48.2729543122
 21
-2.1447279007
  0
LWPOLYLINE
  5
392
100
AcDbEntity
  8
RACCORDO
100
AcDbPolyline
 62
250
  6
CONTINUOUS
 90
6
 70
0
 10
-48.5462615976
 20
-2.0333106978
 10
-48.5440207758
 20
-2.0344776174
 10
-48.5371492513
 20
-2.0374922831
 10
-48.5257621877
 20
-2.0423041704
 10
-48.5100504274
 20
-2.0488326343
 10
-48.439934967
 20
-2.0774909519
  0
LWPOLYLINE
  5
393
100
AcDbEntity
  8
RACCORDO
100
AcDbPolyline
 62
250
  6
CONTINUOUS
 90
5
 70
0
 10
-48.4179067413
 20
-1.7124235571
 10
-48.4156659195
 20
-1.7135904767
 10
-48.408794395
 20
-1.7166051424
 10
-48.3974073315
 20
-1.7214170297
 10
-48.361922436
 20
-1.7360811198
  0
LWPOLYLINE
  5
394
100
AcDbEntity
  8
RACCORDO
100
AcDbPolyline
 62
250
  6
CONTINUOUS
 90
8
 70
0
 10
-41.7846412128
 20
8.3998854819
 10
-41.7839803399
 20
8.4024572856
 10
-41.7833755533
 20
8.4101168077
 10
-41.7828371991
 20
8.4227330664
 10
-41.7823744871
 20
8.440090275
 10
-41.7819953335
 20
8.461891558
 10
-41.781706226
 20
8.4877640508
 10
-41.7814163137
 20
8.5498904242
  0
LWPOLYLINE
  5
395
100
AcDbEntity
  8
0
100
AcDbPolyline
 62
7
  6
CONTINUOUS
 90
5
 70
0
 10
-37.001320818
 20
7.3527489009
 10
-37.0069070973
 20
7.3492902682
 10
-37.0209679625
 20
7.3382902682
 10
-37.0293499754
 20
7.3272902682
 10
-37.0320232521
 20
7.3166578336
  0
LWPOLYLINE
  5
396
100
AcDbEntity
  8
0
100
AcDbPolyline
 62
7
  6
CONTINUOUS
 90
5
 70
0
 10
-37.0013208253
 20
6.2527483228
 10
-37.0069062171
 20
6.2492902682
 10
-37.0209673786
 20
6.2382902682
 10
-37.0293496887
 20
6.2272902682
 10
-37.0320232521
 20
6.216657265
  0
LINE
  5
397
100
AcDbEntity
  8
0
100
AcDbLine
 62
7
  6
CONTINUOUS
 10
-34.521579758
 20
7.5174930077
 11
-34.3105789081
 21
7.6431548391
  0
LINE
  5
398
100
AcDbEntity
  8
0
100
AcDbLine
 62
7
  6
CONTINUOUS
 10
-36.6424711219
 20
6.4658196242
 11
-36.8775870524
 21
6.3258707121
  0
LINE
  5
399
100
AcDbEntity
  8
0
100
AcDbLine
 62
7
  6
CONTINUOUS
 10
-36.8775870524
 20
6.3258707121
 11
-37.0013208253
 21
6.2527483228
  0
LINE
  5
39A
100
AcDbEntity
  8
0
100
AcDbLine
 62
7
  6
CONTINUOUS
 10
-34.3105789081
 20
7.6431548391
 11
-34.1627228148
 21
7.7305686156
  0
LWPOLYLINE
  5
39B
100
AcDbEntity
  8
0
100
AcDbPolyline
 62
7
  6
CONTINUOUS
 90
15
 70
0
 10
-34.1627228148
 20
7.7305686156
 10
-34.1783381425
 20
7.7222902682
 10
-34.2039354447
 20
7.7112902682
 10
-34.2349714292
 20
7.7002902682
 10
-34.2713236108
 20
7.6892902682
 10
-34.312848524
 20
7.6782902682
 10
-34.3593822887
 20
7.6672902682
 10
-34.4107412573
 20
7.6562902682
 10
-34.4667227392
 20
7.6452902682
 10
-34.527105801
 20
7.6342902682
 10
-34.5916521382
 20
7.6232902682
 10
-34.6601070159
 20
7.6122902682
 10
-34.7322002739
 20
7.6012902682
 10
-34.807647393
 20
7.5902902682
 10
-34.8861506179
 20
7.5792902682
  0
LWPOLYLINE
  5
39C
100
AcDbEntity
  8
0
100
AcDbPolyline
 62
7
  6
CONTINUOUS
 90
6
 70
0
 10
-36.4310571222
 20
5.4393628624
 10
-36.4704121618
 20
5.4232437264
 10
-36.5068977255
 20
5.4070519796
 10
-36.5403465103
 20
5.3907876218
 10
-36.570648563
 20
5.3744221683
 10
-36.5908023453
 20
5.3623372074
  0
LINE
  5
39D
100
AcDbEntity
  8
RACCORDO
100
AcDbLine
 62
250
  6
CONTINUOUS
 10
-48.3115801107
 20
-1.7566038112
 11
-48.1445994559
 21
-1.82384076
  0
LINE
  5
39E
100
AcDbEntity
  8
RACCORDO
100
AcDbLine
 62
250
  6
CONTINUOUS
 10
-48.361922436
 20
-1.7360811198
 11
-48.3115801107
 21
-1.7566038112
  0
LINE
  5
39F
100
AcDbEntity
  8
RACCORDO
100
AcDbLine
 62
250
  6
CONTINUOUS
 10
-42.387258974
 20
8.099896905
 11
-42.387258974
 21
-11.1722262379
  0
LWPOLYLINE
  5
3A0
100
AcDbEntity
  8
0
100
AcDbPolyline
 62
7
  6
CONTINUOUS
 90
5
 70
0
 10
-36.8937526706
 20
5.1747771394
 10
-36.9094995148
 20
5.1632882511
 10
-36.9185890856
 20
5.1527165344
 10
-36.922545513
 20
5.1421448177
 10
-36.9227413533
 20
5.1392034643
  0
LINE
  5
3A1
100
AcDbEntity
  8
0
100
AcDbLine
 62
7
  6
CONTINUOUS
 10
-36.5908023453
 20
5.3623372074
 11
-36.6880069742
 21
5.3015160164
  0
LINE
  5
3A2
100
AcDbEntity
  8
0
100
AcDbLine
 62
7
  6
CONTINUOUS
 10
-36.6880069742
 20
5.3015160164
 11
-36.8239940828
 21
5.2174921094
  0
LINE
  5
3A3
100
AcDbEntity
  8
0
100
AcDbLine
 62
7
  6
CONTINUOUS
 10
-36.8239940828
 20
5.2174921094
 11
-36.8937526706
 21
5.1747771394
  0
LINE
  5
3A4
100
AcDbEntity
  8
0
100
AcDbLine
 62
7
  6
CONTINUOUS
 10
-34.5215797991
 20
6.4174925089
 11
-34.3105789452
 21
6.5431543469
  0
LINE
  5
3A5
100
AcDbEntity
  8
0
100
AcDbLine
 62
7
  6
CONTINUOUS
 10
-34.3105789452
 20
6.5431543469
 11
-34.1627228484
 21
6.6305681278
  0
LWPOLYLINE
  5
3A6
100
AcDbEntity
  8
0
100
AcDbPolyline
 62
7
  6
CONTINUOUS
 90
15
 70
0
 10
-34.1627228484
 20
6.6305681278
 10
-34.1783371611
 20
6.6222902682
 10
-34.2039342119
 20
6.6112902682
 10
-34.2349699444
 20
6.6002902682
 10
-34.2713218749
 20
6.5892902682
 10
-34.3128465392
 20
6.5782902682
 10
-34.3593800587
 20
6.5672902682
 10
-34.410738787
 20
6.5562902682
 10
-34.466720035
 20
6.5452902682
 10
-34.5271028706
 20
6.5342902682
 10
-34.5916489906
 20
6.5232902682
 10
-34.6601036614
 20
6.5122902682
 10
-34.732196724
 20
6.5012902682
 10
-34.8076436603
 20
6.4902902682
 10
-34.8861467161
 20
6.4792902682
  0
LWPOLYLINE
  5
3A7
100
AcDbEntity
  8
0
100
AcDbPolyline
 62
7
  6
CONTINUOUS
 90
10
 70
0
 10
-36.3860520163
 20
4.9015534327
 10
-36.3617792873
 20
4.9128043587
 10
-36.3357138613
 20
4.9240510183
 10
-36.3078882036
 20
4.9352934116
 10
-36.2783274387
 20
4.9465356874
 10
-36.2470817401
 20
4.9577736968
 10
-36.2142324594
 20
4.9689949931
 10
-36.1798456147
 20
4.9801954274
 10
-36.1439655949
 20
4.9913791485
 10
-36.1066518081
 20
5.0025461565
  0
LINE
  5
3A8
100
AcDbEntity
  8
RACCORDO
100
AcDbLine
 62
250
  6
CONTINUOUS
 10
-41.7815245103
 20
8.6222368215
 11
-41.7820234554
 21
8.6998740584
  0
LINE
  5
3A9
100
AcDbEntity
  8
RACCORDO
100
AcDbLine
 62
7
  6
CONTINUOUS
 10
-42.0820232521
 20
8.099896905
 11
-42.0820232521
 21
-11.1722262379
  0
LINE
  5
3AA
100
AcDbEntity
  8
RACCORDO
100
AcDbLine
 62
250
  6
CONTINUOUS
 10
-41.7814163137
 20
8.5498904242
 11
-41.7815245103
 21
8.6222368215
  0
LWPOLYLINE
  5
3AB
100
AcDbEntity
  8
0
100
AcDbPolyline
 62
7
  6
CONTINUOUS
 90
2
 70
0
 43
0.3500000006
 10
-41.3195222626
 20
28.972382309
 10
-41.3195222626
 20
25.4723812408
  0
LINE
  5
3AC
100
AcDbEntity
  8
RACCORDO
100
AcDbLine
 62
7
  6
CONTINUOUS
 10
-42.0818762828
 20
8.6218646899
 11
-42.0822940985
 21
10.8746008605
  0
LWPOLYLINE
  5
3AD
100
AcDbEntity
  8
RACCORDO
100
AcDbPolyline
 62
7
  6
CONTINUOUS
 90
4
 70
0
 10
-42.0822940985
 20
10.8746008605
 10
-42.082237227
 20
10.8871551371
 10
-42.0821442035
 20
10.8947494373
 10
-42.0820232521
 20
10.8972902682
  0
LINE
  5
3AE
100
AcDbEntity
  8
0
100
AcDbLine
 62
7
  6
CONTINUOUS
 10
-36.7012042627
 20
5.2372902682
 11
-36.4310571222
 21
5.4393628624
  0
LINE
  5
3AF
100
AcDbEntity
  8
0
100
AcDbLine
 62
7
  6
CONTINUOUS
 10
-34.521579722
 20
5.3174923459
 11
-34.3105788768
 21
5.4431541709
  0
LINE
  5
3B0
100
AcDbEntity
  8
0
100
AcDbLine
 62
7
  6
CONTINUOUS
 10
-34.3105788768
 20
5.4431541709
 11
-34.1627227881
 21
5.5305679429
  0
LWPOLYLINE
  5
3B1
100
AcDbEntity
  8
0
100
AcDbPolyline
 62
7
  6
CONTINUOUS
 90
15
 70
0
 10
-34.1627227881
 20
5.5305679429
 10
-34.1783367207
 20
5.5222902682
 10
-34.2039336949
 20
5.5112902682
 10
-34.2349693646
 20
5.5002902682
 10
-34.2713212465
 20
5.4892902682
 10
-34.3128458763
 20
5.4782902682
 10
-34.3593793755
 20
5.4672902682
 10
-34.4107380976
 20
5.4562902682
 10
-34.4667193534
 20
5.4452902682
 10
-34.5271022104
 20
5.4342902682
 10
-34.591648365
 20
5.4232902682
 10
-34.6601030831
 20
5.4122902682
 10
-34.7321962048
 20
5.4012902682
 10
-34.8076432116
 20
5.3902902682
 10
-34.8861463484
 20
5.3792902682
  0
LINE
  5
3B2
100
AcDbEntity
  8
RACCORDO
100
AcDbLine
 62
250
  6
CONTINUOUS
 10
-48.5820232521
 20
-2.219006036
 11
-48.287258974
 21
-2.219006036
  0
LINE
  5
3B3
100
AcDbEntity
  8
RACCORDO
100
AcDbLine
 62
250
  6
CONTINUOUS
 10
-48.3821450867
 20
-1.5267282189
 11
-48.0873808086
 21
-1.5267282189
  0
LWPOLYLINE
  5
3B4
100
AcDbEntity
  8
RACCORDO
100
AcDbPolyline
 62
250
  6
CONTINUOUS
 90
13
 70
0
 10
-37.8047244569
 20
-12.5433227439
 10
-37.804109689
 20
-12.5461263171
 10
-37.8048197887
 20
-12.5538115396
 10
-37.806842892
 20
-12.5662484943
 10
-37.8101449011
 20
-12.5832269061
 10
-37.8146698147
 20
-12.6044584199
 10
-37.8203403638
 20
-12.629580414
 10
-37.8270685329
 20
-12.6582009461
 10
-37.8347334898
 20
-12.6898043182
 10
-37.8431725289
 20
-12.7237245011
 10
-37.8522234799
 20
-12.7593197389
 10
-37.8617380745
 20
-12.79601624
 10
-37.8715534031
 20
-12.8331932258
  0
LWPOLYLINE
  5
3B5
100
AcDbEntity
  8
RACCORDO
100
AcDbPolyline
 62
7
  6
CONTINUOUS
 90
7
 70
0
 10
-42.0818762828
 20
8.6218646899
 10
-42.0817418963
 20
8.6212327839
 10
-42.0815824718
 20
8.6205436067
 10
-42.0813980094
 20
8.6197971583
 10
-42.081188509
 20
8.6189934385
 10
-42.0809539706
 20
8.6181324476
 10
-42.0806943942
 20
8.6172141854
  0
LWPOLYLINE
  5
3B6
100
AcDbEntity
  8
RACCORDO
100
AcDbPolyline
 62
250
  6
CONTINUOUS
 90
13
 70
0
 10
-39.2715534031
 20
-16.297427514
 10
-39.2709606013
 20
-16.3365643205
 10
-39.270556938
 20
-16.3750320038
 10
-39.2703493146
 20
-16.4121728809
 10
-39.2703412808
 20
-16.4473519531
 10
-39.270532974
 20
-16.4799677627
 10
-39.2709211169
 20
-16.5094626762
 10
-39.2714990733
 20
-16.5353324183
 10
-39.2722569619
 20
-16.5571346931
 10
-39.2731818251
 20
-16.5744967467
 10
-39.2742578504
 20
-16.5871217393
 10
-39.275466641
 20
-16.5947938212
 10
-39.2767875302
 20
-16.5973818225
  0
LINE
  5
3B7
100
AcDbEntity
  8
RACCORDO
100
AcDbLine
 62
7
  6
CONTINUOUS
 10
-39.5820232521
 20
-16.297427514
 11
-39.5820232521
 21
-14.669253962
  0
LINE
  5
3B8
100
AcDbEntity
  8
RACCORDO
100
AcDbLine
 62
7
  6
CONTINUOUS
 10
-39.5820232521
 20
-14.3692870684
 11
-39.5820232521
 21
-12.381256085
  0
LINE
  5
3B9
100
AcDbEntity
  8
RACCORDO
100
AcDbLine
 62
250
  6
CONTINUOUS
 10
-39.2715534031
 20
-16.297427514
 11
-39.2715534031
 21
-14.4749989489
  0
LWPOLYLINE
  5
3BA
100
AcDbEntity
  8
0
100
AcDbPolyline
 62
7
  6
CONTINUOUS
 90
12
 70
0
 10
-36.6820232521
 20
11.4145851299
 10
-36.6803831599
 20
11.4241464791
 10
-36.6744577758
 20
11.4351297646
 10
-36.6641158575
 20
11.4462179706
 10
-36.6493309633
 20
11.4573744349
 10
-36.6301817432
 20
11.4685474277
 10
-36.6067147293
 20
11.4797423482
 10
-36.5790153026
 20
11.4909537971
 10
-36.5473833849
 20
11.502113847
 10
-36.5120784822
 20
11.5131998551
 10
-36.4732348038
 20
11.5242344641
 10
-36.4310571222
 20
11.5352176739
  0
LINE
  5
3BB
100
AcDbEntity
  8
RACCORDO
100
AcDbLine
 62
250
  6
CONTINUOUS
 10
-41.9176528343
 20
-11.6621435702
 11
-41.9418565644
 21
-11.7519672017
  0
LINE
  5
3BC
100
AcDbEntity
  8
RACCORDO
100
AcDbLine
 62
250
  6
CONTINUOUS
 10
-41.9024129283
 20
-11.606654357
 11
-41.9176528343
 21
-11.6621435702
  0
LINE
  5
3BD
100
AcDbEntity
  8
RACCORDO
100
AcDbLine
 62
250
  6
CONTINUOUS
 10
-41.8886767955
 20
-11.5575522439
 11
-41.9024129283
 21
-11.606654357
  0
LINE
  5
3BE
100
AcDbEntity
  8
0
100
AcDbLine
 62
7
  6
CONTINUOUS
 10
-48.3821450867
 20
0.4772851658
 11
-48.5821450867
 21
0.4772851658
  0
LINE
  5
3BF
100
AcDbEntity
  8
0
100
AcDbLine
 62
7
  6
CONTINUOUS
 10
-48.3821450867
 20
1.0772851658
 11
-48.5821450867
 21
1.0772851658
  0
LINE
  5
3C0
100
AcDbEntity
  8
RACCORDO
100
AcDbLine
 62
250
  6
CONTINUOUS
 10
-37.8715534031
 20
-16.2729904231
 11
-37.870692258
 21
-16.3356239261
  0
LWPOLYLINE
  5
3C1
100
AcDbEntity
  8
RACCORDO
100
AcDbPolyline
 62
250
  6
CONTINUOUS
 90
13
 70
0
 10
-37.870692258
 20
-16.3356239261
 10
-37.8703307576
 20
-16.3954474617
 10
-37.8703428275
 20
-16.4234753899
 10
-37.8704838999
 20
-16.4498831244
 10
-37.8707536834
 20
-16.4744198435
 10
-37.8711495779
 20
-16.4967458234
 10
-37.8716651122
 20
-16.51651783
 10
-37.8722928949
 20
-16.5335264082
 10
-37.8730254017
 20
-16.5476280563
 10
-37.8738519946
 20
-16.5586769704
 10
-37.8747617096
 20
-16.566594846
 10
-37.8757440565
 20
-16.5713517251
 10
-37.8767875302
 20
-16.5729447316
  0
LINE
  5
3C2
100
AcDbEntity
  8
0
100
AcDbLine
 62
7
  6
CONTINUOUS
 10
-38.3820232521
 20
13.8321384685
 11
-38.3820232521
 21
12.7972902682
  0
LINE
  5
3C3
100
AcDbEntity
  8
RACCORDO
100
AcDbLine
 62
250
  6
CONTINUOUS
 10
-37.8715534031
 20
-12.8331932258
 11
-37.8715534031
 21
-16.2729904231
  0
LINE
  5
3C4
100
AcDbEntity
  8
RACCORDO
100
AcDbLine
 62
7
  6
CONTINUOUS
 10
-37.5820232521
 20
-12.8331932258
 11
-37.5820232521
 21
-16.2729904231
  0
LWPOLYLINE
  5
3C5
100
AcDbEntity
  8
0
100
AcDbPolyline
 62
7
  6
CONTINUOUS
 90
12
 70
0
 10
-36.6820232521
 20
8.1145851299
 10
-36.6803831599
 20
8.1241464791
 10
-36.6744577758
 20
8.1351297646
 10
-36.6641158575
 20
8.1462179706
 10
-36.6493309633
 20
8.1573744349
 10
-36.6301817432
 20
8.1685474277
 10
-36.6067147293
 20
8.1797423482
 10
-36.5790153026
 20
8.1909537971
 10
-36.5473833849
 20
8.202113847
 10
-36.5120784822
 20
8.2131998551
 10
-36.4732348038
 20
8.2242344641
 10
-36.4310571222
 20
8.2352176739
  0
LWPOLYLINE
  5
3C6
100
AcDbEntity
  8
0
100
AcDbPolyline
 62
7
  6
CONTINUOUS
 90
19
 70
0
 10
-36.6820232521
 20
7.0145852394
 10
-36.6795582022
 20
7.026307886
 10
-36.6724757976
 20
7.0376681248
 10
-36.6607092936
 20
7.0491049771
 10
-36.6441276231
 20
7.06067251
 10
-36.6227550151
 20
7.0723166564
 10
-36.596766467
 20
7.0839664571
 10
-36.5662666864
 20
7.095623234
 10
-36.531387088
 20
7.1072856652
 10
-36.4925404001
 20
7.1188788254
 10
-36.4500922437
 20
7.1303710241
 10
-36.4041941026
 20
7.1417939519
 10
-36.3550166509
 20
7.1531677544
 10
-36.3028880759
 20
7.1644761834
 10
-36.2479985501
 20
7.1757354873
 10
-36.1902519159
 20
7.1870145573
 10
-36.1297878462
 20
7.1983291857
 10
-36.0669251379
 20
7.2096635803
 10
-36.0017909317
 20
7.2210392557
  0
LWPOLYLINE
  5
3C7
100
AcDbEntity
  8
0
100
AcDbPolyline
 62
7
  6
CONTINUOUS
 90
18
 70
0
 10
-34.1320232521
 20
11.1666579722
 10
-34.1350789141
 20
11.1552902682
 10
-34.1438418063
 20
11.1442902682
 10
-34.1582805436
 20
11.1332902682
 10
-34.1783381425
 20
11.1222902682
 10
-34.2039354447
 20
11.1112902682
 10
-34.2349714292
 20
11.1002902682
 10
-34.2713236108
 20
11.0892902682
 10
-34.312848524
 20
11.0782902682
 10
-34.3593822887
 20
11.0672902682
 10
-34.4107412573
 20
11.0562902682
 10
-34.4667227392
 20
11.0452902682
 10
-34.527105801
 20
11.0342902682
 10
-34.5916521382
 20
11.0232902682
 10
-34.6601070159
 20
11.0122902682
 10
-34.7322002739
 20
11.0012902682
 10
-34.807647393
 20
10.9902902682
 10
-34.8861506179
 20
10.9792902682
  0
LWPOLYLINE
  5
3C8
100
AcDbEntity
  8
0
100
AcDbPolyline
 62
7
  6
CONTINUOUS
 90
5
 70
0
 10
-34.1320232521
 20
11.0666579722
 10
-34.1350789141
 20
11.0552902682
 10
-34.1438418063
 20
11.0442902682
 10
-34.1582805436
 20
11.0332902682
 10
-34.1627256793
 20
11.030566926
  0
LINE
  5
3C9
100
AcDbEntity
  8
0
100
AcDbLine
 62
7
  6
CONTINUOUS
 10
-35.5820232521
 20
3.0972902682
 11
-34.4820232521
 21
5.0025461565
  0
LWPOLYLINE
  5
3CA
100
AcDbEntity
  8
RACCORDO
100
AcDbPolyline
 62
7
  6
CONTINUOUS
 90
3
 70
0
 10
-41.9320209406
 20
8.3597005208
 10
-41.9331801576
 20
8.361942829
 10
-42.0806945597
 20
8.6172141854
  0
LWPOLYLINE
  5
3CB
100
AcDbEntity
  8
0
100
AcDbPolyline
 62
7
  6
CONTINUOUS
 90
6
 70
0
 10
-36.9227413533
 20
5.0392034643
 10
-36.9223542137
 20
5.0350608994
 10
-36.9181110189
 20
5.0248379626
 10
-36.9092576248
 20
5.0146150257
 10
-36.8958938667
 20
5.0043920888
 10
-36.8881379559
 20
4.9996168659
  0
LINE
  5
3CC
100
AcDbEntity
  8
0
100
AcDbLine
 62
7
  6
CONTINUOUS
 10
-37.0320232521
 20
11.7166577241
 11
-37.0320232521
 21
11.6166577241
  0
LINE
  5
3CD
100
AcDbEntity
  8
0
100
AcDbLine
 62
7
  6
CONTINUOUS
 10
-37.0320232521
 20
8.4166577241
 11
-37.0320232521
 21
8.3166577241
  0
LINE
  5
3CE
100
AcDbEntity
  8
0
100
AcDbLine
 62
7
  6
CONTINUOUS
 10
-37.0320232521
 20
7.3166578336
 11
-37.0320232521
 21
7.2166578336
  0
LINE
  5
3CF
100
AcDbEntity
  8
0
100
AcDbLine
 62
7
  6
CONTINUOUS
 10
-37.0320232521
 20
6.216657265
 11
-37.0320232521
 21
6.116657265
  0
LINE
  5
3D0
100
AcDbEntity
  8
0
100
AcDbLine
 62
7
  6
CONTINUOUS
 10
-36.9227413533
 20
5.1392034643
 11
-36.9227413533
 21
5.0392034643
  0
LINE
  5
3D1
100
AcDbEntity
  8
0
100
AcDbLine
 62
7
  6
CONTINUOUS
 10
-36.8820232521
 20
12.4972902682
 11
-36.8820232521
 21
12.212760322
  0
LINE
  5
3D2
100
AcDbEntity
  8
0
100
AcDbLine
 62
7
  6
CONTINUOUS
 10
-36.7012042627
 20
5.1372902682
 11
-36.7012042627
 21
5.2372902682
  0
LINE
  5
3D3
100
AcDbEntity
  8
0
100
AcDbLine
 62
7
  6
CONTINUOUS
 10
-36.7012042627
 20
11.7372902682
 11
-36.7012042627
 21
11.8372902682
  0
LINE
  5
3D4
100
AcDbEntity
  8
0
100
AcDbLine
 62
7
  6
CONTINUOUS
 10
-36.6820232521
 20
12.0972902682
 11
-36.6820232521
 21
11.9421679939
  0
LINE
  5
3D5
100
AcDbEntity
  8
0
100
AcDbLine
 62
7
  6
CONTINUOUS
 10
-36.6820232521
 20
11.4145851299
 11
-36.6820232521
 21
10.842168169
  0
LINE
  5
3D6
100
AcDbEntity
  8
0
100
AcDbLine
 62
7
  6
CONTINUOUS
 10
-36.6820232521
 20
8.1145851299
 11
-36.6820232521
 21
7.542168169
  0
LINE
  5
3D7
100
AcDbEntity
  8
0
100
AcDbLine
 62
7
  6
CONTINUOUS
 10
-36.6820232521
 20
7.0145852394
 11
-36.6820232521
 21
6.442167594
  0
LINE
  5
3D8
100
AcDbEntity
  8
0
100
AcDbLine
 62
7
  6
CONTINUOUS
 10
-36.6820232521
 20
5.9145846708
 11
-36.6820232521
 21
5.3052475676
  0
LINE
  5
3D9
100
AcDbEntity
  8
0
100
AcDbLine
 62
250
  6
CONTINUOUS
 10
-35.9721837473
 20
11.8372902682
 11
-35.9721837473
 21
11.9372902682
  0
LWPOLYLINE
  5
3DA
100
AcDbEntity
  8
0
100
AcDbPolyline
 62
7
  6
CONTINUOUS
 90
20
 70
0
 10
-36.6820232521
 20
5.9145846708
 10
-36.6819711
 20
5.9162894541
 10
-36.6789547094
 20
5.9276643985
 10
-36.6713308691
 20
5.9390145478
 10
-36.6591376569
 20
5.9503587583
 10
-36.6424418392
 20
5.9616919701
 10
-36.6213159689
 20
5.9730192431
 10
-36.5957723678
 20
5.9843746131
 10
-36.5658161543
 20
5.995783089
 10
-36.5315946587
 20
6.0072196618
 10
-36.4933677481
 20
6.0186433414
 10
-36.4513912576
 20
6.030033418
 10
-36.4057898966
 20
6.0414106012
 10
-36.3566740304
 20
6.0527960305
 10
-36.3042378479
 20
6.064190999
 10
-36.2487019227
 20
6.0755942134
 10
-36.1902050446
 20
6.087022933
 10
-36.1288291125
 20
6.0985045137
 10
-36.064958191
 20
6.1100115996
 10
-35.9992301537
 20
6.1214793815
  0
LWPOLYLINE
  5
3DB
100
AcDbEntity
  8
RACCORDO
100
AcDbPolyline
 62
7
  6
CONTINUOUS
 90
4
 70
0
 10
-39.5123691976
 20
-12.1119220696
 10
-39.5093681706
 20
-12.0995284857
 10
-39.5076720587
 20
-12.0919211312
 10
-39.507343315
 20
-12.0892910484
  0
LINE
  5
3DC
100
AcDbEntity
  8
RACCORDO
100
AcDbLine
 62
7
  6
CONTINUOUS
 10
-39.5218962575
 20
-12.1498655426
 11
-39.5123691976
 21
-12.1119220696
  0
LINE
  5
3DD
100
AcDbEntity
  8
RACCORDO
100
AcDbLine
 62
7
  6
CONTINUOUS
 10
-39.5820232521
 20
-12.381256085
 11
-39.5218962575
 21
-12.1498655426
  0
LWPOLYLINE
  5
3DE
100
AcDbEntity
  8
0
100
AcDbPolyline
 62
7
  6
CONTINUOUS
 90
18
 70
0
 10
-34.1320232521
 20
7.8666579722
 10
-34.1350789141
 20
7.8552902682
 10
-34.1438418063
 20
7.8442902682
 10
-34.1582805436
 20
7.8332902682
 10
-34.1783381425
 20
7.8222902682
 10
-34.2039354447
 20
7.8112902682
 10
-34.2349714292
 20
7.8002902682
 10
-34.2713236108
 20
7.7892902682
 10
-34.312848524
 20
7.7782902682
 10
-34.3593822887
 20
7.7672902682
 10
-34.4107412573
 20
7.7562902682
 10
-34.4667227392
 20
7.7452902682
 10
-34.527105801
 20
7.7342902682
 10
-34.5916521382
 20
7.7232902682
 10
-34.6601070159
 20
7.7122902682
 10
-34.7322002739
 20
7.7012902682
 10
-34.807647393
 20
7.6902902682
 10
-34.8861506179
 20
7.6792902682
  0
LWPOLYLINE
  5
3DF
100
AcDbEntity
  8
0
100
AcDbPolyline
 62
7
  6
CONTINUOUS
 90
5
 70
0
 10
-34.1320232521
 20
7.7666579722
 10
-34.1350789141
 20
7.7552902682
 10
-34.1438418063
 20
7.7442902682
 10
-34.1582805436
 20
7.7332902682
 10
-34.1627228148
 20
7.7305686156
  0
LWPOLYLINE
  5
3E0
100
AcDbEntity
  8
0
100
AcDbPolyline
 62
7
  6
CONTINUOUS
 90
18
 70
0
 10
-34.1320232521
 20
6.7666575255
 10
-34.1350786704
 20
6.7552902682
 10
-34.1438413208
 20
6.7442902682
 10
-34.1582798117
 20
6.7332902682
 10
-34.1783371611
 20
6.7222902682
 10
-34.2039342119
 20
6.7112902682
 10
-34.2349699444
 20
6.7002902682
 10
-34.2713218749
 20
6.6892902682
 10
-34.3128465392
 20
6.6782902682
 10
-34.3593800587
 20
6.6672902682
 10
-34.410738787
 20
6.6562902682
 10
-34.466720035
 20
6.6452902682
 10
-34.5271028706
 20
6.6342902682
 10
-34.5916489906
 20
6.6232902682
 10
-34.6601036614
 20
6.6122902682
 10
-34.732196724
 20
6.6012902682
 10
-34.8076436603
 20
6.5902902682
 10
-34.8861467161
 20
6.5792902682
  0
LWPOLYLINE
  5
3E1
100
AcDbEntity
  8
0
100
AcDbPolyline
 62
7
  6
CONTINUOUS
 90
5
 70
0
 10
-34.1320232521
 20
6.6666575255
 10
-34.1350786704
 20
6.6552902682
 10
-34.1438413208
 20
6.6442902682
 10
-34.1582798117
 20
6.6332902682
 10
-34.1627228484
 20
6.6305681278
  0
LINE
  5
3E2
100
AcDbEntity
  8
0
100
AcDbLine
 62
7
  6
CONTINUOUS
 10
-48.3821450867
 20
2.9772851658
 11
-48.5821450867
 21
2.9772851658
  0
LINE
  5
3E3
100
AcDbEntity
  8
0
100
AcDbLine
 62
7
  6
CONTINUOUS
 10
-35.2859778921
 20
11.9393628557
 11
-35.2859778921
 21
12.0393628624
  0
LWPOLYLINE
  5
3E4
100
AcDbEntity
  8
0
100
AcDbPolyline
 62
7
  6
CONTINUOUS
 90
20
 70
0
 10
-34.4820232521
 20
11.3687305664
 10
-34.482067027
 20
11.3671686951
 10
-34.4849921573
 20
11.3558650461
 10
-34.4924491579
 20
11.3446075294
 10
-34.5044945812
 20
11.3332828744
 10
-34.5212463609
 20
11.3218382723
 10
-34.5426677286
 20
11.310326532
 10
-34.5686350576
 20
11.2987928098
 10
-34.5990877469
 20
11.2872276672
 10
-34.6338983441
 20
11.2756405426
 10
-34.6726786274
 20
11.2641049081
 10
-34.7150815094
 20
11.2526530391
 10
-34.7609772454
 20
11.2412526602
 10
-34.8102273875
 20
11.2298804171
 10
-34.8626016669
 20
11.2185358071
 10
-34.917854862
 20
11.207219333
 10
-34.9758491848
 20
11.1959091491
 10
-35.0363126138
 20
11.1846099553
 10
-35.0990129122
 20
11.1733170517
 10
-35.1638945989
 20
11.161994493
  0
LWPOLYLINE
  5
3E5
100
AcDbEntity
  8
0
100
AcDbPolyline
 62
7
  6
CONTINUOUS
 90
20
 70
0
 10
-34.4820232521
 20
8.0687305664
 10
-34.482067027
 20
8.0671686951
 10
-34.4849921573
 20
8.0558650461
 10
-34.4924491579
 20
8.0446075294
 10
-34.5044945812
 20
8.0332828744
 10
-34.5212463609
 20
8.0218382723
 10
-34.5426677286
 20
8.010326532
 10
-34.5686350576
 20
7.9987928098
 10
-34.5990877469
 20
7.9872276672
 10
-34.6338983441
 20
7.9756405426
 10
-34.6726786274
 20
7.9641049081
 10
-34.7150815094
 20
7.9526530391
 10
-34.7609772454
 20
7.9412526602
 10
-34.8102273875
 20
7.9298804171
 10
-34.8626016669
 20
7.9185358071
 10
-34.917854862
 20
7.907219333
 10
-34.9758491848
 20
7.8959091491
 10
-35.0363126138
 20
7.8846099553
 10
-35.0990129122
 20
7.8733170517
 10
-35.1638945989
 20
7.861994493
  0
LWPOLYLINE
  5
3E6
100
AcDbEntity
  8
0
100
AcDbPolyline
 62
7
  6
CONTINUOUS
 90
19
 70
0
 10
-34.4820232521
 20
6.9687301197
 10
-34.4835534848
 20
6.9594946109
 10
-34.4896690999
 20
6.9480764881
 10
-34.5005187463
 20
6.9365805548
 10
-34.5162031255
 20
6.9249730768
 10
-34.5367231956
 20
6.9132877882
 10
-34.5619098213
 20
6.9015976421
 10
-34.5916590849
 20
6.8899016847
 10
-34.6258419767
 20
6.8782008698
 10
-34.6640487242
 20
6.866571012
 10
-34.7058761525
 20
6.8550539618
 10
-34.7512016451
 20
6.8436078687
 10
-34.7999834761
 20
6.8321829956
 10
-34.8519190809
 20
6.8207954654
 10
-34.9068373334
 20
6.8094291552
 10
-34.9650004646
 20
6.7979859596
 10
-35.0265136297
 20
6.786410924
 10
-35.0908864663
 20
6.774759003
 10
-35.1574927626
 20
6.7630969548
  0
LWPOLYLINE
  5
3E7
100
AcDbEntity
  8
0
100
AcDbPolyline
 62
7
  6
CONTINUOUS
 90
19
 70
0
 10
-34.4820232521
 20
5.8687298635
 10
-34.4843159277
 20
5.8574246682
 10
-34.49126813
 20
5.8460162346
 10
-34.5028756177
 20
5.8345871981
 10
-34.5191559335
 20
5.8231115963
 10
-34.5400428185
 20
5.8116153916
 10
-34.5653303077
 20
5.8001570546
 10
-34.594780062
 20
5.7887677531
 10
-34.6282880095
 20
5.7774163194
 10
-34.665794321
 20
5.7660677215
 10
-34.707135046
 20
5.7547228682
 10
-34.752136673
 20
5.7433808508
 10
-34.800774703
 20
5.7320039109
 10
-34.8528955182
 20
5.7205877083
 10
-34.9082891034
 20
5.7091365832
 10
-34.9668748253
 20
5.6976257978
 10
-35.0286155787
 20
5.6860235265
 10
-35.0931217716
 20
5.674361595
 10
-35.1597322736
 20
5.6627107425
  0
LWPOLYLINE
  5
3E8
100
AcDbEntity
  8
0
100
AcDbPolyline
 62
7
  6
CONTINUOUS
 90
18
 70
0
 10
-34.1320232521
 20
5.6666572693
 10
-34.1350785386
 20
5.6552902682
 10
-34.1438410735
 20
5.6442902682
 10
-34.1582794614
 20
5.6332902682
 10
-34.1783367207
 20
5.6222902682
 10
-34.2039336949
 20
5.6112902682
 10
-34.2349693646
 20
5.6002902682
 10
-34.2713212465
 20
5.5892902682
 10
-34.3128458763
 20
5.5782902682
 10
-34.3593793755
 20
5.5672902682
 10
-34.4107380976
 20
5.5562902682
 10
-34.4667193534
 20
5.5452902682
 10
-34.5271022104
 20
5.5342902682
 10
-34.591648365
 20
5.5232902682
 10
-34.6601030831
 20
5.5122902682
 10
-34.7321962048
 20
5.5012902682
 10
-34.8076432116
 20
5.4902902682
 10
-34.8861463484
 20
5.4792902682
  0
LWPOLYLINE
  5
3E9
100
AcDbEntity
  8
0
100
AcDbPolyline
 62
7
  6
CONTINUOUS
 90
5
 70
0
 10
-34.1320232521
 20
5.5666572693
 10
-34.1350785386
 20
5.5552902682
 10
-34.1438410735
 20
5.5442902682
 10
-34.1582794614
 20
5.5332902682
 10
-34.1627227881
 20
5.5305679429
  0
LWPOLYLINE
  5
3EA
100
AcDbEntity
  8
RACCORDO
100
AcDbPolyline
 62
250
  6
CONTINUOUS
 90
8
 70
0
 10
-41.8593220473
 20
-11.4620967198
 10
-41.8602609381
 20
-11.4635569533
 10
-41.8620410761
 20
-11.4681952141
 10
-41.8646428508
 20
-11.4759603919
 10
-41.868037564
 20
-11.4867669303
 10
-41.8721878424
 20
-11.5004957435
 10
-41.8770480501
 20
-11.5169955286
 10
-41.8886767955
 20
-11.5575522439
  0
LWPOLYLINE
  5
3EB
100
AcDbEntity
  8
0
100
AcDbPolyline
 62
7
  6
CONTINUOUS
 90
7
 70
0
 10
-36.7012042627
 20
5.2372902682
 10
-36.7462505484
 20
5.2267185514
 10
-36.7863025105
 20
5.2161468347
 10
-36.8212777971
 20
5.205575118
 10
-36.8511150656
 20
5.1950034013
 10
-36.875773965
 20
5.1844316845
 10
-36.8937526706
 20
5.1747771394
  0
LWPOLYLINE
  5
3EC
100
AcDbEntity
  8
0
100
AcDbPolyline
 62
7
  6
CONTINUOUS
 90
11
 70
0
 10
-36.7012042627
 20
5.1372902682
 10
-36.7448435477
 20
5.1270673313
 10
-36.7838153853
 20
5.1168443944
 10
-36.8180443687
 20
5.1066214575
 10
-36.8474734613
 20
5.0963985207
 10
-36.8720639877
 20
5.0861755838
 10
-36.8917955556
 20
5.0759526469
 10
-36.9066659089
 20
5.06572971
 10
-36.9166907137
 20
5.0555067732
 10
-36.9219032793
 20
5.0452838363
 10
-36.9227413533
 20
5.0392034643
  0
LINE
  5
3ED
100
AcDbEntity
  8
0
100
AcDbLine
 62
7
  6
CONTINUOUS
 10
-36.6411079952
 20
5.2482902682
 11
-36.7012042627
 21
5.2372902682
  0
LINE
  5
3EE
100
AcDbEntity
  8
0
100
AcDbLine
 62
7
  6
CONTINUOUS
 10
-36.1066518081
 20
5.0025461565
 11
-36.040412347
 21
5.0143341799
  0
LWPOLYLINE
  5
3EF
100
AcDbEntity
  8
0
100
AcDbPolyline
 62
7
  6
CONTINUOUS
 90
9
 70
0
 10
-36.0237745375
 20
5.5213814363
 10
-36.0830763702
 20
5.5109328298
 10
-36.1403313707
 20
5.5005327373
 10
-36.1952875023
 20
5.4901957626
 10
-36.2478636353
 20
5.4799073018
 10
-36.2978555634
 20
5.4696786516
 10
-36.3451169664
 20
5.4595135778
 10
-36.3895513496
 20
5.4494083147
 10
-36.4310571222
 20
5.4393628624
  0
LWPOLYLINE
  5
3F0
100
AcDbEntity
  8
0
100
AcDbPolyline
 62
7
  6
CONTINUOUS
 90
15
 70
0
 10
-35.175548256
 20
5.1558481355
 10
-35.1076335736
 20
5.1676473882
 10
-35.0418734866
 20
5.1794465407
 10
-34.9785668061
 20
5.1912455396
 10
-34.9180006054
 20
5.2030444383
 10
-34.8604499175
 20
5.2148432131
 10
-34.8061761094
 20
5.226641826
 10
-34.7554252963
 20
5.2384403151
 10
-34.7084274321
 20
5.2502387705
 10
-34.6653958788
 20
5.2620371855
 10
-34.6265259384
 20
5.2738355669
 10
-34.5919937429
 20
5.2856340242
 10
-34.5619559692
 20
5.2974326368
 10
-34.5365493283
 20
5.3092313253
 10
-34.521579722
 20
5.3174923459
  0
LINE
  5
3F1
100
AcDbEntity
  8
0
100
AcDbLine
 62
7
  6
CONTINUOUS
 10
-36.040412347
 20
5.0143341799
 11
-35.9020165092
 21
5.0379092669
  0
LINE
  5
3F2
100
AcDbEntity
  8
0
100
AcDbLine
 62
7
  6
CONTINUOUS
 10
-35.9007872997
 20
5.5422588968
 11
-36.0237745375
 21
5.5213814363
  0
LINE
  5
3F3
100
AcDbEntity
  8
0
100
AcDbLine
 62
7
  6
CONTINUOUS
 10
-35.1597322736
 20
5.6627107425
 11
-35.2980182141
 21
5.6394486737
  0
LINE
  5
3F4
100
AcDbEntity
  8
0
100
AcDbLine
 62
7
  6
CONTINUOUS
 10
-35.3165990026
 20
5.1322494442
 11
-35.175548256
 21
5.1558481355
  0
LINE
  5
3F5
100
AcDbEntity
  8
0
100
AcDbLine
 62
7
  6
CONTINUOUS
 10
-35.7098378011
 20
5.5733416787
 11
-35.9007872997
 21
5.5422588968
  0
LINE
  5
3F6
100
AcDbEntity
  8
0
100
AcDbLine
 62
7
  6
CONTINUOUS
 10
-35.9020165092
 20
5.0379092669
 11
-35.6843873657
 21
5.073269498
  0
LINE
  5
3F7
100
AcDbEntity
  8
0
100
AcDbLine
 62
7
  6
CONTINUOUS
 10
-35.2980182141
 20
5.6394486737
 11
-35.7098378011
 21
5.5733416787
  0
LINE
  5
3F8
100
AcDbEntity
  8
0
100
AcDbLine
 62
7
  6
CONTINUOUS
 10
-35.6843873657
 20
5.073269498
 11
-35.3165990026
 21
5.1322494442
  0
LWPOLYLINE
  5
3F9
100
AcDbEntity
  8
0
100
AcDbPolyline
 62
7
  6
CONTINUOUS
 90
7
 70
0
 10
-36.2832300418
 20
5.2032902682
 10
-36.3615387045
 20
5.1922902682
 10
-36.4367709711
 20
5.1812902682
 10
-36.5086299333
 20
5.1702902682
 10
-36.5768319958
 20
5.1592902682
 10
-36.6411079952
 20
5.1482902682
 10
-36.7012042627
 20
5.1372902682
  0
LWPOLYLINE
  5
3FA
100
AcDbEntity
  8
0
100
AcDbPolyline
 62
7
  6
CONTINUOUS
 90
6
 70
0
 10
-36.2832300418
 20
5.3032902682
 10
-36.3615387045
 20
5.2922902682
 10
-36.4367709711
 20
5.2812902682
 10
-36.5086299333
 20
5.2702902682
 10
-36.5768319958
 20
5.2592902682
 10
-36.6411079952
 20
5.2482902682
  0
LINE
  5
3FB
100
AcDbEntity
  8
0
100
AcDbLine
 62
7
  6
CONTINUOUS
 10
-36.1186306465
 20
5.2252902682
 11
-36.2832300418
 21
5.2032902682
  0
LINE
  5
3FC
100
AcDbEntity
  8
0
100
AcDbLine
 62
7
  6
CONTINUOUS
 10
-36.1186306465
 20
5.3252902682
 11
-36.2832300418
 21
5.3032902682
  0
LINE
  5
3FD
100
AcDbEntity
  8
0
100
AcDbLine
 62
7
  6
CONTINUOUS
 10
-34.8861463484
 20
5.3792902682
 11
-35.0510709082
 21
5.3572902682
  0
LINE
  5
3FE
100
AcDbEntity
  8
0
100
AcDbLine
 62
7
  6
CONTINUOUS
 10
-34.8861463484
 20
5.4792902682
 11
-35.0510709082
 21
5.4572902682
  0
LINE
  5
3FF
100
AcDbEntity
  8
0
100
AcDbLine
 62
7
  6
CONTINUOUS
 10
-35.9455686228
 20
5.2472902682
 11
-36.1186306465
 21
5.2252902682
  0
LINE
  5
400
100
AcDbEntity
  8
0
100
AcDbLine
 62
7
  6
CONTINUOUS
 10
-35.9455686228
 20
5.3472902682
 11
-36.1186306465
 21
5.3252902682
  0
LINE
  5
401
100
AcDbEntity
  8
0
100
AcDbLine
 62
7
  6
CONTINUOUS
 10
-35.0510709082
 20
5.3572902682
 11
-35.2243689229
 21
5.3352902682
  0
LINE
  5
402
100
AcDbEntity
  8
0
100
AcDbLine
 62
7
  6
CONTINUOUS
 10
-35.0510709082
 20
5.4572902682
 11
-35.2243689229
 21
5.4352902682
  0
LWPOLYLINE
  5
403
100
AcDbEntity
  8
0
100
AcDbPolyline
 62
7
  6
CONTINUOUS
 90
3
 70
0
 10
-35.2243689229
 20
5.3352902682
 10
-35.5850642979
 20
5.2912902682
 10
-35.9455686228
 20
5.2472902682
  0
LWPOLYLINE
  5
404
100
AcDbEntity
  8
0
100
AcDbPolyline
 62
7
  6
CONTINUOUS
 90
3
 70
0
 10
-35.2243689229
 20
5.4352902682
 10
-35.5850642979
 20
5.3912902682
 10
-35.9455686228
 20
5.3472902682
  0
LINE
  5
405
100
AcDbEntity
  8
0
100
AcDbLine
 62
7
  6
CONTINUOUS
 10
-34.4820232521
 20
5.0025461565
 11
-36.1066518081
 21
5.0025461565
  0
LWPOLYLINE
  5
406
100
AcDbEntity
  8
0
100
AcDbPolyline
 62
7
  6
CONTINUOUS
 90
12
 70
0
 10
-36.5795604758
 20
4.8250754221
 10
-36.5816108644
 20
4.8321181439
 10
-36.579690019
 20
4.8390115413
 10
-36.5737935952
 20
4.8459636874
 10
-36.5638494707
 20
4.8529531589
 10
-36.5498756137
 20
4.8599475139
 10
-36.5318771315
 20
4.8669506744
 10
-36.5098937619
 20
4.8739587182
 10
-36.4841508215
 20
4.8809274369
 10
-36.4548527871
 20
4.887842094
 10
-36.4220993415
 20
4.894717426
 10
-36.3860520163
 20
4.9015534327
  0
LWPOLYLINE
  5
407
100
AcDbEntity
  8
0
100
AcDbPolyline
 62
7
  6
CONTINUOUS
 90
5
 70
0
 10
-37.0320232521
 20
6.116657265
 10
-37.0289679721
 20
6.1052902682
 10
-37.0202054514
 20
6.0942902682
 10
-37.0057670857
 20
6.0832902682
 10
-37.0013236743
 20
6.0805678889
  0
LWPOLYLINE
  5
408
100
AcDbEntity
  8
0
100
AcDbPolyline
 62
7
  6
CONTINUOUS
 90
5
 70
0
 10
-37.0320232521
 20
7.2166578336
 10
-37.0289676676
 20
7.2052902682
 10
-37.0202048559
 20
7.1942902682
 10
-37.0057662039
 20
7.1832902682
 10
-37.0013236609
 20
7.1805684424
  0
LWPOLYLINE
  5
409
100
AcDbEntity
  8
0
100
AcDbPolyline
 62
7
  6
CONTINUOUS
 90
5
 70
0
 10
-37.0320232521
 20
8.3166577241
 10
-37.0289677179
 20
8.3052902682
 10
-37.0202049386
 20
8.2942902682
 10
-37.0057663033
 20
8.2832902682
 10
-37.0013237414
 20
8.2805684303
  0
LINE
  5
40A
100
AcDbEntity
  8
0
100
AcDbLine
 62
7
  6
CONTINUOUS
 10
-34.4820232521
 20
12.0972902682
 11
-34.4820232521
 21
11.3687305664
  0
LINE
  5
40B
100
AcDbEntity
  8
0
100
AcDbLine
 62
7
  6
CONTINUOUS
 10
-34.4820232521
 20
10.8411478792
 11
-34.4820232521
 21
10.7380929624
  0
LINE
  5
40C
100
AcDbEntity
  8
0
100
AcDbLine
 62
7
  6
CONTINUOUS
 10
-34.4820232521
 20
8.4636144634
 11
-34.4820232521
 21
8.0687305664
  0
LINE
  5
40D
100
AcDbEntity
  8
0
100
AcDbLine
 62
7
  6
CONTINUOUS
 10
-34.4820232521
 20
7.5411457252
 11
-34.4820232521
 21
6.9687301197
  0
LINE
  5
40E
100
AcDbEntity
  8
0
100
AcDbLine
 62
7
  6
CONTINUOUS
 10
-34.4820232521
 20
6.441145252
 11
-34.4820232521
 21
5.8687298635
  0
LINE
  5
40F
100
AcDbEntity
  8
0
100
AcDbLine
 62
7
  6
CONTINUOUS
 10
-34.4820232521
 20
5.3411450411
 11
-34.4820232521
 21
5.0025461565
  0
LINE
  5
410
100
AcDbEntity
  8
0
100
AcDbLine
 62
7
  6
CONTINUOUS
 10
-34.2820232521
 20
12.4972902682
 11
-34.2820232521
 21
12.212760322
  0
LINE
  5
411
100
AcDbEntity
  8
0
100
AcDbLine
 62
7
  6
CONTINUOUS
 10
-34.1320232521
 20
5.5666572693
 11
-34.1320232521
 21
5.6666572693
  0
LINE
  5
412
100
AcDbEntity
  8
0
100
AcDbLine
 62
7
  6
CONTINUOUS
 10
-34.1320232521
 20
6.6666575255
 11
-34.1320232521
 21
6.7666575255
  0
LINE
  5
413
100
AcDbEntity
  8
0
100
AcDbLine
 62
7
  6
CONTINUOUS
 10
-34.1320232521
 20
7.7666579722
 11
-34.1320232521
 21
7.8666579722
  0
LINE
  5
414
100
AcDbEntity
  8
0
100
AcDbLine
 62
7
  6
CONTINUOUS
 10
-34.1320232521
 20
11.0666579722
 11
-34.1320232521
 21
11.1666579722
  0
LWPOLYLINE
  5
415
100
AcDbEntity
  8
0
100
AcDbPolyline
 62
7
  6
CONTINUOUS
 90
15
 70
0
 10
-35.1574927626
 20
6.2589517664
 10
-35.0908864663
 20
6.2706138146
 10
-35.0265136297
 20
6.2822657356
 10
-34.9650004646
 20
6.2938407711
 10
-34.9068373334
 20
6.3052839667
 10
-34.8519190809
 20
6.3166502769
 10
-34.7999834761
 20
6.3280378072
 10
-34.7512016451
 20
6.3394626803
 10
-34.7058761525
 20
6.3509087734
 10
-34.6640487242
 20
6.3624258236
 10
-34.6258419767
 20
6.3740556814
 10
-34.5916590849
 20
6.3857564963
 10
-34.5619098213
 20
6.3974524537
 10
-34.5367231956
 20
6.4091425997
 10
-34.5215797991
 20
6.4174925089
  0
LWPOLYLINE
  5
416
100
AcDbEntity
  8
0
100
AcDbPolyline
 62
7
  6
CONTINUOUS
 90
15
 70
0
 10
-35.9992301537
 20
6.6256245699
 10
-36.064958191
 20
6.614156788
 10
-36.1288291125
 20
6.6026497021
 10
-36.1902050446
 20
6.5911681214
 10
-36.2487019227
 20
6.5797394019
 10
-36.3042378479
 20
6.5683361874
 10
-36.3566740304
 20
6.5569412189
 10
-36.4057898966
 20
6.5455557897
 10
-36.4513912576
 20
6.5341786064
 10
-36.4933677481
 20
6.5227885299
 10
-36.5315946587
 20
6.5113648502
 10
-36.5658161543
 20
6.4999282774
 10
-36.5957723678
 20
6.4885198016
 10
-36.6213159689
 20
6.4771644315
 10
-36.6424711219
 20
6.4658196242
  0
LINE
  5
417
100
AcDbEntity
  8
0
100
AcDbLine
 62
7
  6
CONTINUOUS
 10
-35.2962727598
 20
6.2355910933
 11
-35.1574927626
 21
6.2589517664
  0
LINE
  5
418
100
AcDbEntity
  8
0
100
AcDbLine
 62
7
  6
CONTINUOUS
 10
-35.1574927626
 20
6.7630969548
 11
-35.2962727598
 21
6.7397362817
  0
LINE
  5
419
100
AcDbEntity
  8
0
100
AcDbLine
 62
7
  6
CONTINUOUS
 10
-35.9992301537
 20
6.1214793815
 11
-35.8637880583
 21
6.1442350345
  0
LINE
  5
41A
100
AcDbEntity
  8
0
100
AcDbLine
 62
7
  6
CONTINUOUS
 10
-35.8637880583
 20
6.648380223
 11
-35.9992301537
 21
6.6256245699
  0
LINE
  5
41B
100
AcDbEntity
  8
0
100
AcDbLine
 62
7
  6
CONTINUOUS
 10
-35.5820232521
 20
6.1895847815
 11
-35.2962727598
 21
6.2355910933
  0
LINE
  5
41C
100
AcDbEntity
  8
0
100
AcDbLine
 62
7
  6
CONTINUOUS
 10
-35.8637880583
 20
6.1442350345
 11
-35.5820232521
 21
6.1895847815
  0
LINE
  5
41D
100
AcDbEntity
  8
0
100
AcDbLine
 62
7
  6
CONTINUOUS
 10
-35.2962727598
 20
6.7397362817
 11
-35.5820232521
 21
6.69372997
  0
LINE
  5
41E
100
AcDbEntity
  8
0
100
AcDbLine
 62
7
  6
CONTINUOUS
 10
-35.5820232521
 20
6.69372997
 11
-35.8637880583
 21
6.648380223
  0
LWPOLYLINE
  5
41F
100
AcDbEntity
  8
0
100
AcDbPolyline
 62
7
  6
CONTINUOUS
 90
18
 70
0
 10
-36.2832286759
 20
6.3032902682
 10
-36.3615372741
 20
6.2922902682
 10
-36.4367694898
 20
6.2812902682
 10
-36.508628416
 20
6.2702902682
 10
-36.5768304585
 20
6.2592902682
 10
-36.6411064552
 20
6.2482902682
 10
-36.7012027382
 20
6.2372902682
 10
-36.756882135
 20
6.2262902682
 10
-36.8079249045
 20
6.2152902682
 10
-36.8541296043
 20
6.2042902682
 10
-36.8953138856
 20
6.1932902682
 10
-36.9313152129
 20
6.1822902682
 10
-36.9619915053
 20
6.1712902682
 10
-36.9872216974
 20
6.1602902682
 10
-37.0069062171
 20
6.1492902682
 10
-37.0209673786
 20
6.1382902682
 10
-37.0293496887
 20
6.1272902682
 10
-37.0320232521
 20
6.116657265
  0
LWPOLYLINE
  5
420
100
AcDbEntity
  8
0
100
AcDbPolyline
 62
7
  6
CONTINUOUS
 90
15
 70
0
 10
-36.2832286759
 20
6.4032902682
 10
-36.3615372741
 20
6.3922902682
 10
-36.4367694898
 20
6.3812902682
 10
-36.508628416
 20
6.3702902682
 10
-36.5768304585
 20
6.3592902682
 10
-36.6411064552
 20
6.3482902682
 10
-36.7012027382
 20
6.3372902682
 10
-36.756882135
 20
6.3262902682
 10
-36.8079249045
 20
6.3152902682
 10
-36.8541296043
 20
6.3042902682
 10
-36.8953138856
 20
6.2932902682
 10
-36.9313152129
 20
6.2822902682
 10
-36.9619915053
 20
6.2712902682
 10
-36.9872216974
 20
6.2602902682
 10
-37.0013208253
 20
6.2527483228
  0
LINE
  5
421
100
AcDbEntity
  8
0
100
AcDbLine
 62
7
  6
CONTINUOUS
 10
-36.1186294454
 20
6.3252902682
 11
-36.2832286759
 21
6.3032902682
  0
LINE
  5
422
100
AcDbEntity
  8
0
100
AcDbLine
 62
7
  6
CONTINUOUS
 10
-36.1186294454
 20
6.4252902682
 11
-36.2832286759
 21
6.4032902682
  0
LINE
  5
423
100
AcDbEntity
  8
0
100
AcDbLine
 62
7
  6
CONTINUOUS
 10
-34.8861467161
 20
6.4792902682
 11
-35.0510710867
 21
6.4572902682
  0
LINE
  5
424
100
AcDbEntity
  8
0
100
AcDbLine
 62
7
  6
CONTINUOUS
 10
-34.8861467161
 20
6.5792902682
 11
-35.0510710867
 21
6.5572902682
  0
LINE
  5
425
100
AcDbEntity
  8
0
100
AcDbLine
 62
7
  6
CONTINUOUS
 10
-35.9455676246
 20
6.3472902682
 11
-36.1186294454
 21
6.3252902682
  0
LINE
  5
426
100
AcDbEntity
  8
0
100
AcDbLine
 62
7
  6
CONTINUOUS
 10
-35.9455676246
 20
6.4472902682
 11
-36.1186294454
 21
6.4252902682
  0
LINE
  5
427
100
AcDbEntity
  8
0
100
AcDbLine
 62
7
  6
CONTINUOUS
 10
-35.0510710867
 20
6.4572902682
 11
-35.2243688829
 21
6.4352902682
  0
LINE
  5
428
100
AcDbEntity
  8
0
100
AcDbLine
 62
7
  6
CONTINUOUS
 10
-35.0510710867
 20
6.5572902682
 11
-35.2243688829
 21
6.5352902682
  0
LWPOLYLINE
  5
429
100
AcDbEntity
  8
0
100
AcDbPolyline
 62
7
  6
CONTINUOUS
 90
3
 70
0
 10
-35.2243688829
 20
6.4352902682
 10
-35.5850637732
 20
6.3912902682
 10
-35.9455676246
 20
6.3472902682
  0
LWPOLYLINE
  5
42A
100
AcDbEntity
  8
0
100
AcDbPolyline
 62
7
  6
CONTINUOUS
 90
3
 70
0
 10
-35.2243688829
 20
6.5352902682
 10
-35.5850637732
 20
6.4912902682
 10
-35.9455676246
 20
6.4472902682
  0
LINE
  5
42B
100
AcDbEntity
  8
0
100
AcDbLine
 62
7
  6
CONTINUOUS
 10
-48.3821450867
 20
5.1772851658
 11
-48.5821450867
 21
5.1772851658
  0
LINE
  5
42C
100
AcDbEntity
  8
0
100
AcDbLine
 62
7
  6
CONTINUOUS
 10
-36.8881379559
 20
4.9996168659
 11
-36.5754540526
 21
4.8179628884
  0
LINE
  5
42D
100
AcDbEntity
  8
0
100
AcDbLine
 62
7
  6
CONTINUOUS
 10
-36.3860520163
 20
4.9015534327
 11
-36.7012042627
 21
5.1372902682
  0
LINE
  5
42E
100
AcDbEntity
  8
0
100
AcDbLine
 62
7
  6
CONTINUOUS
 10
-35.5820232521
 20
3.0972902682
 11
-36.5795604758
 21
4.8250754221
  0
LWPOLYLINE
  5
42F
100
AcDbEntity
  8
0
100
AcDbPolyline
 62
7
  6
CONTINUOUS
 90
5
 70
0
 10
-37.0320232521
 20
11.6166577241
 10
-37.0289677179
 20
11.6052902682
 10
-37.0202049386
 20
11.5942902682
 10
-37.0057663033
 20
11.5832902682
 10
-37.0013208769
 20
11.5805667406
  0
LINE
  5
430
100
AcDbEntity
  8
0
100
AcDbLine
 62
7
  6
CONTINUOUS
 10
-32.7820232521
 20
13.8321384685
 11
-32.7820232521
 21
12.7972902682
  0
LWPOLYLINE
  5
431
100
AcDbEntity
  8
0
100
AcDbPolyline
 62
7
  6
CONTINUOUS
 90
9
 70
0
 10
-36.4310571222
 20
8.2352176739
 10
-36.3895513496
 20
8.2452631263
 10
-36.3451169664
 20
8.2553683894
 10
-36.2978555634
 20
8.2655334632
 10
-36.2478636353
 20
8.2757621133
 10
-36.1952875023
 20
8.2860505741
 10
-36.1403313707
 20
8.2963875489
 10
-36.0830763702
 20
8.3067876414
 10
-36.0237745375
 20
8.3172362479
  0
LWPOLYLINE
  5
432
100
AcDbEntity
  8
0
100
AcDbPolyline
 62
7
  6
CONTINUOUS
 90
12
 70
0
 10
-36.7012042627
 20
8.4372902682
 10
-36.7568836238
 20
8.4262902682
 10
-36.8079263357
 20
8.4152902682
 10
-36.854130956
 20
8.4042902682
 10
-36.8953151362
 20
8.3932902682
 10
-36.9313163412
 20
8.3822902682
 10
-36.9619924906
 20
8.3712902682
 10
-36.9872225198
 20
8.3602902682
 10
-37.0069068577
 20
8.3492902682
 10
-37.0209678194
 20
8.3382902682
 10
-37.0293499129
 20
8.3272902682
 10
-37.0320232521
 20
8.3166577241
  0
LWPOLYLINE
  5
433
100
AcDbEntity
  8
0
100
AcDbPolyline
 62
7
  6
CONTINUOUS
 90
15
 70
0
 10
-35.1638945989
 20
7.3578493046
 10
-35.0990129122
 20
7.3691718633
 10
-35.0363126138
 20
7.3804647668
 10
-34.9758491848
 20
7.3917639606
 10
-34.917854862
 20
7.4030741445
 10
-34.8626016669
 20
7.4143906187
 10
-34.8102273875
 20
7.4257352287
 10
-34.7609772454
 20
7.4371074717
 10
-34.7150815094
 20
7.4485078507
 10
-34.6726786274
 20
7.4599597197
 10
-34.6338983441
 20
7.4714953542
 10
-34.5990877469
 20
7.4830824787
 10
-34.5686350576
 20
7.4946476214
 10
-34.5426677286
 20
7.5061813436
 10
-34.521579758
 20
7.5174930077
  0
LWPOLYLINE
  5
434
100
AcDbEntity
  8
0
100
AcDbPolyline
 62
7
  6
CONTINUOUS
 90
15
 70
0
 10
-36.0017909317
 20
7.7251844442
 10
-36.0669251379
 20
7.7138087687
 10
-36.1297878462
 20
7.7024743741
 10
-36.1902519159
 20
7.6911597457
 10
-36.2479985501
 20
7.6798806757
 10
-36.3028880759
 20
7.6686213718
 10
-36.3550166509
 20
7.6573129429
 10
-36.4041941026
 20
7.6459391403
 10
-36.4500922437
 20
7.6345162126
 10
-36.4925404001
 20
7.6230240138
 10
-36.531387088
 20
7.6114308537
 10
-36.5662666864
 20
7.5997684224
 10
-36.596766467
 20
7.5881116455
 10
-36.6227550151
 20
7.5764618448
 10
-36.642471114
 20
7.5658202041
  0
LINE
  5
435
100
AcDbEntity
  8
0
100
AcDbLine
 62
7
  6
CONTINUOUS
 10
-36.0237745375
 20
8.3172362479
 11
-35.9007872997
 21
8.3381137084
  0
LINE
  5
436
100
AcDbEntity
  8
0
100
AcDbLine
 62
7
  6
CONTINUOUS
 10
-35.2994746439
 20
7.3350641441
 11
-35.1638945989
 21
7.3578493046
  0
LINE
  5
437
100
AcDbEntity
  8
0
100
AcDbLine
 62
7
  6
CONTINUOUS
 10
-36.0017909317
 20
7.2210392557
 11
-35.8653732054
 21
7.2439745618
  0
LINE
  5
438
100
AcDbEntity
  8
0
100
AcDbLine
 62
7
  6
CONTINUOUS
 10
-35.1638945989
 20
7.861994493
 11
-35.2994746439
 21
7.8392093326
  0
LINE
  5
439
100
AcDbEntity
  8
0
100
AcDbLine
 62
7
  6
CONTINUOUS
 10
-35.8653732054
 20
7.7481197503
 11
-36.0017909317
 21
7.7251844442
  0
LINE
  5
43A
100
AcDbEntity
  8
0
100
AcDbLine
 62
7
  6
CONTINUOUS
 10
-35.2980182141
 20
8.4353034852
 11
-35.1650935556
 21
8.4576533991
  0
LINE
  5
43B
100
AcDbEntity
  8
0
100
AcDbLine
 62
7
  6
CONTINUOUS
 10
-35.9007872997
 20
8.3381137084
 11
-35.7098378011
 21
8.3691964903
  0
LINE
  5
43C
100
AcDbEntity
  8
0
100
AcDbLine
 62
7
  6
CONTINUOUS
 10
-35.8653732054
 20
7.2439745618
 11
-35.5820232521
 21
7.2895853434
  0
LINE
  5
43D
100
AcDbEntity
  8
0
100
AcDbLine
 62
7
  6
CONTINUOUS
 10
-35.5820232521
 20
7.2895853434
 11
-35.2994746439
 21
7.3350641441
  0
LINE
  5
43E
100
AcDbEntity
  8
0
100
AcDbLine
 62
7
  6
CONTINUOUS
 10
-35.5820232521
 20
7.7937305319
 11
-35.8653732054
 21
7.7481197503
  0
LINE
  5
43F
100
AcDbEntity
  8
0
100
AcDbLine
 62
7
  6
CONTINUOUS
 10
-35.2994746439
 20
7.8392093326
 11
-35.5820232521
 21
7.7937305319
  0
LINE
  5
440
100
AcDbEntity
  8
0
100
AcDbLine
 62
7
  6
CONTINUOUS
 10
-35.7098378011
 20
8.3691964903
 11
-35.2980182141
 21
8.4353034852
  0
LWPOLYLINE
  5
441
100
AcDbEntity
  8
0
100
AcDbPolyline
 62
7
  6
CONTINUOUS
 90
18
 70
0
 10
-36.2832328508
 20
7.4032902682
 10
-36.3615413026
 20
7.3922902682
 10
-36.4367733543
 20
7.3812902682
 10
-36.5086320997
 20
7.3702902682
 10
-36.5768339454
 20
7.3592902682
 10
-36.6411097302
 20
7.3482902682
 10
-36.7012057873
 20
7.3372902682
 10
-36.7568849452
 20
7.3262902682
 10
-36.8079274641
 20
7.3152902682
 10
-36.8541319027
 20
7.3042902682
 10
-36.8953159135
 20
7.2932902682
 10
-36.9313169623
 20
7.2822902682
 10
-36.9619929697
 20
7.2712902682
 10
-36.9872228716
 20
7.2602902682
 10
-37.0069070973
 20
7.2492902682
 10
-37.0209679625
 20
7.2382902682
 10
-37.0293499754
 20
7.2272902682
 10
-37.0320232521
 20
7.2166578336
  0
LWPOLYLINE
  5
442
100
AcDbEntity
  8
0
100
AcDbPolyline
 62
7
  6
CONTINUOUS
 90
15
 70
0
 10
-36.2832328508
 20
7.5032902682
 10
-36.3615413026
 20
7.4922902682
 10
-36.4367733543
 20
7.4812902682
 10
-36.5086320997
 20
7.4702902682
 10
-36.5768339454
 20
7.4592902682
 10
-36.6411097302
 20
7.4482902682
 10
-36.7012057873
 20
7.4372902682
 10
-36.7568849452
 20
7.4262902682
 10
-36.8079274641
 20
7.4152902682
 10
-36.8541319027
 20
7.4042902682
 10
-36.8953159135
 20
7.3932902682
 10
-36.9313169623
 20
7.3822902682
 10
-36.9619929697
 20
7.3712902682
 10
-36.9872228716
 20
7.3602902682
 10
-37.001320818
 20
7.3527489009
  0
LINE
  5
443
100
AcDbEntity
  8
0
100
AcDbLine
 62
7
  6
CONTINUOUS
 10
-36.1186338578
 20
7.4252902682
 11
-36.2832328508
 21
7.4032902682
  0
LINE
  5
444
100
AcDbEntity
  8
0
100
AcDbLine
 62
7
  6
CONTINUOUS
 10
-36.1186338578
 20
7.5252902682
 11
-36.2832328508
 21
7.5032902682
  0
LINE
  5
445
100
AcDbEntity
  8
0
100
AcDbLine
 62
7
  6
CONTINUOUS
 10
-34.8861506179
 20
7.5792902682
 11
-35.0510752815
 21
7.5572902682
  0
LINE
  5
446
100
AcDbEntity
  8
0
100
AcDbLine
 62
7
  6
CONTINUOUS
 10
-34.8861506179
 20
7.6792902682
 11
-35.0510752815
 21
7.6572902682
  0
LINE
  5
447
100
AcDbEntity
  8
0
100
AcDbLine
 62
7
  6
CONTINUOUS
 10
-35.9455721974
 20
7.4472902682
 11
-36.1186338578
 21
7.4252902682
  0
LINE
  5
448
100
AcDbEntity
  8
0
100
AcDbLine
 62
7
  6
CONTINUOUS
 10
-35.9455721974
 20
7.5472902682
 11
-36.1186338578
 21
7.5252902682
  0
LINE
  5
449
100
AcDbEntity
  8
0
100
AcDbLine
 62
7
  6
CONTINUOUS
 10
-35.0510752815
 20
7.5572902682
 11
-35.2243733045
 21
7.5352902682
  0
LINE
  5
44A
100
AcDbEntity
  8
0
100
AcDbLine
 62
7
  6
CONTINUOUS
 10
-35.0510752815
 20
7.6572902682
 11
-35.2243733045
 21
7.6352902682
  0
LWPOLYLINE
  5
44B
100
AcDbEntity
  8
0
100
AcDbPolyline
 62
7
  6
CONTINUOUS
 90
3
 70
0
 10
-35.2243733045
 20
7.5352902682
 10
-35.5850684279
 20
7.4912902682
 10
-35.9455721974
 20
7.4472902682
  0
LWPOLYLINE
  5
44C
100
AcDbEntity
  8
0
100
AcDbPolyline
 62
7
  6
CONTINUOUS
 90
3
 70
0
 10
-35.2243733045
 20
7.6352902682
 10
-35.5850684279
 20
7.5912902682
 10
-35.9455721974
 20
7.5472902682
  0
LINE
  5
44D
100
AcDbEntity
  8
0
100
AcDbLine
 62
7
  6
CONTINUOUS
 10
-37.0013236743
 20
6.0805678889
 11
-36.7481497956
 21
5.9305933588
  0
LINE
  5
44E
100
AcDbEntity
  8
0
100
AcDbLine
 62
7
  6
CONTINUOUS
 10
-37.0013236609
 20
7.1805684424
 11
-36.7481497785
 21
7.0305939084
  0
LINE
  5
44F
100
AcDbEntity
  8
0
100
AcDbLine
 62
7
  6
CONTINUOUS
 10
-36.7481497956
 20
5.9305933588
 11
-36.6820232521
 21
5.8911450052
  0
LINE
  5
450
100
AcDbEntity
  8
0
100
AcDbLine
 62
7
  6
CONTINUOUS
 10
-36.7481497785
 20
7.0305939084
 11
-36.6820232521
 21
6.9911455644
  0
LINE
  5
451
100
AcDbEntity
  8
RACCORDO
100
AcDbLine
 62
250
  6
CONTINUOUS
 10
-31.3767875302
 20
8.790679177
 11
-31.3762885911
 21
8.7130437743
  0
LINE
  5
452
100
AcDbEntity
  8
RACCORDO
100
AcDbLine
 62
250
  6
CONTINUOUS
 10
-31.3767875302
 20
10.3730914099
 11
-31.3767875302
 21
8.790679177
  0
LINE
  5
453
100
AcDbEntity
  8
RACCORDO
100
AcDbLine
 62
250
  6
CONTINUOUS
 10
-31.3762885911
 20
8.7130437743
 11
-31.3761803844
 21
8.640698076
  0
LINE
  5
454
100
AcDbEntity
  8
RACCORDO
100
AcDbLine
 62
7
  6
CONTINUOUS
 10
-31.0820232521
 20
10.3730914099
 11
-31.0820232521
 21
8.790679177
  0
LWPOLYLINE
  5
455
100
AcDbEntity
  8
RACCORDO
100
AcDbPolyline
 62
250
  6
CONTINUOUS
 90
8
 70
0
 10
-31.3761803844
 20
8.640698076
 10
-31.3764702827
 20
8.5785713713
 10
-31.3767593839
 20
8.55269846
 10
-31.3771385338
 20
8.5308966762
 10
-31.3776012464
 20
8.5135389824
 10
-31.3781396061
 20
8.5009223161
 10
-31.3787444032
 20
8.4932625099
 10
-31.3794052915
 20
8.4906906001
  0
LINE
  5
456
100
AcDbEntity
  8
RACCORDO
100
AcDbLine
 62
250
  6
CONTINUOUS
 10
-31.3738799684
 20
10.5851379119
 11
-31.3743489239
 21
10.5230266379
  0
LINE
  5
457
100
AcDbEntity
  8
RACCORDO
100
AcDbLine
 62
250
  6
CONTINUOUS
 10
-31.3743489239
 20
10.5230266379
 11
-31.3753406283
 21
10.450702317
  0
LINE
  5
458
100
AcDbEntity
  8
RACCORDO
100
AcDbLine
 62
250
  6
CONTINUOUS
 10
-31.3753406283
 20
10.450702317
 11
-31.3767875302
 21
10.3730914099
  0
LWPOLYLINE
  5
459
100
AcDbEntity
  8
RACCORDO
100
AcDbPolyline
 62
250
  6
CONTINUOUS
 90
7
 70
0
 10
-41.7820234515
 20
8.6998740588
 10
-41.8351047768
 20
8.6969247427
 10
-41.8868649681
 20
8.6896444948
 10
-41.9373040256
 20
8.6780333151
 10
-41.9864219491
 20
8.6620912036
 10
-42.0342187386
 20
8.6418181604
 10
-42.0806943942
 20
8.6172141854
  0
LINE
  5
45A
100
AcDbEntity
  8
RACCORDO
100
AcDbLine
 62
7
  6
CONTINUOUS
 10
-31.3794052915
 20
8.4906906001
 11
-41.7846412128
 21
8.3998854819
  0
LINE
  5
45B
100
AcDbEntity
  8
RACCORDO
100
AcDbLine
 62
250
  6
CONTINUOUS
 10
-31.3767875302
 20
8.790679177
 11
-41.7820234515
 21
8.6998740588
  0
LINE
  5
45C
100
AcDbEntity
  8
RACCORDO
100
AcDbLine
 62
250
  6
CONTINUOUS
 10
-42.0820232521
 20
8.099896905
 11
-42.387258974
 21
8.099896905
  0
LINE
  5
45D
100
AcDbEntity
  8
RACCORDO
100
AcDbLine
 62
250
  6
CONTINUOUS
 10
-31.0820232521
 20
8.790679177
 11
-31.3767875302
 21
8.790679177
  0
LINE
  5
45E
100
AcDbEntity
  8
0
100
AcDbLine
 62
7
  6
CONTINUOUS
 10
-37.0013237414
 20
8.2805684303
 11
-36.7481498746
 21
8.1305939156
  0
LINE
  5
45F
100
AcDbEntity
  8
0
100
AcDbLine
 62
7
  6
CONTINUOUS
 10
-34.1627256401
 20
5.7027482802
 11
-34.4218347257
 21
5.856257273
  0
LINE
  5
460
100
AcDbEntity
  8
0
100
AcDbLine
 62
7
  6
CONTINUOUS
 10
-34.1627256943
 20
6.8027486021
 11
-34.4218347897
 21
6.9562576078
  0
LINE
  5
461
100
AcDbEntity
  8
0
100
AcDbLine
 62
7
  6
CONTINUOUS
 10
-34.4218347257
 20
5.856257273
 11
-34.4820232521
 21
5.8921675681
  0
LINE
  5
462
100
AcDbEntity
  8
0
100
AcDbLine
 62
7
  6
CONTINUOUS
 10
-34.4218347897
 20
6.9562576078
 11
-34.4820232521
 21
6.9921678667
  0
LINE
  5
463
100
AcDbEntity
  8
0
100
AcDbLine
 62
7
  6
CONTINUOUS
 10
-36.7481498746
 20
8.1305939156
 11
-36.6820232521
 21
8.0911455175
  0
LWPOLYLINE
  5
464
100
AcDbEntity
  8
0
100
AcDbPolyline
 62
7
  6
CONTINUOUS
 90
5
 70
0
 10
-34.1627256401
 20
5.7027482802
 10
-34.1571403139
 20
5.6992902682
 10
-34.1430791361
 20
5.6882902682
 10
-34.134696817
 20
5.6772902682
 10
-34.1320232521
 20
5.6666572693
  0
LWPOLYLINE
  5
465
100
AcDbEntity
  8
0
100
AcDbPolyline
 62
7
  6
CONTINUOUS
 90
5
 70
0
 10
-34.1627256943
 20
6.8027486021
 10
-34.1571398737
 20
6.7992902682
 10
-34.1430788536
 20
6.7882902682
 10
-34.1346966831
 20
6.7772902682
 10
-34.1320232521
 20
6.7666575255
  0
LWPOLYLINE
  5
466
100
AcDbEntity
  8
0
100
AcDbPolyline
 62
7
  6
CONTINUOUS
 90
8
 70
0
 10
-34.7356240362
 20
10.7434051416
 10
-34.7150815094
 20
10.7485078507
 10
-34.6726786274
 20
10.7599597197
 10
-34.6338983441
 20
10.7714953542
 10
-34.5990877469
 20
10.7830824787
 10
-34.5686350576
 20
10.7946476214
 10
-34.5426677286
 20
10.8061813436
 10
-34.5215752559
 20
10.8174957039
  0
LWPOLYLINE
  5
467
100
AcDbEntity
  8
0
100
AcDbPolyline
 62
7
  6
CONTINUOUS
 90
3
 70
0
 10
-34.8861506179
 20
10.8792902682
 10
-35.0510752815
 20
10.8572902682
 10
-35.1368458379
 20
10.8462902682
  0
LINE
  5
468
100
AcDbEntity
  8
0
100
AcDbLine
 62
7
  6
CONTINUOUS
 10
-34.1627256546
 20
7.9027490022
 11
-34.4218347411
 21
8.0562579974
  0
LINE
  5
469
100
AcDbEntity
  8
0
100
AcDbLine
 62
7
  6
CONTINUOUS
 10
-34.4218347411
 20
8.0562579974
 11
-34.4820232521
 21
8.0921682838
  0
LWPOLYLINE
  5
46A
100
AcDbEntity
  8
0
100
AcDbPolyline
 62
7
  6
CONTINUOUS
 90
5
 70
0
 10
-34.1627256546
 20
7.9027490022
 10
-34.1571392201
 20
7.8992902682
 10
-34.1430784116
 20
7.8882902682
 10
-34.1346964618
 20
7.8772902682
 10
-34.1320232521
 20
7.8666579722
  0
LINE
  5
46B
100
AcDbEntity
  8
0
100
AcDbLine
 62
250
  6
CONTINUOUS
 10
-35.9181591015
 20
11.7352176739
 11
-35.9721837473
 21
11.8372902682
  0
LWPOLYLINE
  5
46C
100
AcDbEntity
  8
RACCORDO
100
AcDbPolyline
 62
7
  6
CONTINUOUS
 90
4
 70
0
 10
-39.5244254139
 20
-14.6214507388
 10
-39.5108865036
 20
-14.6095946847
 10
-39.4967193623
 20
-14.5974917545
 10
-39.4673075165
 20
-14.5726832043
  0
LWPOLYLINE
  5
46D
100
AcDbEntity
  8
0
100
AcDbPolyline
 62
7
  6
CONTINUOUS
 90
8
 70
0
 10
-36.4310571222
 20
12.0393628624
 10
-36.4732348038
 20
12.0283796525
 10
-36.5120784822
 20
12.0173450435
 10
-36.5473833849
 20
12.0062590354
 10
-36.5790153026
 20
11.9950989856
 10
-36.6067147293
 20
11.9838875366
 10
-36.6301817432
 20
11.9726926161
 10
-36.6424712243
 20
11.9658199607
  0
LWPOLYLINE
  5
46E
100
AcDbEntity
  8
0
100
AcDbPolyline
 62
7
  6
CONTINUOUS
 90
12
 70
0
 10
-36.7012042627
 20
11.7372902682
 10
-36.7568836238
 20
11.7262902682
 10
-36.8079263357
 20
11.7152902682
 10
-36.854130956
 20
11.7042902682
 10
-36.8953151362
 20
11.6932902682
 10
-36.9313163412
 20
11.6822902682
 10
-36.9619924906
 20
11.6712902682
 10
-36.9872225198
 20
11.6602902682
 10
-37.0069068577
 20
11.6492902682
 10
-37.0209678194
 20
11.6382902682
 10
-37.0293499129
 20
11.6272902682
 10
-37.0320232521
 20
11.6166577241
  0
LWPOLYLINE
  5
46F
100
AcDbEntity
  8
0
100
AcDbPolyline
 62
7
  6
CONTINUOUS
 90
9
 70
0
 10
-36.7012042627
 20
11.8372902682
 10
-36.7568836238
 20
11.8262902682
 10
-36.8079263357
 20
11.8152902682
 10
-36.854130956
 20
11.8042902682
 10
-36.8953151362
 20
11.7932902682
 10
-36.9313163412
 20
11.7822902682
 10
-36.9619924906
 20
11.7712902682
 10
-36.9872225198
 20
11.7602902682
 10
-37.0013209047
 20
11.7527486887
  0
LWPOLYLINE
  5
470
100
AcDbEntity
  8
0
100
AcDbPolyline
 62
7
  6
CONTINUOUS
 90
5
 70
0
 10
-35.2859778921
 20
11.9393628557
 10
-35.3345088523
 20
11.9308568067
 10
-35.3850193436
 20
11.9223507578
 10
-35.4374039383
 20
11.9138447088
 10
-35.4915494593
 20
11.9053386598
  0
LWPOLYLINE
  5
471
100
AcDbEntity
  8
0
100
AcDbPolyline
 62
7
  6
CONTINUOUS
 90
5
 70
0
 10
-35.2859778921
 20
12.0393628624
 10
-35.3345088523
 20
12.0308568132
 10
-35.3850193437
 20
12.022350764
 10
-35.4374039383
 20
12.0138447147
 10
-35.4915494594
 20
12.0053386654
  0
LWPOLYLINE
  5
472
100
AcDbEntity
  8
0
100
AcDbPolyline
 62
7
  6
CONTINUOUS
 90
15
 70
0
 10
-36.0017909317
 20
11.0251844442
 10
-36.0669251379
 20
11.0138087687
 10
-36.1297878462
 20
11.0024743741
 10
-36.1902519159
 20
10.9911597457
 10
-36.2479985501
 20
10.9798806757
 10
-36.3028880759
 20
10.9686213718
 10
-36.3550166509
 20
10.9573129429
 10
-36.4041941026
 20
10.9459391403
 10
-36.4500922437
 20
10.9345162126
 10
-36.4925404001
 20
10.9230240138
 10
-36.531387088
 20
10.9114308537
 10
-36.5662666864
 20
10.8997684224
 10
-36.596766467
 20
10.8881116455
 10
-36.6227550151
 20
10.8764618448
 10
-36.642471114
 20
10.8658202041
  0
LINE
  5
473
100
AcDbEntity
  8
0
100
AcDbLine
 62
7
  6
CONTINUOUS
 10
-35.1638945989
 20
11.161994493
 11
-35.2994746439
 21
11.1392093326
  0
LINE
  5
474
100
AcDbEntity
  8
0
100
AcDbLine
 62
7
  6
CONTINUOUS
 10
-35.8653732054
 20
11.0481197503
 11
-36.0017909317
 21
11.0251844442
  0
LINE
  5
475
100
AcDbEntity
  8
0
100
AcDbLine
 62
7
  6
CONTINUOUS
 10
-35.5820232521
 20
11.0937305319
 11
-35.8653732054
 21
11.0481197503
  0
LINE
  5
476
100
AcDbEntity
  8
0
100
AcDbLine
 62
7
  6
CONTINUOUS
 10
-35.2994746439
 20
11.1392093326
 11
-35.5820232521
 21
11.0937305319
  0
LINE
  5
477
100
AcDbEntity
  8
0
100
AcDbLine
 62
7
  6
CONTINUOUS
 10
-35.4915494593
 20
11.9053386598
 11
-35.6046333083
 21
11.8883265619
  0
LINE
  5
478
100
AcDbEntity
  8
0
100
AcDbLine
 62
7
  6
CONTINUOUS
 10
-35.4915494594
 20
12.0053386654
 11
-35.6046333085
 21
11.9883265665
  0
LINE
  5
479
100
AcDbEntity
  8
0
100
AcDbLine
 62
7
  6
CONTINUOUS
 10
-36.5880667947
 20
11.7539569348
 11
-36.7012042627
 21
11.7372902682
  0
LINE
  5
47A
100
AcDbEntity
  8
0
100
AcDbLine
 62
7
  6
CONTINUOUS
 10
-36.5880667947
 20
11.8539569348
 11
-36.7012042627
 21
11.8372902682
  0
LINE
  5
47B
100
AcDbEntity
  8
0
100
AcDbLine
 62
7
  6
CONTINUOUS
 10
-35.6046333083
 20
11.8883265619
 11
-35.7232203431
 21
11.871314464
  0
LINE
  5
47C
100
AcDbEntity
  8
0
100
AcDbLine
 62
7
  6
CONTINUOUS
 10
-35.6046333085
 20
11.9883265665
 11
-35.7232203432
 21
11.9713144674
  0
LWPOLYLINE
  5
47D
100
AcDbEntity
  8
0
100
AcDbPolyline
 62
7
  6
CONTINUOUS
 90
4
 70
0
 10
-36.2832328508
 20
10.8032902682
 10
-36.3615413026
 20
10.7922902682
 10
-36.4367733543
 20
10.7812902682
 10
-36.4497090055
 20
10.7793101033
  0
LINE
  5
47E
100
AcDbEntity
  8
0
100
AcDbLine
 62
7
  6
CONTINUOUS
 10
-36.4696946369
 20
11.7706236015
 11
-36.5880667947
 21
11.7539569348
  0
LINE
  5
47F
100
AcDbEntity
  8
0
100
AcDbLine
 62
7
  6
CONTINUOUS
 10
-36.4696946369
 20
11.8706236015
 11
-36.5880667947
 21
11.8539569348
  0
LINE
  5
480
100
AcDbEntity
  8
0
100
AcDbLine
 62
7
  6
CONTINUOUS
 10
-35.7232203431
 20
11.871314464
 11
-35.9088635253
 21
11.8457963171
  0
LINE
  5
481
100
AcDbEntity
  8
0
100
AcDbLine
 62
7
  6
CONTINUOUS
 10
-35.7232203432
 20
11.9713144674
 11
-35.9088635253
 21
11.9457963181
  0
LINE
  5
482
100
AcDbEntity
  8
0
100
AcDbLine
 62
7
  6
CONTINUOUS
 10
-36.2229374609
 20
11.8039569348
 11
-36.4696946369
 21
11.7706236015
  0
LINE
  5
483
100
AcDbEntity
  8
0
100
AcDbLine
 62
7
  6
CONTINUOUS
 10
-36.2229374609
 20
11.9039569348
 11
-36.4696946369
 21
11.8706236015
  0
LINE
  5
484
100
AcDbEntity
  8
0
100
AcDbLine
 62
7
  6
CONTINUOUS
 10
-35.9088635253
 20
11.8457963171
 11
-36.2229374609
 21
11.8039569348
  0
LINE
  5
485
100
AcDbEntity
  8
0
100
AcDbLine
 62
7
  6
CONTINUOUS
 10
-35.9088635253
 20
11.9457963181
 11
-36.2229374609
 21
11.9039569348
  0
LINE
  5
486
100
AcDbEntity
  8
0
100
AcDbLine
 62
7
  6
CONTINUOUS
 10
-36.1186338578
 20
10.8252902682
 11
-36.2832328508
 21
10.8032902682
  0
LINE
  5
487
100
AcDbEntity
  8
0
100
AcDbLine
 62
7
  6
CONTINUOUS
 10
-34.8861506179
 20
10.9792902682
 11
-35.0510752815
 21
10.9572902682
  0
LINE
  5
488
100
AcDbEntity
  8
0
100
AcDbLine
 62
7
  6
CONTINUOUS
 10
-35.9455721975
 20
10.8472902682
 11
-36.1186338578
 21
10.8252902682
  0
LINE
  5
489
100
AcDbEntity
  8
0
100
AcDbLine
 62
7
  6
CONTINUOUS
 10
-35.0510752815
 20
10.9572902682
 11
-35.2243733045
 21
10.9352902682
  0
LINE
  5
48A
100
AcDbEntity
  8
0
100
AcDbLine
 62
7
  6
CONTINUOUS
 10
-35.1368458379
 20
10.8462902682
 11
-35.4033116746
 21
10.8132902682
  0
LINE
  5
48B
100
AcDbEntity
  8
0
100
AcDbLine
 62
7
  6
CONTINUOUS
 10
-35.4033116746
 20
10.8132902682
 11
-35.7966934337
 21
10.765631377
  0
LWPOLYLINE
  5
48C
100
AcDbEntity
  8
0
100
AcDbPolyline
 62
7
  6
CONTINUOUS
 90
3
 70
0
 10
-35.2243733045
 20
10.9352902682
 10
-35.5850684279
 20
10.8912902682
 10
-35.9455721975
 20
10.8472902682
  0
LINE
  5
48D
100
AcDbEntity
  8
RACCORDO
100
AcDbLine
 62
250
  6
CONTINUOUS
 10
-42.0820232521
 20
10.5972902403
 11
-48.0873808086
 21
10.3875785334
  0
LINE
  5
48E
100
AcDbEntity
  8
RACCORDO
100
AcDbLine
 62
7
  6
CONTINUOUS
 10
-42.0820232521
 20
10.8972902682
 11
-48.0926149357
 21
10.6873957815
  0
LINE
  5
48F
100
AcDbEntity
  8
RACCORDO
100
AcDbLine
 62
250
  6
CONTINUOUS
 10
-31.0820232521
 20
10.3730914099
 11
-31.3767875302
 21
10.3730914099
  0
LINE
  5
490
100
AcDbEntity
  8
RACCORDO
100
AcDbLine
 62
250
  6
CONTINUOUS
 10
-48.3821450867
 20
10.3875785334
 11
-48.0873808086
 21
10.3875785334
  0
LINE
  5
491
100
AcDbEntity
  8
RACCORDO
100
AcDbLine
 62
250
  6
CONTINUOUS
 10
-42.0820232521
 20
10.5973341315
 11
-31.3767875302
 21
10.3730914099
  0
LINE
  5
492
100
AcDbEntity
  8
RACCORDO
100
AcDbLine
 62
7
  6
CONTINUOUS
 10
-42.0820232521
 20
10.8972902682
 11
-31.3757405261
 21
10.673025615
  0
LINE
  5
493
100
AcDbEntity
  8
0
100
AcDbLine
 62
7
  6
CONTINUOUS
 10
-37.0013208769
 20
11.5805667406
 11
-36.7401650977
 21
11.4258386956
  0
LINE
  5
494
100
AcDbEntity
  8
0
100
AcDbLine
 62
7
  6
CONTINUOUS
 10
-36.7401650977
 20
11.4258386956
 11
-36.6820232521
 21
11.3911476714
  0
LINE
  5
495
100
AcDbEntity
  8
0
100
AcDbLine
 62
7
  6
CONTINUOUS
 10
-36.4310571222
 20
11.5352176739
 11
-36.7012042627
 21
11.7372902682
  0
LWPOLYLINE
  5
496
100
AcDbEntity
  8
RACCORDO
100
AcDbPolyline
 62
250
  6
CONTINUOUS
 90
7
 70
0
 10
-31.3757405261
 20
10.673025615
 10
-31.3751113089
 20
10.6704465164
 10
-31.3746003022
 20
10.6627819395
 10
-31.3742162456
 20
10.6501629648
 10
-31.3739657072
 20
10.6328053976
 10
-31.3738529722
 20
10.6110060962
 10
-31.3738799684
 20
10.5851379119
  0
LWPOLYLINE
  5
497
100
AcDbEntity
  8
RACCORDO
100
AcDbPolyline
 62
7
  6
CONTINUOUS
 90
14
 70
0
 10
-39.4673075165
 20
-14.5726832043
 10
-39.4522493701
 20
-14.5603685763
 10
-39.4370712031
 20
-14.5482696708
 10
-39.4219102919
 20
-14.5363838506
 10
-39.4067632461
 20
-14.5251631658
 10
-39.3917925136
 20
-14.5146050045
 10
-39.37700498
 20
-14.5047119786
 10
-39.362120631
 20
-14.4959439733
 10
-39.347106416
 20
-14.4881906613
 10
-39.3320872348
 20
-14.4815623698
 10
-39.3169938659
 20
-14.4768499661
 10
-39.3018285675
 20
-14.4743170726
 10
-39.2866687045
 20
-14.4737000669
 10
-39.2715534031
 20
-14.4749989489
  0
LWPOLYLINE
  5
498
100
AcDbEntity
  8
RACCORDO
100
AcDbPolyline
 62
7
  6
CONTINUOUS
 90
7
 70
0
 10
-39.5818303674
 20
-14.6692590961
 10
-39.5795929283
 20
-14.6676950605
 10
-39.5750002762
 20
-14.6642989024
 10
-39.5682538254
 20
-14.659070622
 10
-39.5595153463
 20
-14.6517040939
 10
-39.5490265031
 20
-14.6425054433
 10
-39.5244254139
 20
-14.6214507388
  0
LINE
  5
499
100
AcDbEntity
  8
0
100
AcDbLine
 62
7
  6
CONTINUOUS
 10
-35.2859778921
 20
12.0393628624
 11
-36.4310571222
 21
12.0393628624
  0
LINE
  5
49A
100
AcDbEntity
  8
0
100
AcDbLine
 62
7
  6
CONTINUOUS
 10
-34.4820232521
 20
12.0972902682
 11
-36.6820232521
 21
12.0972902682
  0
LINE
  5
49B
100
AcDbEntity
  8
0
100
AcDbLine
 62
7
  6
CONTINUOUS
 10
-34.2820232521
 20
12.212760322
 11
-36.8820232521
 21
12.212760322
  0
LINE
  5
49C
100
AcDbEntity
  8
RACCORDO
100
AcDbLine
 62
250
  6
CONTINUOUS
 10
-34.2820232521
 20
12.4972902682
 11
-36.8820232521
 21
12.4972902682
  0
LINE
  5
49D
100
AcDbEntity
  8
0
100
AcDbLine
 62
7
  6
CONTINUOUS
 10
-38.1820232521
 20
12.5972902682
 11
-32.9820232521
 21
12.5972902682
  0
LINE
  5
49E
100
AcDbEntity
  8
0
100
AcDbLine
 62
7
  6
CONTINUOUS
 10
-36.8820232521
 20
12.212760322
 11
-36.6820232521
 21
12.0972902682
  0
LINE
  5
49F
100
AcDbEntity
  8
0
100
AcDbLine
 62
7
  6
CONTINUOUS
 10
-34.1627256546
 20
11.2027490022
 11
-34.4218347411
 21
11.3562579974
  0
LINE
  5
4A0
100
AcDbEntity
  8
0
100
AcDbLine
 62
7
  6
CONTINUOUS
 10
-34.4218347411
 20
11.3562579974
 11
-34.4820232521
 21
11.3921682838
  0
LWPOLYLINE
  5
4A1
100
AcDbEntity
  8
0
100
AcDbPolyline
 62
7
  6
CONTINUOUS
 90
5
 70
0
 10
-34.1627256546
 20
11.2027490022
 10
-34.1571392201
 20
11.1992902682
 10
-34.1430784116
 20
11.1882902682
 10
-34.1346964618
 20
11.1772902682
 10
-34.1320232521
 20
11.1666579722
  0
LWPOLYLINE
  5
4A2
100
AcDbEntity
  8
0
100
AcDbPolyline
 62
7
  6
CONTINUOUS
 90
7
 70
0
 10
-35.8101374152
 20
14.611881955
 10
-35.8163319089
 20
14.6192024949
 10
-35.8225246555
 20
14.6263626917
 10
-35.8287156423
 20
14.6333625468
 10
-35.8349048564
 20
14.6402020615
 10
-35.841092285
 20
14.646881237
 10
-35.8472779153
 20
14.6534000746
  0
LINE
  5
4A3
100
AcDbEntity
  8
0
100
AcDbLine
 62
7
  6
CONTINUOUS
 10
-35.31655214
 20
14.6534621758
 11
-35.3027502988
 21
14.657362634
  0
LWPOLYLINE
  5
4A4
100
AcDbEntity
  8
0
100
AcDbPolyline
 62
7
  6
CONTINUOUS
 90
7
 70
0
 10
-36.9115645969
 20
14.611881955
 10
-36.8834698148
 20
14.6192511535
 10
-36.8553538405
 20
14.6264446873
 10
-36.8272166739
 20
14.6334625565
 10
-36.7990583151
 20
14.6403047609
 10
-36.770878764
 20
14.6469713007
 10
-36.7426780208
 20
14.6534621758
  0
LINE
  5
4A5
100
AcDbEntity
  8
0
100
AcDbLine
 62
7
  6
CONTINUOUS
 10
-36.7426780208
 20
14.6534621758
 11
-36.6874076027
 21
14.6644473417
  0
LINE
  5
4A6
100
AcDbEntity
  8
0
100
AcDbLine
 62
250
  6
CONTINUOUS
 10
-38.3820232521
 20
12.7972902682
 11
-32.7820232521
 21
12.7972902682
  0
LINE
  5
4A7
100
AcDbEntity
  8
0
100
AcDbLine
 62
250
  6
CONTINUOUS
 10
-38.3820232521
 20
13.8321384692
 11
-32.7820232521
 21
13.8321384692
  0
LWPOLYLINE
  5
4A8
100
AcDbEntity
  8
0
100
AcDbPolyline
 62
7
  6
CONTINUOUS
 90
31
 70
0
 10
-35.0072894879
 20
14.7307841828
 10
-35.0153425158
 20
14.7298026592
 10
-35.0234164269
 20
14.7287614472
 10
-35.0315100902
 20
14.7276593542
 10
-35.0396236469
 20
14.7264932767
 10
-35.0477558354
 20
14.7252637229
 10
-35.0559002304
 20
14.723974972
 10
-35.0640420799
 20
14.7226272663
 10
-35.0721868864
 20
14.7212177897
 10
-35.0803564523
 20
14.7197463373
 10
-35.0885314645
 20
14.7182169465
 10
-35.0967228025
 20
14.7166228756
 10
-35.1050103004
 20
14.7149472648
 10
-35.1134149424
 20
14.713190587
 10
-35.1219323305
 20
14.7113483547
 10
-35.1306284053
 20
14.7093949565
 10
-35.1395421079
 20
14.7073286809
 10
-35.1486769921
 20
14.7051450746
 10
-35.1580701006
 20
14.7028124652
 10
-35.1677707375
 20
14.7003276653
 10
-35.1777963878
 20
14.6976846032
 10
-35.1881587546
 20
14.6948446143
 10
-35.1989159644
 20
14.6918031531
 10
-35.2101004083
 20
14.6885510907
 10
-35.221707232
 20
14.6850391663
 10
-35.2338093666
 20
14.6812590426
 10
-35.2464504075
 20
14.6771988615
 10
-35.2596028798
 20
14.6727989529
 10
-35.2733084732
 20
14.6680285376
 10
-35.2876673577
 20
14.6628884235
 10
-35.3027502988
 20
14.657362634
  0
LWPOLYLINE
  5
4A9
100
AcDbEntity
  8
0
100
AcDbPolyline
 62
7
  6
CONTINUOUS
 90
15
 70
0
 10
-36.1567569039
 20
14.730784198
 10
-36.1952089967
 20
14.7283423295
 10
-36.2335410768
 20
14.7255633861
 10
-36.2718675496
 20
14.7224302852
 10
-36.3104407596
 20
14.7189010669
 10
-36.3492065134
 20
14.7149770988
 10
-36.387793313
 20
14.7107087337
 10
-36.4262350776
 20
14.7060755794
 10
-36.4646399786
 20
14.7010600162
 10
-36.5027127196
 20
14.6957265712
 10
-36.5404957326
 20
14.6900589163
 10
-36.5780496118
 20
14.6840438672
 10
-36.6150671398
 20
14.6777640533
 10
-36.6514649713
 20
14.6712451316
 10
-36.6874076027
 20
14.6644473417
  0
LINE
  5
4AA
100
AcDbEntity
  8
0
100
AcDbLine
 62
250
  6
CONTINUOUS
 10
-38.2903565782
 20
14.0002571482
 11
-32.8736899261
 21
14.0002571482
  0
LINE
  5
4AB
100
AcDbEntity
  8
0
100
AcDbLine
 62
7
  6
CONTINUOUS
 10
-36.9309883698
 20
14.611881955
 11
-36.9115645969
 21
14.611881955
  0
LINE
  5
4AC
100
AcDbEntity
  8
0
100
AcDbLine
 62
7
  6
CONTINUOUS
 10
-35.8101374152
 20
14.611881955
 11
-35.353929628
 21
14.611881955
  0
LINE
  5
4AD
100
AcDbEntity
  8
0
100
AcDbLine
 62
7
  6
CONTINUOUS
 10
-34.252485431
 20
14.611881955
 11
-34.2330581344
 21
14.611881955
  0
LWPOLYLINE
  5
4AE
100
AcDbEntity
  8
0
100
AcDbPolyline
 62
7
  6
CONTINUOUS
 90
25
 70
0
 10
-35.8612962551
 20
14.6573626527
 10
-35.8725218255
 20
14.6615475309
 10
-35.8837772234
 20
14.6656164582
 10
-35.895042975
 20
14.6695718011
 10
-35.9062883667
 20
14.6734201074
 10
-35.9175057125
 20
14.6771593541
 10
-35.9287119338
 20
14.6807795788
 10
-35.9398729029
 20
14.6842789732
 10
-35.9509912873
 20
14.6876650611
 10
-35.9621350978
 20
14.6909422991
 10
-35.9732321243
 20
14.6941061721
 10
-35.9843155517
 20
14.6971665523
 10
-35.9955813261
 20
14.70014831
 10
-36.0069274781
 20
14.7030540726
 10
-36.0183664875
 20
14.7058840959
 10
-36.0302036937
 20
14.7086578124
 10
-36.04228958
 20
14.7113832569
 10
-36.0546007667
 20
14.7140533653
 10
-36.0675462823
 20
14.7166642974
 10
-36.0809058047
 20
14.7192290536
 10
-36.0946126903
 20
14.721735855
 10
-36.1092042258
 20
14.7241458667
 10
-36.1246933394
 20
14.726448798
 10
-36.1406222475
 20
14.728660716
 10
-36.1567569039
 20
14.730784198
  0
LWPOLYLINE
  5
4AF
100
AcDbEntity
  8
0
100
AcDbPolyline
 62
7
  6
CONTINUOUS
 90
3
 70
0
 43
0.3500000006
 10
-38.9023367157
 20
25.7640472412
 10
-39.2742121124
 20
26.3473837738
 10
-39.2742121124
 20
26.6390497742
  0
LWPOLYLINE
  5
4B0
100
AcDbEntity
  8
0
100
AcDbPolyline
 62
7
  6
CONTINUOUS
 90
16
 70
0
 10
-34.4210592066
 20
14.6534000743
 10
-34.4769317565
 20
14.6645031701
 10
-34.5130987652
 20
14.6713396187
 10
-34.5496505271
 20
14.6778812258
 10
-34.5867344869
 20
14.6841658311
 10
-34.6242810502
 20
14.6901721129
 10
-34.6620274574
 20
14.6958272186
 10
-34.700038442
 20
14.7011458448
 10
-34.7383504511
 20
14.7061433544
 10
-34.7766976105
 20
14.7107601166
 10
-34.8151932375
 20
14.7150147011
 10
-34.8538651684
 20
14.7189262654
 10
-34.8923549305
 20
14.7224455811
 10
-34.9306127462
 20
14.7255714929
 10
-34.9688862751
 20
14.7283453789
 10
-35.0072894879
 20
14.7307841828
  0
LWPOLYLINE
  5
4B1
100
AcDbEntity
  8
0
100
AcDbPolyline
 62
7
  6
CONTINUOUS
 90
7
 70
0
 10
-34.252485431
 20
14.611881955
 10
-34.2803807984
 20
14.6192024944
 10
-34.3083562674
 20
14.6263626909
 10
-34.3364118402
 20
14.6333625459
 10
-34.3645475194
 20
14.6402020606
 10
-34.3927633074
 20
14.6468812363
 10
-34.4210592066
 20
14.6534000743
  0
LINE
  5
4B2
100
AcDbEntity
  8
0
100
AcDbLine
 62
7
  6
CONTINUOUS
 10
-35.8472779153
 20
14.6534000746
 11
-35.8612962551
 21
14.6573626527
  0
LWPOLYLINE
  5
4B3
100
AcDbEntity
  8
0
100
AcDbPolyline
 62
7
  6
CONTINUOUS
 90
4
 70
0
 43
0.3500000006
 10
-37.7867105255
 20
27.2223817749
 10
-37.4148351288
 20
26.6390497742
 10
-37.4148351288
 20
26.3473837738
 10
-37.7867105255
 20
25.7640472412
  0
LWPOLYLINE
  5
4B4
100
AcDbEntity
  8
0
100
AcDbPolyline
 62
7
  6
CONTINUOUS
 90
2
 70
0
 43
0.3500000006
 10
-38.530461319
 20
25.4723812408
 10
-38.9023367157
 20
25.7640472412
  0
LWPOLYLINE
  5
4B5
100
AcDbEntity
  8
0
100
AcDbPolyline
 62
7
  6
CONTINUOUS
 90
12
 70
0
 43
0.3500000006
 10
-38.530461319
 20
27.5140477753
 10
-38.9023367157
 20
27.8057137756
 10
-39.0882744141
 20
28.097379776
 10
-39.0882744141
 20
28.3890503082
 10
-38.9023367157
 20
28.6807163086
 10
-38.530461319
 20
28.972382309
 10
-38.1585859222
 20
28.972382309
 10
-37.7867105255
 20
28.6807163086
 10
-37.6007728271
 20
28.3890503082
 10
-37.6007728271
 20
28.097379776
 10
-37.7867105255
 20
27.8057137756
 10
-38.1585859222
 20
27.5140477753
  0
ARC
  5
4B6
100
AcDbEntity
  8
0
100
AcDbCircle
 62
7
  6
CONTINUOUS
 10
11.8425236052
 20
9.7972902682
 40
5.0
100
AcDbArc
 50
105.6519509214
 51
122.7971682958
  0
ARC
  5
4B7
100
AcDbEntity
  8
0
100
AcDbCircle
 62
7
  6
CONTINUOUS
 10
11.8425236052
 20
9.7972902682
 40
5.0
100
AcDbArc
 50
57.2028317042
 51
74.3480490786
  0
ARC
  5
4B8
100
AcDbEntity
  8
0
100
AcDbCircle
 62
7
  6
CONTINUOUS
 10
14.4425236052
 20
13.8321384685
 40
0.2
100
AcDbArc
 50
0.0
 51
57.202831705
  0
ARC
  5
4B9
100
AcDbEntity
  8
0
100
AcDbCircle
 62
7
  6
CONTINUOUS
 10
9.2425236052
 20
13.8321384685
 40
0.2
100
AcDbArc
 50
122.797168295
 51
180.0
  0
ARC
  5
4BA
100
AcDbEntity
  8
0
100
AcDbCircle
 62
7
  6
CONTINUOUS
 10
14.4425236052
 20
12.7972902682
 40
0.2
100
AcDbArc
 50
270.0
 51
360.0
  0
ARC
  5
4BB
100
AcDbEntity
  8
0
100
AcDbCircle
 62
7
  6
CONTINUOUS
 10
9.2425236052
 20
12.7972902682
 40
0.2
100
AcDbArc
 50
180.0
 51
270.0
  0
ARC
  5
4BC
100
AcDbEntity
  8
RACCORDO
100
AcDbCircle
 62
7
  6
CONTINUOUS
 10
13.2425236052
 20
12.4972902682
 40
0.1
100
AcDbArc
 50
90.0
 51
180.0
  0
ARC
  5
4BD
100
AcDbEntity
  8
RACCORDO
100
AcDbCircle
 62
7
  6
CONTINUOUS
 10
10.4425236052
 20
12.4972902682
 40
0.1
100
AcDbArc
 50
0.0
 51
90.0
  0
ARC
  5
4BE
100
AcDbEntity
  8
RACCORDO
100
AcDbCircle
 62
7
  6
CONTINUOUS
 10
-48.0820232521
 20
-2.219006036
 40
0.5
100
AcDbArc
 50
158.1985905136
 51
180.0
  0
ARC
  5
4BF
100
AcDbEntity
  8
RACCORDO
100
AcDbCircle
 62
7
  6
CONTINUOUS
 10
-48.8821450867
 20
-1.5267282189
 40
0.5
100
AcDbArc
 50
338.1985905136
 51
360.0
  0
ARC
  5
4C0
100
AcDbEntity
  8
RACCORDO
100
AcDbCircle
 62
7
  6
CONTINUOUS
 10
-41.7820232521
 20
-11.1722262379
 40
0.3
100
AcDbArc
 50
180.0
 51
255.0685828219
  0
ARC
  5
4C1
100
AcDbEntity
  8
RACCORDO
100
AcDbCircle
 62
7
  6
CONTINUOUS
 10
-48.2820232521
 20
-14.1375737847
 40
0.3
100
AcDbArc
 50
180.0
 51
268.4752786065
  0
ARC
  5
4C2
100
AcDbEntity
  8
RACCORDO
100
AcDbCircle
 62
7
  6
CONTINUOUS
 10
-41.7820232521
 20
8.099896905
 40
0.3
100
AcDbArc
 50
90.5
 51
180.0
  0
ARC
  5
4C3
100
AcDbEntity
  8
RACCORDO
100
AcDbCircle
 62
7
  6
CONTINUOUS
 10
-48.0821450867
 20
10.3875785334
 40
0.3
100
AcDbArc
 50
92.0
 51
180.0
  0
ARC
  5
4C4
100
AcDbEntity
  8
RACCORDO
100
AcDbCircle
 62
7
  6
CONTINUOUS
 10
-37.8820232521
 20
-16.2729904231
 40
0.3
100
AcDbArc
 50
271.0
 51
360.0
  0
ARC
  5
4C5
100
AcDbEntity
  8
RACCORDO
100
AcDbCircle
 62
7
  6
CONTINUOUS
 10
-37.8820232521
 20
-12.8331932258
 40
0.3
100
AcDbArc
 50
0.0
 51
75.0685828219
  0
ARC
  5
4C6
100
AcDbEntity
  8
RACCORDO
100
AcDbCircle
 62
7
  6
CONTINUOUS
 10
-39.2820232521
 20
-16.297427514
 40
0.3
100
AcDbArc
 50
180.0
 51
271.0
  0
ARC
  5
4C7
100
AcDbEntity
  8
0
100
AcDbCircle
 62
7
  6
CONTINUOUS
 10
-35.5820232521
 20
9.7972902682
 40
5.0
100
AcDbArc
 50
57.2028317042
 51
74.3480490786
  0
ARC
  5
4C8
100
AcDbEntity
  8
0
100
AcDbCircle
 62
7
  6
CONTINUOUS
 10
-35.5820232521
 20
9.7972902682
 40
5.0
100
AcDbArc
 50
105.6519509214
 51
122.7971682958
  0
ARC
  5
4C9
100
AcDbEntity
  8
RACCORDO
100
AcDbCircle
 62
7
  6
CONTINUOUS
 10
-31.3820232521
 20
8.790679177
 40
0.3
100
AcDbArc
 50
270.5
 51
360.0
  0
ARC
  5
4CA
100
AcDbEntity
  8
RACCORDO
100
AcDbCircle
 62
7
  6
CONTINUOUS
 10
-31.3820232521
 20
10.3730914099
 40
0.3
100
AcDbArc
 50
0.0
 51
88.8
  0
ARC
  5
4CB
100
AcDbEntity
  8
0
100
AcDbCircle
 62
7
  6
CONTINUOUS
 10
-38.1820232521
 20
12.7972902682
 40
0.2
100
AcDbArc
 50
180.0
 51
270.0
  0
ARC
  5
4CC
100
AcDbEntity
  8
0
100
AcDbCircle
 62
7
  6
CONTINUOUS
 10
-32.9820232521
 20
12.7972902682
 40
0.2
100
AcDbArc
 50
270.0
 51
360.0
  0
ARC
  5
4CD
100
AcDbEntity
  8
0
100
AcDbCircle
 62
7
  6
CONTINUOUS
 10
-38.1820232521
 20
13.8321384685
 40
0.2
100
AcDbArc
 50
122.7971682958
 51
180.0
  0
ARC
  5
4CE
100
AcDbEntity
  8
0
100
AcDbCircle
 62
7
  6
CONTINUOUS
 10
-32.9820232521
 20
13.8321384685
 40
0.2
100
AcDbArc
 50
0.0
 51
57.2028317042
  0
ARC
  5
4CF
100
AcDbEntity
  8
RACCORDO
100
AcDbCircle
 62
7
  6
CONTINUOUS
 10
-34.1820232521
 20
12.4972902682
 40
0.1
100
AcDbArc
 50
90.0
 51
180.0
  0
ARC
  5
4D0
100
AcDbEntity
  8
RACCORDO
100
AcDbCircle
 62
7
  6
CONTINUOUS
 10
-36.9820232521
 20
12.4972902682
 40
0.1
100
AcDbArc
 50
0.0
 51
90.0
  0
ELLIPSE
  5
4D1
100
AcDbEntity
  8
RACCORDO
100
AcDbEllipse
 62
7
  6
CONTINUOUS
 10
14.6861104848
 20
-14.521632608
 30
0.0
 11
0.1198979374
 21
0.3315403603
 31
0.0
 40
0.4830179333
 41
-1.258856185
 42
-0.9281230771
  0
ELLIPSE
  5
4D2
100
AcDbEntity
  8
RACCORDO
100
AcDbEllipse
 62
7
  6
CONTINUOUS
 10
-15.0010632744
 20
-14.521632608
 30
0.0
 11
-0.1198979374
 21
0.3315403603
 31
0.0
 40
0.4830179333
 41
0.9281230771
 42
1.258856185
  0
ELLIPSE
  5
4D3
100
AcDbEntity
  8
RACCORDO
100
AcDbEllipse
 62
7
  6
CONTINUOUS
 10
-13.8814530542
 20
-14.6772392696
 30
0.0
 11
0.3
 21
-0.0
 31
0.0
 40
0.026617692
 41
1.5538074126
 42
1.5707963268
  0
ELLIPSE
  5
4D4
100
AcDbEntity
  8
RACCORDO
100
AcDbEllipse
 62
7
  6
CONTINUOUS
 10
-14.890454963
 20
-14.6772392696
 30
0.0
 11
0.3
 21
0.0
 31
0.0
 40
0.026617692
 41
1.5707963268
 42
1.6066576703
  0
ELLIPSE
  5
4D5
100
AcDbEntity
  8
RACCORDO
100
AcDbEllipse
 62
7
  6
CONTINUOUS
 10
14.5755021734
 20
-14.6772392696
 30
0.0
 11
0.3
 21
0.0
 31
0.0
 40
0.026617692
 41
1.5349349833
 42
1.5707963268
  0
ELLIPSE
  5
4D6
100
AcDbEntity
  8
RACCORDO
100
AcDbEllipse
 62
7
  6
CONTINUOUS
 10
13.5665002646
 20
-14.6772392696
 30
0.0
 11
0.3
 21
0.0
 31
0.0
 40
0.026617692
 41
1.5707963268
 42
1.587785241
  0
ELLIPSE
  5
4D7
100
AcDbEntity
  8
RACCORDO
100
AcDbEllipse
 62
7
  6
CONTINUOUS
 10
-33.8533183687
 20
-14.521632608
 30
0.0
 11
5.7286993015
 21
-0.1527643305
 31
0.0
 40
0.0523492762
 41
-3.1401966828
 42
-2.8094635749
  0
ENDSEC
  0
SECTION
  2
OBJECTS
  0
DICTIONARY
  5
C
100
AcDbDictionary
280
0
281
1
  3
ACAD_GROUP
350
D
  3
ACAD_MLINESTYLE
350
17
  3
ACAD_LAYOUT
350
1A
  3
ACAD_PLOTSETTINGS
350
19
  3
ACAD_PLOTSTYLENAME
350
E
  0
DICTIONARY
  5
D
102
{ACAD_REACTORS
330
C
102
}
100
AcDbDictionary
280
0
281
1
  0
ACDBDICTIONARYWDFLT
  5
E
102
{ACAD_REACTORS
330
C
102
}
100
AcDbDictionary
281
1
  3
Normal
350
F
100
AcDbDictionaryWithDefault
340
F
  0
DICTIONARY
  5
17
102
{ACAD_REACTORS
330
C
102
}
100
AcDbDictionary
280
0
281
1
  3
Standard
350
18
  0
DICTIONARY
  5
19
102
{ACAD_REACTORS
330
C
102
}
100
AcDbDictionary
281
1
  0
DICTIONARY
  5
1A
102
{ACAD_REACTORS
330
C
102
}
100
AcDbDictionary
281
1
  3
Model
350
4D8
  3
Layout1
350
4D9
  0
ACDBPLACEHOLDER
  5
F
102
{ACAD_REACTORS
330
E
102
}
  0
MLINESTYLE
  5
18
102
{ACAD_REACTORS
330
17
102
}
100
AcDbMlineStyle
  2
STANDARD
 70
0
  3

 62
256
 51
90.0
 52
90.0
 71
2
 49
0.5
 62
256
  6
BYLAYER
 49
-0.5
 62
256
  6
BYLAYER
  0
LAYOUT
  5
4D8
102
{ACAD_REACTORS
330
1A
102
}
100
AcDbPlotSettings
  1

  2
none_device
  4
ISO_A4_(297.00_x_210.00_MM)
  6

 40
0.0
 41
0.0
 42
0.0
 43
0.0
 44
297.0
 45
210.0
 46
0.0
 47
0.0
 48
0.0
 49
0.0
140
0.0
141
0.0
142
1.0
143
1.0
 70
1024
 72
1
 73
0
 74
0
  7

 75
0
147
1.0
148
0.0
149
0.0
100
AcDbLayout
  1
Model
 70
0
 71
0
 10
0.0
 20
0.0
 11
297.0
 21
210.0
 12
0.0
 22
0.0
 32
0.0
 14
0.0
 24
0.0
 34
0.0
 15
0.0
 25
0.0
 35
0.0
146
0.0
 13
0.0
 23
0.0
 33
0.0
 16
1.0
 26
0.0
 36
0.0
 17
0.0
 27
1.0
 37
0.0
 76
0
330
213
345
0
346
0
  0
LAYOUT
  5
4D9
102
{ACAD_REACTORS
330
1A
102
}
100
AcDbPlotSettings
  1

  2
none_device
  4
ISO_A4_(297.00_x_210.00_MM)
  6

 40
0.0
 41
0.0
 42
0.0
 43
0.0
 44
297.0
 45
210.0
 46
0.0
 47
0.0
 48
0.0
 49
0.0
140
0.0
141
0.0
142
1.0
143
1.0
 70
0
 72
1
 73
0
 74
0
  7

 75
0
147
1.0
148
0.0
149
0.0
100
AcDbLayout
  1
Layout1
 70
0
 71
1
 10
0.0
 20
0.0
 11
297.0
 21
210.0
 12
0.0
 22
0.0
 32
0.0
 14
0.0
 24
0.0
 34
0.0
 15
0.0
 25
0.0
 35
0.0
146
0.0
 13
0.0
 23
0.0
 33
0.0
 16
1.0
 26
0.0
 36
0.0
 17
0.0
 27
1.0
 37
0.0
 76
0
330
214
345
0
346
0
  0
ENDSEC
  0
EOF
