  0
SECTION
  2
HEADER
  9
$ACADVER
  1
AC1024
  9
$DWGCODEPAGE
  3
ANSI_1252
  9
$EXTMAX
 10
558.8
 20
431.8
 30
0.0
  9
$EXTMIN
 10
0.0
 20
0.0
 30
0.0
  9
$LIMMIN
 10
0.0
 20
0.0
  9
$LIMMAX
 10
558.8
 20
431.8
  9
$VIEWCTR
 10
279.4
 20
215.9
  9
$VIEWSIZE
 40
431.8
  9
$CLAYER
  8
0
  9
$LTSCALE
 40
30.734
  9
$CELTYPE
  6
BYLAYER
  9
$DIMSCALE
 40
1.0
  9
$DIMASZ
 40
3.0
  9
$DIMEXO
 40
0.5
  9
$DIMDLI
 40
21.2344
  9
$DIMEXE
 40
1.5
  9
$DIMCEN
 40
5.0292
  9
$DIMLFAC
 40
1.0
  9
$DIMBLK
  1
_FILLED
  9
$DIMALT
 70
0
  9
$DIMALTF
 40
0.0393700787
  9
$DIMTXT
 40
3.0
  9
$DIMTOL
 70
1
  9
$DIMLIM
 70
0
  9
$DIMTFAC
 40
1.0
  9
$DIMTP
 40
0.01
  9
$DIMTM
 40
0.01
  9
$DIMGAP
 40
0.625
  9
$DIMDSEP
 70
44
  9
$AUNITS
 70
0
  9
$PDMODE
 70
3
  9
$PDSIZE
 40
3.0
  9
$HANDSEED
  5
6EE
  9
$TILEMODE
 70
1
  9
$MEASUREMENT
 70
1
  9
$INSUNITS
 70
4
  0
ENDSEC
  0
SECTION
  2
CLASSES
  0
CLASS
  1
ACDBDICTIONARYWDFLT
  2
AcDbDictionaryWithDefault
  3
AutoCAD 2000
 90
0
 91
1
280
0
281
0
  0
CLASS
  1
ACDBPLACEHOLDER
  2
AcDbPlaceHolder
  3
AutoCAD 2000
 90
0
 91
1
280
0
281
0
  0
CLASS
  1
LAYOUT
  2
AcDbLayout
  3
AutoCAD 2000
 90
0
 91
0
280
0
281
0
  0
ENDSEC
  0
SECTION
  2
TABLES
  0
TABLE
  2
VPORT
  5
8
100
AcDbSymbolTable
 70
2
  0
VPORT
  5
1F4
100
AcDbSymbolTableRecord
100
AcDbViewportTableRecord
  2
*ACTIVE
 70
0
 10
0.0
 20
0.0
 11
1.0
 21
1.0
 12
279.4
 22
215.9
 13
0.0
 23
0.0
 14
1.0
 24
1.0
 15
0.0
 25
0.0
 16
0.0
 26
0.0
 36
1.0
 17
0.0
 27
0.0
 37
0.0
 40
431.8
 41
1.2941176471
 42
50.0
 43
0.0
 44
0.0
 50
0.0
 51
0.0
 71
0
 72
100
 73
1
 74
1
 75
0
 76
0
 77
0
 78
0
  0
ENDTAB
  0
TABLE
  2
LTYPE
  5
5
100
AcDbSymbolTable
 70
6
  0
LTYPE
  5
14
100
AcDbSymbolTableRecord
100
AcDbLinetypeTableRecord
  2
BYBLOCK
 70
0
  3

 72
65
 73
0
 40
0.0
  0
LTYPE
  5
15
100
AcDbSymbolTableRecord
100
AcDbLinetypeTableRecord
  2
BYLAYER
 70
0
  3

 72
65
 73
0
 40
0.0
  0
LTYPE
  5
16
100
AcDbSymbolTableRecord
100
AcDbLinetypeTableRecord
  2
CONTINUOUS
 70
64
  3
Solid line
 72
65
 73
0
 40
0.0
  0
LTYPE
  5
1F5
100
AcDbSymbolTableRecord
100
AcDbLinetypeTableRecord
  2
CENTER
 70
64
  3
____ _ ____ _ ____ _ ____ _ ____ _ ____ _ ____
 72
65
 73
4
 40
0.6
 49
0.375
 74
0
 49
-0.075
 74
0
 49
0.075
 74
0
 49
-0.075
 74
0
  0
LTYPE
  5
1F6
100
AcDbSymbolTableRecord
100
AcDbLinetypeTableRecord
  2
HIDDEN
 70
64
  3
- - - - - - - - - - - - - - - - - - - -
 72
65
 73
2
 40
0.2
 49
0.1
 74
0
 49
-0.1
 74
0
  0
LTYPE
  5
1F7
100
AcDbSymbolTableRecord
100
AcDbLinetypeTableRecord
  2
PHANTOM
 70
64
  3
_____ _ _ _____ _ _ _____ _ _ _____
 72
65
 73
6
 40
0.8
 49
0.45
 74
0
 49
-0.05
 74
0
 49
0.1
 74
0
 49
-0.05
 74
0
 49
0.1
 74
0
 49
-0.05
 74
0
  0
LTYPE
  5
1F8
100
AcDbSymbolTableRecord
100
AcDbLinetypeTableRecord
  2
DOT
 70
64
  3
. . . . . . . . . . . . . . . . . . . .
 72
65
 73
2
 40
0.2
 49
0.1
 74
0
 49
-0.1
 74
0
  0
LTYPE
  5
1F9
100
AcDbSymbolTableRecord
100
AcDbLinetypeTableRecord
  2
DASHED
 70
64
  3
- - - - - - - - - - - - - - - - - - - -
 72
65
 73
2
 40
0.2
 49
0.1
 74
0
 49
-0.1
 74
0
  0
ENDTAB
  0
TABLE
  2
LAYER
  5
2
100
AcDbSymbolTable
 70
36
  0
LAYER
  5
10
100
AcDbSymbolTableRecord
100
AcDbLayerTableRecord
  2
0
 70
0
 62
7
  6
CONTINUOUS
370
-3
390
F
  0
LAYER
  5
1FA
100
AcDbSymbolTableRecord
100
AcDbLayerTableRecord
  2
DEFAULT_1
 70
0
 62
7
  6
CENTER
370
-3
390
F
  0
LAYER
  5
1FB
100
AcDbSymbolTableRecord
100
AcDbLayerTableRecord
  2
DEFAULT_2
 70
0
 62
7
  6
HIDDEN
370
-3
390
F
  0
LAYER
  5
1FC
100
AcDbSymbolTableRecord
100
AcDbLayerTableRecord
  2
DEFAULT_3
 70
0
 62
7
  6
PHANTOM
370
-3
390
F
  0
LAYER
  5
1FD
100
AcDbSymbolTableRecord
100
AcDbLayerTableRecord
  2
ASSI
 70
0
 62
7
  6
CONTINUOUS
370
-3
390
F
  0
LAYER
  5
1FE
100
AcDbSymbolTableRecord
100
AcDbLayerTableRecord
  2
COLOR5
 70
0
 62
7
  6
CONTINUOUS
370
-3
390
F
  0
LAYER
  5
1FF
100
AcDbSymbolTableRecord
100
AcDbLayerTableRecord
  2
COORDINATE
 70
0
 62
7
  6
CONTINUOUS
370
-3
390
F
  0
LAYER
  5
200
100
AcDbSymbolTableRecord
100
AcDbLayerTableRecord
  2
COORD_ORIGINE
 70
0
 62
7
  6
CONTINUOUS
370
-3
390
F
  0
LAYER
  5
201
100
AcDbSymbolTableRecord
100
AcDbLayerTableRecord
  2
COPY_PUBLISH
 70
0
 62
7
  6
CONTINUOUS
370
-3
390
F
  0
LAYER
  5
202
100
AcDbSymbolTableRecord
100
AcDbLayerTableRecord
  2
COSMETICI
 70
0
 62
7
  6
CONTINUOUS
370
-3
390
F
  0
LAYER
  5
203
100
AcDbSymbolTableRecord
100
AcDbLayerTableRecord
  2
CURVE
 70
0
 62
7
  6
CONTINUOUS
370
-3
390
F
  0
LAYER
  5
204
100
AcDbSymbolTableRecord
100
AcDbLayerTableRecord
  2
DRAFT
 70
0
 62
7
  6
CONTINUOUS
370
-3
390
F
  0
LAYER
  5
205
100
AcDbSymbolTableRecord
100
AcDbLayerTableRecord
  2
IMPORT_IGES
 70
0
 62
7
  6
CONTINUOUS
370
-3
390
F
  0
LAYER
  5
206
100
AcDbSymbolTableRecord
100
AcDbLayerTableRecord
  2
NOTE
 70
0
 62
7
  6
CONTINUOUS
370
-3
390
F
  0
LAYER
  5
207
100
AcDbSymbolTableRecord
100
AcDbLayerTableRecord
  2
PIANI
 70
0
 62
7
  6
CONTINUOUS
370
-3
390
F
  0
LAYER
  5
208
100
AcDbSymbolTableRecord
100
AcDbLayerTableRecord
  2
PIANI_ORIGINE
 70
0
 62
7
  6
CONTINUOUS
370
-3
390
F
  0
LAYER
  5
209
100
AcDbSymbolTableRecord
100
AcDbLayerTableRecord
  2
PUNTI
 70
0
 62
7
  6
CONTINUOUS
370
-3
390
F
  0
LAYER
  5
20A
100
AcDbSymbolTableRecord
100
AcDbLayerTableRecord
  2
RACCORDO
 70
0
 62
7
  6
CONTINUOUS
370
-3
390
F
  0
LAYER
  5
20B
100
AcDbSymbolTableRecord
100
AcDbLayerTableRecord
  2
SIMBOLI
 70
0
 62
7
  6
CONTINUOUS
370
-3
390
F
  0
LAYER
  5
20C
100
AcDbSymbolTableRecord
100
AcDbLayerTableRecord
  2
SMUSSO
 70
0
 62
7
  6
CONTINUOUS
370
-3
390
F
  0
LAYER
  5
20D
100
AcDbSymbolTableRecord
100
AcDbLayerTableRecord
  2
SNAPLINE
 70
0
 62
7
  6
CONTINUOUS
370
-3
390
F
  0
LAYER
  5
20E
100
AcDbSymbolTableRecord
100
AcDbLayerTableRecord
  2
SUPERFICI
 70
0
 62
7
  6
CONTINUOUS
370
-3
390
F
  0
LAYER
  5
20F
100
AcDbSymbolTableRecord
100
AcDbLayerTableRecord
  2
TRASH
 70
0
 62
7
  6
CONTINUOUS
370
-3
390
F
  0
ENDTAB
  0
TABLE
  2
STYLE
  5
3
100
AcDbSymbolTable
 70
1
  0
STYLE
  5
11
100
AcDbSymbolTableRecord
100
AcDbTextStyleTableRecord
  2
STANDARD
 70
0
 40
0.0
 41
0.8
 50
0.0
 71
0
 42
0.2
  3
txt
  4

  0
STYLE
  5
210
100
AcDbSymbolTableRecord
100
AcDbTextStyleTableRecord
  2
TEXTSTYLE_1
 70
0
 40
0.0
 41
0.8
 50
0.0
 71
0
 42
0.2
  3
gdt
  4

  0
ENDTAB
  0
TABLE
  2
VIEW
  5
6
100
AcDbSymbolTable
 70
0
  0
ENDTAB
  0
TABLE
  2
UCS
  5
7
100
AcDbSymbolTable
 70
0
  0
ENDTAB
  0
TABLE
  2
APPID
  5
9
100
AcDbSymbolTable
 70
1
  0
APPID
  5
211
100
AcDbSymbolTableRecord
100
AcDbRegAppTableRecord
  2
ACAD
 70
0
  0
ENDTAB
  0
TABLE
  2
BLOCK_RECORD
  5
1
100
AcDbSymbolTable
 70
0
  0
BLOCK_RECORD
  5
212
100
AcDbSymbolTableRecord
100
AcDbBlockTableRecord
  2
*Model_Space
  0
BLOCK_RECORD
  5
213
100
AcDbSymbolTableRecord
100
AcDbBlockTableRecord
  2
*Paper_Space
  0
BLOCK_RECORD
  5
214
100
AcDbSymbolTableRecord
100
AcDbBlockTableRecord
  2
_FILLED
  0
BLOCK_RECORD
  5
215
100
AcDbSymbolTableRecord
100
AcDbBlockTableRecord
  2
*D0
  0
BLOCK_RECORD
  5
216
100
AcDbSymbolTableRecord
100
AcDbBlockTableRecord
  2
*D1
  0
BLOCK_RECORD
  5
217
100
AcDbSymbolTableRecord
100
AcDbBlockTableRecord
  2
*D2
  0
BLOCK_RECORD
  5
218
100
AcDbSymbolTableRecord
100
AcDbBlockTableRecord
  2
*D3
  0
BLOCK_RECORD
  5
219
100
AcDbSymbolTableRecord
100
AcDbBlockTableRecord
  2
*D4
  0
BLOCK_RECORD
  5
21A
100
AcDbSymbolTableRecord
100
AcDbBlockTableRecord
  2
*D5
  0
ENDTAB
  0
TABLE
  2
DIMSTYLE
  5
A
100
AcDbSymbolTable
 70
1
100
AcDbDimStyleTable
 71
0
  0
DIMSTYLE
105
21B
100
AcDbSymbolTableRecord
100
AcDbDimStyleTableRecord
  2
STANDARD
 70
0
  3

  4

 40
1.0
 41
3.0
 42
0.5
 43
0.38
 44
1.5
 45
0.0
 46
0.0
 47
0.01
 48
0.01
140
3.0
141
0.09
142
0.0
143
25.4
144
1.0
145
0.0
146
1.0
147
0.625
 71
1
 72
0
 73
0
 74
0
 75
0
 76
0
 77
1
 78
8
 79
2
170
0
171
1
172
0
173
0
174
0
175
0
176
0
177
0
178
0
270
2
179
2
271
2
272
2
273
2
274
2
275
0
280
0
281
0
282
0
283
1
284
8
285
0
286
0
287
3
288
0
340
11
278
44
341
214
342
214
343
214
344
214
  0
DIMSTYLE
105
21C
100
AcDbSymbolTableRecord
100
AcDbDimStyleTableRecord
  2
DIMSTYLE_1
 70
0
  3

  4

 40
1.0
 41
3.0
 42
0.5
 43
0.38
 44
1.5
 45
0.0
 46
0.0
 47
0.0
 48
0.0
140
3.0
141
0.09
142
0.0
143
25.4
144
1.0
145
0.0
146
1.0
147
0.75
 71
0
 72
0
 73
0
 74
0
 75
0
 76
0
 77
1
 78
8
 79
2
170
0
171
1
172
0
173
0
174
0
175
0
176
0
177
0
178
0
270
2
179
2
271
0
272
0
273
2
274
2
275
0
280
0
281
0
282
0
283
1
284
8
285
0
286
0
287
3
288
0
340
11
278
44
341
214
342
214
343
214
344
214
  0
ENDTAB
  0
ENDSEC
  0
SECTION
  2
BLOCKS
  0
BLOCK
  5
20
100
AcDbEntity
  8
0
100
AcDbBlockBegin
  2
*Model_Space
 70
0
 10
0.0
 20
0.0
 30
0.0
  3
*Model_Space
  1

  0
ENDBLK
  5
21
100
AcDbEntity
  8
0
100
AcDbBlockEnd
  0
BLOCK
  5
1C
100
AcDbEntity
  8
0
100
AcDbBlockBegin
  2
*Paper_Space
 70
0
 10
0.0
 20
0.0
 30
0.0
  3
*Paper_Space
  1

  0
ENDBLK
  5
1D
100
AcDbEntity
  8
0
100
AcDbBlockEnd
  0
BLOCK
  5
21D
100
AcDbEntity
  8
0
100
AcDbBlockBegin
  2
_FILLED
 70
64
 10
0.0
 20
0.0
  3
_FILLED
  1

  0
SOLID
  5
21E
100
AcDbEntity
  8
0
  6
BYBLOCK
 62
0
100
AcDbTrace
 10
0.0
 20
0.0
 11
-1.0
 21
0.3166666667
 12
-1.0
 22
-0.3166666667
 13
-1.0
 23
-0.3166666667
  0
ENDBLK
  5
21F
100
AcDbEntity
  8
0
  6
BYBLOCK
 62
0
100
AcDbBlockEnd
  0
BLOCK
  5
220
100
AcDbEntity
  8
0
100
AcDbBlockBegin
 62
7
  6
CONTINUOUS
  2
*D0
 70
65
 10
0.0
 20
0.0
  3
*D0
  1

  0
LINE
  5
221
100
AcDbEntity
  8
0
100
AcDbLine
 62
7
  6
CONTINUOUS
 10
-98.4709096097
 20
47.9999923849
 11
-98.4709096097
 21
57.2
  0
LINE
  5
222
100
AcDbEntity
  8
0
100
AcDbLine
 62
7
  6
CONTINUOUS
 10
-135.6044035243
 20
31.5747337642
 11
-135.6044035243
 21
57.2
  0
LINE
  5
223
100
AcDbEntity
  8
0
100
AcDbLine
 62
7
  6
CONTINUOUS
 10
-98.4709096097
 20
55.7
 11
-117.037656567
 21
55.7
  0
LINE
  5
224
100
AcDbEntity
  8
0
100
AcDbLine
 62
7
  6
CONTINUOUS
 10
-135.6044035243
 20
55.7
 11
-117.037656567
 21
55.7
  0
INSERT
  5
225
100
AcDbEntity
  8
0
100
AcDbBlockReference
 62
7
  6
CONTINUOUS
  2
_FILLED
 10
-98.4709096097
 20
55.7
 41
3.0
 42
3.0
 43
3.0
  0
INSERT
  5
226
100
AcDbEntity
  8
0
100
AcDbBlockReference
 62
7
  6
CONTINUOUS
  2
_FILLED
 10
-135.6044035243
 20
55.7
 41
3.0
 42
3.0
 43
3.0
 50
180.0
  0
ENDBLK
  5
227
100
AcDbEntity
  8
0
  6
BYBLOCK
 62
0
100
AcDbBlockEnd
  0
BLOCK
  5
228
100
AcDbEntity
  8
0
100
AcDbBlockBegin
 62
7
  6
CONTINUOUS
  2
*D1
 70
65
 10
0.0
 20
0.0
  3
*D1
  1

  0
LINE
  5
229
100
AcDbEntity
  8
0
100
AcDbLine
 62
7
  6
CONTINUOUS
 10
-69.9
 20
47.9999923849
 11
-69.9
 21
57.2
  0
LINE
  5
22A
100
AcDbEntity
  8
0
100
AcDbLine
 62
7
  6
CONTINUOUS
 10
69.9
 20
47.9999923849
 11
69.9
 21
57.2
  0
LINE
  5
22B
100
AcDbEntity
  8
0
100
AcDbLine
 62
7
  6
CONTINUOUS
 10
-69.9
 20
55.7
 11
0.0
 21
55.7
  0
LINE
  5
22C
100
AcDbEntity
  8
0
100
AcDbLine
 62
7
  6
CONTINUOUS
 10
69.9
 20
55.7
 11
0.0
 21
55.7
  0
INSERT
  5
22D
100
AcDbEntity
  8
0
100
AcDbBlockReference
 62
7
  6
CONTINUOUS
  2
_FILLED
 10
-69.9
 20
55.7
 41
3.0
 42
3.0
 43
3.0
 50
180.0
  0
INSERT
  5
22E
100
AcDbEntity
  8
0
100
AcDbBlockReference
 62
7
  6
CONTINUOUS
  2
_FILLED
 10
69.9
 20
55.7
 41
3.0
 42
3.0
 43
3.0
  0
ENDBLK
  5
22F
100
AcDbEntity
  8
0
  6
BYBLOCK
 62
0
100
AcDbBlockEnd
  0
BLOCK
  5
230
100
AcDbEntity
  8
0
100
AcDbBlockBegin
 62
7
  6
CONTINUOUS
  2
*D2
 70
65
 10
0.0
 20
0.0
  3
*D2
  1

  0
LINE
  5
231
100
AcDbEntity
  8
0
100
AcDbLine
 62
7
  6
CONTINUOUS
 10
70.1999923849
 20
47.7
 11
79.4
 21
47.7
  0
LINE
  5
232
100
AcDbEntity
  8
0
100
AcDbLine
 62
7
  6
CONTINUOUS
 10
69.8962822865
 20
25.3054403727
 11
79.4
 21
25.3054403727
  0
LINE
  5
233
100
AcDbEntity
  8
0
100
AcDbLine
 62
7
  6
CONTINUOUS
 10
77.9
 20
47.7
 11
77.9
 21
36.5027201863
  0
LINE
  5
234
100
AcDbEntity
  8
0
100
AcDbLine
 62
7
  6
CONTINUOUS
 10
77.9
 20
25.3054403727
 11
77.9
 21
36.5027201863
  0
INSERT
  5
235
100
AcDbEntity
  8
0
100
AcDbBlockReference
 62
7
  6
CONTINUOUS
  2
_FILLED
 10
77.9
 20
47.7
 41
3.0
 42
3.0
 43
3.0
 50
90.0
  0
INSERT
  5
236
100
AcDbEntity
  8
0
100
AcDbBlockReference
 62
7
  6
CONTINUOUS
  2
_FILLED
 10
77.9
 20
25.3054403727
 41
3.0
 42
3.0
 43
3.0
 50
270.0
  0
ENDBLK
  5
237
100
AcDbEntity
  8
0
  6
BYBLOCK
 62
0
100
AcDbBlockEnd
  0
BLOCK
  5
238
100
AcDbEntity
  8
0
100
AcDbBlockBegin
 62
7
  6
CONTINUOUS
  2
*D3
 70
65
 10
0.0
 20
0.0
  3
*D3
  1

  0
LINE
  5
239
100
AcDbEntity
  8
0
100
AcDbLine
 62
7
  6
CONTINUOUS
 10
69.8962822865
 20
-25.3054403727
 11
79.4
 21
-25.3054403727
  0
LINE
  5
23A
100
AcDbEntity
  8
0
100
AcDbLine
 62
7
  6
CONTINUOUS
 10
70.1999923849
 20
-47.7
 11
79.4
 21
-47.7
  0
LINE
  5
23B
100
AcDbEntity
  8
0
100
AcDbLine
 62
7
  6
CONTINUOUS
 10
77.9
 20
-25.3054403727
 11
77.9
 21
-36.5027201863
  0
LINE
  5
23C
100
AcDbEntity
  8
0
100
AcDbLine
 62
7
  6
CONTINUOUS
 10
77.9
 20
-47.7
 11
77.9
 21
-36.5027201863
  0
INSERT
  5
23D
100
AcDbEntity
  8
0
100
AcDbBlockReference
 62
7
  6
CONTINUOUS
  2
_FILLED
 10
77.9
 20
-25.3054403727
 41
3.0
 42
3.0
 43
3.0
 50
90.0
  0
INSERT
  5
23E
100
AcDbEntity
  8
0
100
AcDbBlockReference
 62
7
  6
CONTINUOUS
  2
_FILLED
 10
77.9
 20
-47.7
 41
3.0
 42
3.0
 43
3.0
 50
270.0
  0
ENDBLK
  5
23F
100
AcDbEntity
  8
0
  6
BYBLOCK
 62
0
100
AcDbBlockEnd
  0
BLOCK
  5
240
100
AcDbEntity
  8
0
100
AcDbBlockBegin
 62
7
  6
CONTINUOUS
  2
*D4
 70
65
 10
0.0
 20
0.0
  3
*D4
  1

  0
LINE
  5
241
100
AcDbEntity
  8
0
100
AcDbLine
 62
7
  6
CONTINUOUS
 10
-69.9
 20
-47.9999923849
 11
-69.9
 21
-57.2
  0
LINE
  5
242
100
AcDbEntity
  8
0
100
AcDbLine
 62
7
  6
CONTINUOUS
 10
69.9
 20
-47.9999923849
 11
69.9
 21
-57.2
  0
LINE
  5
243
100
AcDbEntity
  8
0
100
AcDbLine
 62
7
  6
CONTINUOUS
 10
-69.9
 20
-55.7
 11
0.0
 21
-55.7
  0
LINE
  5
244
100
AcDbEntity
  8
0
100
AcDbLine
 62
7
  6
CONTINUOUS
 10
69.9
 20
-55.7
 11
0.0
 21
-55.7
  0
INSERT
  5
245
100
AcDbEntity
  8
0
100
AcDbBlockReference
 62
7
  6
CONTINUOUS
  2
_FILLED
 10
-69.9
 20
-55.7
 41
3.0
 42
3.0
 43
3.0
 50
180.0
  0
INSERT
  5
246
100
AcDbEntity
  8
0
100
AcDbBlockReference
 62
7
  6
CONTINUOUS
  2
_FILLED
 10
69.9
 20
-55.7
 41
3.0
 42
3.0
 43
3.0
  0
ENDBLK
  5
247
100
AcDbEntity
  8
0
  6
BYBLOCK
 62
0
100
AcDbBlockEnd
  0
BLOCK
  5
248
100
AcDbEntity
  8
0
100
AcDbBlockBegin
 62
7
  6
CONTINUOUS
  2
*D5
 70
65
 10
0.0
 20
0.0
  3
*D5
  1

  0
LINE
  5
249
100
AcDbEntity
  8
0
100
AcDbLine
 62
7
  6
CONTINUOUS
 10
-98.4709096097
 20
-47.9999923849
 11
-98.4709096097
 21
-57.2
  0
LINE
  5
24A
100
AcDbEntity
  8
0
100
AcDbLine
 62
7
  6
CONTINUOUS
 10
-135.6044035395
 20
-31.5747336518
 11
-135.6044035395
 21
-57.2
  0
LINE
  5
24B
100
AcDbEntity
  8
0
100
AcDbLine
 62
7
  6
CONTINUOUS
 10
-98.4709096097
 20
-55.7
 11
-117.0376565746
 21
-55.7
  0
LINE
  5
24C
100
AcDbEntity
  8
0
100
AcDbLine
 62
7
  6
CONTINUOUS
 10
-135.6044035395
 20
-55.7
 11
-117.0376565746
 21
-55.7
  0
INSERT
  5
24D
100
AcDbEntity
  8
0
100
AcDbBlockReference
 62
7
  6
CONTINUOUS
  2
_FILLED
 10
-98.4709096097
 20
-55.7
 41
3.0
 42
3.0
 43
3.0
  0
INSERT
  5
24E
100
AcDbEntity
  8
0
100
AcDbBlockReference
 62
7
  6
CONTINUOUS
  2
_FILLED
 10
-135.6044035395
 20
-55.7
 41
3.0
 42
3.0
 43
3.0
 50
180.0
  0
ENDBLK
  5
24F
100
AcDbEntity
  8
0
  6
BYBLOCK
 62
0
100
AcDbBlockEnd
  0
ENDSEC
  0
SECTION
  2
ENTITIES
  0
DIMENSION
  5
250
100
AcDbEntity
  8
0
100
AcDbDimension
 62
7
  6
CONTINUOUS
  2
*D0
 10
-135.6044035243
 20
55.7
 11
-119.287656567
 21
55.7
 70
160
 71
2
 72
2
 41
0.9
 42
37.1334939146
  3
DIMSTYLE_1
100
AcDbAlignedDimension
 13
-98.4709096097
 23
47.4999923849
 14
-135.6044035243
 24
31.0747337642
 50
180.0
100
AcDbRotatedDimension
  0
DIMENSION
  5
251
100
AcDbEntity
  8
0
100
AcDbDimension
 62
7
  6
CONTINUOUS
  2
*D1
 10
69.9
 20
55.7
 11
-3.2142857143
 21
55.7
 70
160
 71
2
 72
2
 41
0.9
 42
139.8
  3
DIMSTYLE_1
100
AcDbAlignedDimension
 13
-69.9
 23
47.4999923849
 14
69.9
 24
47.4999923849
100
AcDbRotatedDimension
  0
DIMENSION
  5
252
100
AcDbEntity
  8
0
100
AcDbDimension
 62
7
  6
CONTINUOUS
  2
*D2
 10
77.9
 20
25.3054403727
 11
77.9
 21
34.1455773292
 70
160
 71
2
 72
2
 41
0.9
 42
22.3945596273
  3
DIMSTYLE_1
100
AcDbAlignedDimension
 13
69.6999923849
 23
47.7
 14
69.3962822865
 24
25.3054403727
 50
270.0
100
AcDbRotatedDimension
  0
DIMENSION
  5
253
100
AcDbEntity
  8
0
100
AcDbDimension
 62
7
  6
CONTINUOUS
  2
*D3
 10
77.9
 20
-47.7
 11
77.9
 21
-38.8598630435
 70
160
 71
2
 72
2
 41
0.9
 42
22.3945596273
  3
DIMSTYLE_1
100
AcDbAlignedDimension
 13
69.3962822865
 23
-25.3054403727
 14
69.6999923849
 24
-47.7
 50
270.0
100
AcDbRotatedDimension
  0
DIMENSION
  5
254
100
AcDbEntity
  8
0
100
AcDbDimension
 62
7
  6
CONTINUOUS
  2
*D4
 10
69.9
 20
-55.7
 11
-3.2142857143
 21
-55.7
 70
160
 71
2
 72
2
 41
0.9
 42
139.8
  3
DIMSTYLE_1
100
AcDbAlignedDimension
 13
-69.9
 23
-47.4999923849
 14
69.9
 24
-47.4999923849
100
AcDbRotatedDimension
  0
DIMENSION
  5
255
100
AcDbEntity
  8
0
100
AcDbDimension
 62
7
  6
CONTINUOUS
  2
*D5
 10
-135.6044035395
 20
-55.7
 11
-119.2876565746
 21
-55.7
 70
160
 71
2
 72
2
 41
0.9
 42
37.1334939298
  3
DIMSTYLE_1
100
AcDbAlignedDimension
 13
-98.4709096097
 23
-47.4999923849
 14
-135.6044035395
 24
-31.0747336518
 50
180.0
100
AcDbRotatedDimension
  0
LINE
  5
256
100
AcDbEntity
  8
SMUSSO
100
AcDbLine
 62
7
  6
CONTINUOUS
 10
-69.9
 20
47.4999923849
 11
-69.6999923849
 21
47.7
  0
LINE
  5
257
100
AcDbEntity
  8
SMUSSO
100
AcDbLine
 62
250
  6
CONTINUOUS
 10
-69.4161787934
 20
47.4161864085
 11
-69.6161864085
 21
47.2161787934
  0
LINE
  5
258
100
AcDbEntity
  8
SMUSSO
100
AcDbLine
 62
7
  6
CONTINUOUS
 10
-69.6999923849
 20
-47.7
 11
-69.9
 21
-47.4999923849
  0
LINE
  5
259
100
AcDbEntity
  8
SMUSSO
100
AcDbLine
 62
250
  6
CONTINUOUS
 10
-69.6161864085
 20
-47.2161787934
 11
-69.4161787934
 21
-47.4161864085
  0
LINE
  5
25A
100
AcDbEntity
  8
SMUSSO
100
AcDbLine
 62
7
  6
CONTINUOUS
 10
-69.411016528
 20
47.3262998656
 11
-69.4090356569
 21
47.2441373098
  0
LINE
  5
25B
100
AcDbEntity
  8
SMUSSO
100
AcDbLine
 62
7
  6
CONTINUOUS
 10
-69.6100250472
 20
47.0986470452
 11
-69.6080786641
 21
47.0112693887
  0
LINE
  5
25C
100
AcDbEntity
  8
SMUSSO
100
AcDbLine
 62
7
  6
CONTINUOUS
 10
-69.4090356569
 20
47.2441373098
 11
-69.4071313956
 21
47.1367502055
  0
LINE
  5
25D
100
AcDbEntity
  8
SMUSSO
100
AcDbLine
 62
7
  6
CONTINUOUS
 10
-69.6080786641
 20
47.0112693887
 11
-69.6053349526
 21
46.8380824997
  0
LINE
  5
25E
100
AcDbEntity
  8
SMUSSO
100
AcDbLine
 62
7
  6
CONTINUOUS
 10
-69.4071313956
 20
47.1367502055
 11
-69.4036449881
 21
46.8512055577
  0
LINE
  5
25F
100
AcDbEntity
  8
SMUSSO
100
AcDbLine
 62
7
  6
CONTINUOUS
 10
-69.6053349526
 20
46.8380824997
 11
-69.6021055917
 21
46.5353462134
  0
LINE
  5
260
100
AcDbEntity
  8
SMUSSO
100
AcDbLine
 62
7
  6
CONTINUOUS
 10
-69.4036449881
 20
46.8512055577
 11
-69.4007059367
 21
46.482019237
  0
LINE
  5
261
100
AcDbEntity
  8
SMUSSO
100
AcDbLine
 62
7
  6
CONTINUOUS
 10
-69.6021055917
 20
46.5353462134
 11
-69.5994925887
 21
46.1626150869
  0
LINE
  5
262
100
AcDbEntity
  8
SMUSSO
100
AcDbLine
 62
7
  6
CONTINUOUS
 10
-69.4007059367
 20
46.482019237
 11
-69.3984449886
 21
46.0451311274
  0
LINE
  5
263
100
AcDbEntity
  8
SMUSSO
100
AcDbLine
 62
7
  6
CONTINUOUS
 10
-69.5994925887
 20
46.1626150869
 11
-69.5972607014
 21
45.6229200002
  0
LINE
  5
264
100
AcDbEntity
  8
SMUSSO
100
AcDbLine
 62
7
  6
CONTINUOUS
 10
-69.3984449886
 20
46.0451311274
 11
-69.3967156689
 21
45.4329724763
  0
LINE
  5
265
100
AcDbEntity
  8
SMUSSO
100
AcDbLine
 62
7
  6
CONTINUOUS
 10
-69.5972607014
 20
45.6229200002
 11
-69.5963176653
 21
45.036451606
  0
LINE
  5
266
100
AcDbEntity
  8
SMUSSO
100
AcDbLine
 62
7
  6
CONTINUOUS
 10
-69.9
 20
-47.4999923849
 11
-69.9
 21
-35.7
  0
LINE
  5
267
100
AcDbEntity
  8
SMUSSO
100
AcDbLine
 62
7
  6
CONTINUOUS
 10
-69.9
 20
35.7
 11
-69.9
 21
47.4999923849
  0
LINE
  5
268
100
AcDbEntity
  8
SMUSSO
100
AcDbLine
 62
7
  6
CONTINUOUS
 10
-69.6120133629
 20
-25.4879942522
 11
-69.6120133629
 21
-35.7
  0
LINE
  5
269
100
AcDbEntity
  8
SMUSSO
100
AcDbLine
 62
7
  6
CONTINUOUS
 10
-69.6120133629
 20
25.4879942522
 11
-69.6120133629
 21
35.7
  0
LINE
  5
26A
100
AcDbEntity
  8
SMUSSO
100
AcDbLine
 62
7
  6
CONTINUOUS
 10
-69.5963176653
 20
45.036451606
 11
-69.5962899016
 21
25.5037177135
  0
LINE
  5
26B
100
AcDbEntity
  8
SMUSSO
100
AcDbLine
 62
7
  6
CONTINUOUS
 10
-69.3967156689
 20
45.4329724763
 11
-69.3962822865
 21
25.3054403727
  0
LINE
  5
26C
100
AcDbEntity
  8
SMUSSO
100
AcDbLine
 62
7
  6
CONTINUOUS
 10
-69.5984521864
 20
-45.9547217825
 11
-69.5962899016
 21
-25.5037177135
  0
LINE
  5
26D
100
AcDbEntity
  8
SMUSSO
100
AcDbLine
 62
7
  6
CONTINUOUS
 10
-69.3989402981
 20
-46.1596110712
 11
-69.3962822865
 21
-25.3054403727
  0
LINE
  5
26E
100
AcDbEntity
  8
SMUSSO
100
AcDbLine
 62
7
  6
CONTINUOUS
 10
-69.602105115
 20
-46.5352910944
 11
-69.5984521864
 21
-45.9547217825
  0
LINE
  5
26F
100
AcDbEntity
  8
SMUSSO
100
AcDbLine
 62
7
  6
CONTINUOUS
 10
-69.4028517174
 20
-46.7661296535
 11
-69.3989402981
 21
-46.1596110712
  0
LINE
  5
270
100
AcDbEntity
  8
SMUSSO
100
AcDbLine
 62
7
  6
CONTINUOUS
 10
-69.6053345197
 20
-46.8380497807
 11
-69.602105115
 21
-46.5352910944
  0
LINE
  5
271
100
AcDbEntity
  8
SMUSSO
100
AcDbLine
 62
7
  6
CONTINUOUS
 10
-69.4062164825
 20
-47.0739191203
 11
-69.4028517174
 21
-46.7661296535
  0
LINE
  5
272
100
AcDbEntity
  8
SMUSSO
100
AcDbLine
 62
7
  6
CONTINUOUS
 10
-69.4080706853
 20
-47.1935102806
 11
-69.4062164825
 21
-47.0739191203
  0
LINE
  5
273
100
AcDbEntity
  8
SMUSSO
100
AcDbLine
 62
7
  6
CONTINUOUS
 10
-69.6080783004
 20
-47.0112506737
 11
-69.6053345197
 21
-46.8380497807
  0
LINE
  5
274
100
AcDbEntity
  8
SMUSSO
100
AcDbLine
 62
7
  6
CONTINUOUS
 10
-69.6120133629
 20
25.4879942522
 11
-69.5962899016
 21
25.5037177135
  0
LINE
  5
275
100
AcDbEntity
  8
SMUSSO
100
AcDbLine
 62
7
  6
CONTINUOUS
 10
-69.4102450091
 20
25.2897473758
 11
-69.3945520122
 21
25.3054403727
  0
LINE
  5
276
100
AcDbEntity
  8
SMUSSO
100
AcDbLine
 62
7
  6
CONTINUOUS
 10
-69.6120133629
 20
-25.4879942522
 11
-69.5962899016
 21
-25.5037177135
  0
LINE
  5
277
100
AcDbEntity
  8
SMUSSO
100
AcDbLine
 62
7
  6
CONTINUOUS
 10
-69.4102450091
 20
-25.2897473758
 11
-69.3945520122
 21
-25.3054403727
  0
LWPOLYLINE
  5
278
100
AcDbEntity
  8
0
100
AcDbPolyline
 62
7
  6
CONTINUOUS
 90
7
 70
0
 10
-56.5606547686
 20
30.2345288879
 10
-56.5579197732
 20
30.2406662078
 10
-56.5552349432
 20
30.246836792
 10
-56.5526002785
 20
30.2530406406
 10
-56.5500157793
 20
30.2592777534
 10
-56.5474814454
 20
30.2655481305
 10
-56.5449972769
 20
30.2718517719
  0
LWPOLYLINE
  5
279
100
AcDbEntity
  8
0
100
AcDbPolyline
 62
7
  6
CONTINUOUS
 90
7
 70
0
 10
-54.2393452314
 20
30.7654711121
 10
-54.2420802268
 20
30.7593337922
 10
-54.2447650568
 20
30.753163208
 10
-54.2473997215
 20
30.7469593594
 10
-54.2499842207
 20
30.7407222466
 10
-54.2525185546
 20
30.7344518695
 10
-54.2550027231
 20
30.7281482281
  0
LINE
  5
27A
100
AcDbEntity
  8
0
100
AcDbLine
 62
7
  6
CONTINUOUS
 10
-56.5409220903
 20
30.2207270467
 11
-56.5221062937
 21
30.2611776175
  0
LINE
  5
27B
100
AcDbEntity
  8
0
100
AcDbLine
 62
7
  6
CONTINUOUS
 10
-54.2590779097
 20
30.7792729533
 11
-54.2778937063
 21
30.7388223825
  0
LINE
  5
27C
100
AcDbEntity
  8
TRASH
100
AcDbLine
 62
7
  6
CONTINUOUS
 10
-55.919717435
 20
31.0197267822
 11
-55.7493445105
 21
31.3851924112
  0
LINE
  5
27D
100
AcDbEntity
  8
TRASH
100
AcDbLine
 62
7
  6
CONTINUOUS
 10
-54.880282565
 20
29.9802732178
 11
-55.0506554894
 21
29.6148075891
  0
LINE
  5
27E
100
AcDbEntity
  8
TRASH
100
AcDbLine
 62
7
  6
CONTINUOUS
 10
-55.7493445105
 20
31.3851924112
 11
-55.6281482281
 21
31.6449972769
  0
LINE
  5
27F
100
AcDbEntity
  8
TRASH
100
AcDbLine
 62
7
  6
CONTINUOUS
 10
-55.0506554894
 20
29.6148075891
 11
-55.1718517719
 21
29.3550027231
  0
LINE
  5
280
100
AcDbEntity
  8
0
100
AcDbLine
 62
7
  6
CONTINUOUS
 10
-55.9747337418
 20
31.0747336518
 11
-55.9556337022
 21
31.1131857446
  0
LINE
  5
281
100
AcDbEntity
  8
0
100
AcDbLine
 62
7
  6
CONTINUOUS
 10
-54.8252662582
 20
29.9252663482
 11
-54.8443662978
 21
29.8868142554
  0
LINE
  5
282
100
AcDbEntity
  8
0
100
AcDbLine
 62
7
  6
CONTINUOUS
 10
-55.9556337022
 20
31.1131857446
 11
-55.916827493
 21
31.1898442975
  0
LINE
  5
283
100
AcDbEntity
  8
0
100
AcDbLine
 62
7
  6
CONTINUOUS
 10
-54.8443662978
 20
29.8868142554
 11
-54.883172507
 21
29.8101557025
  0
LINE
  5
284
100
AcDbEntity
  8
0
100
AcDbLine
 62
7
  6
CONTINUOUS
 10
-55.916827493
 20
31.1898442975
 11
-55.8772693986
 21
31.2671832613
  0
LINE
  5
285
100
AcDbEntity
  8
0
100
AcDbLine
 62
7
  6
CONTINUOUS
 10
-54.883172507
 20
29.8101557025
 11
-54.9227306014
 21
29.7328167387
  0
LINE
  5
286
100
AcDbEntity
  8
0
100
AcDbLine
 62
7
  6
CONTINUOUS
 10
-55.8772693986
 20
31.2671832613
 11
-55.8171689972
 21
31.3826167264
  0
LINE
  5
287
100
AcDbEntity
  8
0
100
AcDbLine
 62
7
  6
CONTINUOUS
 10
-54.9227306014
 20
29.7328167387
 11
-54.9828310028
 21
29.6173832736
  0
LINE
  5
288
100
AcDbEntity
  8
0
100
AcDbLine
 62
7
  6
CONTINUOUS
 10
-55.8171689972
 20
31.3826167264
 11
-55.757170481
 21
31.4960263597
  0
LINE
  5
289
100
AcDbEntity
  8
0
100
AcDbLine
 62
7
  6
CONTINUOUS
 10
-54.9828310028
 20
29.6173832736
 11
-55.042829519
 21
29.5039736403
  0
LINE
  5
28A
100
AcDbEntity
  8
0
100
AcDbLine
 62
7
  6
CONTINUOUS
 10
-55.698173538
 20
31.6053843506
 11
-55.6792729533
 21
31.6409220903
  0
LINE
  5
28B
100
AcDbEntity
  8
0
100
AcDbLine
 62
7
  6
CONTINUOUS
 10
-55.101826462
 20
29.3946156494
 11
-55.1207270467
 21
29.3590779097
  0
LWPOLYLINE
  5
28C
100
AcDbEntity
  8
0
100
AcDbPolyline
 62
7
  6
CONTINUOUS
 90
3
 70
0
 10
-55.757170481
 20
31.4960263597
 10
-55.7373365652
 20
31.5330438877
 10
-55.698173538
 20
31.6053843506
  0
LWPOLYLINE
  5
28D
100
AcDbEntity
  8
0
100
AcDbPolyline
 62
7
  6
CONTINUOUS
 90
3
 70
0
 10
-55.042829519
 20
29.5039736403
 10
-55.0626634348
 20
29.4669561123
 10
-55.101826462
 20
29.3946156494
  0
LINE
  5
28E
100
AcDbEntity
  8
0
100
AcDbLine
 62
7
  6
CONTINUOUS
 10
-55.6654711121
 20
31.6606547686
 11
-55.6792729533
 21
31.6409220903
  0
LINE
  5
28F
100
AcDbEntity
  8
0
100
AcDbLine
 62
7
  6
CONTINUOUS
 10
-55.1207270467
 20
29.3590779097
 11
-55.1345288879
 21
29.3393452314
  0
LINE
  5
290
100
AcDbEntity
  8
0
100
AcDbLine
 62
7
  6
CONTINUOUS
 10
-55.679273003
 20
-31.6409219985
 11
-55.6652546622
 21
-31.6609640455
  0
LINE
  5
291
100
AcDbEntity
  8
0
100
AcDbLine
 62
7
  6
CONTINUOUS
 10
-55.1347453306
 20
-29.3390359649
 11
-55.120726997
 21
-29.3590780015
  0
LINE
  5
292
100
AcDbEntity
  8
0
100
AcDbLine
 62
7
  6
CONTINUOUS
 10
-55.7376958108
 20
-31.532372725
 11
-55.7575576966
 21
-31.4952887652
  0
LINE
  5
293
100
AcDbEntity
  8
0
100
AcDbLine
 62
7
  6
CONTINUOUS
 10
-55.0623041892
 20
-29.467627275
 11
-55.0424423034
 21
-29.5047112348
  0
LWPOLYLINE
  5
294
100
AcDbEntity
  8
0
100
AcDbPolyline
 62
7
  6
CONTINUOUS
 90
3
 70
0
 10
-55.679273003
 20
-31.6409219985
 10
-55.6983477056
 20
-31.6050914956
 10
-55.7376958108
 20
-31.532372725
  0
LWPOLYLINE
  5
295
100
AcDbEntity
  8
0
100
AcDbPolyline
 62
7
  6
CONTINUOUS
 90
3
 70
0
 10
-55.120726997
 20
-29.3590780015
 10
-55.1016522944
 20
-29.3949085044
 10
-55.0623041892
 20
-29.467627275
  0
LINE
  5
296
100
AcDbEntity
  8
0
100
AcDbLine
 62
7
  6
CONTINUOUS
 10
-55.7575576966
 20
-31.4952887652
 11
-55.8174964408
 21
-31.3819848102
  0
LINE
  5
297
100
AcDbEntity
  8
0
100
AcDbLine
 62
7
  6
CONTINUOUS
 10
-55.0424423034
 20
-29.5047112348
 11
-54.9825035592
 21
-29.6180151898
  0
LINE
  5
298
100
AcDbEntity
  8
0
100
AcDbLine
 62
7
  6
CONTINUOUS
 10
-55.8174964408
 20
-31.3819848102
 11
-55.8774496107
 21
-31.2668300146
  0
LINE
  5
299
100
AcDbEntity
  8
0
100
AcDbLine
 62
7
  6
CONTINUOUS
 10
-54.9825035592
 20
-29.6180151898
 11
-54.9225503893
 21
-29.7331699854
  0
LWPOLYLINE
  5
29A
100
AcDbEntity
  8
0
100
AcDbPolyline
 62
7
  6
CONTINUOUS
 90
4
 70
0
 10
-55.8774496107
 20
-31.2668300146
 10
-55.9363846782
 20
-31.1514105059
 10
-55.9556604556
 20
-31.113136977
 10
-55.97473376
 20
-31.0747337642
  0
LWPOLYLINE
  5
29B
100
AcDbEntity
  8
0
100
AcDbPolyline
 62
7
  6
CONTINUOUS
 90
4
 70
0
 10
-54.9225503893
 20
-29.7331699854
 10
-54.8636153218
 20
-29.8485894941
 10
-54.8443395444
 20
-29.886863023
 10
-54.82526624
 20
-29.9252662358
  0
LINE
  5
29C
100
AcDbEntity
  8
0
100
AcDbLine
 62
7
  6
CONTINUOUS
 10
-56.522106287
 20
-30.2611776274
 11
-56.5409219985
 21
-30.220726997
  0
LINE
  5
29D
100
AcDbEntity
  8
0
100
AcDbLine
 62
7
  6
CONTINUOUS
 10
-54.277893713
 20
-30.7388223726
 11
-54.2590780015
 21
-30.779273003
  0
LINE
  5
29E
100
AcDbEntity
  8
TRASH
100
AcDbLine
 62
7
  6
CONTINUOUS
 10
-55.8731307638
 20
-31.1196800794
 11
-55.9197234839
 21
-31.0197234839
  0
LINE
  5
29F
100
AcDbEntity
  8
TRASH
100
AcDbLine
 62
7
  6
CONTINUOUS
 10
-54.9268692362
 20
-29.8803199206
 11
-54.8802765161
 21
-29.9802765161
  0
LINE
  5
2A0
100
AcDbEntity
  8
TRASH
100
AcDbLine
 62
7
  6
CONTINUOUS
 10
-55.6281482181
 20
-31.6449972701
 11
-55.8731307638
 21
-31.1196800794
  0
LINE
  5
2A1
100
AcDbEntity
  8
TRASH
100
AcDbLine
 62
7
  6
CONTINUOUS
 10
-55.1718517819
 20
-29.3550027299
 11
-54.9268692362
 21
-29.8803199206
  0
LINE
  5
2A2
100
AcDbEntity
  8
0
100
AcDbLine
 62
7
  6
CONTINUOUS
 10
-56.55293075
 20
-30.253267201
 11
-56.5609640441
 21
-30.2347453368
  0
LINE
  5
2A3
100
AcDbEntity
  8
0
100
AcDbLine
 62
7
  6
CONTINUOUS
 10
-54.2470692589
 20
-30.7467328051
 11
-54.2390359631
 21
-30.7652546682
  0
LINE
  5
2A4
100
AcDbEntity
  8
0
100
AcDbLine
 62
7
  6
CONTINUOUS
 10
-56.5449972701
 20
-30.2718517819
 11
-56.55293075
 21
-30.253267201
  0
LINE
  5
2A5
100
AcDbEntity
  8
0
100
AcDbLine
 62
7
  6
CONTINUOUS
 10
-54.2550027299
 20
-30.7281482181
 11
-54.2470692589
 21
-30.7467328051
  0
LINE
  5
2A6
100
AcDbEntity
  8
0
100
AcDbLine
 62
7
  6
CONTINUOUS
 10
-55.6283532711
 20
31.6450395831
 11
-55.6280936241
 21
31.8295413448
  0
LINE
  5
2A7
100
AcDbEntity
  8
0
100
AcDbLine
 62
7
  6
CONTINUOUS
 10
-55.6280936241
 20
31.8295413448
 11
-55.6654711121
 21
31.6606547686
  0
LINE
  5
2A8
100
AcDbEntity
  8
0
100
AcDbLine
 62
7
  6
CONTINUOUS
 10
-55.1345288879
 20
29.3393452314
 11
-55.1719063759
 21
29.1704586552
  0
LWPOLYLINE
  5
2A9
100
AcDbEntity
  8
SMUSSO
100
AcDbPolyline
 62
7
  6
CONTINUOUS
 90
8
 70
0
 10
-69.4161787934
 20
-47.4161864085
 10
-69.4151295445
 20
-47.4116612661
 10
-69.4140892164
 20
-47.4003694411
 10
-69.4130578092
 20
-47.3823415312
 10
-69.4120325705
 20
-47.3576261379
 10
-69.4110162527
 20
-47.3262903982
 10
-69.4100171125
 20
-47.2884204174
 10
-69.4080706853
 20
-47.1935102806
  0
LWPOLYLINE
  5
2AA
100
AcDbEntity
  8
SMUSSO
100
AcDbPolyline
 62
7
  6
CONTINUOUS
 90
8
 70
0
 10
-69.6161864085
 20
-47.2161787934
 10
-69.6151371596
 20
-47.2119408521
 10
-69.6140968315
 20
-47.2015618252
 10
-69.6130654243
 20
-47.1850417125
 10
-69.6120401856
 20
-47.1623020575
 10
-69.6110238678
 20
-47.1334213169
 10
-69.6100247276
 20
-47.09863486
 10
-69.6080783004
 20
-47.0112506737
  0
LINE
  5
2AB
100
AcDbEntity
  8
0
100
AcDbLine
 62
7
  6
CONTINUOUS
 10
-55.97473376
 20
29.9252662358
 11
-55.9197234842
 21
29.9802765158
  0
LINE
  5
2AC
100
AcDbEntity
  8
0
100
AcDbLine
 62
7
  6
CONTINUOUS
 10
-54.8802765158
 20
31.0197234842
 11
-54.82526624
 21
31.0747337642
  0
LINE
  5
2AD
100
AcDbEntity
  8
0
100
AcDbLine
 62
7
  6
CONTINUOUS
 10
-56.5609640441
 20
30.7652546632
 11
-56.5409219985
 21
30.779273003
  0
LINE
  5
2AE
100
AcDbEntity
  8
0
100
AcDbLine
 62
7
  6
CONTINUOUS
 10
-54.2590780015
 20
30.220726997
 11
-54.2390359631
 21
30.2347453318
  0
LINE
  5
2AF
100
AcDbEntity
  8
0
100
AcDbLine
 62
7
  6
CONTINUOUS
 10
-56.5606547686
 20
-30.7654711121
 11
-56.5409220903
 21
-30.7792729533
  0
LINE
  5
2B0
100
AcDbEntity
  8
0
100
AcDbLine
 62
7
  6
CONTINUOUS
 10
-54.2590779097
 20
-30.2207270467
 11
-54.2393452314
 21
-30.2345288879
  0
LINE
  5
2B1
100
AcDbEntity
  8
0
100
AcDbLine
 62
7
  6
CONTINUOUS
 10
-54.8802765158
 20
-31.0197234842
 11
-54.8252662582
 21
-31.0747336518
  0
LINE
  5
2B2
100
AcDbEntity
  8
0
100
AcDbLine
 62
7
  6
CONTINUOUS
 10
-55.9197234842
 20
-29.9802765158
 11
-55.9747337418
 21
-29.9252663482
  0
LWPOLYLINE
  5
2B3
100
AcDbEntity
  8
SMUSSO
100
AcDbPolyline
 62
7
  6
CONTINUOUS
 90
7
 70
0
 10
-69.6161864085
 20
47.2161787934
 10
-69.6151372157
 20
47.2119412461
 10
-69.6140969426
 20
47.2015632678
 10
-69.6130655892
 20
47.1850448586
 10
-69.6120404063
 20
47.1623077282
 10
-69.6110241431
 20
47.1334301669
 10
-69.6100250472
 20
47.0986470452
  0
LWPOLYLINE
  5
2B4
100
AcDbEntity
  8
SMUSSO
100
AcDbPolyline
 62
7
  6
CONTINUOUS
 90
6
 70
0
 10
-69.4161787934
 20
47.4161864085
 10
-69.4151296006
 20
47.4116616858
 10
-69.4140893275
 20
47.4003710012
 10
-69.4130579741
 20
47.3823449509
 10
-69.4120327912
 20
47.3576322104
 10
-69.411016528
 20
47.3262998656
  0
LINE
  5
2B5
100
AcDbEntity
  8
0
100
AcDbLine
 62
7
  6
CONTINUOUS
 10
-55.6281141624
 20
-31.8295378211
 11
-55.6652546622
 21
-31.6609640455
  0
LINE
  5
2B6
100
AcDbEntity
  8
0
100
AcDbLine
 62
7
  6
CONTINUOUS
 10
-55.1718858323
 20
-29.1704621798
 11
-55.1347453306
 21
-29.3390359649
  0
LINE
  5
2B7
100
AcDbEntity
  8
0
100
AcDbLine
 62
7
  6
CONTINUOUS
 10
-55.6281927392
 20
-31.645007923
 11
-55.6281141624
 21
-31.8295378211
  0
LINE
  5
2B8
100
AcDbEntity
  8
0
100
AcDbLine
 62
7
  6
CONTINUOUS
 10
-55.6281927392
 20
29.354992077
 11
-55.6281141624
 21
29.1704621789
  0
LINE
  5
2B9
100
AcDbEntity
  8
0
100
AcDbLine
 62
7
  6
CONTINUOUS
 10
-55.1718858323
 20
-29.1704621798
 11
-55.1718072538
 21
-29.3549920756
  0
LINE
  5
2BA
100
AcDbEntity
  8
0
100
AcDbLine
 62
7
  6
CONTINUOUS
 10
-55.1718858323
 20
31.8295378202
 11
-55.1718072538
 21
31.6450079244
  0
LINE
  5
2BB
100
AcDbEntity
  8
0
100
AcDbLine
 62
7
  6
CONTINUOUS
 10
-55.6283532711
 20
-29.3549604169
 11
-55.6280936241
 21
-29.1704586552
  0
LINE
  5
2BC
100
AcDbEntity
  8
0
100
AcDbLine
 62
7
  6
CONTINUOUS
 10
-55.1716467289
 20
29.3549604169
 11
-55.1719063759
 21
29.1704586552
  0
LINE
  5
2BD
100
AcDbEntity
  8
0
100
AcDbLine
 62
7
  6
CONTINUOUS
 10
-55.1716467289
 20
-31.6450395831
 11
-55.1719063759
 21
-31.8295413448
  0
LINE
  5
2BE
100
AcDbEntity
  8
0
100
AcDbLine
 62
7
  6
CONTINUOUS
 10
-56.5409219985
 20
30.779273003
 11
-56.4155486748
 21
30.8466886817
  0
LINE
  5
2BF
100
AcDbEntity
  8
0
100
AcDbLine
 62
7
  6
CONTINUOUS
 10
-54.2590780015
 20
30.220726997
 11
-54.3844513252
 21
30.1533113183
  0
LINE
  5
2C0
100
AcDbEntity
  8
0
100
AcDbLine
 62
7
  6
CONTINUOUS
 10
-56.4155486748
 20
30.8466886817
 11
-56.3737027133
 21
30.8689680352
  0
LINE
  5
2C1
100
AcDbEntity
  8
0
100
AcDbLine
 62
7
  6
CONTINUOUS
 10
-54.3844513252
 20
30.1533113183
 11
-54.4262972867
 21
30.1310319648
  0
LINE
  5
2C2
100
AcDbEntity
  8
0
100
AcDbLine
 62
7
  6
CONTINUOUS
 10
-56.3737027133
 20
30.8689680352
 11
-56.2677199397
 21
30.924904226
  0
LINE
  5
2C3
100
AcDbEntity
  8
0
100
AcDbLine
 62
7
  6
CONTINUOUS
 10
-54.4262972867
 20
30.1310319648
 11
-54.5322800603
 21
30.075095774
  0
LINE
  5
2C4
100
AcDbEntity
  8
0
100
AcDbLine
 62
7
  6
CONTINUOUS
 10
-56.2677199397
 20
30.924904226
 11
-56.1999031225
 21
30.9602663279
  0
LINE
  5
2C5
100
AcDbEntity
  8
0
100
AcDbLine
 62
7
  6
CONTINUOUS
 10
-54.5322800603
 20
30.075095774
 11
-54.6000968775
 21
30.0397336721
  0
LWPOLYLINE
  5
2C6
100
AcDbEntity
  8
0
100
AcDbPolyline
 62
7
  6
CONTINUOUS
 90
4
 70
0
 10
-56.1999031225
 20
30.9602663279
 10
-56.1250067521
 20
30.9988825526
 10
-56.097916707
 20
31.0125894382
 10
-56.0394570856
 20
31.0426700873
  0
LWPOLYLINE
  5
2C7
100
AcDbEntity
  8
0
100
AcDbPolyline
 62
7
  6
CONTINUOUS
 90
4
 70
0
 10
-54.6000968775
 20
30.0397336721
 10
-54.6749932479
 20
30.0011174474
 10
-54.702083293
 20
29.9874105618
 10
-54.7605429144
 20
29.9573299127
  0
LWPOLYLINE
  5
2C8
100
AcDbEntity
  8
0
100
AcDbPolyline
 62
7
  6
CONTINUOUS
 90
3
 70
0
 10
-56.0394570856
 20
31.0426700873
 10
-56.0079084375
 20
31.0585989954
 10
-55.9747337418
 20
31.0747336518
  0
LWPOLYLINE
  5
2C9
100
AcDbEntity
  8
0
100
AcDbPolyline
 62
7
  6
CONTINUOUS
 90
3
 70
0
 10
-54.7605429144
 20
29.9573299127
 10
-54.7920915625
 20
29.9414010046
 10
-54.8252662582
 20
29.9252663482
  0
LINE
  5
2CA
100
AcDbEntity
  8
0
100
AcDbLine
 62
7
  6
CONTINUOUS
 10
-55.1611776274
 20
31.622106287
 11
-55.120726997
 21
31.6409219985
  0
LINE
  5
2CB
100
AcDbEntity
  8
0
100
AcDbLine
 62
7
  6
CONTINUOUS
 10
-55.6388223726
 20
29.377893713
 11
-55.679273003
 21
29.3590780015
  0
LINE
  5
2CC
100
AcDbEntity
  8
TRASH
100
AcDbLine
 62
7
  6
CONTINUOUS
 10
-56.5449972701
 20
30.7281482181
 11
-55.9197267822
 21
31.019717435
  0
LINE
  5
2CD
100
AcDbEntity
  8
TRASH
100
AcDbLine
 62
7
  6
CONTINUOUS
 10
-54.2550027299
 20
30.2718517819
 11
-54.8802732178
 21
29.980282565
  0
LINE
  5
2CE
100
AcDbEntity
  8
0
100
AcDbLine
 62
7
  6
CONTINUOUS
 10
-55.1532671933
 20
31.6529307387
 11
-55.1347453306
 21
31.6609640351
  0
LINE
  5
2CF
100
AcDbEntity
  8
0
100
AcDbLine
 62
7
  6
CONTINUOUS
 10
-55.1718517819
 20
31.6449972701
 11
-55.1532671933
 21
31.6529307387
  0
LWPOLYLINE
  5
2D0
100
AcDbEntity
  8
0
100
AcDbPolyline
 62
7
  6
CONTINUOUS
 90
3
 70
0
 43
0.3500000087
 10
0.0
 20
-54.3071427109
 10
-1.4999999993
 20
-54.3071427109
 10
-0.8571428663
 20
-51.949999379
  0
LWPOLYLINE
  5
2D1
100
AcDbEntity
  8
0
100
AcDbPolyline
 62
7
  6
CONTINUOUS
 90
7
 70
0
 10
-55.1345288879
 20
-31.6606547686
 10
-55.1406662078
 20
-31.6579197732
 10
-55.146836792
 20
-31.6552349432
 10
-55.1530406406
 20
-31.6526002785
 10
-55.1592777534
 20
-31.6500157793
 10
-55.1655481305
 20
-31.6474814454
 10
-55.1718517719
 20
-31.6449972769
  0
LINE
  5
2D2
100
AcDbEntity
  8
0
100
AcDbLine
 62
7
  6
CONTINUOUS
 10
-55.1207270467
 20
-31.6409220903
 11
-55.1611776175
 21
-31.6221062937
  0
LINE
  5
2D3
100
AcDbEntity
  8
0
100
AcDbLine
 62
7
  6
CONTINUOUS
 10
-55.6792729533
 20
-29.3590779097
 11
-55.6388223825
 21
-29.3778937063
  0
LINE
  5
2D4
100
AcDbEntity
  8
TRASH
100
AcDbLine
 62
7
  6
CONTINUOUS
 10
-55.9197234839
 20
-31.0197234839
 11
-56.5449972769
 21
-30.7281482281
  0
LINE
  5
2D5
100
AcDbEntity
  8
TRASH
100
AcDbLine
 62
7
  6
CONTINUOUS
 10
-54.8802765161
 20
-29.9802765161
 11
-54.2550027231
 21
-30.2718517719
  0
LINE
  5
2D6
100
AcDbEntity
  8
0
100
AcDbLine
 62
7
  6
CONTINUOUS
 10
-55.97473376
 20
-31.0747337642
 11
-56.0232141959
 21
-31.0505131619
  0
LINE
  5
2D7
100
AcDbEntity
  8
0
100
AcDbLine
 62
7
  6
CONTINUOUS
 10
-54.82526624
 20
-29.9252662358
 11
-54.7767858041
 21
-29.9494868381
  0
LINE
  5
2D8
100
AcDbEntity
  8
0
100
AcDbLine
 62
7
  6
CONTINUOUS
 10
-56.0232141959
 20
-31.0505131619
 11
-56.0875688766
 21
-31.0179811722
  0
LINE
  5
2D9
100
AcDbEntity
  8
0
100
AcDbLine
 62
7
  6
CONTINUOUS
 10
-54.7767858041
 20
-29.9494868381
 11
-54.7124311234
 21
-29.9820188278
  0
LINE
  5
2DA
100
AcDbEntity
  8
0
100
AcDbLine
 62
7
  6
CONTINUOUS
 10
-56.0875688766
 20
-31.0179811722
 11
-56.1514320801
 21
-30.9853004496
  0
LINE
  5
2DB
100
AcDbEntity
  8
0
100
AcDbLine
 62
7
  6
CONTINUOUS
 10
-54.7124311234
 20
-29.9820188278
 11
-54.6485679199
 21
-30.0146995504
  0
LINE
  5
2DC
100
AcDbEntity
  8
0
100
AcDbLine
 62
7
  6
CONTINUOUS
 10
-56.1514320801
 20
-30.9853004496
 11
-56.3267319915
 21
-30.8938644975
  0
LINE
  5
2DD
100
AcDbEntity
  8
0
100
AcDbLine
 62
7
  6
CONTINUOUS
 10
-54.6485679199
 20
-30.0146995504
 11
-54.4732680085
 21
-30.1061355025
  0
LINE
  5
2DE
100
AcDbEntity
  8
0
100
AcDbLine
 62
7
  6
CONTINUOUS
 10
-56.3267319915
 20
-30.8938644975
 11
-56.4127171864
 21
-30.8482138856
  0
LINE
  5
2DF
100
AcDbEntity
  8
0
100
AcDbLine
 62
7
  6
CONTINUOUS
 10
-54.4732680085
 20
-30.1061355025
 11
-54.3872828136
 21
-30.1517861144
  0
LWPOLYLINE
  5
2E0
100
AcDbEntity
  8
0
100
AcDbPolyline
 62
7
  6
CONTINUOUS
 90
3
 70
0
 10
-56.4127171864
 20
-30.8482138856
 10
-56.51324265
 20
-30.7943558944
 10
-56.5409220903
 20
-30.7792729533
  0
LWPOLYLINE
  5
2E1
100
AcDbEntity
  8
0
100
AcDbPolyline
 62
7
  6
CONTINUOUS
 90
3
 70
0
 10
-54.3872828136
 20
-30.1517861144
 10
-54.28675735
 20
-30.2056441056
 10
-54.2590779097
 20
-30.2207270467
  0
LINE
  5
2E2
100
AcDbEntity
  8
0
100
AcDbLine
 62
7
  6
CONTINUOUS
 10
-55.6280936241
 20
-29.1704586552
 11
-55.6654711121
 21
-29.3393452314
  0
LINE
  5
2E3
100
AcDbEntity
  8
0
100
AcDbLine
 62
7
  6
CONTINUOUS
 10
-55.1345288879
 20
-31.6606547686
 11
-55.1719063759
 21
-31.8295413448
  0
LINE
  5
2E4
100
AcDbEntity
  8
0
100
AcDbLine
 62
7
  6
CONTINUOUS
 10
-55.6467327979
 20
29.3470692484
 11
-55.6652546622
 21
29.3390359545
  0
LINE
  5
2E5
100
AcDbEntity
  8
0
100
AcDbLine
 62
7
  6
CONTINUOUS
 10
-55.6281482181
 20
29.3550027299
 11
-55.6467327979
 21
29.3470692484
  0
LINE
  5
2E6
100
AcDbEntity
  8
SMUSSO
100
AcDbLine
 62
7
  6
CONTINUOUS
 10
69.6999923849
 20
-47.7
 11
-69.6999923849
 21
-47.7
  0
LINE
  5
2E7
100
AcDbEntity
  8
SMUSSO
100
AcDbLine
 62
250
  6
CONTINUOUS
 10
-69.4161787934
 20
-47.4161864085
 11
69.4161787934
 21
-47.4161864085
  0
LINE
  5
2E8
100
AcDbEntity
  8
SMUSSO
100
AcDbLine
 62
250
  6
CONTINUOUS
 10
-69.5962899016
 20
-44.9162816008
 11
69.5962899016
 21
-44.9162816008
  0
LWPOLYLINE
  5
2E9
100
AcDbEntity
  8
0
100
AcDbPolyline
 62
7
  6
CONTINUOUS
 90
7
 70
0
 10
-55.6654711121
 20
-29.3393452314
 10
-55.6593337922
 20
-29.3420802268
 10
-55.653163208
 20
-29.3447650568
 10
-55.6469593594
 20
-29.3473997215
 10
-55.6407222466
 20
-29.3499842207
 10
-55.6344518695
 20
-29.3525185546
 10
-55.6281482281
 20
-29.3550027231
  0
LINE
  5
2EA
100
AcDbEntity
  8
0
100
AcDbLine
 62
7
  6
CONTINUOUS
 10
-55.6281141624
 20
29.1704621789
 11
-55.6652546622
 21
29.3390359545
  0
LINE
  5
2EB
100
AcDbEntity
  8
0
100
AcDbLine
 62
7
  6
CONTINUOUS
 10
-55.1718858323
 20
31.8295378202
 11
-55.1347453306
 21
31.6609640351
  0
LWPOLYLINE
  5
2EC
100
AcDbEntity
  8
0
100
AcDbPolyline
 62
7
  6
CONTINUOUS
 90
7
 70
0
 10
-56.5606547686
 20
-30.7654711121
 10
-56.5579197732
 20
-30.7593337922
 10
-56.5552349432
 20
-30.753163208
 10
-56.5526002785
 20
-30.7469593594
 10
-56.5500157793
 20
-30.7407222466
 10
-56.5474814454
 20
-30.7344518695
 10
-56.5449972769
 20
-30.7281482281
  0
LWPOLYLINE
  5
2ED
100
AcDbEntity
  8
0
100
AcDbPolyline
 62
7
  6
CONTINUOUS
 90
3
 70
0
 43
0.3500000087
 10
-3.2142857319
 20
58.5928545654
 10
-2.357142799
 20
59.4500006958
 10
-2.357142799
 20
56.4499977661
  0
LINE
  5
2EE
100
AcDbEntity
  8
0
100
AcDbLine
 62
7
  6
CONTINUOUS
 10
56.7295378203
 20
-30.7281141667
 11
56.5609640369
 21
-30.7652546682
  0
LINE
  5
2EF
100
AcDbEntity
  8
0
100
AcDbLine
 62
7
  6
CONTINUOUS
 10
54.070462179
 20
-30.2718858369
 11
54.2390359559
 21
-30.2347453368
  0
LINE
  5
2F0
100
AcDbEntity
  8
0
100
AcDbLine
 62
7
  6
CONTINUOUS
 10
-56.7295413448
 20
-30.7280936241
 11
-56.5606547686
 21
-30.7654711121
  0
LINE
  5
2F1
100
AcDbEntity
  8
0
100
AcDbLine
 62
7
  6
CONTINUOUS
 10
-54.2393452314
 20
-30.2345288879
 11
-54.0704586552
 21
-30.2719063759
  0
LINE
  5
2F2
100
AcDbEntity
  8
0
100
AcDbLine
 62
7
  6
CONTINUOUS
 10
-56.55293075
 20
30.746732799
 11
-56.5609640441
 21
30.7652546632
  0
LINE
  5
2F3
100
AcDbEntity
  8
0
100
AcDbLine
 62
7
  6
CONTINUOUS
 10
-56.5449972701
 20
30.7281482181
 11
-56.55293075
 21
30.746732799
  0
LWPOLYLINE
  5
2F4
100
AcDbEntity
  8
0
100
AcDbPolyline
 62
7
  6
CONTINUOUS
 90
7
 70
0
 10
-54.2393452314
 20
-30.2345288879
 10
-54.2420802268
 20
-30.2406662078
 10
-54.2447650568
 20
-30.246836792
 10
-54.2473997215
 20
-30.2530406406
 10
-54.2499842207
 20
-30.2592777534
 10
-54.2525185546
 20
-30.2655481305
 10
-54.2550027231
 20
-30.2718517719
  0
LINE
  5
2F5
100
AcDbEntity
  8
0
100
AcDbLine
 62
7
  6
CONTINUOUS
 10
-56.5409220903
 20
-30.7792729533
 11
-56.5221062937
 21
-30.7388223825
  0
LINE
  5
2F6
100
AcDbEntity
  8
0
100
AcDbLine
 62
7
  6
CONTINUOUS
 10
-54.2590779097
 20
-30.2207270467
 11
-54.2778937063
 21
-30.2611776175
  0
LINE
  5
2F7
100
AcDbEntity
  8
TRASH
100
AcDbLine
 62
7
  6
CONTINUOUS
 10
-55.919717435
 20
-29.9802732178
 11
-55.6281482281
 21
-29.3550027231
  0
LINE
  5
2F8
100
AcDbEntity
  8
TRASH
100
AcDbLine
 62
7
  6
CONTINUOUS
 10
-54.880282565
 20
-31.0197267822
 11
-55.1718517719
 21
-31.6449972769
  0
LINE
  5
2F9
100
AcDbEntity
  8
0
100
AcDbLine
 62
7
  6
CONTINUOUS
 10
-55.9747337418
 20
-29.9252663482
 11
-55.9556337022
 21
-29.8868142554
  0
LINE
  5
2FA
100
AcDbEntity
  8
0
100
AcDbLine
 62
7
  6
CONTINUOUS
 10
-54.8252662582
 20
-31.0747336518
 11
-54.8443662978
 21
-31.1131857446
  0
LINE
  5
2FB
100
AcDbEntity
  8
0
100
AcDbLine
 62
7
  6
CONTINUOUS
 10
-55.9556337022
 20
-29.8868142554
 11
-55.916827493
 21
-29.8101557025
  0
LINE
  5
2FC
100
AcDbEntity
  8
0
100
AcDbLine
 62
7
  6
CONTINUOUS
 10
-54.8443662978
 20
-31.1131857446
 11
-54.883172507
 21
-31.1898442975
  0
LINE
  5
2FD
100
AcDbEntity
  8
0
100
AcDbLine
 62
7
  6
CONTINUOUS
 10
-55.916827493
 20
-29.8101557025
 11
-55.8772693986
 21
-29.7328167387
  0
LINE
  5
2FE
100
AcDbEntity
  8
0
100
AcDbLine
 62
7
  6
CONTINUOUS
 10
-54.883172507
 20
-31.1898442975
 11
-54.9227306014
 21
-31.2671832613
  0
LWPOLYLINE
  5
2FF
100
AcDbEntity
  8
0
100
AcDbPolyline
 62
7
  6
CONTINUOUS
 90
3
 70
0
 10
-55.8772693986
 20
-29.7328167387
 10
-55.8371877878
 20
-29.6557881745
 10
-55.8171689972
 20
-29.6173832736
  0
LWPOLYLINE
  5
300
100
AcDbEntity
  8
0
100
AcDbPolyline
 62
7
  6
CONTINUOUS
 90
3
 70
0
 10
-54.9227306014
 20
-31.2671832613
 10
-54.9628122122
 20
-31.3442118255
 10
-54.9828310028
 20
-31.3826167264
  0
LINE
  5
301
100
AcDbEntity
  8
0
100
AcDbLine
 62
7
  6
CONTINUOUS
 10
-55.8171689972
 20
-29.6173832736
 11
-55.757170481
 21
-29.5039736403
  0
LINE
  5
302
100
AcDbEntity
  8
0
100
AcDbLine
 62
7
  6
CONTINUOUS
 10
-54.9828310028
 20
-31.3826167264
 11
-55.042829519
 21
-31.4960263597
  0
LINE
  5
303
100
AcDbEntity
  8
0
100
AcDbLine
 62
7
  6
CONTINUOUS
 10
-55.698173538
 20
-29.3946156494
 11
-55.6792729533
 21
-29.3590779097
  0
LINE
  5
304
100
AcDbEntity
  8
0
100
AcDbLine
 62
7
  6
CONTINUOUS
 10
-55.101826462
 20
-31.6053843506
 11
-55.1207270467
 21
-31.6409220903
  0
LWPOLYLINE
  5
305
100
AcDbEntity
  8
0
100
AcDbPolyline
 62
7
  6
CONTINUOUS
 90
3
 70
0
 10
-55.757170481
 20
-29.5039736403
 10
-55.7373365652
 20
-29.4669561123
 10
-55.698173538
 20
-29.3946156494
  0
LWPOLYLINE
  5
306
100
AcDbEntity
  8
0
100
AcDbPolyline
 62
7
  6
CONTINUOUS
 90
3
 70
0
 10
-55.042829519
 20
-31.4960263597
 10
-55.0626634348
 20
-31.5330438877
 10
-55.101826462
 20
-31.6053843506
  0
LINE
  5
307
100
AcDbEntity
  8
DRAFT
100
AcDbLine
 62
7
  6
CONTINUOUS
 10
-69.9
 20
-35.7
 11
-69.6120133629
 21
-35.7
  0
LINE
  5
308
100
AcDbEntity
  8
DRAFT
100
AcDbLine
 62
7
  6
CONTINUOUS
 10
69.9
 20
-35.7
 11
69.6120133629
 21
-35.7
  0
LINE
  5
309
100
AcDbEntity
  8
0
100
AcDbLine
 62
7
  6
CONTINUOUS
 10
-55.7376958108
 20
29.467627275
 11
-55.7575576966
 21
29.5047112348
  0
LINE
  5
30A
100
AcDbEntity
  8
0
100
AcDbLine
 62
7
  6
CONTINUOUS
 10
-55.0623041892
 20
31.532372725
 11
-55.0424423034
 21
31.4952887652
  0
LWPOLYLINE
  5
30B
100
AcDbEntity
  8
0
100
AcDbPolyline
 62
7
  6
CONTINUOUS
 90
3
 70
0
 10
-55.679273003
 20
29.3590780015
 10
-55.6983477056
 20
29.3949085044
 10
-55.7376958108
 20
29.467627275
  0
LWPOLYLINE
  5
30C
100
AcDbEntity
  8
0
100
AcDbPolyline
 62
7
  6
CONTINUOUS
 90
3
 70
0
 10
-55.120726997
 20
31.6409219985
 10
-55.1016522944
 20
31.6050914956
 10
-55.0623041892
 20
31.532372725
  0
LINE
  5
30D
100
AcDbEntity
  8
0
100
AcDbLine
 62
7
  6
CONTINUOUS
 10
-55.7575576966
 20
29.5047112348
 11
-55.8174964408
 21
29.6180151898
  0
LINE
  5
30E
100
AcDbEntity
  8
0
100
AcDbLine
 62
7
  6
CONTINUOUS
 10
-55.0424423034
 20
31.4952887652
 11
-54.9825035592
 21
31.3819848102
  0
LINE
  5
30F
100
AcDbEntity
  8
0
100
AcDbLine
 62
7
  6
CONTINUOUS
 10
-55.8174964408
 20
29.6180151898
 11
-55.8774496107
 21
29.7331699854
  0
LINE
  5
310
100
AcDbEntity
  8
0
100
AcDbLine
 62
7
  6
CONTINUOUS
 10
-54.9825035592
 20
31.3819848102
 11
-54.9225503893
 21
31.2668300146
  0
LWPOLYLINE
  5
311
100
AcDbEntity
  8
0
100
AcDbPolyline
 62
7
  6
CONTINUOUS
 90
4
 70
0
 10
-55.8774496107
 20
29.7331699854
 10
-55.9363846782
 20
29.8485894941
 10
-55.9556604556
 20
29.886863023
 10
-55.97473376
 20
29.9252662358
  0
LWPOLYLINE
  5
312
100
AcDbEntity
  8
0
100
AcDbPolyline
 62
7
  6
CONTINUOUS
 90
4
 70
0
 10
-54.9225503893
 20
31.2668300146
 10
-54.8636153218
 20
31.1514105059
 10
-54.8443395444
 20
31.113136977
 10
-54.82526624
 20
31.0747337642
  0
LINE
  5
313
100
AcDbEntity
  8
0
100
AcDbLine
 62
7
  6
CONTINUOUS
 10
-56.522106287
 20
30.7388223726
 11
-56.5409219985
 21
30.779273003
  0
LINE
  5
314
100
AcDbEntity
  8
0
100
AcDbLine
 62
7
  6
CONTINUOUS
 10
-54.277893713
 20
30.2611776274
 11
-54.2590780015
 21
30.220726997
  0
LINE
  5
315
100
AcDbEntity
  8
TRASH
100
AcDbLine
 62
7
  6
CONTINUOUS
 10
-55.8731307638
 20
29.8803199206
 11
-55.9197234839
 21
29.9802765161
  0
LINE
  5
316
100
AcDbEntity
  8
TRASH
100
AcDbLine
 62
7
  6
CONTINUOUS
 10
-54.9268692362
 20
31.1196800794
 11
-54.8802765161
 21
31.0197234839
  0
LINE
  5
317
100
AcDbEntity
  8
TRASH
100
AcDbLine
 62
7
  6
CONTINUOUS
 10
-55.6281482181
 20
29.3550027299
 11
-55.8731307638
 21
29.8803199206
  0
LINE
  5
318
100
AcDbEntity
  8
TRASH
100
AcDbLine
 62
7
  6
CONTINUOUS
 10
-55.1718517819
 20
31.6449972701
 11
-54.9268692362
 21
31.1196800794
  0
LINE
  5
319
100
AcDbEntity
  8
0
100
AcDbLine
 62
7
  6
CONTINUOUS
 10
-54.2470692589
 20
30.2532671949
 11
-54.2390359631
 21
30.2347453318
  0
LINE
  5
31A
100
AcDbEntity
  8
0
100
AcDbLine
 62
7
  6
CONTINUOUS
 10
-54.2550027299
 20
30.2718517819
 11
-54.2470692589
 21
30.2532671949
  0
LINE
  5
31B
100
AcDbEntity
  8
0
100
AcDbLine
 62
7
  6
CONTINUOUS
 10
-55.6654711121
 20
-29.3393452314
 11
-55.6792729533
 21
-29.3590779097
  0
LINE
  5
31C
100
AcDbEntity
  8
SMUSSO
100
AcDbLine
 62
7
  6
CONTINUOUS
 10
-69.5962899016
 20
-25.5037177135
 11
-69.3945520122
 21
-25.3054403727
  0
LINE
  5
31D
100
AcDbEntity
  8
SMUSSO
100
AcDbLine
 62
7
  6
CONTINUOUS
 10
-69.4102450091
 20
-25.2897473758
 11
-69.6120133629
 21
-25.4879942522
  0
LINE
  5
31E
100
AcDbEntity
  8
0
100
AcDbLine
 62
7
  6
CONTINUOUS
 10
56.5450079241
 20
-30.7281927449
 11
56.7295378203
 21
-30.7281141667
  0
LINE
  5
31F
100
AcDbEntity
  8
0
100
AcDbLine
 62
7
  6
CONTINUOUS
 10
-54.2549920759
 20
-30.7281927449
 11
-54.0704621797
 21
-30.7281141667
  0
LINE
  5
320
100
AcDbEntity
  8
0
100
AcDbLine
 62
7
  6
CONTINUOUS
 10
54.070462179
 20
-30.2718858369
 11
54.2549920768
 21
-30.27180726
  0
LINE
  5
321
100
AcDbEntity
  8
0
100
AcDbLine
 62
7
  6
CONTINUOUS
 10
-56.729537821
 20
-30.2718858369
 11
-56.5450079232
 21
-30.27180726
  0
LINE
  5
322
100
AcDbEntity
  8
0
100
AcDbLine
 62
7
  6
CONTINUOUS
 10
-56.5450395831
 20
-30.7283532711
 11
-56.7295413448
 21
-30.7280936241
  0
LINE
  5
323
100
AcDbEntity
  8
0
100
AcDbLine
 62
7
  6
CONTINUOUS
 10
54.2549604169
 20
-30.7283532711
 11
54.0704586552
 21
-30.7280936241
  0
LINE
  5
324
100
AcDbEntity
  8
0
100
AcDbLine
 62
7
  6
CONTINUOUS
 10
-54.2549604169
 20
-30.2716467289
 11
-54.0704586552
 21
-30.2719063759
  0
LINE
  5
325
100
AcDbEntity
  8
0
100
AcDbLine
 62
7
  6
CONTINUOUS
 10
56.5450395831
 20
-30.2716467289
 11
56.7295413448
 21
-30.2719063759
  0
LINE
  5
326
100
AcDbEntity
  8
SMUSSO
100
AcDbLine
 62
7
  6
CONTINUOUS
 10
-69.3945520122
 20
25.3054403727
 11
-69.5962899016
 21
25.5037177135
  0
LINE
  5
327
100
AcDbEntity
  8
SMUSSO
100
AcDbLine
 62
7
  6
CONTINUOUS
 10
-69.4102450091
 20
25.2897473758
 11
-69.6120133629
 21
25.4897549909
  0
LINE
  5
328
100
AcDbEntity
  8
0
100
AcDbLine
 62
7
  6
CONTINUOUS
 10
-55.679273003
 20
29.3590780015
 11
-55.6652546622
 21
29.3390359545
  0
LINE
  5
329
100
AcDbEntity
  8
0
100
AcDbLine
 62
7
  6
CONTINUOUS
 10
-55.1207270467
 20
-31.6409220903
 11
-55.1345288879
 21
-31.6606547686
  0
LINE
  5
32A
100
AcDbEntity
  8
SMUSSO
100
AcDbLine
 62
7
  6
CONTINUOUS
 10
-69.3962822865
 20
-25.3054403727
 11
69.3962822865
 21
-25.3054403727
  0
LINE
  5
32B
100
AcDbEntity
  8
SMUSSO
100
AcDbLine
 62
7
  6
CONTINUOUS
 10
69.4102450091
 20
-25.2897473758
 11
-69.4102450091
 21
-25.2897473758
  0
LINE
  5
32C
100
AcDbEntity
  8
0
100
AcDbLine
 62
7
  6
CONTINUOUS
 10
-55.1347453306
 20
31.6609640351
 11
-55.120726997
 21
31.6409219985
  0
LINE
  5
32D
100
AcDbEntity
  8
0
100
AcDbLine
 62
7
  6
CONTINUOUS
 10
-55.97473376
 20
-31.0747337642
 11
-55.9197234842
 21
-31.0197234842
  0
LINE
  5
32E
100
AcDbEntity
  8
0
100
AcDbLine
 62
7
  6
CONTINUOUS
 10
-54.8802765158
 20
-29.9802765158
 11
-54.82526624
 21
-29.9252662358
  0
LINE
  5
32F
100
AcDbEntity
  8
0
100
AcDbLine
 62
7
  6
CONTINUOUS
 10
-54.0704621797
 20
-30.7281141667
 11
-54.2390359631
 21
-30.7652546682
  0
LINE
  5
330
100
AcDbEntity
  8
0
100
AcDbLine
 62
7
  6
CONTINUOUS
 10
-56.729537821
 20
-30.2718858369
 11
-56.5609640441
 21
-30.2347453368
  0
LINE
  5
331
100
AcDbEntity
  8
0
100
AcDbLine
 62
7
  6
CONTINUOUS
 10
54.0704586552
 20
-30.7280936241
 11
54.2393452314
 21
-30.7654711121
  0
LINE
  5
332
100
AcDbEntity
  8
0
100
AcDbLine
 62
7
  6
CONTINUOUS
 10
56.5606547686
 20
-30.2345288879
 11
56.7295413448
 21
-30.2719063759
  0
LINE
  5
333
100
AcDbEntity
  8
0
100
AcDbLine
 62
7
  6
CONTINUOUS
 10
-54.8802765158
 20
29.9802765158
 11
-54.8252662582
 21
29.9252663482
  0
LINE
  5
334
100
AcDbEntity
  8
0
100
AcDbLine
 62
7
  6
CONTINUOUS
 10
-55.9197234842
 20
31.0197234842
 11
-55.9747337418
 21
31.0747336518
  0
LINE
  5
335
100
AcDbEntity
  8
SMUSSO
100
AcDbLine
 62
7
  6
CONTINUOUS
 10
-69.9
 20
-47.4999923849
 11
-69.6161864085
 21
-47.2161787934
  0
LINE
  5
336
100
AcDbEntity
  8
SMUSSO
100
AcDbLine
 62
7
  6
CONTINUOUS
 10
-69.6999923849
 20
-47.7
 11
-69.4161787934
 21
-47.4161864085
  0
LINE
  5
337
100
AcDbEntity
  8
SMUSSO
100
AcDbLine
 62
7
  6
CONTINUOUS
 10
-69.9
 20
47.4999923849
 11
-69.6161864085
 21
47.2161787934
  0
LINE
  5
338
100
AcDbEntity
  8
SMUSSO
100
AcDbLine
 62
7
  6
CONTINUOUS
 10
-69.6999923849
 20
47.7
 11
-69.4161787934
 21
47.4161864085
  0
LINE
  5
339
100
AcDbEntity
  8
0
100
AcDbLine
 62
7
  6
CONTINUOUS
 10
-56.5609640441
 20
-30.2347453368
 11
-56.5409219985
 21
-30.220726997
  0
LINE
  5
33A
100
AcDbEntity
  8
0
100
AcDbLine
 62
7
  6
CONTINUOUS
 10
-54.2590780015
 20
-30.779273003
 11
-54.2390359631
 21
-30.7652546682
  0
LINE
  5
33B
100
AcDbEntity
  8
TRASH
100
AcDbLine
 62
7
  6
CONTINUOUS
 10
54.2550027299
 20
30.7281482181
 11
54.277893713
 21
30.7388223726
  0
LINE
  5
33C
100
AcDbEntity
  8
0
100
AcDbLine
 62
7
  6
CONTINUOUS
 10
55.6388223726
 20
31.622106287
 11
55.679273003
 21
31.6409219985
  0
LWPOLYLINE
  5
33D
100
AcDbEntity
  8
TRASH
100
AcDbPolyline
 62
7
  6
CONTINUOUS
 90
3
 70
0
 10
54.6361454309
 20
30.9058911561
 10
54.7102997115
 20
30.9404057085
 10
54.7456990073
 20
30.9569658418
  0
LINE
  5
33E
100
AcDbEntity
  8
TRASH
100
AcDbLine
 62
7
  6
CONTINUOUS
 10
54.7456990073
 20
30.9569658418
 11
54.8475354543
 21
31.004369921
  0
LINE
  5
33F
100
AcDbEntity
  8
TRASH
100
AcDbLine
 62
7
  6
CONTINUOUS
 10
54.3290122477
 20
30.7627948388
 11
54.4711378842
 21
30.8289112103
  0
LINE
  5
340
100
AcDbEntity
  8
0
100
AcDbLine
 62
7
  6
CONTINUOUS
 10
55.6467328067
 20
31.6529307387
 11
55.6652546694
 21
31.6609640351
  0
LINE
  5
341
100
AcDbEntity
  8
0
100
AcDbLine
 62
7
  6
CONTINUOUS
 10
55.1594550936
 20
29.3497248325
 11
55.1409123242
 21
29.3417248094
  0
LINE
  5
342
100
AcDbEntity
  8
0
100
AcDbLine
 62
7
  6
CONTINUOUS
 10
55.6281482181
 20
31.6449972701
 11
55.6467328067
 21
31.6529307387
  0
LINE
  5
343
100
AcDbEntity
  8
0
100
AcDbLine
 62
7
  6
CONTINUOUS
 10
55.1718517819
 20
29.3550027299
 11
55.1594550936
 21
29.3497248325
  0
LWPOLYLINE
  5
344
100
AcDbEntity
  8
0
100
AcDbPolyline
 62
7
  6
CONTINUOUS
 90
7
 70
0
 10
55.6654711121
 20
-31.6606547686
 10
55.6593337922
 20
-31.6579197732
 10
55.653163208
 20
-31.6552349432
 10
55.6469593594
 20
-31.6526002785
 10
55.6407222466
 20
-31.6500157793
 10
55.6344518695
 20
-31.6474814454
 10
55.6281482281
 20
-31.6449972769
  0
LINE
  5
345
100
AcDbEntity
  8
0
100
AcDbLine
 62
7
  6
CONTINUOUS
 10
55.6792729533
 20
-31.6409220903
 11
55.6388223825
 21
-31.6221062937
  0
LWPOLYLINE
  5
346
100
AcDbEntity
  8
TRASH
100
AcDbPolyline
 62
7
  6
CONTINUOUS
 90
4
 70
0
 10
54.5974105153
 20
-30.8877546028
 10
54.5149847409
 20
-30.8494307943
 10
54.4713159084
 20
-30.8289944357
 10
54.4258138342
 20
-30.8077939354
  0
LWPOLYLINE
  5
347
100
AcDbEntity
  8
TRASH
100
AcDbPolyline
 62
7
  6
CONTINUOUS
 90
3
 70
0
 10
54.4258138342
 20
-30.8077939354
 10
54.3290850946
 20
-30.762835739
 10
54.2778933466
 20
-30.738824741
  0
LWPOLYLINE
  5
348
100
AcDbEntity
  8
TRASH
100
AcDbPolyline
 62
7
  6
CONTINUOUS
 90
3
 70
0
 10
54.7103336308
 20
-30.940415812
 10
54.636231278
 20
-30.9059155373
 10
54.5974105153
 20
-30.8877546028
  0
LINE
  5
349
100
AcDbEntity
  8
TRASH
100
AcDbLine
 62
7
  6
CONTINUOUS
 10
54.2778937063
 20
-30.7388223825
 11
54.2550027231
 21
-30.7281482281
  0
LWPOLYLINE
  5
34A
100
AcDbEntity
  8
TRASH
100
AcDbPolyline
 62
7
  6
CONTINUOUS
 90
3
 70
0
 10
54.8475385632
 20
-31.0043858049
 10
54.7457195681
 20
-30.9569840642
 10
54.7103336308
 20
-30.940415812
  0
LINE
  5
34B
100
AcDbEntity
  8
0
100
AcDbLine
 62
7
  6
CONTINUOUS
 10
-56.5606547686
 20
30.2345288879
 11
-56.5409220903
 21
30.2207270467
  0
LINE
  5
34C
100
AcDbEntity
  8
0
100
AcDbLine
 62
7
  6
CONTINUOUS
 10
-54.2590779097
 20
30.7792729533
 11
-54.2393452314
 21
30.7654711121
  0
LWPOLYLINE
  5
34D
100
AcDbEntity
  8
0
100
AcDbPolyline
 62
7
  6
CONTINUOUS
 90
2
 70
0
 43
0.3500000087
 10
-0.4999999887
 20
-54.950000177
 10
-0.4999999887
 20
-53.4500008438
  0
LWPOLYLINE
  5
34E
100
AcDbEntity
  8
0
100
AcDbPolyline
 62
7
  6
CONTINUOUS
 90
2
 70
0
 43
0.3500000087
 10
-0.4999999887
 20
56.4499977661
 10
-0.4999999887
 20
57.949999231
  0
LINE
  5
34F
100
AcDbEntity
  8
0
100
AcDbLine
 62
7
  6
CONTINUOUS
 10
54.2590780015
 20
30.779273003
 11
54.3844513252
 21
30.8466886817
  0
LINE
  5
350
100
AcDbEntity
  8
0
100
AcDbLine
 62
7
  6
CONTINUOUS
 10
-56.5409219985
 20
-30.220726997
 11
-56.4155486748
 21
-30.1533113183
  0
LINE
  5
351
100
AcDbEntity
  8
0
100
AcDbLine
 62
7
  6
CONTINUOUS
 10
56.5409219985
 20
30.220726997
 11
56.4155486748
 21
30.1533113183
  0
LINE
  5
352
100
AcDbEntity
  8
0
100
AcDbLine
 62
7
  6
CONTINUOUS
 10
-56.4155486748
 20
-30.1533113183
 11
-56.3737027133
 21
-30.1310319648
  0
LINE
  5
353
100
AcDbEntity
  8
0
100
AcDbLine
 62
7
  6
CONTINUOUS
 10
54.3844513252
 20
30.8466886817
 11
54.4682545297
 21
30.8912088722
  0
LINE
  5
354
100
AcDbEntity
  8
0
100
AcDbLine
 62
7
  6
CONTINUOUS
 10
56.4155486748
 20
30.1533113183
 11
56.3317454703
 21
30.1087911278
  0
LINE
  5
355
100
AcDbEntity
  8
0
100
AcDbLine
 62
7
  6
CONTINUOUS
 10
54.4682545297
 20
30.8912088722
 11
54.5322800603
 21
30.924904226
  0
LINE
  5
356
100
AcDbEntity
  8
0
100
AcDbLine
 62
7
  6
CONTINUOUS
 10
56.3317454703
 20
30.1087911278
 11
56.2677199397
 21
30.075095774
  0
LINE
  5
357
100
AcDbEntity
  8
0
100
AcDbLine
 62
7
  6
CONTINUOUS
 10
-56.3737027133
 20
-30.1310319648
 11
-56.2677199397
 21
-30.075095774
  0
LINE
  5
358
100
AcDbEntity
  8
0
100
AcDbLine
 62
7
  6
CONTINUOUS
 10
54.5322800603
 20
30.924904226
 11
54.6000968775
 21
30.9602663279
  0
LINE
  5
359
100
AcDbEntity
  8
0
100
AcDbLine
 62
7
  6
CONTINUOUS
 10
56.2677199397
 20
30.075095774
 11
56.1999031225
 21
30.0397336721
  0
LINE
  5
35A
100
AcDbEntity
  8
0
100
AcDbLine
 62
7
  6
CONTINUOUS
 10
-56.2677199397
 20
-30.075095774
 11
-56.1999031225
 21
-30.0397336721
  0
LWPOLYLINE
  5
35B
100
AcDbEntity
  8
0
100
AcDbPolyline
 62
7
  6
CONTINUOUS
 90
4
 70
0
 10
54.6000968775
 20
30.9602663279
 10
54.6749932479
 20
30.9988825526
 10
54.702083293
 20
31.0125894382
 10
54.7605429144
 20
31.0426700873
  0
LWPOLYLINE
  5
35C
100
AcDbEntity
  8
0
100
AcDbPolyline
 62
7
  6
CONTINUOUS
 90
4
 70
0
 10
56.1999031225
 20
30.0397336721
 10
56.1250067521
 20
30.0011174474
 10
56.097916707
 20
29.9874105618
 10
56.0394570856
 20
29.9573299127
  0
LWPOLYLINE
  5
35D
100
AcDbEntity
  8
0
100
AcDbPolyline
 62
7
  6
CONTINUOUS
 90
3
 70
0
 10
54.7605429144
 20
31.0426700873
 10
54.7920915625
 20
31.0585989954
 10
54.8252662582
 20
31.0747336518
  0
LWPOLYLINE
  5
35E
100
AcDbEntity
  8
0
100
AcDbPolyline
 62
7
  6
CONTINUOUS
 90
3
 70
0
 10
56.0394570856
 20
29.9573299127
 10
56.0079084375
 20
29.9414010046
 10
55.9747337418
 20
29.9252663482
  0
LINE
  5
35F
100
AcDbEntity
  8
TRASH
100
AcDbLine
 62
7
  6
CONTINUOUS
 10
54.2778971865
 20
30.7388260178
 11
54.3290122477
 21
30.7627948388
  0
LINE
  5
360
100
AcDbEntity
  8
TRASH
100
AcDbLine
 62
7
  6
CONTINUOUS
 10
54.8475354543
 20
31.004369921
 11
54.8802732178
 21
31.019717435
  0
LWPOLYLINE
  5
361
100
AcDbEntity
  8
TRASH
100
AcDbPolyline
 62
7
  6
CONTINUOUS
 90
5
 70
0
 10
54.4711378842
 20
30.8289112103
 10
54.5148161706
 20
30.8493487831
 10
54.5568746212
 20
30.8689122393
 10
54.5972874791
 20
30.8877041792
 10
54.6361454309
 20
30.9058911561
  0
LINE
  5
362
100
AcDbEntity
  8
TRASH
100
AcDbLine
 62
7
  6
CONTINUOUS
 10
56.2431253789
 20
30.1310877607
 11
56.126204082
 21
30.0765698025
  0
LINE
  5
363
100
AcDbEntity
  8
0
100
AcDbLine
 62
7
  6
CONTINUOUS
 10
55.1611776274
 20
29.377893713
 11
55.120726997
 21
29.3590780015
  0
LINE
  5
364
100
AcDbEntity
  8
TRASH
100
AcDbLine
 62
7
  6
CONTINUOUS
 10
56.126204082
 20
30.0765698025
 11
55.9197267822
 21
29.980282565
  0
LINE
  5
365
100
AcDbEntity
  8
TRASH
100
AcDbLine
 62
7
  6
CONTINUOUS
 10
56.5449972701
 20
30.2718517819
 11
56.2431253789
 21
30.1310877607
  0
LINE
  5
366
100
AcDbEntity
  8
0
100
AcDbLine
 62
7
  6
CONTINUOUS
 10
55.1409123242
 20
29.3417248094
 11
55.1347453378
 21
29.3390359545
  0
LWPOLYLINE
  5
367
100
AcDbEntity
  8
0
100
AcDbPolyline
 62
7
  6
CONTINUOUS
 90
7
 70
0
 10
55.1345288879
 20
-29.3393452314
 10
55.1406662078
 20
-29.3420802268
 10
55.146836792
 20
-29.3447650568
 10
55.1530406406
 20
-29.3473997215
 10
55.1592777534
 20
-29.3499842207
 10
55.1655481305
 20
-29.3525185546
 10
55.1718517719
 20
-29.3550027231
  0
LINE
  5
368
100
AcDbEntity
  8
0
100
AcDbLine
 62
7
  6
CONTINUOUS
 10
55.1207270467
 20
-29.3590779097
 11
55.1611776175
 21
-29.3778937063
  0
LINE
  5
369
100
AcDbEntity
  8
TRASH
100
AcDbLine
 62
7
  6
CONTINUOUS
 10
54.8802765161
 20
-31.0197234839
 11
54.8475385632
 21
-31.0043858049
  0
LINE
  5
36A
100
AcDbEntity
  8
TRASH
100
AcDbLine
 62
7
  6
CONTINUOUS
 10
55.9197234839
 20
-29.9802765161
 11
56.5449972769
 21
-30.2718517719
  0
LINE
  5
36B
100
AcDbEntity
  8
0
100
AcDbLine
 62
7
  6
CONTINUOUS
 10
54.82526624
 20
-31.0747337642
 11
54.7767858041
 21
-31.0505131619
  0
LINE
  5
36C
100
AcDbEntity
  8
0
100
AcDbLine
 62
7
  6
CONTINUOUS
 10
55.97473376
 20
-29.9252662358
 11
56.0232141959
 21
-29.9494868381
  0
LINE
  5
36D
100
AcDbEntity
  8
0
100
AcDbLine
 62
7
  6
CONTINUOUS
 10
54.7767858041
 20
-31.0505131619
 11
54.7124311234
 21
-31.0179811722
  0
LINE
  5
36E
100
AcDbEntity
  8
0
100
AcDbLine
 62
7
  6
CONTINUOUS
 10
56.0232141959
 20
-29.9494868381
 11
56.0875688766
 21
-29.9820188278
  0
LINE
  5
36F
100
AcDbEntity
  8
0
100
AcDbLine
 62
7
  6
CONTINUOUS
 10
54.7124311234
 20
-31.0179811722
 11
54.6485679199
 21
-30.9853004496
  0
LINE
  5
370
100
AcDbEntity
  8
0
100
AcDbLine
 62
7
  6
CONTINUOUS
 10
56.0875688766
 20
-29.9820188278
 11
56.1514320801
 21
-30.0146995504
  0
LINE
  5
371
100
AcDbEntity
  8
0
100
AcDbLine
 62
7
  6
CONTINUOUS
 10
54.6485679199
 20
-30.9853004496
 11
54.5830114914
 21
-30.9513948469
  0
LINE
  5
372
100
AcDbEntity
  8
0
100
AcDbLine
 62
7
  6
CONTINUOUS
 10
56.1514320801
 20
-30.0146995504
 11
56.2169885086
 21
-30.0486051531
  0
LINE
  5
373
100
AcDbEntity
  8
0
100
AcDbLine
 62
7
  6
CONTINUOUS
 10
54.5830114914
 20
-30.9513948469
 11
54.4100085486
 21
-30.8603160201
  0
LINE
  5
374
100
AcDbEntity
  8
0
100
AcDbLine
 62
7
  6
CONTINUOUS
 10
56.2169885086
 20
-30.0486051531
 11
56.3899914514
 21
-30.1396839799
  0
LINE
  5
375
100
AcDbEntity
  8
0
100
AcDbLine
 62
7
  6
CONTINUOUS
 10
-56.2169885086
 20
30.0486051531
 11
-56.3899914514
 21
30.1396839799
  0
LWPOLYLINE
  5
376
100
AcDbEntity
  8
0
100
AcDbPolyline
 62
7
  6
CONTINUOUS
 90
3
 70
0
 10
54.4100085486
 20
-30.8603160201
 10
54.28675735
 20
-30.7943558944
 10
54.2590779097
 20
-30.7792729533
  0
LWPOLYLINE
  5
377
100
AcDbEntity
  8
0
100
AcDbPolyline
 62
7
  6
CONTINUOUS
 90
3
 70
0
 10
-56.3899914514
 20
30.1396839799
 10
-56.51324265
 20
30.2056441056
 10
-56.5409220903
 20
30.2207270467
  0
LWPOLYLINE
  5
378
100
AcDbEntity
  8
0
100
AcDbPolyline
 62
7
  6
CONTINUOUS
 90
3
 70
0
 10
56.3899914514
 20
-30.1396839799
 10
56.51324265
 20
-30.2056441056
 10
56.5409220903
 20
-30.2207270467
  0
LWPOLYLINE
  5
379
100
AcDbEntity
  8
0
100
AcDbPolyline
 62
7
  6
CONTINUOUS
 90
13
 70
0
 43
0.3500000087
 10
0.8571428663
 20
-54.0928561783
 10
0.8571428663
 20
-52.8071433777
 10
1.0714285995
 20
-52.3785724442
 10
1.4999999993
 20
-51.949999379
 10
1.7142857326
 20
-51.949999379
 10
2.142857199
 20
-52.3785724442
 10
2.357142799
 20
-52.8071433777
 10
2.357142799
 20
-54.0928561783
 10
2.142857199
 20
-54.5214292435
 10
1.7142857326
 20
-54.950000177
 10
1.4999999993
 20
-54.950000177
 10
1.0714285995
 20
-54.5214292435
 10
0.8571428663
 20
-54.0928561783
  0
LWPOLYLINE
  5
37A
100
AcDbEntity
  8
0
100
AcDbPolyline
 62
7
  6
CONTINUOUS
 90
13
 70
0
 43
0.3500000087
 10
0.8571428663
 20
57.3071438965
 10
0.8571428663
 20
58.5928545654
 10
1.0714285995
 20
59.0214276306
 10
1.4999999993
 20
59.4500006958
 10
1.7142857326
 20
59.4500006958
 10
2.142857199
 20
59.0214276306
 10
2.357142799
 20
58.5928545654
 10
2.357142799
 20
57.3071438965
 10
2.142857199
 20
56.8785708313
 10
1.7142857326
 20
56.4499977661
 10
1.4999999993
 20
56.4499977661
 10
1.0714285995
 20
56.8785708313
 10
0.8571428663
 20
57.3071438965
  0
LINE
  5
37B
100
AcDbEntity
  8
0
100
AcDbLine
 62
7
  6
CONTINUOUS
 10
54.2390359559
 20
30.7652546632
 11
54.2590780015
 21
30.779273003
  0
LINE
  5
37C
100
AcDbEntity
  8
0
100
AcDbLine
 62
7
  6
CONTINUOUS
 10
-54.2590780015
 20
-30.779273003
 11
-54.3844513252
 21
-30.8466886817
  0
LINE
  5
37D
100
AcDbEntity
  8
0
100
AcDbLine
 62
7
  6
CONTINUOUS
 10
-54.3844513252
 20
-30.8466886817
 11
-54.4262972867
 21
-30.8689680352
  0
LINE
  5
37E
100
AcDbEntity
  8
0
100
AcDbLine
 62
7
  6
CONTINUOUS
 10
-54.4262972867
 20
-30.8689680352
 11
-54.5322800603
 21
-30.924904226
  0
LINE
  5
37F
100
AcDbEntity
  8
0
100
AcDbLine
 62
7
  6
CONTINUOUS
 10
-54.5322800603
 20
-30.924904226
 11
-54.6000968775
 21
-30.9602663279
  0
LWPOLYLINE
  5
380
100
AcDbEntity
  8
0
100
AcDbPolyline
 62
7
  6
CONTINUOUS
 90
4
 70
0
 10
-56.1999031225
 20
-30.0397336721
 10
-56.1250067521
 20
-30.0011174474
 10
-56.097916707
 20
-29.9874105618
 10
-56.0394570856
 20
-29.9573299127
  0
LWPOLYLINE
  5
381
100
AcDbEntity
  8
0
100
AcDbPolyline
 62
7
  6
CONTINUOUS
 90
4
 70
0
 10
-54.6000968775
 20
-30.9602663279
 10
-54.6749932479
 20
-30.9988825526
 10
-54.702083293
 20
-31.0125894382
 10
-54.7605429144
 20
-31.0426700873
  0
LWPOLYLINE
  5
382
100
AcDbEntity
  8
0
100
AcDbPolyline
 62
7
  6
CONTINUOUS
 90
3
 70
0
 10
-56.0394570856
 20
-29.9573299127
 10
-56.0079084375
 20
-29.9414010046
 10
-55.9747337418
 20
-29.9252663482
  0
LWPOLYLINE
  5
383
100
AcDbEntity
  8
0
100
AcDbPolyline
 62
7
  6
CONTINUOUS
 90
3
 70
0
 10
-54.7605429144
 20
-31.0426700873
 10
-54.7920915625
 20
-31.0585989954
 10
-54.8252662582
 20
-31.0747336518
  0
LINE
  5
384
100
AcDbEntity
  8
0
100
AcDbLine
 62
7
  6
CONTINUOUS
 10
-55.1611776274
 20
-29.377893713
 11
-55.120726997
 21
-29.3590780015
  0
LINE
  5
385
100
AcDbEntity
  8
0
100
AcDbLine
 62
7
  6
CONTINUOUS
 10
-55.6388223726
 20
-31.622106287
 11
-55.679273003
 21
-31.6409219985
  0
LINE
  5
386
100
AcDbEntity
  8
TRASH
100
AcDbLine
 62
7
  6
CONTINUOUS
 10
-56.5449972701
 20
-30.2718517819
 11
-55.9197267822
 21
-29.980282565
  0
LINE
  5
387
100
AcDbEntity
  8
TRASH
100
AcDbLine
 62
7
  6
CONTINUOUS
 10
-54.2550027299
 20
-30.7281482181
 11
-54.8802732178
 21
-31.019717435
  0
LINE
  5
388
100
AcDbEntity
  8
0
100
AcDbLine
 62
7
  6
CONTINUOUS
 10
-55.1532671932
 20
-29.3470692613
 11
-55.1347453306
 21
-29.3390359649
  0
LINE
  5
389
100
AcDbEntity
  8
0
100
AcDbLine
 62
7
  6
CONTINUOUS
 10
-55.1718517819
 20
-29.3550027299
 11
-55.1532671932
 21
-29.3470692613
  0
LWPOLYLINE
  5
38A
100
AcDbEntity
  8
0
100
AcDbPolyline
 62
7
  6
CONTINUOUS
 90
7
 70
0
 10
-55.1345288879
 20
29.3393452314
 10
-55.1406662078
 20
29.3420802268
 10
-55.146836792
 20
29.3447650568
 10
-55.1530406406
 20
29.3473997215
 10
-55.1592777534
 20
29.3499842207
 10
-55.1655481305
 20
29.3525185546
 10
-55.1718517719
 20
29.3550027231
  0
LWPOLYLINE
  5
38B
100
AcDbEntity
  8
0
100
AcDbPolyline
 62
7
  6
CONTINUOUS
 90
7
 70
0
 10
-55.6654711121
 20
31.6606547686
 10
-55.6593337922
 20
31.6579197732
 10
-55.653163208
 20
31.6552349432
 10
-55.6469593594
 20
31.6526002785
 10
-55.6407222466
 20
31.6500157793
 10
-55.6344518695
 20
31.6474814454
 10
-55.6281482281
 20
31.6449972769
  0
LINE
  5
38C
100
AcDbEntity
  8
0
100
AcDbLine
 62
7
  6
CONTINUOUS
 10
-55.1207270467
 20
29.3590779097
 11
-55.1611776175
 21
29.3778937063
  0
LINE
  5
38D
100
AcDbEntity
  8
0
100
AcDbLine
 62
7
  6
CONTINUOUS
 10
-55.6792729533
 20
31.6409220903
 11
-55.6388223825
 21
31.6221062937
  0
LINE
  5
38E
100
AcDbEntity
  8
TRASH
100
AcDbLine
 62
7
  6
CONTINUOUS
 10
-55.9197234839
 20
29.9802765161
 11
-56.5449972769
 21
30.2718517719
  0
LINE
  5
38F
100
AcDbEntity
  8
TRASH
100
AcDbLine
 62
7
  6
CONTINUOUS
 10
-54.8802765161
 20
31.0197234839
 11
-54.2550027231
 21
30.7281482281
  0
LINE
  5
390
100
AcDbEntity
  8
0
100
AcDbLine
 62
7
  6
CONTINUOUS
 10
-55.97473376
 20
29.9252662358
 11
-56.0232141959
 21
29.9494868381
  0
LINE
  5
391
100
AcDbEntity
  8
0
100
AcDbLine
 62
7
  6
CONTINUOUS
 10
-54.82526624
 20
31.0747337642
 11
-54.7767858041
 21
31.0505131619
  0
LINE
  5
392
100
AcDbEntity
  8
0
100
AcDbLine
 62
7
  6
CONTINUOUS
 10
-56.0232141959
 20
29.9494868381
 11
-56.0875688766
 21
29.9820188278
  0
LINE
  5
393
100
AcDbEntity
  8
0
100
AcDbLine
 62
7
  6
CONTINUOUS
 10
-54.7767858041
 20
31.0505131619
 11
-54.7124311234
 21
31.0179811722
  0
LINE
  5
394
100
AcDbEntity
  8
0
100
AcDbLine
 62
7
  6
CONTINUOUS
 10
-56.0875688766
 20
29.9820188278
 11
-56.1514320801
 21
30.0146995504
  0
LINE
  5
395
100
AcDbEntity
  8
0
100
AcDbLine
 62
7
  6
CONTINUOUS
 10
-54.7124311234
 20
31.0179811722
 11
-54.6485679199
 21
30.9853004496
  0
LINE
  5
396
100
AcDbEntity
  8
0
100
AcDbLine
 62
7
  6
CONTINUOUS
 10
-56.1514320801
 20
30.0146995504
 11
-56.2169885086
 21
30.0486051531
  0
LINE
  5
397
100
AcDbEntity
  8
0
100
AcDbLine
 62
7
  6
CONTINUOUS
 10
-54.6485679199
 20
30.9853004496
 11
-54.4732680085
 21
30.8938644975
  0
LINE
  5
398
100
AcDbEntity
  8
0
100
AcDbLine
 62
7
  6
CONTINUOUS
 10
-54.4732680085
 20
30.8938644975
 11
-54.3872828136
 21
30.8482138856
  0
LWPOLYLINE
  5
399
100
AcDbEntity
  8
0
100
AcDbPolyline
 62
7
  6
CONTINUOUS
 90
3
 70
0
 10
-54.3872828136
 20
30.8482138856
 10
-54.28675735
 20
30.7943558944
 10
-54.2590779097
 20
30.7792729533
  0
LINE
  5
39A
100
AcDbEntity
  8
0
100
AcDbLine
 62
7
  6
CONTINUOUS
 10
54.2393452314
 20
-30.7654711121
 11
54.2590779097
 21
-30.7792729533
  0
LINE
  5
39B
100
AcDbEntity
  8
0
100
AcDbLine
 62
7
  6
CONTINUOUS
 10
56.5409219985
 20
30.220726997
 11
56.5609640369
 21
30.2347453318
  0
LINE
  5
39C
100
AcDbEntity
  8
0
100
AcDbLine
 62
7
  6
CONTINUOUS
 10
-55.6467327979
 20
-31.6529307516
 11
-55.6652546622
 21
-31.6609640455
  0
LINE
  5
39D
100
AcDbEntity
  8
0
100
AcDbLine
 62
7
  6
CONTINUOUS
 10
-55.6281482181
 20
-31.6449972701
 11
-55.6467327979
 21
-31.6529307516
  0
LINE
  5
39E
100
AcDbEntity
  8
0
100
AcDbLine
 62
7
  6
CONTINUOUS
 10
56.5409220903
 20
-30.2207270467
 11
56.5606547686
 21
-30.2345288879
  0
LINE
  5
39F
100
AcDbEntity
  8
SMUSSO
100
AcDbLine
 62
7
  6
CONTINUOUS
 10
69.6999923849
 20
47.7
 11
69.4161787934
 21
47.4161864085
  0
LINE
  5
3A0
100
AcDbEntity
  8
SMUSSO
100
AcDbLine
 62
7
  6
CONTINUOUS
 10
69.9
 20
47.4999923849
 11
69.6161864085
 21
47.2161787934
  0
LINE
  5
3A1
100
AcDbEntity
  8
0
100
AcDbLine
 62
7
  6
CONTINUOUS
 10
54.82526624
 20
29.9252662358
 11
54.8802765158
 21
29.9802765158
  0
LINE
  5
3A2
100
AcDbEntity
  8
0
100
AcDbLine
 62
7
  6
CONTINUOUS
 10
55.9197234842
 20
31.0197234842
 11
55.97473376
 21
31.0747337642
  0
LINE
  5
3A3
100
AcDbEntity
  8
0
100
AcDbLine
 62
7
  6
CONTINUOUS
 10
56.7295378203
 20
30.2718858333
 11
56.5609640369
 21
30.2347453318
  0
LINE
  5
3A4
100
AcDbEntity
  8
0
100
AcDbLine
 62
7
  6
CONTINUOUS
 10
-56.7295413448
 20
30.2719063759
 11
-56.5606547686
 21
30.2345288879
  0
LINE
  5
3A5
100
AcDbEntity
  8
SMUSSO
100
AcDbLine
 62
7
  6
CONTINUOUS
 10
69.6999923849
 20
-47.7
 11
69.4161787934
 21
-47.4161864085
  0
LINE
  5
3A6
100
AcDbEntity
  8
SMUSSO
100
AcDbLine
 62
7
  6
CONTINUOUS
 10
69.9
 20
-47.4999923849
 11
69.6161864085
 21
-47.2161787934
  0
LINE
  5
3A7
100
AcDbEntity
  8
0
100
AcDbLine
 62
7
  6
CONTINUOUS
 10
55.9197234842
 20
-31.0197234842
 11
55.9747337418
 21
-31.0747336518
  0
LINE
  5
3A8
100
AcDbEntity
  8
0
100
AcDbLine
 62
7
  6
CONTINUOUS
 10
54.8802765158
 20
-29.9802765158
 11
54.8252662582
 21
-29.9252663482
  0
LINE
  5
3A9
100
AcDbEntity
  8
0
100
AcDbLine
 62
7
  6
CONTINUOUS
 10
54.070462179
 20
30.7281141631
 11
54.2390359559
 21
30.7652546632
  0
LINE
  5
3AA
100
AcDbEntity
  8
0
100
AcDbLine
 62
7
  6
CONTINUOUS
 10
-54.2393452314
 20
30.7654711121
 11
-54.0704586552
 21
30.7280936241
  0
LINE
  5
3AB
100
AcDbEntity
  8
0
100
AcDbLine
 62
7
  6
CONTINUOUS
 10
55.1345288879
 20
31.6606547686
 11
55.1207270467
 21
31.6409220903
  0
LINE
  5
3AC
100
AcDbEntity
  8
0
100
AcDbLine
 62
7
  6
CONTINUOUS
 10
55.6792729533
 20
29.3590779097
 11
55.6654711121
 21
29.3393452314
  0
LINE
  5
3AD
100
AcDbEntity
  8
SMUSSO
100
AcDbLine
 62
7
  6
CONTINUOUS
 10
-69.4102450091
 20
25.2897473758
 11
69.4102450091
 21
25.2897473758
  0
LINE
  5
3AE
100
AcDbEntity
  8
SMUSSO
100
AcDbLine
 62
7
  6
CONTINUOUS
 10
69.3962822865
 20
25.3054403727
 11
-69.3962822865
 21
25.3054403727
  0
LINE
  5
3AF
100
AcDbEntity
  8
0
100
AcDbLine
 62
7
  6
CONTINUOUS
 10
55.120726997
 20
-31.6409219985
 11
55.1347453378
 21
-31.6609640455
  0
LINE
  5
3B0
100
AcDbEntity
  8
0
100
AcDbLine
 62
7
  6
CONTINUOUS
 10
55.6652546694
 20
-29.3390359649
 11
55.679273003
 21
-29.3590780015
  0
LWPOLYLINE
  5
3B1
100
AcDbEntity
  8
0
100
AcDbPolyline
 62
7
  6
CONTINUOUS
 90
3
 70
0
 10
54.9227306014
 20
31.2671832613
 10
54.9628122122
 20
31.3442118255
 10
54.9828310028
 20
31.3826167264
  0
LINE
  5
3B2
100
AcDbEntity
  8
0
100
AcDbLine
 62
7
  6
CONTINUOUS
 10
54.9828310028
 20
31.3826167264
 11
55.042829519
 21
31.4960263597
  0
LINE
  5
3B3
100
AcDbEntity
  8
0
100
AcDbLine
 62
7
  6
CONTINUOUS
 10
55.101826462
 20
31.6053843506
 11
55.1207270467
 21
31.6409220903
  0
LWPOLYLINE
  5
3B4
100
AcDbEntity
  8
0
100
AcDbPolyline
 62
7
  6
CONTINUOUS
 90
3
 70
0
 10
55.042829519
 20
31.4960263597
 10
55.0626634348
 20
31.5330438877
 10
55.101826462
 20
31.6053843506
  0
LINE
  5
3B5
100
AcDbEntity
  8
SMUSSO
100
AcDbLine
 62
7
  6
CONTINUOUS
 10
69.5962899016
 20
25.5037177135
 11
69.3945520122
 21
25.3054403727
  0
LINE
  5
3B6
100
AcDbEntity
  8
SMUSSO
100
AcDbLine
 62
7
  6
CONTINUOUS
 10
69.4102450091
 20
25.2897473758
 11
69.6120133629
 21
25.4879942522
  0
LINE
  5
3B7
100
AcDbEntity
  8
0
100
AcDbLine
 62
7
  6
CONTINUOUS
 10
56.5450079241
 20
30.2718072551
 11
56.7295378203
 21
30.2718858333
  0
LINE
  5
3B8
100
AcDbEntity
  8
0
100
AcDbLine
 62
7
  6
CONTINUOUS
 10
-54.2549920759
 20
30.2718072551
 11
-54.0704621797
 21
30.2718858333
  0
LINE
  5
3B9
100
AcDbEntity
  8
0
100
AcDbLine
 62
7
  6
CONTINUOUS
 10
54.070462179
 20
30.7281141631
 11
54.2549920768
 21
30.72819274
  0
LINE
  5
3BA
100
AcDbEntity
  8
0
100
AcDbLine
 62
7
  6
CONTINUOUS
 10
-56.729537821
 20
30.7281141631
 11
-56.5450079232
 21
30.72819274
  0
LINE
  5
3BB
100
AcDbEntity
  8
0
100
AcDbLine
 62
7
  6
CONTINUOUS
 10
-56.5450395831
 20
30.2716467289
 11
-56.7295413448
 21
30.2719063759
  0
LINE
  5
3BC
100
AcDbEntity
  8
0
100
AcDbLine
 62
7
  6
CONTINUOUS
 10
54.2549604169
 20
30.2716467289
 11
54.0704586552
 21
30.2719063759
  0
LINE
  5
3BD
100
AcDbEntity
  8
0
100
AcDbLine
 62
7
  6
CONTINUOUS
 10
-54.2549604169
 20
30.7283532711
 11
-54.0704586552
 21
30.7280936241
  0
LINE
  5
3BE
100
AcDbEntity
  8
0
100
AcDbLine
 62
7
  6
CONTINUOUS
 10
56.5450395831
 20
30.7283532711
 11
56.7295413448
 21
30.7280936241
  0
LINE
  5
3BF
100
AcDbEntity
  8
SMUSSO
100
AcDbLine
 62
7
  6
CONTINUOUS
 10
69.3945520122
 20
-25.3054403727
 11
69.5962899016
 21
-25.5037177135
  0
LINE
  5
3C0
100
AcDbEntity
  8
SMUSSO
100
AcDbLine
 62
7
  6
CONTINUOUS
 10
69.4102450091
 20
-25.2897473758
 11
69.6120133629
 21
-25.4897549909
  0
LINE
  5
3C1
100
AcDbEntity
  8
0
100
AcDbLine
 62
7
  6
CONTINUOUS
 10
55.0623041892
 20
-31.532372725
 11
55.0424423034
 21
-31.4952887652
  0
LWPOLYLINE
  5
3C2
100
AcDbEntity
  8
0
100
AcDbPolyline
 62
7
  6
CONTINUOUS
 90
3
 70
0
 10
55.120726997
 20
-31.6409219985
 10
55.1016522944
 20
-31.6050914956
 10
55.0623041892
 20
-31.532372725
  0
LWPOLYLINE
  5
3C3
100
AcDbEntity
  8
0
100
AcDbPolyline
 62
7
  6
CONTINUOUS
 90
3
 70
0
 10
55.0424423034
 20
-31.4952887652
 10
54.9825035592
 20
-31.3819848102
 10
54.9625327643
 20
-31.343672801
  0
LINE
  5
3C4
100
AcDbEntity
  8
0
100
AcDbLine
 62
7
  6
CONTINUOUS
 10
54.9625327643
 20
-31.343672801
 11
54.9225503893
 21
-31.2668300146
  0
LWPOLYLINE
  5
3C5
100
AcDbEntity
  8
0
100
AcDbPolyline
 62
7
  6
CONTINUOUS
 90
7
 70
0
 10
54.2393452314
 20
30.2345288879
 10
54.2420802268
 20
30.2406662078
 10
54.2447650568
 20
30.246836792
 10
54.2473997215
 20
30.2530406406
 10
54.2499842207
 20
30.2592777534
 10
54.2525185546
 20
30.2655481305
 10
54.2550027231
 20
30.2718517719
  0
LWPOLYLINE
  5
3C6
100
AcDbEntity
  8
0
100
AcDbPolyline
 62
7
  6
CONTINUOUS
 90
7
 70
0
 10
56.5606547686
 20
30.7654711121
 10
56.5579197732
 20
30.7593337922
 10
56.5552349432
 20
30.753163208
 10
56.5526002785
 20
30.7469593594
 10
56.5500157793
 20
30.7407222466
 10
56.5474814454
 20
30.7344518695
 10
56.5449972769
 20
30.7281482281
  0
LINE
  5
3C7
100
AcDbEntity
  8
0
100
AcDbLine
 62
7
  6
CONTINUOUS
 10
54.2590779097
 20
30.2207270467
 11
54.2778937063
 21
30.2611776175
  0
LINE
  5
3C8
100
AcDbEntity
  8
0
100
AcDbLine
 62
7
  6
CONTINUOUS
 10
56.5409220903
 20
30.7792729533
 11
56.5221062937
 21
30.7388223825
  0
LINE
  5
3C9
100
AcDbEntity
  8
TRASH
100
AcDbLine
 62
7
  6
CONTINUOUS
 10
54.880282565
 20
31.0197267822
 11
55.1718517719
 21
31.6449972769
  0
LINE
  5
3CA
100
AcDbEntity
  8
TRASH
100
AcDbLine
 62
7
  6
CONTINUOUS
 10
55.919717435
 20
29.9802732178
 11
55.6281482281
 21
29.3550027231
  0
LINE
  5
3CB
100
AcDbEntity
  8
0
100
AcDbLine
 62
7
  6
CONTINUOUS
 10
54.8252662582
 20
31.0747336518
 11
54.8443662978
 21
31.1131857446
  0
LINE
  5
3CC
100
AcDbEntity
  8
0
100
AcDbLine
 62
7
  6
CONTINUOUS
 10
55.9747337418
 20
29.9252663482
 11
55.9556337022
 21
29.8868142554
  0
LWPOLYLINE
  5
3CD
100
AcDbEntity
  8
0
100
AcDbPolyline
 62
7
  6
CONTINUOUS
 90
4
 70
0
 10
54.8443662978
 20
31.1131857446
 10
54.883172507
 20
31.1898442975
 10
54.9028530599
 20
31.2284175075
 10
54.9227306014
 20
31.2671832613
  0
LINE
  5
3CE
100
AcDbEntity
  8
0
100
AcDbLine
 62
7
  6
CONTINUOUS
 10
55.9556337022
 20
29.8868142554
 11
55.916827493
 21
29.8101557025
  0
LINE
  5
3CF
100
AcDbEntity
  8
0
100
AcDbLine
 62
7
  6
CONTINUOUS
 10
55.916827493
 20
29.8101557025
 11
55.8772693986
 21
29.7328167387
  0
LWPOLYLINE
  5
3D0
100
AcDbEntity
  8
0
100
AcDbPolyline
 62
7
  6
CONTINUOUS
 90
3
 70
0
 10
55.8772693986
 20
29.7328167387
 10
55.8371877878
 20
29.6557881745
 10
55.8171689972
 20
29.6173832736
  0
LINE
  5
3D1
100
AcDbEntity
  8
0
100
AcDbLine
 62
7
  6
CONTINUOUS
 10
55.8171689972
 20
29.6173832736
 11
55.757170481
 21
29.5039736403
  0
LINE
  5
3D2
100
AcDbEntity
  8
0
100
AcDbLine
 62
7
  6
CONTINUOUS
 10
55.698173538
 20
29.3946156494
 11
55.6792729533
 21
29.3590779097
  0
LWPOLYLINE
  5
3D3
100
AcDbEntity
  8
0
100
AcDbPolyline
 62
7
  6
CONTINUOUS
 90
3
 70
0
 10
55.757170481
 20
29.5039736403
 10
55.7373365652
 20
29.4669561123
 10
55.698173538
 20
29.3946156494
  0
LWPOLYLINE
  5
3D4
100
AcDbEntity
  8
0
100
AcDbPolyline
 62
7
  6
CONTINUOUS
 90
3
 70
0
 43
0.3500000087
 10
-3.2142857319
 20
-52.8071433777
 10
-2.357142799
 20
-51.949999379
 10
-2.357142799
 20
-54.950000177
  0
LINE
  5
3D5
100
AcDbEntity
  8
DRAFT
100
AcDbLine
 62
7
  6
CONTINUOUS
 10
-69.9
 20
35.7
 11
-69.6120133629
 21
35.7
  0
LINE
  5
3D6
100
AcDbEntity
  8
DRAFT
100
AcDbLine
 62
7
  6
CONTINUOUS
 10
69.9
 20
35.7
 11
69.6120133629
 21
35.7
  0
LINE
  5
3D7
100
AcDbEntity
  8
0
100
AcDbLine
 62
7
  6
CONTINUOUS
 10
55.7376958108
 20
-29.467627275
 11
55.7575576966
 21
-29.5047112348
  0
LWPOLYLINE
  5
3D8
100
AcDbEntity
  8
0
100
AcDbPolyline
 62
7
  6
CONTINUOUS
 90
3
 70
0
 10
55.679273003
 20
-29.3590780015
 10
55.6983477056
 20
-29.3949085044
 10
55.7376958108
 20
-29.467627275
  0
LWPOLYLINE
  5
3D9
100
AcDbEntity
  8
0
100
AcDbPolyline
 62
7
  6
CONTINUOUS
 90
3
 70
0
 10
55.7575576966
 20
-29.5047112348
 10
55.8174964408
 20
-29.6180151898
 10
55.8374672357
 20
-29.656327199
  0
LINE
  5
3DA
100
AcDbEntity
  8
0
100
AcDbLine
 62
7
  6
CONTINUOUS
 10
55.8374672357
 20
-29.656327199
 11
55.8774496107
 21
-29.7331699854
  0
LWPOLYLINE
  5
3DB
100
AcDbEntity
  8
0
100
AcDbPolyline
 62
7
  6
CONTINUOUS
 90
4
 70
0
 10
54.9225503893
 20
-31.2668300146
 10
54.8636153218
 20
-31.1514105059
 10
54.8443395444
 20
-31.113136977
 10
54.82526624
 20
-31.0747337642
  0
LWPOLYLINE
  5
3DC
100
AcDbEntity
  8
0
100
AcDbPolyline
 62
7
  6
CONTINUOUS
 90
4
 70
0
 10
55.8774496107
 20
-29.7331699854
 10
55.9363846782
 20
-29.8485894941
 10
55.9556604556
 20
-29.886863023
 10
55.97473376
 20
-29.9252662358
  0
LINE
  5
3DD
100
AcDbEntity
  8
0
100
AcDbLine
 62
7
  6
CONTINUOUS
 10
54.277893713
 20
-30.2611776274
 11
54.2590780015
 21
-30.220726997
  0
LINE
  5
3DE
100
AcDbEntity
  8
0
100
AcDbLine
 62
7
  6
CONTINUOUS
 10
56.522106287
 20
-30.7388223726
 11
56.5409219985
 21
-30.779273003
  0
LINE
  5
3DF
100
AcDbEntity
  8
TRASH
100
AcDbLine
 62
7
  6
CONTINUOUS
 10
54.9268692362
 20
-31.1196800794
 11
54.8802765161
 21
-31.0197234839
  0
LINE
  5
3E0
100
AcDbEntity
  8
TRASH
100
AcDbLine
 62
7
  6
CONTINUOUS
 10
55.8731307638
 20
-29.8803199206
 11
55.9197234839
 21
-29.9802765161
  0
LINE
  5
3E1
100
AcDbEntity
  8
TRASH
100
AcDbLine
 62
7
  6
CONTINUOUS
 10
55.1718517819
 20
-31.6449972701
 11
54.9268692362
 21
-31.1196800794
  0
LINE
  5
3E2
100
AcDbEntity
  8
TRASH
100
AcDbLine
 62
7
  6
CONTINUOUS
 10
55.6281482181
 20
-29.3550027299
 11
55.8731307638
 21
-29.8803199206
  0
LINE
  5
3E3
100
AcDbEntity
  8
0
100
AcDbLine
 62
7
  6
CONTINUOUS
 10
54.24706925
 20
-30.253267201
 11
54.2390359559
 21
-30.2347453368
  0
LINE
  5
3E4
100
AcDbEntity
  8
0
100
AcDbLine
 62
7
  6
CONTINUOUS
 10
56.5529307411
 20
-30.7467328051
 11
56.5609640369
 21
-30.7652546682
  0
LINE
  5
3E5
100
AcDbEntity
  8
0
100
AcDbLine
 62
7
  6
CONTINUOUS
 10
54.2550027299
 20
-30.2718517819
 11
54.24706925
 21
-30.253267201
  0
LINE
  5
3E6
100
AcDbEntity
  8
0
100
AcDbLine
 62
7
  6
CONTINUOUS
 10
56.5449972701
 20
-30.7281482181
 11
56.5529307411
 21
-30.7467328051
  0
LINE
  5
3E7
100
AcDbEntity
  8
0
100
AcDbLine
 62
7
  6
CONTINUOUS
 10
-54.0704621797
 20
30.2718858333
 11
-54.2390359631
 21
30.2347453318
  0
LINE
  5
3E8
100
AcDbEntity
  8
0
100
AcDbLine
 62
7
  6
CONTINUOUS
 10
-56.729537821
 20
30.7281141631
 11
-56.5609640441
 21
30.7652546632
  0
LINE
  5
3E9
100
AcDbEntity
  8
SMUSSO
100
AcDbLine
 62
250
  6
CONTINUOUS
 10
69.5962899016
 20
44.9162816008
 11
-69.5962899016
 21
44.9162816008
  0
LINE
  5
3EA
100
AcDbEntity
  8
0
100
AcDbLine
 62
7
  6
CONTINUOUS
 10
54.0704586552
 20
30.2719063759
 11
54.2393452314
 21
30.2345288879
  0
LINE
  5
3EB
100
AcDbEntity
  8
0
100
AcDbLine
 62
7
  6
CONTINUOUS
 10
56.5606547686
 20
30.7654711121
 11
56.7295413448
 21
30.7280936241
  0
LINE
  5
3EC
100
AcDbEntity
  8
0
100
AcDbLine
 62
7
  6
CONTINUOUS
 10
55.1719063759
 20
31.8295413448
 11
55.1345288879
 21
31.6606547686
  0
LINE
  5
3ED
100
AcDbEntity
  8
0
100
AcDbLine
 62
7
  6
CONTINUOUS
 10
55.6654711121
 20
29.3393452314
 11
55.6280936241
 21
29.1704586552
  0
LWPOLYLINE
  5
3EE
100
AcDbEntity
  8
0
100
AcDbPolyline
 62
7
  6
CONTINUOUS
 90
3
 70
0
 10
54.7605429144
 20
-29.9573299127
 10
54.7920915625
 20
-29.9414010046
 10
54.8252662582
 20
-29.9252663482
  0
LINE
  5
3EF
100
AcDbEntity
  8
0
100
AcDbLine
 62
7
  6
CONTINUOUS
 10
55.6388223726
 20
-29.377893713
 11
55.679273003
 21
-29.3590780015
  0
LINE
  5
3F0
100
AcDbEntity
  8
TRASH
100
AcDbLine
 62
7
  6
CONTINUOUS
 10
54.2550027299
 20
-30.2718517819
 11
54.8802732178
 21
-29.980282565
  0
LINE
  5
3F1
100
AcDbEntity
  8
0
100
AcDbLine
 62
7
  6
CONTINUOUS
 10
55.6467328067
 20
-29.3470692613
 11
55.6652546694
 21
-29.3390359649
  0
LINE
  5
3F2
100
AcDbEntity
  8
0
100
AcDbLine
 62
7
  6
CONTINUOUS
 10
55.1532672021
 20
-31.6529307516
 11
55.1347453378
 21
-31.6609640455
  0
LINE
  5
3F3
100
AcDbEntity
  8
0
100
AcDbLine
 62
7
  6
CONTINUOUS
 10
55.6281482181
 20
-29.3550027299
 11
55.6467328067
 21
-29.3470692613
  0
LINE
  5
3F4
100
AcDbEntity
  8
0
100
AcDbLine
 62
7
  6
CONTINUOUS
 10
55.1718517819
 20
-31.6449972701
 11
55.1532672021
 21
-31.6529307516
  0
LINE
  5
3F5
100
AcDbEntity
  8
SMUSSO
100
AcDbLine
 62
250
  6
CONTINUOUS
 10
69.4161787934
 20
47.4161864085
 11
-69.4161787934
 21
47.4161864085
  0
LINE
  5
3F6
100
AcDbEntity
  8
SMUSSO
100
AcDbLine
 62
7
  6
CONTINUOUS
 10
-69.6999923849
 20
47.7
 11
69.6999923849
 21
47.7
  0
LWPOLYLINE
  5
3F7
100
AcDbEntity
  8
0
100
AcDbPolyline
 62
7
  6
CONTINUOUS
 90
7
 70
0
 10
55.6654711121
 20
29.3393452314
 10
55.6593337922
 20
29.3420802268
 10
55.653163208
 20
29.3447650568
 10
55.6469593594
 20
29.3473997215
 10
55.6407222466
 20
29.3499842207
 10
55.6344518695
 20
29.3525185546
 10
55.6281482281
 20
29.3550027231
  0
LWPOLYLINE
  5
3F8
100
AcDbEntity
  8
0
100
AcDbPolyline
 62
7
  6
CONTINUOUS
 90
7
 70
0
 10
55.1345288879
 20
31.6606547686
 10
55.1406662078
 20
31.6579197732
 10
55.146836792
 20
31.6552349432
 10
55.1530406406
 20
31.6526002785
 10
55.1592777534
 20
31.6500157793
 10
55.1655481305
 20
31.6474814454
 10
55.1718517719
 20
31.6449972769
  0
LINE
  5
3F9
100
AcDbEntity
  8
0
100
AcDbLine
 62
7
  6
CONTINUOUS
 10
55.6792729533
 20
29.3590779097
 11
55.6388223825
 21
29.3778937063
  0
LINE
  5
3FA
100
AcDbEntity
  8
TRASH
100
AcDbLine
 62
7
  6
CONTINUOUS
 10
54.8802765161
 20
29.9802765161
 11
54.2550027231
 21
30.2718517719
  0
LINE
  5
3FB
100
AcDbEntity
  8
0
100
AcDbLine
 62
7
  6
CONTINUOUS
 10
54.82526624
 20
29.9252662358
 11
54.7767858041
 21
29.9494868381
  0
LINE
  5
3FC
100
AcDbEntity
  8
0
100
AcDbLine
 62
7
  6
CONTINUOUS
 10
54.7767858041
 20
29.9494868381
 11
54.7124311234
 21
29.9820188278
  0
LINE
  5
3FD
100
AcDbEntity
  8
0
100
AcDbLine
 62
7
  6
CONTINUOUS
 10
55.1718858376
 20
-31.8295378211
 11
55.1347453378
 21
-31.6609640455
  0
LINE
  5
3FE
100
AcDbEntity
  8
0
100
AcDbLine
 62
7
  6
CONTINUOUS
 10
55.6281141677
 20
-29.1704621798
 11
55.6652546694
 21
-29.3390359649
  0
LINE
  5
3FF
100
AcDbEntity
  8
0
100
AcDbLine
 62
7
  6
CONTINUOUS
 10
55.1718072608
 20
-31.645007923
 11
55.1718858376
 21
-31.8295378211
  0
LINE
  5
400
100
AcDbEntity
  8
0
100
AcDbLine
 62
7
  6
CONTINUOUS
 10
55.1718072608
 20
29.354992077
 11
55.1718858376
 21
29.1704621789
  0
LINE
  5
401
100
AcDbEntity
  8
0
100
AcDbLine
 62
7
  6
CONTINUOUS
 10
55.6281141677
 20
-29.1704621798
 11
55.6281927462
 21
-29.3549920756
  0
LINE
  5
402
100
AcDbEntity
  8
0
100
AcDbLine
 62
7
  6
CONTINUOUS
 10
55.6281141677
 20
31.8295378202
 11
55.6281927462
 21
31.6450079244
  0
LINE
  5
403
100
AcDbEntity
  8
0
100
AcDbLine
 62
7
  6
CONTINUOUS
 10
55.1716467289
 20
31.6450395831
 11
55.1719063759
 21
31.8295413448
  0
LINE
  5
404
100
AcDbEntity
  8
0
100
AcDbLine
 62
7
  6
CONTINUOUS
 10
55.1716467289
 20
-29.3549604169
 11
55.1719063759
 21
-29.1704586552
  0
LINE
  5
405
100
AcDbEntity
  8
0
100
AcDbLine
 62
7
  6
CONTINUOUS
 10
55.6283532711
 20
29.3549604169
 11
55.6280936241
 21
29.1704586552
  0
LINE
  5
406
100
AcDbEntity
  8
0
100
AcDbLine
 62
7
  6
CONTINUOUS
 10
55.6283532711
 20
-31.6450395831
 11
55.6280936241
 21
-31.8295413448
  0
LWPOLYLINE
  5
407
100
AcDbEntity
  8
SMUSSO
100
AcDbPolyline
 62
7
  6
CONTINUOUS
 90
7
 70
0
 10
69.4161787934
 20
47.4161864085
 10
69.4151295445
 20
47.4116612661
 10
69.4140892164
 20
47.4003694411
 10
69.4130578092
 20
47.3823415312
 10
69.4120325705
 20
47.3576261379
 10
69.4110162527
 20
47.3262903982
 10
69.4090353101
 20
47.2441204137
  0
LWPOLYLINE
  5
408
100
AcDbEntity
  8
SMUSSO
100
AcDbPolyline
 62
7
  6
CONTINUOUS
 90
10
 70
0
 10
69.6161864085
 20
47.2161787934
 10
69.6151371596
 20
47.2119408521
 10
69.6140968315
 20
47.2015618252
 10
69.6130654243
 20
47.1850417125
 10
69.6120401856
 20
47.1623020575
 10
69.6110238678
 20
47.1334213169
 10
69.6100247276
 20
47.09863486
 10
69.6090429252
 20
47.057895625
 10
69.6080783004
 20
47.0112506737
 10
69.6053345197
 20
46.8380497807
  0
LINE
  5
409
100
AcDbEntity
  8
0
100
AcDbLine
 62
7
  6
CONTINUOUS
 10
54.2390359559
 20
-30.2347453368
 11
54.2590780015
 21
-30.220726997
  0
LINE
  5
40A
100
AcDbEntity
  8
0
100
AcDbLine
 62
7
  6
CONTINUOUS
 10
54.2590780015
 20
-30.220726997
 11
54.3844513252
 21
-30.1533113183
  0
LINE
  5
40B
100
AcDbEntity
  8
0
100
AcDbLine
 62
7
  6
CONTINUOUS
 10
56.5409219985
 20
-30.779273003
 11
56.4155486748
 21
-30.8466886817
  0
LINE
  5
40C
100
AcDbEntity
  8
0
100
AcDbLine
 62
7
  6
CONTINUOUS
 10
54.3844513252
 20
-30.1533113183
 11
54.4682545297
 21
-30.1087911278
  0
LINE
  5
40D
100
AcDbEntity
  8
0
100
AcDbLine
 62
7
  6
CONTINUOUS
 10
56.4155486748
 20
-30.8466886817
 11
56.3317454703
 21
-30.8912088722
  0
LINE
  5
40E
100
AcDbEntity
  8
0
100
AcDbLine
 62
7
  6
CONTINUOUS
 10
54.4682545297
 20
-30.1087911278
 11
54.5322800603
 21
-30.075095774
  0
LINE
  5
40F
100
AcDbEntity
  8
0
100
AcDbLine
 62
7
  6
CONTINUOUS
 10
56.3317454703
 20
-30.8912088722
 11
56.2677199397
 21
-30.924904226
  0
LINE
  5
410
100
AcDbEntity
  8
0
100
AcDbLine
 62
7
  6
CONTINUOUS
 10
54.5322800603
 20
-30.075095774
 11
54.6000968775
 21
-30.0397336721
  0
LINE
  5
411
100
AcDbEntity
  8
0
100
AcDbLine
 62
7
  6
CONTINUOUS
 10
56.2677199397
 20
-30.924904226
 11
56.1999031225
 21
-30.9602663279
  0
LWPOLYLINE
  5
412
100
AcDbEntity
  8
0
100
AcDbPolyline
 62
7
  6
CONTINUOUS
 90
4
 70
0
 10
54.6000968775
 20
-30.0397336721
 10
54.6749932479
 20
-30.0011174474
 10
54.702083293
 20
-29.9874105618
 10
54.7605429144
 20
-29.9573299127
  0
LWPOLYLINE
  5
413
100
AcDbEntity
  8
0
100
AcDbPolyline
 62
7
  6
CONTINUOUS
 90
4
 70
0
 10
56.1999031225
 20
-30.9602663279
 10
56.1250067521
 20
-30.9988825526
 10
56.097916707
 20
-31.0125894382
 10
56.0394570856
 20
-31.0426700873
  0
LWPOLYLINE
  5
414
100
AcDbEntity
  8
0
100
AcDbPolyline
 62
7
  6
CONTINUOUS
 90
3
 70
0
 10
56.0394570856
 20
-31.0426700873
 10
56.0079084375
 20
-31.0585989954
 10
55.9747337418
 20
-31.0747336518
  0
LINE
  5
415
100
AcDbEntity
  8
0
100
AcDbLine
 62
7
  6
CONTINUOUS
 10
55.1611776274
 20
-31.622106287
 11
55.120726997
 21
-31.6409219985
  0
LINE
  5
416
100
AcDbEntity
  8
TRASH
100
AcDbLine
 62
7
  6
CONTINUOUS
 10
56.5449972701
 20
-30.7281482181
 11
55.9197267822
 21
-31.019717435
  0
LWPOLYLINE
  5
417
100
AcDbEntity
  8
0
100
AcDbPolyline
 62
7
  6
CONTINUOUS
 90
3
 70
0
 43
0.3500000087
 10
0.0
 20
57.0928531006
 10
-1.4999999993
 20
57.0928531006
 10
-0.8571428663
 20
59.4500006958
  0
LINE
  5
418
100
AcDbEntity
  8
0
100
AcDbLine
 62
7
  6
CONTINUOUS
 10
55.1207270467
 20
31.6409220903
 11
55.1611776175
 21
31.6221062937
  0
LINE
  5
419
100
AcDbEntity
  8
TRASH
100
AcDbLine
 62
7
  6
CONTINUOUS
 10
55.9197234839
 20
31.0197234839
 11
56.5449972769
 21
30.7281482281
  0
LINE
  5
41A
100
AcDbEntity
  8
0
100
AcDbLine
 62
7
  6
CONTINUOUS
 10
55.97473376
 20
31.0747337642
 11
56.0232141959
 21
31.0505131619
  0
LINE
  5
41B
100
AcDbEntity
  8
0
100
AcDbLine
 62
7
  6
CONTINUOUS
 10
56.0232141959
 20
31.0505131619
 11
56.0875688766
 21
31.0179811722
  0
LINE
  5
41C
100
AcDbEntity
  8
0
100
AcDbLine
 62
7
  6
CONTINUOUS
 10
54.7124311234
 20
29.9820188278
 11
54.6485679199
 21
30.0146995504
  0
LINE
  5
41D
100
AcDbEntity
  8
0
100
AcDbLine
 62
7
  6
CONTINUOUS
 10
56.0875688766
 20
31.0179811722
 11
56.1514320801
 21
30.9853004496
  0
LINE
  5
41E
100
AcDbEntity
  8
0
100
AcDbLine
 62
7
  6
CONTINUOUS
 10
54.6485679199
 20
30.0146995504
 11
54.5830114914
 21
30.0486051531
  0
LINE
  5
41F
100
AcDbEntity
  8
0
100
AcDbLine
 62
7
  6
CONTINUOUS
 10
56.1514320801
 20
30.9853004496
 11
56.2169885086
 21
30.9513948469
  0
LINE
  5
420
100
AcDbEntity
  8
0
100
AcDbLine
 62
7
  6
CONTINUOUS
 10
54.5830114914
 20
30.0486051531
 11
54.4100085486
 21
30.1396839799
  0
LINE
  5
421
100
AcDbEntity
  8
0
100
AcDbLine
 62
7
  6
CONTINUOUS
 10
56.2169885086
 20
30.9513948469
 11
56.3899914514
 21
30.8603160201
  0
LWPOLYLINE
  5
422
100
AcDbEntity
  8
0
100
AcDbPolyline
 62
7
  6
CONTINUOUS
 90
3
 70
0
 10
54.4100085486
 20
30.1396839799
 10
54.28675735
 20
30.2056441056
 10
54.2590779097
 20
30.2207270467
  0
LWPOLYLINE
  5
423
100
AcDbEntity
  8
0
100
AcDbPolyline
 62
7
  6
CONTINUOUS
 90
3
 70
0
 10
56.3899914514
 20
30.8603160201
 10
56.51324265
 20
30.7943558944
 10
56.5409220903
 20
30.7792729533
  0
LINE
  5
424
100
AcDbEntity
  8
0
100
AcDbLine
 62
7
  6
CONTINUOUS
 10
54.2393452314
 20
30.2345288879
 11
54.2590779097
 21
30.2207270467
  0
LWPOLYLINE
  5
425
100
AcDbEntity
  8
SMUSSO
100
AcDbPolyline
 62
7
  6
CONTINUOUS
 90
8
 70
0
 10
69.6161864085
 20
-47.2161787934
 10
69.6151372157
 20
-47.2119412461
 10
69.6140969426
 20
-47.2015632678
 10
69.6130655892
 20
-47.1850448586
 10
69.6120404063
 20
-47.1623077282
 10
69.6110241431
 20
-47.1334301669
 10
69.6100250472
 20
-47.0986470452
 10
69.609043272
 20
-47.0579109971
  0
LWPOLYLINE
  5
426
100
AcDbEntity
  8
SMUSSO
100
AcDbPolyline
 62
7
  6
CONTINUOUS
 90
6
 70
0
 10
69.4161787934
 20
-47.4161864085
 10
69.4151296006
 20
-47.4116616858
 10
69.4140893275
 20
-47.4003710012
 10
69.4130579741
 20
-47.3823449509
 10
69.4120327912
 20
-47.3576322104
 10
69.411016528
 20
-47.3262998656
  0
LINE
  5
427
100
AcDbEntity
  8
0
100
AcDbLine
 62
7
  6
CONTINUOUS
 10
55.1719063759
 20
-29.1704586552
 11
55.1345288879
 21
-29.3393452314
  0
LINE
  5
428
100
AcDbEntity
  8
0
100
AcDbLine
 62
7
  6
CONTINUOUS
 10
55.6654711121
 20
-31.6606547686
 11
55.6280936241
 21
-31.8295413448
  0
LWPOLYLINE
  5
429
100
AcDbEntity
  8
0
100
AcDbPolyline
 62
7
  6
CONTINUOUS
 90
7
 70
0
 10
54.2393452314
 20
-30.7654711121
 10
54.2420802268
 20
-30.7593337922
 10
54.2447650568
 20
-30.753163208
 10
54.2473997215
 20
-30.7469593594
 10
54.2499842207
 20
-30.7407222466
 10
54.2525185546
 20
-30.7344518695
 10
54.2550027231
 20
-30.7281482281
  0
LINE
  5
42A
100
AcDbEntity
  8
0
100
AcDbLine
 62
7
  6
CONTINUOUS
 10
54.2590779097
 20
-30.7792729533
 11
54.2778937063
 21
-30.7388223825
  0
LINE
  5
42B
100
AcDbEntity
  8
TRASH
100
AcDbLine
 62
7
  6
CONTINUOUS
 10
54.880282565
 20
-29.9802732178
 11
55.1718517719
 21
-29.3550027231
  0
LINE
  5
42C
100
AcDbEntity
  8
0
100
AcDbLine
 62
7
  6
CONTINUOUS
 10
54.8252662582
 20
-29.9252663482
 11
54.8443662978
 21
-29.8868142554
  0
LINE
  5
42D
100
AcDbEntity
  8
0
100
AcDbLine
 62
7
  6
CONTINUOUS
 10
54.8443662978
 20
-29.8868142554
 11
54.883172507
 21
-29.8101557025
  0
LINE
  5
42E
100
AcDbEntity
  8
0
100
AcDbLine
 62
7
  6
CONTINUOUS
 10
54.883172507
 20
-29.8101557025
 11
54.9227306014
 21
-29.7328167387
  0
LINE
  5
42F
100
AcDbEntity
  8
0
100
AcDbLine
 62
7
  6
CONTINUOUS
 10
54.9227306014
 20
-29.7328167387
 11
54.9828310028
 21
-29.6173832736
  0
LINE
  5
430
100
AcDbEntity
  8
0
100
AcDbLine
 62
7
  6
CONTINUOUS
 10
54.9828310028
 20
-29.6173832736
 11
55.042829519
 21
-29.5039736403
  0
LINE
  5
431
100
AcDbEntity
  8
0
100
AcDbLine
 62
7
  6
CONTINUOUS
 10
55.101826462
 20
-29.3946156494
 11
55.1207270467
 21
-29.3590779097
  0
LWPOLYLINE
  5
432
100
AcDbEntity
  8
0
100
AcDbPolyline
 62
7
  6
CONTINUOUS
 90
3
 70
0
 10
55.042829519
 20
-29.5039736403
 10
55.0626634348
 20
-29.4669561123
 10
55.101826462
 20
-29.3946156494
  0
LINE
  5
433
100
AcDbEntity
  8
0
100
AcDbLine
 62
7
  6
CONTINUOUS
 10
55.1345288879
 20
-29.3393452314
 11
55.1207270467
 21
-29.3590779097
  0
LINE
  5
434
100
AcDbEntity
  8
0
100
AcDbLine
 62
7
  6
CONTINUOUS
 10
54.82526624
 20
-31.0747337642
 11
54.8802765158
 21
-31.0197234842
  0
LINE
  5
435
100
AcDbEntity
  8
0
100
AcDbLine
 62
7
  6
CONTINUOUS
 10
55.9197234842
 20
-29.9802765158
 11
55.97473376
 21
-29.9252662358
  0
LINE
  5
436
100
AcDbEntity
  8
0
100
AcDbLine
 62
7
  6
CONTINUOUS
 10
56.5409219985
 20
-30.779273003
 11
56.5609640369
 21
-30.7652546682
  0
LINE
  5
437
100
AcDbEntity
  8
0
100
AcDbLine
 62
7
  6
CONTINUOUS
 10
56.5409220903
 20
30.7792729533
 11
56.5606547686
 21
30.7654711121
  0
LINE
  5
438
100
AcDbEntity
  8
0
100
AcDbLine
 62
7
  6
CONTINUOUS
 10
54.8802765158
 20
31.0197234842
 11
54.8252662582
 21
31.0747336518
  0
LINE
  5
439
100
AcDbEntity
  8
0
100
AcDbLine
 62
7
  6
CONTINUOUS
 10
55.9197234842
 20
29.9802765158
 11
55.9747337418
 21
29.9252663482
  0
LINE
  5
43A
100
AcDbEntity
  8
0
100
AcDbLine
 62
7
  6
CONTINUOUS
 10
55.120726997
 20
29.3590780015
 11
55.1347453378
 21
29.3390359545
  0
LINE
  5
43B
100
AcDbEntity
  8
0
100
AcDbLine
 62
7
  6
CONTINUOUS
 10
55.0623041892
 20
29.467627275
 11
55.0424423034
 21
29.5047112348
  0
LWPOLYLINE
  5
43C
100
AcDbEntity
  8
0
100
AcDbPolyline
 62
7
  6
CONTINUOUS
 90
3
 70
0
 10
55.120726997
 20
29.3590780015
 10
55.1016522944
 20
29.3949085044
 10
55.0623041892
 20
29.467627275
  0
LINE
  5
43D
100
AcDbEntity
  8
0
100
AcDbLine
 62
7
  6
CONTINUOUS
 10
55.0424423034
 20
29.5047112348
 11
54.9825035592
 21
29.6180151898
  0
LINE
  5
43E
100
AcDbEntity
  8
0
100
AcDbLine
 62
7
  6
CONTINUOUS
 10
54.9825035592
 20
29.6180151898
 11
54.9225503893
 21
29.7331699854
  0
LWPOLYLINE
  5
43F
100
AcDbEntity
  8
0
100
AcDbPolyline
 62
7
  6
CONTINUOUS
 90
4
 70
0
 10
54.9225503893
 20
29.7331699854
 10
54.8636153218
 20
29.8485894941
 10
54.8443395444
 20
29.886863023
 10
54.82526624
 20
29.9252662358
  0
LINE
  5
440
100
AcDbEntity
  8
0
100
AcDbLine
 62
7
  6
CONTINUOUS
 10
54.277893713
 20
30.7388223726
 11
54.2590780015
 21
30.779273003
  0
LINE
  5
441
100
AcDbEntity
  8
TRASH
100
AcDbLine
 62
7
  6
CONTINUOUS
 10
54.9268692362
 20
29.8803199206
 11
54.8802765161
 21
29.9802765161
  0
LINE
  5
442
100
AcDbEntity
  8
TRASH
100
AcDbLine
 62
7
  6
CONTINUOUS
 10
55.1718517819
 20
29.3550027299
 11
54.9268692362
 21
29.8803199206
  0
LINE
  5
443
100
AcDbEntity
  8
0
100
AcDbLine
 62
7
  6
CONTINUOUS
 10
54.24706925
 20
30.746732799
 11
54.2390359559
 21
30.7652546632
  0
LINE
  5
444
100
AcDbEntity
  8
0
100
AcDbLine
 62
7
  6
CONTINUOUS
 10
54.2550027299
 20
30.7281482181
 11
54.24706925
 21
30.746732799
  0
LINE
  5
445
100
AcDbEntity
  8
0
100
AcDbLine
 62
7
  6
CONTINUOUS
 10
55.1718858376
 20
29.1704621789
 11
55.1347453378
 21
29.3390359545
  0
LINE
  5
446
100
AcDbEntity
  8
0
100
AcDbLine
 62
7
  6
CONTINUOUS
 10
55.6281141677
 20
31.8295378202
 11
55.6652546694
 21
31.6609640351
  0
LINE
  5
447
100
AcDbEntity
  8
SMUSSO
100
AcDbLine
 62
7
  6
CONTINUOUS
 10
69.411016528
 20
-47.3262998656
 11
69.4090356569
 21
-47.2441373098
  0
LWPOLYLINE
  5
448
100
AcDbEntity
  8
0
100
AcDbPolyline
 62
7
  6
CONTINUOUS
 90
7
 70
0
 10
56.5606547686
 20
-30.2345288879
 10
56.5579197732
 20
-30.2406662078
 10
56.5552349432
 20
-30.246836792
 10
56.5526002785
 20
-30.2530406406
 10
56.5500157793
 20
-30.2592777534
 10
56.5474814454
 20
-30.2655481305
 10
56.5449972769
 20
-30.2718517719
  0
LINE
  5
449
100
AcDbEntity
  8
0
100
AcDbLine
 62
7
  6
CONTINUOUS
 10
56.5409220903
 20
-30.2207270467
 11
56.5221062937
 21
-30.2611776175
  0
LINE
  5
44A
100
AcDbEntity
  8
TRASH
100
AcDbLine
 62
7
  6
CONTINUOUS
 10
55.919717435
 20
-31.0197267822
 11
55.6281482281
 21
-31.6449972769
  0
LINE
  5
44B
100
AcDbEntity
  8
0
100
AcDbLine
 62
7
  6
CONTINUOUS
 10
55.9747337418
 20
-31.0747336518
 11
55.9556337022
 21
-31.1131857446
  0
LINE
  5
44C
100
AcDbEntity
  8
0
100
AcDbLine
 62
7
  6
CONTINUOUS
 10
55.9556337022
 20
-31.1131857446
 11
55.916827493
 21
-31.1898442975
  0
LINE
  5
44D
100
AcDbEntity
  8
0
100
AcDbLine
 62
7
  6
CONTINUOUS
 10
55.916827493
 20
-31.1898442975
 11
55.8772693986
 21
-31.2671832613
  0
LINE
  5
44E
100
AcDbEntity
  8
0
100
AcDbLine
 62
7
  6
CONTINUOUS
 10
55.8772693986
 20
-31.2671832613
 11
55.8171689972
 21
-31.3826167264
  0
LINE
  5
44F
100
AcDbEntity
  8
0
100
AcDbLine
 62
7
  6
CONTINUOUS
 10
55.8171689972
 20
-31.3826167264
 11
55.757170481
 21
-31.4960263597
  0
LINE
  5
450
100
AcDbEntity
  8
0
100
AcDbLine
 62
7
  6
CONTINUOUS
 10
55.698173538
 20
-31.6053843506
 11
55.6792729533
 21
-31.6409220903
  0
LWPOLYLINE
  5
451
100
AcDbEntity
  8
0
100
AcDbPolyline
 62
7
  6
CONTINUOUS
 90
3
 70
0
 10
55.757170481
 20
-31.4960263597
 10
55.7373365652
 20
-31.5330438877
 10
55.698173538
 20
-31.6053843506
  0
LINE
  5
452
100
AcDbEntity
  8
0
100
AcDbLine
 62
7
  6
CONTINUOUS
 10
55.6792729533
 20
-31.6409220903
 11
55.6654711121
 21
-31.6606547686
  0
LINE
  5
453
100
AcDbEntity
  8
SMUSSO
100
AcDbLine
 62
7
  6
CONTINUOUS
 10
69.4102450091
 20
-25.2897473758
 11
69.3945520122
 21
-25.3054403727
  0
LINE
  5
454
100
AcDbEntity
  8
SMUSSO
100
AcDbLine
 62
7
  6
CONTINUOUS
 10
69.6120133629
 20
-25.4879942522
 11
69.5962899016
 21
-25.5037177135
  0
LINE
  5
455
100
AcDbEntity
  8
SMUSSO
100
AcDbLine
 62
7
  6
CONTINUOUS
 10
69.4102450091
 20
25.2897473758
 11
69.3945520122
 21
25.3054403727
  0
LINE
  5
456
100
AcDbEntity
  8
SMUSSO
100
AcDbLine
 62
7
  6
CONTINUOUS
 10
69.6120133629
 20
25.4879942522
 11
69.5962899016
 21
25.5037177135
  0
LINE
  5
457
100
AcDbEntity
  8
0
100
AcDbLine
 62
7
  6
CONTINUOUS
 10
55.6652546694
 20
31.6609640351
 11
55.679273003
 21
31.6409219985
  0
LINE
  5
458
100
AcDbEntity
  8
0
100
AcDbLine
 62
7
  6
CONTINUOUS
 10
55.7376958108
 20
31.532372725
 11
55.7575576966
 21
31.4952887652
  0
LWPOLYLINE
  5
459
100
AcDbEntity
  8
0
100
AcDbPolyline
 62
7
  6
CONTINUOUS
 90
3
 70
0
 10
55.679273003
 20
31.6409219985
 10
55.6983477056
 20
31.6050914956
 10
55.7376958108
 20
31.532372725
  0
LINE
  5
45A
100
AcDbEntity
  8
0
100
AcDbLine
 62
7
  6
CONTINUOUS
 10
55.7575576966
 20
31.4952887652
 11
55.8174964408
 21
31.3819848102
  0
LINE
  5
45B
100
AcDbEntity
  8
0
100
AcDbLine
 62
7
  6
CONTINUOUS
 10
55.8174964408
 20
31.3819848102
 11
55.8774496107
 21
31.2668300146
  0
LWPOLYLINE
  5
45C
100
AcDbEntity
  8
0
100
AcDbPolyline
 62
7
  6
CONTINUOUS
 90
4
 70
0
 10
55.8774496107
 20
31.2668300146
 10
55.9363846782
 20
31.1514105059
 10
55.9556604556
 20
31.113136977
 10
55.97473376
 20
31.0747337642
  0
LINE
  5
45D
100
AcDbEntity
  8
0
100
AcDbLine
 62
7
  6
CONTINUOUS
 10
56.522106287
 20
30.2611776274
 11
56.5409219985
 21
30.220726997
  0
LINE
  5
45E
100
AcDbEntity
  8
TRASH
100
AcDbLine
 62
7
  6
CONTINUOUS
 10
55.8731307638
 20
31.1196800794
 11
55.9197234839
 21
31.0197234839
  0
LINE
  5
45F
100
AcDbEntity
  8
TRASH
100
AcDbLine
 62
7
  6
CONTINUOUS
 10
55.6281482181
 20
31.6449972701
 11
55.8731307638
 21
31.1196800794
  0
LINE
  5
460
100
AcDbEntity
  8
0
100
AcDbLine
 62
7
  6
CONTINUOUS
 10
56.5529307411
 20
30.2532671949
 11
56.5609640369
 21
30.2347453318
  0
LINE
  5
461
100
AcDbEntity
  8
0
100
AcDbLine
 62
7
  6
CONTINUOUS
 10
56.5449972701
 20
30.2718517819
 11
56.5529307411
 21
30.2532671949
  0
LINE
  5
462
100
AcDbEntity
  8
SMUSSO
100
AcDbLine
 62
7
  6
CONTINUOUS
 10
69.609043272
 20
-47.0579109971
 11
69.6071390107
 21
-46.9590991891
  0
LINE
  5
463
100
AcDbEntity
  8
SMUSSO
100
AcDbLine
 62
7
  6
CONTINUOUS
 10
69.4090356569
 20
-47.2441373098
 11
69.4071313956
 21
-47.1367502055
  0
LINE
  5
464
100
AcDbEntity
  8
SMUSSO
100
AcDbLine
 62
7
  6
CONTINUOUS
 10
69.6071390107
 20
-46.9590991891
 11
69.6044775645
 21
-46.7697940125
  0
LINE
  5
465
100
AcDbEntity
  8
SMUSSO
100
AcDbLine
 62
7
  6
CONTINUOUS
 10
69.4071313956
 20
-47.1367502055
 11
69.4036449881
 21
-46.8512055577
  0
LINE
  5
466
100
AcDbEntity
  8
SMUSSO
100
AcDbLine
 62
7
  6
CONTINUOUS
 10
69.6044775645
 20
-46.7697940125
 11
69.6013902798
 21
-46.4481887975
  0
LINE
  5
467
100
AcDbEntity
  8
SMUSSO
100
AcDbLine
 62
7
  6
CONTINUOUS
 10
69.4036449881
 20
-46.8512055577
 11
69.4007059367
 21
-46.482019237
  0
LINE
  5
468
100
AcDbEntity
  8
SMUSSO
100
AcDbLine
 62
7
  6
CONTINUOUS
 10
69.6013902798
 20
-46.4481887975
 11
69.5989483536
 21
-46.0601180442
  0
LINE
  5
469
100
AcDbEntity
  8
SMUSSO
100
AcDbLine
 62
7
  6
CONTINUOUS
 10
69.4007059367
 20
-46.482019237
 11
69.3984449886
 21
-46.0451311274
  0
LINE
  5
46A
100
AcDbEntity
  8
SMUSSO
100
AcDbLine
 62
7
  6
CONTINUOUS
 10
69.5989483536
 20
-46.0601180442
 11
69.5969661462
 21
-45.5081719792
  0
LINE
  5
46B
100
AcDbEntity
  8
SMUSSO
100
AcDbLine
 62
7
  6
CONTINUOUS
 10
69.3984449886
 20
-46.0451311274
 11
69.3967156689
 21
-45.4329724763
  0
LINE
  5
46C
100
AcDbEntity
  8
SMUSSO
100
AcDbLine
 62
7
  6
CONTINUOUS
 10
69.5969661462
 20
-45.5081719792
 11
69.5962899016
 21
-44.9162816008
  0
LINE
  5
46D
100
AcDbEntity
  8
SMUSSO
100
AcDbLine
 62
7
  6
CONTINUOUS
 10
69.3967156689
 20
-45.4329724763
 11
69.3962822865
 21
-25.3054403727
  0
LINE
  5
46E
100
AcDbEntity
  8
SMUSSO
100
AcDbLine
 62
7
  6
CONTINUOUS
 10
69.5962899016
 20
-44.9162816008
 11
69.5962899016
 21
-25.5037177135
  0
LINE
  5
46F
100
AcDbEntity
  8
SMUSSO
100
AcDbLine
 62
7
  6
CONTINUOUS
 10
69.6120133629
 20
-25.4879942522
 11
69.6120133629
 21
-35.7
  0
LINE
  5
470
100
AcDbEntity
  8
SMUSSO
100
AcDbLine
 62
7
  6
CONTINUOUS
 10
69.6120133629
 20
25.4879942522
 11
69.6120133629
 21
35.7
  0
LINE
  5
471
100
AcDbEntity
  8
SMUSSO
100
AcDbLine
 62
7
  6
CONTINUOUS
 10
69.9
 20
47.4999923849
 11
69.9
 21
35.7
  0
LINE
  5
472
100
AcDbEntity
  8
SMUSSO
100
AcDbLine
 62
7
  6
CONTINUOUS
 10
69.9
 20
-35.7
 11
69.9
 21
-47.4999923849
  0
LINE
  5
473
100
AcDbEntity
  8
SMUSSO
100
AcDbLine
 62
7
  6
CONTINUOUS
 10
69.5984521864
 20
45.9547217825
 11
69.5962899016
 21
25.5037177135
  0
LINE
  5
474
100
AcDbEntity
  8
SMUSSO
100
AcDbLine
 62
7
  6
CONTINUOUS
 10
69.3989402981
 20
46.1596110712
 11
69.3962822865
 21
25.3054403727
  0
LINE
  5
475
100
AcDbEntity
  8
SMUSSO
100
AcDbLine
 62
7
  6
CONTINUOUS
 10
69.602105115
 20
46.5352910944
 11
69.5984521864
 21
45.9547217825
  0
LINE
  5
476
100
AcDbEntity
  8
SMUSSO
100
AcDbLine
 62
7
  6
CONTINUOUS
 10
69.4028517174
 20
46.7661296535
 11
69.3989402981
 21
46.1596110712
  0
LINE
  5
477
100
AcDbEntity
  8
SMUSSO
100
AcDbLine
 62
7
  6
CONTINUOUS
 10
69.6053345197
 20
46.8380497807
 11
69.602105115
 21
46.5352910944
  0
LINE
  5
478
100
AcDbEntity
  8
SMUSSO
100
AcDbLine
 62
7
  6
CONTINUOUS
 10
69.4062164825
 20
47.0739191203
 11
69.4028517174
 21
46.7661296535
  0
LWPOLYLINE
  5
479
100
AcDbEntity
  8
SMUSSO
100
AcDbPolyline
 62
7
  6
CONTINUOUS
 90
3
 70
0
 10
69.4090353101
 20
47.2441204137
 10
69.4080706853
 20
47.1935102806
 10
69.4062164825
 20
47.0739191203
  0
LWPOLYLINE
  5
47A
100
AcDbEntity
  8
0
100
AcDbPolyline
 62
7
  6
CONTINUOUS
 90
7
 70
0
 43
0.3500000087
 10
77.1499986023
 20
38.0027210541
 10
77.1499986023
 20
36.5027195892
 10
75.007141803
 20
38.0027210541
 10
74.5785687378
 20
38.0027210541
 10
74.1500041992
 20
37.5741479889
 10
74.1500041992
 20
36.9312926544
 10
74.7928595337
 20
36.5027195892
  0
LWPOLYLINE
  5
47B
100
AcDbEntity
  8
0
100
AcDbPolyline
 62
7
  6
CONTINUOUS
 90
7
 70
0
 43
0.3500000087
 10
77.1499986023
 20
35.6455777222
 10
77.1499986023
 20
34.1455762573
 10
75.007141803
 20
35.6455777222
 10
74.5785687378
 20
35.6455777222
 10
74.1500041992
 20
35.217004657
 10
74.1500041992
 20
34.5741493225
 10
74.7928595337
 20
34.1455762573
  0
LWPOLYLINE
  5
47C
100
AcDbEntity
  8
0
100
AcDbPolyline
 62
7
  6
CONTINUOUS
 90
7
 70
0
 43
0.3500000087
 10
77.1499986023
 20
-35.0027198685
 10
77.1499986023
 20
-36.5027202675
 10
75.007141803
 20
-35.0027198685
 10
74.5785687378
 20
-35.0027198685
 10
74.1500041992
 20
-35.4312918678
 10
74.1500041992
 20
-36.0741482681
 10
74.7928595337
 20
-36.5027202675
  0
LWPOLYLINE
  5
47D
100
AcDbEntity
  8
0
100
AcDbPolyline
 62
7
  6
CONTINUOUS
 90
7
 70
0
 43
0.3500000087
 10
77.1499986023
 20
-37.3598632004
 10
77.1499986023
 20
-38.8598625336
 10
75.007141803
 20
-37.3598632004
 10
74.5785687378
 20
-37.3598632004
 10
74.1500041992
 20
-37.7884341339
 10
74.1500041992
 20
-38.4312916
 10
74.7928595337
 20
-38.8598625336
  0
LINE
  5
47E
100
AcDbEntity
  8
SMUSSO
100
AcDbLine
 62
250
  6
CONTINUOUS
 10
69.4161787934
 20
-47.4161864085
 11
69.6161864085
 21
-47.2161787934
  0
LINE
  5
47F
100
AcDbEntity
  8
SMUSSO
100
AcDbLine
 62
7
  6
CONTINUOUS
 10
69.9
 20
-47.4999923849
 11
69.6999923849
 21
-47.7
  0
LINE
  5
480
100
AcDbEntity
  8
SMUSSO
100
AcDbLine
 62
250
  6
CONTINUOUS
 10
69.6161864085
 20
47.2161787934
 11
69.4161787934
 21
47.4161864085
  0
LINE
  5
481
100
AcDbEntity
  8
SMUSSO
100
AcDbLine
 62
7
  6
CONTINUOUS
 10
69.6999923849
 20
47.7
 11
69.9
 21
47.4999923849
  0
LWPOLYLINE
  5
482
100
AcDbEntity
  8
0
100
AcDbPolyline
 62
7
  6
CONTINUOUS
 90
6
 70
0
 43
0.3500000087
 10
-119.2876591248
 20
-54.950000177
 10
-118.2162307251
 20
-54.950000177
 10
-118.0019399292
 20
-54.7357136444
 10
-118.0019399292
 20
-53.6642852448
 10
-118.4305129944
 20
-53.2357143112
 10
-118.8590860596
 20
-53.2357143112
  0
LWPOLYLINE
  5
483
100
AcDbEntity
  8
0
100
AcDbPolyline
 62
7
  6
CONTINUOUS
 90
5
 70
0
 43
0.3500000087
 10
-118.4305129944
 20
58.1642815002
 10
-118.0733673523
 20
58.3785722961
 10
-118.0733673523
 20
59.0214276306
 10
-118.4305129944
 20
59.4500006958
 10
-119.2876591248
 20
59.4500006958
  0
LWPOLYLINE
  5
484
100
AcDbEntity
  8
SMUSSO
100
AcDbPolyline
 62
7
  6
CONTINUOUS
 90
31
 70
0
 10
-130.9927259484
 20
-47.2161787934
 10
-131.1129515355
 20
-47.2119412461
 10
-131.2321550261
 20
-47.2015632678
 10
-131.35033642
 20
-47.1850448586
 10
-131.4678107434
 20
-47.1623077282
 10
-131.5842629702
 20
-47.1334301669
 10
-131.698748022
 20
-47.0986470452
 10
-131.8112483145
 20
-47.0579109971
 10
-131.9217814319
 20
-47.0112693887
 10
-132.0294550489
 20
-46.9590991891
 10
-132.1342470885
 20
-46.90135514
 10
-132.2361796277
 20
-46.8380824997
 10
-132.3344265714
 20
-46.7697940125
 10
-132.4289577801
 20
-46.6964489501
 10
-132.5198033934
 20
-46.6180880408
 10
-132.6062277349
 20
-46.5353462134
 10
-132.6881943578
 20
-46.4481887975
 10
-132.7657397089
 20
-46.3566504636
 10
-132.8382374521
 20
-46.2614701516
 10
-132.9056482271
 20
-46.1626150869
 10
-132.9680113942
 20
-46.0601180442
 10
-133.0248186984
 20
-45.9548162878
 10
-133.0760232454
 20
-45.8466876464
 10
-133.1216719295
 20
-45.7357542912
 10
-133.1613971793
 20
-45.6229200002
 10
-133.1951498632
 20
-45.5081719792
 10
-133.2229791127
 20
-45.3915230224
 10
-133.2446647507
 20
-45.2739152901
 10
-133.2601333849
 20
-45.1556628358
 10
-133.2694584075
 20
-45.036451606
 10
-133.2726398186
 20
-44.9162816008
  0
LINE
  5
485
100
AcDbEntity
  8
SMUSSO
100
AcDbLine
 62
250
  6
CONTINUOUS
 10
-133.4709096097
 20
-44.9162816008
 11
-133.2726398186
 21
-44.9162816008
  0
LINE
  5
486
100
AcDbEntity
  8
SMUSSO
100
AcDbLine
 62
7
  6
CONTINUOUS
 10
-98.4709096097
 20
-47.7
 11
-130.9927259484
 21
-47.4161864085
  0
LINE
  5
487
100
AcDbEntity
  8
SMUSSO
100
AcDbLine
 62
7
  6
CONTINUOUS
 10
-98.4709096097
 20
-47.4999923849
 11
-130.9927259484
 21
-47.2161787934
  0
LWPOLYLINE
  5
488
100
AcDbEntity
  8
0
100
AcDbPolyline
 62
7
  6
CONTINUOUS
 90
7
 70
0
 10
-135.4855012965
 20
30.2718858333
 10
-135.4928218362
 20
30.2656913398
 10
-135.4999820331
 20
30.2594985932
 10
-135.5069818884
 20
30.2533076062
 10
-135.5138214033
 20
30.2471183918
 10
-135.5205005793
 20
30.2409309627
 10
-135.5270194175
 20
30.2347453318
  0
LINE
  5
489
100
AcDbEntity
  8
DRAFT
100
AcDbLine
 62
7
  6
CONTINUOUS
 10
-98.4709096097
 20
-35.7
 11
-131.4709096097
 21
-35.7
  0
LWPOLYLINE
  5
48A
100
AcDbEntity
  8
0
100
AcDbPolyline
 62
7
  6
CONTINUOUS
 90
7
 70
0
 10
-135.5270815173
 20
-30.2345288879
 10
-135.5209009754
 20
-30.2404461263
 10
-135.5144206355
 20
-30.2464883019
 10
-135.5076404976
 20
-30.2526554147
 10
-135.5005605619
 20
-30.2589474646
 10
-135.4931808282
 20
-30.2653644516
 10
-135.4855012965
 20
-30.2719063759
  0
LINE
  5
48B
100
AcDbEntity
  8
0
100
AcDbLine
 62
7
  6
CONTINUOUS
 10
-134.70575781
 20
-33.3
 11
-133.6709096097
 21
-33.3
  0
LINE
  5
48C
100
AcDbEntity
  8
0
100
AcDbLine
 62
7
  6
CONTINUOUS
 10
-130.940276867
 20
-31.95
 11
-130.840276867
 21
-31.95
  0
LINE
  5
48D
100
AcDbEntity
  8
0
100
AcDbLine
 62
7
  6
CONTINUOUS
 10
-129.8402766108
 20
-31.95
 11
-129.7402766108
 21
-31.95
  0
LINE
  5
48E
100
AcDbEntity
  8
0
100
AcDbLine
 62
7
  6
CONTINUOUS
 10
-128.7402773137
 20
-31.95
 11
-128.6402773137
 21
-31.95
  0
LINE
  5
48F
100
AcDbEntity
  8
0
100
AcDbLine
 62
7
  6
CONTINUOUS
 10
-127.640276867
 20
-31.95
 11
-127.540276867
 21
-31.95
  0
LINE
  5
490
100
AcDbEntity
  8
0
100
AcDbLine
 62
7
  6
CONTINUOUS
 10
-126.5402766108
 20
-31.95
 11
-126.4402766108
 21
-31.95
  0
LINE
  5
491
100
AcDbEntity
  8
0
100
AcDbLine
 62
7
  6
CONTINUOUS
 10
-131.4709096097
 20
-31.6
 11
-131.1657872082
 21
-31.6
  0
LINE
  5
492
100
AcDbEntity
  8
0
100
AcDbLine
 62
7
  6
CONTINUOUS
 10
-130.6382042728
 20
-31.6
 11
-130.0657869096
 21
-31.6
  0
LINE
  5
493
100
AcDbEntity
  8
0
100
AcDbLine
 62
7
  6
CONTINUOUS
 10
-129.5382040166
 20
-31.6
 11
-128.9657876253
 21
-31.6
  0
LINE
  5
494
100
AcDbEntity
  8
0
100
AcDbLine
 62
7
  6
CONTINUOUS
 10
-128.4382047195
 20
-31.6
 11
-127.8657872082
 21
-31.6
  0
LINE
  5
495
100
AcDbEntity
  8
0
100
AcDbLine
 62
7
  6
CONTINUOUS
 10
-127.3382042728
 20
-31.6
 11
-126.7657869096
 21
-31.6
  0
LINE
  5
496
100
AcDbEntity
  8
0
100
AcDbLine
 62
7
  6
CONTINUOUS
 10
-126.2382040166
 20
-31.6
 11
-125.876165498
 21
-31.6
  0
LWPOLYLINE
  5
497
100
AcDbEntity
  8
0
100
AcDbPolyline
 62
7
  6
CONTINUOUS
 90
20
 70
0
 10
-130.6382042728
 20
-31.6
 10
-130.640337325
 20
-31.5999183541
 10
-130.6516332857
 20
-31.5967654656
 10
-130.6628796847
 20
-31.5890919709
 10
-130.6741738864
 20
-31.5768644506
 10
-130.6855538992
 20
-31.5600128268
 10
-130.6969817149
 20
-31.5385849721
 10
-130.7084406729
 20
-31.5126569954
 10
-130.7199494942
 20
-31.4822512079
 10
-130.7314894579
 20
-31.4475027561
 10
-130.7429877407
 20
-31.4087865417
 10
-130.754412161
 20
-31.3664375972
 10
-130.7657949004
 20
-31.320574794
 10
-130.7771596801
 20
-31.2713248191
 10
-130.7885101579
 20
-31.2188936301
 10
-130.7998426761
 20
-31.1635316976
 10
-130.8111699825
 20
-31.1054177978
 10
-130.8224914392
 20
-31.0448022704
 10
-130.8338076841
 20
-30.9819386395
 10
-130.8451333787
 20
-30.9170071817
  0
LWPOLYLINE
  5
498
100
AcDbEntity
  8
0
100
AcDbPolyline
 62
7
  6
CONTINUOUS
 90
20
 70
0
 10
-127.3382042728
 20
-31.6
 10
-127.340337325
 20
-31.5999183541
 10
-127.3516332857
 20
-31.5967654656
 10
-127.3628796847
 20
-31.5890919709
 10
-127.3741738864
 20
-31.5768644506
 10
-127.3855538992
 20
-31.5600128268
 10
-127.3969817149
 20
-31.5385849721
 10
-127.4084406729
 20
-31.5126569954
 10
-127.4199494942
 20
-31.4822512079
 10
-127.4314894579
 20
-31.4475027561
 10
-127.4429877407
 20
-31.4087865417
 10
-127.454412161
 20
-31.3664375972
 10
-127.4657949004
 20
-31.320574794
 10
-127.4771596801
 20
-31.2713248191
 10
-127.4885101579
 20
-31.2188936301
 10
-127.4998426761
 20
-31.1635316976
 10
-127.5111699825
 20
-31.1054177978
 10
-127.5224914392
 20
-31.0448022704
 10
-127.5338076841
 20
-30.9819386395
 10
-127.5451333787
 20
-30.9170071817
  0
LWPOLYLINE
  5
499
100
AcDbEntity
  8
0
100
AcDbPolyline
 62
7
  6
CONTINUOUS
 90
19
 70
0
 10
-126.2382040166
 20
-31.6
 10
-126.2418431844
 20
-31.5997623565
 10
-126.2536415607
 20
-31.5957262179
 10
-126.2654399685
 20
-31.586715464
 10
-126.2772384845
 20
-31.5727708578
 10
-126.2890370319
 20
-31.5539557126
 10
-126.3008354436
 20
-31.5303557808
 10
-126.3126336331
 20
-31.5020785946
 10
-126.3244316868
 20
-31.4692525312
 10
-126.3362296977
 20
-31.4320264571
 10
-126.3480276527
 20
-31.3905694635
 10
-126.3598255648
 20
-31.3450697572
 10
-126.3716235666
 20
-31.2957333583
 10
-126.3834216594
 20
-31.2427841485
 10
-126.3952198419
 20
-31.1864624308
 10
-126.407018243
 20
-31.1270231578
 10
-126.4188170006
 20
-31.064735274
 10
-126.4306159768
 20
-30.999882112
 10
-126.4424148859
 20
-30.93275965
  0
LWPOLYLINE
  5
49A
100
AcDbEntity
  8
0
100
AcDbPolyline
 62
7
  6
CONTINUOUS
 90
19
 70
0
 10
-130.5923492008
 20
-29.4
 10
-130.5826570332
 20
-29.4016852631
 10
-130.5712352872
 20
-29.4079900192
 10
-130.5597615232
 20
-29.4190015622
 10
-130.5482024505
 20
-29.4347881846
 10
-130.5365913597
 20
-29.4553190316
 10
-130.5250009003
 20
-29.480394735
 10
-130.5134399664
 20
-29.5098569496
 10
-130.5018996638
 20
-29.5435713104
 10
-130.4904259593
 20
-29.5812098796
 10
-130.4790711312
 20
-29.6223429382
 10
-130.4677829012
 20
-29.6668933891
 10
-130.4564504013
 20
-29.7151010844
 10
-130.4450478848
 20
-29.7669243832
 10
-130.4336010983
 20
-29.8220753561
 10
-130.4220764147
 20
-29.8805278498
 10
-130.4104390587
 20
-29.9422738993
 10
-130.3987238056
 20
-30.0069208675
 10
-130.3870013538
 20
-30.0738166856
  0
LWPOLYLINE
  5
49B
100
AcDbEntity
  8
0
100
AcDbPolyline
 62
7
  6
CONTINUOUS
 90
19
 70
0
 10
-127.2923492008
 20
-29.4
 10
-127.2826570332
 20
-29.4016852631
 10
-127.2712352872
 20
-29.4079900192
 10
-127.2597615232
 20
-29.4190015622
 10
-127.2482024505
 20
-29.4347881846
 10
-127.2365913597
 20
-29.4553190316
 10
-127.2250009003
 20
-29.480394735
 10
-127.2134399664
 20
-29.5098569496
 10
-127.2018996638
 20
-29.5435713104
 10
-127.1904259593
 20
-29.5812098796
 10
-127.1790711312
 20
-29.6223429382
 10
-127.1677829012
 20
-29.6668933891
 10
-127.1564504013
 20
-29.7151010844
 10
-127.1450478848
 20
-29.7669243832
 10
-127.1336010983
 20
-29.8220753561
 10
-127.1220764147
 20
-29.8805278498
 10
-127.1104390587
 20
-29.9422738993
 10
-127.0987238056
 20
-30.0069208675
 10
-127.0870013538
 20
-30.0738166856
  0
LWPOLYLINE
  5
49C
100
AcDbEntity
  8
0
100
AcDbPolyline
 62
7
  6
CONTINUOUS
 90
19
 70
0
 10
-128.4382047195
 20
-31.6
 10
-128.4480201216
 20
-31.5982716189
 10
-128.4594435273
 20
-31.5919152861
 10
-128.4709438595
 20
-31.580821898
 10
-128.4825556092
 20
-31.5648910453
 10
-128.4942442855
 20
-31.5441252955
 10
-128.5059372094
 20
-31.5186968686
 10
-128.5176354271
 20
-31.4887112654
 10
-128.5293378924
 20
-31.4542995118
 10
-128.5409687876
 20
-31.4158745158
 10
-128.5524935779
 20
-31.3738137464
 10
-128.5639467982
 20
-31.3282636464
 10
-128.5753562348
 20
-31.2793641175
 10
-128.5866916222
 20
-31.2275046852
 10
-128.597983226
 20
-31.1728140956
 10
-128.6093496304
 20
-31.1149359861
 10
-128.6208487141
 20
-31.0537465367
 10
-128.6324225984
 20
-30.9897481779
 10
-128.644016231
 20
-30.923495629
  0
LWPOLYLINE
  5
49D
100
AcDbEntity
  8
0
100
AcDbPolyline
 62
7
  6
CONTINUOUS
 90
19
 70
0
 10
-128.3923497693
 20
-29.4
 10
-128.3812975286
 20
-29.4021912558
 10
-128.3698828801
 20
-29.4090453718
 10
-128.3583939337
 20
-29.4206254576
 10
-128.3467864073
 20
-29.4370437894
 10
-128.3351045831
 20
-29.4582829631
 10
-128.3234216384
 20
-29.4841612694
 10
-128.3117370001
 20
-29.5145664248
 10
-128.3000512414
 20
-29.5493631621
 10
-128.2884392591
 20
-29.5881344618
 10
-128.2769316751
 20
-29.6305139392
 10
-128.2654978675
 20
-29.6763414264
 10
-128.2541208682
 20
-29.7254273831
 10
-128.2428294851
 20
-29.777377602
 10
-128.2315949103
 20
-29.8320490825
 10
-128.220313752
 20
-29.8897137393
 10
-128.2089475409
 20
-29.9503744135
 10
-128.1975347461
 20
-30.0136134953
 10
-128.1860873837
 20
-30.0791194999
  0
LWPOLYLINE
  5
49E
100
AcDbEntity
  8
0
100
AcDbPolyline
 62
7
  6
CONTINUOUS
 90
20
 70
0
 10
-129.5382040166
 20
-31.6
 10
-129.5497123989
 20
-31.5976242018
 10
-129.561117543
 20
-31.590591916
 10
-129.5725401002
 20
-31.5789114703
 10
-129.5840037543
 20
-31.5625729973
 10
-129.5954848215
 20
-31.5416450387
 10
-129.6069308513
 20
-31.5163231233
 10
-129.6183126908
 20
-31.4868367361
 10
-129.6296594928
 20
-31.4532906368
 10
-129.6410062646
 20
-31.4157415579
 10
-129.6523538716
 20
-31.3743439084
 10
-129.6637014484
 20
-31.3292742937
 10
-129.6750814067
 20
-31.2805785509
 10
-129.6864964875
 20
-31.2284204571
 10
-129.6979439498
 20
-31.173005727
 10
-129.7094479828
 20
-31.1144197518
 10
-129.7210400832
 20
-31.0527033638
 10
-129.7326887543
 20
-30.9882461666
 10
-129.7443236951
 20
-30.9217078941
 10
-129.7559400063
 20
-30.8534185784
  0
LWPOLYLINE
  5
49F
100
AcDbEntity
  8
0
100
AcDbPolyline
 62
7
  6
CONTINUOUS
 90
5
 70
0
 10
-131.3902771751
 20
-29.05
 10
-131.3789096097
 20
-29.0530555845
 10
-131.3679096097
 20
-29.0618183962
 10
-131.3569096097
 20
-29.0762570482
 10
-131.3541860943
 20
-29.0807024557
  0
LWPOLYLINE
  5
4A0
100
AcDbEntity
  8
0
100
AcDbPolyline
 62
7
  6
CONTINUOUS
 90
18
 70
0
 10
-130.3902766066
 20
-29.05
 10
-130.3789096097
 20
-29.0530552801
 10
-130.3679096097
 20
-29.0618178007
 10
-130.3569096097
 20
-29.0762561664
 10
-130.3459096097
 20
-29.0963133957
 10
-130.3349096097
 20
-29.1219103321
 10
-130.3239096097
 20
-29.1529459565
 10
-130.3129096097
 20
-29.1892977856
 10
-130.3019096097
 20
-29.2308223556
 10
-130.2909096097
 20
-29.2773557882
 10
-130.2799096097
 20
-29.3287144375
 10
-130.2689096097
 20
-29.3846956146
 10
-130.2579096097
 20
-29.4450783877
 10
-130.2469096097
 20
-29.5096244537
 10
-130.2359096097
 20
-29.5780790791
 10
-130.2249096097
 20
-29.6501721049
 10
-130.2139096097
 20
-29.7256190131
 10
-130.2029096097
 20
-29.8041220495
  0
LWPOLYLINE
  5
4A1
100
AcDbEntity
  8
0
100
AcDbPolyline
 62
7
  6
CONTINUOUS
 90
5
 70
0
 10
-130.2902766066
 20
-29.05
 10
-130.2789096097
 20
-29.0530552801
 10
-130.2679096097
 20
-29.0618178007
 10
-130.2569096097
 20
-29.0762561664
 10
-130.2541855408
 20
-29.0807024423
  0
LWPOLYLINE
  5
4A2
100
AcDbEntity
  8
0
100
AcDbPolyline
 62
7
  6
CONTINUOUS
 90
18
 70
0
 10
-129.2902770657
 20
-29.05
 10
-129.2789096097
 20
-29.0530555342
 10
-129.2679096097
 20
-29.0618183135
 10
-129.2569096097
 20
-29.0762569488
 10
-129.2459096097
 20
-29.0963144568
 10
-129.2349096097
 20
-29.1219116793
 10
-129.2239096097
 20
-29.1529475951
 10
-129.2129096097
 20
-29.1892997192
 10
-129.2019096097
 20
-29.2308245859
 10
-129.1909096097
 20
-29.2773583147
 10
-129.1799096097
 20
-29.3287172579
 10
-129.1689096097
 20
-29.3846987246
 10
-129.1579096097
 20
-29.4450817809
 10
-129.1469096097
 20
-29.5096281218
 10
-129.1359096097
 20
-29.5780830119
 10
-129.1249096097
 20
-29.6501762905
 10
-129.1139096097
 20
-29.7256234378
 10
-129.1029096097
 20
-29.8041266977
  0
LWPOLYLINE
  5
4A3
100
AcDbEntity
  8
0
100
AcDbPolyline
 62
7
  6
CONTINUOUS
 90
5
 70
0
 10
-129.1902770657
 20
-29.05
 10
-129.1789096097
 20
-29.0530555342
 10
-129.1679096097
 20
-29.0618183135
 10
-129.1569096097
 20
-29.0762569488
 10
-129.1541877718
 20
-29.0806995107
  0
LWPOLYLINE
  5
4A4
100
AcDbEntity
  8
0
100
AcDbPolyline
 62
7
  6
CONTINUOUS
 90
18
 70
0
 10
-128.1902771751
 20
-29.05
 10
-128.1789096097
 20
-29.0530555845
 10
-128.1679096097
 20
-29.0618183962
 10
-128.1569096097
 20
-29.0762570482
 10
-128.1459096097
 20
-29.0963145575
 10
-128.1349096097
 20
-29.1219117664
 10
-128.1239096097
 20
-29.1529476543
 10
-128.1129096097
 20
-29.1892997369
 10
-128.1019096097
 20
-29.2308245491
 10
-128.0909096097
 20
-29.2773582116
 10
-128.0799096097
 20
-29.3287170774
 10
-128.0689096097
 20
-29.3846984568
 10
-128.0579096097
 20
-29.4450814168
 10
-128.0469096097
 20
-29.5096276538
 10
-128.0359096097
 20
-29.5780824336
 10
-128.0249096097
 20
-29.6501755965
 10
-128.0139096097
 20
-29.7256226242
 10
-128.0029096097
 20
-29.804125762
  0
LWPOLYLINE
  5
4A5
100
AcDbEntity
  8
0
100
AcDbPolyline
 62
7
  6
CONTINUOUS
 90
5
 70
0
 10
-128.0902771751
 20
-29.05
 10
-128.0789096097
 20
-29.0530555845
 10
-128.0679096097
 20
-29.0618183962
 10
-128.0569096097
 20
-29.0762570482
 10
-128.0541877839
 20
-29.0806995912
  0
LWPOLYLINE
  5
4A6
100
AcDbEntity
  8
0
100
AcDbPolyline
 62
7
  6
CONTINUOUS
 90
17
 70
0
 10
-131.4709096097
 20
-29.0594285385
 10
-131.4679096097
 20
-29.0618183962
 10
-131.4569096097
 20
-29.0762570482
 10
-131.4459096097
 20
-29.0963145575
 10
-131.4349096097
 20
-29.1219117664
 10
-131.4239096097
 20
-29.1529476543
 10
-131.4129096097
 20
-29.1892997369
 10
-131.4019096097
 20
-29.2308245491
 10
-131.3909096097
 20
-29.2773582116
 10
-131.3799096097
 20
-29.3287170774
 10
-131.3689096097
 20
-29.3846984568
 10
-131.3579096097
 20
-29.4450814168
 10
-131.3469096097
 20
-29.5096276538
 10
-131.3359096097
 20
-29.5780824336
 10
-131.3249096097
 20
-29.6501755965
 10
-131.3139096097
 20
-29.7256226242
 10
-131.3029096097
 20
-29.804125762
  0
LINE
  5
4A7
100
AcDbEntity
  8
0
100
AcDbLine
 62
7
  6
CONTINUOUS
 10
-130.553878943
 20
31.7038839403
 11
-130.6157869355
 21
31.6
  0
LWPOLYLINE
  5
4A8
100
AcDbEntity
  8
0
100
AcDbPolyline
 62
7
  6
CONTINUOUS
 90
5
 70
0
 10
-130.4263676643
 20
31.9192975731
 10
-130.4229096097
 20
31.924882965
 10
-130.4119096097
 20
31.9389441265
 10
-130.4009096097
 20
31.9473264366
 10
-130.3902766066
 20
31.95
  0
LINE
  5
4A9
100
AcDbEntity
  8
SMUSSO
100
AcDbLine
 62
7
  6
CONTINUOUS
 10
-133.2726398186
 20
25.5037177135
 11
-133.4709096097
 21
25.3054403727
  0
LINE
  5
4AA
100
AcDbEntity
  8
SMUSSO
100
AcDbLine
 62
7
  6
CONTINUOUS
 10
-131.6726702807
 20
25.2897473758
 11
-131.4709096097
 21
25.4879942522
  0
LINE
  5
4AB
100
AcDbEntity
  8
0
100
AcDbLine
 62
7
  6
CONTINUOUS
 10
-123.9709096097
 20
30.5
 11
-125.876165498
 21
29.4
  0
LWPOLYLINE
  5
4AC
100
AcDbEntity
  8
0
100
AcDbPolyline
 62
7
  6
CONTINUOUS
 90
5
 70
0
 10
-126.4402766108
 20
-31.95
 10
-126.4289096097
 20
-31.9469447135
 10
-126.4179096097
 20
-31.9381821786
 10
-126.4069096097
 20
-31.9237437907
 10
-126.4041872844
 20
-31.9193004641
  0
LWPOLYLINE
  5
4AD
100
AcDbEntity
  8
0
100
AcDbPolyline
 62
7
  6
CONTINUOUS
 90
5
 70
0
 10
-127.540276867
 20
-31.95
 10
-127.5289096097
 20
-31.9469445817
 10
-127.5179096097
 20
-31.9381819313
 10
-127.5069096097
 20
-31.9237434404
 10
-127.5041874693
 20
-31.9193004037
  0
LWPOLYLINE
  5
4AE
100
AcDbEntity
  8
0
100
AcDbPolyline
 62
7
  6
CONTINUOUS
 90
5
 70
0
 10
-128.6402773137
 20
-31.95
 10
-128.6289096097
 20
-31.946944338
 10
-128.6179096097
 20
-31.9381814458
 10
-128.6069096097
 20
-31.9237427085
 10
-128.6041879571
 20
-31.9193004373
  0
LWPOLYLINE
  5
4AF
100
AcDbEntity
  8
0
100
AcDbPolyline
 62
7
  6
CONTINUOUS
 90
5
 70
0
 10
-129.7402766108
 20
-31.95
 10
-129.7289096097
 20
-31.9469447135
 10
-129.7179096097
 20
-31.9381821786
 10
-129.7069096097
 20
-31.9237437907
 10
-129.7041855948
 20
-31.9192975996
  0
LWPOLYLINE
  5
4B0
100
AcDbEntity
  8
0
100
AcDbPolyline
 62
7
  6
CONTINUOUS
 90
5
 70
0
 10
-130.840276867
 20
-31.95
 10
-130.8289096097
 20
-31.9469445817
 10
-130.8179096097
 20
-31.9381819313
 10
-130.8069096097
 20
-31.9237434404
 10
-130.8041857797
 20
-31.9192975392
  0
LINE
  5
4B1
100
AcDbEntity
  8
0
100
AcDbLine
 62
7
  6
CONTINUOUS
 10
-125.3772614091
 20
-31.2982031315
 11
-125.3668645867
 21
-31.2966785662
  0
LINE
  5
4B2
100
AcDbEntity
  8
0
100
AcDbLine
 62
7
  6
CONTINUOUS
 10
-131.1647670598
 20
-29.4
 11
-130.5923492008
 21
-29.4
  0
LINE
  5
4B3
100
AcDbEntity
  8
0
100
AcDbLine
 62
7
  6
CONTINUOUS
 10
-130.0647665006
 20
-29.4
 11
-129.4923496599
 21
-29.4
  0
LINE
  5
4B4
100
AcDbEntity
  8
0
100
AcDbLine
 62
7
  6
CONTINUOUS
 10
-128.964764859
 20
-29.4
 11
-128.3923497693
 21
-29.4
  0
LINE
  5
4B5
100
AcDbEntity
  8
0
100
AcDbLine
 62
7
  6
CONTINUOUS
 10
-127.8647649059
 20
-29.4
 11
-127.2923492008
 21
-29.4
  0
LINE
  5
4B6
100
AcDbEntity
  8
0
100
AcDbLine
 62
7
  6
CONTINUOUS
 10
-126.7647643467
 20
-29.4
 11
-126.122702229
 21
-29.4
  0
LINE
  5
4B7
100
AcDbEntity
  8
0
100
AcDbLine
 62
7
  6
CONTINUOUS
 10
-125.9128228058
 20
-29.1592818988
 11
-126.0128228058
 21
-29.1592818988
  0
LINE
  5
4B8
100
AcDbEntity
  8
0
100
AcDbLine
 62
7
  6
CONTINUOUS
 10
-126.9902766066
 20
-29.05
 11
-127.0902766066
 21
-29.05
  0
LINE
  5
4B9
100
AcDbEntity
  8
0
100
AcDbLine
 62
7
  6
CONTINUOUS
 10
-128.0902771751
 20
-29.05
 11
-128.1902771751
 21
-29.05
  0
LINE
  5
4BA
100
AcDbEntity
  8
0
100
AcDbLine
 62
7
  6
CONTINUOUS
 10
-129.1902770657
 20
-29.05
 11
-129.2902770657
 21
-29.05
  0
LINE
  5
4BB
100
AcDbEntity
  8
0
100
AcDbLine
 62
7
  6
CONTINUOUS
 10
-130.2902766066
 20
-29.05
 11
-130.3902766066
 21
-29.05
  0
LINE
  5
4BC
100
AcDbEntity
  8
0
100
AcDbLine
 62
7
  6
CONTINUOUS
 10
-131.3902771751
 20
-29.05
 11
-131.4709096097
 21
-29.05
  0
LINE
  5
4BD
100
AcDbEntity
  8
0
100
AcDbLine
 62
7
  6
CONTINUOUS
 10
-134.70575781
 20
-27.7
 11
-133.6709096097
 21
-27.7
  0
LWPOLYLINE
  5
4BE
100
AcDbEntity
  8
0
100
AcDbPolyline
 62
7
  6
CONTINUOUS
 90
20
 70
0
 10
-129.4923496599
 20
-29.4
 10
-129.4909959818
 20
-29.4000328826
 10
-129.4800909557
 20
-29.4026955633
 10
-129.4691833817
 20
-29.4096164899
 10
-129.4582858088
 20
-29.4207565301
 10
-129.4473776277
 20
-29.4360938643
 10
-129.4364587186
 20
-29.4555813299
 10
-129.4255292012
 20
-29.4791549422
 10
-129.4145688254
 20
-29.5067892427
 10
-129.4035503011
 20
-29.5384925381
 10
-129.3925009183
 20
-29.5741079259
 10
-129.3814822967
 20
-29.6132958695
 10
-129.3705291249
 20
-29.6557314166
 10
-129.3596067142
 20
-29.7013376932
 10
-129.348672619
 20
-29.7501053446
 10
-129.3377112796
 20
-29.8019294314
 10
-129.3267382556
 20
-29.8565487052
 10
-129.3157577807
 20
-29.9137345656
 10
-129.3047585878
 20
-29.9733291945
 10
-129.2937519439
 20
-30.0350444765
  0
LWPOLYLINE
  5
4BF
100
AcDbEntity
  8
0
100
AcDbPolyline
 62
7
  6
CONTINUOUS
 90
17
 70
0
 10
-126.122702229
 20
-29.4
 10
-126.1177986664
 20
-29.4001734174
 10
-126.1018378267
 20
-29.4031382392
 10
-126.0859232402
 20
-29.4097417787
 10
-126.0699485304
 20
-29.4200108446
 10
-126.0538738275
 20
-29.4339912121
 10
-126.0377390014
 20
-29.4516552053
 10
-126.021557285
 20
-29.4729639691
 10
-126.0053070994
 20
-29.4979107515
 10
-125.9890100236
 20
-29.5264135476
 10
-125.9727440274
 20
-29.5582422569
 10
-125.9565273659
 20
-29.593226281
 10
-125.9403417841
 20
-29.631260546
 10
-125.924210486
 20
-29.6721360067
 10
-125.9081412062
 20
-29.7156624173
 10
-125.8921262103
 20
-29.7616836889
 10
-125.876165498
 20
-29.8100190606
  0
LWPOLYLINE
  5
4C0
100
AcDbEntity
  8
0
100
AcDbPolyline
 62
7
  6
CONTINUOUS
 90
6
 70
0
 10
-125.9128228058
 20
-29.1592818988
 10
-125.9086802409
 20
-29.1596690384
 10
-125.8984573041
 20
-29.1639122332
 10
-125.8882343672
 20
-29.1727656273
 10
-125.8780114303
 20
-29.1861293854
 10
-125.8732362074
 20
-29.1938852962
  0
LWPOLYLINE
  5
4C1
100
AcDbEntity
  8
0
100
AcDbPolyline
 62
7
  6
CONTINUOUS
 90
18
 70
0
 10
-126.0128228058
 20
-29.1592818988
 10
-126.0051924424
 20
-29.1605930252
 10
-125.9946207257
 20
-29.1666994324
 10
-125.984049009
 20
-29.1776977784
 10
-125.9734772923
 20
-29.1934709328
 10
-125.9629055756
 20
-29.213884525
 10
-125.9523338588
 20
-29.2387877144
 10
-125.9417621421
 20
-29.2680140187
 10
-125.9311904254
 20
-29.3013821966
 10
-125.9206187087
 20
-29.3386971812
 10
-125.910046992
 20
-29.3797510583
 10
-125.8994752752
 20
-29.4243240868
 10
-125.8889035585
 20
-29.4721857547
 10
-125.8783318418
 20
-29.523095868
 10
-125.8677601251
 20
-29.5768056653
 10
-125.8571884083
 20
-29.6330589551
 10
-125.8466166916
 20
-29.6915932702
 10
-125.8360449749
 20
-29.7521410331
  0
LWPOLYLINE
  5
4C2
100
AcDbEntity
  8
0
100
AcDbPolyline
 62
7
  6
CONTINUOUS
 90
18
 70
0
 10
-127.0902766066
 20
-29.05
 10
-127.0789096097
 20
-29.0530552801
 10
-127.0679096097
 20
-29.0618178007
 10
-127.0569096097
 20
-29.0762561664
 10
-127.0459096097
 20
-29.0963133957
 10
-127.0349096097
 20
-29.1219103321
 10
-127.0239096097
 20
-29.1529459565
 10
-127.0129096097
 20
-29.1892977856
 10
-127.0019096097
 20
-29.2308223556
 10
-126.9909096097
 20
-29.2773557882
 10
-126.9799096097
 20
-29.3287144375
 10
-126.9689096097
 20
-29.3846956146
 10
-126.9579096097
 20
-29.4450783877
 10
-126.9469096097
 20
-29.5096244537
 10
-126.9359096097
 20
-29.5780790791
 10
-126.9249096097
 20
-29.6501721049
 10
-126.9139096097
 20
-29.7256190131
 10
-126.9029096097
 20
-29.8041220495
  0
LWPOLYLINE
  5
4C3
100
AcDbEntity
  8
0
100
AcDbPolyline
 62
7
  6
CONTINUOUS
 90
5
 70
0
 10
-126.9902766066
 20
-29.05
 10
-126.9789096097
 20
-29.0530552801
 10
-126.9679096097
 20
-29.0618178007
 10
-126.9569096097
 20
-29.0762561664
 10
-126.9541872304
 20
-29.0806995778
  0
LINE
  5
4C4
100
AcDbEntity
  8
0
100
AcDbLine
 62
7
  6
CONTINUOUS
 10
-123.9709096097
 20
-30.5
 11
-125.6915822299
 21
-29.5065691995
  0
LWPOLYLINE
  5
4C5
100
AcDbEntity
  8
0
100
AcDbPolyline
 62
7
  6
CONTINUOUS
 90
3
 70
0
 10
-125.3668645867
 20
-31.2966785662
 10
-125.3743954676
 20
-31.2908220466
 10
-125.3819482252
 20
-31.2811641431
  0
LINE
  5
4C6
100
AcDbEntity
  8
SMUSSO
100
AcDbLine
 62
7
  6
CONTINUOUS
 10
-131.6726702807
 20
-25.2897473758
 11
-131.4709096097
 21
-25.4897549909
  0
LINE
  5
4C7
100
AcDbEntity
  8
SMUSSO
100
AcDbLine
 62
7
  6
CONTINUOUS
 10
-133.4709096097
 20
-25.3054403727
 11
-133.2726398186
 21
-25.5037177135
  0
LWPOLYLINE
  5
4C8
100
AcDbEntity
  8
0
100
AcDbPolyline
 62
7
  6
CONTINUOUS
 90
5
 70
0
 10
-130.9763679436
 20
-31.9192975578
 10
-130.9729096097
 20
-31.9248833785
 10
-130.9619096097
 20
-31.9389443985
 10
-130.9509096097
 20
-31.9473265691
 10
-130.940276867
 20
-31.95
  0
LINE
  5
4C9
100
AcDbEntity
  8
0
100
AcDbLine
 62
7
  6
CONTINUOUS
 10
-131.18943925
 20
-31.560447851
 11
-131.0494903346
 21
-31.7955637836
  0
LINE
  5
4CA
100
AcDbEntity
  8
0
100
AcDbLine
 62
7
  6
CONTINUOUS
 10
-131.0494903346
 20
-31.7955637836
 11
-130.9763679436
 21
-31.9192975578
  0
LWPOLYLINE
  5
4CB
100
AcDbEntity
  8
0
100
AcDbPolyline
 62
7
  6
CONTINUOUS
 90
7
 70
0
 10
-135.4855012965
 20
31.8295378202
 10
-135.4928218363
 20
31.8016424511
 10
-135.4999820332
 20
31.7736669806
 10
-135.5069818886
 20
31.7456114062
 10
-135.5138214036
 20
31.7174757254
 10
-135.5205005796
 20
31.6892599359
 10
-135.5270194179
 20
31.6609640351
  0
LINE
  5
4CC
100
AcDbEntity
  8
0
100
AcDbLine
 62
7
  6
CONTINUOUS
 10
-135.5309819942
 20
30.220726997
 11
-135.5270194175
 21
30.2347453318
  0
LWPOLYLINE
  5
4CD
100
AcDbEntity
  8
0
100
AcDbPolyline
 62
7
  6
CONTINUOUS
 90
25
 70
0
 10
-135.5309819942
 20
30.220726997
 10
-135.5351668724
 20
30.2095014266
 10
-135.5392357997
 20
30.1982460287
 10
-135.5431911426
 20
30.1869802771
 10
-135.5470394489
 20
30.1757348854
 10
-135.5507786956
 20
30.1645175396
 10
-135.5543989203
 20
30.1533113183
 10
-135.5578983147
 20
30.1421503492
 10
-135.5612844026
 20
30.1310319648
 10
-135.5645616407
 20
30.1198881543
 10
-135.5677255136
 20
30.1087911278
 10
-135.5707858938
 20
30.0977077004
 10
-135.5737676515
 20
30.086441926
 10
-135.5766734141
 20
30.075095774
 10
-135.5795034374
 20
30.0636567647
 10
-135.5822771539
 20
30.0518195584
 10
-135.5850025984
 20
30.0397336721
 10
-135.5876727068
 20
30.0274224854
 10
-135.5902836389
 20
30.0144769698
 10
-135.5928483952
 20
30.0011174474
 10
-135.5953551965
 20
29.9874105618
 10
-135.5977652082
 20
29.9728190263
 10
-135.6000681395
 20
29.9573299127
 10
-135.6022800575
 20
29.9414010046
 10
-135.6044035395
 20
29.9252663482
  0
LINE
  5
4CE
100
AcDbEntity
  8
0
100
AcDbLine
 62
7
  6
CONTINUOUS
 10
-130.4263676643
 20
31.9192975731
 11
-130.553878943
 21
31.7038839403
  0
LINE
  5
4CF
100
AcDbEntity
  8
0
100
AcDbLine
 62
7
  6
CONTINUOUS
 10
-128.6041879571
 20
29.0806995627
 11
-128.4542134298
 21
29.3338734397
  0
LINE
  5
4D0
100
AcDbEntity
  8
0
100
AcDbLine
 62
7
  6
CONTINUOUS
 10
-129.3263680302
 20
31.9192976526
 11
-129.4798770115
 21
31.6601885774
  0
LINE
  5
4D1
100
AcDbEntity
  8
0
100
AcDbLine
 62
7
  6
CONTINUOUS
 10
-128.2263682425
 20
31.9192975659
 11
-128.3798772458
 21
31.6601884726
  0
LINE
  5
4D2
100
AcDbEntity
  8
0
100
AcDbLine
 62
7
  6
CONTINUOUS
 10
-127.1263676643
 20
31.9192975731
 11
-127.2798766665
 21
31.6601884804
  0
LINE
  5
4D3
100
AcDbEntity
  8
0
100
AcDbLine
 62
7
  6
CONTINUOUS
 10
-130.8041857797
 20
29.0807024608
 11
-130.6494577142
 21
29.3418582557
  0
LINE
  5
4D4
100
AcDbEntity
  8
0
100
AcDbLine
 62
7
  6
CONTINUOUS
 10
-129.7041855948
 20
29.0807024004
 11
-129.5494575449
 21
29.3418581824
  0
LINE
  5
4D5
100
AcDbEntity
  8
0
100
AcDbLine
 62
7
  6
CONTINUOUS
 10
-129.4798770115
 20
31.6601885774
 11
-129.5157873355
 21
31.6
  0
LINE
  5
4D6
100
AcDbEntity
  8
0
100
AcDbLine
 62
7
  6
CONTINUOUS
 10
-128.3798772458
 20
31.6601884726
 11
-128.4157875105
 21
31.6
  0
LINE
  5
4D7
100
AcDbEntity
  8
0
100
AcDbLine
 62
7
  6
CONTINUOUS
 10
-127.2798766665
 20
31.6601884804
 11
-127.3157869355
 21
31.6
  0
LINE
  5
4D8
100
AcDbEntity
  8
0
100
AcDbLine
 62
7
  6
CONTINUOUS
 10
-130.6494577142
 20
29.3418582557
 11
-130.6147667474
 21
29.4
  0
LINE
  5
4D9
100
AcDbEntity
  8
0
100
AcDbLine
 62
7
  6
CONTINUOUS
 10
-129.5494575449
 20
29.3418581824
 11
-129.5147665366
 21
29.4
  0
LINE
  5
4DA
100
AcDbEntity
  8
0
100
AcDbLine
 62
7
  6
CONTINUOUS
 10
-128.4542134298
 20
29.3338734397
 11
-128.4147650668
 21
29.4
  0
LWPOLYLINE
  5
4DB
100
AcDbEntity
  8
0
100
AcDbPolyline
 62
7
  6
CONTINUOUS
 90
5
 70
0
 10
-129.3263680302
 20
31.9192976526
 10
-129.3229096097
 20
31.9248836056
 10
-129.3119096097
 20
31.9389445673
 10
-129.3009096097
 20
31.9473266607
 10
-129.2902770657
 20
31.95
  0
LWPOLYLINE
  5
4DC
100
AcDbEntity
  8
0
100
AcDbPolyline
 62
7
  6
CONTINUOUS
 90
5
 70
0
 10
-128.2263682425
 20
31.9192975659
 10
-128.2229096097
 20
31.9248838452
 10
-128.2119096097
 20
31.9389447104
 10
-128.2009096097
 20
31.9473267233
 10
-128.1902771751
 20
31.95
  0
LWPOLYLINE
  5
4DD
100
AcDbEntity
  8
0
100
AcDbPolyline
 62
7
  6
CONTINUOUS
 90
5
 70
0
 10
-127.1263676643
 20
31.9192975731
 10
-127.1229096097
 20
31.924882965
 10
-127.1119096097
 20
31.9389441265
 10
-127.1009096097
 20
31.9473264366
 10
-127.0902766066
 20
31.95
  0
LINE
  5
4DE
100
AcDbEntity
  8
0
100
AcDbLine
 62
7
  6
CONTINUOUS
 10
-126.1198819997
 20
31.69521044
 11
-126.1788669091
 21
31.6
  0
LWPOLYLINE
  5
4DF
100
AcDbEntity
  8
0
100
AcDbPolyline
 62
7
  6
CONTINUOUS
 90
5
 70
0
 10
-126.0483964809
 20
31.8117294185
 10
-126.0369075926
 20
31.8274762627
 10
-126.0263358759
 20
31.8365658335
 10
-126.0157641592
 20
31.8405222609
 10
-126.0128228058
 20
31.8407181012
  0
LINE
  5
4E0
100
AcDbEntity
  8
SMUSSO
100
AcDbLine
 62
7
  6
CONTINUOUS
 10
-131.4709096097
 20
-25.4879942522
 11
-133.2726398186
 21
-25.5037177135
  0
LINE
  5
4E1
100
AcDbEntity
  8
SMUSSO
100
AcDbLine
 62
7
  6
CONTINUOUS
 10
-131.6726702807
 20
-25.2897473758
 11
-133.4709096097
 21
-25.3054403727
  0
LWPOLYLINE
  5
4E2
100
AcDbEntity
  8
0
100
AcDbPolyline
 62
7
  6
CONTINUOUS
 90
5
 70
0
 10
-129.8763676217
 20
-31.919297612
 10
-129.8729096097
 20
-31.9248829382
 10
-129.8619096097
 20
-31.9389441161
 10
-129.8509096097
 20
-31.9473264352
 10
-129.8402766108
 20
-31.95
  0
LWPOLYLINE
  5
4E3
100
AcDbEntity
  8
0
100
AcDbPolyline
 62
7
  6
CONTINUOUS
 90
5
 70
0
 10
-128.7763683437
 20
-31.9192975975
 10
-128.7729096097
 20
-31.924884032
 10
-128.7619096097
 20
-31.9389448405
 10
-128.7509096097
 20
-31.9473267903
 10
-128.7402773137
 20
-31.95
  0
LWPOLYLINE
  5
4E4
100
AcDbEntity
  8
0
100
AcDbPolyline
 62
7
  6
CONTINUOUS
 90
5
 70
0
 10
-127.6763679436
 20
-31.9192975578
 10
-127.6729096097
 20
-31.9248833785
 10
-127.6619096097
 20
-31.9389443985
 10
-127.6509096097
 20
-31.9473265691
 10
-127.640276867
 20
-31.95
  0
LWPOLYLINE
  5
4E5
100
AcDbEntity
  8
0
100
AcDbPolyline
 62
7
  6
CONTINUOUS
 90
5
 70
0
 10
-126.5763676217
 20
-31.919297612
 10
-126.5729096097
 20
-31.9248829382
 10
-126.5619096097
 20
-31.9389441161
 10
-126.5509096097
 20
-31.9473264352
 10
-126.5402766108
 20
-31.95
  0
LINE
  5
4E6
100
AcDbEntity
  8
0
100
AcDbLine
 62
7
  6
CONTINUOUS
 10
-127.8411121664
 20
-29.4395565413
 11
-127.8452781535
 21
-29.4325988104
  0
LINE
  5
4E7
100
AcDbEntity
  8
0
100
AcDbLine
 62
7
  6
CONTINUOUS
 10
-128.9411121816
 20
-29.439556441
 11
-129.0667740025
 21
-29.2285555978
  0
LINE
  5
4E8
100
AcDbEntity
  8
0
100
AcDbLine
 62
7
  6
CONTINUOUS
 10
-131.1411148627
 20
-29.4395520392
 11
-131.279857136
 21
-29.2064736185
  0
LINE
  5
4E9
100
AcDbEntity
  8
0
100
AcDbLine
 62
7
  6
CONTINUOUS
 10
-130.0411143147
 20
-29.4395520211
 11
-130.1798565844
 21
-29.2064736033
  0
LINE
  5
4EA
100
AcDbEntity
  8
0
100
AcDbLine
 62
7
  6
CONTINUOUS
 10
-130.0894389099
 20
-31.5604479181
 11
-129.9494900067
 21
-31.7955638428
  0
LINE
  5
4EB
100
AcDbEntity
  8
0
100
AcDbLine
 62
7
  6
CONTINUOUS
 10
-128.9894396354
 20
-31.5604479023
 11
-128.8494907298
 21
-31.7955638278
  0
LINE
  5
4EC
100
AcDbEntity
  8
0
100
AcDbLine
 62
7
  6
CONTINUOUS
 10
-127.88943925
 20
-31.560447851
 11
-127.7494903346
 21
-31.7955637836
  0
LINE
  5
4ED
100
AcDbEntity
  8
0
100
AcDbLine
 62
7
  6
CONTINUOUS
 10
-126.7894389099
 20
-31.5604479181
 11
-126.6494900067
 21
-31.7955638428
  0
LINE
  5
4EE
100
AcDbEntity
  8
0
100
AcDbLine
 62
7
  6
CONTINUOUS
 10
-129.9494900067
 20
-31.7955638428
 11
-129.8763676217
 21
-31.919297612
  0
LINE
  5
4EF
100
AcDbEntity
  8
0
100
AcDbLine
 62
7
  6
CONTINUOUS
 10
-131.279857136
 20
-29.2064736185
 11
-131.3541860943
 21
-29.0807024557
  0
LINE
  5
4F0
100
AcDbEntity
  8
0
100
AcDbLine
 62
7
  6
CONTINUOUS
 10
-128.8494907298
 20
-31.7955638278
 11
-128.7763683437
 21
-31.9192975975
  0
LINE
  5
4F1
100
AcDbEntity
  8
0
100
AcDbLine
 62
7
  6
CONTINUOUS
 10
-130.1798565844
 20
-29.2064736033
 11
-130.2541855408
 21
-29.0807024423
  0
LINE
  5
4F2
100
AcDbEntity
  8
0
100
AcDbLine
 62
7
  6
CONTINUOUS
 10
-127.7494903346
 20
-31.7955637836
 11
-127.6763679436
 21
-31.9192975578
  0
LINE
  5
4F3
100
AcDbEntity
  8
0
100
AcDbLine
 62
7
  6
CONTINUOUS
 10
-129.0667740025
 20
-29.2285555978
 11
-129.1541877718
 21
-29.0806995107
  0
LINE
  5
4F4
100
AcDbEntity
  8
0
100
AcDbLine
 62
7
  6
CONTINUOUS
 10
-126.6494900067
 20
-31.7955638428
 11
-126.5763676217
 21
-31.919297612
  0
LWPOLYLINE
  5
4F5
100
AcDbEntity
  8
0
100
AcDbPolyline
 62
7
  6
CONTINUOUS
 90
15
 70
0
 10
-131.3541860943
 20
-29.0807024557
 10
-131.3459096097
 20
-29.0963145575
 10
-131.3349096097
 20
-29.1219117664
 10
-131.3239096097
 20
-29.1529476543
 10
-131.3129096097
 20
-29.1892997369
 10
-131.3019096097
 20
-29.2308245491
 10
-131.2909096097
 20
-29.2773582116
 10
-131.2799096097
 20
-29.3287170774
 10
-131.2689096097
 20
-29.3846984568
 10
-131.2579096097
 20
-29.4450814168
 10
-131.2469096097
 20
-29.5096276538
 10
-131.2359096097
 20
-29.5780824336
 10
-131.2249096097
 20
-29.6501755965
 10
-131.2139096097
 20
-29.7256226242
 10
-131.2029096097
 20
-29.804125762
  0
LWPOLYLINE
  5
4F6
100
AcDbEntity
  8
0
100
AcDbPolyline
 62
7
  6
CONTINUOUS
 90
15
 70
0
 10
-130.2541855408
 20
-29.0807024423
 10
-130.2459096097
 20
-29.0963133957
 10
-130.2349096097
 20
-29.1219103321
 10
-130.2239096097
 20
-29.1529459565
 10
-130.2129096097
 20
-29.1892977856
 10
-130.2019096097
 20
-29.2308223556
 10
-130.1909096097
 20
-29.2773557882
 10
-130.1799096097
 20
-29.3287144375
 10
-130.1689096097
 20
-29.3846956146
 10
-130.1579096097
 20
-29.4450783877
 10
-130.1469096097
 20
-29.5096244537
 10
-130.1359096097
 20
-29.5780790791
 10
-130.1249096097
 20
-29.6501721049
 10
-130.1139096097
 20
-29.7256190131
 10
-130.1029096097
 20
-29.8041220495
  0
LINE
  5
4F7
100
AcDbEntity
  8
0
100
AcDbLine
 62
7
  6
CONTINUOUS
 10
-135.5309819755
 20
-30.2207270467
 11
-135.5270815173
 21
-30.2345288879
  0
LWPOLYLINE
  5
4F8
100
AcDbEntity
  8
0
100
AcDbPolyline
 62
7
  6
CONTINUOUS
 90
7
 70
0
 10
-135.5270815173
 20
-31.6606547686
 10
-135.52054925
 20
-31.6890236272
 10
-135.5138578749
 20
-31.7173040474
 10
-135.507007392
 20
-31.7454960293
 10
-135.4999978013
 20
-31.7735995728
 10
-135.4928291028
 20
-31.8016146779
 10
-135.4855012965
 20
-31.8295413448
  0
LWPOLYLINE
  5
4F9
100
AcDbEntity
  8
0
100
AcDbPolyline
 62
7
  6
CONTINUOUS
 90
16
 70
0
 10
-135.5270194179
 20
31.6609640351
 10
-135.5381225116
 20
31.6050914956
 10
-135.5449589602
 20
31.5689244869
 10
-135.5515005673
 20
31.532372725
 10
-135.5577851726
 20
31.4952887652
 10
-135.5637914544
 20
31.4577422019
 10
-135.5694465601
 20
31.4199957948
 10
-135.5747651863
 20
31.3819848102
 10
-135.5797626959
 20
31.343672801
 10
-135.5843794581
 20
31.3053256416
 10
-135.5886340426
 20
31.2668300146
 10
-135.5925456069
 20
31.2281580837
 10
-135.5960649227
 20
31.1896683216
 10
-135.5991908344
 20
31.1514105059
 10
-135.6019647204
 20
31.113136977
 10
-135.6044035243
 20
31.0747337642
  0
LINE
  5
4FA
100
AcDbEntity
  8
0
100
AcDbLine
 62
7
  6
CONTINUOUS
 10
-127.5041874693
 20
29.0806995963
 11
-127.3542129343
 21
29.3338734792
  0
LINE
  5
4FB
100
AcDbEntity
  8
0
100
AcDbLine
 62
7
  6
CONTINUOUS
 10
-126.4041872844
 20
29.0806995359
 11
-126.254212765
 21
29.3338734055
  0
LINE
  5
4FC
100
AcDbEntity
  8
0
100
AcDbLine
 62
7
  6
CONTINUOUS
 10
-127.3542129343
 20
29.3338734792
 11
-127.3147645935
 21
29.4
  0
LINE
  5
4FD
100
AcDbEntity
  8
0
100
AcDbLine
 62
7
  6
CONTINUOUS
 10
-126.254212765
 20
29.3338734055
 11
-126.2147643826
 21
29.4
  0
LINE
  5
4FE
100
AcDbEntity
  8
0
100
AcDbLine
 62
7
  6
CONTINUOUS
 10
-126.0483964809
 20
31.8117294185
 11
-126.1198819997
 21
31.69521044
  0
LINE
  5
4FF
100
AcDbEntity
  8
0
100
AcDbLine
 62
7
  6
CONTINUOUS
 10
-127.8452781535
 20
-29.4325988104
 11
-127.9667740035
 21
-29.2285556878
  0
LINE
  5
500
100
AcDbEntity
  8
0
100
AcDbLine
 62
7
  6
CONTINUOUS
 10
-126.7411116184
 20
-29.4395565232
 11
-126.8667734523
 21
-29.2285556721
  0
LINE
  5
501
100
AcDbEntity
  8
0
100
AcDbLine
 62
7
  6
CONTINUOUS
 10
-127.9667740035
 20
-29.2285556878
 11
-128.0541877839
 21
-29.0806995912
  0
LINE
  5
502
100
AcDbEntity
  8
0
100
AcDbLine
 62
7
  6
CONTINUOUS
 10
-126.8667734523
 20
-29.2285556721
 11
-126.9541872304
 21
-29.0806995778
  0
LINE
  5
503
100
AcDbEntity
  8
0
100
AcDbLine
 62
7
  6
CONTINUOUS
 10
-125.6843937521
 20
-29.5189202079
 11
-125.8732362074
 21
-29.1938852962
  0
LWPOLYLINE
  5
504
100
AcDbEntity
  8
0
100
AcDbPolyline
 62
7
  6
CONTINUOUS
 90
15
 70
0
 10
-125.3819482252
 20
-31.2811641431
 10
-125.3895228594
 20
-31.2676776257
 10
-125.3971331059
 20
-31.2503190848
 10
-125.404765229
 20
-31.2291202238
 10
-125.4123780221
 20
-31.2042561287
 10
-125.4199616561
 20
-31.1758750747
 10
-125.42752596
 20
-31.1440731564
 10
-125.4350592139
 20
-31.1090494277
 10
-125.4425508073
 20
-31.0710319562
 10
-125.4500113507
 20
-31.0301580266
 10
-125.4574609565
 20
-30.986502092
 10
-125.4649009956
 20
-30.9402411036
 10
-125.4723300971
 20
-30.8915811546
 10
-125.4797642606
 20
-30.8406201658
 10
-125.4872145891
 20
-30.7874854351
  0
LWPOLYLINE
  5
505
100
AcDbEntity
  8
0
100
AcDbPolyline
 62
7
  6
CONTINUOUS
 90
15
 70
0
 10
-125.8732362074
 20
-29.1938852962
 10
-125.8677884935
 20
-29.2038883449
 10
-125.8575655566
 20
-29.2259126452
 10
-125.8473426197
 20
-29.2520584074
 10
-125.8371196828
 20
-29.2821684588
 10
-125.826896746
 20
-29.3160731006
 10
-125.8166738091
 20
-29.3535909152
 10
-125.8064508722
 20
-29.3945296092
 10
-125.7962279354
 20
-29.438686888
 10
-125.7860049985
 20
-29.4858513593
 10
-125.7757820616
 20
-29.5358034617
 10
-125.7655591247
 20
-29.588316413
 10
-125.7553361879
 20
-29.6431571761
 10
-125.745113251
 20
-29.7000874375
 10
-125.7348903141
 20
-29.7588645947
  0
LWPOLYLINE
  5
506
100
AcDbEntity
  8
0
100
AcDbPolyline
 62
7
  6
CONTINUOUS
 90
15
 70
0
 10
-129.1541877718
 20
-29.0806995107
 10
-129.1459096097
 20
-29.0963144568
 10
-129.1349096097
 20
-29.1219116793
 10
-129.1239096097
 20
-29.1529475951
 10
-129.1129096097
 20
-29.1892997192
 10
-129.1019096097
 20
-29.2308245859
 10
-129.0909096097
 20
-29.2773583147
 10
-129.0799096097
 20
-29.3287172579
 10
-129.0689096097
 20
-29.3846987246
 10
-129.0579096097
 20
-29.4450817809
 10
-129.0469096097
 20
-29.5096281218
 10
-129.0359096097
 20
-29.5780830119
 10
-129.0249096097
 20
-29.6501762905
 10
-129.0139096097
 20
-29.7256234378
 10
-129.0029096097
 20
-29.8041266977
  0
LWPOLYLINE
  5
507
100
AcDbEntity
  8
0
100
AcDbPolyline
 62
7
  6
CONTINUOUS
 90
15
 70
0
 10
-128.0541877839
 20
-29.0806995912
 10
-128.0459096097
 20
-29.0963145575
 10
-128.0349096097
 20
-29.1219117664
 10
-128.0239096097
 20
-29.1529476543
 10
-128.0129096097
 20
-29.1892997369
 10
-128.0019096097
 20
-29.2308245491
 10
-127.9909096097
 20
-29.2773582116
 10
-127.9799096097
 20
-29.3287170774
 10
-127.9689096097
 20
-29.3846984568
 10
-127.9579096097
 20
-29.4450814168
 10
-127.9469096097
 20
-29.5096276538
 10
-127.9359096097
 20
-29.5780824336
 10
-127.9249096097
 20
-29.6501755965
 10
-127.9139096097
 20
-29.7256226242
 10
-127.9029096097
 20
-29.804125762
  0
LWPOLYLINE
  5
508
100
AcDbEntity
  8
0
100
AcDbPolyline
 62
7
  6
CONTINUOUS
 90
15
 70
0
 10
-126.9541872304
 20
-29.0806995778
 10
-126.9459096097
 20
-29.0963133957
 10
-126.9349096097
 20
-29.1219103321
 10
-126.9239096097
 20
-29.1529459565
 10
-126.9129096097
 20
-29.1892977856
 10
-126.9019096097
 20
-29.2308223556
 10
-126.8909096097
 20
-29.2773557882
 10
-126.8799096097
 20
-29.3287144375
 10
-126.8689096097
 20
-29.3846956146
 10
-126.8579096097
 20
-29.4450783877
 10
-126.8469096097
 20
-29.5096244537
 10
-126.8359096097
 20
-29.5780790791
 10
-126.8249096097
 20
-29.6501721049
 10
-126.8139096097
 20
-29.7256190131
 10
-126.8029096097
 20
-29.8041220495
  0
LWPOLYLINE
  5
509
100
AcDbEntity
  8
0
100
AcDbPolyline
 62
7
  6
CONTINUOUS
 90
12
 70
0
 10
-125.603467207
 20
-31.0618742892
 10
-125.5841901415
 20
-31.1016280783
 10
-125.5648100676
 20
-31.1380557834
 10
-125.5453269853
 20
-31.1710126256
 10
-125.5257310628
 20
-31.200384051
 10
-125.5060321319
 20
-31.2260415203
 10
-125.4862596879
 20
-31.2478628922
 10
-125.4663967349
 20
-31.2658063276
 10
-125.4464602688
 20
-31.2798159019
 10
-125.4265307726
 20
-31.2898440889
 10
-125.406635074
 20
-31.2959383009
 10
-125.3848724067
 20
-31.2982031315
  0
LINE
  5
50A
100
AcDbEntity
  8
0
100
AcDbLine
 62
7
  6
CONTINUOUS
 10
-135.5380666832
 20
-31.6053843506
 11
-135.5270815173
 21
-31.6606547686
  0
LWPOLYLINE
  5
50B
100
AcDbEntity
  8
0
100
AcDbPolyline
 62
7
  6
CONTINUOUS
 90
31
 70
0
 10
-135.6044035243
 20
-29.9252662358
 10
-135.6034220007
 20
-29.9333192637
 10
-135.6023807887
 20
-29.9413931748
 10
-135.6012786957
 20
-29.9494868381
 10
-135.6001126182
 20
-29.9576003948
 10
-135.5988830644
 20
-29.9657325833
 10
-135.5975943135
 20
-29.9738769783
 10
-135.5962466078
 20
-29.9820188278
 10
-135.5948371312
 20
-29.9901636343
 10
-135.5933656788
 20
-29.9983332002
 10
-135.591836288
 20
-30.0065082124
 10
-135.5902422171
 20
-30.0146995504
 10
-135.5885666064
 20
-30.0229870483
 10
-135.5868099286
 20
-30.0313916903
 10
-135.5849676962
 20
-30.0399090784
 10
-135.583014298
 20
-30.0486051531
 10
-135.5809480224
 20
-30.0575188558
 10
-135.5787644161
 20
-30.06665374
 10
-135.5764318067
 20
-30.0760468485
 10
-135.5739470069
 20
-30.0857474854
 10
-135.5713039447
 20
-30.0957731357
 10
-135.5684639558
 20
-30.1061355025
 10
-135.5654224946
 20
-30.1168927123
 10
-135.5621704323
 20
-30.1280771562
 10
-135.5586585079
 20
-30.1396839799
 10
-135.5548783842
 20
-30.1517861144
 10
-135.5508182031
 20
-30.1644271554
 10
-135.5464182945
 20
-30.1775796277
 10
-135.5416478791
 20
-30.1912852211
 10
-135.5365077651
 20
-30.2056441056
 10
-135.5309819755
 20
-30.2207270467
  0
LWPOLYLINE
  5
50C
100
AcDbEntity
  8
0
100
AcDbPolyline
 62
7
  6
CONTINUOUS
 90
15
 70
0
 10
-135.6044035395
 20
-31.0747336518
 10
-135.601961671
 20
-31.1131857446
 10
-135.5991827276
 20
-31.1515178246
 10
-135.5960496267
 20
-31.1898442975
 10
-135.5925204085
 20
-31.2284175075
 10
-135.5885964404
 20
-31.2671832613
 10
-135.5843280752
 20
-31.3057700609
 10
-135.5796949209
 20
-31.3442118255
 10
-135.5746793577
 20
-31.3826167264
 10
-135.5693459127
 20
-31.4206894675
 10
-135.5636782578
 20
-31.4584724805
 10
-135.5576632088
 20
-31.4960263597
 10
-135.5513833949
 20
-31.5330438877
 10
-135.5448644731
 20
-31.5694417192
 10
-135.5380666832
 20
-31.6053843506
  0
LINE
  5
50D
100
AcDbEntity
  8
0
100
AcDbLine
 62
7
  6
CONTINUOUS
 10
-135.4855012965
 20
-31.8489651177
 11
-135.4855012965
 21
-31.8295413448
  0
LINE
  5
50E
100
AcDbEntity
  8
0
100
AcDbLine
 62
7
  6
CONTINUOUS
 10
-135.4855012965
 20
-30.7281141667
 11
-135.4855012965
 21
-30.2719063759
  0
LINE
  5
50F
100
AcDbEntity
  8
0
100
AcDbLine
 62
7
  6
CONTINUOUS
 10
-135.4855012965
 20
-29.1704621798
 11
-135.4855012965
 21
-29.1510348823
  0
LINE
  5
510
100
AcDbEntity
  8
0
100
AcDbLine
 62
7
  6
CONTINUOUS
 10
-135.4855012965
 20
29.1510348823
 11
-135.4855012965
 21
29.1704586552
  0
LINE
  5
511
100
AcDbEntity
  8
0
100
AcDbLine
 62
7
  6
CONTINUOUS
 10
-135.4855012965
 20
30.2718858333
 11
-135.4855012965
 21
30.7280936241
  0
LINE
  5
512
100
AcDbEntity
  8
0
100
AcDbLine
 62
7
  6
CONTINUOUS
 10
-135.4855012965
 20
31.8295378202
 11
-135.4855012965
 21
31.8489651177
  0
LINE
  5
513
100
AcDbEntity
  8
0
100
AcDbLine
 62
250
  6
CONTINUOUS
 10
-134.8738764897
 20
-33.208333326
 11
-134.8738764897
 21
-27.791666674
  0
LINE
  5
514
100
AcDbEntity
  8
0
100
AcDbLine
 62
250
  6
CONTINUOUS
 10
-134.8738764897
 20
27.791666674
 11
-134.8738764897
 21
33.208333326
  0
LINE
  5
515
100
AcDbEntity
  8
0
100
AcDbLine
 62
250
  6
CONTINUOUS
 10
-134.7057578107
 20
-33.3
 11
-134.7057578107
 21
-27.7
  0
LINE
  5
516
100
AcDbEntity
  8
0
100
AcDbLine
 62
250
  6
CONTINUOUS
 10
-134.7057578107
 20
27.7
 11
-134.7057578107
 21
33.3
  0
LWPOLYLINE
  5
517
100
AcDbEntity
  8
0
100
AcDbPolyline
 62
7
  6
CONTINUOUS
 90
15
 70
0
 10
-130.2484688835
 20
-30.9217078941
 10
-130.2368339427
 20
-30.9882461666
 10
-130.2251852717
 20
-31.0527033638
 10
-130.2135931713
 20
-31.1144197518
 10
-130.2020891383
 20
-31.173005727
 10
-130.1906416759
 20
-31.2284204571
 10
-130.1792265952
 20
-31.2805785509
 10
-130.1678466368
 20
-31.3292742937
 10
-130.15649906
 20
-31.3743439084
 10
-130.145151453
 20
-31.4157415579
 10
-130.1338046812
 20
-31.4532906368
 10
-130.1224578792
 20
-31.4868367361
 10
-130.1110760397
 20
-31.5163231233
 10
-130.09963001
 20
-31.5416450387
 10
-130.0894389099
 20
-31.5604479181
  0
LWPOLYLINE
  5
518
100
AcDbEntity
  8
0
100
AcDbPolyline
 62
7
  6
CONTINUOUS
 90
15
 70
0
 10
-130.9819421953
 20
-30.0791194999
 10
-130.9933895577
 20
-30.0136134953
 10
-131.0048023524
 20
-29.9503744135
 10
-131.0161685636
 20
-29.8897137393
 10
-131.0274497219
 20
-29.8320490825
 10
-131.0386842967
 20
-29.777377602
 10
-131.0499756797
 20
-29.7254273831
 10
-131.061352679
 20
-29.6763414264
 10
-131.0727864866
 20
-29.6305139392
 10
-131.0842940707
 20
-29.5881344618
 10
-131.095906053
 20
-29.5493631621
 10
-131.1075918117
 20
-29.5145664248
 10
-131.11927645
 20
-29.4841612694
 10
-131.1309593947
 20
-29.4582829631
 10
-131.1411148627
 20
-29.4395520392
  0
LWPOLYLINE
  5
519
100
AcDbEntity
  8
0
100
AcDbPolyline
 62
7
  6
CONTINUOUS
 90
15
 70
0
 10
-131.3492785671
 20
-30.9170071817
 10
-131.3379528726
 20
-30.9819386395
 10
-131.3266366277
 20
-31.0448022704
 10
-131.3153151709
 20
-31.1054177978
 10
-131.3039878646
 20
-31.1635316976
 10
-131.2926553464
 20
-31.2188936301
 10
-131.2813048685
 20
-31.2713248191
 10
-131.2699400888
 20
-31.320574794
 10
-131.2585573494
 20
-31.3664375972
 10
-131.2471329291
 20
-31.4087865417
 10
-131.2356346464
 20
-31.4475027561
 10
-131.2240946827
 20
-31.4822512079
 10
-131.2125858613
 20
-31.5126569954
 10
-131.2011269033
 20
-31.5385849721
 10
-131.18943925
 20
-31.560447851
  0
LWPOLYLINE
  5
51A
100
AcDbEntity
  8
0
100
AcDbPolyline
 62
7
  6
CONTINUOUS
 90
16
 70
0
 10
-129.8711244407
 20
-30.1426776597
 10
-129.8828561653
 20
-30.0738166856
 10
-129.8945786171
 20
-30.0069208675
 10
-129.9062938703
 20
-29.9422738993
 10
-129.9179312263
 20
-29.8805278498
 10
-129.9294559099
 20
-29.8220753561
 10
-129.9409026963
 20
-29.7669243832
 10
-129.9523052129
 20
-29.7151010844
 10
-129.9636377128
 20
-29.6668933891
 10
-129.9749259428
 20
-29.6223429382
 10
-129.9862807709
 20
-29.5812098796
 10
-129.9977544754
 20
-29.5435713104
 10
-130.009294778
 20
-29.5098569496
 10
-130.0208557119
 20
-29.480394735
 10
-130.0324461713
 20
-29.4553190316
 10
-130.0411143147
 20
-29.4395520211
  0
LINE
  5
51B
100
AcDbEntity
  8
0
100
AcDbLine
 62
7
  6
CONTINUOUS
 10
-130.3870013538
 20
-30.0738166856
 11
-130.363530706
 21
-30.2131862683
  0
LINE
  5
51C
100
AcDbEntity
  8
0
100
AcDbLine
 62
7
  6
CONTINUOUS
 10
-130.9589037552
 20
-30.2161126271
 11
-130.9819421953
 21
-30.0791194999
  0
LINE
  5
51D
100
AcDbEntity
  8
0
100
AcDbLine
 62
7
  6
CONTINUOUS
 10
-130.2716877756
 20
-30.7836572214
 11
-130.2484688835
 21
-30.9217078941
  0
LINE
  5
51E
100
AcDbEntity
  8
0
100
AcDbLine
 62
7
  6
CONTINUOUS
 10
-131.3719762927
 20
-30.7819080094
 11
-131.3492785671
 21
-30.9170071817
  0
LINE
  5
51F
100
AcDbEntity
  8
0
100
AcDbLine
 62
7
  6
CONTINUOUS
 10
-130.8451333787
 20
-30.9170071817
 11
-130.8678311042
 21
-30.7819080094
  0
LINE
  5
520
100
AcDbEntity
  8
0
100
AcDbLine
 62
7
  6
CONTINUOUS
 10
-131.4709096097
 20
-30.168850133
 11
-131.4515499058
 21
-30.2864775596
  0
LINE
  5
521
100
AcDbEntity
  8
0
100
AcDbLine
 62
7
  6
CONTINUOUS
 10
-131.4515499058
 20
-30.2864775596
 11
-131.3719762927
 21
-30.7819080094
  0
LINE
  5
522
100
AcDbEntity
  8
0
100
AcDbLine
 62
7
  6
CONTINUOUS
 10
-130.9132044345
 20
-30.5
 11
-130.9589037552
 21
-30.2161126271
  0
LINE
  5
523
100
AcDbEntity
  8
0
100
AcDbLine
 62
7
  6
CONTINUOUS
 10
-130.8678311042
 20
-30.7819080094
 11
-130.9132044345
 21
-30.5
  0
LINE
  5
524
100
AcDbEntity
  8
0
100
AcDbLine
 62
7
  6
CONTINUOUS
 10
-130.363530706
 20
-30.2131862683
 11
-130.3173491562
 21
-30.5
  0
LINE
  5
525
100
AcDbEntity
  8
0
100
AcDbLine
 62
7
  6
CONTINUOUS
 10
-130.3173491562
 20
-30.5
 11
-130.2716877756
 21
-30.7836572214
  0
LWPOLYLINE
  5
526
100
AcDbEntity
  8
0
100
AcDbPolyline
 62
7
  6
CONTINUOUS
 90
15
 70
0
 10
-131.1269096097
 20
-31.2012076057
 10
-131.1159096097
 20
-31.2795161121
 10
-131.1049096097
 20
-31.3547482281
 10
-131.0939096097
 20
-31.4266070472
 10
-131.0829096097
 20
-31.494808976
 10
-131.0719096097
 20
-31.5590848529
 10
-131.0609096097
 20
-31.6191810106
 10
-131.0499096097
 20
-31.6748602774
 10
-131.0389096097
 20
-31.725902913
 10
-131.0279096097
 20
-31.7721074755
 10
-131.0169096097
 20
-31.813291617
 10
-131.0059096097
 20
-31.8492928026
 10
-130.9949096097
 20
-31.8799689522
 10
-130.9839096097
 20
-31.9051990013
 10
-130.9763679436
 20
-31.9192975578
  0
LWPOLYLINE
  5
527
100
AcDbEntity
  8
0
100
AcDbPolyline
 62
7
  6
CONTINUOUS
 90
18
 70
0
 10
-131.0269096097
 20
-31.2012076057
 10
-131.0159096097
 20
-31.2795161121
 10
-131.0049096097
 20
-31.3547482281
 10
-130.9939096097
 20
-31.4266070472
 10
-130.9829096097
 20
-31.494808976
 10
-130.9719096097
 20
-31.5590848529
 10
-130.9609096097
 20
-31.6191810106
 10
-130.9499096097
 20
-31.6748602774
 10
-130.9389096097
 20
-31.725902913
 10
-130.9279096097
 20
-31.7721074755
 10
-130.9169096097
 20
-31.813291617
 10
-130.9059096097
 20
-31.8492928026
 10
-130.8949096097
 20
-31.8799689522
 10
-130.8839096097
 20
-31.9051990013
 10
-130.8729096097
 20
-31.9248833785
 10
-130.8619096097
 20
-31.9389443985
 10
-130.8509096097
 20
-31.9473265691
 10
-130.840276867
 20
-31.95
  0
LINE
  5
528
100
AcDbEntity
  8
0
100
AcDbLine
 62
7
  6
CONTINUOUS
 10
-131.1489096097
 20
-31.0366085332
 11
-131.1269096097
 21
-31.2012076057
  0
LINE
  5
529
100
AcDbEntity
  8
0
100
AcDbLine
 62
7
  6
CONTINUOUS
 10
-131.0489096097
 20
-31.0366085332
 11
-131.0269096097
 21
-31.2012076057
  0
LINE
  5
52A
100
AcDbEntity
  8
0
100
AcDbLine
 62
7
  6
CONTINUOUS
 10
-131.3029096097
 20
-29.804125762
 11
-131.2809096097
 21
-29.9690502667
  0
LINE
  5
52B
100
AcDbEntity
  8
0
100
AcDbLine
 62
7
  6
CONTINUOUS
 10
-131.2029096097
 20
-29.804125762
 11
-131.1809096097
 21
-29.9690502667
  0
LINE
  5
52C
100
AcDbEntity
  8
0
100
AcDbLine
 62
7
  6
CONTINUOUS
 10
-131.1709096097
 20
-30.863546833
 11
-131.1489096097
 21
-31.0366085332
  0
LINE
  5
52D
100
AcDbEntity
  8
0
100
AcDbLine
 62
7
  6
CONTINUOUS
 10
-131.0709096097
 20
-30.863546833
 11
-131.0489096097
 21
-31.0366085332
  0
LINE
  5
52E
100
AcDbEntity
  8
0
100
AcDbLine
 62
7
  6
CONTINUOUS
 10
-131.2809096097
 20
-29.9690502667
 11
-131.2589096097
 21
-30.1423481553
  0
LINE
  5
52F
100
AcDbEntity
  8
0
100
AcDbLine
 62
7
  6
CONTINUOUS
 10
-131.1809096097
 20
-29.9690502667
 11
-131.1589096097
 21
-30.1423481553
  0
LINE
  5
530
100
AcDbEntity
  8
0
100
AcDbLine
 62
7
  6
CONTINUOUS
 10
-131.1039096097
 20
-30.5940830956
 11
-131.0709096097
 21
-30.863546833
  0
LWPOLYLINE
  5
531
100
AcDbEntity
  8
0
100
AcDbPolyline
 62
7
  6
CONTINUOUS
 90
3
 70
0
 10
-131.1589096097
 20
-30.1423481553
 10
-131.1259096097
 20
-30.4119910949
 10
-131.1039096097
 20
-30.5940830956
  0
LWPOLYLINE
  5
532
100
AcDbEntity
  8
0
100
AcDbPolyline
 62
7
  6
CONTINUOUS
 90
3
 70
0
 10
-131.2589096097
 20
-30.1423481553
 10
-131.2149096097
 20
-30.5030431002
 10
-131.1709096097
 20
-30.863546833
  0
LWPOLYLINE
  5
533
100
AcDbEntity
  8
0
100
AcDbPolyline
 62
7
  6
CONTINUOUS
 90
15
 70
0
 10
-135.6044035395
 20
29.9252663482
 10
-135.601961671
 20
29.8868142554
 10
-135.5991827276
 20
29.8484821754
 10
-135.5960496267
 20
29.8101557025
 10
-135.5925204085
 20
29.7715824925
 10
-135.5885964404
 20
29.7328167387
 10
-135.5843280752
 20
29.6942299391
 10
-135.5796949209
 20
29.6557881745
 10
-135.5746793577
 20
29.6173832736
 10
-135.5693459127
 20
29.5793105325
 10
-135.5636782578
 20
29.5415275195
 10
-135.5576632088
 20
29.5039736403
 10
-135.5513833949
 20
29.4669561123
 10
-135.5448644731
 20
29.4305582808
 10
-135.5380666832
 20
29.3946156494
  0
LINE
  5
534
100
AcDbEntity
  8
0
100
AcDbLine
 62
250
  6
CONTINUOUS
 10
-133.6709096097
 20
-33.3
 11
-133.6709096097
 21
-27.7
  0
LINE
  5
535
100
AcDbEntity
  8
0
100
AcDbLine
 62
250
  6
CONTINUOUS
 10
-133.6709096097
 20
27.7
 11
-133.6709096097
 21
33.3
  0
LINE
  5
536
100
AcDbEntity
  8
SMUSSO
100
AcDbLine
 62
7
  6
CONTINUOUS
 10
-133.4709096097
 20
44.9162816008
 11
-133.4709096097
 21
25.3054403727
  0
LINE
  5
537
100
AcDbEntity
  8
SMUSSO
100
AcDbLine
 62
7
  6
CONTINUOUS
 10
-133.4709096097
 20
-44.9162816008
 11
-133.4709096097
 21
-25.3054403727
  0
LINE
  5
538
100
AcDbEntity
  8
SMUSSO
100
AcDbLine
 62
7
  6
CONTINUOUS
 10
-133.2726398186
 20
44.9162816008
 11
-133.2726398186
 21
25.5037177135
  0
LINE
  5
539
100
AcDbEntity
  8
SMUSSO
100
AcDbLine
 62
7
  6
CONTINUOUS
 10
-133.2726398186
 20
-44.9162816008
 11
-133.2726398186
 21
-25.5037177135
  0
LINE
  5
53A
100
AcDbEntity
  8
SMUSSO
100
AcDbLine
 62
7
  6
CONTINUOUS
 10
-131.4709096097
 20
-25.4879942522
 11
-131.4709096097
 21
-35.7
  0
LINE
  5
53B
100
AcDbEntity
  8
SMUSSO
100
AcDbLine
 62
7
  6
CONTINUOUS
 10
-131.4709096097
 20
25.4879942522
 11
-131.4709096097
 21
35.7
  0
LWPOLYLINE
  5
53C
100
AcDbEntity
  8
0
100
AcDbPolyline
 62
7
  6
CONTINUOUS
 90
3
 70
0
 10
-125.876165498
 20
-29.8100190606
 10
-125.863407499
 20
-29.8683250735
 10
-125.8506275658
 20
-29.9283916383
  0
LWPOLYLINE
  5
53D
100
AcDbEntity
  8
0
100
AcDbPolyline
 62
7
  6
CONTINUOUS
 90
9
 70
0
 10
-125.7085725604
 20
-30.6312194121
 10
-125.6955203983
 20
-30.6921445832
 10
-125.6824438907
 20
-30.7514843207
 10
-125.66934289
 20
-30.8090061405
 10
-125.6562175439
 20
-30.8644851618
 10
-125.6430673525
 20
-30.9177090806
 10
-125.6298921493
 20
-30.96847481
 10
-125.6166921008
 20
-31.0165896761
 10
-125.603467207
 20
-31.0618742892
  0
LINE
  5
53E
100
AcDbEntity
  8
0
100
AcDbLine
 62
7
  6
CONTINUOUS
 10
-125.734606838
 20
-30.5055690182
 11
-125.7085725604
 21
-30.6312194121
  0
LINE
  5
53F
100
AcDbEntity
  8
0
100
AcDbLine
 62
7
  6
CONTINUOUS
 10
-125.8506275658
 20
-29.9283916383
 11
-125.8250021093
 21
-30.0527931658
  0
LINE
  5
540
100
AcDbEntity
  8
0
100
AcDbLine
 62
7
  6
CONTINUOUS
 10
-125.8250021093
 20
-30.0527931658
 11
-125.734606838
 21
-30.5055690182
  0
LWPOLYLINE
  5
541
100
AcDbEntity
  8
0
100
AcDbPolyline
 62
7
  6
CONTINUOUS
 90
15
 70
0
 10
-128.7896067555
 20
-30.0350444765
 10
-128.8006133994
 20
-29.9733291945
 10
-128.8116125923
 20
-29.9137345656
 10
-128.8225930672
 20
-29.8565487052
 10
-128.8335660912
 20
-29.8019294314
 10
-128.8445274306
 20
-29.7501053446
 10
-128.8554615258
 20
-29.7013376932
 10
-128.8663839364
 20
-29.6557314166
 10
-128.8773371083
 20
-29.6132958695
 10
-128.8883557299
 20
-29.5741079259
 10
-128.8994051127
 20
-29.5384925381
 10
-128.910423637
 20
-29.5067892427
 10
-128.9213840128
 20
-29.4791549422
 10
-128.9323135301
 20
-29.4555813299
 10
-128.9411121816
 20
-29.439556441
  0
LWPOLYLINE
  5
542
100
AcDbEntity
  8
0
100
AcDbPolyline
 62
7
  6
CONTINUOUS
 90
15
 70
0
 10
-126.5828561653
 20
-30.0738166856
 10
-126.5945786171
 20
-30.0069208675
 10
-126.6062938703
 20
-29.9422738993
 10
-126.6179312263
 20
-29.8805278498
 10
-126.6294559099
 20
-29.8220753561
 10
-126.6409026963
 20
-29.7669243832
 10
-126.6523052129
 20
-29.7151010844
 10
-126.6636377128
 20
-29.6668933891
 10
-126.6749259428
 20
-29.6223429382
 10
-126.6862807709
 20
-29.5812098796
 10
-126.6977544754
 20
-29.5435713104
 10
-126.709294778
 20
-29.5098569496
 10
-126.7208557119
 20
-29.480394735
 10
-126.7324461713
 20
-29.4553190316
 10
-126.7411116184
 20
-29.4395565232
  0
LWPOLYLINE
  5
543
100
AcDbEntity
  8
0
100
AcDbPolyline
 62
7
  6
CONTINUOUS
 90
15
 70
0
 10
-129.1481614194
 20
-30.923495629
 10
-129.1365677868
 20
-30.9897481779
 10
-129.1249939026
 20
-31.0537465367
 10
-129.1134948188
 20
-31.1149359861
 10
-129.1021284144
 20
-31.1728140956
 10
-129.0908368106
 20
-31.2275046852
 10
-129.0795014233
 20
-31.2793641175
 10
-129.0680919866
 20
-31.3282636464
 10
-129.0566387664
 20
-31.3738137464
 10
-129.0451139761
 20
-31.4158745158
 10
-129.0334830808
 20
-31.4542995118
 10
-129.0217806155
 20
-31.4887112654
 10
-129.0100823978
 20
-31.5186968686
 10
-128.9983894739
 20
-31.5441252955
 10
-128.9894396354
 20
-31.5604479023
  0
LWPOLYLINE
  5
544
100
AcDbEntity
  8
0
100
AcDbPolyline
 62
7
  6
CONTINUOUS
 90
15
 70
0
 10
-126.9484688835
 20
-30.9217078941
 10
-126.9368339427
 20
-30.9882461666
 10
-126.9251852717
 20
-31.0527033638
 10
-126.9135931713
 20
-31.1144197518
 10
-126.9020891383
 20
-31.173005727
 10
-126.8906416759
 20
-31.2284204571
 10
-126.8792265952
 20
-31.2805785509
 10
-126.8678466368
 20
-31.3292742937
 10
-126.85649906
 20
-31.3743439084
 10
-126.845151453
 20
-31.4157415579
 10
-126.8338046812
 20
-31.4532906368
 10
-126.8224578792
 20
-31.4868367361
 10
-126.8110760397
 20
-31.5163231233
 10
-126.79963001
 20
-31.5416450387
 10
-126.7894389099
 20
-31.5604479181
  0
LWPOLYLINE
  5
545
100
AcDbEntity
  8
0
100
AcDbPolyline
 62
7
  6
CONTINUOUS
 90
15
 70
0
 10
-127.6819421953
 20
-30.0791194999
 10
-127.6933895577
 20
-30.0136134953
 10
-127.7048023524
 20
-29.9503744135
 10
-127.7161685636
 20
-29.8897137393
 10
-127.7274497219
 20
-29.8320490825
 10
-127.7386842967
 20
-29.777377602
 10
-127.7499756797
 20
-29.7254273831
 10
-127.761352679
 20
-29.6763414264
 10
-127.7727864866
 20
-29.6305139392
 10
-127.7842940707
 20
-29.5881344618
 10
-127.795906053
 20
-29.5493631621
 10
-127.8075918117
 20
-29.5145664248
 10
-127.81927645
 20
-29.4841612694
 10
-127.8309593947
 20
-29.4582829631
 10
-127.8411121664
 20
-29.4395565413
  0
LWPOLYLINE
  5
546
100
AcDbEntity
  8
0
100
AcDbPolyline
 62
7
  6
CONTINUOUS
 90
15
 70
0
 10
-128.0492785671
 20
-30.9170071817
 10
-128.0379528726
 20
-30.9819386395
 10
-128.0266366277
 20
-31.0448022704
 10
-128.0153151709
 20
-31.1054177978
 10
-128.0039878646
 20
-31.1635316976
 10
-127.9926553464
 20
-31.2188936301
 10
-127.9813048685
 20
-31.2713248191
 10
-127.9699400888
 20
-31.320574794
 10
-127.9585573494
 20
-31.3664375972
 10
-127.9471329291
 20
-31.4087865417
 10
-127.9356346464
 20
-31.4475027561
 10
-127.9240946827
 20
-31.4822512079
 10
-127.9125858613
 20
-31.5126569954
 10
-127.9011269033
 20
-31.5385849721
 10
-127.88943925
 20
-31.560447851
  0
LINE
  5
547
100
AcDbEntity
  8
0
100
AcDbLine
 62
7
  6
CONTINUOUS
 10
-129.2937519439
 20
-30.0350444765
 11
-129.2718537513
 21
-30.1630470046
  0
LINE
  5
548
100
AcDbEntity
  8
0
100
AcDbLine
 62
7
  6
CONTINUOUS
 10
-128.7677085629
 20
-30.1630470046
 11
-128.7896067555
 21
-30.0350444765
  0
LINE
  5
549
100
AcDbEntity
  8
0
100
AcDbLine
 62
7
  6
CONTINUOUS
 10
-126.4424148859
 20
-30.93275965
 11
-126.4660124893
 21
-30.7929350129
  0
LINE
  5
54A
100
AcDbEntity
  8
0
100
AcDbLine
 62
7
  6
CONTINUOUS
 10
-129.1714214489
 20
-30.7852779681
 11
-129.1481614194
 21
-30.923495629
  0
LINE
  5
54B
100
AcDbEntity
  8
0
100
AcDbLine
 62
7
  6
CONTINUOUS
 10
-128.644016231
 20
-30.923495629
 11
-128.6672762604
 21
-30.7852779681
  0
LINE
  5
54C
100
AcDbEntity
  8
0
100
AcDbLine
 62
7
  6
CONTINUOUS
 10
-127.0870013538
 20
-30.0738166856
 11
-127.063530706
 21
-30.2131862683
  0
LINE
  5
54D
100
AcDbEntity
  8
0
100
AcDbLine
 62
7
  6
CONTINUOUS
 10
-126.5593855175
 20
-30.2131862683
 11
-126.5828561653
 21
-30.0738166856
  0
LINE
  5
54E
100
AcDbEntity
  8
0
100
AcDbLine
 62
7
  6
CONTINUOUS
 10
-128.1860873837
 20
-30.0791194999
 11
-128.1630489436
 21
-30.2161126271
  0
LINE
  5
54F
100
AcDbEntity
  8
0
100
AcDbLine
 62
7
  6
CONTINUOUS
 10
-127.6589037552
 20
-30.2161126271
 11
-127.6819421953
 21
-30.0791194999
  0
LINE
  5
550
100
AcDbEntity
  8
0
100
AcDbLine
 62
7
  6
CONTINUOUS
 10
-126.9716877756
 20
-30.7836572214
 11
-126.9484688835
 21
-30.9217078941
  0
LINE
  5
551
100
AcDbEntity
  8
0
100
AcDbLine
 62
7
  6
CONTINUOUS
 10
-128.0719762927
 20
-30.7819080094
 11
-128.0492785671
 21
-30.9170071817
  0
LINE
  5
552
100
AcDbEntity
  8
0
100
AcDbLine
 62
7
  6
CONTINUOUS
 10
-127.5451333787
 20
-30.9170071817
 11
-127.5678311042
 21
-30.7819080094
  0
LINE
  5
553
100
AcDbEntity
  8
0
100
AcDbLine
 62
7
  6
CONTINUOUS
 10
-129.8477163165
 20
-30.2845543128
 11
-129.8711244407
 21
-30.1426776597
  0
LINE
  5
554
100
AcDbEntity
  8
0
100
AcDbLine
 62
7
  6
CONTINUOUS
 10
-129.7559400063
 20
-30.8534185784
 11
-129.7790758341
 21
-30.7130778412
  0
LINE
  5
555
100
AcDbEntity
  8
0
100
AcDbLine
 62
7
  6
CONTINUOUS
 10
-129.2718537513
 20
-30.1630470046
 11
-129.2500692376
 21
-30.2956126084
  0
LINE
  5
556
100
AcDbEntity
  8
0
100
AcDbLine
 62
7
  6
CONTINUOUS
 10
-128.7459240492
 20
-30.2956126084
 11
-128.7677085629
 21
-30.1630470046
  0
LINE
  5
557
100
AcDbEntity
  8
0
100
AcDbLine
 62
7
  6
CONTINUOUS
 10
-126.4660124893
 20
-30.7929350129
 11
-126.4896089385
 21
-30.6478035379
  0
LINE
  5
558
100
AcDbEntity
  8
0
100
AcDbLine
 62
7
  6
CONTINUOUS
 10
-126.5361424781
 20
-30.3562851198
 11
-126.5593855175
 21
-30.2131862683
  0
LINE
  5
559
100
AcDbEntity
  8
0
100
AcDbLine
 62
7
  6
CONTINUOUS
 10
-129.7790758341
 20
-30.7130778412
 11
-129.8477163165
 21
-30.2845543128
  0
LINE
  5
55A
100
AcDbEntity
  8
0
100
AcDbLine
 62
7
  6
CONTINUOUS
 10
-129.2500692376
 20
-30.2956126084
 11
-129.1714214489
 21
-30.7852779681
  0
LINE
  5
55B
100
AcDbEntity
  8
0
100
AcDbLine
 62
7
  6
CONTINUOUS
 10
-128.6672762604
 20
-30.7852779681
 11
-128.7459240492
 21
-30.2956126084
  0
LINE
  5
55C
100
AcDbEntity
  8
0
100
AcDbLine
 62
7
  6
CONTINUOUS
 10
-128.1630489436
 20
-30.2161126271
 11
-128.1173496229
 21
-30.5
  0
LINE
  5
55D
100
AcDbEntity
  8
0
100
AcDbLine
 62
7
  6
CONTINUOUS
 10
-128.1173496229
 20
-30.5
 11
-128.0719762927
 21
-30.7819080094
  0
LINE
  5
55E
100
AcDbEntity
  8
0
100
AcDbLine
 62
7
  6
CONTINUOUS
 10
-127.6132044345
 20
-30.5
 11
-127.6589037552
 21
-30.2161126271
  0
LINE
  5
55F
100
AcDbEntity
  8
0
100
AcDbLine
 62
7
  6
CONTINUOUS
 10
-127.5678311042
 20
-30.7819080094
 11
-127.6132044345
 21
-30.5
  0
LINE
  5
560
100
AcDbEntity
  8
0
100
AcDbLine
 62
7
  6
CONTINUOUS
 10
-127.063530706
 20
-30.2131862683
 11
-127.0173491562
 21
-30.5
  0
LINE
  5
561
100
AcDbEntity
  8
0
100
AcDbLine
 62
7
  6
CONTINUOUS
 10
-127.0173491562
 20
-30.5
 11
-126.9716877756
 21
-30.7836572214
  0
LWPOLYLINE
  5
562
100
AcDbEntity
  8
0
100
AcDbPolyline
 62
7
  6
CONTINUOUS
 90
15
 70
0
 10
-130.0269096097
 20
-31.201204627
 10
-130.0159096097
 20
-31.2795132966
 10
-130.0049096097
 20
-31.3547455838
 10
-129.9939096097
 20
-31.4266045808
 10
-129.9829096097
 20
-31.4948066928
 10
-129.9719096097
 20
-31.559082757
 10
-129.9609096097
 20
-31.6191791049
 10
-129.9499096097
 20
-31.6748585633
 10
-129.9389096097
 20
-31.7259013906
 10
-129.9279096097
 20
-31.7721061438
 10
-129.9169096097
 20
-31.8132904734
 10
-129.9059096097
 20
-31.8492918434
 10
-129.8949096097
 20
-31.8799681725
 10
-129.8839096097
 20
-31.9051983949
 10
-129.8763676217
 20
-31.919297612
  0
LWPOLYLINE
  5
563
100
AcDbEntity
  8
0
100
AcDbPolyline
 62
7
  6
CONTINUOUS
 90
18
 70
0
 10
-129.9269096097
 20
-31.201204627
 10
-129.9159096097
 20
-31.2795132966
 10
-129.9049096097
 20
-31.3547455838
 10
-129.8939096097
 20
-31.4266045808
 10
-129.8829096097
 20
-31.4948066928
 10
-129.8719096097
 20
-31.559082757
 10
-129.8609096097
 20
-31.6191791049
 10
-129.8499096097
 20
-31.6748585633
 10
-129.8389096097
 20
-31.7259013906
 10
-129.8279096097
 20
-31.7721061438
 10
-129.8169096097
 20
-31.8132904734
 10
-129.8059096097
 20
-31.8492918434
 10
-129.7949096097
 20
-31.8799681725
 10
-129.7839096097
 20
-31.9051983949
 10
-129.7729096097
 20
-31.9248829382
 10
-129.7619096097
 20
-31.9389441161
 10
-129.7509096097
 20
-31.9473264352
 10
-129.7402766108
 20
-31.95
  0
LWPOLYLINE
  5
564
100
AcDbEntity
  8
0
100
AcDbPolyline
 62
7
  6
CONTINUOUS
 90
15
 70
0
 10
-128.9269096097
 20
-31.2012098287
 10
-128.9159096097
 20
-31.2795183209
 10
-128.9049096097
 20
-31.3547504075
 10
-128.8939096097
 20
-31.4266091817
 10
-128.8829096097
 20
-31.4948110498
 10
-128.8719096097
 20
-31.5590868504
 10
-128.8609096097
 20
-31.6191829163
 10
-128.8499096097
 20
-31.6748620758
 10
-128.8389096097
 20
-31.725904589
 10
-128.8279096097
 20
-31.7721090144
 10
-128.8169096097
 20
-31.8132930046
 10
-128.8059096097
 20
-31.8492940252
 10
-128.7949096097
 20
-31.879969997
 10
-128.7839096097
 20
-31.9051998561
 10
-128.7763683437
 20
-31.9192975975
  0
LWPOLYLINE
  5
565
100
AcDbEntity
  8
0
100
AcDbPolyline
 62
7
  6
CONTINUOUS
 90
18
 70
0
 10
-128.8269096097
 20
-31.2012098287
 10
-128.8159096097
 20
-31.2795183209
 10
-128.8049096097
 20
-31.3547504075
 10
-128.7939096097
 20
-31.4266091817
 10
-128.7829096097
 20
-31.4948110498
 10
-128.7719096097
 20
-31.5590868504
 10
-128.7609096097
 20
-31.6191829163
 10
-128.7499096097
 20
-31.6748620758
 10
-128.7389096097
 20
-31.725904589
 10
-128.7279096097
 20
-31.7721090144
 10
-128.7169096097
 20
-31.8132930046
 10
-128.7059096097
 20
-31.8492940252
 10
-128.6949096097
 20
-31.879969997
 10
-128.6839096097
 20
-31.9051998561
 10
-128.6729096097
 20
-31.924884032
 10
-128.6619096097
 20
-31.9389448405
 10
-128.6509096097
 20
-31.9473267903
 10
-128.6402773137
 20
-31.95
  0
LWPOLYLINE
  5
566
100
AcDbEntity
  8
0
100
AcDbPolyline
 62
7
  6
CONTINUOUS
 90
15
 70
0
 10
-127.8269096097
 20
-31.2012076057
 10
-127.8159096097
 20
-31.279516112
 10
-127.8049096097
 20
-31.354748228
 10
-127.7939096097
 20
-31.4266070472
 10
-127.7829096097
 20
-31.494808976
 10
-127.7719096097
 20
-31.5590848529
 10
-127.7609096097
 20
-31.6191810106
 10
-127.7499096097
 20
-31.6748602774
 10
-127.7389096097
 20
-31.725902913
 10
-127.7279096097
 20
-31.7721074755
 10
-127.7169096097
 20
-31.813291617
 10
-127.7059096097
 20
-31.8492928026
 10
-127.6949096097
 20
-31.8799689522
 10
-127.6839096097
 20
-31.9051990013
 10
-127.6763679436
 20
-31.9192975578
  0
LWPOLYLINE
  5
567
100
AcDbEntity
  8
0
100
AcDbPolyline
 62
7
  6
CONTINUOUS
 90
18
 70
0
 10
-127.7269096097
 20
-31.2012076057
 10
-127.7159096097
 20
-31.279516112
 10
-127.7049096097
 20
-31.354748228
 10
-127.6939096097
 20
-31.4266070472
 10
-127.6829096097
 20
-31.494808976
 10
-127.6719096097
 20
-31.5590848529
 10
-127.6609096097
 20
-31.6191810106
 10
-127.6499096097
 20
-31.6748602774
 10
-127.6389096097
 20
-31.725902913
 10
-127.6279096097
 20
-31.7721074755
 10
-127.6169096097
 20
-31.813291617
 10
-127.6059096097
 20
-31.8492928026
 10
-127.5949096097
 20
-31.8799689522
 10
-127.5839096097
 20
-31.9051990013
 10
-127.5729096097
 20
-31.9248833785
 10
-127.5619096097
 20
-31.9389443985
 10
-127.5509096097
 20
-31.9473265691
 10
-127.540276867
 20
-31.95
  0
LINE
  5
568
100
AcDbEntity
  8
0
100
AcDbLine
 62
7
  6
CONTINUOUS
 10
-130.0489096097
 20
-31.0366052568
 11
-130.0269096097
 21
-31.201204627
  0
LINE
  5
569
100
AcDbEntity
  8
0
100
AcDbLine
 62
7
  6
CONTINUOUS
 10
-129.9489096097
 20
-31.0366052568
 11
-129.9269096097
 21
-31.201204627
  0
LINE
  5
56A
100
AcDbEntity
  8
0
100
AcDbLine
 62
7
  6
CONTINUOUS
 10
-128.9489096097
 20
-31.0366107402
 11
-128.9269096097
 21
-31.2012098287
  0
LINE
  5
56B
100
AcDbEntity
  8
0
100
AcDbLine
 62
7
  6
CONTINUOUS
 10
-128.8489096097
 20
-31.0366107402
 11
-128.8269096097
 21
-31.2012098287
  0
LINE
  5
56C
100
AcDbEntity
  8
0
100
AcDbLine
 62
7
  6
CONTINUOUS
 10
-127.8489096097
 20
-31.0366085332
 11
-127.8269096097
 21
-31.2012076057
  0
LINE
  5
56D
100
AcDbEntity
  8
0
100
AcDbLine
 62
7
  6
CONTINUOUS
 10
-127.7489096097
 20
-31.0366085332
 11
-127.7269096097
 21
-31.2012076057
  0
LINE
  5
56E
100
AcDbEntity
  8
0
100
AcDbLine
 62
7
  6
CONTINUOUS
 10
-130.2029096097
 20
-29.8041220495
 11
-130.1809096097
 21
-29.9690464065
  0
LINE
  5
56F
100
AcDbEntity
  8
0
100
AcDbLine
 62
7
  6
CONTINUOUS
 10
-130.1029096097
 20
-29.8041220495
 11
-130.0809096097
 21
-29.9690464065
  0
LINE
  5
570
100
AcDbEntity
  8
0
100
AcDbLine
 62
7
  6
CONTINUOUS
 10
-129.1029096097
 20
-29.8041266977
 11
-129.0809096097
 21
-29.9690514492
  0
LINE
  5
571
100
AcDbEntity
  8
0
100
AcDbLine
 62
7
  6
CONTINUOUS
 10
-129.0029096097
 20
-29.8041266977
 11
-128.9809096097
 21
-29.9690514492
  0
LINE
  5
572
100
AcDbEntity
  8
0
100
AcDbLine
 62
7
  6
CONTINUOUS
 10
-128.0029096097
 20
-29.804125762
 11
-127.9809096097
 21
-29.9690502666
  0
LINE
  5
573
100
AcDbEntity
  8
0
100
AcDbLine
 62
7
  6
CONTINUOUS
 10
-127.9029096097
 20
-29.804125762
 11
-127.8809096097
 21
-29.9690502666
  0
LINE
  5
574
100
AcDbEntity
  8
0
100
AcDbLine
 62
7
  6
CONTINUOUS
 10
-130.0709096097
 20
-30.8635433048
 11
-130.0489096097
 21
-31.0366052568
  0
LINE
  5
575
100
AcDbEntity
  8
0
100
AcDbLine
 62
7
  6
CONTINUOUS
 10
-129.9709096097
 20
-30.8635433048
 11
-129.9489096097
 21
-31.0366052568
  0
LINE
  5
576
100
AcDbEntity
  8
0
100
AcDbLine
 62
7
  6
CONTINUOUS
 10
-128.9709096097
 20
-30.8635489686
 11
-128.9489096097
 21
-31.0366107402
  0
LINE
  5
577
100
AcDbEntity
  8
0
100
AcDbLine
 62
7
  6
CONTINUOUS
 10
-128.8709096097
 20
-30.8635489686
 11
-128.8489096097
 21
-31.0366107402
  0
LINE
  5
578
100
AcDbEntity
  8
0
100
AcDbLine
 62
7
  6
CONTINUOUS
 10
-127.8709096097
 20
-30.863546833
 11
-127.8489096097
 21
-31.0366085332
  0
LINE
  5
579
100
AcDbEntity
  8
0
100
AcDbLine
 62
7
  6
CONTINUOUS
 10
-127.7709096097
 20
-30.863546833
 11
-127.7489096097
 21
-31.0366085332
  0
LINE
  5
57A
100
AcDbEntity
  8
0
100
AcDbLine
 62
7
  6
CONTINUOUS
 10
-130.1809096097
 20
-29.9690464065
 11
-130.1589096097
 21
-30.1423442217
  0
LINE
  5
57B
100
AcDbEntity
  8
0
100
AcDbLine
 62
7
  6
CONTINUOUS
 10
-130.0809096097
 20
-29.9690464065
 11
-130.0589096097
 21
-30.1423442217
  0
LINE
  5
57C
100
AcDbEntity
  8
0
100
AcDbLine
 62
7
  6
CONTINUOUS
 10
-129.0809096097
 20
-29.9690514492
 11
-129.0589096097
 21
-30.1423495793
  0
LINE
  5
57D
100
AcDbEntity
  8
0
100
AcDbLine
 62
7
  6
CONTINUOUS
 10
-128.9809096097
 20
-29.9690514492
 11
-128.9589096097
 21
-30.1423495793
  0
LINE
  5
57E
100
AcDbEntity
  8
0
100
AcDbLine
 62
7
  6
CONTINUOUS
 10
-127.9809096097
 20
-29.9690502666
 11
-127.9589096097
 21
-30.1423481553
  0
LINE
  5
57F
100
AcDbEntity
  8
0
100
AcDbLine
 62
7
  6
CONTINUOUS
 10
-127.8809096097
 20
-29.9690502666
 11
-127.8589096097
 21
-30.1423481553
  0
LWPOLYLINE
  5
580
100
AcDbEntity
  8
0
100
AcDbPolyline
 62
7
  6
CONTINUOUS
 90
31
 70
0
 10
-135.6044035243
 20
31.0747337642
 10
-135.6034220007
 20
31.0666807363
 10
-135.6023807887
 20
31.0586068252
 10
-135.6012786957
 20
31.0505131619
 10
-135.6001126182
 20
31.0423996052
 10
-135.5988830644
 20
31.0342674167
 10
-135.5975943135
 20
31.0261230217
 10
-135.5962466078
 20
31.0179811722
 10
-135.5948371312
 20
31.0098363657
 10
-135.5933656788
 20
31.0016667998
 10
-135.591836288
 20
30.9934917876
 10
-135.5902422171
 20
30.9853004496
 10
-135.5885666064
 20
30.9770129517
 10
-135.5868099286
 20
30.9686083097
 10
-135.5849676962
 20
30.9600909216
 10
-135.583014298
 20
30.9513948469
 10
-135.5809480224
 20
30.9424811442
 10
-135.5787644161
 20
30.93334626
 10
-135.5764318067
 20
30.9239531515
 10
-135.5739470069
 20
30.9142525146
 10
-135.5713039447
 20
30.9042268643
 10
-135.5684639558
 20
30.8938644975
 10
-135.5654224946
 20
30.8831072877
 10
-135.5621704323
 20
30.8719228438
 10
-135.5586585079
 20
30.8603160201
 10
-135.5548783842
 20
30.8482138856
 10
-135.5508182031
 20
30.8355728446
 10
-135.5464182945
 20
30.8224203723
 10
-135.5416478791
 20
30.8087147789
 10
-135.5365077651
 20
30.7943558944
 10
-135.5309819755
 20
30.7792729533
  0
LWPOLYLINE
  5
581
100
AcDbEntity
  8
0
100
AcDbPolyline
 62
7
  6
CONTINUOUS
 90
3
 70
0
 10
-130.1589096097
 20
-30.1423442217
 10
-130.1149096097
 20
-30.5030392369
 10
-130.0709096097
 20
-30.8635433048
  0
LWPOLYLINE
  5
582
100
AcDbEntity
  8
0
100
AcDbPolyline
 62
7
  6
CONTINUOUS
 90
3
 70
0
 10
-130.0589096097
 20
-30.1423442217
 10
-130.0149096097
 20
-30.5030392369
 10
-129.9709096097
 20
-30.8635433048
  0
LWPOLYLINE
  5
583
100
AcDbEntity
  8
0
100
AcDbPolyline
 62
7
  6
CONTINUOUS
 90
3
 70
0
 10
-129.0589096097
 20
-30.1423495793
 10
-129.0149096097
 20
-30.5030449494
 10
-128.9709096097
 20
-30.8635489686
  0
LWPOLYLINE
  5
584
100
AcDbEntity
  8
0
100
AcDbPolyline
 62
7
  6
CONTINUOUS
 90
3
 70
0
 10
-128.9589096097
 20
-30.1423495793
 10
-128.9149096097
 20
-30.5030449494
 10
-128.8709096097
 20
-30.8635489686
  0
LWPOLYLINE
  5
585
100
AcDbEntity
  8
0
100
AcDbPolyline
 62
7
  6
CONTINUOUS
 90
3
 70
0
 10
-127.9589096097
 20
-30.1423481553
 10
-127.9149096097
 20
-30.5030431002
 10
-127.8709096097
 20
-30.863546833
  0
LWPOLYLINE
  5
586
100
AcDbEntity
  8
0
100
AcDbPolyline
 62
7
  6
CONTINUOUS
 90
3
 70
0
 10
-127.8589096097
 20
-30.1423481553
 10
-127.8149096097
 20
-30.5030431002
 10
-127.7709096097
 20
-30.863546833
  0
LINE
  5
587
100
AcDbEntity
  8
SMUSSO
100
AcDbLine
 62
250
  6
CONTINUOUS
 10
-130.9927259484
 20
-47.4161864085
 11
-130.9927259484
 21
-47.2161787934
  0
LINE
  5
588
100
AcDbEntity
  8
SMUSSO
100
AcDbLine
 62
250
  6
CONTINUOUS
 10
-130.9927259484
 20
47.2161787934
 11
-130.9927259484
 21
47.4161864085
  0
LWPOLYLINE
  5
589
100
AcDbEntity
  8
0
100
AcDbPolyline
 62
7
  6
CONTINUOUS
 90
16
 70
0
 10
-135.5270194179
 20
-29.3390359649
 10
-135.5381225116
 20
-29.3949085044
 10
-135.5449589602
 20
-29.4310755131
 10
-135.5515005673
 20
-29.467627275
 10
-135.5577851726
 20
-29.5047112348
 10
-135.5637914544
 20
-29.5422577981
 10
-135.5694465601
 20
-29.5800042052
 10
-135.5747651863
 20
-29.6180151898
 10
-135.5797626959
 20
-29.656327199
 10
-135.5843794581
 20
-29.6946743584
 10
-135.5886340426
 20
-29.7331699854
 10
-135.5925456069
 20
-29.7718419163
 10
-135.5960649227
 20
-29.8103316784
 10
-135.5991908344
 20
-29.8485894941
 10
-135.6019647204
 20
-29.886863023
 10
-135.6044035243
 20
-29.9252662358
  0
LWPOLYLINE
  5
58A
100
AcDbEntity
  8
0
100
AcDbPolyline
 62
7
  6
CONTINUOUS
 90
7
 70
0
 10
-135.5270815173
 20
29.3393452314
 10
-135.52054925
 20
29.3109763728
 10
-135.5138578749
 20
29.2826959526
 10
-135.507007392
 20
29.2545039707
 10
-135.4999978013
 20
29.2264004272
 10
-135.4928291028
 20
29.1983853221
 10
-135.4855012965
 20
29.1704586552
  0
LINE
  5
58B
100
AcDbEntity
  8
0
100
AcDbLine
 62
7
  6
CONTINUOUS
 10
-135.5380666832
 20
29.3946156494
 11
-135.5270815173
 21
29.3393452314
  0
LWPOLYLINE
  5
58C
100
AcDbEntity
  8
0
100
AcDbPolyline
 62
7
  6
CONTINUOUS
 90
22
 70
0
 10
-125.5917691979
 20
-30.6380041047
 10
-125.581546261
 20
-30.6954309317
 10
-125.5713233242
 20
-30.751020428
 10
-125.5611003873
 20
-30.8045984302
 10
-125.5508774504
 20
-30.8560015712
 10
-125.5406545136
 20
-30.905077772
 10
-125.5304315767
 20
-30.951686681
 10
-125.5202086398
 20
-30.9957000608
 10
-125.5099857029
 20
-31.0370021206
 10
-125.4997627661
 20
-31.0754897943
 10
-125.4895398292
 20
-31.1110729632
 10
-125.4793168923
 20
-31.1436746235
 10
-125.4690939555
 20
-31.173230997
 10
-125.4588710186
 20
-31.1996915882
 10
-125.4486480817
 20
-31.2230191842
 10
-125.4384251448
 20
-31.2431898012
 10
-125.428202208
 20
-31.2601925772
 10
-125.4179792711
 20
-31.2740296114
 10
-125.4077563342
 20
-31.2847157523
 10
-125.3975333974
 20
-31.2922783358
 10
-125.3873104605
 20
-31.2967568748
 10
-125.3772614091
 20
-31.2982031315
  0
LWPOLYLINE
  5
58D
100
AcDbEntity
  8
0
100
AcDbPolyline
 62
7
  6
CONTINUOUS
 90
10
 70
0
 10
-125.6986126575
 20
-30.5986259561
 10
-125.6880409408
 20
-30.6591488159
 10
-125.6774692241
 20
-30.7178309593
 10
-125.6668975074
 20
-30.7744727012
 10
-125.6563257906
 20
-30.8288863377
 10
-125.6457540739
 20
-30.8808967618
 10
-125.6351823572
 20
-30.9303420173
 10
-125.6246106405
 20
-30.9770737878
 10
-125.6140389237
 20
-31.0209578216
 10
-125.603467207
 20
-31.0618742892
  0
LINE
  5
58E
100
AcDbEntity
  8
0
100
AcDbLine
 62
7
  6
CONTINUOUS
 10
-125.6122150717
 20
-30.5183858006
 11
-125.5917691979
 21
-30.6380041047
  0
LINE
  5
58F
100
AcDbEntity
  8
0
100
AcDbLine
 62
7
  6
CONTINUOUS
 10
-125.719756091
 20
-30.4729126193
 11
-125.6986126575
 21
-30.5986259561
  0
LINE
  5
590
100
AcDbEntity
  8
0
100
AcDbLine
 62
7
  6
CONTINUOUS
 10
-125.8360449749
 20
-29.7521410331
 11
-125.8149015415
 21
-29.8781880838
  0
LINE
  5
591
100
AcDbEntity
  8
0
100
AcDbLine
 62
7
  6
CONTINUOUS
 10
-125.7348903141
 20
-29.7588645947
 11
-125.7144444404
 21
-29.8809736984
  0
LINE
  5
592
100
AcDbEntity
  8
0
100
AcDbLine
 62
7
  6
CONTINUOUS
 10
-125.6326609454
 20
-30.3937529866
 11
-125.6122150717
 21
-30.5183858006
  0
LINE
  5
593
100
AcDbEntity
  8
0
100
AcDbLine
 62
7
  6
CONTINUOUS
 10
-126.4896089385
 20
-30.6478035379
 11
-126.5361424781
 21
-30.3562851198
  0
LINE
  5
594
100
AcDbEntity
  8
0
100
AcDbLine
 62
7
  6
CONTINUOUS
 10
-125.7514712411
 20
-30.2761386149
 11
-125.719756091
 21
-30.4729126193
  0
LINE
  5
595
100
AcDbEntity
  8
0
100
AcDbLine
 62
7
  6
CONTINUOUS
 10
-125.8149015415
 20
-29.8781880838
 11
-125.7831863913
 21
-30.0755064471
  0
LINE
  5
596
100
AcDbEntity
  8
0
100
AcDbLine
 62
7
  6
CONTINUOUS
 10
-125.7144444404
 20
-29.8809736984
 11
-125.6837756298
 21
-30.0717875039
  0
LINE
  5
597
100
AcDbEntity
  8
0
100
AcDbLine
 62
7
  6
CONTINUOUS
 10
-125.7831863913
 20
-30.0755064471
 11
-125.7514712411
 21
-30.2761386149
  0
LINE
  5
598
100
AcDbEntity
  8
0
100
AcDbLine
 62
7
  6
CONTINUOUS
 10
-125.6837756298
 20
-30.0717875039
 11
-125.6326609454
 21
-30.3937529866
  0
LWPOLYLINE
  5
599
100
AcDbEntity
  8
0
100
AcDbPolyline
 62
7
  6
CONTINUOUS
 90
14
 70
0
 10
-125.5946343902
 20
-29.9452557602
 10
-125.6015739972
 20
-29.8965525177
 10
-125.6085212408
 20
-29.8497729946
 10
-125.6154768114
 20
-29.8051238231
 10
-125.6224400187
 20
-29.7628149569
 10
-125.6294262358
 20
-29.7229601334
 10
-125.6364545579
 20
-29.6856717492
 10
-125.6435058899
 20
-29.6512673281
 10
-125.6505383194
 20
-29.620120153
 10
-125.6575460716
 20
-29.5923797034
 10
-125.6645349214
 20
-29.5681321036
 10
-125.6714802818
 20
-29.5475419675
 10
-125.6783576279
 20
-29.5307070097
 10
-125.6843937521
 20
-29.5189202079
  0
LWPOLYLINE
  5
59A
100
AcDbEntity
  8
0
100
AcDbPolyline
 62
7
  6
CONTINUOUS
 90
15
 70
0
 10
-126.7269096097
 20
-31.201204627
 10
-126.7159096097
 20
-31.2795132966
 10
-126.7049096097
 20
-31.3547455838
 10
-126.6939096097
 20
-31.4266045808
 10
-126.6829096097
 20
-31.4948066928
 10
-126.6719096097
 20
-31.559082757
 10
-126.6609096097
 20
-31.6191791049
 10
-126.6499096097
 20
-31.6748585633
 10
-126.6389096097
 20
-31.7259013906
 10
-126.6279096097
 20
-31.7721061438
 10
-126.6169096097
 20
-31.8132904734
 10
-126.6059096097
 20
-31.8492918434
 10
-126.5949096097
 20
-31.8799681725
 10
-126.5839096097
 20
-31.9051983949
 10
-126.5763676217
 20
-31.919297612
  0
LWPOLYLINE
  5
59B
100
AcDbEntity
  8
0
100
AcDbPolyline
 62
7
  6
CONTINUOUS
 90
18
 70
0
 10
-126.6269096097
 20
-31.201204627
 10
-126.6159096097
 20
-31.2795132966
 10
-126.6049096097
 20
-31.3547455838
 10
-126.5939096097
 20
-31.4266045808
 10
-126.5829096097
 20
-31.4948066928
 10
-126.5719096097
 20
-31.559082757
 10
-126.5609096097
 20
-31.6191791049
 10
-126.5499096097
 20
-31.6748585633
 10
-126.5389096097
 20
-31.7259013906
 10
-126.5279096097
 20
-31.7721061438
 10
-126.5169096097
 20
-31.8132904734
 10
-126.5059096097
 20
-31.8492918434
 10
-126.4949096097
 20
-31.8799681725
 10
-126.4839096097
 20
-31.9051983949
 10
-126.4729096097
 20
-31.9248829382
 10
-126.4619096097
 20
-31.9389441161
 10
-126.4509096097
 20
-31.9473264352
 10
-126.4402766108
 20
-31.95
  0
LINE
  5
59C
100
AcDbEntity
  8
0
100
AcDbLine
 62
7
  6
CONTINUOUS
 10
-125.5807276212
 20
-30.0479496617
 11
-125.5946343902
 21
-29.9452557602
  0
LINE
  5
59D
100
AcDbEntity
  8
0
100
AcDbLine
 62
7
  6
CONTINUOUS
 10
-126.7489096097
 20
-31.0366052568
 11
-126.7269096097
 21
-31.201204627
  0
LINE
  5
59E
100
AcDbEntity
  8
0
100
AcDbLine
 62
7
  6
CONTINUOUS
 10
-126.6489096097
 20
-31.0366052568
 11
-126.6269096097
 21
-31.201204627
  0
LINE
  5
59F
100
AcDbEntity
  8
0
100
AcDbLine
 62
7
  6
CONTINUOUS
 10
-125.4872145891
 20
-30.7874854351
 11
-125.5021131227
 21
-30.6759486265
  0
LINE
  5
5A0
100
AcDbEntity
  8
0
100
AcDbLine
 62
7
  6
CONTINUOUS
 10
-126.9029096097
 20
-29.8041220495
 11
-126.8809096097
 21
-29.9690464065
  0
LINE
  5
5A1
100
AcDbEntity
  8
0
100
AcDbLine
 62
7
  6
CONTINUOUS
 10
-126.8029096097
 20
-29.8041220495
 11
-126.7809096097
 21
-29.9690464065
  0
LINE
  5
5A2
100
AcDbEntity
  8
0
100
AcDbLine
 62
7
  6
CONTINUOUS
 10
-125.566760437
 20
-30.1564561041
 11
-125.5807276212
 21
-30.0479496617
  0
LINE
  5
5A3
100
AcDbEntity
  8
0
100
AcDbLine
 62
7
  6
CONTINUOUS
 10
-126.7709096097
 20
-30.8635433048
 11
-126.7489096097
 21
-31.0366052568
  0
LINE
  5
5A4
100
AcDbEntity
  8
0
100
AcDbLine
 62
7
  6
CONTINUOUS
 10
-126.6709096097
 20
-30.8635433048
 11
-126.6489096097
 21
-31.0366052568
  0
LINE
  5
5A5
100
AcDbEntity
  8
0
100
AcDbLine
 62
7
  6
CONTINUOUS
 10
-126.8809096097
 20
-29.9690464065
 11
-126.8589096097
 21
-30.1423442217
  0
LINE
  5
5A6
100
AcDbEntity
  8
0
100
AcDbLine
 62
7
  6
CONTINUOUS
 10
-126.7809096097
 20
-29.9690464065
 11
-126.7589096097
 21
-30.1423442217
  0
LINE
  5
5A7
100
AcDbEntity
  8
0
100
AcDbLine
 62
7
  6
CONTINUOUS
 10
-125.5021131227
 20
-30.6759486265
 11
-125.524351759
 21
-30.5
  0
LINE
  5
5A8
100
AcDbEntity
  8
0
100
AcDbLine
 62
7
  6
CONTINUOUS
 10
-125.524351759
 20
-30.5
 11
-125.566760437
 21
-30.1564561041
  0
LWPOLYLINE
  5
5A9
100
AcDbEntity
  8
0
100
AcDbPolyline
 62
7
  6
CONTINUOUS
 90
3
 70
0
 10
-126.8589096097
 20
-30.1423442217
 10
-126.8149096097
 20
-30.5030392369
 10
-126.7709096097
 20
-30.8635433048
  0
LWPOLYLINE
  5
5AA
100
AcDbEntity
  8
0
100
AcDbPolyline
 62
7
  6
CONTINUOUS
 90
3
 70
0
 10
-126.7589096097
 20
-30.1423442217
 10
-126.7149096097
 20
-30.5030392369
 10
-126.6709096097
 20
-30.8635433048
  0
LINE
  5
5AB
100
AcDbEntity
  8
0
100
AcDbLine
 62
7
  6
CONTINUOUS
 10
-125.876165498
 20
31.1899809394
 11
-125.876165498
 21
29.4
  0
LINE
  5
5AC
100
AcDbEntity
  8
0
100
AcDbLine
 62
7
  6
CONTINUOUS
 10
-125.876165498
 20
-29.8100190606
 11
-125.876165498
 21
-31.6
  0
LWPOLYLINE
  5
5AD
100
AcDbEntity
  8
0
100
AcDbPolyline
 62
7
  6
CONTINUOUS
 90
7
 70
0
 10
-135.4855012965
 20
-29.1704621798
 10
-135.4928218363
 20
-29.1983575489
 10
-135.4999820332
 20
-29.2263330194
 10
-135.5069818886
 20
-29.2543885938
 10
-135.5138214036
 20
-29.2825242746
 10
-135.5205005796
 20
-29.3107400641
 10
-135.5270194179
 20
-29.3390359649
  0
LINE
  5
5AE
100
AcDbEntity
  8
0
100
AcDbLine
 62
7
  6
CONTINUOUS
 10
-135.5309819942
 20
-30.779273003
 11
-135.5270194175
 21
-30.7652546682
  0
LINE
  5
5AF
100
AcDbEntity
  8
0
100
AcDbLine
 62
7
  6
CONTINUOUS
 10
-135.5309819755
 20
30.7792729533
 11
-135.5270815173
 21
30.7654711121
  0
LWPOLYLINE
  5
5B0
100
AcDbEntity
  8
0
100
AcDbPolyline
 62
7
  6
CONTINUOUS
 90
15
 70
0
 10
-130.2484688835
 20
30.0782921059
 10
-130.2368339427
 20
30.0117538334
 10
-130.2251852717
 20
29.9472966362
 10
-130.2135931713
 20
29.8855802482
 10
-130.2020891383
 20
29.826994273
 10
-130.1906416759
 20
29.7715795429
 10
-130.1792265952
 20
29.7194214491
 10
-130.1678466368
 20
29.6707257063
 10
-130.15649906
 20
29.6256560916
 10
-130.145151453
 20
29.5842584421
 10
-130.1338046812
 20
29.5467093632
 10
-130.1224578792
 20
29.5131632639
 10
-130.1110760397
 20
29.4836768767
 10
-130.09963001
 20
29.4583549613
 10
-130.0894389099
 20
29.4395520819
  0
LWPOLYLINE
  5
5B1
100
AcDbEntity
  8
0
100
AcDbPolyline
 62
7
  6
CONTINUOUS
 90
15
 70
0
 10
-130.9819421953
 20
30.9208805001
 10
-130.9933895577
 20
30.9863865047
 10
-131.0048023524
 20
31.0496255865
 10
-131.0161685636
 20
31.1102862607
 10
-131.0274497219
 20
31.1679509175
 10
-131.0386842967
 20
31.222622398
 10
-131.0499756797
 20
31.2745726169
 10
-131.061352679
 20
31.3236585736
 10
-131.0727864866
 20
31.3694860608
 10
-131.0842940707
 20
31.4118655382
 10
-131.095906053
 20
31.4506368379
 10
-131.1075918117
 20
31.4854335752
 10
-131.11927645
 20
31.5158387306
 10
-131.1309593947
 20
31.5417170369
 10
-131.1411148627
 20
31.5604479608
  0
LWPOLYLINE
  5
5B2
100
AcDbEntity
  8
0
100
AcDbPolyline
 62
7
  6
CONTINUOUS
 90
15
 70
0
 10
-131.3492785671
 20
30.0829928183
 10
-131.3379528726
 20
30.0180613605
 10
-131.3266366277
 20
29.9551977296
 10
-131.3153151709
 20
29.8945822022
 10
-131.3039878646
 20
29.8364683024
 10
-131.2926553464
 20
29.7811063699
 10
-131.2813048685
 20
29.7286751809
 10
-131.2699400888
 20
29.679425206
 10
-131.2585573494
 20
29.6335624028
 10
-131.2471329291
 20
29.5912134583
 10
-131.2356346464
 20
29.5524972439
 10
-131.2240946827
 20
29.5177487921
 10
-131.2125858613
 20
29.4873430046
 10
-131.2011269033
 20
29.4614150279
 10
-131.18943925
 20
29.439552149
  0
LINE
  5
5B3
100
AcDbEntity
  8
0
100
AcDbLine
 62
7
  6
CONTINUOUS
 10
-130.3870013538
 20
30.9261833144
 11
-130.363530706
 21
30.7868137317
  0
LINE
  5
5B4
100
AcDbEntity
  8
0
100
AcDbLine
 62
7
  6
CONTINUOUS
 10
-129.8593855175
 20
30.7868137317
 11
-129.8828561653
 21
30.9261833144
  0
LINE
  5
5B5
100
AcDbEntity
  8
0
100
AcDbLine
 62
7
  6
CONTINUOUS
 10
-130.9589037552
 20
30.7838873729
 11
-130.9819421953
 21
30.9208805001
  0
LINE
  5
5B6
100
AcDbEntity
  8
0
100
AcDbLine
 62
7
  6
CONTINUOUS
 10
-130.2716877756
 20
30.2163427786
 11
-130.2484688835
 21
30.0782921059
  0
LINE
  5
5B7
100
AcDbEntity
  8
0
100
AcDbLine
 62
7
  6
CONTINUOUS
 10
-129.7443236951
 20
30.0782921059
 11
-129.7675425872
 21
30.2163427786
  0
LINE
  5
5B8
100
AcDbEntity
  8
0
100
AcDbLine
 62
7
  6
CONTINUOUS
 10
-131.3719762927
 20
30.2180919906
 11
-131.3492785671
 21
30.0829928183
  0
LINE
  5
5B9
100
AcDbEntity
  8
0
100
AcDbLine
 62
7
  6
CONTINUOUS
 10
-130.8451333787
 20
30.0829928183
 11
-130.8678311042
 21
30.2180919906
  0
LINE
  5
5BA
100
AcDbEntity
  8
0
100
AcDbLine
 62
7
  6
CONTINUOUS
 10
-131.4709096097
 20
30.831149867
 11
-131.4515499058
 21
30.7135224404
  0
LINE
  5
5BB
100
AcDbEntity
  8
0
100
AcDbLine
 62
7
  6
CONTINUOUS
 10
-131.4515499058
 20
30.7135224404
 11
-131.3719762927
 21
30.2180919906
  0
LINE
  5
5BC
100
AcDbEntity
  8
0
100
AcDbLine
 62
7
  6
CONTINUOUS
 10
-130.8678311042
 20
30.2180919906
 11
-130.9132044345
 21
30.5
  0
LINE
  5
5BD
100
AcDbEntity
  8
0
100
AcDbLine
 62
7
  6
CONTINUOUS
 10
-130.9132044345
 20
30.5
 11
-130.9589037552
 21
30.7838873729
  0
LINE
  5
5BE
100
AcDbEntity
  8
0
100
AcDbLine
 62
7
  6
CONTINUOUS
 10
-130.3173491562
 20
30.5
 11
-130.2716877756
 21
30.2163427786
  0
LINE
  5
5BF
100
AcDbEntity
  8
0
100
AcDbLine
 62
7
  6
CONTINUOUS
 10
-130.363530706
 20
30.7868137317
 11
-130.3173491562
 21
30.5
  0
LINE
  5
5C0
100
AcDbEntity
  8
0
100
AcDbLine
 62
7
  6
CONTINUOUS
 10
-129.7675425872
 20
30.2163427786
 11
-129.8132039678
 21
30.5
  0
LINE
  5
5C1
100
AcDbEntity
  8
0
100
AcDbLine
 62
7
  6
CONTINUOUS
 10
-129.8132039678
 20
30.5
 11
-129.8593855175
 21
30.7868137317
  0
LWPOLYLINE
  5
5C2
100
AcDbEntity
  8
0
100
AcDbPolyline
 62
7
  6
CONTINUOUS
 90
15
 70
0
 10
-131.1269096097
 20
29.7987923943
 10
-131.1159096097
 20
29.7204838879
 10
-131.1049096097
 20
29.6452517719
 10
-131.0939096097
 20
29.5733929528
 10
-131.0829096097
 20
29.505191024
 10
-131.0719096097
 20
29.4409151471
 10
-131.0609096097
 20
29.3808189894
 10
-131.0499096097
 20
29.3251397226
 10
-131.0389096097
 20
29.274097087
 10
-131.0279096097
 20
29.2278925245
 10
-131.0169096097
 20
29.186708383
 10
-131.0059096097
 20
29.1507071974
 10
-130.9949096097
 20
29.1200310478
 10
-130.9839096097
 20
29.0948009987
 10
-130.9763679436
 20
29.0807024422
  0
LWPOLYLINE
  5
5C3
100
AcDbEntity
  8
0
100
AcDbPolyline
 62
7
  6
CONTINUOUS
 90
18
 70
0
 10
-131.0269096097
 20
29.7987923943
 10
-131.0159096097
 20
29.7204838879
 10
-131.0049096097
 20
29.6452517719
 10
-130.9939096097
 20
29.5733929528
 10
-130.9829096097
 20
29.505191024
 10
-130.9719096097
 20
29.4409151471
 10
-130.9609096097
 20
29.3808189894
 10
-130.9499096097
 20
29.3251397226
 10
-130.9389096097
 20
29.274097087
 10
-130.9279096097
 20
29.2278925245
 10
-130.9169096097
 20
29.186708383
 10
-130.9059096097
 20
29.1507071974
 10
-130.8949096097
 20
29.1200310478
 10
-130.8839096097
 20
29.0948009987
 10
-130.8729096097
 20
29.0751166215
 10
-130.8619096097
 20
29.0610556015
 10
-130.8509096097
 20
29.0526734309
 10
-130.840276867
 20
29.05
  0
LWPOLYLINE
  5
5C4
100
AcDbEntity
  8
0
100
AcDbPolyline
 62
7
  6
CONTINUOUS
 90
15
 70
0
 10
-130.0269096097
 20
29.798795373
 10
-130.0159096097
 20
29.7204867034
 10
-130.0049096097
 20
29.6452544162
 10
-129.9939096097
 20
29.5733954192
 10
-129.9829096097
 20
29.5051933072
 10
-129.9719096097
 20
29.440917243
 10
-129.9609096097
 20
29.3808208951
 10
-129.9499096097
 20
29.3251414367
 10
-129.9389096097
 20
29.2740986094
 10
-129.9279096097
 20
29.2278938562
 10
-129.9169096097
 20
29.1867095266
 10
-129.9059096097
 20
29.1507081566
 10
-129.8949096097
 20
29.1200318275
 10
-129.8839096097
 20
29.0948016051
 10
-129.8763676217
 20
29.080702388
  0
LWPOLYLINE
  5
5C5
100
AcDbEntity
  8
0
100
AcDbPolyline
 62
7
  6
CONTINUOUS
 90
18
 70
0
 10
-129.9269096097
 20
29.798795373
 10
-129.9159096097
 20
29.7204867034
 10
-129.9049096097
 20
29.6452544162
 10
-129.8939096097
 20
29.5733954192
 10
-129.8829096097
 20
29.5051933072
 10
-129.8719096097
 20
29.440917243
 10
-129.8609096097
 20
29.3808208951
 10
-129.8499096097
 20
29.3251414367
 10
-129.8389096097
 20
29.2740986094
 10
-129.8279096097
 20
29.2278938562
 10
-129.8169096097
 20
29.1867095266
 10
-129.8059096097
 20
29.1507081566
 10
-129.7949096097
 20
29.1200318275
 10
-129.7839096097
 20
29.0948016051
 10
-129.7729096097
 20
29.0751170618
 10
-129.7619096097
 20
29.0610558839
 10
-129.7509096097
 20
29.0526735648
 10
-129.7402766108
 20
29.05
  0
LWPOLYLINE
  5
5C6
100
AcDbEntity
  8
0
100
AcDbPolyline
 62
7
  6
CONTINUOUS
 90
15
 70
0
 10
-128.9269096097
 20
29.7987901713
 10
-128.9159096097
 20
29.7204816791
 10
-128.9049096097
 20
29.6452495925
 10
-128.8939096097
 20
29.5733908183
 10
-128.8829096097
 20
29.5051889502
 10
-128.8719096097
 20
29.4409131496
 10
-128.8609096097
 20
29.3808170837
 10
-128.8499096097
 20
29.3251379242
 10
-128.8389096097
 20
29.274095411
 10
-128.8279096097
 20
29.2278909856
 10
-128.8169096097
 20
29.1867069954
 10
-128.8059096097
 20
29.1507059748
 10
-128.7949096097
 20
29.120030003
 10
-128.7839096097
 20
29.0948001439
 10
-128.7763683437
 20
29.0807024025
  0
LWPOLYLINE
  5
5C7
100
AcDbEntity
  8
0
100
AcDbPolyline
 62
7
  6
CONTINUOUS
 90
18
 70
0
 10
-128.8269096097
 20
29.7987901713
 10
-128.8159096097
 20
29.7204816791
 10
-128.8049096097
 20
29.6452495925
 10
-128.7939096097
 20
29.5733908183
 10
-128.7829096097
 20
29.5051889502
 10
-128.7719096097
 20
29.4409131496
 10
-128.7609096097
 20
29.3808170837
 10
-128.7499096097
 20
29.3251379242
 10
-128.7389096097
 20
29.274095411
 10
-128.7279096097
 20
29.2278909856
 10
-128.7169096097
 20
29.1867069954
 10
-128.7059096097
 20
29.1507059748
 10
-128.6949096097
 20
29.120030003
 10
-128.6839096097
 20
29.0948001439
 10
-128.6729096097
 20
29.075115968
 10
-128.6619096097
 20
29.0610551595
 10
-128.6509096097
 20
29.0526732097
 10
-128.6402773137
 20
29.05
  0
LINE
  5
5C8
100
AcDbEntity
  8
0
100
AcDbLine
 62
7
  6
CONTINUOUS
 10
-131.1489096097
 20
29.9633914668
 11
-131.1269096097
 21
29.7987923943
  0
LINE
  5
5C9
100
AcDbEntity
  8
0
100
AcDbLine
 62
7
  6
CONTINUOUS
 10
-131.0489096097
 20
29.9633914668
 11
-131.0269096097
 21
29.7987923943
  0
LINE
  5
5CA
100
AcDbEntity
  8
0
100
AcDbLine
 62
7
  6
CONTINUOUS
 10
-130.0489096097
 20
29.9633947432
 11
-130.0269096097
 21
29.798795373
  0
LINE
  5
5CB
100
AcDbEntity
  8
0
100
AcDbLine
 62
7
  6
CONTINUOUS
 10
-129.9489096097
 20
29.9633947432
 11
-129.9269096097
 21
29.798795373
  0
LINE
  5
5CC
100
AcDbEntity
  8
0
100
AcDbLine
 62
7
  6
CONTINUOUS
 10
-128.9489096097
 20
29.9633892598
 11
-128.9269096097
 21
29.7987901713
  0
LINE
  5
5CD
100
AcDbEntity
  8
0
100
AcDbLine
 62
7
  6
CONTINUOUS
 10
-128.8489096097
 20
29.9633892598
 11
-128.8269096097
 21
29.7987901713
  0
LINE
  5
5CE
100
AcDbEntity
  8
0
100
AcDbLine
 62
7
  6
CONTINUOUS
 10
-131.3029096097
 20
31.195874238
 11
-131.2809096097
 21
31.0309497333
  0
LINE
  5
5CF
100
AcDbEntity
  8
0
100
AcDbLine
 62
7
  6
CONTINUOUS
 10
-131.2029096097
 20
31.195874238
 11
-131.1809096097
 21
31.0309497333
  0
LINE
  5
5D0
100
AcDbEntity
  8
0
100
AcDbLine
 62
7
  6
CONTINUOUS
 10
-130.2029096097
 20
31.1958779505
 11
-130.1809096097
 21
31.0309535935
  0
LINE
  5
5D1
100
AcDbEntity
  8
0
100
AcDbLine
 62
7
  6
CONTINUOUS
 10
-130.1029096097
 20
31.1958779505
 11
-130.0809096097
 21
31.0309535935
  0
LINE
  5
5D2
100
AcDbEntity
  8
0
100
AcDbLine
 62
7
  6
CONTINUOUS
 10
-129.1029096097
 20
31.1958733023
 11
-129.0809096097
 21
31.0309485508
  0
LINE
  5
5D3
100
AcDbEntity
  8
0
100
AcDbLine
 62
7
  6
CONTINUOUS
 10
-129.0029096097
 20
31.1958733023
 11
-128.9809096097
 21
31.0309485508
  0
LINE
  5
5D4
100
AcDbEntity
  8
0
100
AcDbLine
 62
7
  6
CONTINUOUS
 10
-131.1709096097
 20
30.136453167
 11
-131.1489096097
 21
29.9633914668
  0
LINE
  5
5D5
100
AcDbEntity
  8
0
100
AcDbLine
 62
7
  6
CONTINUOUS
 10
-131.0709096097
 20
30.136453167
 11
-131.0489096097
 21
29.9633914668
  0
LINE
  5
5D6
100
AcDbEntity
  8
0
100
AcDbLine
 62
7
  6
CONTINUOUS
 10
-130.0709096097
 20
30.1364566952
 11
-130.0489096097
 21
29.9633947432
  0
LINE
  5
5D7
100
AcDbEntity
  8
0
100
AcDbLine
 62
7
  6
CONTINUOUS
 10
-129.9709096097
 20
30.1364566952
 11
-129.9489096097
 21
29.9633947432
  0
LINE
  5
5D8
100
AcDbEntity
  8
0
100
AcDbLine
 62
7
  6
CONTINUOUS
 10
-128.9709096097
 20
30.1364510314
 11
-128.9489096097
 21
29.9633892598
  0
LINE
  5
5D9
100
AcDbEntity
  8
0
100
AcDbLine
 62
7
  6
CONTINUOUS
 10
-128.8709096097
 20
30.1364510314
 11
-128.8489096097
 21
29.9633892598
  0
LINE
  5
5DA
100
AcDbEntity
  8
0
100
AcDbLine
 62
7
  6
CONTINUOUS
 10
-131.2809096097
 20
31.0309497333
 11
-131.2589096097
 21
30.8576518447
  0
LINE
  5
5DB
100
AcDbEntity
  8
0
100
AcDbLine
 62
7
  6
CONTINUOUS
 10
-131.1809096097
 20
31.0309497333
 11
-131.1589096097
 21
30.8576518447
  0
LINE
  5
5DC
100
AcDbEntity
  8
0
100
AcDbLine
 62
7
  6
CONTINUOUS
 10
-130.1809096097
 20
31.0309535935
 11
-130.1589096097
 21
30.8576557783
  0
LINE
  5
5DD
100
AcDbEntity
  8
0
100
AcDbLine
 62
7
  6
CONTINUOUS
 10
-130.0809096097
 20
31.0309535935
 11
-130.0589096097
 21
30.8576557783
  0
LINE
  5
5DE
100
AcDbEntity
  8
0
100
AcDbLine
 62
7
  6
CONTINUOUS
 10
-129.0809096097
 20
31.0309485508
 11
-129.0589096097
 21
30.8576504207
  0
LINE
  5
5DF
100
AcDbEntity
  8
0
100
AcDbLine
 62
7
  6
CONTINUOUS
 10
-128.9809096097
 20
31.0309485508
 11
-128.9589096097
 21
30.8576504207
  0
LWPOLYLINE
  5
5E0
100
AcDbEntity
  8
0
100
AcDbPolyline
 62
7
  6
CONTINUOUS
 90
3
 70
0
 10
-131.2589096097
 20
30.8576518447
 10
-131.2149096097
 20
30.4969568998
 10
-131.1709096097
 20
30.136453167
  0
LWPOLYLINE
  5
5E1
100
AcDbEntity
  8
0
100
AcDbPolyline
 62
7
  6
CONTINUOUS
 90
3
 70
0
 10
-131.1589096097
 20
30.8576518447
 10
-131.1149096097
 20
30.4969568998
 10
-131.0709096097
 20
30.136453167
  0
LWPOLYLINE
  5
5E2
100
AcDbEntity
  8
0
100
AcDbPolyline
 62
7
  6
CONTINUOUS
 90
3
 70
0
 10
-130.1589096097
 20
30.8576557783
 10
-130.1149096097
 20
30.4969607631
 10
-130.0709096097
 20
30.1364566952
  0
LWPOLYLINE
  5
5E3
100
AcDbEntity
  8
0
100
AcDbPolyline
 62
7
  6
CONTINUOUS
 90
3
 70
0
 10
-130.0589096097
 20
30.8576557783
 10
-130.0149096097
 20
30.4969607631
 10
-129.9709096097
 20
30.1364566952
  0
LWPOLYLINE
  5
5E4
100
AcDbEntity
  8
0
100
AcDbPolyline
 62
7
  6
CONTINUOUS
 90
3
 70
0
 10
-129.0589096097
 20
30.8576504207
 10
-129.0149096097
 20
30.4969550506
 10
-128.9709096097
 20
30.1364510314
  0
LWPOLYLINE
  5
5E5
100
AcDbEntity
  8
0
100
AcDbPolyline
 62
7
  6
CONTINUOUS
 90
3
 70
0
 10
-128.9589096097
 20
30.8576504207
 10
-128.9149096097
 20
30.4969550506
 10
-128.8709096097
 20
30.1364510314
  0
LWPOLYLINE
  5
5E6
100
AcDbEntity
  8
0
100
AcDbPolyline
 62
7
  6
CONTINUOUS
 90
25
 70
0
 10
-135.5309819942
 20
-30.779273003
 10
-135.5351668724
 20
-30.7904985734
 10
-135.5392357997
 20
-30.8017539713
 10
-135.5431911426
 20
-30.8130197229
 10
-135.5470394489
 20
-30.8242651146
 10
-135.5507786956
 20
-30.8354824604
 10
-135.5543989203
 20
-30.8466886817
 10
-135.5578983147
 20
-30.8578496508
 10
-135.5612844026
 20
-30.8689680352
 10
-135.5645616407
 20
-30.8801118457
 10
-135.5677255136
 20
-30.8912088722
 10
-135.5707858938
 20
-30.9022922996
 10
-135.5737676515
 20
-30.913558074
 10
-135.5766734141
 20
-30.924904226
 10
-135.5795034374
 20
-30.9363432353
 10
-135.5822771539
 20
-30.9481804416
 10
-135.5850025984
 20
-30.9602663279
 10
-135.5876727068
 20
-30.9725775146
 10
-135.5902836389
 20
-30.9855230302
 10
-135.5928483952
 20
-30.9988825526
 10
-135.5953551965
 20
-31.0125894382
 10
-135.5977652082
 20
-31.0271809737
 10
-135.6000681395
 20
-31.0426700873
 10
-135.6022800575
 20
-31.0585989954
 10
-135.6044035395
 20
-31.0747336518
  0
LWPOLYLINE
  5
5E7
100
AcDbEntity
  8
0
100
AcDbPolyline
 62
7
  6
CONTINUOUS
 90
15
 70
0
 10
-128.7896067555
 20
30.9649555235
 10
-128.8006133994
 20
31.0266708055
 10
-128.8116125923
 20
31.0862654344
 10
-128.8225930672
 20
31.1434512948
 10
-128.8335660912
 20
31.1980705686
 10
-128.8445274306
 20
31.2498946554
 10
-128.8554615258
 20
31.2986623068
 10
-128.8663839364
 20
31.3442685834
 10
-128.8773371083
 20
31.3867041305
 10
-128.8883557299
 20
31.4258920741
 10
-128.8994051127
 20
31.4615074619
 10
-128.910423637
 20
31.4932107573
 10
-128.9213840128
 20
31.5208450578
 10
-128.9323135301
 20
31.5444186701
 10
-128.9411121816
 20
31.560443559
  0
LWPOLYLINE
  5
5E8
100
AcDbEntity
  8
0
100
AcDbPolyline
 62
7
  6
CONTINUOUS
 90
15
 70
0
 10
-129.8828561653
 20
30.9261833144
 10
-129.8945786171
 20
30.9930791325
 10
-129.9062938703
 20
31.0577261007
 10
-129.9179312263
 20
31.1194721502
 10
-129.9294559099
 20
31.1779246439
 10
-129.9409026963
 20
31.2330756168
 10
-129.9523052129
 20
31.2848989156
 10
-129.9636377128
 20
31.3331066109
 10
-129.9749259428
 20
31.3776570618
 10
-129.9862807709
 20
31.4187901204
 10
-129.9977544754
 20
31.4564286896
 10
-130.009294778
 20
31.4901430504
 10
-130.0208557119
 20
31.519605265
 10
-130.0324461713
 20
31.5446809684
 10
-130.0411143147
 20
31.5604479789
  0
LWPOLYLINE
  5
5E9
100
AcDbEntity
  8
0
100
AcDbPolyline
 62
7
  6
CONTINUOUS
 90
15
 70
0
 10
-126.5828561653
 20
30.9261833144
 10
-126.5945786171
 20
30.9930791325
 10
-126.6062938703
 20
31.0577261007
 10
-126.6179312263
 20
31.1194721502
 10
-126.6294559099
 20
31.1779246439
 10
-126.6409026963
 20
31.2330756168
 10
-126.6523052129
 20
31.2848989156
 10
-126.6636377128
 20
31.3331066109
 10
-126.6749259428
 20
31.3776570618
 10
-126.6862807709
 20
31.4187901204
 10
-126.6977544754
 20
31.4564286896
 10
-126.709294778
 20
31.4901430504
 10
-126.7208557119
 20
31.519605265
 10
-126.7324461713
 20
31.5446809684
 10
-126.7411116184
 20
31.5604434768
  0
LWPOLYLINE
  5
5EA
100
AcDbEntity
  8
0
100
AcDbPolyline
 62
7
  6
CONTINUOUS
 90
15
 70
0
 10
-129.1481614194
 20
30.076504371
 10
-129.1365677868
 20
30.0102518221
 10
-129.1249939026
 20
29.9462534633
 10
-129.1134948188
 20
29.8850640139
 10
-129.1021284144
 20
29.8271859044
 10
-129.0908368106
 20
29.7724953148
 10
-129.0795014233
 20
29.7206358825
 10
-129.0680919866
 20
29.6717363536
 10
-129.0566387664
 20
29.6261862536
 10
-129.0451139761
 20
29.5841254842
 10
-129.0334830808
 20
29.5457004882
 10
-129.0217806155
 20
29.5112887346
 10
-129.0100823978
 20
29.4813031314
 10
-128.9983894739
 20
29.4558747045
 10
-128.9894396354
 20
29.4395520977
  0
LWPOLYLINE
  5
5EB
100
AcDbEntity
  8
0
100
AcDbPolyline
 62
7
  6
CONTINUOUS
 90
15
 70
0
 10
-126.9484688835
 20
30.0782921059
 10
-126.9368339427
 20
30.0117538334
 10
-126.9251852717
 20
29.9472966362
 10
-126.9135931713
 20
29.8855802482
 10
-126.9020891383
 20
29.826994273
 10
-126.8906416759
 20
29.7715795429
 10
-126.8792265952
 20
29.7194214491
 10
-126.8678466368
 20
29.6707257063
 10
-126.85649906
 20
29.6256560916
 10
-126.845151453
 20
29.5842584421
 10
-126.8338046812
 20
29.5467093632
 10
-126.8224578792
 20
29.5131632639
 10
-126.8110760397
 20
29.4836768767
 10
-126.79963001
 20
29.4583549613
 10
-126.7894389099
 20
29.4395520819
  0
LWPOLYLINE
  5
5EC
100
AcDbEntity
  8
0
100
AcDbPolyline
 62
7
  6
CONTINUOUS
 90
15
 70
0
 10
-127.6819421953
 20
30.9208805001
 10
-127.6933895577
 20
30.9863865047
 10
-127.7048023524
 20
31.0496255865
 10
-127.7161685636
 20
31.1102862607
 10
-127.7274497219
 20
31.1679509175
 10
-127.7386842967
 20
31.222622398
 10
-127.7499756797
 20
31.2745726169
 10
-127.761352679
 20
31.3236585736
 10
-127.7727864866
 20
31.3694860608
 10
-127.7842940707
 20
31.4118655382
 10
-127.795906053
 20
31.4506368379
 10
-127.8075918117
 20
31.4854335752
 10
-127.81927645
 20
31.5158387306
 10
-127.8309593947
 20
31.5417170369
 10
-127.8411121664
 20
31.5604434587
  0
LWPOLYLINE
  5
5ED
100
AcDbEntity
  8
0
100
AcDbPolyline
 62
7
  6
CONTINUOUS
 90
15
 70
0
 10
-128.0492785671
 20
30.0829928183
 10
-128.0379528726
 20
30.0180613605
 10
-128.0266366277
 20
29.9551977296
 10
-128.0153151709
 20
29.8945822022
 10
-128.0039878646
 20
29.8364683024
 10
-127.9926553464
 20
29.7811063699
 10
-127.9813048685
 20
29.7286751809
 10
-127.9699400888
 20
29.679425206
 10
-127.9585573494
 20
29.6335624028
 10
-127.9471329291
 20
29.5912134583
 10
-127.9356346464
 20
29.5524972439
 10
-127.9240946827
 20
29.5177487921
 10
-127.9125858613
 20
29.4873430046
 10
-127.9011269033
 20
29.4614150279
 10
-127.88943925
 20
29.439552149
  0
LINE
  5
5EE
100
AcDbEntity
  8
0
100
AcDbLine
 62
7
  6
CONTINUOUS
 10
-129.2937519439
 20
30.9649555235
 11
-129.2718537513
 21
30.8369529954
  0
LINE
  5
5EF
100
AcDbEntity
  8
0
100
AcDbLine
 62
7
  6
CONTINUOUS
 10
-128.7677085629
 20
30.8369529954
 11
-128.7896067555
 21
30.9649555235
  0
LINE
  5
5F0
100
AcDbEntity
  8
0
100
AcDbLine
 62
7
  6
CONTINUOUS
 10
-126.4424148859
 20
30.06724035
 11
-126.4660124893
 21
30.2070649871
  0
LINE
  5
5F1
100
AcDbEntity
  8
0
100
AcDbLine
 62
7
  6
CONTINUOUS
 10
-129.1714214489
 20
30.2147220319
 11
-129.1481614194
 21
30.076504371
  0
LINE
  5
5F2
100
AcDbEntity
  8
0
100
AcDbLine
 62
7
  6
CONTINUOUS
 10
-128.644016231
 20
30.076504371
 11
-128.6672762604
 21
30.2147220319
  0
LINE
  5
5F3
100
AcDbEntity
  8
0
100
AcDbLine
 62
7
  6
CONTINUOUS
 10
-127.0870013538
 20
30.9261833144
 11
-127.063530706
 21
30.7868137317
  0
LINE
  5
5F4
100
AcDbEntity
  8
0
100
AcDbLine
 62
7
  6
CONTINUOUS
 10
-126.5593855175
 20
30.7868137317
 11
-126.5828561653
 21
30.9261833144
  0
LINE
  5
5F5
100
AcDbEntity
  8
0
100
AcDbLine
 62
7
  6
CONTINUOUS
 10
-128.1860873837
 20
30.9208805001
 11
-128.1630489436
 21
30.7838873729
  0
LINE
  5
5F6
100
AcDbEntity
  8
0
100
AcDbLine
 62
7
  6
CONTINUOUS
 10
-127.6589037552
 20
30.7838873729
 11
-127.6819421953
 21
30.9208805001
  0
LINE
  5
5F7
100
AcDbEntity
  8
0
100
AcDbLine
 62
7
  6
CONTINUOUS
 10
-126.9716877756
 20
30.2163427786
 11
-126.9484688835
 21
30.0782921059
  0
LINE
  5
5F8
100
AcDbEntity
  8
0
100
AcDbLine
 62
7
  6
CONTINUOUS
 10
-128.0719762927
 20
30.2180919906
 11
-128.0492785671
 21
30.0829928183
  0
LINE
  5
5F9
100
AcDbEntity
  8
0
100
AcDbLine
 62
7
  6
CONTINUOUS
 10
-127.5451333787
 20
30.0829928183
 11
-127.5678311042
 21
30.2180919906
  0
LINE
  5
5FA
100
AcDbEntity
  8
0
100
AcDbLine
 62
7
  6
CONTINUOUS
 10
-129.2718537513
 20
30.8369529954
 11
-129.2500692376
 21
30.7043873916
  0
LINE
  5
5FB
100
AcDbEntity
  8
0
100
AcDbLine
 62
7
  6
CONTINUOUS
 10
-128.7459240492
 20
30.7043873916
 11
-128.7677085629
 21
30.8369529954
  0
LINE
  5
5FC
100
AcDbEntity
  8
0
100
AcDbLine
 62
7
  6
CONTINUOUS
 10
-129.2500692376
 20
30.7043873916
 11
-129.1714214489
 21
30.2147220319
  0
LINE
  5
5FD
100
AcDbEntity
  8
0
100
AcDbLine
 62
7
  6
CONTINUOUS
 10
-128.6672762604
 20
30.2147220319
 11
-128.7459240492
 21
30.7043873916
  0
LINE
  5
5FE
100
AcDbEntity
  8
0
100
AcDbLine
 62
7
  6
CONTINUOUS
 10
-128.1173496229
 20
30.5
 11
-128.0719762927
 21
30.2180919906
  0
LINE
  5
5FF
100
AcDbEntity
  8
0
100
AcDbLine
 62
7
  6
CONTINUOUS
 10
-128.1630489436
 20
30.7838873729
 11
-128.1173496229
 21
30.5
  0
LINE
  5
600
100
AcDbEntity
  8
0
100
AcDbLine
 62
7
  6
CONTINUOUS
 10
-127.5678311042
 20
30.2180919906
 11
-127.6132044345
 21
30.5
  0
LINE
  5
601
100
AcDbEntity
  8
0
100
AcDbLine
 62
7
  6
CONTINUOUS
 10
-127.6132044345
 20
30.5
 11
-127.6589037552
 21
30.7838873729
  0
LINE
  5
602
100
AcDbEntity
  8
0
100
AcDbLine
 62
7
  6
CONTINUOUS
 10
-127.0173491562
 20
30.5
 11
-126.9716877756
 21
30.2163427786
  0
LINE
  5
603
100
AcDbEntity
  8
0
100
AcDbLine
 62
7
  6
CONTINUOUS
 10
-127.063530706
 20
30.7868137317
 11
-127.0173491562
 21
30.5
  0
LINE
  5
604
100
AcDbEntity
  8
0
100
AcDbLine
 62
7
  6
CONTINUOUS
 10
-126.5132039678
 20
30.5
 11
-126.5593855175
 21
30.7868137317
  0
LINE
  5
605
100
AcDbEntity
  8
0
100
AcDbLine
 62
7
  6
CONTINUOUS
 10
-126.4660124893
 20
30.2070649871
 11
-126.5132039678
 21
30.5
  0
LWPOLYLINE
  5
606
100
AcDbEntity
  8
0
100
AcDbPolyline
 62
7
  6
CONTINUOUS
 90
14
 70
0
 10
-125.5946343902
 20
31.0547442398
 10
-125.6015739972
 20
31.1034474823
 10
-125.6085212408
 20
31.1502270054
 10
-125.6154768114
 20
31.1948761769
 10
-125.6224400187
 20
31.2371850431
 10
-125.6294262358
 20
31.2770398666
 10
-125.6364545579
 20
31.3143282508
 10
-125.6435058899
 20
31.3487326719
 10
-125.6505383194
 20
31.379879847
 10
-125.6575460716
 20
31.4076202966
 10
-125.6645349214
 20
31.4318678964
 10
-125.6714802818
 20
31.4524580325
 10
-125.6783576279
 20
31.4692929903
 10
-125.6843937521
 20
31.4810797921
  0
LWPOLYLINE
  5
607
100
AcDbEntity
  8
0
100
AcDbPolyline
 62
7
  6
CONTINUOUS
 90
15
 70
0
 10
-127.8269096097
 20
29.7987923943
 10
-127.8159096097
 20
29.720483888
 10
-127.8049096097
 20
29.645251772
 10
-127.7939096097
 20
29.5733929528
 10
-127.7829096097
 20
29.505191024
 10
-127.7719096097
 20
29.4409151471
 10
-127.7609096097
 20
29.3808189894
 10
-127.7499096097
 20
29.3251397226
 10
-127.7389096097
 20
29.274097087
 10
-127.7279096097
 20
29.2278925245
 10
-127.7169096097
 20
29.186708383
 10
-127.7059096097
 20
29.1507071974
 10
-127.6949096097
 20
29.1200310478
 10
-127.6839096097
 20
29.0948009987
 10
-127.6763679436
 20
29.0807024422
  0
LWPOLYLINE
  5
608
100
AcDbEntity
  8
0
100
AcDbPolyline
 62
7
  6
CONTINUOUS
 90
18
 70
0
 10
-127.7269096097
 20
29.7987923943
 10
-127.7159096097
 20
29.720483888
 10
-127.7049096097
 20
29.645251772
 10
-127.6939096097
 20
29.5733929528
 10
-127.6829096097
 20
29.505191024
 10
-127.6719096097
 20
29.4409151471
 10
-127.6609096097
 20
29.3808189894
 10
-127.6499096097
 20
29.3251397226
 10
-127.6389096097
 20
29.274097087
 10
-127.6279096097
 20
29.2278925245
 10
-127.6169096097
 20
29.186708383
 10
-127.6059096097
 20
29.1507071974
 10
-127.5949096097
 20
29.1200310478
 10
-127.5839096097
 20
29.0948009987
 10
-127.5729096097
 20
29.0751166215
 10
-127.5619096097
 20
29.0610556015
 10
-127.5509096097
 20
29.0526734309
 10
-127.540276867
 20
29.05
  0
LWPOLYLINE
  5
609
100
AcDbEntity
  8
0
100
AcDbPolyline
 62
7
  6
CONTINUOUS
 90
15
 70
0
 10
-126.7269096097
 20
29.798795373
 10
-126.7159096097
 20
29.7204867034
 10
-126.7049096097
 20
29.6452544162
 10
-126.6939096097
 20
29.5733954192
 10
-126.6829096097
 20
29.5051933072
 10
-126.6719096097
 20
29.440917243
 10
-126.6609096097
 20
29.3808208951
 10
-126.6499096097
 20
29.3251414367
 10
-126.6389096097
 20
29.2740986094
 10
-126.6279096097
 20
29.2278938562
 10
-126.6169096097
 20
29.1867095266
 10
-126.6059096097
 20
29.1507081566
 10
-126.5949096097
 20
29.1200318275
 10
-126.5839096097
 20
29.0948016051
 10
-126.5763676217
 20
29.080702388
  0
LWPOLYLINE
  5
60A
100
AcDbEntity
  8
0
100
AcDbPolyline
 62
7
  6
CONTINUOUS
 90
18
 70
0
 10
-126.6269096097
 20
29.798795373
 10
-126.6159096097
 20
29.7204867034
 10
-126.6049096097
 20
29.6452544162
 10
-126.5939096097
 20
29.5733954192
 10
-126.5829096097
 20
29.5051933072
 10
-126.5719096097
 20
29.440917243
 10
-126.5609096097
 20
29.3808208951
 10
-126.5499096097
 20
29.3251414367
 10
-126.5389096097
 20
29.2740986094
 10
-126.5279096097
 20
29.2278938562
 10
-126.5169096097
 20
29.1867095266
 10
-126.5059096097
 20
29.1507081566
 10
-126.4949096097
 20
29.1200318275
 10
-126.4839096097
 20
29.0948016051
 10
-126.4729096097
 20
29.0751170618
 10
-126.4619096097
 20
29.0610558839
 10
-126.4509096097
 20
29.0526735648
 10
-126.4402766108
 20
29.05
  0
LINE
  5
60B
100
AcDbEntity
  8
0
100
AcDbLine
 62
7
  6
CONTINUOUS
 10
-125.5807276212
 20
30.9520503383
 11
-125.5946343902
 21
31.0547442398
  0
LINE
  5
60C
100
AcDbEntity
  8
0
100
AcDbLine
 62
7
  6
CONTINUOUS
 10
-127.8489096097
 20
29.9633914668
 11
-127.8269096097
 21
29.7987923943
  0
LINE
  5
60D
100
AcDbEntity
  8
0
100
AcDbLine
 62
7
  6
CONTINUOUS
 10
-127.7489096097
 20
29.9633914668
 11
-127.7269096097
 21
29.7987923943
  0
LINE
  5
60E
100
AcDbEntity
  8
0
100
AcDbLine
 62
7
  6
CONTINUOUS
 10
-126.7489096097
 20
29.9633947432
 11
-126.7269096097
 21
29.798795373
  0
LINE
  5
60F
100
AcDbEntity
  8
0
100
AcDbLine
 62
7
  6
CONTINUOUS
 10
-126.6489096097
 20
29.9633947432
 11
-126.6269096097
 21
29.798795373
  0
LINE
  5
610
100
AcDbEntity
  8
0
100
AcDbLine
 62
7
  6
CONTINUOUS
 10
-125.4872145891
 20
30.2125145649
 11
-125.5021131227
 21
30.3240513735
  0
LINE
  5
611
100
AcDbEntity
  8
0
100
AcDbLine
 62
7
  6
CONTINUOUS
 10
-128.0029096097
 20
31.195874238
 11
-127.9809096097
 21
31.0309497334
  0
LINE
  5
612
100
AcDbEntity
  8
0
100
AcDbLine
 62
7
  6
CONTINUOUS
 10
-127.9029096097
 20
31.195874238
 11
-127.8809096097
 21
31.0309497334
  0
LINE
  5
613
100
AcDbEntity
  8
0
100
AcDbLine
 62
7
  6
CONTINUOUS
 10
-126.9029096097
 20
31.1958779505
 11
-126.8809096097
 21
31.0309535935
  0
LINE
  5
614
100
AcDbEntity
  8
0
100
AcDbLine
 62
7
  6
CONTINUOUS
 10
-126.8029096097
 20
31.1958779505
 11
-126.7809096097
 21
31.0309535935
  0
LINE
  5
615
100
AcDbEntity
  8
0
100
AcDbLine
 62
7
  6
CONTINUOUS
 10
-125.566760437
 20
30.8435438959
 11
-125.5807276212
 21
30.9520503383
  0
LINE
  5
616
100
AcDbEntity
  8
0
100
AcDbLine
 62
7
  6
CONTINUOUS
 10
-127.8709096097
 20
30.136453167
 11
-127.8489096097
 21
29.9633914668
  0
LINE
  5
617
100
AcDbEntity
  8
0
100
AcDbLine
 62
7
  6
CONTINUOUS
 10
-127.7709096097
 20
30.136453167
 11
-127.7489096097
 21
29.9633914668
  0
LINE
  5
618
100
AcDbEntity
  8
0
100
AcDbLine
 62
7
  6
CONTINUOUS
 10
-126.7709096097
 20
30.1364566952
 11
-126.7489096097
 21
29.9633947432
  0
LINE
  5
619
100
AcDbEntity
  8
0
100
AcDbLine
 62
7
  6
CONTINUOUS
 10
-126.6709096097
 20
30.1364566952
 11
-126.6489096097
 21
29.9633947432
  0
LINE
  5
61A
100
AcDbEntity
  8
0
100
AcDbLine
 62
7
  6
CONTINUOUS
 10
-127.9809096097
 20
31.0309497334
 11
-127.9589096097
 21
30.8576518447
  0
LINE
  5
61B
100
AcDbEntity
  8
0
100
AcDbLine
 62
7
  6
CONTINUOUS
 10
-127.8809096097
 20
31.0309497334
 11
-127.8589096097
 21
30.8576518447
  0
LINE
  5
61C
100
AcDbEntity
  8
0
100
AcDbLine
 62
7
  6
CONTINUOUS
 10
-126.8809096097
 20
31.0309535935
 11
-126.8589096097
 21
30.8576557783
  0
LINE
  5
61D
100
AcDbEntity
  8
0
100
AcDbLine
 62
7
  6
CONTINUOUS
 10
-126.7809096097
 20
31.0309535935
 11
-126.7589096097
 21
30.8576557783
  0
LINE
  5
61E
100
AcDbEntity
  8
0
100
AcDbLine
 62
7
  6
CONTINUOUS
 10
-125.5021131227
 20
30.3240513735
 11
-125.524351759
 21
30.5
  0
LINE
  5
61F
100
AcDbEntity
  8
0
100
AcDbLine
 62
7
  6
CONTINUOUS
 10
-125.524351759
 20
30.5
 11
-125.566760437
 21
30.8435438959
  0
LWPOLYLINE
  5
620
100
AcDbEntity
  8
0
100
AcDbPolyline
 62
7
  6
CONTINUOUS
 90
3
 70
0
 10
-127.9589096097
 20
30.8576518447
 10
-127.9149096097
 20
30.4969568998
 10
-127.8709096097
 20
30.136453167
  0
LWPOLYLINE
  5
621
100
AcDbEntity
  8
0
100
AcDbPolyline
 62
7
  6
CONTINUOUS
 90
3
 70
0
 10
-127.8589096097
 20
30.8576518447
 10
-127.8149096097
 20
30.4969568998
 10
-127.7709096097
 20
30.136453167
  0
LWPOLYLINE
  5
622
100
AcDbEntity
  8
0
100
AcDbPolyline
 62
7
  6
CONTINUOUS
 90
3
 70
0
 10
-126.8589096097
 20
30.8576557783
 10
-126.8149096097
 20
30.4969607631
 10
-126.7709096097
 20
30.1364566952
  0
LWPOLYLINE
  5
623
100
AcDbEntity
  8
0
100
AcDbPolyline
 62
7
  6
CONTINUOUS
 90
3
 70
0
 10
-126.7589096097
 20
30.8576557783
 10
-126.7149096097
 20
30.4969607631
 10
-126.6709096097
 20
30.1364566952
  0
LWPOLYLINE
  5
624
100
AcDbEntity
  8
0
100
AcDbPolyline
 62
7
  6
CONTINUOUS
 90
3
 70
0
 10
-125.876165498
 20
31.1899809394
 10
-125.863407499
 20
31.1316749265
 10
-125.8506275658
 20
31.0716083617
  0
LWPOLYLINE
  5
625
100
AcDbEntity
  8
0
100
AcDbPolyline
 62
7
  6
CONTINUOUS
 90
9
 70
0
 10
-125.7085725604
 20
30.3687805879
 10
-125.6955203983
 20
30.3078554168
 10
-125.6824438907
 20
30.2485156793
 10
-125.66934289
 20
30.1909938595
 10
-125.6562175439
 20
30.1355148382
 10
-125.6430673525
 20
30.0822909194
 10
-125.6298921493
 20
30.03152519
 10
-125.6166921008
 20
29.9834103239
 10
-125.603467207
 20
29.9381257108
  0
LINE
  5
626
100
AcDbEntity
  8
0
100
AcDbLine
 62
7
  6
CONTINUOUS
 10
-125.734606838
 20
30.4944309818
 11
-125.7085725604
 21
30.3687805879
  0
LINE
  5
627
100
AcDbEntity
  8
0
100
AcDbLine
 62
7
  6
CONTINUOUS
 10
-125.8506275658
 20
31.0716083617
 11
-125.8250021093
 21
30.9472068342
  0
LINE
  5
628
100
AcDbEntity
  8
0
100
AcDbLine
 62
7
  6
CONTINUOUS
 10
-125.8250021093
 20
30.9472068342
 11
-125.734606838
 21
30.4944309818
  0
LWPOLYLINE
  5
629
100
AcDbEntity
  8
0
100
AcDbPolyline
 62
7
  6
CONTINUOUS
 90
22
 70
0
 10
-125.5917691979
 20
30.3619958953
 10
-125.581546261
 20
30.3045690683
 10
-125.5713233242
 20
30.248979572
 10
-125.5611003873
 20
30.1954015698
 10
-125.5508774504
 20
30.1439984288
 10
-125.5406545136
 20
30.094922228
 10
-125.5304315767
 20
30.048313319
 10
-125.5202086398
 20
30.0042999392
 10
-125.5099857029
 20
29.9629978794
 10
-125.4997627661
 20
29.9245102057
 10
-125.4895398292
 20
29.8889270368
 10
-125.4793168923
 20
29.8563253765
 10
-125.4690939555
 20
29.826769003
 10
-125.4588710186
 20
29.8003084118
 10
-125.4486480817
 20
29.7769808158
 10
-125.4384251448
 20
29.7568101988
 10
-125.428202208
 20
29.7398074228
 10
-125.4179792711
 20
29.7259703886
 10
-125.4077563342
 20
29.7152842477
 10
-125.3975333974
 20
29.7077216642
 10
-125.3873104605
 20
29.7032431252
 10
-125.3772614091
 20
29.7017968685
  0
LWPOLYLINE
  5
62A
100
AcDbEntity
  8
0
100
AcDbPolyline
 62
7
  6
CONTINUOUS
 90
10
 70
0
 10
-125.6986126575
 20
30.4013740439
 10
-125.6880409408
 20
30.3408511841
 10
-125.6774692241
 20
30.2821690407
 10
-125.6668975074
 20
30.2255272988
 10
-125.6563257906
 20
30.1711136623
 10
-125.6457540739
 20
30.1191032382
 10
-125.6351823572
 20
30.0696579827
 10
-125.6246106405
 20
30.0229262122
 10
-125.6140389237
 20
29.9790421784
 10
-125.603467207
 20
29.9381257108
  0
LINE
  5
62B
100
AcDbEntity
  8
0
100
AcDbLine
 62
7
  6
CONTINUOUS
 10
-125.6122150717
 20
30.4816141994
 11
-125.5917691979
 21
30.3619958953
  0
LINE
  5
62C
100
AcDbEntity
  8
0
100
AcDbLine
 62
7
  6
CONTINUOUS
 10
-125.719756091
 20
30.5270873807
 11
-125.6986126575
 21
30.4013740439
  0
LINE
  5
62D
100
AcDbEntity
  8
0
100
AcDbLine
 62
7
  6
CONTINUOUS
 10
-125.8360449749
 20
31.2478589669
 11
-125.8149015415
 21
31.1218119162
  0
LINE
  5
62E
100
AcDbEntity
  8
0
100
AcDbLine
 62
7
  6
CONTINUOUS
 10
-125.7348903141
 20
31.2411354053
 11
-125.7144444404
 21
31.1190263016
  0
LINE
  5
62F
100
AcDbEntity
  8
0
100
AcDbLine
 62
7
  6
CONTINUOUS
 10
-125.6326609454
 20
30.6062470134
 11
-125.6122150717
 21
30.4816141994
  0
LINE
  5
630
100
AcDbEntity
  8
0
100
AcDbLine
 62
7
  6
CONTINUOUS
 10
-125.7514712411
 20
30.7238613851
 11
-125.719756091
 21
30.5270873807
  0
LINE
  5
631
100
AcDbEntity
  8
0
100
AcDbLine
 62
7
  6
CONTINUOUS
 10
-125.8149015415
 20
31.1218119162
 11
-125.7831863913
 21
30.9244935529
  0
LINE
  5
632
100
AcDbEntity
  8
0
100
AcDbLine
 62
7
  6
CONTINUOUS
 10
-125.7144444404
 20
31.1190263016
 11
-125.6837756298
 21
30.9282124961
  0
LINE
  5
633
100
AcDbEntity
  8
0
100
AcDbLine
 62
7
  6
CONTINUOUS
 10
-125.7831863913
 20
30.9244935529
 11
-125.7514712411
 21
30.7238613851
  0
LINE
  5
634
100
AcDbEntity
  8
0
100
AcDbLine
 62
7
  6
CONTINUOUS
 10
-125.6837756298
 20
30.9282124961
 11
-125.6326609454
 21
30.6062470134
  0
LWPOLYLINE
  5
635
100
AcDbEntity
  8
0
100
AcDbPolyline
 62
7
  6
CONTINUOUS
 90
4
 70
0
 43
0.3500000087
 10
-117.1448023254
 20
-52.5928568451
 10
-117.1448023254
 20
-51.949999379
 10
-115.6448008606
 20
-51.949999379
 10
-116.5019384644
 20
-54.950000177
  0
LWPOLYLINE
  5
636
100
AcDbEntity
  8
0
100
AcDbPolyline
 62
7
  6
CONTINUOUS
 90
4
 70
0
 43
0.3500000087
 10
-117.1448023254
 20
58.8071453613
 10
-117.1448023254
 20
59.4500006958
 10
-115.6448008606
 20
59.4500006958
 10
-116.5019384644
 20
56.4499977661
  0
LINE
  5
637
100
AcDbEntity
  8
0
100
AcDbLine
 62
7
  6
CONTINUOUS
 10
-131.18943925
 20
29.439552149
 11
-131.0494903346
 21
29.2044362164
  0
LINE
  5
638
100
AcDbEntity
  8
0
100
AcDbLine
 62
7
  6
CONTINUOUS
 10
-131.0494903346
 20
29.2044362164
 11
-130.9763679436
 21
29.0807024422
  0
LWPOLYLINE
  5
639
100
AcDbEntity
  8
0
100
AcDbPolyline
 62
7
  6
CONTINUOUS
 90
15
 70
0
 10
-131.3541860943
 20
31.9192975443
 10
-131.3459096097
 20
31.9036854425
 10
-131.3349096097
 20
31.8780882336
 10
-131.3239096097
 20
31.8470523457
 10
-131.3129096097
 20
31.8107002631
 10
-131.3019096097
 20
31.7691754509
 10
-131.2909096097
 20
31.7226417884
 10
-131.2799096097
 20
31.6712829226
 10
-131.2689096097
 20
31.6153015432
 10
-131.2579096097
 20
31.5549185832
 10
-131.2469096097
 20
31.4903723462
 10
-131.2359096097
 20
31.4219175664
 10
-131.2249096097
 20
31.3498244035
 10
-131.2139096097
 20
31.2743773758
 10
-131.2029096097
 20
31.195874238
  0
LINE
  5
63A
100
AcDbEntity
  8
0
100
AcDbLine
 62
7
  6
CONTINUOUS
 10
-128.6041879571
 20
-31.9193004373
 11
-128.4542134298
 21
-31.6661265603
  0
LINE
  5
63B
100
AcDbEntity
  8
0
100
AcDbLine
 62
7
  6
CONTINUOUS
 10
-130.4263676643
 20
-29.0807024269
 11
-130.5798766665
 21
-29.3398115196
  0
LINE
  5
63C
100
AcDbEntity
  8
0
100
AcDbLine
 62
7
  6
CONTINUOUS
 10
-129.3263680302
 20
-29.0807023474
 11
-129.4798770115
 21
-29.3398114226
  0
LINE
  5
63D
100
AcDbEntity
  8
0
100
AcDbLine
 62
7
  6
CONTINUOUS
 10
-128.2263682425
 20
-29.0807024341
 11
-128.3798772458
 21
-29.3398115274
  0
LINE
  5
63E
100
AcDbEntity
  8
0
100
AcDbLine
 62
7
  6
CONTINUOUS
 10
-127.1263676643
 20
-29.0807024269
 11
-127.2798766665
 21
-29.3398115196
  0
LINE
  5
63F
100
AcDbEntity
  8
0
100
AcDbLine
 62
7
  6
CONTINUOUS
 10
-130.8041857797
 20
-31.9192975392
 11
-130.6494577142
 21
-31.6581417443
  0
LINE
  5
640
100
AcDbEntity
  8
0
100
AcDbLine
 62
7
  6
CONTINUOUS
 10
-129.7041855948
 20
-31.9192975996
 11
-129.5494575449
 21
-31.6581418176
  0
LINE
  5
641
100
AcDbEntity
  8
0
100
AcDbLine
 62
7
  6
CONTINUOUS
 10
-130.5798766665
 20
-29.3398115196
 11
-130.6157869355
 21
-29.4
  0
LINE
  5
642
100
AcDbEntity
  8
0
100
AcDbLine
 62
7
  6
CONTINUOUS
 10
-129.4798770115
 20
-29.3398114226
 11
-129.5157873355
 21
-29.4
  0
LINE
  5
643
100
AcDbEntity
  8
0
100
AcDbLine
 62
7
  6
CONTINUOUS
 10
-128.3798772458
 20
-29.3398115274
 11
-128.4157875105
 21
-29.4
  0
LINE
  5
644
100
AcDbEntity
  8
0
100
AcDbLine
 62
7
  6
CONTINUOUS
 10
-127.2798766665
 20
-29.3398115196
 11
-127.3157869355
 21
-29.4
  0
LINE
  5
645
100
AcDbEntity
  8
0
100
AcDbLine
 62
7
  6
CONTINUOUS
 10
-130.6494577142
 20
-31.6581417443
 11
-130.6147667474
 21
-31.6
  0
LINE
  5
646
100
AcDbEntity
  8
0
100
AcDbLine
 62
7
  6
CONTINUOUS
 10
-129.5494575449
 20
-31.6581418176
 11
-129.5147665366
 21
-31.6
  0
LINE
  5
647
100
AcDbEntity
  8
0
100
AcDbLine
 62
7
  6
CONTINUOUS
 10
-128.4542134298
 20
-31.6661265603
 11
-128.4147650668
 21
-31.6
  0
LWPOLYLINE
  5
648
100
AcDbEntity
  8
0
100
AcDbPolyline
 62
7
  6
CONTINUOUS
 90
5
 70
0
 10
-130.4263676643
 20
-29.0807024269
 10
-130.4229096097
 20
-29.075117035
 10
-130.4119096097
 20
-29.0610558735
 10
-130.4009096097
 20
-29.0526735634
 10
-130.3902766066
 20
-29.05
  0
LWPOLYLINE
  5
649
100
AcDbEntity
  8
0
100
AcDbPolyline
 62
7
  6
CONTINUOUS
 90
5
 70
0
 10
-129.3263680302
 20
-29.0807023474
 10
-129.3229096097
 20
-29.0751163944
 10
-129.3119096097
 20
-29.0610554327
 10
-129.3009096097
 20
-29.0526733393
 10
-129.2902770657
 20
-29.05
  0
LWPOLYLINE
  5
64A
100
AcDbEntity
  8
0
100
AcDbPolyline
 62
7
  6
CONTINUOUS
 90
5
 70
0
 10
-128.2263682425
 20
-29.0807024341
 10
-128.2229096097
 20
-29.0751161548
 10
-128.2119096097
 20
-29.0610552896
 10
-128.2009096097
 20
-29.0526732767
 10
-128.1902771751
 20
-29.05
  0
LWPOLYLINE
  5
64B
100
AcDbEntity
  8
0
100
AcDbPolyline
 62
7
  6
CONTINUOUS
 90
5
 70
0
 10
-130.9763679436
 20
29.0807024422
 10
-130.9729096097
 20
29.0751166215
 10
-130.9619096097
 20
29.0610556015
 10
-130.9509096097
 20
29.0526734309
 10
-130.940276867
 20
29.05
  0
LWPOLYLINE
  5
64C
100
AcDbEntity
  8
0
100
AcDbPolyline
 62
7
  6
CONTINUOUS
 90
5
 70
0
 10
-129.8763676217
 20
29.080702388
 10
-129.8729096097
 20
29.0751170618
 10
-129.8619096097
 20
29.0610558839
 10
-129.8509096097
 20
29.0526735648
 10
-129.8402766108
 20
29.05
  0
LWPOLYLINE
  5
64D
100
AcDbEntity
  8
0
100
AcDbPolyline
 62
7
  6
CONTINUOUS
 90
5
 70
0
 10
-128.7763683437
 20
29.0807024025
 10
-128.7729096097
 20
29.075115968
 10
-128.7619096097
 20
29.0610551595
 10
-128.7509096097
 20
29.0526732097
 10
-128.7402773137
 20
29.05
  0
LWPOLYLINE
  5
64E
100
AcDbEntity
  8
0
100
AcDbPolyline
 62
7
  6
CONTINUOUS
 90
5
 70
0
 10
-127.6763679436
 20
29.0807024422
 10
-127.6729096097
 20
29.0751166215
 10
-127.6619096097
 20
29.0610556015
 10
-127.6509096097
 20
29.0526734309
 10
-127.640276867
 20
29.05
  0
LINE
  5
64F
100
AcDbEntity
  8
0
100
AcDbLine
 62
7
  6
CONTINUOUS
 10
-128.9411121816
 20
31.560443559
 11
-129.0667740025
 21
31.7714444022
  0
LINE
  5
650
100
AcDbEntity
  8
0
100
AcDbLine
 62
7
  6
CONTINUOUS
 10
-131.1411148627
 20
31.5604479608
 11
-131.279857136
 21
31.7935263815
  0
LINE
  5
651
100
AcDbEntity
  8
0
100
AcDbLine
 62
7
  6
CONTINUOUS
 10
-130.0411143147
 20
31.5604479789
 11
-130.1798565844
 21
31.7935263967
  0
LINE
  5
652
100
AcDbEntity
  8
0
100
AcDbLine
 62
7
  6
CONTINUOUS
 10
-130.0894389099
 20
29.4395520819
 11
-129.9494900067
 21
29.2044361572
  0
LINE
  5
653
100
AcDbEntity
  8
0
100
AcDbLine
 62
7
  6
CONTINUOUS
 10
-128.9894396354
 20
29.4395520977
 11
-128.8494907298
 21
29.2044361722
  0
LINE
  5
654
100
AcDbEntity
  8
0
100
AcDbLine
 62
7
  6
CONTINUOUS
 10
-127.88943925
 20
29.439552149
 11
-127.7494903346
 21
29.2044362164
  0
LINE
  5
655
100
AcDbEntity
  8
0
100
AcDbLine
 62
7
  6
CONTINUOUS
 10
-129.9494900067
 20
29.2044361572
 11
-129.8763676217
 21
29.080702388
  0
LINE
  5
656
100
AcDbEntity
  8
0
100
AcDbLine
 62
7
  6
CONTINUOUS
 10
-131.279857136
 20
31.7935263815
 11
-131.3541860943
 21
31.9192975443
  0
LINE
  5
657
100
AcDbEntity
  8
0
100
AcDbLine
 62
7
  6
CONTINUOUS
 10
-128.8494907298
 20
29.2044361722
 11
-128.7763683437
 21
29.0807024025
  0
LINE
  5
658
100
AcDbEntity
  8
0
100
AcDbLine
 62
7
  6
CONTINUOUS
 10
-130.1798565844
 20
31.7935263967
 11
-130.2541855408
 21
31.9192975577
  0
LINE
  5
659
100
AcDbEntity
  8
0
100
AcDbLine
 62
7
  6
CONTINUOUS
 10
-127.7494903346
 20
29.2044362164
 11
-127.6763679436
 21
29.0807024422
  0
LINE
  5
65A
100
AcDbEntity
  8
0
100
AcDbLine
 62
7
  6
CONTINUOUS
 10
-129.0667740025
 20
31.7714444022
 11
-129.1541877718
 21
31.9193004893
  0
LWPOLYLINE
  5
65B
100
AcDbEntity
  8
0
100
AcDbPolyline
 62
7
  6
CONTINUOUS
 90
15
 70
0
 10
-130.2541855408
 20
31.9192975577
 10
-130.2459096097
 20
31.9036866043
 10
-130.2349096097
 20
31.8780896679
 10
-130.2239096097
 20
31.8470540435
 10
-130.2129096097
 20
31.8107022144
 10
-130.2019096097
 20
31.7691776444
 10
-130.1909096097
 20
31.7226442118
 10
-130.1799096097
 20
31.6712855625
 10
-130.1689096097
 20
31.6153043854
 10
-130.1579096097
 20
31.5549216123
 10
-130.1469096097
 20
31.4903755463
 10
-130.1359096097
 20
31.4219209209
 10
-130.1249096097
 20
31.3498278951
 10
-130.1139096097
 20
31.2743809869
 10
-130.1029096097
 20
31.1958779505
  0
LWPOLYLINE
  5
65C
100
AcDbEntity
  8
0
100
AcDbPolyline
 62
7
  6
CONTINUOUS
 90
15
 70
0
 10
-129.1541877718
 20
31.9193004893
 10
-129.1459096097
 20
31.9036855432
 10
-129.1349096097
 20
31.8780883207
 10
-129.1239096097
 20
31.8470524049
 10
-129.1129096097
 20
31.8107002808
 10
-129.1019096097
 20
31.7691754141
 10
-129.0909096097
 20
31.7226416853
 10
-129.0799096097
 20
31.6712827421
 10
-129.0689096097
 20
31.6153012754
 10
-129.0579096097
 20
31.5549182191
 10
-129.0469096097
 20
31.4903718782
 10
-129.0359096097
 20
31.4219169881
 10
-129.0249096097
 20
31.3498237095
 10
-129.0139096097
 20
31.2743765622
 10
-129.0029096097
 20
31.1958733023
  0
LWPOLYLINE
  5
65D
100
AcDbEntity
  8
0
100
AcDbPolyline
 62
7
  6
CONTINUOUS
 90
15
 70
0
 10
-128.0541877839
 20
31.9193004088
 10
-128.0459096097
 20
31.9036854425
 10
-128.0349096097
 20
31.8780882336
 10
-128.0239096097
 20
31.8470523457
 10
-128.0129096097
 20
31.8107002631
 10
-128.0019096097
 20
31.7691754509
 10
-127.9909096097
 20
31.7226417884
 10
-127.9799096097
 20
31.6712829226
 10
-127.9689096097
 20
31.6153015432
 10
-127.9579096097
 20
31.5549185832
 10
-127.9469096097
 20
31.4903723462
 10
-127.9359096097
 20
31.4219175664
 10
-127.9249096097
 20
31.3498244035
 10
-127.9139096097
 20
31.2743773758
 10
-127.9029096097
 20
31.195874238
  0
LWPOLYLINE
  5
65E
100
AcDbEntity
  8
0
100
AcDbPolyline
 62
7
  6
CONTINUOUS
 90
15
 70
0
 10
-126.9541872304
 20
31.9193004222
 10
-126.9459096097
 20
31.9036866043
 10
-126.9349096097
 20
31.8780896679
 10
-126.9239096097
 20
31.8470540435
 10
-126.9129096097
 20
31.8107022144
 10
-126.9019096097
 20
31.7691776444
 10
-126.8909096097
 20
31.7226442118
 10
-126.8799096097
 20
31.6712855625
 10
-126.8689096097
 20
31.6153043854
 10
-126.8579096097
 20
31.5549216123
 10
-126.8469096097
 20
31.4903755463
 10
-126.8359096097
 20
31.4219209209
 10
-126.8249096097
 20
31.3498278951
 10
-126.8139096097
 20
31.2743809869
 10
-126.8029096097
 20
31.1958779505
  0
LWPOLYLINE
  5
65F
100
AcDbEntity
  8
0
100
AcDbPolyline
 62
7
  6
CONTINUOUS
 90
12
 70
0
 10
-125.603467207
 20
29.9381257108
 10
-125.5841901415
 20
29.8983719217
 10
-125.5648100676
 20
29.8619442166
 10
-125.5453269853
 20
29.8289873744
 10
-125.5257310628
 20
29.799615949
 10
-125.5060321319
 20
29.7739584797
 10
-125.4862596879
 20
29.7521371078
 10
-125.4663967349
 20
29.7341936724
 10
-125.4464602688
 20
29.7201840981
 10
-125.4265307726
 20
29.7101559111
 10
-125.406635074
 20
29.7040616991
 10
-125.3848724067
 20
29.7017968685
  0
LINE
  5
660
100
AcDbEntity
  8
0
100
AcDbLine
 62
7
  6
CONTINUOUS
 10
-127.5041874693
 20
-31.9193004037
 11
-127.3542129343
 21
-31.6661265208
  0
LINE
  5
661
100
AcDbEntity
  8
0
100
AcDbLine
 62
7
  6
CONTINUOUS
 10
-126.4041872844
 20
-31.9193004641
 11
-126.254212765
 21
-31.6661265945
  0
LINE
  5
662
100
AcDbEntity
  8
0
100
AcDbLine
 62
7
  6
CONTINUOUS
 10
-127.3542129343
 20
-31.6661265208
 11
-127.3147645935
 21
-31.6
  0
LINE
  5
663
100
AcDbEntity
  8
0
100
AcDbLine
 62
7
  6
CONTINUOUS
 10
-126.254212765
 20
-31.6661265945
 11
-126.2147643826
 21
-31.6
  0
LINE
  5
664
100
AcDbEntity
  8
0
100
AcDbLine
 62
7
  6
CONTINUOUS
 10
-126.0483964809
 20
-29.1882705815
 11
-126.1198819997
 21
-29.30478956
  0
LWPOLYLINE
  5
665
100
AcDbEntity
  8
0
100
AcDbPolyline
 62
7
  6
CONTINUOUS
 90
5
 70
0
 10
-127.1263676643
 20
-29.0807024269
 10
-127.1229096097
 20
-29.075117035
 10
-127.1119096097
 20
-29.0610558735
 10
-127.1009096097
 20
-29.0526735634
 10
-127.0902766066
 20
-29.05
  0
LINE
  5
666
100
AcDbEntity
  8
0
100
AcDbLine
 62
7
  6
CONTINUOUS
 10
-126.1198819997
 20
-29.30478956
 11
-126.1788669091
 21
-29.4
  0
LWPOLYLINE
  5
667
100
AcDbEntity
  8
0
100
AcDbPolyline
 62
7
  6
CONTINUOUS
 90
5
 70
0
 10
-126.0483964809
 20
-29.1882705815
 10
-126.0369075926
 20
-29.1725237373
 10
-126.0263358759
 20
-29.1634341665
 10
-126.0157641592
 20
-29.1594777391
 10
-126.0128228058
 20
-29.1592818988
  0
LWPOLYLINE
  5
668
100
AcDbEntity
  8
0
100
AcDbPolyline
 62
7
  6
CONTINUOUS
 90
7
 70
0
 10
-135.5270815173
 20
30.7654711121
 10
-135.5209009754
 20
30.7595538737
 10
-135.5144206355
 20
30.7535116981
 10
-135.5076404976
 20
30.7473445853
 10
-135.5005605619
 20
30.7410525354
 10
-135.4931808282
 20
30.7346355484
 10
-135.4855012965
 20
30.7280936241
  0
LWPOLYLINE
  5
669
100
AcDbEntity
  8
0
100
AcDbPolyline
 62
7
  6
CONTINUOUS
 90
5
 70
0
 10
-126.5763676217
 20
29.080702388
 10
-126.5729096097
 20
29.0751170618
 10
-126.5619096097
 20
29.0610558839
 10
-126.5509096097
 20
29.0526735648
 10
-126.5402766108
 20
29.05
  0
LINE
  5
66A
100
AcDbEntity
  8
0
100
AcDbLine
 62
7
  6
CONTINUOUS
 10
-127.8411121664
 20
31.5604434587
 11
-127.9667740035
 21
31.7714443122
  0
LINE
  5
66B
100
AcDbEntity
  8
0
100
AcDbLine
 62
7
  6
CONTINUOUS
 10
-126.7411116184
 20
31.5604434768
 11
-126.8667734523
 21
31.7714443279
  0
LINE
  5
66C
100
AcDbEntity
  8
0
100
AcDbLine
 62
7
  6
CONTINUOUS
 10
-126.7894389099
 20
29.4395520819
 11
-126.6494900067
 21
29.2044361572
  0
LINE
  5
66D
100
AcDbEntity
  8
0
100
AcDbLine
 62
7
  6
CONTINUOUS
 10
-126.6494900067
 20
29.2044361572
 11
-126.5763676217
 21
29.080702388
  0
LINE
  5
66E
100
AcDbEntity
  8
0
100
AcDbLine
 62
7
  6
CONTINUOUS
 10
-127.9667740035
 20
31.7714443122
 11
-128.0541877839
 21
31.9193004088
  0
LINE
  5
66F
100
AcDbEntity
  8
0
100
AcDbLine
 62
7
  6
CONTINUOUS
 10
-126.8667734523
 20
31.7714443279
 11
-126.9541872304
 21
31.9193004222
  0
LINE
  5
670
100
AcDbEntity
  8
0
100
AcDbLine
 62
7
  6
CONTINUOUS
 10
-125.6843937521
 20
31.4810797921
 11
-125.8732362074
 21
31.8061147038
  0
LWPOLYLINE
  5
671
100
AcDbEntity
  8
0
100
AcDbPolyline
 62
7
  6
CONTINUOUS
 90
15
 70
0
 10
-125.3819482252
 20
29.7188358569
 10
-125.3895228594
 20
29.7323223743
 10
-125.3971331059
 20
29.7496809152
 10
-125.404765229
 20
29.7708797762
 10
-125.4123780221
 20
29.7957438713
 10
-125.4199616561
 20
29.8241249253
 10
-125.42752596
 20
29.8559268436
 10
-125.4350592139
 20
29.8909505723
 10
-125.4425508073
 20
29.9289680438
 10
-125.4500113507
 20
29.9698419734
 10
-125.4574609565
 20
30.013497908
 10
-125.4649009956
 20
30.0597588964
 10
-125.4723300971
 20
30.1084188454
 10
-125.4797642606
 20
30.1593798342
 10
-125.4872145891
 20
30.2125145649
  0
LWPOLYLINE
  5
672
100
AcDbEntity
  8
0
100
AcDbPolyline
 62
7
  6
CONTINUOUS
 90
15
 70
0
 10
-125.8732362074
 20
31.8061147038
 10
-125.8677884935
 20
31.7961116551
 10
-125.8575655566
 20
31.7740873548
 10
-125.8473426197
 20
31.7479415926
 10
-125.8371196828
 20
31.7178315412
 10
-125.826896746
 20
31.6839268994
 10
-125.8166738091
 20
31.6464090848
 10
-125.8064508722
 20
31.6054703908
 10
-125.7962279354
 20
31.561313112
 10
-125.7860049985
 20
31.5141486407
 10
-125.7757820616
 20
31.4641965383
 10
-125.7655591247
 20
31.411683587
 10
-125.7553361879
 20
31.3568428239
 10
-125.745113251
 20
31.2999125625
 10
-125.7348903141
 20
31.2411354053
  0
LWPOLYLINE
  5
673
100
AcDbEntity
  8
0
100
AcDbPolyline
 62
7
  6
CONTINUOUS
 90
7
 70
0
 10
-135.4855012965
 20
-30.7281141667
 10
-135.4928218362
 20
-30.7343086602
 10
-135.4999820331
 20
-30.7405014068
 10
-135.5069818884
 20
-30.7466923938
 10
-135.5138214033
 20
-30.7528816082
 10
-135.5205005793
 20
-30.7590690373
 10
-135.5270194175
 20
-30.7652546682
  0
LWPOLYLINE
  5
674
100
AcDbEntity
  8
0
100
AcDbPolyline
 62
7
  6
CONTINUOUS
 90
17
 70
0
 10
-131.4709096097
 20
31.9405714615
 10
-131.4679096097
 20
31.9381816038
 10
-131.4569096097
 20
31.9237429518
 10
-131.4459096097
 20
31.9036854425
 10
-131.4349096097
 20
31.8780882336
 10
-131.4239096097
 20
31.8470523457
 10
-131.4129096097
 20
31.8107002631
 10
-131.4019096097
 20
31.7691754509
 10
-131.3909096097
 20
31.7226417884
 10
-131.3799096097
 20
31.6712829226
 10
-131.3689096097
 20
31.6153015432
 10
-131.3579096097
 20
31.5549185832
 10
-131.3469096097
 20
31.4903723462
 10
-131.3359096097
 20
31.4219175664
 10
-131.3249096097
 20
31.3498244035
 10
-131.3139096097
 20
31.2743773758
 10
-131.3029096097
 20
31.195874238
  0
LINE
  5
675
100
AcDbEntity
  8
SMUSSO
100
AcDbLine
 62
7
  6
CONTINUOUS
 10
-98.4709096097
 20
47.7
 11
-98.4709096097
 21
35.7
  0
LINE
  5
676
100
AcDbEntity
  8
SMUSSO
100
AcDbLine
 62
7
  6
CONTINUOUS
 10
-98.4709096097
 20
-35.7
 11
-98.4709096097
 21
-47.7
  0
LWPOLYLINE
  5
677
100
AcDbEntity
  8
0
100
AcDbPolyline
 62
7
  6
CONTINUOUS
 90
3
 70
0
 10
-125.3668645867
 20
29.7033214338
 10
-125.3743954676
 20
29.7091779534
 10
-125.3819482252
 20
29.7188358569
  0
LINE
  5
678
100
AcDbEntity
  8
0
100
AcDbLine
 62
7
  6
CONTINUOUS
 10
-123.9709096097
 20
-30.5
 11
-125.876165498
 21
-31.6
  0
LINE
  5
679
100
AcDbEntity
  8
0
100
AcDbLine
 62
7
  6
CONTINUOUS
 10
-123.9709096097
 20
30.5
 11
-125.6915822299
 21
31.4934308005
  0
LINE
  5
67A
100
AcDbEntity
  8
0
100
AcDbLine
 62
7
  6
CONTINUOUS
 10
-134.70575781
 20
27.7
 11
-133.6709096097
 21
27.7
  0
LINE
  5
67B
100
AcDbEntity
  8
SMUSSO
100
AcDbLine
 62
7
  6
CONTINUOUS
 10
-131.6726702807
 20
25.2897473758
 11
-133.4709096097
 21
25.3054403727
  0
LINE
  5
67C
100
AcDbEntity
  8
SMUSSO
100
AcDbLine
 62
7
  6
CONTINUOUS
 10
-131.4709096097
 20
25.4879942522
 11
-133.2726398186
 21
25.5037177135
  0
LWPOLYLINE
  5
67D
100
AcDbEntity
  8
0
100
AcDbPolyline
 62
7
  6
CONTINUOUS
 90
19
 70
0
 10
-128.4382047195
 20
29.4
 10
-128.4480201216
 20
29.4017283811
 10
-128.4594435273
 20
29.4080847139
 10
-128.4709438595
 20
29.419178102
 10
-128.4825556092
 20
29.4351089547
 10
-128.4942442855
 20
29.4558747045
 10
-128.5059372094
 20
29.4813031314
 10
-128.5176354271
 20
29.5112887346
 10
-128.5293378924
 20
29.5457004882
 10
-128.5409687876
 20
29.5841254842
 10
-128.5524935779
 20
29.6261862536
 10
-128.5639467982
 20
29.6717363536
 10
-128.5753562348
 20
29.7206358825
 10
-128.5866916222
 20
29.7724953148
 10
-128.597983226
 20
29.8271859044
 10
-128.6093496304
 20
29.8850640139
 10
-128.6208487141
 20
29.9462534633
 10
-128.6324225984
 20
30.0102518221
 10
-128.644016231
 20
30.076504371
  0
LWPOLYLINE
  5
67E
100
AcDbEntity
  8
0
100
AcDbPolyline
 62
7
  6
CONTINUOUS
 90
19
 70
0
 10
-129.5382040166
 20
29.4
 10
-129.5497123989
 20
29.4023757982
 10
-129.561117543
 20
29.409408084
 10
-129.5725401002
 20
29.4210885297
 10
-129.5840037543
 20
29.4374270027
 10
-129.5954848215
 20
29.4583549613
 10
-129.6069308513
 20
29.4836768767
 10
-129.6183126908
 20
29.5131632639
 10
-129.6296594928
 20
29.5467093632
 10
-129.6410062646
 20
29.5842584421
 10
-129.6523538716
 20
29.6256560916
 10
-129.6637014484
 20
29.6707257063
 10
-129.6750814067
 20
29.7194214491
 10
-129.6864964875
 20
29.7715795429
 10
-129.6979439498
 20
29.826994273
 10
-129.7094479828
 20
29.8855802482
 10
-129.7210400832
 20
29.9472966362
 10
-129.7326887543
 20
30.0117538334
 10
-129.7443236951
 20
30.0782921059
  0
LWPOLYLINE
  5
67F
100
AcDbEntity
  8
0
100
AcDbPolyline
 62
7
  6
CONTINUOUS
 90
5
 70
0
 10
-131.3902771751
 20
31.95
 10
-131.3789096097
 20
31.9469444155
 10
-131.3679096097
 20
31.9381816038
 10
-131.3569096097
 20
31.9237429518
 10
-131.3541860943
 20
31.9192975443
  0
LWPOLYLINE
  5
680
100
AcDbEntity
  8
0
100
AcDbPolyline
 62
7
  6
CONTINUOUS
 90
18
 70
0
 10
-130.3902766066
 20
31.95
 10
-130.3789096097
 20
31.9469447199
 10
-130.3679096097
 20
31.9381821993
 10
-130.3569096097
 20
31.9237438336
 10
-130.3459096097
 20
31.9036866043
 10
-130.3349096097
 20
31.8780896679
 10
-130.3239096097
 20
31.8470540435
 10
-130.3129096097
 20
31.8107022144
 10
-130.3019096097
 20
31.7691776444
 10
-130.2909096097
 20
31.7226442118
 10
-130.2799096097
 20
31.6712855625
 10
-130.2689096097
 20
31.6153043854
 10
-130.2579096097
 20
31.5549216123
 10
-130.2469096097
 20
31.4903755463
 10
-130.2359096097
 20
31.4219209209
 10
-130.2249096097
 20
31.3498278951
 10
-130.2139096097
 20
31.2743809869
 10
-130.2029096097
 20
31.1958779505
  0
LWPOLYLINE
  5
681
100
AcDbEntity
  8
0
100
AcDbPolyline
 62
7
  6
CONTINUOUS
 90
5
 70
0
 10
-130.2902766066
 20
31.95
 10
-130.2789096097
 20
31.9469447199
 10
-130.2679096097
 20
31.9381821993
 10
-130.2569096097
 20
31.9237438336
 10
-130.2541855408
 20
31.9192975577
  0
LWPOLYLINE
  5
682
100
AcDbEntity
  8
0
100
AcDbPolyline
 62
7
  6
CONTINUOUS
 90
18
 70
0
 10
-129.2902770657
 20
31.95
 10
-129.2789096097
 20
31.9469444658
 10
-129.2679096097
 20
31.9381816865
 10
-129.2569096097
 20
31.9237430512
 10
-129.2459096097
 20
31.9036855432
 10
-129.2349096097
 20
31.8780883207
 10
-129.2239096097
 20
31.8470524049
 10
-129.2129096097
 20
31.8107002808
 10
-129.2019096097
 20
31.7691754141
 10
-129.1909096097
 20
31.7226416853
 10
-129.1799096097
 20
31.6712827421
 10
-129.1689096097
 20
31.6153012754
 10
-129.1579096097
 20
31.5549182191
 10
-129.1469096097
 20
31.4903718782
 10
-129.1359096097
 20
31.4219169881
 10
-129.1249096097
 20
31.3498237095
 10
-129.1139096097
 20
31.2743765622
 10
-129.1029096097
 20
31.1958733023
  0
LWPOLYLINE
  5
683
100
AcDbEntity
  8
0
100
AcDbPolyline
 62
7
  6
CONTINUOUS
 90
5
 70
0
 10
-129.1902770657
 20
31.95
 10
-129.1789096097
 20
31.9469444658
 10
-129.1679096097
 20
31.9381816865
 10
-129.1569096097
 20
31.9237430512
 10
-129.1541877718
 20
31.9193004893
  0
LWPOLYLINE
  5
684
100
AcDbEntity
  8
0
100
AcDbPolyline
 62
7
  6
CONTINUOUS
 90
5
 70
0
 10
-126.4402766108
 20
29.05
 10
-126.4289096097
 20
29.0530552865
 10
-126.4179096097
 20
29.0618178214
 10
-126.4069096097
 20
29.0762562093
 10
-126.4041872844
 20
29.0806995359
  0
LWPOLYLINE
  5
685
100
AcDbEntity
  8
0
100
AcDbPolyline
 62
7
  6
CONTINUOUS
 90
5
 70
0
 10
-127.540276867
 20
29.05
 10
-127.5289096097
 20
29.0530554183
 10
-127.5179096097
 20
29.0618180687
 10
-127.5069096097
 20
29.0762565596
 10
-127.5041874693
 20
29.0806995963
  0
LWPOLYLINE
  5
686
100
AcDbEntity
  8
0
100
AcDbPolyline
 62
7
  6
CONTINUOUS
 90
5
 70
0
 10
-128.6402773137
 20
29.05
 10
-128.6289096097
 20
29.053055662
 10
-128.6179096097
 20
29.0618185542
 10
-128.6069096097
 20
29.0762572915
 10
-128.6041879571
 20
29.0806995627
  0
LWPOLYLINE
  5
687
100
AcDbEntity
  8
0
100
AcDbPolyline
 62
7
  6
CONTINUOUS
 90
5
 70
0
 10
-129.7402766108
 20
29.05
 10
-129.7289096097
 20
29.0530552865
 10
-129.7179096097
 20
29.0618178214
 10
-129.7069096097
 20
29.0762562093
 10
-129.7041855948
 20
29.0807024004
  0
LINE
  5
688
100
AcDbEntity
  8
0
100
AcDbLine
 62
7
  6
CONTINUOUS
 10
-125.3772614091
 20
29.7017968685
 11
-125.3668645867
 21
29.7033214338
  0
LINE
  5
689
100
AcDbEntity
  8
0
100
AcDbLine
 62
7
  6
CONTINUOUS
 10
-130.940276867
 20
29.05
 11
-130.840276867
 21
29.05
  0
LINE
  5
68A
100
AcDbEntity
  8
0
100
AcDbLine
 62
7
  6
CONTINUOUS
 10
-129.8402766108
 20
29.05
 11
-129.7402766108
 21
29.05
  0
LINE
  5
68B
100
AcDbEntity
  8
0
100
AcDbLine
 62
7
  6
CONTINUOUS
 10
-128.7402773137
 20
29.05
 11
-128.6402773137
 21
29.05
  0
LINE
  5
68C
100
AcDbEntity
  8
0
100
AcDbLine
 62
7
  6
CONTINUOUS
 10
-127.640276867
 20
29.05
 11
-127.540276867
 21
29.05
  0
LINE
  5
68D
100
AcDbEntity
  8
0
100
AcDbLine
 62
7
  6
CONTINUOUS
 10
-126.5402766108
 20
29.05
 11
-126.4402766108
 21
29.05
  0
LINE
  5
68E
100
AcDbEntity
  8
0
100
AcDbLine
 62
7
  6
CONTINUOUS
 10
-131.4709096097
 20
29.4
 11
-131.1657872082
 21
29.4
  0
LINE
  5
68F
100
AcDbEntity
  8
0
100
AcDbLine
 62
7
  6
CONTINUOUS
 10
-130.6382042728
 20
29.4
 11
-130.0657869096
 21
29.4
  0
LINE
  5
690
100
AcDbEntity
  8
0
100
AcDbLine
 62
7
  6
CONTINUOUS
 10
-129.5382040166
 20
29.4
 11
-128.9657876253
 21
29.4
  0
LINE
  5
691
100
AcDbEntity
  8
0
100
AcDbLine
 62
7
  6
CONTINUOUS
 10
-128.4382047195
 20
29.4
 11
-127.8657872082
 21
29.4
  0
LINE
  5
692
100
AcDbEntity
  8
0
100
AcDbLine
 62
7
  6
CONTINUOUS
 10
-127.3382042728
 20
29.4
 11
-126.7657869096
 21
29.4
  0
LINE
  5
693
100
AcDbEntity
  8
0
100
AcDbLine
 62
7
  6
CONTINUOUS
 10
-126.2382040166
 20
29.4
 11
-125.876165498
 21
29.4
  0
LWPOLYLINE
  5
694
100
AcDbEntity
  8
0
100
AcDbPolyline
 62
7
  6
CONTINUOUS
 90
20
 70
0
 10
-129.4923496599
 20
31.6
 10
-129.4909959818
 20
31.5999671174
 10
-129.4800909557
 20
31.5973044367
 10
-129.4691833817
 20
31.5903835101
 10
-129.4582858088
 20
31.5792434699
 10
-129.4473776277
 20
31.5639061357
 10
-129.4364587186
 20
31.5444186701
 10
-129.4255292012
 20
31.5208450578
 10
-129.4145688254
 20
31.4932107573
 10
-129.4035503011
 20
31.4615074619
 10
-129.3925009183
 20
31.4258920741
 10
-129.3814822967
 20
31.3867041305
 10
-129.3705291249
 20
31.3442685834
 10
-129.3596067142
 20
31.2986623068
 10
-129.348672619
 20
31.2498946554
 10
-129.3377112796
 20
31.1980705686
 10
-129.3267382556
 20
31.1434512948
 10
-129.3157577807
 20
31.0862654344
 10
-129.3047585878
 20
31.0266708055
 10
-129.2937519439
 20
30.9649555235
  0
LWPOLYLINE
  5
695
100
AcDbEntity
  8
0
100
AcDbPolyline
 62
7
  6
CONTINUOUS
 90
17
 70
0
 10
-126.122702229
 20
31.6
 10
-126.1177986664
 20
31.5998265826
 10
-126.1018378267
 20
31.5968617608
 10
-126.0859232402
 20
31.5902582213
 10
-126.0699485304
 20
31.5799891554
 10
-126.0538738275
 20
31.5660087879
 10
-126.0377390014
 20
31.5483447947
 10
-126.021557285
 20
31.5270360309
 10
-126.0053070994
 20
31.5020892485
 10
-125.9890100236
 20
31.4735864524
 10
-125.9727440274
 20
31.4417577431
 10
-125.9565273659
 20
31.406773719
 10
-125.9403417841
 20
31.368739454
 10
-125.924210486
 20
31.3278639933
 10
-125.9081412062
 20
31.2843375827
 10
-125.8921262103
 20
31.2383163111
 10
-125.876165498
 20
31.1899809394
  0
LWPOLYLINE
  5
696
100
AcDbEntity
  8
0
100
AcDbPolyline
 62
7
  6
CONTINUOUS
 90
20
 70
0
 10
-130.6382042728
 20
29.4
 10
-130.640337325
 20
29.4000816459
 10
-130.6516332857
 20
29.4032345344
 10
-130.6628796847
 20
29.4109080291
 10
-130.6741738864
 20
29.4231355494
 10
-130.6855538992
 20
29.4399871732
 10
-130.6969817149
 20
29.4614150279
 10
-130.7084406729
 20
29.4873430046
 10
-130.7199494942
 20
29.5177487921
 10
-130.7314894579
 20
29.5524972439
 10
-130.7429877407
 20
29.5912134583
 10
-130.754412161
 20
29.6335624028
 10
-130.7657949004
 20
29.679425206
 10
-130.7771596801
 20
29.7286751809
 10
-130.7885101579
 20
29.7811063699
 10
-130.7998426761
 20
29.8364683024
 10
-130.8111699825
 20
29.8945822022
 10
-130.8224914392
 20
29.9551977296
 10
-130.8338076841
 20
30.0180613605
 10
-130.8451333787
 20
30.0829928183
  0
LWPOLYLINE
  5
697
100
AcDbEntity
  8
0
100
AcDbPolyline
 62
7
  6
CONTINUOUS
 90
20
 70
0
 10
-127.3382042728
 20
29.4
 10
-127.340337325
 20
29.4000816459
 10
-127.3516332857
 20
29.4032345344
 10
-127.3628796847
 20
29.4109080291
 10
-127.3741738864
 20
29.4231355494
 10
-127.3855538992
 20
29.4399871732
 10
-127.3969817149
 20
29.4614150279
 10
-127.4084406729
 20
29.4873430046
 10
-127.4199494942
 20
29.5177487921
 10
-127.4314894579
 20
29.5524972439
 10
-127.4429877407
 20
29.5912134583
 10
-127.454412161
 20
29.6335624028
 10
-127.4657949004
 20
29.679425206
 10
-127.4771596801
 20
29.7286751809
 10
-127.4885101579
 20
29.7811063699
 10
-127.4998426761
 20
29.8364683024
 10
-127.5111699825
 20
29.8945822022
 10
-127.5224914392
 20
29.9551977296
 10
-127.5338076841
 20
30.0180613605
 10
-127.5451333787
 20
30.0829928183
  0
LWPOLYLINE
  5
698
100
AcDbEntity
  8
0
100
AcDbPolyline
 62
7
  6
CONTINUOUS
 90
19
 70
0
 10
-126.2382040166
 20
29.4
 10
-126.2418431844
 20
29.4002376435
 10
-126.2536415607
 20
29.4042737821
 10
-126.2654399685
 20
29.413284536
 10
-126.2772384845
 20
29.4272291422
 10
-126.2890370319
 20
29.4460442874
 10
-126.3008354436
 20
29.4696442192
 10
-126.3126336331
 20
29.4979214054
 10
-126.3244316868
 20
29.5307474688
 10
-126.3362296977
 20
29.5679735429
 10
-126.3480276527
 20
29.6094305365
 10
-126.3598255648
 20
29.6549302428
 10
-126.3716235666
 20
29.7042666417
 10
-126.3834216594
 20
29.7572158515
 10
-126.3952198419
 20
29.8135375692
 10
-126.407018243
 20
29.8729768422
 10
-126.4188170006
 20
29.935264726
 10
-126.4306159768
 20
30.000117888
 10
-126.4424148859
 20
30.06724035
  0
LWPOLYLINE
  5
699
100
AcDbEntity
  8
0
100
AcDbPolyline
 62
7
  6
CONTINUOUS
 90
6
 70
0
 10
-125.9128228058
 20
31.8407181012
 10
-125.9086802409
 20
31.8403309616
 10
-125.8984573041
 20
31.8360877668
 10
-125.8882343672
 20
31.8272343727
 10
-125.8780114303
 20
31.8138706146
 10
-125.8732362074
 20
31.8061147038
  0
LWPOLYLINE
  5
69A
100
AcDbEntity
  8
0
100
AcDbPolyline
 62
7
  6
CONTINUOUS
 90
18
 70
0
 10
-126.0128228058
 20
31.8407181012
 10
-126.0051924424
 20
31.8394069748
 10
-125.9946207257
 20
31.8333005676
 10
-125.984049009
 20
31.8223022216
 10
-125.9734772923
 20
31.8065290672
 10
-125.9629055756
 20
31.786115475
 10
-125.9523338588
 20
31.7612122856
 10
-125.9417621421
 20
31.7319859813
 10
-125.9311904254
 20
31.6986178034
 10
-125.9206187087
 20
31.6613028188
 10
-125.910046992
 20
31.6202489417
 10
-125.8994752752
 20
31.5756759132
 10
-125.8889035585
 20
31.5278142453
 10
-125.8783318418
 20
31.476904132
 10
-125.8677601251
 20
31.4231943347
 10
-125.8571884083
 20
31.3669410449
 10
-125.8466166916
 20
31.3084067298
 10
-125.8360449749
 20
31.2478589669
  0
LWPOLYLINE
  5
69B
100
AcDbEntity
  8
0
100
AcDbPolyline
 62
7
  6
CONTINUOUS
 90
19
 70
0
 10
-130.5923492008
 20
31.6
 10
-130.5826570332
 20
31.5983147369
 10
-130.5712352872
 20
31.5920099808
 10
-130.5597615232
 20
31.5809984378
 10
-130.5482024505
 20
31.5652118154
 10
-130.5365913597
 20
31.5446809684
 10
-130.5250009003
 20
31.519605265
 10
-130.5134399664
 20
31.4901430504
 10
-130.5018996638
 20
31.4564286896
 10
-130.4904259593
 20
31.4187901204
 10
-130.4790711312
 20
31.3776570618
 10
-130.4677829012
 20
31.3331066109
 10
-130.4564504013
 20
31.2848989156
 10
-130.4450478848
 20
31.2330756168
 10
-130.4336010983
 20
31.1779246439
 10
-130.4220764147
 20
31.1194721502
 10
-130.4104390587
 20
31.0577261007
 10
-130.3987238056
 20
30.9930791325
 10
-130.3870013538
 20
30.9261833144
  0
LWPOLYLINE
  5
69C
100
AcDbEntity
  8
0
100
AcDbPolyline
 62
7
  6
CONTINUOUS
 90
19
 70
0
 10
-127.2923492008
 20
31.6
 10
-127.2826570332
 20
31.5983147369
 10
-127.2712352872
 20
31.5920099808
 10
-127.2597615232
 20
31.5809984378
 10
-127.2482024505
 20
31.5652118154
 10
-127.2365913597
 20
31.5446809684
 10
-127.2250009003
 20
31.519605265
 10
-127.2134399664
 20
31.4901430504
 10
-127.2018996638
 20
31.4564286896
 10
-127.1904259593
 20
31.4187901204
 10
-127.1790711312
 20
31.3776570618
 10
-127.1677829012
 20
31.3331066109
 10
-127.1564504013
 20
31.2848989156
 10
-127.1450478848
 20
31.2330756168
 10
-127.1336010983
 20
31.1779246439
 10
-127.1220764147
 20
31.1194721502
 10
-127.1104390587
 20
31.0577261007
 10
-127.0987238056
 20
30.9930791325
 10
-127.0870013538
 20
30.9261833144
  0
LWPOLYLINE
  5
69D
100
AcDbEntity
  8
0
100
AcDbPolyline
 62
7
  6
CONTINUOUS
 90
19
 70
0
 10
-128.3923497693
 20
31.6
 10
-128.3812975286
 20
31.5978087442
 10
-128.3698828801
 20
31.5909546282
 10
-128.3583939337
 20
31.5793745424
 10
-128.3467864073
 20
31.5629562106
 10
-128.3351045831
 20
31.5417170369
 10
-128.3234216384
 20
31.5158387306
 10
-128.3117370001
 20
31.4854335752
 10
-128.3000512414
 20
31.4506368379
 10
-128.2884392591
 20
31.4118655382
 10
-128.2769316751
 20
31.3694860608
 10
-128.2654978675
 20
31.3236585736
 10
-128.2541208682
 20
31.2745726169
 10
-128.2428294851
 20
31.222622398
 10
-128.2315949103
 20
31.1679509175
 10
-128.220313752
 20
31.1102862607
 10
-128.2089475409
 20
31.0496255865
 10
-128.1975347461
 20
30.9863865047
 10
-128.1860873837
 20
30.9208805001
  0
LWPOLYLINE
  5
69E
100
AcDbEntity
  8
0
100
AcDbPolyline
 62
7
  6
CONTINUOUS
 90
18
 70
0
 10
-128.1902771751
 20
31.95
 10
-128.1789096097
 20
31.9469444155
 10
-128.1679096097
 20
31.9381816038
 10
-128.1569096097
 20
31.9237429518
 10
-128.1459096097
 20
31.9036854425
 10
-128.1349096097
 20
31.8780882336
 10
-128.1239096097
 20
31.8470523457
 10
-128.1129096097
 20
31.8107002631
 10
-128.1019096097
 20
31.7691754509
 10
-128.0909096097
 20
31.7226417884
 10
-128.0799096097
 20
31.6712829226
 10
-128.0689096097
 20
31.6153015432
 10
-128.0579096097
 20
31.5549185832
 10
-128.0469096097
 20
31.4903723462
 10
-128.0359096097
 20
31.4219175664
 10
-128.0249096097
 20
31.3498244035
 10
-128.0139096097
 20
31.2743773758
 10
-128.0029096097
 20
31.195874238
  0
LWPOLYLINE
  5
69F
100
AcDbEntity
  8
0
100
AcDbPolyline
 62
7
  6
CONTINUOUS
 90
5
 70
0
 10
-128.0902771751
 20
31.95
 10
-128.0789096097
 20
31.9469444155
 10
-128.0679096097
 20
31.9381816038
 10
-128.0569096097
 20
31.9237429518
 10
-128.0541877839
 20
31.9193004088
  0
LWPOLYLINE
  5
6A0
100
AcDbEntity
  8
0
100
AcDbPolyline
 62
7
  6
CONTINUOUS
 90
18
 70
0
 10
-127.0902766066
 20
31.95
 10
-127.0789096097
 20
31.9469447199
 10
-127.0679096097
 20
31.9381821993
 10
-127.0569096097
 20
31.9237438336
 10
-127.0459096097
 20
31.9036866043
 10
-127.0349096097
 20
31.8780896679
 10
-127.0239096097
 20
31.8470540435
 10
-127.0129096097
 20
31.8107022144
 10
-127.0019096097
 20
31.7691776444
 10
-126.9909096097
 20
31.7226442118
 10
-126.9799096097
 20
31.6712855625
 10
-126.9689096097
 20
31.6153043854
 10
-126.9579096097
 20
31.5549216123
 10
-126.9469096097
 20
31.4903755463
 10
-126.9359096097
 20
31.4219209209
 10
-126.9249096097
 20
31.3498278951
 10
-126.9139096097
 20
31.2743809869
 10
-126.9029096097
 20
31.1958779505
  0
LWPOLYLINE
  5
6A1
100
AcDbEntity
  8
0
100
AcDbPolyline
 62
7
  6
CONTINUOUS
 90
5
 70
0
 10
-126.9902766066
 20
31.95
 10
-126.9789096097
 20
31.9469447199
 10
-126.9679096097
 20
31.9381821993
 10
-126.9569096097
 20
31.9237438336
 10
-126.9541872304
 20
31.9193004222
  0
LWPOLYLINE
  5
6A2
100
AcDbEntity
  8
0
100
AcDbPolyline
 62
7
  6
CONTINUOUS
 90
5
 70
0
 10
-130.840276867
 20
29.05
 10
-130.8289096097
 20
29.0530554183
 10
-130.8179096097
 20
29.0618180687
 10
-130.8069096097
 20
29.0762565596
 10
-130.8041857797
 20
29.0807024608
  0
LINE
  5
6A3
100
AcDbEntity
  8
0
100
AcDbLine
 62
7
  6
CONTINUOUS
 10
-131.1647670598
 20
31.6
 11
-130.5923492008
 21
31.6
  0
LINE
  5
6A4
100
AcDbEntity
  8
0
100
AcDbLine
 62
7
  6
CONTINUOUS
 10
-130.0647665006
 20
31.6
 11
-129.4923496599
 21
31.6
  0
LINE
  5
6A5
100
AcDbEntity
  8
0
100
AcDbLine
 62
7
  6
CONTINUOUS
 10
-128.964764859
 20
31.6
 11
-128.3923497693
 21
31.6
  0
LINE
  5
6A6
100
AcDbEntity
  8
0
100
AcDbLine
 62
7
  6
CONTINUOUS
 10
-127.8647649059
 20
31.6
 11
-127.2923492008
 21
31.6
  0
LINE
  5
6A7
100
AcDbEntity
  8
0
100
AcDbLine
 62
7
  6
CONTINUOUS
 10
-126.7647643467
 20
31.6
 11
-126.122702229
 21
31.6
  0
LINE
  5
6A8
100
AcDbEntity
  8
0
100
AcDbLine
 62
7
  6
CONTINUOUS
 10
-125.9128228058
 20
31.8407181012
 11
-126.0128228058
 21
31.8407181012
  0
LINE
  5
6A9
100
AcDbEntity
  8
0
100
AcDbLine
 62
7
  6
CONTINUOUS
 10
-126.9902766066
 20
31.95
 11
-127.0902766066
 21
31.95
  0
LINE
  5
6AA
100
AcDbEntity
  8
0
100
AcDbLine
 62
7
  6
CONTINUOUS
 10
-128.0902771751
 20
31.95
 11
-128.1902771751
 21
31.95
  0
LINE
  5
6AB
100
AcDbEntity
  8
0
100
AcDbLine
 62
7
  6
CONTINUOUS
 10
-129.1902770657
 20
31.95
 11
-129.2902770657
 21
31.95
  0
LINE
  5
6AC
100
AcDbEntity
  8
0
100
AcDbLine
 62
7
  6
CONTINUOUS
 10
-130.2902766066
 20
31.95
 11
-130.3902766066
 21
31.95
  0
LINE
  5
6AD
100
AcDbEntity
  8
0
100
AcDbLine
 62
7
  6
CONTINUOUS
 10
-131.3902771751
 20
31.95
 11
-131.4709096097
 21
31.95
  0
LINE
  5
6AE
100
AcDbEntity
  8
0
100
AcDbLine
 62
7
  6
CONTINUOUS
 10
-134.70575781
 20
33.3
 11
-133.6709096097
 21
33.3
  0
LINE
  5
6AF
100
AcDbEntity
  8
DRAFT
100
AcDbLine
 62
7
  6
CONTINUOUS
 10
-98.4709096097
 20
35.7
 11
-131.4709096097
 21
35.7
  0
LINE
  5
6B0
100
AcDbEntity
  8
SMUSSO
100
AcDbLine
 62
250
  6
CONTINUOUS
 10
-133.2726398186
 20
44.9162816008
 11
-133.4709096097
 21
44.9162816008
  0
LWPOLYLINE
  5
6B1
100
AcDbEntity
  8
0
100
AcDbPolyline
 62
7
  6
CONTINUOUS
 90
5
 70
0
 43
0.3500000087
 10
-118.4305129944
 20
-53.2357143112
 10
-118.0733673523
 20
-53.0214277786
 10
-118.0733673523
 20
-52.3785724442
 10
-118.4305129944
 20
-51.949999379
 10
-119.2876591248
 20
-51.949999379
  0
LWPOLYLINE
  5
6B2
100
AcDbEntity
  8
SMUSSO
100
AcDbPolyline
 62
7
  6
CONTINUOUS
 90
31
 70
0
 10
-130.9927259484
 20
47.2161787934
 10
-131.1129579656
 20
47.2119408521
 10
-131.2321677557
 20
47.2015618252
 10
-131.3503553187
 20
47.1850417125
 10
-131.4678360302
 20
47.1623020575
 10
-131.5842945146
 20
47.1334213169
 10
-131.6987846452
 20
47.09863486
 10
-131.8112880532
 20
47.057895625
 10
-131.9218231075
 20
47.0112506737
 10
-132.0294987876
 20
46.9590765614
 10
-132.134293702
 20
46.9013277516
 10
-132.2362292423
 20
46.8380497807
 10
-132.3344785631
 20
46.7697558131
 10
-132.4290111915
 20
46.6964053108
 10
-132.5198576004
 20
46.6180388117
 10
-132.6062823625
 20
46.5352910944
 10
-132.6882491866
 20
46.4481273436
 10
-132.7657943639
 20
46.3565823747
 10
-132.8382913414
 20
46.2613954117
 10
-132.9057006989
 20
46.162533678
 10
-132.9680618564
 20
46.0600299502
 10
-133.0248665218
 20
45.9547217825
 10
-133.0760679294
 20
45.846585913
 10
-133.1217128448
 20
45.7356456036
 10
-133.1614332727
 20
45.6228081947
 10
-133.1951793552
 20
45.5080604934
 10
-133.2230009503
 20
45.3914156925
 10
-133.2446796363
 20
45.2738207109
 10
-133.2601426061
 20
45.1555911882
 10
-133.2694626669
 20
45.0364114849
 10
-133.2726398186
 20
44.9162816008
  0
LINE
  5
6B3
100
AcDbEntity
  8
SMUSSO
100
AcDbLine
 62
7
  6
CONTINUOUS
 10
-98.4709096097
 20
47.4999923849
 11
-130.9927259484
 21
47.2161787934
  0
LINE
  5
6B4
100
AcDbEntity
  8
SMUSSO
100
AcDbLine
 62
7
  6
CONTINUOUS
 10
-98.4709096097
 20
47.7
 11
-130.9927259484
 21
47.4161864085
  0
LWPOLYLINE
  5
6B5
100
AcDbEntity
  8
0
100
AcDbPolyline
 62
7
  6
CONTINUOUS
 90
6
 70
0
 43
0.3500000087
 10
-119.2876591248
 20
56.4499977661
 10
-118.2162307251
 20
56.4499977661
 10
-118.0019399292
 20
56.664288562
 10
-118.0019399292
 20
57.7357169617
 10
-118.4305129944
 20
58.1642815002
 10
-118.8590860596
 20
58.1642815002
  0
CIRCLE
  5
6B6
100
AcDbEntity
  8
0
100
AcDbCircle
 62
7
  6
CONTINUOUS
 10
-55.4
 20
-30.5
 40
2.8
  0
CIRCLE
  5
6B7
100
AcDbEntity
  8
0
100
AcDbCircle
 62
250
  6
CONTINUOUS
 10
-55.4
 20
-30.5
 40
2.7083333224
  0
ARC
  5
6B8
100
AcDbEntity
  8
0
100
AcDbCircle
 62
7
  6
CONTINUOUS
 10
-55.4
 20
-30.5
 40
1.3489651177
100
AcDbArc
 50
80.2643251676
 51
99.7347895178
  0
ARC
  5
6B9
100
AcDbEntity
  8
0
100
AcDbCircle
 62
7
  6
CONTINUOUS
 10
-55.4
 20
-30.5
 40
1.3489651177
100
AcDbArc
 50
260.2643253968
 51
279.7347895178
  0
ARC
  5
6BA
100
AcDbEntity
  8
0
100
AcDbCircle
 62
7
  6
CONTINUOUS
 10
-55.4
 20
-30.5
 40
1.3489651177
100
AcDbArc
 50
350.2643252114
 51
9.7347895178
  0
ARC
  5
6BB
100
AcDbEntity
  8
0
100
AcDbCircle
 62
7
  6
CONTINUOUS
 10
-55.4
 20
-30.5
 40
1.3489651177
100
AcDbArc
 50
170.264325367
 51
189.7347895178
  0
ARC
  5
6BC
100
AcDbEntity
  8
TRASH
100
AcDbCircle
 62
7
  6
CONTINUOUS
 10
-55.4
 20
-30.5
 40
1.1472328625
100
AcDbArc
 50
347.9845776281
 51
12.0153200785
  0
ARC
  5
6BD
100
AcDbEntity
  8
TRASH
100
AcDbCircle
 62
7
  6
CONTINUOUS
 10
-55.4
 20
-30.5
 40
1.1472328625
100
AcDbArc
 50
167.9845776281
 51
192.0153200785
  0
ARC
  5
6BE
100
AcDbEntity
  8
TRASH
100
AcDbCircle
 62
7
  6
CONTINUOUS
 10
-55.4
 20
-30.5
 40
1.1472328182
100
AcDbArc
 50
77.9846799215
 51
102.0154223719
  0
ARC
  5
6BF
100
AcDbEntity
  8
TRASH
100
AcDbCircle
 62
7
  6
CONTINUOUS
 10
-55.4
 20
-30.5
 40
1.1472328182
100
AcDbArc
 50
257.9846799215
 51
282.0154223719
  0
CIRCLE
  5
6C0
100
AcDbEntity
  8
0
100
AcDbCircle
 62
7
  6
CONTINUOUS
 10
-55.4
 20
30.5
 40
2.8
  0
CIRCLE
  5
6C1
100
AcDbEntity
  8
0
100
AcDbCircle
 62
250
  6
CONTINUOUS
 10
-55.4
 20
30.5
 40
2.7083333224
  0
ARC
  5
6C2
100
AcDbEntity
  8
0
100
AcDbCircle
 62
7
  6
CONTINUOUS
 10
-55.4
 20
30.5
 40
1.3489651177
100
AcDbArc
 50
80.2643251676
 51
99.7347895178
  0
ARC
  5
6C3
100
AcDbEntity
  8
0
100
AcDbCircle
 62
7
  6
CONTINUOUS
 10
-55.4
 20
30.5
 40
1.3489651177
100
AcDbArc
 50
260.2643253968
 51
279.7347895178
  0
ARC
  5
6C4
100
AcDbEntity
  8
0
100
AcDbCircle
 62
7
  6
CONTINUOUS
 10
-55.4
 20
30.5
 40
1.3489651177
100
AcDbArc
 50
350.2643252114
 51
9.7347895178
  0
ARC
  5
6C5
100
AcDbEntity
  8
0
100
AcDbCircle
 62
7
  6
CONTINUOUS
 10
-55.4
 20
30.5
 40
1.3489651177
100
AcDbArc
 50
170.264325367
 51
189.7347895178
  0
ARC
  5
6C6
100
AcDbEntity
  8
TRASH
100
AcDbCircle
 62
7
  6
CONTINUOUS
 10
-55.4
 20
30.5
 40
1.1472328625
100
AcDbArc
 50
347.9845776281
 51
12.0153200785
  0
ARC
  5
6C7
100
AcDbEntity
  8
TRASH
100
AcDbCircle
 62
7
  6
CONTINUOUS
 10
-55.4
 20
30.5
 40
1.1472328625
100
AcDbArc
 50
167.9845776281
 51
192.0153200785
  0
ARC
  5
6C8
100
AcDbEntity
  8
TRASH
100
AcDbCircle
 62
7
  6
CONTINUOUS
 10
-55.4
 20
30.5
 40
1.1472328182
100
AcDbArc
 50
77.9846799215
 51
102.0154223719
  0
ARC
  5
6C9
100
AcDbEntity
  8
TRASH
100
AcDbCircle
 62
7
  6
CONTINUOUS
 10
-55.4
 20
30.5
 40
1.1472328182
100
AcDbArc
 50
257.9846799215
 51
282.0154223719
  0
CIRCLE
  5
6CA
100
AcDbEntity
  8
0
100
AcDbCircle
 62
7
  6
CONTINUOUS
 10
55.4
 20
-30.5
 40
2.8
  0
CIRCLE
  5
6CB
100
AcDbEntity
  8
0
100
AcDbCircle
 62
250
  6
CONTINUOUS
 10
55.4
 20
-30.5
 40
2.7083333224
  0
ARC
  5
6CC
100
AcDbEntity
  8
0
100
AcDbCircle
 62
7
  6
CONTINUOUS
 10
55.4
 20
-30.5
 40
1.3489651177
100
AcDbArc
 50
80.2643251676
 51
99.7347895178
  0
ARC
  5
6CD
100
AcDbEntity
  8
0
100
AcDbCircle
 62
7
  6
CONTINUOUS
 10
55.4
 20
-30.5
 40
1.3489651177
100
AcDbArc
 50
260.2643253968
 51
279.7347895178
  0
ARC
  5
6CE
100
AcDbEntity
  8
0
100
AcDbCircle
 62
7
  6
CONTINUOUS
 10
55.4
 20
-30.5
 40
1.3489651177
100
AcDbArc
 50
350.2643252114
 51
9.7347895178
  0
ARC
  5
6CF
100
AcDbEntity
  8
0
100
AcDbCircle
 62
7
  6
CONTINUOUS
 10
55.4
 20
-30.5
 40
1.3489651177
100
AcDbArc
 50
170.264325367
 51
189.7347895178
  0
ARC
  5
6D0
100
AcDbEntity
  8
TRASH
100
AcDbCircle
 62
7
  6
CONTINUOUS
 10
55.4
 20
-30.5
 40
1.1472328625
100
AcDbArc
 50
347.9845776281
 51
12.0153200785
  0
ARC
  5
6D1
100
AcDbEntity
  8
TRASH
100
AcDbCircle
 62
7
  6
CONTINUOUS
 10
55.4
 20
-30.5
 40
1.1472328625
100
AcDbArc
 50
167.9845776281
 51
192.0153200785
  0
ARC
  5
6D2
100
AcDbEntity
  8
TRASH
100
AcDbCircle
 62
7
  6
CONTINUOUS
 10
55.4
 20
-30.5
 40
1.1472328182
100
AcDbArc
 50
77.9846799215
 51
102.0154223719
  0
ARC
  5
6D3
100
AcDbEntity
  8
TRASH
100
AcDbCircle
 62
7
  6
CONTINUOUS
 10
55.4
 20
-30.5
 40
1.1472328182
100
AcDbArc
 50
257.9846799215
 51
282.0154223719
  0
CIRCLE
  5
6D4
100
AcDbEntity
  8
0
100
AcDbCircle
 62
7
  6
CONTINUOUS
 10
55.4
 20
30.5
 40
2.8
  0
CIRCLE
  5
6D5
100
AcDbEntity
  8
0
100
AcDbCircle
 62
250
  6
CONTINUOUS
 10
55.4
 20
30.5
 40
2.7083333224
  0
ARC
  5
6D6
100
AcDbEntity
  8
0
100
AcDbCircle
 62
7
  6
CONTINUOUS
 10
55.4
 20
30.5
 40
1.3489651177
100
AcDbArc
 50
80.2643251676
 51
99.7347895178
  0
ARC
  5
6D7
100
AcDbEntity
  8
0
100
AcDbCircle
 62
7
  6
CONTINUOUS
 10
55.4
 20
30.5
 40
1.3489651177
100
AcDbArc
 50
260.2643253968
 51
279.7347895178
  0
ARC
  5
6D8
100
AcDbEntity
  8
0
100
AcDbCircle
 62
7
  6
CONTINUOUS
 10
55.4
 20
30.5
 40
1.3489651177
100
AcDbArc
 50
350.2643252114
 51
9.7347895178
  0
ARC
  5
6D9
100
AcDbEntity
  8
0
100
AcDbCircle
 62
7
  6
CONTINUOUS
 10
55.4
 20
30.5
 40
1.3489651177
100
AcDbArc
 50
170.264325367
 51
189.7347895178
  0
ARC
  5
6DA
100
AcDbEntity
  8
TRASH
100
AcDbCircle
 62
7
  6
CONTINUOUS
 10
55.4
 20
30.5
 40
1.1472328625
100
AcDbArc
 50
347.9845776281
 51
12.0153200785
  0
ARC
  5
6DB
100
AcDbEntity
  8
TRASH
100
AcDbCircle
 62
7
  6
CONTINUOUS
 10
55.4
 20
30.5
 40
1.1472328625
100
AcDbArc
 50
167.9845776281
 51
192.0153200785
  0
ARC
  5
6DC
100
AcDbEntity
  8
TRASH
100
AcDbCircle
 62
7
  6
CONTINUOUS
 10
55.4
 20
30.5
 40
1.1472328182
100
AcDbArc
 50
77.9846799215
 51
102.0154223719
  0
ARC
  5
6DD
100
AcDbEntity
  8
TRASH
100
AcDbCircle
 62
7
  6
CONTINUOUS
 10
55.4
 20
30.5
 40
1.1472328182
100
AcDbArc
 50
257.9846799215
 51
282.0154223719
  0
ARC
  5
6DE
100
AcDbEntity
  8
0
100
AcDbCircle
 62
7
  6
CONTINUOUS
 10
-130.6709096097
 20
30.5
 40
5.0
100
AcDbArc
 50
195.6519509214
 51
212.7971682958
  0
ARC
  5
6DF
100
AcDbEntity
  8
0
100
AcDbCircle
 62
7
  6
CONTINUOUS
 10
-130.6709096097
 20
30.5
 40
5.0
100
AcDbArc
 50
147.2028317042
 51
164.3480490786
  0
ARC
  5
6E0
100
AcDbEntity
  8
0
100
AcDbCircle
 62
7
  6
CONTINUOUS
 10
-130.6709096097
 20
-30.5
 40
5.0
100
AcDbArc
 50
195.6519509214
 51
212.7971682958
  0
ARC
  5
6E1
100
AcDbEntity
  8
0
100
AcDbCircle
 62
7
  6
CONTINUOUS
 10
-130.6709096097
 20
-30.5
 40
5.0
100
AcDbArc
 50
147.2028317042
 51
164.3480490786
  0
ARC
  5
6E2
100
AcDbEntity
  8
SMUSSO
100
AcDbCircle
 62
7
  6
CONTINUOUS
 10
-130.9709096097
 20
44.9162816008
 40
2.5
100
AcDbArc
 50
90.5
 51
180.0
  0
ARC
  5
6E3
100
AcDbEntity
  8
SMUSSO
100
AcDbCircle
 62
7
  6
CONTINUOUS
 10
-130.9709096097
 20
-44.9162816008
 40
2.5
100
AcDbArc
 50
180.0
 51
269.5
  0
ARC
  5
6E4
100
AcDbEntity
  8
0
100
AcDbCircle
 62
7
  6
CONTINUOUS
 10
-133.6709096097
 20
33.1
 40
0.2
100
AcDbArc
 50
0.0
 51
90.0
  0
ARC
  5
6E5
100
AcDbEntity
  8
0
100
AcDbCircle
 62
7
  6
CONTINUOUS
 10
-133.6709096097
 20
27.9
 40
0.2
100
AcDbArc
 50
270.0
 51
360.0
  0
ARC
  5
6E6
100
AcDbEntity
  8
0
100
AcDbCircle
 62
7
  6
CONTINUOUS
 10
-134.70575781
 20
33.1
 40
0.2
100
AcDbArc
 50
90.0
 51
147.2028317042
  0
ARC
  5
6E7
100
AcDbEntity
  8
0
100
AcDbCircle
 62
7
  6
CONTINUOUS
 10
-134.70575781
 20
27.9
 40
0.2
100
AcDbArc
 50
212.7971682958
 51
270.0
  0
ARC
  5
6E8
100
AcDbEntity
  8
0
100
AcDbCircle
 62
7
  6
CONTINUOUS
 10
-133.6709096097
 20
-27.9
 40
0.2
100
AcDbArc
 50
0.0
 51
90.0
  0
ARC
  5
6E9
100
AcDbEntity
  8
0
100
AcDbCircle
 62
7
  6
CONTINUOUS
 10
-133.6709096097
 20
-33.1
 40
0.2
100
AcDbArc
 50
270.0
 51
360.0
  0
ARC
  5
6EA
100
AcDbEntity
  8
0
100
AcDbCircle
 62
7
  6
CONTINUOUS
 10
-134.70575781
 20
-27.9
 40
0.2
100
AcDbArc
 50
90.0
 51
147.2028317042
  0
ARC
  5
6EB
100
AcDbEntity
  8
0
100
AcDbCircle
 62
7
  6
CONTINUOUS
 10
-134.70575781
 20
-33.1
 40
0.2
100
AcDbArc
 50
212.7971682958
 51
270.0
  0
ENDSEC
  0
SECTION
  2
OBJECTS
  0
DICTIONARY
  5
C
100
AcDbDictionary
280
0
281
1
  3
ACAD_GROUP
350
D
  3
ACAD_MLINESTYLE
350
17
  3
ACAD_LAYOUT
350
1A
  3
ACAD_PLOTSETTINGS
350
19
  3
ACAD_PLOTSTYLENAME
350
E
  0
DICTIONARY
  5
D
102
{ACAD_REACTORS
330
C
102
}
100
AcDbDictionary
280
0
281
1
  0
ACDBDICTIONARYWDFLT
  5
E
102
{ACAD_REACTORS
330
C
102
}
100
AcDbDictionary
281
1
  3
Normal
350
F
100
AcDbDictionaryWithDefault
340
F
  0
DICTIONARY
  5
17
102
{ACAD_REACTORS
330
C
102
}
100
AcDbDictionary
280
0
281
1
  3
Standard
350
18
  0
DICTIONARY
  5
19
102
{ACAD_REACTORS
330
C
102
}
100
AcDbDictionary
281
1
  0
DICTIONARY
  5
1A
102
{ACAD_REACTORS
330
C
102
}
100
AcDbDictionary
281
1
  3
Model
350
6EC
  3
Layout1
350
6ED
  0
ACDBPLACEHOLDER
  5
F
102
{ACAD_REACTORS
330
E
102
}
  0
MLINESTYLE
  5
18
102
{ACAD_REACTORS
330
17
102
}
100
AcDbMlineStyle
  2
STANDARD
 70
0
  3

 62
256
 51
90.0
 52
90.0
 71
2
 49
0.5
 62
256
  6
BYLAYER
 49
-0.5
 62
256
  6
BYLAYER
  0
LAYOUT
  5
6EC
102
{ACAD_REACTORS
330
1A
102
}
100
AcDbPlotSettings
  1

  2
none_device
  4
ANSI_C_(22.00_x_17.00_Inches)
  6

 40
0.0
 41
0.0
 42
0.0
 43
0.0
 44
558.8
 45
431.8
 46
0.0
 47
0.0
 48
0.0
 49
0.0
140
0.0
141
0.0
142
1.0
143
1.0
 70
1024
 72
1
 73
0
 74
0
  7

 75
0
147
1.0
148
0.0
149
0.0
100
AcDbLayout
  1
Model
 70
0
 71
0
 10
0.0
 20
0.0
 11
558.8
 21
431.8
 12
0.0
 22
0.0
 32
0.0
 14
0.0
 24
0.0
 34
0.0
 15
0.0
 25
0.0
 35
0.0
146
0.0
 13
0.0
 23
0.0
 33
0.0
 16
1.0
 26
0.0
 36
0.0
 17
0.0
 27
1.0
 37
0.0
 76
0
330
212
345
0
346
0
  0
LAYOUT
  5
6ED
102
{ACAD_REACTORS
330
1A
102
}
100
AcDbPlotSettings
  1

  2
none_device
  4
ANSI_C_(22.00_x_17.00_Inches)
  6

 40
0.0
 41
0.0
 42
0.0
 43
0.0
 44
558.8
 45
431.8
 46
0.0
 47
0.0
 48
0.0
 49
0.0
140
0.0
141
0.0
142
1.0
143
1.0
 70
0
 72
1
 73
0
 74
0
  7

 75
0
147
1.0
148
0.0
149
0.0
100
AcDbLayout
  1
Layout1
 70
0
 71
1
 10
0.0
 20
0.0
 11
558.8
 21
431.8
 12
0.0
 22
0.0
 32
0.0
 14
0.0
 24
0.0
 34
0.0
 15
0.0
 25
0.0
 35
0.0
146
0.0
 13
0.0
 23
0.0
 33
0.0
 16
1.0
 26
0.0
 36
0.0
 17
0.0
 27
1.0
 37
0.0
 76
0
330
213
345
0
346
0
  0
ENDSEC
  0
EOF
