  0
SECTION
  2
HEADER
  9
$ACADVER
  1
AC1015
  9
$DWGCODEPAGE
  3
ANSI_1252
  9
$EXTMAX
 10
297.0
 20
210.0
 30
0.0
  9
$EXTMIN
 10
0.0
 20
0.0
 30
0.0
  9
$LIMMIN
 10
0.0
 20
0.0
  9
$LIMMAX
 10
297.0
 20
210.0
  9
$VIEWCTR
 10
148.5
 20
105.0
  9
$VIEWSIZE
 40
210.0
  9
$CLAYER
  8
0
  9
$LTSCALE
 40
16.335
  9
$CELTYPE
  6
BYLAYER
  9
$DIMSCALE
 40
1.0
  9
$DIMASZ
 40
3.0
  9
$DIMEXO
 40
0.5
  9
$DIMDLI
 40
11.286
  9
$DIMEXE
 40
1.5
  9
$DIMCEN
 40
2.673
  9
$DIMLFAC
 40
1.0
  9
$DIMBLK
  1
_FILLED
  9
$DIMALT
 70
0
  9
$DIMALTF
 40
0.0393700787
  9
$DIMTXT
 40
3.0
  9
$DIMTOL
 70
1
  9
$DIMLIM
 70
0
  9
$DIMTFAC
 40
1.0
  9
$DIMTP
 40
0.01
  9
$DIMTM
 40
0.01
  9
$DIMGAP
 40
0.625
  9
$DIMDSEP
 70
44
  9
$AUNITS
 70
0
  9
$PDMODE
 70
3
  9
$PDSIZE
 40
3.0
  9
$HANDSEED
  5
5B9
  9
$TILEMODE
 70
1
  9
$MEASUREMENT
 70
1
  9
$INSUNITS
 70
4
  0
ENDSEC
  0
SECTION
  2
CLASSES
  0
CLASS
  1
ACDBDICTIONARYWDFLT
  2
AcDbDictionaryWithDefault
  3
AutoCAD 2000
 90
0
280
0
281
0
  0
CLASS
  1
ACDBPLACEHOLDER
  2
AcDbPlaceHolder
  3
AutoCAD 2000
 90
0
280
0
281
0
  0
CLASS
  1
LAYOUT
  2
AcDbLayout
  3
AutoCAD 2000
 90
0
280
0
281
0
  0
ENDSEC
  0
SECTION
  2
TABLES
  0
TABLE
  2
VPORT
  5
8
100
AcDbSymbolTable
 70
2
  0
VPORT
  5
1F4
100
AcDbSymbolTableRecord
100
AcDbViewportTableRecord
  2
*ACTIVE
 70
0
 10
0.0
 20
0.0
 11
1.0
 21
1.0
 12
148.5
 22
105.0
 13
0.0
 23
0.0
 14
1.0
 24
1.0
 15
0.0
 25
0.0
 16
0.0
 26
0.0
 36
1.0
 17
0.0
 27
0.0
 37
0.0
 40
210.0
 41
1.4142857143
 42
50.0
 43
0.0
 44
0.0
 50
0.0
 51
0.0
 71
0
 72
100
 73
1
 74
1
 75
0
 76
0
 77
0
 78
0
  0
ENDTAB
  0
TABLE
  2
LTYPE
  5
5
100
AcDbSymbolTable
 70
6
  0
LTYPE
  5
14
100
AcDbSymbolTableRecord
100
AcDbLinetypeTableRecord
  2
BYBLOCK
 70
0
  3

 72
65
 73
0
 40
0.0
  0
LTYPE
  5
15
100
AcDbSymbolTableRecord
100
AcDbLinetypeTableRecord
  2
BYLAYER
 70
0
  3

 72
65
 73
0
 40
0.0
  0
LTYPE
  5
16
100
AcDbSymbolTableRecord
100
AcDbLinetypeTableRecord
  2
CONTINUOUS
 70
64
  3
Solid line
 72
65
 73
0
 40
0.0
  0
LTYPE
  5
1F5
100
AcDbSymbolTableRecord
100
AcDbLinetypeTableRecord
  2
CENTER
 70
64
  3
____ _ ____ _ ____ _ ____ _ ____ _ ____ _ ____
 72
65
 73
4
 40
0.6
 49
0.375
 74
0
 49
-0.075
 74
0
 49
0.075
 74
0
 49
-0.075
 74
0
  0
LTYPE
  5
1F6
100
AcDbSymbolTableRecord
100
AcDbLinetypeTableRecord
  2
HIDDEN
 70
64
  3
- - - - - - - - - - - - - - - - - - - -
 72
65
 73
2
 40
0.2
 49
0.1
 74
0
 49
-0.1
 74
0
  0
LTYPE
  5
1F7
100
AcDbSymbolTableRecord
100
AcDbLinetypeTableRecord
  2
PHANTOM
 70
64
  3
_____ _ _ _____ _ _ _____ _ _ _____
 72
65
 73
6
 40
0.8
 49
0.45
 74
0
 49
-0.05
 74
0
 49
0.1
 74
0
 49
-0.05
 74
0
 49
0.1
 74
0
 49
-0.05
 74
0
  0
LTYPE
  5
1F8
100
AcDbSymbolTableRecord
100
AcDbLinetypeTableRecord
  2
DOT
 70
64
  3
. . . . . . . . . . . . . . . . . . . .
 72
65
 73
2
 40
0.2
 49
0.1
 74
0
 49
-0.1
 74
0
  0
LTYPE
  5
1F9
100
AcDbSymbolTableRecord
100
AcDbLinetypeTableRecord
  2
DASHED
 70
64
  3
- - - - - - - - - - - - - - - - - - - -
 72
65
 73
2
 40
0.2
 49
0.1
 74
0
 49
-0.1
 74
0
  0
ENDTAB
  0
TABLE
  2
LAYER
  5
2
100
AcDbSymbolTable
 70
36
  0
LAYER
  5
10
100
AcDbSymbolTableRecord
100
AcDbLayerTableRecord
  2
0
 70
0
 62
7
  6
CONTINUOUS
370
-3
390
F
  0
LAYER
  5
1FA
100
AcDbSymbolTableRecord
100
AcDbLayerTableRecord
  2
DEFAULT_1
 70
0
 62
7
  6
CENTER
370
-3
390
F
  0
LAYER
  5
1FB
100
AcDbSymbolTableRecord
100
AcDbLayerTableRecord
  2
DEFAULT_2
 70
0
 62
7
  6
HIDDEN
370
-3
390
F
  0
LAYER
  5
1FC
100
AcDbSymbolTableRecord
100
AcDbLayerTableRecord
  2
DEFAULT_3
 70
0
 62
7
  6
PHANTOM
370
-3
390
F
  0
LAYER
  5
1FD
100
AcDbSymbolTableRecord
100
AcDbLayerTableRecord
  2
0603_C_REF_90000
 70
0
 62
7
  6
CONTINUOUS
370
-3
390
F
  0
LAYER
  5
1FE
100
AcDbSymbolTableRecord
100
AcDbLayerTableRecord
  2
0603_C_REF_90000_1
 70
0
 62
7
  6
CONTINUOUS
370
-3
390
F
  0
LAYER
  5
1FF
100
AcDbSymbolTableRecord
100
AcDbLayerTableRecord
  2
0603_C_REF_90000_2
 70
0
 62
7
  6
CONTINUOUS
370
-3
390
F
  0
LAYER
  5
200
100
AcDbSymbolTableRecord
100
AcDbLayerTableRecord
  2
0603_C_REF_90000_3
 70
0
 62
7
  6
CONTINUOUS
370
-3
390
F
  0
LAYER
  5
201
100
AcDbSymbolTableRecord
100
AcDbLayerTableRecord
  2
0603_C_REF_90000_4
 70
0
 62
7
  6
CONTINUOUS
370
-3
390
F
  0
LAYER
  5
202
100
AcDbSymbolTableRecord
100
AcDbLayerTableRecord
  2
0603_C_REF_90000_5
 70
0
 62
7
  6
CONTINUOUS
370
-3
390
F
  0
LAYER
  5
203
100
AcDbSymbolTableRecord
100
AcDbLayerTableRecord
  2
0603_C_REF_90000_6
 70
0
 62
7
  6
CONTINUOUS
370
-3
390
F
  0
LAYER
  5
204
100
AcDbSymbolTableRecord
100
AcDbLayerTableRecord
  2
0603_C_REF_90000_7
 70
0
 62
7
  6
CONTINUOUS
370
-3
390
F
  0
LAYER
  5
205
100
AcDbSymbolTableRecord
100
AcDbLayerTableRecord
  2
0603_C_REF_90000_8
 70
0
 62
7
  6
CONTINUOUS
370
-3
390
F
  0
LAYER
  5
206
100
AcDbSymbolTableRecord
100
AcDbLayerTableRecord
  2
0603_R_REF_55000
 70
0
 62
7
  6
CONTINUOUS
370
-3
390
F
  0
LAYER
  5
207
100
AcDbSymbolTableRecord
100
AcDbLayerTableRecord
  2
0603_R_REF_55000_1
 70
0
 62
7
  6
CONTINUOUS
370
-3
390
F
  0
LAYER
  5
208
100
AcDbSymbolTableRecord
100
AcDbLayerTableRecord
  2
0603_R_REF_55000_10
 70
0
 62
7
  6
CONTINUOUS
370
-3
390
F
  0
LAYER
  5
209
100
AcDbSymbolTableRecord
100
AcDbLayerTableRecord
  2
0603_R_REF_55000_11
 70
0
 62
7
  6
CONTINUOUS
370
-3
390
F
  0
LAYER
  5
20A
100
AcDbSymbolTableRecord
100
AcDbLayerTableRecord
  2
0603_R_REF_55000_12
 70
0
 62
7
  6
CONTINUOUS
370
-3
390
F
  0
LAYER
  5
20B
100
AcDbSymbolTableRecord
100
AcDbLayerTableRecord
  2
0603_R_REF_55000_13
 70
0
 62
7
  6
CONTINUOUS
370
-3
390
F
  0
LAYER
  5
20C
100
AcDbSymbolTableRecord
100
AcDbLayerTableRecord
  2
0603_R_REF_55000_14
 70
0
 62
7
  6
CONTINUOUS
370
-3
390
F
  0
LAYER
  5
20D
100
AcDbSymbolTableRecord
100
AcDbLayerTableRecord
  2
0603_R_REF_55000_15
 70
0
 62
7
  6
CONTINUOUS
370
-3
390
F
  0
LAYER
  5
20E
100
AcDbSymbolTableRecord
100
AcDbLayerTableRecord
  2
0603_R_REF_55000_16
 70
0
 62
7
  6
CONTINUOUS
370
-3
390
F
  0
LAYER
  5
20F
100
AcDbSymbolTableRecord
100
AcDbLayerTableRecord
  2
0603_R_REF_55000_17
 70
0
 62
7
  6
CONTINUOUS
370
-3
390
F
  0
LAYER
  5
210
100
AcDbSymbolTableRecord
100
AcDbLayerTableRecord
  2
0603_R_REF_55000_18
 70
0
 62
7
  6
CONTINUOUS
370
-3
390
F
  0
LAYER
  5
211
100
AcDbSymbolTableRecord
100
AcDbLayerTableRecord
  2
0603_R_REF_55000_19
 70
0
 62
7
  6
CONTINUOUS
370
-3
390
F
  0
LAYER
  5
212
100
AcDbSymbolTableRecord
100
AcDbLayerTableRecord
  2
0603_R_REF_55000_2
 70
0
 62
7
  6
CONTINUOUS
370
-3
390
F
  0
LAYER
  5
213
100
AcDbSymbolTableRecord
100
AcDbLayerTableRecord
  2
0603_R_REF_55000_20
 70
0
 62
7
  6
CONTINUOUS
370
-3
390
F
  0
LAYER
  5
214
100
AcDbSymbolTableRecord
100
AcDbLayerTableRecord
  2
0603_R_REF_55000_21
 70
0
 62
7
  6
CONTINUOUS
370
-3
390
F
  0
LAYER
  5
215
100
AcDbSymbolTableRecord
100
AcDbLayerTableRecord
  2
0603_R_REF_55000_22
 70
0
 62
7
  6
CONTINUOUS
370
-3
390
F
  0
LAYER
  5
216
100
AcDbSymbolTableRecord
100
AcDbLayerTableRecord
  2
0603_R_REF_55000_23
 70
0
 62
7
  6
CONTINUOUS
370
-3
390
F
  0
LAYER
  5
217
100
AcDbSymbolTableRecord
100
AcDbLayerTableRecord
  2
0603_R_REF_55000_24
 70
0
 62
7
  6
CONTINUOUS
370
-3
390
F
  0
LAYER
  5
218
100
AcDbSymbolTableRecord
100
AcDbLayerTableRecord
  2
0603_R_REF_55000_25
 70
0
 62
7
  6
CONTINUOUS
370
-3
390
F
  0
LAYER
  5
219
100
AcDbSymbolTableRecord
100
AcDbLayerTableRecord
  2
0603_R_REF_55000_26
 70
0
 62
7
  6
CONTINUOUS
370
-3
390
F
  0
LAYER
  5
21A
100
AcDbSymbolTableRecord
100
AcDbLayerTableRecord
  2
0603_R_REF_55000_27
 70
0
 62
7
  6
CONTINUOUS
370
-3
390
F
  0
LAYER
  5
21B
100
AcDbSymbolTableRecord
100
AcDbLayerTableRecord
  2
0603_R_REF_55000_28
 70
0
 62
7
  6
CONTINUOUS
370
-3
390
F
  0
LAYER
  5
21C
100
AcDbSymbolTableRecord
100
AcDbLayerTableRecord
  2
0603_R_REF_55000_29
 70
0
 62
7
  6
CONTINUOUS
370
-3
390
F
  0
LAYER
  5
21D
100
AcDbSymbolTableRecord
100
AcDbLayerTableRecord
  2
0603_R_REF_55000_3
 70
0
 62
7
  6
CONTINUOUS
370
-3
390
F
  0
LAYER
  5
21E
100
AcDbSymbolTableRecord
100
AcDbLayerTableRecord
  2
0603_R_REF_55000_30
 70
0
 62
7
  6
CONTINUOUS
370
-3
390
F
  0
LAYER
  5
21F
100
AcDbSymbolTableRecord
100
AcDbLayerTableRecord
  2
0603_R_REF_55000_31
 70
0
 62
7
  6
CONTINUOUS
370
-3
390
F
  0
LAYER
  5
220
100
AcDbSymbolTableRecord
100
AcDbLayerTableRecord
  2
0603_R_REF_55000_32
 70
0
 62
7
  6
CONTINUOUS
370
-3
390
F
  0
LAYER
  5
221
100
AcDbSymbolTableRecord
100
AcDbLayerTableRecord
  2
0603_R_REF_55000_33
 70
0
 62
7
  6
CONTINUOUS
370
-3
390
F
  0
LAYER
  5
222
100
AcDbSymbolTableRecord
100
AcDbLayerTableRecord
  2
0603_R_REF_55000_34
 70
0
 62
7
  6
CONTINUOUS
370
-3
390
F
  0
LAYER
  5
223
100
AcDbSymbolTableRecord
100
AcDbLayerTableRecord
  2
0603_R_REF_55000_35
 70
0
 62
7
  6
CONTINUOUS
370
-3
390
F
  0
LAYER
  5
224
100
AcDbSymbolTableRecord
100
AcDbLayerTableRecord
  2
0603_R_REF_55000_36
 70
0
 62
7
  6
CONTINUOUS
370
-3
390
F
  0
LAYER
  5
225
100
AcDbSymbolTableRecord
100
AcDbLayerTableRecord
  2
0603_R_REF_55000_37
 70
0
 62
7
  6
CONTINUOUS
370
-3
390
F
  0
LAYER
  5
226
100
AcDbSymbolTableRecord
100
AcDbLayerTableRecord
  2
0603_R_REF_55000_38
 70
0
 62
7
  6
CONTINUOUS
370
-3
390
F
  0
LAYER
  5
227
100
AcDbSymbolTableRecord
100
AcDbLayerTableRecord
  2
0603_R_REF_55000_39
 70
0
 62
7
  6
CONTINUOUS
370
-3
390
F
  0
LAYER
  5
228
100
AcDbSymbolTableRecord
100
AcDbLayerTableRecord
  2
0603_R_REF_55000_4
 70
0
 62
7
  6
CONTINUOUS
370
-3
390
F
  0
LAYER
  5
229
100
AcDbSymbolTableRecord
100
AcDbLayerTableRecord
  2
0603_R_REF_55000_40
 70
0
 62
7
  6
CONTINUOUS
370
-3
390
F
  0
LAYER
  5
22A
100
AcDbSymbolTableRecord
100
AcDbLayerTableRecord
  2
0603_R_REF_55000_41
 70
0
 62
7
  6
CONTINUOUS
370
-3
390
F
  0
LAYER
  5
22B
100
AcDbSymbolTableRecord
100
AcDbLayerTableRecord
  2
0603_R_REF_55000_42
 70
0
 62
7
  6
CONTINUOUS
370
-3
390
F
  0
LAYER
  5
22C
100
AcDbSymbolTableRecord
100
AcDbLayerTableRecord
  2
0603_R_REF_55000_43
 70
0
 62
7
  6
CONTINUOUS
370
-3
390
F
  0
LAYER
  5
22D
100
AcDbSymbolTableRecord
100
AcDbLayerTableRecord
  2
0603_R_REF_55000_5
 70
0
 62
7
  6
CONTINUOUS
370
-3
390
F
  0
LAYER
  5
22E
100
AcDbSymbolTableRecord
100
AcDbLayerTableRecord
  2
0603_R_REF_55000_6
 70
0
 62
7
  6
CONTINUOUS
370
-3
390
F
  0
LAYER
  5
22F
100
AcDbSymbolTableRecord
100
AcDbLayerTableRecord
  2
0603_R_REF_55000_7
 70
0
 62
7
  6
CONTINUOUS
370
-3
390
F
  0
LAYER
  5
230
100
AcDbSymbolTableRecord
100
AcDbLayerTableRecord
  2
0603_R_REF_55000_8
 70
0
 62
7
  6
CONTINUOUS
370
-3
390
F
  0
LAYER
  5
231
100
AcDbSymbolTableRecord
100
AcDbLayerTableRecord
  2
0603_R_REF_55000_9
 70
0
 62
7
  6
CONTINUOUS
370
-3
390
F
  0
LAYER
  5
232
100
AcDbSymbolTableRecord
100
AcDbLayerTableRecord
  2
0612_ARRAY_C_YAGEO_130000
 70
0
 62
7
  6
CONTINUOUS
370
-3
390
F
  0
LAYER
  5
233
100
AcDbSymbolTableRecord
100
AcDbLayerTableRecord
  2
0612_ARRAY_C_YAGEO_130000_1
 70
0
 62
7
  6
CONTINUOUS
370
-3
390
F
  0
LAYER
  5
234
100
AcDbSymbolTableRecord
100
AcDbLayerTableRecord
  2
06___PRT_ALL_SURFS
 70
0
 62
7
  6
CONTINUOUS
370
-3
390
F
  0
LAYER
  5
235
100
AcDbSymbolTableRecord
100
AcDbLayerTableRecord
  2
06___PRT_ALL_SURFS_1
 70
0
 62
7
  6
CONTINUOUS
370
-3
390
F
  0
LAYER
  5
236
100
AcDbSymbolTableRecord
100
AcDbLayerTableRecord
  2
06___PRT_ALL_SURFS_10
 70
0
 62
7
  6
CONTINUOUS
370
-3
390
F
  0
LAYER
  5
237
100
AcDbSymbolTableRecord
100
AcDbLayerTableRecord
  2
06___PRT_ALL_SURFS_12
 70
0
 62
7
  6
CONTINUOUS
370
-3
390
F
  0
LAYER
  5
238
100
AcDbSymbolTableRecord
100
AcDbLayerTableRecord
  2
06___PRT_ALL_SURFS_13
 70
0
 62
7
  6
CONTINUOUS
370
-3
390
F
  0
LAYER
  5
239
100
AcDbSymbolTableRecord
100
AcDbLayerTableRecord
  2
06___PRT_ALL_SURFS_14
 70
0
 62
7
  6
CONTINUOUS
370
-3
390
F
  0
LAYER
  5
23A
100
AcDbSymbolTableRecord
100
AcDbLayerTableRecord
  2
06___PRT_ALL_SURFS_16
 70
0
 62
7
  6
CONTINUOUS
370
-3
390
F
  0
LAYER
  5
23B
100
AcDbSymbolTableRecord
100
AcDbLayerTableRecord
  2
06___PRT_ALL_SURFS_2
 70
0
 62
7
  6
CONTINUOUS
370
-3
390
F
  0
LAYER
  5
23C
100
AcDbSymbolTableRecord
100
AcDbLayerTableRecord
  2
06___PRT_ALL_SURFS_20
 70
0
 62
7
  6
CONTINUOUS
370
-3
390
F
  0
LAYER
  5
23D
100
AcDbSymbolTableRecord
100
AcDbLayerTableRecord
  2
06___PRT_ALL_SURFS_21
 70
0
 62
7
  6
CONTINUOUS
370
-3
390
F
  0
LAYER
  5
23E
100
AcDbSymbolTableRecord
100
AcDbLayerTableRecord
  2
06___PRT_ALL_SURFS_22
 70
0
 62
7
  6
CONTINUOUS
370
-3
390
F
  0
LAYER
  5
23F
100
AcDbSymbolTableRecord
100
AcDbLayerTableRecord
  2
06___PRT_ALL_SURFS_24
 70
0
 62
7
  6
CONTINUOUS
370
-3
390
F
  0
LAYER
  5
240
100
AcDbSymbolTableRecord
100
AcDbLayerTableRecord
  2
06___PRT_ALL_SURFS_3
 70
0
 62
7
  6
CONTINUOUS
370
-3
390
F
  0
LAYER
  5
241
100
AcDbSymbolTableRecord
100
AcDbLayerTableRecord
  2
06___PRT_ALL_SURFS_4
 70
0
 62
7
  6
CONTINUOUS
370
-3
390
F
  0
LAYER
  5
242
100
AcDbSymbolTableRecord
100
AcDbLayerTableRecord
  2
06___PRT_ALL_SURFS_5
 70
0
 62
7
  6
CONTINUOUS
370
-3
390
F
  0
LAYER
  5
243
100
AcDbSymbolTableRecord
100
AcDbLayerTableRecord
  2
06___PRT_ALL_SURFS_6
 70
0
 62
7
  6
CONTINUOUS
370
-3
390
F
  0
LAYER
  5
244
100
AcDbSymbolTableRecord
100
AcDbLayerTableRecord
  2
06___PRT_ALL_SURFS_7
 70
0
 62
7
  6
CONTINUOUS
370
-3
390
F
  0
LAYER
  5
245
100
AcDbSymbolTableRecord
100
AcDbLayerTableRecord
  2
06___PRT_ALL_SURFS_8
 70
0
 62
7
  6
CONTINUOUS
370
-3
390
F
  0
LAYER
  5
246
100
AcDbSymbolTableRecord
100
AcDbLayerTableRecord
  2
06___PRT_ALL_SURFS_9
 70
0
 62
7
  6
CONTINUOUS
370
-3
390
F
  0
LAYER
  5
247
100
AcDbSymbolTableRecord
100
AcDbLayerTableRecord
  2
0805_C_REF_145000
 70
0
 62
7
  6
CONTINUOUS
370
-3
390
F
  0
LAYER
  5
248
100
AcDbSymbolTableRecord
100
AcDbLayerTableRecord
  2
0805_LED_REF_60000
 70
0
 62
7
  6
CONTINUOUS
370
-3
390
F
  0
LAYER
  5
249
100
AcDbSymbolTableRecord
100
AcDbLayerTableRecord
  2
0805_LED_REF_60000_1
 70
0
 62
7
  6
CONTINUOUS
370
-3
390
F
  0
LAYER
  5
24A
100
AcDbSymbolTableRecord
100
AcDbLayerTableRecord
  2
0805_LED_REF_60000_2
 70
0
 62
7
  6
CONTINUOUS
370
-3
390
F
  0
LAYER
  5
24B
100
AcDbSymbolTableRecord
100
AcDbLayerTableRecord
  2
0805_LED_REF_60000_3
 70
0
 62
7
  6
CONTINUOUS
370
-3
390
F
  0
LAYER
  5
24C
100
AcDbSymbolTableRecord
100
AcDbLayerTableRecord
  2
0805_LED_REF_60000_4
 70
0
 62
7
  6
CONTINUOUS
370
-3
390
F
  0
LAYER
  5
24D
100
AcDbSymbolTableRecord
100
AcDbLayerTableRecord
  2
0805_LED_REF_60000_5
 70
0
 62
7
  6
CONTINUOUS
370
-3
390
F
  0
LAYER
  5
24E
100
AcDbSymbolTableRecord
100
AcDbLayerTableRecord
  2
0805_LED_REF_60000_6
 70
0
 62
7
  6
CONTINUOUS
370
-3
390
F
  0
LAYER
  5
24F
100
AcDbSymbolTableRecord
100
AcDbLayerTableRecord
  2
0805_LED_REF_60000_7
 70
0
 62
7
  6
CONTINUOUS
370
-3
390
F
  0
LAYER
  5
250
100
AcDbSymbolTableRecord
100
AcDbLayerTableRecord
  2
0805_LED_REF_60000_8
 70
0
 62
7
  6
CONTINUOUS
370
-3
390
F
  0
LAYER
  5
251
100
AcDbSymbolTableRecord
100
AcDbLayerTableRecord
  2
0805_LED_REF_60000_9
 70
0
 62
7
  6
CONTINUOUS
370
-3
390
F
  0
LAYER
  5
252
100
AcDbSymbolTableRecord
100
AcDbLayerTableRecord
  2
0805_R_REF_60000
 70
0
 62
7
  6
CONTINUOUS
370
-3
390
F
  0
LAYER
  5
253
100
AcDbSymbolTableRecord
100
AcDbLayerTableRecord
  2
1206_C_REF_180000
 70
0
 62
7
  6
CONTINUOUS
370
-3
390
F
  0
LAYER
  5
254
100
AcDbSymbolTableRecord
100
AcDbLayerTableRecord
  2
1206_C_REF_180000_1
 70
0
 62
7
  6
CONTINUOUS
370
-3
390
F
  0
LAYER
  5
255
100
AcDbSymbolTableRecord
100
AcDbLayerTableRecord
  2
ASSI
 70
0
 62
7
  6
CONTINUOUS
370
-3
390
F
  0
LAYER
  5
256
100
AcDbSymbolTableRecord
100
AcDbLayerTableRecord
  2
CARTELLINO
 70
0
 62
7
  6
CONTINUOUS
370
-3
390
F
  0
LAYER
  5
257
100
AcDbSymbolTableRecord
100
AcDbLayerTableRecord
  2
CN8F_P2_SMD_GREENCONN_CSFC210-0
 70
0
 62
7
  6
CONTINUOUS
370
-3
390
F
  0
LAYER
  5
258
100
AcDbSymbolTableRecord
100
AcDbLayerTableRecord
  2
CN8M_P2_SMD_GREENCONN_GPFC217-0
 70
0
 62
7
  6
CONTINUOUS
370
-3
390
F
  0
LAYER
  5
259
100
AcDbSymbolTableRecord
100
AcDbLayerTableRecord
  2
CN8M_STRIP_ADIMPEX_C25-08-AG1-6
 70
0
 62
7
  6
CONTINUOUS
370
-3
390
F
  0
LAYER
  5
25A
100
AcDbSymbolTableRecord
100
AcDbLayerTableRecord
  2
CN8M_STRIP_ADIMPEX_C25-08-AG1_1
 70
0
 62
7
  6
CONTINUOUS
370
-3
390
F
  0
LAYER
  5
25B
100
AcDbSymbolTableRecord
100
AcDbLayerTableRecord
  2
CN_MINI_USB_B_MUSB5S-BMHF_66500
 70
0
 62
7
  6
CONTINUOUS
370
-3
390
F
  0
LAYER
  5
25C
100
AcDbSymbolTableRecord
100
AcDbLayerTableRecord
  2
COLOR1
 70
0
 62
7
  6
CONTINUOUS
370
-3
390
F
  0
LAYER
  5
25D
100
AcDbSymbolTableRecord
100
AcDbLayerTableRecord
  2
COLOR13
 70
0
 62
7
  6
CONTINUOUS
370
-3
390
F
  0
LAYER
  5
25E
100
AcDbSymbolTableRecord
100
AcDbLayerTableRecord
  2
COLOR16
 70
0
 62
7
  6
CONTINUOUS
370
-3
390
F
  0
LAYER
  5
25F
100
AcDbSymbolTableRecord
100
AcDbLayerTableRecord
  2
COLOR5
 70
0
 62
7
  6
CONTINUOUS
370
-3
390
F
  0
LAYER
  5
260
100
AcDbSymbolTableRecord
100
AcDbLayerTableRecord
  2
COLOR6
 70
0
 62
7
  6
CONTINUOUS
370
-3
390
F
  0
LAYER
  5
261
100
AcDbSymbolTableRecord
100
AcDbLayerTableRecord
  2
COORDINATE
 70
0
 62
7
  6
CONTINUOUS
370
-3
390
F
  0
LAYER
  5
262
100
AcDbSymbolTableRecord
100
AcDbLayerTableRecord
  2
COPY_PUBLISH
 70
0
 62
7
  6
CONTINUOUS
370
-3
390
F
  0
LAYER
  5
263
100
AcDbSymbolTableRecord
100
AcDbLayerTableRecord
  2
COSMETICI
 70
0
 62
7
  6
CONTINUOUS
370
-3
390
F
  0
LAYER
  5
264
100
AcDbSymbolTableRecord
100
AcDbLayerTableRecord
  2
CR_RR4_8P_3_2X1_6__60000
 70
0
 62
7
  6
CONTINUOUS
370
-3
390
F
  0
LAYER
  5
265
100
AcDbSymbolTableRecord
100
AcDbLayerTableRecord
  2
CR_RR4_8P_3_2X1_6__60000_1
 70
0
 62
7
  6
CONTINUOUS
370
-3
390
F
  0
LAYER
  5
266
100
AcDbSymbolTableRecord
100
AcDbLayerTableRecord
  2
CR_TP1_D2_TOP__3500
 70
0
 62
7
  6
CONTINUOUS
370
-3
390
F
  0
LAYER
  5
267
100
AcDbSymbolTableRecord
100
AcDbLayerTableRecord
  2
CR_TP1_D2_TOP__3500_1
 70
0
 62
7
  6
CONTINUOUS
370
-3
390
F
  0
LAYER
  5
268
100
AcDbSymbolTableRecord
100
AcDbLayerTableRecord
  2
CR_TP1_D2_TOP__3500_2
 70
0
 62
7
  6
CONTINUOUS
370
-3
390
F
  0
LAYER
  5
269
100
AcDbSymbolTableRecord
100
AcDbLayerTableRecord
  2
CR_TP1_D2_TOP__3500_3
 70
0
 62
7
  6
CONTINUOUS
370
-3
390
F
  0
LAYER
  5
26A
100
AcDbSymbolTableRecord
100
AcDbLayerTableRecord
  2
CR_TP1_D2_TOP__3500_4
 70
0
 62
7
  6
CONTINUOUS
370
-3
390
F
  0
LAYER
  5
26B
100
AcDbSymbolTableRecord
100
AcDbLayerTableRecord
  2
CR_TP1_D2_TOP__3500_5
 70
0
 62
7
  6
CONTINUOUS
370
-3
390
F
  0
LAYER
  5
26C
100
AcDbSymbolTableRecord
100
AcDbLayerTableRecord
  2
CR_TP1_D2_TOP__3500_6
 70
0
 62
7
  6
CONTINUOUS
370
-3
390
F
  0
LAYER
  5
26D
100
AcDbSymbolTableRecord
100
AcDbLayerTableRecord
  2
CR_TP1_D2_TOP__3500_7
 70
0
 62
7
  6
CONTINUOUS
370
-3
390
F
  0
LAYER
  5
26E
100
AcDbSymbolTableRecord
100
AcDbLayerTableRecord
  2
CR_TP1_D2_TOP__3500_8
 70
0
 62
7
  6
CONTINUOUS
370
-3
390
F
  0
LAYER
  5
26F
100
AcDbSymbolTableRecord
100
AcDbLayerTableRecord
  2
CR_TP1_D2_TOP__3500_9
 70
0
 62
7
  6
CONTINUOUS
370
-3
390
F
  0
LAYER
  5
270
100
AcDbSymbolTableRecord
100
AcDbLayerTableRecord
  2
CS3500R00-B
 70
0
 62
7
  6
CONTINUOUS
370
-3
390
F
  0
LAYER
  5
271
100
AcDbSymbolTableRecord
100
AcDbLayerTableRecord
  2
CS3500R01
 70
0
 62
7
  6
CONTINUOUS
370
-3
390
F
  0
LAYER
  5
272
100
AcDbSymbolTableRecord
100
AcDbLayerTableRecord
  2
CS3500R02
 70
0
 62
7
  6
CONTINUOUS
370
-3
390
F
  0
LAYER
  5
273
100
AcDbSymbolTableRecord
100
AcDbLayerTableRecord
  2
CS3500R03_10P
 70
0
 62
7
  6
CONTINUOUS
370
-3
390
F
  0
LAYER
  5
274
100
AcDbSymbolTableRecord
100
AcDbLayerTableRecord
  2
CS3500R03_CARTELLINO
 70
0
 62
7
  6
CONTINUOUS
370
-3
390
F
  0
LAYER
  5
275
100
AcDbSymbolTableRecord
100
AcDbLayerTableRecord
  2
CURVE
 70
0
 62
7
  6
CONTINUOUS
370
-3
390
F
  0
LAYER
  5
276
100
AcDbSymbolTableRecord
100
AcDbLayerTableRecord
  2
DO214AA_265000
 70
0
 62
7
  6
CONTINUOUS
370
-3
390
F
  0
LAYER
  5
277
100
AcDbSymbolTableRecord
100
AcDbLayerTableRecord
  2
DO214AA_265000_1
 70
0
 62
7
  6
CONTINUOUS
370
-3
390
F
  0
LAYER
  5
278
100
AcDbSymbolTableRecord
100
AcDbLayerTableRecord
  2
DRAFT
 70
0
 62
7
  6
CONTINUOUS
370
-3
390
F
  0
LAYER
  5
279
100
AcDbSymbolTableRecord
100
AcDbLayerTableRecord
  2
FIDUCIAL_1MM_0
 70
0
 62
7
  6
CONTINUOUS
370
-3
390
F
  0
LAYER
  5
27A
100
AcDbSymbolTableRecord
100
AcDbLayerTableRecord
  2
FIDUCIAL_1MM_0_1
 70
0
 62
7
  6
CONTINUOUS
370
-3
390
F
  0
LAYER
  5
27B
100
AcDbSymbolTableRecord
100
AcDbLayerTableRecord
  2
FIDUCIAL_1MM_0_2
 70
0
 62
7
  6
CONTINUOUS
370
-3
390
F
  0
LAYER
  5
27C
100
AcDbSymbolTableRecord
100
AcDbLayerTableRecord
  2
FIDUCIAL_1MM_0_3
 70
0
 62
7
  6
CONTINUOUS
370
-3
390
F
  0
LAYER
  5
27D
100
AcDbSymbolTableRecord
100
AcDbLayerTableRecord
  2
FIDUCIAL_1_2_MM_RUOTATO_45_0
 70
0
 62
7
  6
CONTINUOUS
370
-3
390
F
  0
LAYER
  5
27E
100
AcDbSymbolTableRecord
100
AcDbLayerTableRecord
  2
FIDUCIAL_1_2_MM_RUOTATO_45_0_1
 70
0
 62
7
  6
CONTINUOUS
370
-3
390
F
  0
LAYER
  5
27F
100
AcDbSymbolTableRecord
100
AcDbLayerTableRecord
  2
GEOMETRIA_SOLIDA
 70
0
 62
7
  6
CONTINUOUS
370
-3
390
F
  0
LAYER
  5
280
100
AcDbSymbolTableRecord
100
AcDbLayerTableRecord
  2
GEOMETRIA_SOLIDA_1
 70
0
 62
7
  6
CONTINUOUS
370
-3
390
F
  0
LAYER
  5
281
100
AcDbSymbolTableRecord
100
AcDbLayerTableRecord
  2
GEOMETRIA_SOLIDA_2
 70
0
 62
7
  6
CONTINUOUS
370
-3
390
F
  0
LAYER
  5
282
100
AcDbSymbolTableRecord
100
AcDbLayerTableRecord
  2
GEOMETRIA_SOLIDA_3
 70
0
 62
7
  6
CONTINUOUS
370
-3
390
F
  0
LAYER
  5
283
100
AcDbSymbolTableRecord
100
AcDbLayerTableRecord
  2
GEOMETRIA_SOLIDA_4
 70
0
 62
7
  6
CONTINUOUS
370
-3
390
F
  0
LAYER
  5
284
100
AcDbSymbolTableRecord
100
AcDbLayerTableRecord
  2
GEOMETRIA_SOLIDA_5
 70
0
 62
7
  6
CONTINUOUS
370
-3
390
F
  0
LAYER
  5
285
100
AcDbSymbolTableRecord
100
AcDbLayerTableRecord
  2
GEOMETRIA_SOLIDA_6
 70
0
 62
7
  6
CONTINUOUS
370
-3
390
F
  0
LAYER
  5
286
100
AcDbSymbolTableRecord
100
AcDbLayerTableRecord
  2
GEOMETRIA_SOLIDA_7
 70
0
 62
7
  6
CONTINUOUS
370
-3
390
F
  0
LAYER
  5
287
100
AcDbSymbolTableRecord
100
AcDbLayerTableRecord
  2
GEOMETRIA_SOLIDA_8
 70
0
 62
7
  6
CONTINUOUS
370
-3
390
F
  0
LAYER
  5
288
100
AcDbSymbolTableRecord
100
AcDbLayerTableRecord
  2
GEOMETRIA_SOLIDA_9
 70
0
 62
7
  6
CONTINUOUS
370
-3
390
F
  0
LAYER
  5
289
100
AcDbSymbolTableRecord
100
AcDbLayerTableRecord
  2
IMPORT_IGES
 70
0
 62
7
  6
CONTINUOUS
370
-3
390
F
  0
LAYER
  5
28A
100
AcDbSymbolTableRecord
100
AcDbLayerTableRecord
  2
INTF_1
 70
0
 62
7
  6
CONTINUOUS
370
-3
390
F
  0
LAYER
  5
28B
100
AcDbSymbolTableRecord
100
AcDbLayerTableRecord
  2
INTF_11
 70
0
 62
7
  6
CONTINUOUS
370
-3
390
F
  0
LAYER
  5
28C
100
AcDbSymbolTableRecord
100
AcDbLayerTableRecord
  2
INTF_5
 70
0
 62
7
  6
CONTINUOUS
370
-3
390
F
  0
LAYER
  5
28D
100
AcDbSymbolTableRecord
100
AcDbLayerTableRecord
  2
INTF_7
 70
0
 62
7
  6
CONTINUOUS
370
-3
390
F
  0
LAYER
  5
28E
100
AcDbSymbolTableRecord
100
AcDbLayerTableRecord
  2
INTF_CYAN
 70
0
 62
7
  6
CONTINUOUS
370
-3
390
F
  0
LAYER
  5
28F
100
AcDbSymbolTableRecord
100
AcDbLayerTableRecord
  2
INTF_RED
 70
0
 62
7
  6
CONTINUOUS
370
-3
390
F
  0
LAYER
  5
290
100
AcDbSymbolTableRecord
100
AcDbLayerTableRecord
  2
LITTELFUSE_449_SERIES_269000
 70
0
 62
7
  6
CONTINUOUS
370
-3
390
F
  0
LAYER
  5
291
100
AcDbSymbolTableRecord
100
AcDbLayerTableRecord
  2
LQFP32-7_0-7_0-9_0-9_0-1_6-0_8-
 70
0
 62
7
  6
CONTINUOUS
370
-3
390
F
  0
LAYER
  5
292
100
AcDbSymbolTableRecord
100
AcDbLayerTableRecord
  2
MELF_0207_REF_220000
 70
0
 62
7
  6
CONTINUOUS
370
-3
390
F
  0
LAYER
  5
293
100
AcDbSymbolTableRecord
100
AcDbLayerTableRecord
  2
MSOP8-3_0-4_9-1_1-REF_110000
 70
0
 62
7
  6
CONTINUOUS
370
-3
390
F
  0
LAYER
  5
294
100
AcDbSymbolTableRecord
100
AcDbLayerTableRecord
  2
NOTE
 70
0
 62
7
  6
CONTINUOUS
370
-3
390
F
  0
LAYER
  5
295
100
AcDbSymbolTableRecord
100
AcDbLayerTableRecord
  2
PIANI
 70
0
 62
7
  6
CONTINUOUS
370
-3
390
F
  0
LAYER
  5
296
100
AcDbSymbolTableRecord
100
AcDbLayerTableRecord
  2
PUNTI
 70
0
 62
7
  6
CONTINUOUS
370
-3
390
F
  0
LAYER
  5
297
100
AcDbSymbolTableRecord
100
AcDbLayerTableRecord
  2
QFP32-7_0-7_0-9_0-9_0-1_6-0_8-0
 70
0
 62
7
  6
CONTINUOUS
370
-3
390
F
  0
LAYER
  5
298
100
AcDbSymbolTableRecord
100
AcDbLayerTableRecord
  2
RACCORDO
 70
0
 62
7
  6
CONTINUOUS
370
-3
390
F
  0
LAYER
  5
299
100
AcDbSymbolTableRecord
100
AcDbLayerTableRecord
  2
SC70-6_REF_H1_1_110000
 70
0
 62
7
  6
CONTINUOUS
370
-3
390
F
  0
LAYER
  5
29A
100
AcDbSymbolTableRecord
100
AcDbLayerTableRecord
  2
SC70-6_REF_H1_1_110000_1
 70
0
 62
7
  6
CONTINUOUS
370
-3
390
F
  0
LAYER
  5
29B
100
AcDbSymbolTableRecord
100
AcDbLayerTableRecord
  2
SIMBOLI
 70
0
 62
7
  6
CONTINUOUS
370
-3
390
F
  0
LAYER
  5
29C
100
AcDbSymbolTableRecord
100
AcDbLayerTableRecord
  2
SMUSSO
 70
0
 62
7
  6
CONTINUOUS
370
-3
390
F
  0
LAYER
  5
29D
100
AcDbSymbolTableRecord
100
AcDbLayerTableRecord
  2
SNAPLINE
 70
0
 62
7
  6
CONTINUOUS
370
-3
390
F
  0
LAYER
  5
29E
100
AcDbSymbolTableRecord
100
AcDbLayerTableRecord
  2
SOT143B_REF_110000
 70
0
 62
7
  6
CONTINUOUS
370
-3
390
F
  0
LAYER
  5
29F
100
AcDbSymbolTableRecord
100
AcDbLayerTableRecord
  2
SOT143B_REF_110000_1
 70
0
 62
7
  6
CONTINUOUS
370
-3
390
F
  0
LAYER
  5
2A0
100
AcDbSymbolTableRecord
100
AcDbLayerTableRecord
  2
SOT223_REF_H1_8_180000
 70
0
 62
7
  6
CONTINUOUS
370
-3
390
F
  0
LAYER
  5
2A1
100
AcDbSymbolTableRecord
100
AcDbLayerTableRecord
  2
SOT23_H1_1_REF_110000
 70
0
 62
7
  6
CONTINUOUS
370
-3
390
F
  0
LAYER
  5
2A2
100
AcDbSymbolTableRecord
100
AcDbLayerTableRecord
  2
SOT23_H1_1_REF_110000_1
 70
0
 62
7
  6
CONTINUOUS
370
-3
390
F
  0
LAYER
  5
2A3
100
AcDbSymbolTableRecord
100
AcDbLayerTableRecord
  2
SOT23_H1_1_REF_110000_2
 70
0
 62
7
  6
CONTINUOUS
370
-3
390
F
  0
LAYER
  5
2A4
100
AcDbSymbolTableRecord
100
AcDbLayerTableRecord
  2
SOT23_H1_1_REF_110000_3
 70
0
 62
7
  6
CONTINUOUS
370
-3
390
F
  0
LAYER
  5
2A5
100
AcDbSymbolTableRecord
100
AcDbLayerTableRecord
  2
SOT23_H1_1_REF_110000_4
 70
0
 62
7
  6
CONTINUOUS
370
-3
390
F
  0
LAYER
  5
2A6
100
AcDbSymbolTableRecord
100
AcDbLayerTableRecord
  2
SUPERFICI
 70
0
 62
7
  6
CONTINUOUS
370
-3
390
F
  0
LAYER
  5
2A7
100
AcDbSymbolTableRecord
100
AcDbLayerTableRecord
  2
SUPERFICI_4
 70
0
 62
7
  6
CONTINUOUS
370
-3
390
F
  0
LAYER
  5
2A8
100
AcDbSymbolTableRecord
100
AcDbLayerTableRecord
  2
SWITCH_SMD_ALPS_SKPM_SERIES_500
 70
0
 62
7
  6
CONTINUOUS
370
-3
390
F
  0
LAYER
  5
2A9
100
AcDbSymbolTableRecord
100
AcDbLayerTableRecord
  2
SWITCH_SMD_ALPS_SKPM_SERIES_5_1
 70
0
 62
7
  6
CONTINUOUS
370
-3
390
F
  0
LAYER
  5
2AA
100
AcDbSymbolTableRecord
100
AcDbLayerTableRecord
  2
SWITCH_SMD_ALPS_SKPM_SERIES_5_2
 70
0
 62
7
  6
CONTINUOUS
370
-3
390
F
  0
LAYER
  5
2AB
100
AcDbSymbolTableRecord
100
AcDbLayerTableRecord
  2
SWITCH_SMD_ALPS_SKPM_SERIES_5_3
 70
0
 62
7
  6
CONTINUOUS
370
-3
390
F
  0
LAYER
  5
2AC
100
AcDbSymbolTableRecord
100
AcDbLayerTableRecord
  2
SWITCH_SMD_ALPS_SKPM_SERIES_5_4
 70
0
 62
7
  6
CONTINUOUS
370
-3
390
F
  0
LAYER
  5
2AD
100
AcDbSymbolTableRecord
100
AcDbLayerTableRecord
  2
SWITCH_SMD_ALPS_SKPM_SERIES_5_5
 70
0
 62
7
  6
CONTINUOUS
370
-3
390
F
  0
LAYER
  5
2AE
100
AcDbSymbolTableRecord
100
AcDbLayerTableRecord
  2
SWITCH_SMD_ALPS_SKPM_SERIES_5_6
 70
0
 62
7
  6
CONTINUOUS
370
-3
390
F
  0
LAYER
  5
2AF
100
AcDbSymbolTableRecord
100
AcDbLayerTableRecord
  2
SWITCH_SMD_ALPS_SKPM_SERIES_5_7
 70
0
 62
7
  6
CONTINUOUS
370
-3
390
F
  0
LAYER
  5
2B0
100
AcDbSymbolTableRecord
100
AcDbLayerTableRecord
  2
SWITCH_SMD_ALPS_SKPM_SERIES_5_8
 70
0
 62
7
  6
CONTINUOUS
370
-3
390
F
  0
LAYER
  5
2B1
100
AcDbSymbolTableRecord
100
AcDbLayerTableRecord
  2
SWITCH_SMD_ALPS_SKPM_SERIES_5_9
 70
0
 62
7
  6
CONTINUOUS
370
-3
390
F
  0
LAYER
  5
2B2
100
AcDbSymbolTableRecord
100
AcDbLayerTableRecord
  2
SYMBOL_DATA_10000
 70
0
 62
7
  6
CONTINUOUS
370
-3
390
F
  0
LAYER
  5
2B3
100
AcDbSymbolTableRecord
100
AcDbLayerTableRecord
  2
SYMBOL_E2_10000
 70
0
 62
7
  6
CONTINUOUS
370
-3
390
F
  0
LAYER
  5
2B4
100
AcDbSymbolTableRecord
100
AcDbLayerTableRecord
  2
SYMBOL_E4_10000
 70
0
 62
7
  6
CONTINUOUS
370
-3
390
F
  0
LAYER
  5
2B5
100
AcDbSymbolTableRecord
100
AcDbLayerTableRecord
  2
SYMBOL_NO-PB_10000
 70
0
 62
7
  6
CONTINUOUS
370
-3
390
F
  0
LAYER
  5
2B6
100
AcDbSymbolTableRecord
100
AcDbLayerTableRecord
  2
TPD4E001DRL_SOTFL-6_60000
 70
0
 62
7
  6
CONTINUOUS
370
-3
390
F
  0
LAYER
  5
2B7
100
AcDbSymbolTableRecord
100
AcDbLayerTableRecord
  2
TPD4E001DRL_SOTFL-6_60000_1
 70
0
 62
7
  6
CONTINUOUS
370
-3
390
F
  0
LAYER
  5
2B8
100
AcDbSymbolTableRecord
100
AcDbLayerTableRecord
  2
TRASH
 70
0
 62
7
  6
CONTINUOUS
370
-3
390
F
  0
LAYER
  5
2B9
100
AcDbSymbolTableRecord
100
AcDbLayerTableRecord
  2
WUERTH_74279202_0805_60000
 70
0
 62
7
  6
CONTINUOUS
370
-3
390
F
  0
LAYER
  5
2BA
100
AcDbSymbolTableRecord
100
AcDbLayerTableRecord
  2
WUERTH_744242471_350000
 70
0
 62
7
  6
CONTINUOUS
370
-3
390
F
  0
LAYER
  5
2BB
100
AcDbSymbolTableRecord
100
AcDbLayerTableRecord
  2
___SHELL
 70
0
 62
7
  6
CONTINUOUS
370
-3
390
F
  0
ENDTAB
  0
TABLE
  2
STYLE
  5
3
100
AcDbSymbolTable
 70
1
  0
STYLE
  5
11
100
AcDbSymbolTableRecord
100
AcDbTextStyleTableRecord
  2
STANDARD
 70
0
 40
0.0
 41
0.8
 50
0.0
 71
0
 42
0.2
  3
txt
  4

  0
STYLE
  5
2BC
100
AcDbSymbolTableRecord
100
AcDbTextStyleTableRecord
  2
TEXTSTYLE_1
 70
0
 40
0.0
 41
0.8
 50
0.0
 71
0
 42
0.2
  3
gdt
  4

  0
ENDTAB
  0
TABLE
  2
VIEW
  5
6
100
AcDbSymbolTable
 70
0
  0
ENDTAB
  0
TABLE
  2
UCS
  5
7
100
AcDbSymbolTable
 70
0
  0
ENDTAB
  0
TABLE
  2
APPID
  5
9
100
AcDbSymbolTable
 70
1
  0
APPID
  5
2BD
100
AcDbSymbolTableRecord
100
AcDbRegAppTableRecord
  2
ACAD
 70
0
  0
ENDTAB
  0
TABLE
  2
BLOCK_RECORD
  5
1
100
AcDbSymbolTable
 70
0
  0
BLOCK_RECORD
  5
2BE
100
AcDbSymbolTableRecord
100
AcDbBlockTableRecord
  2
*Model_Space
  0
BLOCK_RECORD
  5
2BF
100
AcDbSymbolTableRecord
100
AcDbBlockTableRecord
  2
*Paper_Space
  0
BLOCK_RECORD
  5
2C0
100
AcDbSymbolTableRecord
100
AcDbBlockTableRecord
  2
_FILLED
  0
BLOCK_RECORD
  5
2C1
100
AcDbSymbolTableRecord
100
AcDbBlockTableRecord
  2
*D0
  0
BLOCK_RECORD
  5
2C2
100
AcDbSymbolTableRecord
100
AcDbBlockTableRecord
  2
*D1
  0
BLOCK_RECORD
  5
2C3
100
AcDbSymbolTableRecord
100
AcDbBlockTableRecord
  2
*D2
  0
ENDTAB
  0
TABLE
  2
DIMSTYLE
  5
A
100
AcDbSymbolTable
 70
1
100
AcDbDimStyleTable
 71
0
  0
DIMSTYLE
105
2C4
100
AcDbSymbolTableRecord
100
AcDbDimStyleTableRecord
  2
STANDARD
 70
0
  3

  4

 40
1.0
 41
3.0
 42
0.5
 43
0.38
 44
1.5
 45
0.0
 46
0.0
 47
0.01
 48
0.01
140
3.0
141
0.09
142
0.0
143
25.4
144
1.0
145
0.0
146
1.0
147
0.625
 71
1.0
 72
0.0
 73
0
 74
0
 75
0
 76
0
 77
1
 78
8
170
0
171
2
172
0
173
0
174
0
175
0
176
0
177
0
178
0
270
2
271
2
272
2
273
2
274
2
275
0
280
0
281
0
282
0
283
1
284
8
285
0
286
0
287
3
288
0
340
11
278
44
341
2C0
342
2C0
343
2C0
344
2C0
  0
DIMSTYLE
105
2C5
100
AcDbSymbolTableRecord
100
AcDbDimStyleTableRecord
  2
DIMSTYLE_1
 70
0
  3

  4

 40
1.0
 41
3.0
 42
0.5
 43
0.38
 44
1.5
 45
0.0
 46
0.0
 47
0.0
 48
0.0
140
3.0
141
0.09
142
0.0
143
25.4
144
1.0
145
0.0
146
1.0
147
0.75
 71
0.0
 72
0.0
 73
0
 74
0
 75
0
 76
0
 77
1
 78
8
170
0
171
2
172
0
173
0
174
0
175
0
176
0
177
0
178
0
270
2
271
2
272
2
273
2
274
2
275
0
280
0
281
0
282
0
283
1
284
8
285
0
286
0
287
3
288
0
340
11
278
44
341
2C0
342
2C0
343
2C0
344
2C0
  0
DIMSTYLE
105
2C6
100
AcDbSymbolTableRecord
100
AcDbDimStyleTableRecord
  2
DIMSTYLE_2
 70
0
  3

  4

 40
1.0
 41
3.0
 42
0.5
 43
0.38
 44
1.5
 45
0.0
 46
0.0
 47
0.0
 48
0.0
140
3.0
141
0.09
142
0.0
143
25.4
144
1.0
145
0.0
146
1.0
147
0.75
 71
0.0
 72
0.0
 73
0
 74
0
 75
0
 76
0
 77
1
 78
8
170
0
171
2
172
0
173
0
174
0
175
0
176
0
177
0
178
0
270
2
271
1
272
1
273
2
274
2
275
0
280
0
281
0
282
0
283
1
284
8
285
0
286
0
287
3
288
0
340
11
278
44
341
2C0
342
2C0
343
2C0
344
2C0
  0
ENDTAB
  0
ENDSEC
  0
SECTION
  2
BLOCKS
  0
BLOCK
  5
20
100
AcDbEntity
  8
0
100
AcDbBlockBegin
  2
*Model_Space
 70
0
 10
0.0
 20
0.0
 30
0.0
  3
*Model_Space
  1

  0
ENDBLK
  5
21
100
AcDbEntity
  8
0
100
AcDbBlockEnd
  0
BLOCK
  5
1C
100
AcDbEntity
  8
0
100
AcDbBlockBegin
  2
*Paper_Space
 70
0
 10
0.0
 20
0.0
 30
0.0
  3
*Paper_Space
  1

  0
ENDBLK
  5
1D
100
AcDbEntity
  8
0
100
AcDbBlockEnd
  0
BLOCK
  5
2C7
100
AcDbEntity
  8
0
100
AcDbBlockBegin
  2
_FILLED
 70
64
 10
0.0
 20
0.0
  3
_FILLED
  1

  0
SOLID
  5
2C8
100
AcDbEntity
  8
0
  6
BYBLOCK
 62
0
100
AcDbTrace
 10
0.0
 20
0.0
 11
-1.0
 21
0.3166666667
 12
-1.0
 22
-0.3166666667
 13
-1.0
 23
-0.3166666667
  0
ENDBLK
  5
2C9
100
AcDbEntity
  8
0
  6
BYBLOCK
 62
0
100
AcDbBlockEnd
  0
BLOCK
  5
2CA
100
AcDbEntity
  8
0
100
AcDbBlockBegin
 62
7
  6
CONTINUOUS
  2
*D0
 70
65
 10
0.0
 20
0.0
  3
*D0
  1

  0
MTEXT
  5
2CB
100
AcDbEntity
  8
0
100
AcDbMText
 62
7
  6
CONTINUOUS
  7
STANDARD
 71
2
 72
1
 10
28.8507950214
 20
-24.60693739
 30
0.0
 11
0.0
 21
1.0
 31
0.0
 44
0.9
  1
114,5
 40
3.0
 41
14.4642857143
  0
LINE
  5
2CC
100
AcDbEntity
  8
0
100
AcDbLine
 62
7
  6
CONTINUOUS
 10
22.9007950214
 20
32.64306261
 11
34.1007950214
 21
32.64306261
  0
LINE
  5
2CD
100
AcDbEntity
  8
0
100
AcDbLine
 62
7
  6
CONTINUOUS
 10
22.9007950214
 20
-81.85693739
 11
34.1007950214
 21
-81.85693739
  0
LINE
  5
2CE
100
AcDbEntity
  8
0
100
AcDbLine
 62
7
  6
CONTINUOUS
 10
32.6007950214
 20
32.64306261
 11
32.6007950214
 21
-24.60693739
  0
LINE
  5
2CF
100
AcDbEntity
  8
0
100
AcDbLine
 62
7
  6
CONTINUOUS
 10
32.6007950214
 20
-81.85693739
 11
32.6007950214
 21
-24.60693739
  0
INSERT
  5
2D0
100
AcDbEntity
  8
0
100
AcDbBlockReference
 62
7
  6
CONTINUOUS
  2
_FILLED
 10
32.6007950214
 20
32.64306261
 41
3.0
 42
3.0
 43
3.0
 50
90.0
  0
INSERT
  5
2D1
100
AcDbEntity
  8
0
100
AcDbBlockReference
 62
7
  6
CONTINUOUS
  2
_FILLED
 10
32.6007950214
 20
-81.85693739
 41
3.0
 42
3.0
 43
3.0
 50
270.0
  0
ENDBLK
  5
2D2
100
AcDbEntity
  8
0
  6
BYBLOCK
 62
0
100
AcDbBlockEnd
  0
BLOCK
  5
2D3
100
AcDbEntity
  8
0
100
AcDbBlockBegin
 62
7
  6
CONTINUOUS
  2
*D1
 70
65
 10
0.0
 20
0.0
  3
*D1
  1

  0
MTEXT
  5
2D4
100
AcDbEntity
  8
0
100
AcDbMText
 62
7
  6
CONTINUOUS
  7
STANDARD
 71
2
 72
1
 10
-137.0484564504
 20
44.39306261
 30
0.0
 11
1.0
 21
0.0
 31
0.0
 44
0.9
  1
32,7
 40
3.0
 41
12.8571428571
  0
LINE
  5
2D5
100
AcDbEntity
  8
0
100
AcDbLine
 62
7
  6
CONTINUOUS
 10
-153.3734564504
 20
19.59306261
 11
-153.3734564504
 21
42.14306261
  0
LINE
  5
2D6
100
AcDbEntity
  8
0
100
AcDbLine
 62
7
  6
CONTINUOUS
 10
-120.7234564504
 20
4.6965231573
 11
-120.7234564504
 21
42.14306261
  0
LINE
  5
2D7
100
AcDbEntity
  8
0
100
AcDbLine
 62
7
  6
CONTINUOUS
 10
-153.3734564504
 20
40.64306261
 11
-137.0484564504
 21
40.64306261
  0
LINE
  5
2D8
100
AcDbEntity
  8
0
100
AcDbLine
 62
7
  6
CONTINUOUS
 10
-120.7234564504
 20
40.64306261
 11
-137.0484564504
 21
40.64306261
  0
INSERT
  5
2D9
100
AcDbEntity
  8
0
100
AcDbBlockReference
 62
7
  6
CONTINUOUS
  2
_FILLED
 10
-153.3734564504
 20
40.64306261
 41
3.0
 42
3.0
 43
3.0
 50
180.0
  0
INSERT
  5
2DA
100
AcDbEntity
  8
0
100
AcDbBlockReference
 62
7
  6
CONTINUOUS
  2
_FILLED
 10
-120.7234564504
 20
40.64306261
 41
3.0
 42
3.0
 43
3.0
  0
ENDBLK
  5
2DB
100
AcDbEntity
  8
0
  6
BYBLOCK
 62
0
100
AcDbBlockEnd
  0
BLOCK
  5
2DC
100
AcDbEntity
  8
0
100
AcDbBlockBegin
 62
7
  6
CONTINUOUS
  2
*D2
 70
65
 10
0.0
 20
0.0
  3
*D2
  1

  0
MTEXT
  5
2DD
100
AcDbEntity
  8
0
100
AcDbMText
 62
7
  6
CONTINUOUS
  7
STANDARD
 71
2
 72
1
 10
-15.9242049786
 20
44.39306261
 30
0.0
 11
1.0
 21
0.0
 31
0.0
 44
0.9
  1
81,05
 40
3.0
 41
15.4285714286
  0
LINE
  5
2DE
100
AcDbEntity
  8
0
100
AcDbLine
 62
7
  6
CONTINUOUS
 10
24.6007950214
 20
-20.60693739
 11
24.6007950214
 21
42.14306261
  0
LINE
  5
2DF
100
AcDbEntity
  8
0
100
AcDbLine
 62
7
  6
CONTINUOUS
 10
-56.4492049786
 20
19.59306261
 11
-56.4492049786
 21
42.14306261
  0
LINE
  5
2E0
100
AcDbEntity
  8
0
100
AcDbLine
 62
7
  6
CONTINUOUS
 10
24.6007950214
 20
40.64306261
 11
-15.9242049786
 21
40.64306261
  0
LINE
  5
2E1
100
AcDbEntity
  8
0
100
AcDbLine
 62
7
  6
CONTINUOUS
 10
-56.4492049786
 20
40.64306261
 11
-15.9242049786
 21
40.64306261
  0
INSERT
  5
2E2
100
AcDbEntity
  8
0
100
AcDbBlockReference
 62
7
  6
CONTINUOUS
  2
_FILLED
 10
24.6007950214
 20
40.64306261
 41
3.0
 42
3.0
 43
3.0
  0
INSERT
  5
2E3
100
AcDbEntity
  8
0
100
AcDbBlockReference
 62
7
  6
CONTINUOUS
  2
_FILLED
 10
-56.4492049786
 20
40.64306261
 41
3.0
 42
3.0
 43
3.0
 50
180.0
  0
ENDBLK
  5
2E4
100
AcDbEntity
  8
0
  6
BYBLOCK
 62
0
100
AcDbBlockEnd
  0
ENDSEC
  0
SECTION
  2
ENTITIES
  0
DIMENSION
  5
2E5
100
AcDbEntity
  8
0
100
AcDbDimension
 62
7
  6
CONTINUOUS
  2
*D0
 10
32.6007950214
 20
-81.85693739
 11
32.6007950214
 21
-25.0355092532
 70
160
 71
2
 42
114.5
  3
DIMSTYLE_1
100
AcDbAlignedDimension
 13
22.4007950214
 23
32.64306261
 14
22.4007950214
 24
-81.85693739
 50
270.0
100
AcDbRotatedDimension
  0
DIMENSION
  5
2E6
100
AcDbEntity
  8
0
100
AcDbDimension
 62
7
  6
CONTINUOUS
  2
*D1
 10
-120.7234564504
 20
40.64306261
 11
-137.4770246429
 21
40.64306261
 70
160
 71
2
 42
32.65
  3
DIMSTYLE_2
100
AcDbAlignedDimension
 13
-153.3734564504
 23
19.09306261
 14
-120.7234564504
 24
4.1965231573
100
AcDbRotatedDimension
  0
DIMENSION
  5
2E7
100
AcDbEntity
  8
0
100
AcDbDimension
 62
7
  6
CONTINUOUS
  2
*D2
 10
-56.4492049786
 20
40.64306261
 11
-16.3527762222
 21
40.64306261
 70
160
 71
2
 42
81.05
  3
DIMSTYLE_1
100
AcDbAlignedDimension
 13
24.6007950214
 23
-21.10693739
 14
-56.4492049786
 24
19.09306261
 50
180.0
100
AcDbRotatedDimension
  0
LINE
  5
2E8
100
AcDbEntity
  8
RACCORDO
100
AcDbLine
 62
7
  6
CONTINUOUS
 10
22.4007950214
 20
-81.85693739
 11
-50.5992049786
 21
-81.85693739
  0
LINE
  5
2E9
100
AcDbEntity
  8
ASSI
100
AcDbLine
 62
7
  6
CONTINUOUS
 10
22.4007950214
 20
-81.85693739
 11
-50.5992049786
 21
-81.85693739
  0
LINE
  5
2EA
100
AcDbEntity
  8
RACCORDO
100
AcDbLine
 62
253
  6
CONTINUOUS
 10
22.4007950214
 20
-81.65693739
 11
-50.5992049786
 21
-81.65693739
  0
LINE
  5
2EB
100
AcDbEntity
  8
ASSI
100
AcDbLine
 62
253
  6
CONTINUOUS
 10
22.4007950214
 20
-81.65693739
 11
-50.5992049786
 21
-81.65693739
  0
LINE
  5
2EC
100
AcDbEntity
  8
RACCORDO
100
AcDbLine
 62
253
  6
CONTINUOUS
 10
-51.5992049786
 20
-80.85693739
 11
-51.3992049786
 21
-80.85693739
  0
LINE
  5
2ED
100
AcDbEntity
  8
ASSI
100
AcDbLine
 62
253
  6
CONTINUOUS
 10
-51.5992049786
 20
-80.85693739
 11
-51.3992049786
 21
-80.85693739
  0
LINE
  5
2EE
100
AcDbEntity
  8
0
100
AcDbLine
 62
7
  6
CONTINUOUS
 10
-40.0992049786
 20
-80.85693739
 11
-34.0992049786
 21
-80.85693739
  0
LINE
  5
2EF
100
AcDbEntity
  8
ASSI
100
AcDbLine
 62
7
  6
CONTINUOUS
 10
-40.0992049786
 20
-80.85693739
 11
-34.0992049786
 21
-80.85693739
  0
LINE
  5
2F0
100
AcDbEntity
  8
RACCORDO
100
AcDbLine
 62
253
  6
CONTINUOUS
 10
23.4007950214
 20
-80.85693739
 11
23.2007950214
 21
-80.85693739
  0
LINE
  5
2F1
100
AcDbEntity
  8
ASSI
100
AcDbLine
 62
253
  6
CONTINUOUS
 10
23.4007950214
 20
-80.85693739
 11
23.2007950214
 21
-80.85693739
  0
LINE
  5
2F2
100
AcDbEntity
  8
0
100
AcDbLine
 62
7
  6
CONTINUOUS
 10
5.9007950214
 20
-80.85693739
 11
11.9007950214
 21
-80.85693739
  0
LINE
  5
2F3
100
AcDbEntity
  8
ASSI
100
AcDbLine
 62
7
  6
CONTINUOUS
 10
5.9007950214
 20
-80.85693739
 11
11.9007950214
 21
-80.85693739
  0
LINE
  5
2F4
100
AcDbEntity
  8
0
100
AcDbLine
 62
7
  6
CONTINUOUS
 10
21.0007950214
 20
-78.85693739
 11
-49.1992049786
 21
-78.85693739
  0
LINE
  5
2F5
100
AcDbEntity
  8
ASSI
100
AcDbLine
 62
7
  6
CONTINUOUS
 10
21.0007950214
 20
-78.85693739
 11
-49.1992049786
 21
-78.85693739
  0
LINE
  5
2F6
100
AcDbEntity
  8
RACCORDO
100
AcDbLine
 62
7
  6
CONTINUOUS
 10
-48.3992049786
 20
-78.65693739
 11
20.2007950214
 21
-78.65693739
  0
LINE
  5
2F7
100
AcDbEntity
  8
RACCORDO
100
AcDbLine
 62
253
  6
CONTINUOUS
 10
20.7007950214
 20
-78.15693739
 11
-48.8992049786
 21
-78.1569373904
  0
LINE
  5
2F8
100
AcDbEntity
  8
RACCORDO
100
AcDbLine
 62
7
  6
CONTINUOUS
 10
-51.5992049786
 20
-77.25693739
 11
-49.3492049786
 21
-77.25693739
  0
LINE
  5
2F9
100
AcDbEntity
  8
ASSI
100
AcDbLine
 62
7
  6
CONTINUOUS
 10
-51.5992049786
 20
-77.25693739
 11
-49.3492049786
 21
-77.25693739
  0
LINE
  5
2FA
100
AcDbEntity
  8
RACCORDO
100
AcDbLine
 62
253
  6
CONTINUOUS
 10
-51.5992049786
 20
-77.05693739
 11
-49.3492049786
 21
-77.05693739
  0
LINE
  5
2FB
100
AcDbEntity
  8
ASSI
100
AcDbLine
 62
253
  6
CONTINUOUS
 10
-51.5992049786
 20
-77.05693739
 11
-49.3492049786
 21
-77.05693739
  0
LINE
  5
2FC
100
AcDbEntity
  8
RACCORDO
100
AcDbLine
 62
253
  6
CONTINUOUS
 10
17.9007950214
 20
-76.85693739
 11
-46.0992049786
 21
-76.85693739
  0
LINE
  5
2FD
100
AcDbEntity
  8
RACCORDO
100
AcDbLine
 62
7
  6
CONTINUOUS
 10
17.9007950214
 20
-76.35693739
 11
-46.0992049786
 21
-76.35693739
  0
LINE
  5
2FE
100
AcDbEntity
  8
RACCORDO
100
AcDbLine
 62
253
  6
CONTINUOUS
 10
-49.3492049786
 20
-76.15693739
 11
-51.5992049786
 21
-76.15693739
  0
LINE
  5
2FF
100
AcDbEntity
  8
ASSI
100
AcDbLine
 62
253
  6
CONTINUOUS
 10
-49.3492049786
 20
-76.15693739
 11
-51.5992049786
 21
-76.15693739
  0
LINE
  5
300
100
AcDbEntity
  8
RACCORDO
100
AcDbLine
 62
7
  6
CONTINUOUS
 10
-49.3492049786
 20
-75.95693739
 11
-51.5992049786
 21
-75.95693739
  0
LINE
  5
301
100
AcDbEntity
  8
ASSI
100
AcDbLine
 62
7
  6
CONTINUOUS
 10
-49.3492049786
 20
-75.95693739
 11
-51.5992049786
 21
-75.95693739
  0
LINE
  5
302
100
AcDbEntity
  8
RACCORDO
100
AcDbLine
 62
253
  6
CONTINUOUS
 10
-47.0992049786
 20
-75.85693739
 11
-46.5992049786
 21
-75.85693739
  0
LINE
  5
303
100
AcDbEntity
  8
RACCORDO
100
AcDbLine
 62
253
  6
CONTINUOUS
 10
18.9007950214
 20
-75.85693739
 11
18.4007950214
 21
-75.85693739
  0
LINE
  5
304
100
AcDbEntity
  8
RACCORDO
100
AcDbLine
 62
7
  6
CONTINUOUS
 10
21.1507950214
 20
-75.25693739
 11
23.2007950214
 21
-75.25693739
  0
LINE
  5
305
100
AcDbEntity
  8
ASSI
100
AcDbLine
 62
7
  6
CONTINUOUS
 10
21.1507950214
 20
-75.25693739
 11
23.2007950214
 21
-75.25693739
  0
LINE
  5
306
100
AcDbEntity
  8
RACCORDO
100
AcDbLine
 62
253
  6
CONTINUOUS
 10
21.1507950214
 20
-75.05693739
 11
23.4007950214
 21
-75.05693739
  0
LINE
  5
307
100
AcDbEntity
  8
ASSI
100
AcDbLine
 62
253
  6
CONTINUOUS
 10
21.1507950214
 20
-75.05693739
 11
23.4007950214
 21
-75.05693739
  0
LINE
  5
308
100
AcDbEntity
  8
RACCORDO
100
AcDbLine
 62
253
  6
CONTINUOUS
 10
21.1507950214
 20
-74.15693739
 11
23.4007950214
 21
-74.15693739
  0
LINE
  5
309
100
AcDbEntity
  8
ASSI
100
AcDbLine
 62
253
  6
CONTINUOUS
 10
21.1507950214
 20
-74.15693739
 11
23.4007950214
 21
-74.15693739
  0
LINE
  5
30A
100
AcDbEntity
  8
RACCORDO
100
AcDbLine
 62
7
  6
CONTINUOUS
 10
21.1507950214
 20
-73.95693739
 11
23.2007950214
 21
-73.95693739
  0
LINE
  5
30B
100
AcDbEntity
  8
ASSI
100
AcDbLine
 62
7
  6
CONTINUOUS
 10
21.1507950214
 20
-73.95693739
 11
23.2007950214
 21
-73.95693739
  0
LINE
  5
30C
100
AcDbEntity
  8
0
100
AcDbLine
 62
7
  6
CONTINUOUS
 10
-56.4491681506
 20
-66.60693739
 11
-50.7492049786
 21
-66.60693739
  0
LINE
  5
30D
100
AcDbEntity
  8
ASSI
100
AcDbLine
 62
7
  6
CONTINUOUS
 10
-56.4491681506
 20
-66.60693739
 11
-50.7492049786
 21
-66.60693739
  0
LINE
  5
30E
100
AcDbEntity
  8
0
100
AcDbLine
 62
7
  6
CONTINUOUS
 10
-50.527967443
 20
-62.90693739
 11
-56.4491681506
 21
-62.90693739
  0
LINE
  5
30F
100
AcDbEntity
  8
ASSI
100
AcDbLine
 62
7
  6
CONTINUOUS
 10
-50.527967443
 20
-62.90693739
 11
-56.4491681506
 21
-62.90693739
  0
LINE
  5
310
100
AcDbEntity
  8
RACCORDO
100
AcDbLine
 62
7
  6
CONTINUOUS
 10
-50.527967443
 20
-48.90693739
 11
-51.5983961726
 21
-48.90693739
  0
LINE
  5
311
100
AcDbEntity
  8
ASSI
100
AcDbLine
 62
7
  6
CONTINUOUS
 10
-50.527967443
 20
-48.90693739
 11
-51.5983961726
 21
-48.90693739
  0
LINE
  5
312
100
AcDbEntity
  8
0
100
AcDbLine
 62
7
  6
CONTINUOUS
 10
-56.4492049786
 20
19.09306261
 11
-56.4492049786
 21
15.39306261
  0
LINE
  5
313
100
AcDbEntity
  8
ASSI
100
AcDbLine
 62
7
  6
CONTINUOUS
 10
-56.4492049786
 20
19.09306261
 11
-56.4492049786
 21
15.39306261
  0
LINE
  5
314
100
AcDbEntity
  8
0
100
AcDbLine
 62
7
  6
CONTINUOUS
 10
-56.4492049786
 20
-62.90693739
 11
-56.4492049786
 21
-66.60693739
  0
LINE
  5
315
100
AcDbEntity
  8
ASSI
100
AcDbLine
 62
7
  6
CONTINUOUS
 10
-56.4492049786
 20
-62.90693739
 11
-56.4492049786
 21
-66.60693739
  0
LINE
  5
316
100
AcDbEntity
  8
RACCORDO
100
AcDbLine
 62
7
  6
CONTINUOUS
 10
-51.5992049786
 20
31.64306261
 11
-51.5992049786
 21
19.09306261
  0
LINE
  5
317
100
AcDbEntity
  8
ASSI
100
AcDbLine
 62
7
  6
CONTINUOUS
 10
-51.5992049786
 20
31.64306261
 11
-51.5992049786
 21
19.09306261
  0
LINE
  5
318
100
AcDbEntity
  8
0
100
AcDbLine
 62
7
  6
CONTINUOUS
 10
-51.5992049786
 20
-48.90693739
 11
-51.5992049786
 21
-62.90693739
  0
LINE
  5
319
100
AcDbEntity
  8
RACCORDO
100
AcDbLine
 62
7
  6
CONTINUOUS
 10
-51.5992049786
 20
-48.90693739
 11
-51.5992049786
 21
15.39306261
  0
LINE
  5
31A
100
AcDbEntity
  8
ASSI
100
AcDbLine
 62
7
  6
CONTINUOUS
 10
-51.5992049786
 20
-62.90693739
 11
-51.5992049786
 21
15.39306261
  0
LINE
  5
31B
100
AcDbEntity
  8
RACCORDO
100
AcDbLine
 62
7
  6
CONTINUOUS
 10
-51.5992049786
 20
-66.60693739
 11
-51.5992049786
 21
-80.85693739
  0
LINE
  5
31C
100
AcDbEntity
  8
ASSI
100
AcDbLine
 62
7
  6
CONTINUOUS
 10
-51.5992049786
 20
-66.60693739
 11
-51.5992049786
 21
-80.85693739
  0
LINE
  5
31D
100
AcDbEntity
  8
RACCORDO
100
AcDbLine
 62
253
  6
CONTINUOUS
 10
-51.3992049786
 20
-80.85693739
 11
-51.3992049786
 21
-77.25693739
  0
LINE
  5
31E
100
AcDbEntity
  8
ASSI
100
AcDbLine
 62
253
  6
CONTINUOUS
 10
-51.3992049786
 20
-80.85693739
 11
-51.3992049786
 21
-77.25693739
  0
LINE
  5
31F
100
AcDbEntity
  8
RACCORDO
100
AcDbLine
 62
253
  6
CONTINUOUS
 10
-51.3992049786
 20
-75.95693739
 11
-51.3992049786
 21
-66.60693739
  0
LINE
  5
320
100
AcDbEntity
  8
ASSI
100
AcDbLine
 62
253
  6
CONTINUOUS
 10
-51.3992049786
 20
-75.95693739
 11
-51.3992049786
 21
-66.60693739
  0
LINE
  5
321
100
AcDbEntity
  8
RACCORDO
100
AcDbLine
 62
253
  6
CONTINUOUS
 10
-51.3992049786
 20
-48.90693739
 11
-51.3992049786
 21
4.74306261
  0
LINE
  5
322
100
AcDbEntity
  8
ASSI
100
AcDbLine
 62
253
  6
CONTINUOUS
 10
-51.3992049786
 20
-48.90693739
 11
-51.3992049786
 21
4.74306261
  0
LINE
  5
323
100
AcDbEntity
  8
RACCORDO
100
AcDbLine
 62
253
  6
CONTINUOUS
 10
-51.3992049786
 20
6.04306261
 11
-51.3992049786
 21
15.39306261
  0
LINE
  5
324
100
AcDbEntity
  8
ASSI
100
AcDbLine
 62
253
  6
CONTINUOUS
 10
-51.3992049786
 20
6.04306261
 11
-51.3992049786
 21
15.39306261
  0
LINE
  5
325
100
AcDbEntity
  8
RACCORDO
100
AcDbLine
 62
7
  6
CONTINUOUS
 10
23.2007950214
 20
-28.10693739
 11
24.6007950214
 21
-28.10693739
  0
LINE
  5
326
100
AcDbEntity
  8
ASSI
100
AcDbLine
 62
7
  6
CONTINUOUS
 10
23.2007950214
 20
-28.10693739
 11
24.6007950214
 21
-28.10693739
  0
LWPOLYLINE
  5
327
100
AcDbEntity
  8
RACCORDO
100
AcDbPolyline
 62
7
  6
CONTINUOUS
 90
22
 70
0
 10
-50.527967443
 20
32.44306261
 10
-50.5280902372
 20
32.4577318637
 10
-50.5284533555
 20
32.4722043946
 10
-50.529058431
 20
32.4864802028
 10
-50.5299099424
 20
32.5006247968
 10
-50.5310099376
 20
32.5145726679
 10
-50.5323579141
 20
32.5281272905
 10
-50.5339621799
 20
32.5412967164
 10
-50.5358271005
 20
32.5540728936
 10
-50.5379472723
 20
32.5662351409
 10
-50.5403490429
 20
32.5778145375
 10
-50.5430241895
 20
32.5887800042
 10
-50.5459135078
 20
32.5988176213
 10
-50.5490195396
 20
32.6078576939
 10
-50.5523556126
 20
32.615969917
 10
-50.555873826
 20
32.623049456
 10
-50.5595793186
 20
32.6290824049
 10
-50.5634795742
 20
32.6340826696
 10
-50.5675250619
 20
32.6379871342
 10
-50.571700646
 20
32.6407747597
 10
-50.5760286884
 20
32.642466585
 10
-50.580513209
 20
32.64306261
  0
LWPOLYLINE
  5
328
100
AcDbEntity
  8
ASSI
100
AcDbPolyline
 62
7
  6
CONTINUOUS
 90
22
 70
0
 10
-50.527967443
 20
32.44306261
 10
-50.5280902372
 20
32.4577318637
 10
-50.5284533555
 20
32.4722043946
 10
-50.529058431
 20
32.4864802028
 10
-50.5299099424
 20
32.5006247968
 10
-50.5310099376
 20
32.5145726679
 10
-50.5323579141
 20
32.5281272905
 10
-50.5339621799
 20
32.5412967164
 10
-50.5358271005
 20
32.5540728936
 10
-50.5379472723
 20
32.5662351409
 10
-50.5403490429
 20
32.5778145375
 10
-50.5430241895
 20
32.5887800042
 10
-50.5459135078
 20
32.5988176213
 10
-50.5490195396
 20
32.6078576939
 10
-50.5523556126
 20
32.615969917
 10
-50.555873826
 20
32.623049456
 10
-50.5595793186
 20
32.6290824049
 10
-50.5634795742
 20
32.6340826696
 10
-50.5675250619
 20
32.6379871342
 10
-50.571700646
 20
32.6407747597
 10
-50.5760286884
 20
32.642466585
 10
-50.580513209
 20
32.64306261
  0
LINE
  5
329
100
AcDbEntity
  8
0
100
AcDbLine
 62
7
  6
CONTINUOUS
 10
-50.7492049786
 20
19.09306261
 11
-50.7492049786
 21
15.39306261
  0
LINE
  5
32A
100
AcDbEntity
  8
ASSI
100
AcDbLine
 62
7
  6
CONTINUOUS
 10
-50.7492049786
 20
19.09306261
 11
-50.7492049786
 21
15.39306261
  0
LINE
  5
32B
100
AcDbEntity
  8
0
100
AcDbLine
 62
7
  6
CONTINUOUS
 10
-50.7492049786
 20
-62.90693739
 11
-50.7492049786
 21
-66.60693739
  0
LINE
  5
32C
100
AcDbEntity
  8
ASSI
100
AcDbLine
 62
7
  6
CONTINUOUS
 10
-50.7492049786
 20
-62.90693739
 11
-50.7492049786
 21
-66.60693739
  0
LINE
  5
32D
100
AcDbEntity
  8
RACCORDO
100
AcDbLine
 62
253
  6
CONTINUOUS
 10
-50.5992049786
 20
-81.85693739
 11
-50.5992049786
 21
-81.65693739
  0
LINE
  5
32E
100
AcDbEntity
  8
ASSI
100
AcDbLine
 62
253
  6
CONTINUOUS
 10
-50.5992049786
 20
-81.85693739
 11
-50.5992049786
 21
-81.65693739
  0
LINE
  5
32F
100
AcDbEntity
  8
RACCORDO
100
AcDbLine
 62
7
  6
CONTINUOUS
 10
-50.527967443
 20
32.44306261
 11
-50.527967443
 21
19.09306261
  0
LINE
  5
330
100
AcDbEntity
  8
ASSI
100
AcDbLine
 62
7
  6
CONTINUOUS
 10
-50.527967443
 20
32.44306261
 11
-50.527967443
 21
19.09306261
  0
LINE
  5
331
100
AcDbEntity
  8
0
100
AcDbLine
 62
7
  6
CONTINUOUS
 10
-50.527967443
 20
-48.90693739
 11
-50.527967443
 21
-62.90693739
  0
LINE
  5
332
100
AcDbEntity
  8
ASSI
100
AcDbLine
 62
7
  6
CONTINUOUS
 10
-50.527967443
 20
-48.90693739
 11
-50.527967443
 21
-62.90693739
  0
LINE
  5
333
100
AcDbEntity
  8
RACCORDO
100
AcDbLine
 62
7
  6
CONTINUOUS
 10
-49.3492049786
 20
4.743871416
 11
-49.3492049786
 21
6.04306261
  0
LINE
  5
334
100
AcDbEntity
  8
ASSI
100
AcDbLine
 62
7
  6
CONTINUOUS
 10
-49.3492049786
 20
4.743871416
 11
-49.3492049786
 21
6.04306261
  0
LINE
  5
335
100
AcDbEntity
  8
RACCORDO
100
AcDbLine
 62
7
  6
CONTINUOUS
 10
-49.3492049786
 20
-75.95693739
 11
-49.3492049786
 21
-77.256128584
  0
LINE
  5
336
100
AcDbEntity
  8
ASSI
100
AcDbLine
 62
7
  6
CONTINUOUS
 10
-49.3492049786
 20
-75.95693739
 11
-49.3492049786
 21
-77.256128584
  0
LINE
  5
337
100
AcDbEntity
  8
0
100
AcDbLine
 62
7
  6
CONTINUOUS
 10
-49.1992049786
 20
29.64306261
 11
-49.1992049786
 21
-78.85693739
  0
LINE
  5
338
100
AcDbEntity
  8
ASSI
100
AcDbLine
 62
7
  6
CONTINUOUS
 10
-49.1992049786
 20
29.64306261
 11
-49.1992049786
 21
-78.85693739
  0
LINE
  5
339
100
AcDbEntity
  8
RACCORDO
100
AcDbLine
 62
7
  6
CONTINUOUS
 10
-48.8992049786
 20
28.94306261
 11
-48.8992049786
 21
-78.15693739
  0
LINE
  5
33A
100
AcDbEntity
  8
RACCORDO
100
AcDbLine
 62
253
  6
CONTINUOUS
 10
-48.3992049786
 20
-78.65693739
 11
-48.399204979
 21
29.44306261
  0
LINE
  5
33B
100
AcDbEntity
  8
RACCORDO
100
AcDbLine
 62
253
  6
CONTINUOUS
 10
-47.0992049786
 20
-75.85693739
 11
-47.0992049786
 21
26.64306261
  0
LINE
  5
33C
100
AcDbEntity
  8
RACCORDO
100
AcDbLine
 62
7
  6
CONTINUOUS
 10
-46.5992049786
 20
-75.85693739
 11
-46.5992049786
 21
26.64306261
  0
LINE
  5
33D
100
AcDbEntity
  8
RACCORDO
100
AcDbLine
 62
253
  6
CONTINUOUS
 10
-46.0992049786
 20
-76.85693739
 11
-46.0992049786
 21
-76.35693739
  0
LINE
  5
33E
100
AcDbEntity
  8
RACCORDO
100
AcDbLine
 62
253
  6
CONTINUOUS
 10
-46.0992049786
 20
27.64306261
 11
-46.0992049786
 21
27.14306261
  0
LINE
  5
33F
100
AcDbEntity
  8
RACCORDO
100
AcDbLine
 62
7
  6
CONTINUOUS
 10
24.6007950214
 20
-21.10693739
 11
23.2007950214
 21
-21.10693739
  0
LINE
  5
340
100
AcDbEntity
  8
ASSI
100
AcDbLine
 62
7
  6
CONTINUOUS
 10
24.6007950214
 20
-21.10693739
 11
23.2007950214
 21
-21.10693739
  0
LINE
  5
341
100
AcDbEntity
  8
0
100
AcDbLine
 62
7
  6
CONTINUOUS
 10
-40.0992049786
 20
31.64306261
 11
-40.0992049786
 21
29.64306261
  0
LINE
  5
342
100
AcDbEntity
  8
ASSI
100
AcDbLine
 62
7
  6
CONTINUOUS
 10
-40.0992049786
 20
31.64306261
 11
-40.0992049786
 21
29.64306261
  0
LINE
  5
343
100
AcDbEntity
  8
0
100
AcDbLine
 62
7
  6
CONTINUOUS
 10
-40.0992049786
 20
-78.85693739
 11
-40.0992049786
 21
-80.85693739
  0
LINE
  5
344
100
AcDbEntity
  8
ASSI
100
AcDbLine
 62
7
  6
CONTINUOUS
 10
-40.0992049786
 20
-78.85693739
 11
-40.0992049786
 21
-80.85693739
  0
LINE
  5
345
100
AcDbEntity
  8
0
100
AcDbLine
 62
7
  6
CONTINUOUS
 10
-34.0992049786
 20
-80.85693739
 11
-34.0992049786
 21
-78.85693739
  0
LINE
  5
346
100
AcDbEntity
  8
ASSI
100
AcDbLine
 62
7
  6
CONTINUOUS
 10
-34.0992049786
 20
-80.85693739
 11
-34.0992049786
 21
-78.85693739
  0
LINE
  5
347
100
AcDbEntity
  8
0
100
AcDbLine
 62
7
  6
CONTINUOUS
 10
-34.0992049786
 20
29.64306261
 11
-34.0992049786
 21
31.64306261
  0
LINE
  5
348
100
AcDbEntity
  8
ASSI
100
AcDbLine
 62
7
  6
CONTINUOUS
 10
-34.0992049786
 20
29.64306261
 11
-34.0992049786
 21
31.64306261
  0
LINE
  5
349
100
AcDbEntity
  8
RACCORDO
100
AcDbLine
 62
7
  6
CONTINUOUS
 10
-51.5992049786
 20
4.74306261
 11
-49.3492049786
 21
4.74306261
  0
LINE
  5
34A
100
AcDbEntity
  8
ASSI
100
AcDbLine
 62
7
  6
CONTINUOUS
 10
-51.5992049786
 20
4.74306261
 11
-49.3492049786
 21
4.74306261
  0
LINE
  5
34B
100
AcDbEntity
  8
RACCORDO
100
AcDbLine
 62
253
  6
CONTINUOUS
 10
-51.5992049786
 20
4.94306261
 11
-49.3492049786
 21
4.94306261
  0
LINE
  5
34C
100
AcDbEntity
  8
ASSI
100
AcDbLine
 62
253
  6
CONTINUOUS
 10
-51.5992049786
 20
4.94306261
 11
-49.3492049786
 21
4.94306261
  0
LINE
  5
34D
100
AcDbEntity
  8
RACCORDO
100
AcDbLine
 62
253
  6
CONTINUOUS
 10
-49.3492049786
 20
5.84306261
 11
-51.5992049786
 21
5.84306261
  0
LINE
  5
34E
100
AcDbEntity
  8
ASSI
100
AcDbLine
 62
253
  6
CONTINUOUS
 10
-49.3492049786
 20
5.84306261
 11
-51.5992049786
 21
5.84306261
  0
LINE
  5
34F
100
AcDbEntity
  8
RACCORDO
100
AcDbLine
 62
7
  6
CONTINUOUS
 10
-49.3492049786
 20
6.04306261
 11
-51.5992049786
 21
6.04306261
  0
LINE
  5
350
100
AcDbEntity
  8
ASSI
100
AcDbLine
 62
7
  6
CONTINUOUS
 10
-49.3492049786
 20
6.04306261
 11
-51.5992049786
 21
6.04306261
  0
LINE
  5
351
100
AcDbEntity
  8
0
100
AcDbLine
 62
7
  6
CONTINUOUS
 10
-56.4491681506
 20
15.39306261
 11
-50.7492049786
 21
15.39306261
  0
LINE
  5
352
100
AcDbEntity
  8
ASSI
100
AcDbLine
 62
7
  6
CONTINUOUS
 10
-56.4491681506
 20
15.39306261
 11
-50.7492049786
 21
15.39306261
  0
LINE
  5
353
100
AcDbEntity
  8
0
100
AcDbLine
 62
7
  6
CONTINUOUS
 10
-50.7492049786
 20
19.09306261
 11
-56.4491681506
 21
19.09306261
  0
LINE
  5
354
100
AcDbEntity
  8
ASSI
100
AcDbLine
 62
7
  6
CONTINUOUS
 10
-50.527967443
 20
19.09306261
 11
-56.4491681506
 21
19.09306261
  0
LINE
  5
355
100
AcDbEntity
  8
RACCORDO
100
AcDbLine
 62
7
  6
CONTINUOUS
 10
21.1507950214
 20
24.74306261
 11
23.2007950214
 21
24.74306261
  0
LINE
  5
356
100
AcDbEntity
  8
ASSI
100
AcDbLine
 62
7
  6
CONTINUOUS
 10
21.1507950214
 20
24.74306261
 11
23.2007950214
 21
24.74306261
  0
LINE
  5
357
100
AcDbEntity
  8
RACCORDO
100
AcDbLine
 62
253
  6
CONTINUOUS
 10
21.1507950214
 20
24.94306261
 11
23.4007950214
 21
24.94306261
  0
LINE
  5
358
100
AcDbEntity
  8
ASSI
100
AcDbLine
 62
253
  6
CONTINUOUS
 10
21.1507950214
 20
24.94306261
 11
23.4007950214
 21
24.94306261
  0
LINE
  5
359
100
AcDbEntity
  8
RACCORDO
100
AcDbLine
 62
253
  6
CONTINUOUS
 10
21.1507950214
 20
25.84306261
 11
23.4007950214
 21
25.84306261
  0
LINE
  5
35A
100
AcDbEntity
  8
ASSI
100
AcDbLine
 62
253
  6
CONTINUOUS
 10
21.1507950214
 20
25.84306261
 11
23.4007950214
 21
25.84306261
  0
LINE
  5
35B
100
AcDbEntity
  8
RACCORDO
100
AcDbLine
 62
7
  6
CONTINUOUS
 10
21.1507950214
 20
26.04306261
 11
23.2007950214
 21
26.04306261
  0
LINE
  5
35C
100
AcDbEntity
  8
ASSI
100
AcDbLine
 62
7
  6
CONTINUOUS
 10
21.1507950214
 20
26.04306261
 11
23.2007950214
 21
26.04306261
  0
LINE
  5
35D
100
AcDbEntity
  8
RACCORDO
100
AcDbLine
 62
253
  6
CONTINUOUS
 10
-47.0992049786
 20
26.64306261
 11
-46.5992049786
 21
26.64306261
  0
LINE
  5
35E
100
AcDbEntity
  8
RACCORDO
100
AcDbLine
 62
253
  6
CONTINUOUS
 10
18.9007950214
 20
26.64306261
 11
18.4007950214
 21
26.64306261
  0
LINE
  5
35F
100
AcDbEntity
  8
0
100
AcDbLine
 62
7
  6
CONTINUOUS
 10
5.9007950214
 20
31.64306261
 11
5.9007950214
 21
29.64306261
  0
LINE
  5
360
100
AcDbEntity
  8
ASSI
100
AcDbLine
 62
7
  6
CONTINUOUS
 10
5.9007950214
 20
31.64306261
 11
5.9007950214
 21
29.64306261
  0
LINE
  5
361
100
AcDbEntity
  8
0
100
AcDbLine
 62
7
  6
CONTINUOUS
 10
5.9007950214
 20
-78.85693739
 11
5.9007950214
 21
-80.85693739
  0
LINE
  5
362
100
AcDbEntity
  8
ASSI
100
AcDbLine
 62
7
  6
CONTINUOUS
 10
5.9007950214
 20
-78.85693739
 11
5.9007950214
 21
-80.85693739
  0
LINE
  5
363
100
AcDbEntity
  8
RACCORDO
100
AcDbLine
 62
7
  6
CONTINUOUS
 10
-46.0992049786
 20
27.14306261
 11
17.9007950214
 21
27.14306261
  0
LINE
  5
364
100
AcDbEntity
  8
RACCORDO
100
AcDbLine
 62
253
  6
CONTINUOUS
 10
-46.0992049786
 20
27.64306261
 11
17.9007950214
 21
27.64306261
  0
LINE
  5
365
100
AcDbEntity
  8
RACCORDO
100
AcDbLine
 62
253
  6
CONTINUOUS
 10
20.7007950214
 20
28.9430626103
 11
-48.8992049786
 21
28.94306261
  0
LINE
  5
366
100
AcDbEntity
  8
RACCORDO
100
AcDbLine
 62
7
  6
CONTINUOUS
 10
20.2007950214
 20
29.44306261
 11
-48.3992049786
 21
29.44306261
  0
LINE
  5
367
100
AcDbEntity
  8
0
100
AcDbLine
 62
7
  6
CONTINUOUS
 10
21.0007950214
 20
29.64306261
 11
-49.1992049786
 21
29.64306261
  0
LINE
  5
368
100
AcDbEntity
  8
ASSI
100
AcDbLine
 62
7
  6
CONTINUOUS
 10
21.0007950214
 20
29.64306261
 11
-49.1992049786
 21
29.64306261
  0
LINE
  5
369
100
AcDbEntity
  8
0
100
AcDbLine
 62
7
  6
CONTINUOUS
 10
11.9007950214
 20
31.64306261
 11
5.9007950214
 21
31.64306261
  0
LINE
  5
36A
100
AcDbEntity
  8
ASSI
100
AcDbLine
 62
7
  6
CONTINUOUS
 10
11.9007950214
 20
31.64306261
 11
5.9007950214
 21
31.64306261
  0
LINE
  5
36B
100
AcDbEntity
  8
RACCORDO
100
AcDbLine
 62
253
  6
CONTINUOUS
 10
23.2007950214
 20
31.64306261
 11
23.4007950214
 21
31.6430626102
  0
LINE
  5
36C
100
AcDbEntity
  8
ASSI
100
AcDbLine
 62
253
  6
CONTINUOUS
 10
23.2007950214
 20
31.64306261
 11
23.4007950214
 21
31.6430626102
  0
LINE
  5
36D
100
AcDbEntity
  8
0
100
AcDbLine
 62
7
  6
CONTINUOUS
 10
-34.0992049786
 20
31.64306261
 11
-40.0992049786
 21
31.64306261
  0
LINE
  5
36E
100
AcDbEntity
  8
ASSI
100
AcDbLine
 62
7
  6
CONTINUOUS
 10
-34.0992049786
 20
31.64306261
 11
-40.0992049786
 21
31.64306261
  0
LINE
  5
36F
100
AcDbEntity
  8
RACCORDO
100
AcDbLine
 62
253
  6
CONTINUOUS
 10
22.4007950214
 20
32.44306261
 11
-50.527967443
 21
32.44306261
  0
LINE
  5
370
100
AcDbEntity
  8
ASSI
100
AcDbLine
 62
253
  6
CONTINUOUS
 10
22.4007950214
 20
32.44306261
 11
-50.527967443
 21
32.44306261
  0
LINE
  5
371
100
AcDbEntity
  8
RACCORDO
100
AcDbLine
 62
7
  6
CONTINUOUS
 10
-50.5992049786
 20
32.64306261
 11
-50.5866109922
 21
32.64306261
  0
LINE
  5
372
100
AcDbEntity
  8
ASSI
100
AcDbLine
 62
7
  6
CONTINUOUS
 10
-50.5992049786
 20
32.64306261
 11
-50.5866109922
 21
32.64306261
  0
LINE
  5
373
100
AcDbEntity
  8
RACCORDO
100
AcDbLine
 62
7
  6
CONTINUOUS
 10
22.4007950214
 20
32.64306261
 11
-50.5835454998
 21
32.64306261
  0
LINE
  5
374
100
AcDbEntity
  8
ASSI
100
AcDbLine
 62
7
  6
CONTINUOUS
 10
22.4007950214
 20
32.64306261
 11
-50.5835454998
 21
32.64306261
  0
LINE
  5
375
100
AcDbEntity
  8
0
100
AcDbLine
 62
7
  6
CONTINUOUS
 10
11.9007950214
 20
-80.85693739
 11
11.9007950214
 21
-78.85693739
  0
LINE
  5
376
100
AcDbEntity
  8
ASSI
100
AcDbLine
 62
7
  6
CONTINUOUS
 10
11.9007950214
 20
-80.85693739
 11
11.9007950214
 21
-78.85693739
  0
LINE
  5
377
100
AcDbEntity
  8
0
100
AcDbLine
 62
7
  6
CONTINUOUS
 10
11.9007950214
 20
29.64306261
 11
11.9007950214
 21
31.64306261
  0
LINE
  5
378
100
AcDbEntity
  8
ASSI
100
AcDbLine
 62
7
  6
CONTINUOUS
 10
11.9007950214
 20
29.64306261
 11
11.9007950214
 21
31.64306261
  0
LINE
  5
379
100
AcDbEntity
  8
RACCORDO
100
AcDbLine
 62
253
  6
CONTINUOUS
 10
17.9007950214
 20
-76.85693739
 11
17.9007950214
 21
-76.35693739
  0
LINE
  5
37A
100
AcDbEntity
  8
RACCORDO
100
AcDbLine
 62
253
  6
CONTINUOUS
 10
17.9007950214
 20
27.64306261
 11
17.9007950214
 21
27.14306261
  0
LINE
  5
37B
100
AcDbEntity
  8
RACCORDO
100
AcDbLine
 62
7
  6
CONTINUOUS
 10
18.4007950214
 20
26.64306261
 11
18.4007950214
 21
-75.85693739
  0
LINE
  5
37C
100
AcDbEntity
  8
RACCORDO
100
AcDbLine
 62
253
  6
CONTINUOUS
 10
18.9007950214
 20
26.64306261
 11
18.9007950214
 21
-75.85693739
  0
LINE
  5
37D
100
AcDbEntity
  8
RACCORDO
100
AcDbLine
 62
253
  6
CONTINUOUS
 10
20.2007950214
 20
29.44306261
 11
20.2007950217
 21
-78.65693739
  0
LINE
  5
37E
100
AcDbEntity
  8
RACCORDO
100
AcDbLine
 62
7
  6
CONTINUOUS
 10
20.7007950214
 20
-78.15693739
 11
20.7007950214
 21
28.94306261
  0
LINE
  5
37F
100
AcDbEntity
  8
0
100
AcDbLine
 62
7
  6
CONTINUOUS
 10
21.0007950214
 20
-78.85693739
 11
21.0007950214
 21
29.64306261
  0
LINE
  5
380
100
AcDbEntity
  8
ASSI
100
AcDbLine
 62
7
  6
CONTINUOUS
 10
21.0007950214
 20
-78.85693739
 11
21.0007950214
 21
29.64306261
  0
LINE
  5
381
100
AcDbEntity
  8
RACCORDO
100
AcDbLine
 62
7
  6
CONTINUOUS
 10
21.1507950214
 20
24.74306261
 11
21.1507950214
 21
26.04306261
  0
LINE
  5
382
100
AcDbEntity
  8
ASSI
100
AcDbLine
 62
7
  6
CONTINUOUS
 10
21.1507950214
 20
24.74306261
 11
21.1507950214
 21
26.04306261
  0
LINE
  5
383
100
AcDbEntity
  8
RACCORDO
100
AcDbLine
 62
7
  6
CONTINUOUS
 10
21.1507950214
 20
-73.95693739
 11
21.1507950214
 21
-75.25693739
  0
LINE
  5
384
100
AcDbEntity
  8
ASSI
100
AcDbLine
 62
7
  6
CONTINUOUS
 10
21.1507950214
 20
-73.95693739
 11
21.1507950214
 21
-75.25693739
  0
LINE
  5
385
100
AcDbEntity
  8
RACCORDO
100
AcDbLine
 62
253
  6
CONTINUOUS
 10
22.4007950214
 20
-81.85693739
 11
22.4007950214
 21
-81.65693739
  0
LINE
  5
386
100
AcDbEntity
  8
ASSI
100
AcDbLine
 62
253
  6
CONTINUOUS
 10
22.4007950214
 20
-81.85693739
 11
22.4007950214
 21
-81.65693739
  0
LINE
  5
387
100
AcDbEntity
  8
RACCORDO
100
AcDbLine
 62
253
  6
CONTINUOUS
 10
22.4007950214
 20
24.74306261
 11
22.4007950214
 21
26.04306261
  0
LINE
  5
388
100
AcDbEntity
  8
ASSI
100
AcDbLine
 62
253
  6
CONTINUOUS
 10
22.4007950214
 20
24.74306261
 11
22.4007950214
 21
26.04306261
  0
LINE
  5
389
100
AcDbEntity
  8
RACCORDO
100
AcDbLine
 62
253
  6
CONTINUOUS
 10
22.4007950214
 20
32.44306261
 11
22.4007950214
 21
32.64306261
  0
LINE
  5
38A
100
AcDbEntity
  8
ASSI
100
AcDbLine
 62
253
  6
CONTINUOUS
 10
22.4007950214
 20
32.44306261
 11
22.4007950214
 21
32.64306261
  0
LINE
  5
38B
100
AcDbEntity
  8
RACCORDO
100
AcDbLine
 62
253
  6
CONTINUOUS
 10
22.4007950214
 20
-73.95693739
 11
22.4007950214
 21
-75.25693739
  0
LINE
  5
38C
100
AcDbEntity
  8
ASSI
100
AcDbLine
 62
253
  6
CONTINUOUS
 10
22.4007950214
 20
-73.95693739
 11
22.4007950214
 21
-75.25693739
  0
LINE
  5
38D
100
AcDbEntity
  8
RACCORDO
100
AcDbLine
 62
253
  6
CONTINUOUS
 10
23.2007950214
 20
-73.95693739
 11
23.2007950214
 21
-28.10693739
  0
LINE
  5
38E
100
AcDbEntity
  8
ASSI
100
AcDbLine
 62
253
  6
CONTINUOUS
 10
23.2007950214
 20
-73.95693739
 11
23.2007950214
 21
-28.10693739
  0
LINE
  5
38F
100
AcDbEntity
  8
RACCORDO
100
AcDbLine
 62
253
  6
CONTINUOUS
 10
23.2007950214
 20
-21.10693739
 11
23.2007950214
 21
24.74306261
  0
LINE
  5
390
100
AcDbEntity
  8
ASSI
100
AcDbLine
 62
253
  6
CONTINUOUS
 10
23.2007950214
 20
-21.10693739
 11
23.2007950214
 21
24.74306261
  0
LINE
  5
391
100
AcDbEntity
  8
RACCORDO
100
AcDbLine
 62
253
  6
CONTINUOUS
 10
23.2007950214
 20
26.04306261
 11
23.2007950214
 21
31.64306261
  0
LINE
  5
392
100
AcDbEntity
  8
ASSI
100
AcDbLine
 62
253
  6
CONTINUOUS
 10
23.2007950214
 20
26.04306261
 11
23.2007950214
 21
31.64306261
  0
LINE
  5
393
100
AcDbEntity
  8
RACCORDO
100
AcDbLine
 62
253
  6
CONTINUOUS
 10
23.2007950214
 20
-75.25693739
 11
23.2007950214
 21
-80.85693739
  0
LINE
  5
394
100
AcDbEntity
  8
ASSI
100
AcDbLine
 62
253
  6
CONTINUOUS
 10
23.2007950214
 20
-75.25693739
 11
23.2007950214
 21
-80.85693739
  0
LINE
  5
395
100
AcDbEntity
  8
RACCORDO
100
AcDbLine
 62
7
  6
CONTINUOUS
 10
23.4007950214
 20
-21.10693739
 11
23.4007950214
 21
31.64306261
  0
LINE
  5
396
100
AcDbEntity
  8
ASSI
100
AcDbLine
 62
7
  6
CONTINUOUS
 10
23.4007950214
 20
-21.10693739
 11
23.4007950214
 21
31.64306261
  0
LINE
  5
397
100
AcDbEntity
  8
RACCORDO
100
AcDbLine
 62
7
  6
CONTINUOUS
 10
23.4007950214
 20
-28.10693739
 11
23.4007950214
 21
-80.85693739
  0
LINE
  5
398
100
AcDbEntity
  8
ASSI
100
AcDbLine
 62
7
  6
CONTINUOUS
 10
23.4007950214
 20
-28.10693739
 11
23.4007950214
 21
-80.85693739
  0
LINE
  5
399
100
AcDbEntity
  8
0
100
AcDbLine
 62
7
  6
CONTINUOUS
 10
24.6007950214
 20
-21.10693739
 11
24.6007950214
 21
-28.10693739
  0
LINE
  5
39A
100
AcDbEntity
  8
ASSI
100
AcDbLine
 62
7
  6
CONTINUOUS
 10
24.6007950214
 20
-21.10693739
 11
24.6007950214
 21
-28.10693739
  0
LINE
  5
39B
100
AcDbEntity
  8
RACCORDO
100
AcDbLine
 62
253
  6
CONTINUOUS
 10
-121.1517495002
 20
-77.2466112895
 11
-121.1681561469
 21
-77.2504242973
  0
LINE
  5
39C
100
AcDbEntity
  8
ASSI
100
AcDbLine
 62
253
  6
CONTINUOUS
 10
-121.1517495002
 20
-77.2466112895
 11
-121.1681561469
 21
-77.2504242973
  0
LINE
  5
39D
100
AcDbEntity
  8
RACCORDO
100
AcDbLine
 62
7
  6
CONTINUOUS
 10
-149.6234564504
 20
-81.85693739
 11
-147.3234564504
 21
-81.85693739
  0
LINE
  5
39E
100
AcDbEntity
  8
ASSI
100
AcDbLine
 62
7
  6
CONTINUOUS
 10
-149.6234564504
 20
-81.85693739
 11
-147.3234564504
 21
-81.85693739
  0
LINE
  5
39F
100
AcDbEntity
  8
RACCORDO
100
AcDbLine
 62
253
  6
CONTINUOUS
 10
-147.3234564504
 20
-80.85693739
 11
-149.8234564504
 21
-80.85693739
  0
LINE
  5
3A0
100
AcDbEntity
  8
ASSI
100
AcDbLine
 62
253
  6
CONTINUOUS
 10
-147.3234564504
 20
-80.85693739
 11
-149.8234564504
 21
-80.85693739
  0
LINE
  5
3A1
100
AcDbEntity
  8
RACCORDO
100
AcDbLine
 62
7
  6
CONTINUOUS
 10
-147.0234564504
 20
-80.48193739
 11
-147.3234564504
 21
-80.48193739
  0
LINE
  5
3A2
100
AcDbEntity
  8
RACCORDO
100
AcDbLine
 62
253
  6
CONTINUOUS
 10
-124.3824666566
 20
-76.7359197695
 11
-124.4482451206
 21
-76.7445311537
  0
LINE
  5
3A3
100
AcDbEntity
  8
ASSI
100
AcDbLine
 62
253
  6
CONTINUOUS
 10
-124.3824666566
 20
-76.7359197695
 11
-124.4482451206
 21
-76.7445311537
  0
LWPOLYLINE
  5
3A4
100
AcDbEntity
  8
RACCORDO
100
AcDbPolyline
 62
253
  6
CONTINUOUS
 90
10
 70
0
 10
-123.673419897
 20
-76.5503055256
 10
-123.6844942146
 20
-76.5516546186
 10
-123.6957204435
 20
-76.5528515556
 10
-123.7070812529
 20
-76.5538963367
 10
-123.7185571698
 20
-76.5547901602
 10
-123.7301323609
 20
-76.5555318277
 10
-123.7417948096
 20
-76.5561177439
 10
-123.7535285468
 20
-76.5565467105
 10
-123.7653135282
 20
-76.5568199259
 10
-123.7771315218
 20
-76.55693739
  0
LWPOLYLINE
  5
3A5
100
AcDbEntity
  8
ASSI
100
AcDbPolyline
 62
253
  6
CONTINUOUS
 90
10
 70
0
 10
-123.673419897
 20
-76.5503055256
 10
-123.6844942146
 20
-76.5516546186
 10
-123.6957204435
 20
-76.5528515556
 10
-123.7070812529
 20
-76.5538963367
 10
-123.7185571698
 20
-76.5547901602
 10
-123.7301323609
 20
-76.5555318277
 10
-123.7417948096
 20
-76.5561177439
 10
-123.7535285468
 20
-76.5565467105
 10
-123.7653135282
 20
-76.5568199259
 10
-123.7771315218
 20
-76.55693739
  0
LINE
  5
3A6
100
AcDbEntity
  8
RACCORDO
100
AcDbLine
 62
253
  6
CONTINUOUS
 10
-124.4482451206
 20
-76.7445311537
 11
-124.5189832665
 21
-76.753169159
  0
LINE
  5
3A7
100
AcDbEntity
  8
ASSI
100
AcDbLine
 62
253
  6
CONTINUOUS
 10
-124.4482451206
 20
-76.7445311537
 11
-124.5189832665
 21
-76.753169159
  0
LINE
  5
3A8
100
AcDbEntity
  8
RACCORDO
100
AcDbLine
 62
253
  6
CONTINUOUS
 10
-124.5189832665
 20
-76.753169159
 11
-124.5946038917
 21
-76.761778402
  0
LINE
  5
3A9
100
AcDbEntity
  8
ASSI
100
AcDbLine
 62
253
  6
CONTINUOUS
 10
-124.5189832665
 20
-76.753169159
 11
-124.5946038917
 21
-76.761778402
  0
LINE
  5
3AA
100
AcDbEntity
  8
RACCORDO
100
AcDbLine
 62
253
  6
CONTINUOUS
 10
-124.5946038917
 20
-76.761778402
 11
-124.6750239562
 21
-76.7703072364
  0
LINE
  5
3AB
100
AcDbEntity
  8
ASSI
100
AcDbLine
 62
253
  6
CONTINUOUS
 10
-124.5946038917
 20
-76.761778402
 11
-124.6750239562
 21
-76.7703072364
  0
LINE
  5
3AC
100
AcDbEntity
  8
RACCORDO
100
AcDbLine
 62
253
  6
CONTINUOUS
 10
-124.6750239562
 20
-76.7703072364
 11
-124.7611755024
 21
-76.7788070825
  0
LINE
  5
3AD
100
AcDbEntity
  8
ASSI
100
AcDbLine
 62
253
  6
CONTINUOUS
 10
-124.6750239562
 20
-76.7703072364
 11
-124.7611755024
 21
-76.7788070825
  0
LINE
  5
3AE
100
AcDbEntity
  8
RACCORDO
100
AcDbLine
 62
253
  6
CONTINUOUS
 10
-124.7611755024
 20
-76.7788070825
 11
-124.8535571718
 21
-76.7872688521
  0
LINE
  5
3AF
100
AcDbEntity
  8
ASSI
100
AcDbLine
 62
253
  6
CONTINUOUS
 10
-124.7611755024
 20
-76.7788070825
 11
-124.8535571718
 21
-76.7872688521
  0
LINE
  5
3B0
100
AcDbEntity
  8
RACCORDO
100
AcDbLine
 62
253
  6
CONTINUOUS
 10
-124.8535571718
 20
-76.7872688521
 11
-124.9535701227
 21
-76.7957407592
  0
LINE
  5
3B1
100
AcDbEntity
  8
ASSI
100
AcDbLine
 62
253
  6
CONTINUOUS
 10
-124.8535571718
 20
-76.7872688521
 11
-124.9535701227
 21
-76.7957407592
  0
LINE
  5
3B2
100
AcDbEntity
  8
RACCORDO
100
AcDbLine
 62
253
  6
CONTINUOUS
 10
-124.9535701227
 20
-76.7957407592
 11
-125.0584706187
 21
-76.8039389355
  0
LINE
  5
3B3
100
AcDbEntity
  8
ASSI
100
AcDbLine
 62
253
  6
CONTINUOUS
 10
-124.9535701227
 20
-76.7957407592
 11
-125.0584706187
 21
-76.8039389355
  0
LINE
  5
3B4
100
AcDbEntity
  8
RACCORDO
100
AcDbLine
 62
253
  6
CONTINUOUS
 10
-125.0584706187
 20
-76.8039389355
 11
-125.1659862197
 21
-76.8116635695
  0
LINE
  5
3B5
100
AcDbEntity
  8
ASSI
100
AcDbLine
 62
253
  6
CONTINUOUS
 10
-125.0584706187
 20
-76.8039389355
 11
-125.1659862197
 21
-76.8116635695
  0
LINE
  5
3B6
100
AcDbEntity
  8
RACCORDO
100
AcDbLine
 62
253
  6
CONTINUOUS
 10
-125.1659862197
 20
-76.8116635695
 11
-125.2708576499
 21
-76.8185867399
  0
LINE
  5
3B7
100
AcDbEntity
  8
ASSI
100
AcDbLine
 62
253
  6
CONTINUOUS
 10
-125.1659862197
 20
-76.8116635695
 11
-125.2708576499
 21
-76.8185867399
  0
LINE
  5
3B8
100
AcDbEntity
  8
RACCORDO
100
AcDbLine
 62
253
  6
CONTINUOUS
 10
-125.2708576499
 20
-76.8185867399
 11
-125.3710660086
 21
-76.8246751432
  0
LINE
  5
3B9
100
AcDbEntity
  8
ASSI
100
AcDbLine
 62
253
  6
CONTINUOUS
 10
-125.2708576499
 20
-76.8185867399
 11
-125.3710660086
 21
-76.8246751432
  0
LINE
  5
3BA
100
AcDbEntity
  8
RACCORDO
100
AcDbLine
 62
253
  6
CONTINUOUS
 10
-125.3710660086
 20
-76.8246751432
 11
-125.4660959174
 21
-76.8299855729
  0
LINE
  5
3BB
100
AcDbEntity
  8
ASSI
100
AcDbLine
 62
253
  6
CONTINUOUS
 10
-125.3710660086
 20
-76.8246751432
 11
-125.4660959174
 21
-76.8299855729
  0
LINE
  5
3BC
100
AcDbEntity
  8
RACCORDO
100
AcDbLine
 62
253
  6
CONTINUOUS
 10
-125.4660959174
 20
-76.8299855729
 11
-125.6009918479
 21
-76.8367811482
  0
LINE
  5
3BD
100
AcDbEntity
  8
ASSI
100
AcDbLine
 62
253
  6
CONTINUOUS
 10
-125.4660959174
 20
-76.8299855729
 11
-125.6009918479
 21
-76.8367811482
  0
LINE
  5
3BE
100
AcDbEntity
  8
RACCORDO
100
AcDbLine
 62
253
  6
CONTINUOUS
 10
-125.6009918479
 20
-76.8367811482
 11
-125.7297150404
 21
-76.8424577362
  0
LINE
  5
3BF
100
AcDbEntity
  8
ASSI
100
AcDbLine
 62
253
  6
CONTINUOUS
 10
-125.6009918479
 20
-76.8367811482
 11
-125.7297150404
 21
-76.8424577362
  0
LINE
  5
3C0
100
AcDbEntity
  8
RACCORDO
100
AcDbLine
 62
253
  6
CONTINUOUS
 10
-125.7297150404
 20
-76.8424577362
 11
-125.8552003234
 21
-76.8472158494
  0
LINE
  5
3C1
100
AcDbEntity
  8
ASSI
100
AcDbLine
 62
253
  6
CONTINUOUS
 10
-125.7297150404
 20
-76.8424577362
 11
-125.8552003234
 21
-76.8472158494
  0
LINE
  5
3C2
100
AcDbEntity
  8
RACCORDO
100
AcDbLine
 62
253
  6
CONTINUOUS
 10
-125.8552003234
 20
-76.8472158494
 11
-125.9378400517
 21
-76.8499096053
  0
LINE
  5
3C3
100
AcDbEntity
  8
ASSI
100
AcDbLine
 62
253
  6
CONTINUOUS
 10
-125.8552003234
 20
-76.8472158494
 11
-125.9378400517
 21
-76.8499096053
  0
LINE
  5
3C4
100
AcDbEntity
  8
RACCORDO
100
AcDbLine
 62
253
  6
CONTINUOUS
 10
-122.4324550467
 20
-77.5216270969
 11
-122.4446902444
 21
-77.5221802647
  0
LINE
  5
3C5
100
AcDbEntity
  8
ASSI
100
AcDbLine
 62
253
  6
CONTINUOUS
 10
-122.4324550467
 20
-77.5216270969
 11
-122.4446902444
 21
-77.5221802647
  0
LINE
  5
3C6
100
AcDbEntity
  8
RACCORDO
100
AcDbLine
 62
253
  6
CONTINUOUS
 10
-125.9378400517
 20
-76.8499096053
 11
-126.0201204233
 21
-76.8522231221
  0
LINE
  5
3C7
100
AcDbEntity
  8
ASSI
100
AcDbLine
 62
253
  6
CONTINUOUS
 10
-125.9378400517
 20
-76.8499096053
 11
-126.0201204233
 21
-76.8522231221
  0
LWPOLYLINE
  5
3C8
100
AcDbEntity
  8
RACCORDO
100
AcDbPolyline
 62
7
  6
CONTINUOUS
 90
12
 70
0
 10
-122.5166519852
 20
-77.5239370468
 10
-122.4446902444
 20
-77.5221802647
 10
-122.302143706
 20
-77.5157355674
 10
-122.1628996963
 20
-77.5055385456
 10
-122.0269614256
 20
-77.4917120915
 10
-121.8944262428
 20
-77.4743591319
 10
-121.7654914695
 20
-77.4535528176
 10
-121.6401642861
 20
-77.4293295317
 10
-121.5185643063
 20
-77.4016831769
 10
-121.4010483965
 20
-77.370667231
 10
-121.2877965291
 20
-77.3362453942
 10
-121.1788049935
 20
-77.2983044816
  0
LWPOLYLINE
  5
3C9
100
AcDbEntity
  8
ASSI
100
AcDbPolyline
 62
7
  6
CONTINUOUS
 90
12
 70
0
 10
-122.5166519852
 20
-77.5239370468
 10
-122.4446902444
 20
-77.5221802647
 10
-122.302143706
 20
-77.5157355674
 10
-122.1628996963
 20
-77.5055385456
 10
-122.0269614256
 20
-77.4917120915
 10
-121.8944262428
 20
-77.4743591319
 10
-121.7654914695
 20
-77.4535528176
 10
-121.6401642861
 20
-77.4293295317
 10
-121.5185643063
 20
-77.4016831769
 10
-121.4010483965
 20
-77.370667231
 10
-121.2877965291
 20
-77.3362453942
 10
-121.1788049935
 20
-77.2983044816
  0
LINE
  5
3CA
100
AcDbEntity
  8
RACCORDO
100
AcDbLine
 62
253
  6
CONTINUOUS
 10
-126.0201204233
 20
-76.8522231221
 11
-126.1023522111
 21
-76.8541334658
  0
LINE
  5
3CB
100
AcDbEntity
  8
ASSI
100
AcDbLine
 62
253
  6
CONTINUOUS
 10
-126.0201204233
 20
-76.8522231221
 11
-126.1023522111
 21
-76.8541334658
  0
LINE
  5
3CC
100
AcDbEntity
  8
DRAFT
100
AcDbLine
 62
7
  6
CONTINUOUS
 10
-146.9734564504
 20
-78.1208281173
 11
-138.3234564504
 21
-77.9698418057
  0
LINE
  5
3CD
100
AcDbEntity
  8
ASSI
100
AcDbLine
 62
7
  6
CONTINUOUS
 10
-146.9734564504
 20
-78.1208281173
 11
-138.3234564504
 21
-77.9698418057
  0
LINE
  5
3CE
100
AcDbEntity
  8
RACCORDO
100
AcDbLine
 62
7
  6
CONTINUOUS
 10
-121.2199659691
 20
-77.5012992688
 11
-146.9734564504
 21
-77.9508281173
  0
LINE
  5
3CF
100
AcDbEntity
  8
ASSI
100
AcDbLine
 62
7
  6
CONTINUOUS
 10
-121.2199659691
 20
-77.5012992688
 11
-146.9734564504
 21
-77.9508281173
  0
LINE
  5
3D0
100
AcDbEntity
  8
RACCORDO
100
AcDbLine
 62
253
  6
CONTINUOUS
 10
-123.673419897
 20
-76.550305529
 11
-121.1440526876
 21
-76.5067518617
  0
LINE
  5
3D1
100
AcDbEntity
  8
ASSI
100
AcDbLine
 62
253
  6
CONTINUOUS
 10
-123.673419897
 20
-76.550305529
 11
-121.1440526876
 21
-76.5067518617
  0
LINE
  5
3D2
100
AcDbEntity
  8
RACCORDO
100
AcDbLine
 62
253
  6
CONTINUOUS
 10
-146.9734564504
 20
-76.9515102596
 11
-136.2277209774
 21
-76.7664803553
  0
LINE
  5
3D3
100
AcDbEntity
  8
ASSI
100
AcDbLine
 62
253
  6
CONTINUOUS
 10
-146.9734564504
 20
-76.9515102596
 11
-136.2277209774
 21
-76.7664803553
  0
LINE
  5
3D4
100
AcDbEntity
  8
RACCORDO
100
AcDbLine
 62
253
  6
CONTINUOUS
 10
-126.1023522111
 20
-76.8541334658
 11
-126.1850745689
 21
-76.8556062658
  0
LINE
  5
3D5
100
AcDbEntity
  8
ASSI
100
AcDbLine
 62
253
  6
CONTINUOUS
 10
-126.1023522111
 20
-76.8541334658
 11
-126.1850745689
 21
-76.8556062658
  0
LINE
  5
3D6
100
AcDbEntity
  8
RACCORDO
100
AcDbLine
 62
253
  6
CONTINUOUS
 10
-126.1850745689
 20
-76.8556062658
 11
-126.268937487
 21
-76.856581351
  0
LINE
  5
3D7
100
AcDbEntity
  8
ASSI
100
AcDbLine
 62
253
  6
CONTINUOUS
 10
-126.1850745689
 20
-76.8556062658
 11
-126.268937487
 21
-76.856581351
  0
LINE
  5
3D8
100
AcDbEntity
  8
RACCORDO
100
AcDbLine
 62
253
  6
CONTINUOUS
 10
-126.268937487
 20
-76.856581351
 11
-126.3541333779
 21
-76.85693739
  0
LINE
  5
3D9
100
AcDbEntity
  8
ASSI
100
AcDbLine
 62
253
  6
CONTINUOUS
 10
-126.268937487
 20
-76.856581351
 11
-126.3541333779
 21
-76.85693739
  0
LINE
  5
3DA
100
AcDbEntity
  8
RACCORDO
100
AcDbLine
 62
253
  6
CONTINUOUS
 10
-146.9734564504
 20
-79.85693739
 11
-147.3234564504
 21
-79.85693739
  0
LINE
  5
3DB
100
AcDbEntity
  8
RACCORDO
100
AcDbLine
 62
7
  6
CONTINUOUS
 10
-150.4234564504
 20
-78.65693739
 11
-149.8234564504
 21
-78.65693739
  0
LINE
  5
3DC
100
AcDbEntity
  8
RACCORDO
100
AcDbLine
 62
253
  6
CONTINUOUS
 10
-150.9234564504
 20
-78.15693739
 11
-149.8234564504
 21
-78.15693739
  0
LINE
  5
3DD
100
AcDbEntity
  8
RACCORDO
100
AcDbLine
 62
253
  6
CONTINUOUS
 10
-121.0234564504
 20
-77.3013297298
 11
-121.1876443391
 21
-77.3013297298
  0
LINE
  5
3DE
100
AcDbEntity
  8
ASSI
100
AcDbLine
 62
253
  6
CONTINUOUS
 10
-121.0234564504
 20
-77.3013297298
 11
-121.1876443391
 21
-77.3013297298
  0
LINE
  5
3DF
100
AcDbEntity
  8
RACCORDO
100
AcDbLine
 62
7
  6
CONTINUOUS
 10
-126.3541333779
 20
-76.85693739
 11
-135.7234564504
 21
-76.85693739
  0
LINE
  5
3E0
100
AcDbEntity
  8
ASSI
100
AcDbLine
 62
7
  6
CONTINUOUS
 10
-126.3541333779
 20
-76.85693739
 11
-135.7234564504
 21
-76.85693739
  0
LINE
  5
3E1
100
AcDbEntity
  8
RACCORDO
100
AcDbLine
 62
253
  6
CONTINUOUS
 10
-123.7770363638
 20
-76.55693739
 11
-136.2656545508
 21
-76.55693739
  0
LINE
  5
3E2
100
AcDbEntity
  8
ASSI
100
AcDbLine
 62
253
  6
CONTINUOUS
 10
-123.7770363638
 20
-76.55693739
 11
-136.2656545508
 21
-76.55693739
  0
LINE
  5
3E3
100
AcDbEntity
  8
RACCORDO
100
AcDbLine
 62
253
  6
CONTINUOUS
 10
-121.0234564504
 20
-76.506751861
 11
-121.1440527301
 21
-76.5067518625
  0
LINE
  5
3E4
100
AcDbEntity
  8
ASSI
100
AcDbLine
 62
253
  6
CONTINUOUS
 10
-121.0234564504
 20
-76.506751861
 11
-121.1440527301
 21
-76.5067518625
  0
LINE
  5
3E5
100
AcDbEntity
  8
RACCORDO
100
AcDbLine
 62
7
  6
CONTINUOUS
 10
-150.9234564504
 20
-75.25693739
 11
-149.8234564504
 21
-75.25693739
  0
LINE
  5
3E6
100
AcDbEntity
  8
ASSI
100
AcDbLine
 62
7
  6
CONTINUOUS
 10
-150.9234564504
 20
-75.25693739
 11
-149.8234564504
 21
-75.25693739
  0
LINE
  5
3E7
100
AcDbEntity
  8
RACCORDO
100
AcDbLine
 62
253
  6
CONTINUOUS
 10
-151.1234564504
 20
-75.05693739
 11
-149.6234564504
 21
-75.05693739
  0
LINE
  5
3E8
100
AcDbEntity
  8
ASSI
100
AcDbLine
 62
253
  6
CONTINUOUS
 10
-151.1234564504
 20
-75.05693739
 11
-149.6234564504
 21
-75.05693739
  0
LINE
  5
3E9
100
AcDbEntity
  8
RACCORDO
100
AcDbLine
 62
253
  6
CONTINUOUS
 10
-149.6234564504
 20
-74.15693739
 11
-151.1234564504
 21
-74.15693739
  0
LINE
  5
3EA
100
AcDbEntity
  8
ASSI
100
AcDbLine
 62
253
  6
CONTINUOUS
 10
-149.6234564504
 20
-74.15693739
 11
-151.1234564504
 21
-74.15693739
  0
LINE
  5
3EB
100
AcDbEntity
  8
RACCORDO
100
AcDbLine
 62
7
  6
CONTINUOUS
 10
-150.9234564504
 20
-73.95693739
 11
-149.8234564504
 21
-73.95693739
  0
LINE
  5
3EC
100
AcDbEntity
  8
ASSI
100
AcDbLine
 62
7
  6
CONTINUOUS
 10
-150.9234564504
 20
-73.95693739
 11
-149.8234564504
 21
-73.95693739
  0
LINE
  5
3ED
100
AcDbEntity
  8
RACCORDO
100
AcDbLine
 62
253
  6
CONTINUOUS
 10
-126.2918414602
 20
-77.3984957464
 11
-135.6711137362
 21
-77.3285799184
  0
LINE
  5
3EE
100
AcDbEntity
  8
ASSI
100
AcDbLine
 62
253
  6
CONTINUOUS
 10
-126.2918414602
 20
-77.3984957464
 11
-135.6711137362
 21
-77.3285799184
  0
LWPOLYLINE
  5
3EF
100
AcDbEntity
  8
RACCORDO
100
AcDbPolyline
 62
253
  6
CONTINUOUS
 90
25
 70
0
 10
-135.6711137362
 20
-77.3285799184
 10
-135.697259177
 20
-77.3276870969
 10
-135.7236571438
 20
-77.3249873283
 10
-135.7503135933
 20
-77.3204662002
 10
-135.7772282632
 20
-77.3142019506
 10
-135.8044206116
 20
-77.3060653084
 10
-135.8319323571
 20
-77.2957130303
 10
-135.8599665769
 20
-77.2830151417
 10
-135.888363655
 20
-77.267987889
 10
-135.9166295658
 20
-77.2504872862
 10
-135.9448705325
 20
-77.2302966966
 10
-135.9730494271
 20
-77.2074767526
 10
-136.0004571811
 20
-77.1823072003
 10
-136.0271029998
 20
-77.1546132641
 10
-136.0530556139
 20
-77.1244479506
 10
-136.0776779039
 20
-77.0924835078
 10
-136.1009252565
 20
-77.0585925723
 10
-136.1229034298
 20
-77.022881989
 10
-136.1431625517
 20
-76.986452234
 10
-136.1615410529
 20
-76.9493954175
 10
-136.1782128213
 20
-76.911711137
 10
-136.1931841895
 20
-76.8744193636
 10
-136.2064373574
 20
-76.8379076957
 10
-136.2179547889
 20
-76.8019109092
 10
-136.2277215452
 20
-76.7664803561
  0
LWPOLYLINE
  5
3F0
100
AcDbEntity
  8
ASSI
100
AcDbPolyline
 62
253
  6
CONTINUOUS
 90
25
 70
0
 10
-135.6711137362
 20
-77.3285799184
 10
-135.697259177
 20
-77.3276870969
 10
-135.7236571438
 20
-77.3249873283
 10
-135.7503135933
 20
-77.3204662002
 10
-135.7772282632
 20
-77.3142019506
 10
-135.8044206116
 20
-77.3060653084
 10
-135.8319323571
 20
-77.2957130303
 10
-135.8599665768
 20
-77.2830151417
 10
-135.888363655
 20
-77.267987889
 10
-135.9166295658
 20
-77.2504872862
 10
-135.9448705324
 20
-77.2302966966
 10
-135.9730494271
 20
-77.2074767526
 10
-136.0004571811
 20
-77.1823072003
 10
-136.0271029997
 20
-77.1546132641
 10
-136.0530556139
 20
-77.1244479507
 10
-136.0776779038
 20
-77.0924835078
 10
-136.1009252565
 20
-77.0585925723
 10
-136.1229034298
 20
-77.0228819891
 10
-136.1431625517
 20
-76.986452234
 10
-136.1615410529
 20
-76.9493954175
 10
-136.1782128213
 20
-76.911711137
 10
-136.1931841895
 20
-76.8744193636
 10
-136.2064373574
 20
-76.8379076957
 10
-136.2179547889
 20
-76.8019109092
 10
-136.2277215452
 20
-76.7664803561
  0
LWPOLYLINE
  5
3F1
100
AcDbEntity
  8
RACCORDO
100
AcDbPolyline
 62
253
  6
CONTINUOUS
 90
73
 70
0
 10
-123.4898744591
 20
-63.6082895088
 10
-123.5196599661
 20
-63.6100462175
 10
-123.5295907136
 20
-63.6105973384
 10
-123.5395157701
 20
-63.6110648764
 10
-123.5494346296
 20
-63.6114403054
 10
-123.5593477953
 20
-63.6117321516
 10
-123.5692496765
 20
-63.6118954572
 10
-123.5791385057
 20
-63.6119249296
 10
-123.5890160457
 20
-63.6118258614
 10
-123.5988819999
 20
-63.6115691736
 10
-123.6087354185
 20
-63.6111520098
 10
-123.6185772468
 20
-63.6105772263
 10
-123.6284100311
 20
-63.609824313
 10
-123.638214209
 20
-63.6088959351
 10
-123.6480093372
 20
-63.6077894273
 10
-123.6578566524
 20
-63.6064762836
 10
-123.6677717402
 20
-63.6049571805
 10
-123.6777390335
 20
-63.6032314414
 10
-123.6877730527
 20
-63.6012685315
 10
-123.6979091603
 20
-63.5990582252
 10
-123.7081120198
 20
-63.5966107481
 10
-123.7182900904
 20
-63.5939262407
 10
-123.7284312002
 20
-63.5910016567
 10
-123.7385475104
 20
-63.5878400425
 10
-123.7485839543
 20
-63.5844506782
 10
-123.7585354452
 20
-63.5808310191
 10
-123.7684070417
 20
-63.5769836098
 10
-123.7781588787
 20
-63.572925364
 10
-123.7877820125
 20
-63.5686578229
 10
-123.7972853462
 20
-63.5641794452
 10
-123.8066557767
 20
-63.559502521
 10
-123.8158875318
 20
-63.5546301909
 10
-123.8249863409
 20
-63.5495593143
 10
-123.8339563529
 20
-63.5442927586
 10
-123.8428001742
 20
-63.5388299047
 10
-123.8515151596
 20
-63.5331713718
 10
-123.8600975802
 20
-63.5273218853
 10
-123.8685538226
 20
-63.521276364
 10
-123.8768774625
 20
-63.5150398891
 10
-123.8850455512
 20
-63.5086324299
 10
-123.893052011
 20
-63.5020582473
 10
-123.9009028766
 20
-63.4953130804
 10
-123.9085933655
 20
-63.4884041154
 10
-123.9161224132
 20
-63.481333648
 10
-123.923491043
 20
-63.4740993826
 10
-123.9306976036
 20
-63.4667016178
 10
-123.9377437974
 20
-63.4591405549
 10
-123.9446278833
 20
-63.4514159925
 10
-123.9513430439
 20
-63.4435276261
 10
-123.9578908188
 20
-63.4354759701
 10
-123.964269631
 20
-63.4272605101
 10
-123.970467987
 20
-63.4188793972
 10
-123.976488322
 20
-63.410332157
 10
-123.982328164
 20
-63.4016192639
 10
-123.9879686573
 20
-63.3927402932
 10
-123.9934118063
 20
-63.3836958805
 10
-123.9986555697
 20
-63.3744853903
 10
-124.0036750198
 20
-63.3651064901
 10
-124.0084741551
 20
-63.3555557873
 10
-124.0130489405
 20
-63.3458366746
 10
-124.0173623942
 20
-63.3359569978
 10
-124.0214169964
 20
-63.3259140994
 10
-124.0252102305
 20
-63.3157106368
 10
-124.0286976162
 20
-63.305362429
 10
-124.0318802848
 20
-63.2948656186
 10
-124.0347570709
 20
-63.284224063
 10
-124.0372800462
 20
-63.2734651528
 10
-124.0394460606
 20
-63.2625818135
 10
-124.0412582365
 20
-63.2515811198
 10
-124.0426780538
 20
-63.2405116864
 10
-124.0436926668
 20
-63.2293897183
 10
-124.0443149052
 20
-63.2181990106
 10
-124.0445447649
 20
-63.2069395634
  0
LWPOLYLINE
  5
3F2
100
AcDbEntity
  8
ASSI
100
AcDbPolyline
 62
253
  6
CONTINUOUS
 90
73
 70
0
 10
-123.4898744591
 20
-63.6082895088
 10
-123.5196599661
 20
-63.6100462175
 10
-123.5295907136
 20
-63.6105973384
 10
-123.5395157701
 20
-63.6110648764
 10
-123.5494346296
 20
-63.6114403054
 10
-123.5593477953
 20
-63.6117321516
 10
-123.5692496765
 20
-63.6118954572
 10
-123.5791385057
 20
-63.6119249296
 10
-123.5890160457
 20
-63.6118258614
 10
-123.5988819999
 20
-63.6115691736
 10
-123.6087354185
 20
-63.6111520098
 10
-123.6185772468
 20
-63.6105772263
 10
-123.6284100311
 20
-63.609824313
 10
-123.638214209
 20
-63.6088959351
 10
-123.6480093372
 20
-63.6077894273
 10
-123.6578566524
 20
-63.6064762836
 10
-123.6677717402
 20
-63.6049571805
 10
-123.6777390335
 20
-63.6032314414
 10
-123.6877730527
 20
-63.6012685315
 10
-123.6979091603
 20
-63.5990582252
 10
-123.7081120198
 20
-63.5966107481
 10
-123.7182900904
 20
-63.5939262407
 10
-123.7284312002
 20
-63.5910016567
 10
-123.7385475104
 20
-63.5878400425
 10
-123.7485839543
 20
-63.5844506782
 10
-123.7585354452
 20
-63.5808310191
 10
-123.7684070417
 20
-63.5769836098
 10
-123.7781588787
 20
-63.572925364
 10
-123.7877820125
 20
-63.5686578229
 10
-123.7972853462
 20
-63.5641794452
 10
-123.8066557767
 20
-63.559502521
 10
-123.8158875318
 20
-63.5546301909
 10
-123.8249863409
 20
-63.5495593143
 10
-123.8339563529
 20
-63.5442927586
 10
-123.8428001742
 20
-63.5388299047
 10
-123.8515151596
 20
-63.5331713718
 10
-123.8600975802
 20
-63.5273218853
 10
-123.8685538226
 20
-63.521276364
 10
-123.8768774625
 20
-63.5150398891
 10
-123.8850455512
 20
-63.5086324299
 10
-123.893052011
 20
-63.5020582473
 10
-123.9009028766
 20
-63.4953130804
 10
-123.9085933655
 20
-63.4884041154
 10
-123.9161224132
 20
-63.4813336481
 10
-123.923491043
 20
-63.4740993826
 10
-123.9306976036
 20
-63.4667016178
 10
-123.9377437974
 20
-63.4591405549
 10
-123.9446278833
 20
-63.4514159925
 10
-123.9513430439
 20
-63.4435276261
 10
-123.9578908188
 20
-63.4354759701
 10
-123.964269631
 20
-63.4272605101
 10
-123.970467987
 20
-63.4188793972
 10
-123.976488322
 20
-63.410332157
 10
-123.982328164
 20
-63.4016192639
 10
-123.9879686573
 20
-63.3927402932
 10
-123.9934118063
 20
-63.3836958805
 10
-123.9986555697
 20
-63.3744853903
 10
-124.0036750198
 20
-63.3651064901
 10
-124.0084741551
 20
-63.3555557873
 10
-124.0130489405
 20
-63.3458366746
 10
-124.0173623942
 20
-63.3359569978
 10
-124.0214169964
 20
-63.3259140994
 10
-124.0252102305
 20
-63.3157106368
 10
-124.0286976162
 20
-63.305362429
 10
-124.0318802848
 20
-63.2948656186
 10
-124.0347570709
 20
-63.284224063
 10
-124.0372800462
 20
-63.2734651528
 10
-124.0394460606
 20
-63.2625818135
 10
-124.0412582365
 20
-63.2515811198
 10
-124.0426780538
 20
-63.2405116864
 10
-124.0436926668
 20
-63.2293897183
 10
-124.0443149052
 20
-63.2181990106
 10
-124.0445447649
 20
-63.2069395634
  0
LWPOLYLINE
  5
3F3
100
AcDbEntity
  8
RACCORDO
100
AcDbPolyline
 62
253
  6
CONTINUOUS
 90
5
 70
0
 10
-123.4502857076
 20
-63.60693739
 10
-123.4601654303
 20
-63.6071237704
 10
-123.4700562567
 20
-63.6074052426
 10
-123.4799581882
 20
-63.6077818067
 10
-123.4898744591
 20
-63.6082895088
  0
LWPOLYLINE
  5
3F4
100
AcDbEntity
  8
ASSI
100
AcDbPolyline
 62
253
  6
CONTINUOUS
 90
5
 70
0
 10
-123.4502857076
 20
-63.60693739
 10
-123.4601654303
 20
-63.6071237704
 10
-123.4700562567
 20
-63.6074052426
 10
-123.4799581882
 20
-63.6077818067
 10
-123.4898744591
 20
-63.6082895088
  0
LINE
  5
3F5
100
AcDbEntity
  8
0
100
AcDbLine
 62
7
  6
CONTINUOUS
 10
-153.3734198432
 20
-66.60693739
 11
-150.9234564504
 21
-66.60693739
  0
LINE
  5
3F6
100
AcDbEntity
  8
ASSI
100
AcDbLine
 62
7
  6
CONTINUOUS
 10
-153.3734198432
 20
-66.60693739
 11
-150.9234564504
 21
-66.60693739
  0
LINE
  5
3F7
100
AcDbEntity
  8
RACCORDO
100
AcDbLine
 62
253
  6
CONTINUOUS
 10
-123.6734159813
 20
-64.80693739
 11
-136.2656545508
 21
-64.80693739
  0
LINE
  5
3F8
100
AcDbEntity
  8
ASSI
100
AcDbLine
 62
253
  6
CONTINUOUS
 10
-123.6734159813
 20
-64.80693739
 11
-136.2656545508
 21
-64.80693739
  0
LINE
  5
3F9
100
AcDbEntity
  8
RACCORDO
100
AcDbLine
 62
7
  6
CONTINUOUS
 10
-135.7234564504
 20
-64.50693739
 11
-125.4585277522
 21
-64.50693739
  0
LINE
  5
3FA
100
AcDbEntity
  8
ASSI
100
AcDbLine
 62
7
  6
CONTINUOUS
 10
-135.7234564504
 20
-64.50693739
 11
-125.4585277522
 21
-64.50693739
  0
LINE
  5
3FB
100
AcDbEntity
  8
RACCORDO
100
AcDbLine
 62
253
  6
CONTINUOUS
 10
-135.663212217
 20
-64.20693739
 11
-125.3564995486
 21
-64.20693739
  0
LINE
  5
3FC
100
AcDbEntity
  8
ASSI
100
AcDbLine
 62
253
  6
CONTINUOUS
 10
-135.663212217
 20
-64.20693739
 11
-125.3564995486
 21
-64.20693739
  0
LINE
  5
3FD
100
AcDbEntity
  8
RACCORDO
100
AcDbLine
 62
253
  6
CONTINUOUS
 10
-121.0234564504
 20
-63.60693739
 11
-123.4502857076
 21
-63.60693739
  0
LINE
  5
3FE
100
AcDbEntity
  8
ASSI
100
AcDbLine
 62
253
  6
CONTINUOUS
 10
-121.0234564504
 20
-63.60693739
 11
-123.4502857076
 21
-63.60693739
  0
LINE
  5
3FF
100
AcDbEntity
  8
RACCORDO
100
AcDbLine
 62
7
  6
CONTINUOUS
 10
-123.5234564504
 20
-63.40693739
 11
-121.2234564504
 21
-63.40693739
  0
LINE
  5
400
100
AcDbEntity
  8
ASSI
100
AcDbLine
 62
7
  6
CONTINUOUS
 10
-123.5234564504
 20
-63.40693739
 11
-121.2234564504
 21
-63.40693739
  0
LINE
  5
401
100
AcDbEntity
  8
RACCORDO
100
AcDbLine
 62
253
  6
CONTINUOUS
 10
-123.7234564504
 20
-63.20693739
 11
-124.0445447649
 21
-63.2069373728
  0
LINE
  5
402
100
AcDbEntity
  8
ASSI
100
AcDbLine
 62
253
  6
CONTINUOUS
 10
-123.7234564504
 20
-63.20693739
 11
-124.0445447649
 21
-63.2069373728
  0
LINE
  5
403
100
AcDbEntity
  8
0
100
AcDbLine
 62
7
  6
CONTINUOUS
 10
-150.9234564504
 20
-62.90693739
 11
-153.3734198432
 21
-62.90693739
  0
LINE
  5
404
100
AcDbEntity
  8
ASSI
100
AcDbLine
 62
7
  6
CONTINUOUS
 10
-150.9234564504
 20
-62.90693739
 11
-153.3734198432
 21
-62.90693739
  0
LWPOLYLINE
  5
405
100
AcDbEntity
  8
RACCORDO
100
AcDbPolyline
 62
253
  6
CONTINUOUS
 90
58
 70
0
 10
-125.4585277522
 20
-64.50693739
 10
-125.3911901237
 20
-64.5071600291
 10
-125.3258590994
 20
-64.5078065881
 10
-125.262534432
 20
-64.5088452125
 10
-125.2012832426
 20
-64.5102417648
 10
-125.1420380346
 20
-64.5119666345
 10
-125.0845966743
 20
-64.5140009669
 10
-125.0289531216
 20
-64.51632115
 10
-124.9751131919
 20
-64.5189024052
 10
-124.9228925367
 20
-64.5217342662
 10
-124.8722855567
 20
-64.5247981756
 10
-124.8232977168
 20
-64.5280745414
 10
-124.7757612513
 20
-64.531558962
 10
-124.7296675989
 20
-64.5352370267
 10
-124.6850252367
 20
-64.5390930249
 10
-124.6416919353
 20
-64.5431264653
 10
-124.5996400854
 20
-64.5473281587
 10
-124.5588972356
 20
-64.5516834974
 10
-124.5194038781
 20
-64.5561874108
 10
-124.4811586432
 20
-64.5608297143
 10
-124.4441628742
 20
-64.5655994763
 10
-124.4083611268
 20
-64.5704923169
 10
-124.3737666246
 20
-64.5754967921
 10
-124.3403661451
 20
-64.5806054831
 10
-124.3080645591
 20
-64.5858221057
 10
-124.2768586903
 20
-64.5911387393
 10
-124.2467517135
 20
-64.5965478323
 10
-124.2176579981
 20
-64.6020560628
 10
-124.1895741635
 20
-64.6076565984
 10
-124.1625035775
 20
-64.6133435768
 10
-124.1363706977
 20
-64.619127368
 10
-124.1111645007
 20
-64.6250039606
 10
-124.0868959726
 20
-64.6309671671
 10
-124.0635225505
 20
-64.6370259364
 10
-124.0410283262
 20
-64.643179379
 10
-124.0194291476
 20
-64.6494197897
 10
-123.9987300657
 20
-64.655746807
 10
-123.9789357984
 20
-64.6621538831
 10
-123.9600415745
 20
-64.6686390399
 10
-123.9420381943
 20
-64.6752093599
 10
-123.9249355355
 20
-64.6818527479
 10
-123.9087236545
 20
-64.6885733094
 10
-123.8933635614
 20
-64.6954039714
 10
-123.8788287468
 20
-64.7023469076
 10
-123.8651455559
 20
-64.7093939366
 10
-123.8523542069
 20
-64.7165639595
 10
-123.8404275317
 20
-64.7238713602
 10
-123.8293924669
 20
-64.7312957425
 10
-123.8193703994
 20
-64.7388034
 10
-123.8103738964
 20
-64.7464027358
 10
-123.8023902476
 20
-64.7540766096
 10
-123.7955030582
 20
-64.7617510957
 10
-123.7897530185
 20
-64.7694131437
 10
-123.7850995132
 20
-64.7770646568
 10
-123.7815043497
 20
-64.784652879
 10
-123.7789548942
 20
-64.7921565402
 10
-123.7774640009
 20
-64.799586308
 10
-123.7770317748
 20
-64.80693739
  0
LWPOLYLINE
  5
406
100
AcDbEntity
  8
ASSI
100
AcDbPolyline
 62
253
  6
CONTINUOUS
 90
58
 70
0
 10
-125.4585277522
 20
-64.50693739
 10
-125.3911901237
 20
-64.5071600291
 10
-125.3258590994
 20
-64.5078065881
 10
-125.262534432
 20
-64.5088452125
 10
-125.2012832426
 20
-64.5102417648
 10
-125.1420380346
 20
-64.5119666345
 10
-125.0845966743
 20
-64.5140009669
 10
-125.0289531216
 20
-64.51632115
 10
-124.9751131919
 20
-64.5189024052
 10
-124.9228925367
 20
-64.5217342662
 10
-124.8722855567
 20
-64.5247981756
 10
-124.8232977168
 20
-64.5280745414
 10
-124.7757612513
 20
-64.531558962
 10
-124.7296675989
 20
-64.5352370267
 10
-124.6850252367
 20
-64.5390930249
 10
-124.6416919353
 20
-64.5431264653
 10
-124.5996400854
 20
-64.5473281587
 10
-124.5588972356
 20
-64.5516834974
 10
-124.5194038781
 20
-64.5561874108
 10
-124.4811586432
 20
-64.5608297143
 10
-124.4441628742
 20
-64.5655994763
 10
-124.4083611268
 20
-64.5704923169
 10
-124.3737666246
 20
-64.5754967921
 10
-124.3403661451
 20
-64.5806054831
 10
-124.3080645591
 20
-64.5858221057
 10
-124.2768586903
 20
-64.5911387393
 10
-124.2467517135
 20
-64.5965478323
 10
-124.2176579981
 20
-64.6020560628
 10
-124.1895741635
 20
-64.6076565984
 10
-124.1625035775
 20
-64.6133435768
 10
-124.1363706977
 20
-64.619127368
 10
-124.1111645007
 20
-64.6250039606
 10
-124.0868959726
 20
-64.6309671671
 10
-124.0635225505
 20
-64.6370259364
 10
-124.0410283262
 20
-64.643179379
 10
-124.0194291476
 20
-64.6494197897
 10
-123.9987300657
 20
-64.655746807
 10
-123.9789357984
 20
-64.6621538831
 10
-123.9600415745
 20
-64.6686390399
 10
-123.9420381943
 20
-64.6752093599
 10
-123.9249355355
 20
-64.6818527479
 10
-123.9087236545
 20
-64.6885733094
 10
-123.8933635614
 20
-64.6954039714
 10
-123.8788287468
 20
-64.7023469076
 10
-123.8651455559
 20
-64.7093939366
 10
-123.8523542069
 20
-64.7165639595
 10
-123.8404275317
 20
-64.7238713602
 10
-123.8293924669
 20
-64.7312957425
 10
-123.8193703994
 20
-64.7388034
 10
-123.8103738964
 20
-64.7464027358
 10
-123.8023902476
 20
-64.7540766096
 10
-123.7955030582
 20
-64.7617510957
 10
-123.7897530185
 20
-64.7694131437
 10
-123.7850995132
 20
-64.7770646568
 10
-123.7815043497
 20
-64.784652879
 10
-123.7789548942
 20
-64.7921565402
 10
-123.7774640009
 20
-64.799586308
 10
-123.7770317748
 20
-64.80693739
  0
LWPOLYLINE
  5
407
100
AcDbEntity
  8
RACCORDO
100
AcDbPolyline
 62
253
  6
CONTINUOUS
 90
58
 70
0
 10
-125.3564995486
 20
-64.20693739
 10
-125.2890877297
 20
-64.2074872668
 10
-125.2236886088
 20
-64.2087589688
 10
-125.1603002052
 20
-64.2107524962
 10
-125.0989864663
 20
-64.2135175297
 10
-125.0396795984
 20
-64.2170043885
 10
-124.9821802737
 20
-64.2210640305
 10
-124.9264812683
 20
-64.2256827861
 10
-124.8725866682
 20
-64.2308743249
 10
-124.8203145162
 20
-64.2365306137
 10
-124.7696582399
 20
-64.2426414621
 10
-124.7206218228
 20
-64.2492170606
 10
-124.6730394812
 20
-64.256179947
 10
-124.6269018448
 20
-64.2635227696
 10
-124.5822161524
 20
-64.2712528802
 10
-124.5388418084
 20
-64.2793148714
 10
-124.4967504282
 20
-64.2877087614
 10
-124.455968637
 20
-64.2964345322
 10
-124.4164385295
 20
-64.3054367226
 10
-124.3781581135
 20
-64.3147130724
 10
-124.341127827
 20
-64.3242658418
 10
-124.3052935142
 20
-64.3340463505
 10
-124.2706678374
 20
-64.3440473101
 10
-124.2372367721
 20
-64.3542760089
 10
-124.2049062491
 20
-64.3647056317
 10
-124.1736726019
 20
-64.3753321989
 10
-124.1435383633
 20
-64.3861596901
 10
-124.114418883
 20
-64.397173229
 10
-124.0863104742
 20
-64.4083685912
 10
-124.0592158765
 20
-64.4197500012
 10
-124.0330601797
 20
-64.431315256
 10
-124.007832015
 20
-64.4430639929
 10
-123.9835419618
 20
-64.4549965746
 10
-123.9601481033
 20
-64.4671118867
 10
-123.937634179
 20
-64.4794155927
 10
-123.9160157737
 20
-64.4919020291
 10
-123.8952987721
 20
-64.5045530908
 10
-123.8754877847
 20
-64.5173634674
 10
-123.8565775928
 20
-64.5303384693
 10
-123.8385593571
 20
-64.5434759223
 10
-123.8214430942
 20
-64.5567575223
 10
-123.8052182623
 20
-64.5702015733
 10
-123.7898452165
 20
-64.5838608132
 10
-123.775296919
 20
-64.597744271
 10
-123.7615999851
 20
-64.6118429177
 10
-123.748795269
 20
-64.6261824036
 10
-123.7368550433
 20
-64.6407989213
 10
-123.725806668
 20
-64.6556562782
 10
-123.7157736165
 20
-64.6706715463
 10
-123.706768518
 20
-64.6858740279
 10
-123.6987784157
 20
-64.7012344208
 10
-123.6918883958
 20
-64.7165818901
 10
-123.6861415048
 20
-64.7319008334
 10
-123.6814944579
 20
-64.747206853
 10
-123.677902867
 20
-64.7623759212
 10
-123.6753519007
 20
-64.7773666955
 10
-123.673856281
 20
-64.7922205185
 10
-123.6734159813
 20
-64.80693739
  0
LWPOLYLINE
  5
408
100
AcDbEntity
  8
ASSI
100
AcDbPolyline
 62
253
  6
CONTINUOUS
 90
58
 70
0
 10
-125.3564995486
 20
-64.20693739
 10
-125.2890877297
 20
-64.2074872668
 10
-125.2236886088
 20
-64.2087589688
 10
-125.1603002052
 20
-64.2107524962
 10
-125.0989864663
 20
-64.2135175297
 10
-125.0396795984
 20
-64.2170043885
 10
-124.9821802737
 20
-64.2210640305
 10
-124.9264812683
 20
-64.2256827861
 10
-124.8725866682
 20
-64.2308743249
 10
-124.8203145162
 20
-64.2365306137
 10
-124.7696582399
 20
-64.2426414621
 10
-124.7206218228
 20
-64.2492170606
 10
-124.6730394812
 20
-64.256179947
 10
-124.6269018448
 20
-64.2635227696
 10
-124.5822161524
 20
-64.2712528802
 10
-124.5388418084
 20
-64.2793148714
 10
-124.4967504282
 20
-64.2877087614
 10
-124.455968637
 20
-64.2964345322
 10
-124.4164385295
 20
-64.3054367226
 10
-124.3781581135
 20
-64.3147130724
 10
-124.341127827
 20
-64.3242658418
 10
-124.3052935142
 20
-64.3340463505
 10
-124.2706678374
 20
-64.3440473101
 10
-124.2372367721
 20
-64.3542760089
 10
-124.2049062491
 20
-64.3647056317
 10
-124.1736726019
 20
-64.3753321989
 10
-124.1435383633
 20
-64.3861596901
 10
-124.114418883
 20
-64.397173229
 10
-124.0863104742
 20
-64.4083685912
 10
-124.0592158765
 20
-64.4197500012
 10
-124.0330601797
 20
-64.431315256
 10
-124.007832015
 20
-64.4430639929
 10
-123.9835419618
 20
-64.4549965746
 10
-123.9601481033
 20
-64.4671118867
 10
-123.937634179
 20
-64.4794155927
 10
-123.9160157737
 20
-64.4919020291
 10
-123.8952987721
 20
-64.5045530908
 10
-123.8754877847
 20
-64.5173634674
 10
-123.8565775928
 20
-64.5303384693
 10
-123.8385593571
 20
-64.5434759223
 10
-123.8214430942
 20
-64.5567575223
 10
-123.8052182623
 20
-64.5702015733
 10
-123.7898452165
 20
-64.5838608132
 10
-123.775296919
 20
-64.597744271
 10
-123.7615999851
 20
-64.6118429177
 10
-123.748795269
 20
-64.6261824036
 10
-123.7368550433
 20
-64.6407989213
 10
-123.725806668
 20
-64.6556562782
 10
-123.7157736165
 20
-64.6706715463
 10
-123.706768518
 20
-64.6858740279
 10
-123.6987784157
 20
-64.7012344208
 10
-123.6918883958
 20
-64.7165818901
 10
-123.6861415048
 20
-64.7319008334
 10
-123.6814944579
 20
-64.747206853
 10
-123.677902867
 20
-64.7623759212
 10
-123.6753519007
 20
-64.7773666955
 10
-123.673856281
 20
-64.7922205185
 10
-123.6734159813
 20
-64.80693739
  0
LINE
  5
409
100
AcDbEntity
  8
RACCORDO
100
AcDbLine
 62
7
  6
CONTINUOUS
 10
-149.6412900419
 20
24.9250732147
 11
-149.6234564504
 21
24.94306261
  0
LINE
  5
40A
100
AcDbEntity
  8
ASSI
100
AcDbLine
 62
7
  6
CONTINUOUS
 10
-149.6412900419
 20
24.9250732147
 11
-149.6234564504
 21
24.94306261
  0
LINE
  5
40B
100
AcDbEntity
  8
RACCORDO
100
AcDbLine
 62
7
  6
CONTINUOUS
 10
-149.8230258924
 20
24.7434641885
 11
-149.8163902253
 21
24.7501358934
  0
LINE
  5
40C
100
AcDbEntity
  8
ASSI
100
AcDbLine
 62
7
  6
CONTINUOUS
 10
-149.8230258924
 20
24.7434641885
 11
-149.8163902253
 21
24.7501358934
  0
LINE
  5
40D
100
AcDbEntity
  8
RACCORDO
100
AcDbLine
 62
7
  6
CONTINUOUS
 10
-149.8163902253
 20
24.7501358934
 11
-149.6412900419
 21
24.9250732147
  0
LINE
  5
40E
100
AcDbEntity
  8
ASSI
100
AcDbLine
 62
7
  6
CONTINUOUS
 10
-149.8163902253
 20
24.7501358934
 11
-149.6412900419
 21
24.9250732147
  0
LINE
  5
40F
100
AcDbEntity
  8
RACCORDO
100
AcDbLine
 62
7
  6
CONTINUOUS
 10
-149.8234564504
 20
24.74306261
 11
-149.8230258924
 21
24.7434641885
  0
LINE
  5
410
100
AcDbEntity
  8
ASSI
100
AcDbLine
 62
7
  6
CONTINUOUS
 10
-149.8234564504
 20
24.74306261
 11
-149.8230258924
 21
24.7434641885
  0
LINE
  5
411
100
AcDbEntity
  8
RACCORDO
100
AcDbLine
 62
253
  6
CONTINUOUS
 10
-121.0234564504
 20
-55.350605518
 11
-121.2199659691
 21
-55.350605518
  0
LINE
  5
412
100
AcDbEntity
  8
ASSI
100
AcDbLine
 62
253
  6
CONTINUOUS
 10
-121.0234564504
 20
-55.350605518
 11
-121.2199659691
 21
-55.350605518
  0
LINE
  5
413
100
AcDbEntity
  8
RACCORDO
100
AcDbLine
 62
253
  6
CONTINUOUS
 10
-123.5269469316
 20
-55.3103370155
 11
-123.7234564504
 21
-55.3103370155
  0
LINE
  5
414
100
AcDbEntity
  8
ASSI
100
AcDbLine
 62
253
  6
CONTINUOUS
 10
-123.5269469316
 20
-55.3103370155
 11
-123.7234564504
 21
-55.3103370155
  0
LWPOLYLINE
  5
415
100
AcDbEntity
  8
RACCORDO
100
AcDbPolyline
 62
253
  6
CONTINUOUS
 90
19
 70
0
 10
-121.2234564504
 20
-63.40693739
 10
-121.2165359861
 20
-63.4076984433
 10
-121.2096681923
 20
-63.4099758101
 10
-121.2029053364
 20
-63.4137521572
 10
-121.1962988902
 20
-63.4189987404
 10
-121.1898991288
 20
-63.4256756308
 10
-121.1837547493
 20
-63.4337320243
 10
-121.1779125125
 20
-63.4431066155
 10
-121.1724168842
 20
-63.45372806
 10
-121.1673096894
 20
-63.4655155293
 10
-121.1626297982
 20
-63.4783793186
 10
-121.1584128292
 20
-63.4922215305
 10
-121.1546908775
 20
-63.506936823
 10
-121.1514922707
 20
-63.5224132124
 10
-121.1488413561
 20
-63.5385329111
 10
-121.1467583129
 20
-63.5551732242
 10
-121.145258996
 20
-63.5722075028
 10
-121.1443548163
 20
-63.5895061095
 10
-121.1440526563
 20
-63.60693739
  0
LWPOLYLINE
  5
416
100
AcDbEntity
  8
ASSI
100
AcDbPolyline
 62
253
  6
CONTINUOUS
 90
19
 70
0
 10
-121.2234564504
 20
-63.40693739
 10
-121.2165359861
 20
-63.4076984433
 10
-121.2096681923
 20
-63.4099758101
 10
-121.2029053364
 20
-63.4137521572
 10
-121.1962988902
 20
-63.4189987404
 10
-121.1898991288
 20
-63.4256756308
 10
-121.1837547493
 20
-63.4337320243
 10
-121.1779125125
 20
-63.4431066155
 10
-121.1724168842
 20
-63.45372806
 10
-121.1673096894
 20
-63.4655155293
 10
-121.1626297982
 20
-63.4783793186
 10
-121.1584128292
 20
-63.4922215305
 10
-121.1546908775
 20
-63.506936823
 10
-121.1514922707
 20
-63.5224132124
 10
-121.1488413561
 20
-63.5385329111
 10
-121.1467583129
 20
-63.5551732242
 10
-121.145258996
 20
-63.5722075028
 10
-121.1443548163
 20
-63.5895061095
 10
-121.1440526563
 20
-63.60693739
  0
LWPOLYLINE
  5
417
100
AcDbEntity
  8
RACCORDO
100
AcDbPolyline
 62
253
  6
CONTINUOUS
 90
19
 70
0
 10
-123.5234564502
 20
-63.40693739
 10
-123.5170752434
 20
-63.4076984487
 10
-123.5107430066
 20
-63.4099758326
 10
-123.5045079053
 20
-63.4137522096
 10
-123.4984173529
 20
-63.4189988393
 10
-123.4925176983
 20
-63.4256757919
 10
-123.4868538736
 20
-63.4337322533
 10
-123.4814689819
 20
-63.4431069099
 10
-123.4764039855
 20
-63.4537284156
 10
-123.4716974432
 20
-63.465515936
 10
-123.4673851842
 20
-63.4783797622
 10
-123.4635000188
 20
-63.4922219931
 10
-123.4600715044
 20
-63.5069372818
 10
-123.4571257551
 20
-63.522413637
 10
-123.4546851926
 20
-63.5385332742
 10
-123.4527683588
 20
-63.5551735112
 10
-123.4513898459
 20
-63.5722077049
 10
-123.4505601854
 20
-63.5895062153
 10
-123.4502857185
 20
-63.60693739
  0
LWPOLYLINE
  5
418
100
AcDbEntity
  8
ASSI
100
AcDbPolyline
 62
253
  6
CONTINUOUS
 90
19
 70
0
 10
-123.5234564502
 20
-63.40693739
 10
-123.5170752434
 20
-63.4076984487
 10
-123.5107430066
 20
-63.4099758326
 10
-123.5045079053
 20
-63.4137522096
 10
-123.4984173529
 20
-63.4189988393
 10
-123.4925176983
 20
-63.4256757919
 10
-123.4868538736
 20
-63.4337322533
 10
-123.4814689819
 20
-63.4431069099
 10
-123.4764039855
 20
-63.4537284156
 10
-123.4716974432
 20
-63.465515936
 10
-123.4673851842
 20
-63.4783797622
 10
-123.4635000188
 20
-63.4922219931
 10
-123.4600715044
 20
-63.5069372818
 10
-123.4571257551
 20
-63.522413637
 10
-123.4546851926
 20
-63.5385332742
 10
-123.4527683588
 20
-63.5551735112
 10
-123.4513898459
 20
-63.5722077049
 10
-123.4505601854
 20
-63.5895062153
 10
-123.4502857185
 20
-63.60693739
  0
LINE
  5
419
100
AcDbEntity
  8
RACCORDO
100
AcDbLine
 62
7
  6
CONTINUOUS
 10
-149.8230258886
 20
-73.9573389909
 11
-149.8234564504
 21
-73.95693739
  0
LINE
  5
41A
100
AcDbEntity
  8
ASSI
100
AcDbLine
 62
7
  6
CONTINUOUS
 10
-149.8230258886
 20
-73.9573389909
 11
-149.8234564504
 21
-73.95693739
  0
LWPOLYLINE
  5
41B
100
AcDbEntity
  8
RACCORDO
100
AcDbPolyline
 62
7
  6
CONTINUOUS
 90
3
 70
0
 10
-149.6412900571
 20
-74.1389479844
 10
-149.6906865837
 20
-74.0897398522
 10
-149.8195107453
 20
-73.9608830951
  0
LWPOLYLINE
  5
41C
100
AcDbEntity
  8
ASSI
100
AcDbPolyline
 62
7
  6
CONTINUOUS
 90
3
 70
0
 10
-149.6412900571
 20
-74.1389479844
 10
-149.6906865837
 20
-74.0897398522
 10
-149.8195107453
 20
-73.9608830951
  0
LINE
  5
41D
100
AcDbEntity
  8
RACCORDO
100
AcDbLine
 62
7
  6
CONTINUOUS
 10
-149.6234564504
 20
-74.15693739
 11
-149.6412900571
 21
-74.1389479844
  0
LINE
  5
41E
100
AcDbEntity
  8
ASSI
100
AcDbLine
 62
7
  6
CONTINUOUS
 10
-149.6234564504
 20
-74.15693739
 11
-149.6412900571
 21
-74.1389479844
  0
LINE
  5
41F
100
AcDbEntity
  8
RACCORDO
100
AcDbLine
 62
7
  6
CONTINUOUS
 10
-149.8195107453
 20
-73.9608830951
 11
-149.8230258886
 21
-73.9573389909
  0
LINE
  5
420
100
AcDbEntity
  8
ASSI
100
AcDbLine
 62
7
  6
CONTINUOUS
 10
-149.8195107453
 20
-73.9608830951
 11
-149.8230258886
 21
-73.9573389909
  0
LINE
  5
421
100
AcDbEntity
  8
RACCORDO
100
AcDbLine
 62
7
  6
CONTINUOUS
 10
-121.2199659691
 20
-52.0632388011
 11
-123.5269469316
 21
-52.1035073036
  0
LINE
  5
422
100
AcDbEntity
  8
ASSI
100
AcDbLine
 62
7
  6
CONTINUOUS
 10
-121.2199659691
 20
-52.0632388011
 11
-123.5269469316
 21
-52.1035073036
  0
LINE
  5
423
100
AcDbEntity
  8
RACCORDO
100
AcDbLine
 62
253
  6
CONTINUOUS
 10
-121.2199659691
 20
-51.8632692621
 11
-123.5269469316
 21
-51.9035377646
  0
LINE
  5
424
100
AcDbEntity
  8
ASSI
100
AcDbLine
 62
253
  6
CONTINUOUS
 10
-121.2199659691
 20
-51.8632692621
 11
-123.5269469316
 21
-51.9035377646
  0
LINE
  5
425
100
AcDbEntity
  8
RACCORDO
100
AcDbLine
 62
253
  6
CONTINUOUS
 10
-123.5269469316
 20
-51.9035377646
 11
-123.7234564504
 21
-51.9035377646
  0
LINE
  5
426
100
AcDbEntity
  8
ASSI
100
AcDbLine
 62
253
  6
CONTINUOUS
 10
-123.5269469316
 20
-51.9035377646
 11
-123.7234564504
 21
-51.9035377646
  0
LINE
  5
427
100
AcDbEntity
  8
RACCORDO
100
AcDbLine
 62
253
  6
CONTINUOUS
 10
-121.0234564504
 20
-51.8632692621
 11
-121.2199659691
 21
-51.8632692621
  0
LINE
  5
428
100
AcDbEntity
  8
ASSI
100
AcDbLine
 62
253
  6
CONTINUOUS
 10
-121.0234564504
 20
-51.8632692621
 11
-121.2199659691
 21
-51.8632692621
  0
LINE
  5
429
100
AcDbEntity
  8
RACCORDO
100
AcDbLine
 62
253
  6
CONTINUOUS
 10
-121.2199659691
 20
-55.350605518
 11
-123.5269469316
 21
-55.3103370155
  0
LINE
  5
42A
100
AcDbEntity
  8
ASSI
100
AcDbLine
 62
253
  6
CONTINUOUS
 10
-121.2199659691
 20
-55.350605518
 11
-123.5269469316
 21
-55.3103370155
  0
LINE
  5
42B
100
AcDbEntity
  8
RACCORDO
100
AcDbLine
 62
7
  6
CONTINUOUS
 10
-121.2199659691
 20
-55.1506359789
 11
-123.5269469316
 21
-55.1103674764
  0
LINE
  5
42C
100
AcDbEntity
  8
ASSI
100
AcDbLine
 62
7
  6
CONTINUOUS
 10
-121.2199659691
 20
-55.1506359789
 11
-123.5269469316
 21
-55.1103674764
  0
LINE
  5
42D
100
AcDbEntity
  8
DRAFT
100
AcDbLine
 62
7
  6
CONTINUOUS
 10
-123.5269469316
 20
-39.8558724984
 11
-120.9199659691
 21
-39.8103674764
  0
LINE
  5
42E
100
AcDbEntity
  8
ASSI
100
AcDbLine
 62
7
  6
CONTINUOUS
 10
-123.5269469316
 20
-39.8558724984
 11
-120.9199659691
 21
-39.8103674764
  0
LINE
  5
42F
100
AcDbEntity
  8
RACCORDO
100
AcDbLine
 62
253
  6
CONTINUOUS
 10
-121.0234564504
 20
-31.050605518
 11
-121.2199659691
 21
-31.050605518
  0
LINE
  5
430
100
AcDbEntity
  8
ASSI
100
AcDbLine
 62
253
  6
CONTINUOUS
 10
-121.0234564504
 20
-31.050605518
 11
-121.2199659691
 21
-31.050605518
  0
LINE
  5
431
100
AcDbEntity
  8
RACCORDO
100
AcDbLine
 62
253
  6
CONTINUOUS
 10
-123.5269469316
 20
-31.0103370155
 11
-123.7234564504
 21
-31.0103370155
  0
LINE
  5
432
100
AcDbEntity
  8
ASSI
100
AcDbLine
 62
253
  6
CONTINUOUS
 10
-123.5269469316
 20
-31.0103370155
 11
-123.7234564504
 21
-31.0103370155
  0
LINE
  5
433
100
AcDbEntity
  8
DRAFT
100
AcDbLine
 62
7
  6
CONTINUOUS
 10
-123.5269469316
 20
-33.3580022817
 11
-120.9199659691
 21
-33.4035073036
  0
LINE
  5
434
100
AcDbEntity
  8
ASSI
100
AcDbLine
 62
7
  6
CONTINUOUS
 10
-123.5269469316
 20
-33.3580022817
 11
-120.9199659691
 21
-33.4035073036
  0
LINE
  5
435
100
AcDbEntity
  8
RACCORDO
100
AcDbLine
 62
253
  6
CONTINUOUS
 10
-121.2199659691
 20
-31.050605518
 11
-123.5269469316
 21
-31.0103370155
  0
LINE
  5
436
100
AcDbEntity
  8
ASSI
100
AcDbLine
 62
253
  6
CONTINUOUS
 10
-121.2199659691
 20
-31.050605518
 11
-123.5269469316
 21
-31.0103370155
  0
LINE
  5
437
100
AcDbEntity
  8
RACCORDO
100
AcDbLine
 62
7
  6
CONTINUOUS
 10
-121.2199659691
 20
-30.8506359789
 11
-123.5269469316
 21
-30.8103674764
  0
LINE
  5
438
100
AcDbEntity
  8
ASSI
100
AcDbLine
 62
7
  6
CONTINUOUS
 10
-121.2199659691
 20
-30.8506359789
 11
-123.5269469316
 21
-30.8103674764
  0
LINE
  5
439
100
AcDbEntity
  8
0
100
AcDbLine
 62
7
  6
CONTINUOUS
 10
-153.3734564504
 20
19.09306261
 11
-153.3734564504
 21
15.39306261
  0
LINE
  5
43A
100
AcDbEntity
  8
ASSI
100
AcDbLine
 62
7
  6
CONTINUOUS
 10
-153.3734564504
 20
19.09306261
 11
-153.3734564504
 21
15.39306261
  0
LINE
  5
43B
100
AcDbEntity
  8
0
100
AcDbLine
 62
7
  6
CONTINUOUS
 10
-153.3734564504
 20
-62.90693739
 11
-153.3734564504
 21
-66.60693739
  0
LINE
  5
43C
100
AcDbEntity
  8
ASSI
100
AcDbLine
 62
7
  6
CONTINUOUS
 10
-153.3734564504
 20
-62.90693739
 11
-153.3734564504
 21
-66.60693739
  0
LINE
  5
43D
100
AcDbEntity
  8
RACCORDO
100
AcDbLine
 62
7
  6
CONTINUOUS
 10
-151.1234564504
 20
-77.05693739
 11
-151.1234564504
 21
-76.15693739
  0
LINE
  5
43E
100
AcDbEntity
  8
ASSI
100
AcDbLine
 62
7
  6
CONTINUOUS
 10
-151.1234564504
 20
-77.05693739
 11
-151.1234564504
 21
-76.15693739
  0
LINE
  5
43F
100
AcDbEntity
  8
RACCORDO
100
AcDbLine
 62
7
  6
CONTINUOUS
 10
-151.1234564504
 20
-75.05693739
 11
-151.1234564504
 21
-74.15693739
  0
LINE
  5
440
100
AcDbEntity
  8
ASSI
100
AcDbLine
 62
7
  6
CONTINUOUS
 10
-151.1234564504
 20
-75.05693739
 11
-151.1234564504
 21
-74.15693739
  0
LINE
  5
441
100
AcDbEntity
  8
RACCORDO
100
AcDbLine
 62
7
  6
CONTINUOUS
 10
-151.1234564504
 20
4.94306261
 11
-151.1234564504
 21
5.84306261
  0
LINE
  5
442
100
AcDbEntity
  8
ASSI
100
AcDbLine
 62
7
  6
CONTINUOUS
 10
-151.1234564504
 20
4.94306261
 11
-151.1234564504
 21
5.84306261
  0
LINE
  5
443
100
AcDbEntity
  8
RACCORDO
100
AcDbLine
 62
7
  6
CONTINUOUS
 10
-151.1234564504
 20
24.94306261
 11
-151.1234564504
 21
25.84306261
  0
LINE
  5
444
100
AcDbEntity
  8
ASSI
100
AcDbLine
 62
7
  6
CONTINUOUS
 10
-151.1234564504
 20
24.94306261
 11
-151.1234564504
 21
25.84306261
  0
LINE
  5
445
100
AcDbEntity
  8
RACCORDO
100
AcDbLine
 62
7
  6
CONTINUOUS
 10
-150.9234564504
 20
-78.15693739
 11
-150.9234564504
 21
-75.25693739
  0
LINE
  5
446
100
AcDbEntity
  8
RACCORDO
100
AcDbLine
 62
7
  6
CONTINUOUS
 10
-150.9234564504
 20
-73.95693739
 11
-150.9234564504
 21
24.74306261
  0
LINE
  5
447
100
AcDbEntity
  8
RACCORDO
100
AcDbLine
 62
7
  6
CONTINUOUS
 10
-150.9234564504
 20
26.04306261
 11
-150.9234564504
 21
28.94306261
  0
LINE
  5
448
100
AcDbEntity
  8
RACCORDO
100
AcDbLine
 62
253
  6
CONTINUOUS
 10
-150.4234564504
 20
-78.65693739
 11
-150.4234564504
 21
-75.25693739
  0
LINE
  5
449
100
AcDbEntity
  8
RACCORDO
100
AcDbLine
 62
253
  6
CONTINUOUS
 10
-150.4234564504
 20
-73.95693739
 11
-150.4234564504
 21
24.74306261
  0
LINE
  5
44A
100
AcDbEntity
  8
RACCORDO
100
AcDbLine
 62
253
  6
CONTINUOUS
 10
-150.4234564504
 20
26.04306261
 11
-150.4234564504
 21
29.44306261
  0
LINE
  5
44B
100
AcDbEntity
  8
RACCORDO
100
AcDbLine
 62
253
  6
CONTINUOUS
 10
-150.1234564504
 20
24.74306261
 11
-150.1234564504
 21
26.04306261
  0
LINE
  5
44C
100
AcDbEntity
  8
ASSI
100
AcDbLine
 62
253
  6
CONTINUOUS
 10
-150.1234564504
 20
24.74306261
 11
-150.1234564504
 21
26.04306261
  0
LINE
  5
44D
100
AcDbEntity
  8
RACCORDO
100
AcDbLine
 62
253
  6
CONTINUOUS
 10
-150.1234564504
 20
-73.95693739
 11
-150.1234564504
 21
-75.25693739
  0
LINE
  5
44E
100
AcDbEntity
  8
ASSI
100
AcDbLine
 62
253
  6
CONTINUOUS
 10
-150.1234564504
 20
-73.95693739
 11
-150.1234564504
 21
-75.25693739
  0
LINE
  5
44F
100
AcDbEntity
  8
RACCORDO
100
AcDbLine
 62
7
  6
CONTINUOUS
 10
-149.8234564504
 20
-73.95693739
 11
-149.8234564504
 21
-28.10693739
  0
LINE
  5
450
100
AcDbEntity
  8
0
100
AcDbLine
 62
7
  6
CONTINUOUS
 10
-149.8234564504
 20
-21.10693739
 11
-149.8234564504
 21
-28.10693739
  0
LINE
  5
451
100
AcDbEntity
  8
RACCORDO
100
AcDbLine
 62
7
  6
CONTINUOUS
 10
-149.8234564504
 20
-21.10693739
 11
-149.8234564504
 21
24.74306261
  0
LINE
  5
452
100
AcDbEntity
  8
ASSI
100
AcDbLine
 62
7
  6
CONTINUOUS
 10
-149.8234564504
 20
-73.95693739
 11
-149.8234564504
 21
24.74306261
  0
LINE
  5
453
100
AcDbEntity
  8
RACCORDO
100
AcDbLine
 62
7
  6
CONTINUOUS
 10
-149.8234564504
 20
26.04306261
 11
-149.8234564504
 21
32.44306261
  0
LINE
  5
454
100
AcDbEntity
  8
ASSI
100
AcDbLine
 62
7
  6
CONTINUOUS
 10
-149.8234564504
 20
26.04306261
 11
-149.8234564504
 21
32.44306261
  0
LINE
  5
455
100
AcDbEntity
  8
RACCORDO
100
AcDbLine
 62
7
  6
CONTINUOUS
 10
-149.8234564504
 20
-75.25693739
 11
-149.8234564504
 21
-81.65693739
  0
LINE
  5
456
100
AcDbEntity
  8
ASSI
100
AcDbLine
 62
7
  6
CONTINUOUS
 10
-149.8234564504
 20
-75.25693739
 11
-149.8234564504
 21
-81.65693739
  0
LINE
  5
457
100
AcDbEntity
  8
0
100
AcDbLine
 62
7
  6
CONTINUOUS
 10
-148.2234564504
 20
-28.10693739
 11
-149.8234564504
 21
-28.10693739
  0
LINE
  5
458
100
AcDbEntity
  8
ASSI
100
AcDbLine
 62
7
  6
CONTINUOUS
 10
-148.2234564504
 20
-28.10693739
 11
-149.8234564504
 21
-28.10693739
  0
LINE
  5
459
100
AcDbEntity
  8
RACCORDO
100
AcDbLine
 62
7
  6
CONTINUOUS
 10
-123.7234564504
 20
-27.85693739
 11
-125.0719115162
 21
-27.85693739
  0
LINE
  5
45A
100
AcDbEntity
  8
ASSI
100
AcDbLine
 62
7
  6
CONTINUOUS
 10
-123.7234564504
 20
-27.85693739
 11
-125.0719115162
 21
-27.85693739
  0
LINE
  5
45B
100
AcDbEntity
  8
ASSI
100
AcDbLine
 62
7
  6
CONTINUOUS
 10
-142.5945261159
 20
-27.85693739
 11
-144.4111331684
 21
-27.85693739
  0
LWPOLYLINE
  5
45C
100
AcDbEntity
  8
RACCORDO
100
AcDbPolyline
 62
253
  6
CONTINUOUS
 90
7
 70
0
 10
-136.2277209774
 20
-76.7664803553
 10
-136.2392575283
 20
-76.732554142
 10
-136.2487085421
 20
-76.6982288831
 10
-136.2560738583
 20
-76.6635045784
 10
-136.2613533523
 20
-76.628381228
 10
-136.2645469344
 20
-76.5928588319
 10
-136.2656545508
 20
-76.55693739
  0
LWPOLYLINE
  5
45D
100
AcDbEntity
  8
ASSI
100
AcDbPolyline
 62
253
  6
CONTINUOUS
 90
7
 70
0
 10
-136.2277209774
 20
-76.7664803553
 10
-136.2392575283
 20
-76.732554142
 10
-136.2487085421
 20
-76.6982288831
 10
-136.2560738583
 20
-76.6635045784
 10
-136.2613533523
 20
-76.628381228
 10
-136.2645469344
 20
-76.5928588319
 10
-136.2656545508
 20
-76.55693739
  0
LINE
  5
45E
100
AcDbEntity
  8
RACCORDO
100
AcDbLine
 62
253
  6
CONTINUOUS
 10
-149.6234564504
 20
-74.15693739
 11
-149.6234564504
 21
-28.10693739
  0
LINE
  5
45F
100
AcDbEntity
  8
ASSI
100
AcDbLine
 62
253
  6
CONTINUOUS
 10
-149.6234564504
 20
-74.15693739
 11
-149.6234564504
 21
-28.10693739
  0
LINE
  5
460
100
AcDbEntity
  8
RACCORDO
100
AcDbLine
 62
253
  6
CONTINUOUS
 10
-149.6234564504
 20
-21.10693739
 11
-149.6234564504
 21
24.94306261
  0
LINE
  5
461
100
AcDbEntity
  8
ASSI
100
AcDbLine
 62
253
  6
CONTINUOUS
 10
-149.6234564504
 20
-21.10693739
 11
-149.6234564504
 21
24.94306261
  0
LINE
  5
462
100
AcDbEntity
  8
RACCORDO
100
AcDbLine
 62
253
  6
CONTINUOUS
 10
-149.6234564504
 20
25.84306261
 11
-149.6234564504
 21
32.64306261
  0
LINE
  5
463
100
AcDbEntity
  8
ASSI
100
AcDbLine
 62
253
  6
CONTINUOUS
 10
-149.6234564504
 20
25.84306261
 11
-149.6234564504
 21
32.64306261
  0
LINE
  5
464
100
AcDbEntity
  8
RACCORDO
100
AcDbLine
 62
253
  6
CONTINUOUS
 10
-149.6234564504
 20
-75.05693739
 11
-149.6234564504
 21
-81.85693739
  0
LINE
  5
465
100
AcDbEntity
  8
ASSI
100
AcDbLine
 62
253
  6
CONTINUOUS
 10
-149.6234564504
 20
-75.05693739
 11
-149.6234564504
 21
-81.85693739
  0
LINE
  5
466
100
AcDbEntity
  8
0
100
AcDbLine
 62
7
  6
CONTINUOUS
 10
-148.9162767734
 20
-21.10693739
 11
-148.9162767734
 21
-28.10693739
  0
LINE
  5
467
100
AcDbEntity
  8
ASSI
100
AcDbLine
 62
7
  6
CONTINUOUS
 10
-148.9162767734
 20
-21.10693739
 11
-148.9162767734
 21
-28.10693739
  0
LINE
  5
468
100
AcDbEntity
  8
0
100
AcDbLine
 62
7
  6
CONTINUOUS
 10
-148.2234564504
 20
-21.10693739
 11
-148.2234564504
 21
-28.10693739
  0
LINE
  5
469
100
AcDbEntity
  8
ASSI
100
AcDbLine
 62
7
  6
CONTINUOUS
 10
-148.2234564504
 20
-21.10693739
 11
-148.2234564504
 21
-28.10693739
  0
LINE
  5
46A
100
AcDbEntity
  8
RACCORDO
100
AcDbLine
 62
7
  6
CONTINUOUS
 10
-147.3234564504
 20
32.64306261
 11
-147.3234564504
 21
-81.85693739
  0
LINE
  5
46B
100
AcDbEntity
  8
ASSI
100
AcDbLine
 62
7
  6
CONTINUOUS
 10
-147.3234564504
 20
32.64306261
 11
-147.3234564504
 21
-81.85693739
  0
LINE
  5
46C
100
AcDbEntity
  8
RACCORDO
100
AcDbLine
 62
253
  6
CONTINUOUS
 10
-147.0234564504
 20
31.26806261
 11
-147.0234564504
 21
-80.48193739
  0
LINE
  5
46D
100
AcDbEntity
  8
RACCORDO
100
AcDbLine
 62
7
  6
CONTINUOUS
 10
-146.9734564504
 20
31.21806261
 11
-146.9734564504
 21
-80.43193739
  0
LINE
  5
46E
100
AcDbEntity
  8
ASSI
100
AcDbLine
 62
7
  6
CONTINUOUS
 10
-144.4111331684
 20
-21.35693739
 11
-144.4111331684
 21
-27.85693739
  0
LINE
  5
46F
100
AcDbEntity
  8
RACCORDO
100
AcDbLine
 62
7
  6
CONTINUOUS
 10
-123.7234564504
 20
-21.35693739
 11
-125.0719115162
 21
-21.35693739
  0
LINE
  5
470
100
AcDbEntity
  8
ASSI
100
AcDbLine
 62
7
  6
CONTINUOUS
 10
-123.7234564504
 20
-21.35693739
 11
-125.0719115162
 21
-21.35693739
  0
LINE
  5
471
100
AcDbEntity
  8
ASSI
100
AcDbLine
 62
7
  6
CONTINUOUS
 10
-142.5945261159
 20
-21.35693739
 11
-144.4111331684
 21
-21.35693739
  0
LINE
  5
472
100
AcDbEntity
  8
0
100
AcDbLine
 62
7
  6
CONTINUOUS
 10
-148.2234564504
 20
-21.10693739
 11
-149.8234564504
 21
-21.10693739
  0
LINE
  5
473
100
AcDbEntity
  8
ASSI
100
AcDbLine
 62
7
  6
CONTINUOUS
 10
-148.2234564504
 20
-21.10693739
 11
-149.8234564504
 21
-21.10693739
  0
LWPOLYLINE
  5
474
100
AcDbEntity
  8
RACCORDO
100
AcDbPolyline
 62
253
  6
CONTINUOUS
 90
8
 70
0
 10
-121.1681561469
 20
-77.2504242973
 10
-121.1641447897
 20
-77.2601451469
 10
-121.1606389534
 20
-77.2685126872
 10
-121.1576687622
 20
-77.2754556936
 10
-121.1552599866
 20
-77.280915162
 10
-121.1534331581
 20
-77.2848445613
 10
-121.1522032041
 20
-77.2872101517
 10
-121.1515626174
 20
-77.287988039
  0
LWPOLYLINE
  5
475
100
AcDbEntity
  8
ASSI
100
AcDbPolyline
 62
253
  6
CONTINUOUS
 90
8
 70
0
 10
-121.1681561469
 20
-77.2504242973
 10
-121.1641447897
 20
-77.2601451469
 10
-121.1606389534
 20
-77.2685126872
 10
-121.1576687622
 20
-77.2754556936
 10
-121.1552599866
 20
-77.280915162
 10
-121.1534331581
 20
-77.2848445613
 10
-121.1522032041
 20
-77.2872101517
 10
-121.1515626174
 20
-77.287988039
  0
LWPOLYLINE
  5
476
100
AcDbEntity
  8
RACCORDO
100
AcDbPolyline
 62
253
  6
CONTINUOUS
 90
9
 70
0
 10
-135.7263989722
 20
-76.8050767637
 10
-135.7260664285
 20
-76.8170052618
 10
-135.725719492
 20
-76.8274662568
 10
-135.7253600516
 20
-76.8364063394
 10
-135.7249902272
 20
-76.8437762085
 10
-135.7246127344
 20
-76.8495300514
 10
-135.7242299398
 20
-76.8536455694
 10
-135.7238437953
 20
-76.8561152813
 10
-135.7234564504
 20
-76.85693739
  0
LWPOLYLINE
  5
477
100
AcDbEntity
  8
ASSI
100
AcDbPolyline
 62
253
  6
CONTINUOUS
 90
9
 70
0
 10
-135.7263989722
 20
-76.8050767637
 10
-135.7260664285
 20
-76.8170052618
 10
-135.725719492
 20
-76.8274662568
 10
-135.7253600516
 20
-76.8364063394
 10
-135.7249902272
 20
-76.8437762085
 10
-135.7246127344
 20
-76.8495300514
 10
-135.7242299398
 20
-76.8536455694
 10
-135.7238437953
 20
-76.8561152813
 10
-135.7234564504
 20
-76.85693739
  0
LINE
  5
478
100
AcDbEntity
  8
ASSI
100
AcDbLine
 62
253
  6
CONTINUOUS
 10
-143.1502419289
 20
-21.35693739
 11
-143.1502419289
 21
-27.85693739
  0
LINE
  5
479
100
AcDbEntity
  8
ASSI
100
AcDbLine
 62
253
  6
CONTINUOUS
 10
-142.7636488292
 20
-21.35693739
 11
-142.7636488292
 21
-27.85693739
  0
LINE
  5
47A
100
AcDbEntity
  8
ASSI
100
AcDbLine
 62
7
  6
CONTINUOUS
 10
-142.5945261159
 20
-21.35693739
 11
-142.5945261159
 21
-27.85693739
  0
LINE
  5
47B
100
AcDbEntity
  8
DRAFT
100
AcDbLine
 62
7
  6
CONTINUOUS
 10
-138.3234564504
 20
28.7559095556
 11
-138.3234564504
 21
28.5859670256
  0
LINE
  5
47C
100
AcDbEntity
  8
ASSI
100
AcDbLine
 62
7
  6
CONTINUOUS
 10
-138.3234564504
 20
28.7559095556
 11
-138.3234564504
 21
28.5859670256
  0
LINE
  5
47D
100
AcDbEntity
  8
DRAFT
100
AcDbLine
 62
7
  6
CONTINUOUS
 10
-138.3234564504
 20
-77.7998418057
 11
-138.3234564504
 21
-77.9693892089
  0
LINE
  5
47E
100
AcDbEntity
  8
ASSI
100
AcDbLine
 62
7
  6
CONTINUOUS
 10
-138.3234564504
 20
-77.7998418057
 11
-138.3234564504
 21
-77.9693892089
  0
LWPOLYLINE
  5
47F
100
AcDbEntity
  8
RACCORDO
100
AcDbPolyline
 62
253
  6
CONTINUOUS
 90
8
 70
0
 10
-123.5269469316
 20
-52.1035073036
 10
-123.5272019452
 20
-52.1029520643
 10
-123.5274312657
 20
-52.1012806111
 10
-123.5276361661
 20
-52.0985030601
 10
-123.5278195312
 20
-52.0946361447
 10
-123.527980634
 20
-52.0897019667
 10
-123.5281151541
 20
-52.0837268572
 10
-123.528223037
 20
-52.0767429884
  0
LWPOLYLINE
  5
480
100
AcDbEntity
  8
ASSI
100
AcDbPolyline
 62
253
  6
CONTINUOUS
 90
8
 70
0
 10
-123.5269469316
 20
-52.1035073036
 10
-123.5272019452
 20
-52.1029520643
 10
-123.5274312657
 20
-52.1012806111
 10
-123.5276361661
 20
-52.0985030601
 10
-123.5278195312
 20
-52.0946361447
 10
-123.527980634
 20
-52.0897019667
 10
-123.5281151541
 20
-52.0837268572
 10
-123.528223037
 20
-52.0767429884
  0
LINE
  5
481
100
AcDbEntity
  8
RACCORDO
100
AcDbLine
 62
253
  6
CONTINUOUS
 10
-135.7270124278
 20
-76.7771299854
 11
-135.7263989722
 21
-76.8050767637
  0
LINE
  5
482
100
AcDbEntity
  8
ASSI
100
AcDbLine
 62
253
  6
CONTINUOUS
 10
-135.7270124278
 20
-76.7771299854
 11
-135.7263989722
 21
-76.8050767637
  0
LINE
  5
483
100
AcDbEntity
  8
RACCORDO
100
AcDbLine
 62
253
  6
CONTINUOUS
 10
-135.7275460226
 20
-76.7442627731
 11
-135.7270124278
 21
-76.7771299854
  0
LINE
  5
484
100
AcDbEntity
  8
ASSI
100
AcDbLine
 62
253
  6
CONTINUOUS
 10
-135.7275460226
 20
-76.7442627731
 11
-135.7270124278
 21
-76.7771299854
  0
LINE
  5
485
100
AcDbEntity
  8
RACCORDO
100
AcDbLine
 62
253
  6
CONTINUOUS
 10
-135.7281719524
 20
-76.6873070101
 11
-135.7275460226
 21
-76.7442627731
  0
LINE
  5
486
100
AcDbEntity
  8
ASSI
100
AcDbLine
 62
253
  6
CONTINUOUS
 10
-135.7281719524
 20
-76.6873070101
 11
-135.7275460226
 21
-76.7442627731
  0
LINE
  5
487
100
AcDbEntity
  8
RACCORDO
100
AcDbLine
 62
253
  6
CONTINUOUS
 10
-135.7286334954
 20
-76.6017253355
 11
-135.7281719524
 21
-76.6873070101
  0
LINE
  5
488
100
AcDbEntity
  8
ASSI
100
AcDbLine
 62
253
  6
CONTINUOUS
 10
-135.7286334954
 20
-76.6017253355
 11
-135.7281719524
 21
-76.6873070101
  0
LINE
  5
489
100
AcDbEntity
  8
RACCORDO
100
AcDbLine
 62
253
  6
CONTINUOUS
 10
-136.2656545508
 20
-76.55693739
 11
-136.2656545508
 21
-64.80693739
  0
LINE
  5
48A
100
AcDbEntity
  8
ASSI
100
AcDbLine
 62
253
  6
CONTINUOUS
 10
-136.2656545508
 20
-76.55693739
 11
-136.2656545508
 21
-64.80693739
  0
LINE
  5
48B
100
AcDbEntity
  8
RACCORDO
100
AcDbLine
 62
7
  6
CONTINUOUS
 10
-136.0234564504
 20
-76.55693739
 11
-136.0234564504
 21
-64.80693739
  0
LINE
  5
48C
100
AcDbEntity
  8
ASSI
100
AcDbLine
 62
7
  6
CONTINUOUS
 10
-136.0234564504
 20
-76.55693739
 11
-136.0234564504
 21
-64.80693739
  0
LINE
  5
48D
100
AcDbEntity
  8
RACCORDO
100
AcDbLine
 62
253
  6
CONTINUOUS
 10
-135.7286334954
 20
-76.6017253355
 11
-135.7286921723
 21
-64.80693739
  0
LINE
  5
48E
100
AcDbEntity
  8
ASSI
100
AcDbLine
 62
253
  6
CONTINUOUS
 10
-135.7286334954
 20
-76.6017253355
 11
-135.7286921723
 21
-64.80693739
  0
LINE
  5
48F
100
AcDbEntity
  8
RACCORDO
100
AcDbLine
 62
253
  6
CONTINUOUS
 10
-135.7286921723
 20
-64.80693739
 11
-135.7284587857
 21
-64.7183664147
  0
LINE
  5
490
100
AcDbEntity
  8
ASSI
100
AcDbLine
 62
253
  6
CONTINUOUS
 10
-135.7286921723
 20
-64.80693739
 11
-135.7284587857
 21
-64.7183664147
  0
LWPOLYLINE
  5
491
100
AcDbEntity
  8
RACCORDO
100
AcDbPolyline
 62
253
  6
CONTINUOUS
 90
19
 70
0
 10
-135.663212217
 20
-64.20693739
 10
-135.6634414645
 20
-64.2330841138
 10
-135.6641274623
 20
-64.2590318451
 10
-135.6652649896
 20
-64.2845831061
 10
-135.666845389
 20
-64.3095434362
 10
-135.6688566329
 20
-64.3337228722
 10
-135.6712834143
 20
-64.3569373941
 10
-135.674107264
 20
-64.3790103252
 10
-135.6773066909
 20
-64.3997736772
 10
-135.6808573452
 20
-64.4190694285
 10
-135.6847322045
 20
-64.4367507268
 10
-135.6889017786
 20
-64.4526830067
 10
-135.6933343346
 20
-64.466745014
 10
-135.6979961381
 20
-64.4788297283
 10
-135.7028517099
 20
-64.4888451778
 10
-135.7078640961
 20
-64.4967151389
 10
-135.7129951495
 20
-64.5023797164
 10
-135.7182058197
 20
-64.5057957996
 10
-135.7234564504
 20
-64.50693739
  0
LWPOLYLINE
  5
492
100
AcDbEntity
  8
ASSI
100
AcDbPolyline
 62
253
  6
CONTINUOUS
 90
19
 70
0
 10
-135.663212217
 20
-64.20693739
 10
-135.6634414645
 20
-64.2330841138
 10
-135.6641274623
 20
-64.2590318451
 10
-135.6652649896
 20
-64.2845831061
 10
-135.666845389
 20
-64.3095434362
 10
-135.6688566329
 20
-64.3337228722
 10
-135.6712834143
 20
-64.3569373941
 10
-135.674107264
 20
-64.3790103252
 10
-135.6773066909
 20
-64.3997736772
 10
-135.6808573452
 20
-64.4190694285
 10
-135.6847322045
 20
-64.4367507268
 10
-135.6889017786
 20
-64.4526830067
 10
-135.6933343346
 20
-64.466745014
 10
-135.6979961381
 20
-64.4788297283
 10
-135.7028517099
 20
-64.4888451778
 10
-135.7078640961
 20
-64.4967151389
 10
-135.7129951495
 20
-64.5023797164
 10
-135.7182058197
 20
-64.5057957996
 10
-135.7234564504
 20
-64.50693739
  0
LINE
  5
493
100
AcDbEntity
  8
RACCORDO
100
AcDbLine
 62
253
  6
CONTINUOUS
 10
-135.7284587857
 20
-64.7183664147
 11
-135.7279883537
 21
-64.6567029318
  0
LINE
  5
494
100
AcDbEntity
  8
ASSI
100
AcDbLine
 62
253
  6
CONTINUOUS
 10
-135.7284587857
 20
-64.7183664147
 11
-135.7279883537
 21
-64.6567029318
  0
LINE
  5
495
100
AcDbEntity
  8
RACCORDO
100
AcDbLine
 62
253
  6
CONTINUOUS
 10
-135.7279883537
 20
-64.6567029318
 11
-135.7272899352
 21
-64.6026036654
  0
LINE
  5
496
100
AcDbEntity
  8
ASSI
100
AcDbLine
 62
253
  6
CONTINUOUS
 10
-135.7279883537
 20
-64.6567029318
 11
-135.7272899352
 21
-64.6026036654
  0
LINE
  5
497
100
AcDbEntity
  8
RACCORDO
100
AcDbLine
 62
253
  6
CONTINUOUS
 10
-135.7272899352
 20
-64.6026036654
 11
-135.7267149368
 21
-64.5721172561
  0
LINE
  5
498
100
AcDbEntity
  8
ASSI
100
AcDbLine
 62
253
  6
CONTINUOUS
 10
-135.7272899352
 20
-64.6026036654
 11
-135.7267149368
 21
-64.5721172561
  0
LWPOLYLINE
  5
499
100
AcDbEntity
  8
RACCORDO
100
AcDbPolyline
 62
253
  6
CONTINUOUS
 90
9
 70
0
 10
-135.7267149368
 20
-64.5721172561
 10
-135.7260664285
 20
-64.5468695184
 10
-135.725719492
 20
-64.5364085233
 10
-135.7253600516
 20
-64.5274684407
 10
-135.7249902272
 20
-64.5200985716
 10
-135.7246127345
 20
-64.5143447287
 10
-135.7242299398
 20
-64.5102292107
 10
-135.7238437952
 20
-64.5077594988
 10
-135.7234564503
 20
-64.50693739
  0
LWPOLYLINE
  5
49A
100
AcDbEntity
  8
ASSI
100
AcDbPolyline
 62
253
  6
CONTINUOUS
 90
9
 70
0
 10
-135.7267149368
 20
-64.5721172561
 10
-135.7260664285
 20
-64.5468695184
 10
-135.725719492
 20
-64.5364085233
 10
-135.7253600516
 20
-64.5274684407
 10
-135.7249902272
 20
-64.5200985716
 10
-135.7246127345
 20
-64.5143447287
 10
-135.7242299398
 20
-64.5102292107
 10
-135.7238437952
 20
-64.5077594988
 10
-135.7234564503
 20
-64.50693739
  0
LWPOLYLINE
  5
49B
100
AcDbEntity
  8
RACCORDO
100
AcDbPolyline
 62
253
  6
CONTINUOUS
 90
25
 70
0
 10
-136.2656545508
 20
-64.80693739
 10
-136.2643449842
 20
-64.7678742763
 10
-136.2605742562
 20
-64.7293045898
 10
-136.254342442
 20
-64.6912283306
 10
-136.245612185
 20
-64.6535078026
 10
-136.2344211426
 20
-64.6162807018
 10
-136.2208819748
 20
-64.579960117
 10
-136.2049707867
 20
-64.5445421028
 10
-136.1867120395
 20
-64.5100306045
 10
-136.1662909581
 20
-64.4768505465
 10
-136.1436750654
 20
-64.4450047938
 10
-136.1188976072
 20
-64.4144904813
 10
-136.0922423668
 20
-64.3857239384
 10
-136.0636849888
 20
-64.3587266202
 10
-136.0332506934
 20
-64.3334770716
 10
-136.0012975268
 20
-64.3103272564
 10
-135.9677944624
 20
-64.2892986155
 10
-135.9327733699
 20
-64.270369708
 10
-135.8966864502
 20
-64.2538281747
 10
-135.859517565
 20
-64.2397088485
 10
-135.8212835279
 20
-64.2279768965
 10
-135.7824856933
 20
-64.2188154605
 10
-135.7432912393
 20
-64.2122855877
 10
-135.7035333464
 20
-64.2083262309
 10
-135.663212217
 20
-64.20693739
  0
LWPOLYLINE
  5
49C
100
AcDbEntity
  8
ASSI
100
AcDbPolyline
 62
253
  6
CONTINUOUS
 90
25
 70
0
 10
-136.2656545508
 20
-64.80693739
 10
-136.2643449842
 20
-64.7678742763
 10
-136.2605742562
 20
-64.7293045898
 10
-136.254342442
 20
-64.6912283306
 10
-136.245612185
 20
-64.6535078026
 10
-136.2344211426
 20
-64.6162807018
 10
-136.2208819748
 20
-64.579960117
 10
-136.2049707867
 20
-64.5445421028
 10
-136.1867120395
 20
-64.5100306045
 10
-136.1662909581
 20
-64.4768505465
 10
-136.1436750654
 20
-64.4450047938
 10
-136.1188976072
 20
-64.4144904813
 10
-136.0922423668
 20
-64.3857239384
 10
-136.0636849888
 20
-64.3587266202
 10
-136.0332506934
 20
-64.3334770716
 10
-136.0012975268
 20
-64.3103272564
 10
-135.9677944624
 20
-64.2892986155
 10
-135.9327733699
 20
-64.270369708
 10
-135.8966864502
 20
-64.2538281747
 10
-135.859517565
 20
-64.2397088485
 10
-135.8212835279
 20
-64.2279768965
 10
-135.7824856933
 20
-64.2188154605
 10
-135.7432912393
 20
-64.2122855877
 10
-135.7035333464
 20
-64.2083262309
 10
-135.663212217
 20
-64.20693739
  0
LWPOLYLINE
  5
49D
100
AcDbEntity
  8
RACCORDO
100
AcDbPolyline
 62
253
  6
CONTINUOUS
 90
8
 70
0
 10
-121.2199659691
 20
-55.1506359789
 10
-121.2196751845
 20
-55.1514019235
 10
-121.2194131659
 20
-55.1536833169
 10
-121.2191819066
 20
-55.1574628053
 10
-121.2189831662
 20
-55.1627116351
 10
-121.2188184564
 20
-55.1693898793
 10
-121.2186890301
 20
-55.177446747
 10
-121.2185958721
 20
-55.1868209614
  0
LWPOLYLINE
  5
49E
100
AcDbEntity
  8
ASSI
100
AcDbPolyline
 62
253
  6
CONTINUOUS
 90
8
 70
0
 10
-121.2199659691
 20
-55.1506359789
 10
-121.2196751845
 20
-55.1514019235
 10
-121.2194131659
 20
-55.1536833169
 10
-121.2191819066
 20
-55.1574628053
 10
-121.2189831662
 20
-55.1627116351
 10
-121.2188184564
 20
-55.1693898793
 10
-121.2186890301
 20
-55.177446747
 10
-121.2185958721
 20
-55.1868209614
  0
LINE
  5
49F
100
AcDbEntity
  8
ASSI
100
AcDbLine
 62
7
  6
CONTINUOUS
 10
-125.0719115162
 20
-21.35693739
 11
-125.0719115162
 21
-27.85693739
  0
LWPOLYLINE
  5
4A0
100
AcDbEntity
  8
RACCORDO
100
AcDbPolyline
 62
253
  6
CONTINUOUS
 90
19
 70
0
 10
-125.3564995486
 20
-64.20693739
 10
-125.3568877956
 20
-64.2330840737
 10
-125.358049582
 20
-64.2590317712
 10
-125.3599760665
 20
-64.2845830053
 10
-125.3626525878
 20
-64.3095433158
 10
-125.3660587765
 20
-64.3337227396
 10
-125.3701687098
 20
-64.356937256
 10
-125.3749511092
 20
-64.3790101881
 10
-125.380369578
 20
-64.3997735468
 10
-125.3863828786
 20
-64.4190693092
 10
-125.3929452464
 20
-64.4367506221
 10
-125.4000067381
 20
-64.4526829192
 10
-125.4075136114
 20
-64.4667449446
 10
-125.4154087344
 20
-64.4788296769
 10
-125.4236320206
 20
-64.4888451432
 10
-125.4321208855
 20
-64.4967151185
 10
-125.4408107233
 20
-64.5023797069
 10
-125.4496353993
 20
-64.5057957971
 10
-125.4585277522
 20
-64.50693739
  0
LWPOLYLINE
  5
4A1
100
AcDbEntity
  8
ASSI
100
AcDbPolyline
 62
253
  6
CONTINUOUS
 90
19
 70
0
 10
-125.3564995486
 20
-64.20693739
 10
-125.3568877956
 20
-64.2330840737
 10
-125.358049582
 20
-64.2590317712
 10
-125.3599760665
 20
-64.2845830053
 10
-125.3626525878
 20
-64.3095433158
 10
-125.3660587765
 20
-64.3337227396
 10
-125.3701687098
 20
-64.356937256
 10
-125.3749511092
 20
-64.3790101881
 10
-125.380369578
 20
-64.3997735468
 10
-125.3863828786
 20
-64.4190693092
 10
-125.3929452464
 20
-64.4367506221
 10
-125.4000067381
 20
-64.4526829192
 10
-125.4075136114
 20
-64.4667449446
 10
-125.4154087344
 20
-64.4788296769
 10
-125.4236320206
 20
-64.4888451432
 10
-125.4321208855
 20
-64.4967151185
 10
-125.4408107233
 20
-64.5023797069
 10
-125.4496353993
 20
-64.5057957971
 10
-125.4585277522
 20
-64.50693739
  0
LWPOLYLINE
  5
4A2
100
AcDbEntity
  8
RACCORDO
100
AcDbPolyline
 62
253
  6
CONTINUOUS
 90
25
 70
0
 10
-135.671114695
 20
-77.3285767753
 10
-135.668019115
 20
-77.3055516205
 10
-135.6653805346
 20
-77.2813011779
 10
-135.6632207091
 20
-77.2560253812
 10
-135.6615574464
 20
-77.2299326178
 10
-135.6604044608
 20
-77.2032380107
 10
-135.6597712598
 20
-77.1761616448
 10
-135.6596630654
 20
-77.1489267521
 10
-135.6600807714
 20
-77.1217578721
 10
-135.6610209357
 20
-77.0948789998
 10
-135.6624758091
 20
-77.068511739
 10
-135.6644333988
 20
-77.0428734759
 10
-135.6668775673
 20
-77.0181755862
 10
-135.6697881657
 20
-76.9946216928
 10
-135.6731411997
 20
-76.9724059866
 10
-135.6769090272
 20
-76.9517116261
 10
-135.6810605863
 20
-76.9327092269
 10
-135.6855616517
 20
-76.9155554549
 10
-135.6903751164
 20
-76.9003917352
 10
-135.6954612979
 20
-76.8873430858
 10
-135.700778265
 20
-76.8765170868
 10
-135.7062821842
 20
-76.8680029936
 10
-135.7119276804
 20
-76.8618710011
 10
-135.7176682111
 20
-76.8581716646
 10
-135.7234564505
 20
-76.8569354836
  0
LWPOLYLINE
  5
4A3
100
AcDbEntity
  8
ASSI
100
AcDbPolyline
 62
253
  6
CONTINUOUS
 90
25
 70
0
 10
-135.671114695
 20
-77.3285767753
 10
-135.668019115
 20
-77.3055516205
 10
-135.6653805346
 20
-77.2813011779
 10
-135.6632207091
 20
-77.2560253812
 10
-135.6615574464
 20
-77.2299326178
 10
-135.6604044608
 20
-77.2032380107
 10
-135.6597712598
 20
-77.1761616448
 10
-135.6596630654
 20
-77.1489267521
 10
-135.6600807714
 20
-77.1217578721
 10
-135.6610209357
 20
-77.0948789998
 10
-135.6624758091
 20
-77.068511739
 10
-135.6644333988
 20
-77.0428734759
 10
-135.6668775673
 20
-77.0181755862
 10
-135.6697881657
 20
-76.9946216928
 10
-135.6731411997
 20
-76.9724059866
 10
-135.6769090272
 20
-76.9517116261
 10
-135.6810605863
 20
-76.9327092269
 10
-135.6855616517
 20
-76.9155554549
 10
-135.6903751164
 20
-76.9003917352
 10
-135.6954612979
 20
-76.8873430858
 10
-135.700778265
 20
-76.8765170868
 10
-135.7062821842
 20
-76.8680029936
 10
-135.7119276804
 20
-76.8618710011
 10
-135.7176682111
 20
-76.8581716646
 10
-135.7234564505
 20
-76.8569354836
  0
LINE
  5
4A4
100
AcDbEntity
  8
DRAFT
100
AcDbLine
 62
7
  6
CONTINUOUS
 10
-123.5269469316
 20
-2.0558724984
 11
-120.9199659691
 21
-2.0103674764
  0
LINE
  5
4A5
100
AcDbEntity
  8
ASSI
100
AcDbLine
 62
7
  6
CONTINUOUS
 10
-123.5269469316
 20
-2.0558724984
 11
-120.9199659691
 21
-2.0103674764
  0
LWPOLYLINE
  5
4A6
100
AcDbEntity
  8
RACCORDO
100
AcDbPolyline
 62
253
  6
CONTINUOUS
 90
8
 70
0
 10
-121.2199659691
 20
-30.8506359789
 10
-121.2196751845
 20
-30.8514019235
 10
-121.2194131659
 20
-30.8536833169
 10
-121.2191819066
 20
-30.8574628053
 10
-121.2189831662
 20
-30.8627116351
 10
-121.2188184564
 20
-30.8693898793
 10
-121.2186890301
 20
-30.877446747
 10
-121.2185958721
 20
-30.8868209614
  0
LWPOLYLINE
  5
4A7
100
AcDbEntity
  8
ASSI
100
AcDbPolyline
 62
253
  6
CONTINUOUS
 90
8
 70
0
 10
-121.2199659691
 20
-30.8506359789
 10
-121.2196751845
 20
-30.8514019235
 10
-121.2194131659
 20
-30.8536833169
 10
-121.2191819066
 20
-30.8574628053
 10
-121.2189831662
 20
-30.8627116351
 10
-121.2188184564
 20
-30.8693898793
 10
-121.2186890301
 20
-30.877446747
 10
-121.2185958721
 20
-30.8868209614
  0
LINE
  5
4A8
100
AcDbEntity
  8
RACCORDO
100
AcDbLine
 62
253
  6
CONTINUOUS
 10
-121.2199659691
 20
-51.8632692621
 11
-121.2191819066
 21
-51.9150149944
  0
LINE
  5
4A9
100
AcDbEntity
  8
ASSI
100
AcDbLine
 62
253
  6
CONTINUOUS
 10
-121.2199659691
 20
-51.8632692621
 11
-121.2191819066
 21
-51.9150149944
  0
LINE
  5
4AA
100
AcDbEntity
  8
RACCORDO
100
AcDbLine
 62
253
  6
CONTINUOUS
 10
-121.2215089957
 20
-77.3131701205
 11
-121.2201999794
 21
-77.4013050707
  0
LINE
  5
4AB
100
AcDbEntity
  8
ASSI
100
AcDbLine
 62
253
  6
CONTINUOUS
 10
-121.2215089957
 20
-77.3131701205
 11
-121.2201999794
 21
-77.4013050707
  0
LINE
  5
4AC
100
AcDbEntity
  8
RACCORDO
100
AcDbLine
 62
253
  6
CONTINUOUS
 10
-123.5269469316
 20
-55.3103370155
 11
-123.5278195312
 21
-55.2513657826
  0
LINE
  5
4AD
100
AcDbEntity
  8
ASSI
100
AcDbLine
 62
253
  6
CONTINUOUS
 10
-123.5269469316
 20
-55.3103370155
 11
-123.5278195312
 21
-55.2513657826
  0
LINE
  5
4AE
100
AcDbEntity
  8
RACCORDO
100
AcDbLine
 62
253
  6
CONTINUOUS
 10
-123.5269469316
 20
-31.0103370155
 11
-123.5278195312
 21
-30.9513657826
  0
LINE
  5
4AF
100
AcDbEntity
  8
ASSI
100
AcDbLine
 62
253
  6
CONTINUOUS
 10
-123.5269469316
 20
-31.0103370155
 11
-123.5278195312
 21
-30.9513657826
  0
LINE
  5
4B0
100
AcDbEntity
  8
RACCORDO
100
AcDbLine
 62
253
  6
CONTINUOUS
 10
-121.2191819066
 20
-51.9150149944
 11
-121.2186890301
 21
-51.9632358153
  0
LINE
  5
4B1
100
AcDbEntity
  8
ASSI
100
AcDbLine
 62
253
  6
CONTINUOUS
 10
-121.2191819066
 20
-51.9150149944
 11
-121.2186890301
 21
-51.9632358153
  0
LINE
  5
4B2
100
AcDbEntity
  8
RACCORDO
100
AcDbLine
 62
253
  6
CONTINUOUS
 10
-123.5278195312
 20
-55.2513657826
 11
-123.528223037
 21
-55.2103291714
  0
LINE
  5
4B3
100
AcDbEntity
  8
ASSI
100
AcDbLine
 62
253
  6
CONTINUOUS
 10
-123.5278195312
 20
-55.2513657826
 11
-123.528223037
 21
-55.2103291714
  0
LINE
  5
4B4
100
AcDbEntity
  8
RACCORDO
100
AcDbLine
 62
253
  6
CONTINUOUS
 10
-123.5278195312
 20
-30.9513657826
 11
-123.528223037
 21
-30.9103291714
  0
LINE
  5
4B5
100
AcDbEntity
  8
ASSI
100
AcDbLine
 62
253
  6
CONTINUOUS
 10
-123.5278195312
 20
-30.9513657826
 11
-123.528223037
 21
-30.9103291714
  0
LINE
  5
4B6
100
AcDbEntity
  8
RACCORDO
100
AcDbLine
 62
253
  6
CONTINUOUS
 10
-121.2201999794
 20
-77.4013050707
 11
-121.2196610085
 21
-77.4545039228
  0
LINE
  5
4B7
100
AcDbEntity
  8
ASSI
100
AcDbLine
 62
253
  6
CONTINUOUS
 10
-121.2201999794
 20
-77.4013050707
 11
-121.2196610085
 21
-77.4545039228
  0
LINE
  5
4B8
100
AcDbEntity
  8
RACCORDO
100
AcDbLine
 62
253
  6
CONTINUOUS
 10
-123.528223037
 20
-52.0767429884
 11
-123.5283608939
 21
-52.0599130865
  0
LINE
  5
4B9
100
AcDbEntity
  8
ASSI
100
AcDbLine
 62
253
  6
CONTINUOUS
 10
-123.528223037
 20
-52.0767429884
 11
-123.5283608939
 21
-52.0599130865
  0
LINE
  5
4BA
100
AcDbEntity
  8
RACCORDO
100
AcDbLine
 62
253
  6
CONTINUOUS
 10
-121.2186890301
 20
-51.9632358153
 11
-121.2185396916
 21
-51.9917858742
  0
LINE
  5
4BB
100
AcDbEntity
  8
ASSI
100
AcDbLine
 62
253
  6
CONTINUOUS
 10
-121.2186890301
 20
-51.9632358153
 11
-121.2185396916
 21
-51.9917858742
  0
LINE
  5
4BC
100
AcDbEntity
  8
RACCORDO
100
AcDbLine
 62
253
  6
CONTINUOUS
 10
-121.2196610085
 20
-77.4545039228
 11
-121.219561206
 21
-77.4744979419
  0
LINE
  5
4BD
100
AcDbEntity
  8
ASSI
100
AcDbLine
 62
253
  6
CONTINUOUS
 10
-121.2196610085
 20
-77.4545039228
 11
-121.219561206
 21
-77.4744979419
  0
LINE
  5
4BE
100
AcDbEntity
  8
RACCORDO
100
AcDbLine
 62
253
  6
CONTINUOUS
 10
-123.528223037
 20
-55.2103291714
 11
-123.5283879569
 21
-55.1743032712
  0
LINE
  5
4BF
100
AcDbEntity
  8
ASSI
100
AcDbLine
 62
253
  6
CONTINUOUS
 10
-123.528223037
 20
-55.2103291714
 11
-123.5283879569
 21
-55.1743032712
  0
LINE
  5
4C0
100
AcDbEntity
  8
RACCORDO
100
AcDbLine
 62
253
  6
CONTINUOUS
 10
-123.528223037
 20
-30.9103291714
 11
-123.5283879569
 21
-30.8743032712
  0
LINE
  5
4C1
100
AcDbEntity
  8
ASSI
100
AcDbLine
 62
253
  6
CONTINUOUS
 10
-123.528223037
 20
-30.9103291714
 11
-123.5283879569
 21
-30.8743032712
  0
LINE
  5
4C2
100
AcDbEntity
  8
RACCORDO
100
AcDbLine
 62
253
  6
CONTINUOUS
 10
-121.2185958721
 20
-55.1868209614
 11
-121.218520916
 21
-55.2092266849
  0
LINE
  5
4C3
100
AcDbEntity
  8
ASSI
100
AcDbLine
 62
253
  6
CONTINUOUS
 10
-121.2185958721
 20
-55.1868209614
 11
-121.218520916
 21
-55.2092266849
  0
LINE
  5
4C4
100
AcDbEntity
  8
RACCORDO
100
AcDbLine
 62
253
  6
CONTINUOUS
 10
-121.2185958721
 20
-30.8868209614
 11
-121.218520916
 21
-30.9092266849
  0
LINE
  5
4C5
100
AcDbEntity
  8
ASSI
100
AcDbLine
 62
253
  6
CONTINUOUS
 10
-121.2185958721
 20
-30.8868209614
 11
-121.218520916
 21
-30.9092266849
  0
LINE
  5
4C6
100
AcDbEntity
  8
RACCORDO
100
AcDbLine
 62
253
  6
CONTINUOUS
 10
-124.0445447649
 20
-63.2069373728
 11
-124.0445448857
 21
-27.85693739
  0
LINE
  5
4C7
100
AcDbEntity
  8
ASSI
100
AcDbLine
 62
253
  6
CONTINUOUS
 10
-124.0445447649
 20
-63.2069373728
 11
-124.0445448857
 21
-27.85693739
  0
LINE
  5
4C8
100
AcDbEntity
  8
RACCORDO
100
AcDbLine
 62
253
  6
CONTINUOUS
 10
-123.7770317748
 20
-64.80693739
 11
-123.7770363638
 21
-76.55693739
  0
LINE
  5
4C9
100
AcDbEntity
  8
ASSI
100
AcDbLine
 62
253
  6
CONTINUOUS
 10
-123.7770317748
 20
-64.80693739
 11
-123.7770363638
 21
-76.55693739
  0
LINE
  5
4CA
100
AcDbEntity
  8
RACCORDO
100
AcDbLine
 62
7
  6
CONTINUOUS
 10
-123.7234564504
 20
27.8397744461
 11
-123.7234564504
 21
-21.35693739
  0
LINE
  5
4CB
100
AcDbEntity
  8
RACCORDO
100
AcDbLine
 62
7
  6
CONTINUOUS
 10
-123.7234564504
 20
-27.85693739
 11
-123.7234564504
 21
-63.20693739
  0
LINE
  5
4CC
100
AcDbEntity
  8
ASSI
100
AcDbLine
 62
7
  6
CONTINUOUS
 10
-123.7234564504
 20
27.8397744461
 11
-123.7234564504
 21
-63.20693739
  0
LINE
  5
4CD
100
AcDbEntity
  8
RACCORDO
100
AcDbLine
 62
253
  6
CONTINUOUS
 10
-123.6734159813
 20
-64.80693739
 11
-123.673419897
 21
-76.550305529
  0
LINE
  5
4CE
100
AcDbEntity
  8
ASSI
100
AcDbLine
 62
253
  6
CONTINUOUS
 10
-123.6734159813
 20
-64.80693739
 11
-123.673419897
 21
-76.550305529
  0
LINE
  5
4CF
100
AcDbEntity
  8
RACCORDO
100
AcDbLine
 62
253
  6
CONTINUOUS
 10
-123.5283608939
 20
-52.0599130865
 11
-123.5283879694
 21
-52.0395934025
  0
LINE
  5
4D0
100
AcDbEntity
  8
ASSI
100
AcDbLine
 62
253
  6
CONTINUOUS
 10
-123.5283608939
 20
-52.0599130865
 11
-123.5283879694
 21
-52.0395934025
  0
LINE
  5
4D1
100
AcDbEntity
  8
RACCORDO
100
AcDbLine
 62
253
  6
CONTINUOUS
 10
-123.5269469316
 20
-63.40693739
 11
-123.5269469316
 21
-55.3103370155
  0
LINE
  5
4D2
100
AcDbEntity
  8
ASSI
100
AcDbLine
 62
253
  6
CONTINUOUS
 10
-123.5269469316
 20
-63.40693739
 11
-123.5269469316
 21
-55.3103370155
  0
LINE
  5
4D3
100
AcDbEntity
  8
RACCORDO
100
AcDbLine
 62
253
  6
CONTINUOUS
 10
-123.5269469316
 20
4.4419977183
 11
-123.5269469316
 21
-2.0558724984
  0
LINE
  5
4D4
100
AcDbEntity
  8
ASSI
100
AcDbLine
 62
253
  6
CONTINUOUS
 10
-123.5269469316
 20
4.4419977183
 11
-123.5269469316
 21
-2.0558724984
  0
LINE
  5
4D5
100
AcDbEntity
  8
RACCORDO
100
AcDbLine
 62
253
  6
CONTINUOUS
 10
-123.5269469316
 20
-31.0103370155
 11
-123.5269469316
 21
-51.9035377646
  0
LINE
  5
4D6
100
AcDbEntity
  8
ASSI
100
AcDbLine
 62
253
  6
CONTINUOUS
 10
-123.5269469316
 20
-31.0103370155
 11
-123.5269469316
 21
-51.9035377646
  0
LINE
  5
4D7
100
AcDbEntity
  8
RACCORDO
100
AcDbLine
 62
253
  6
CONTINUOUS
 10
-121.2199659691
 20
-31.050605518
 11
-121.2199659691
 21
-33.3982707842
  0
LINE
  5
4D8
100
AcDbEntity
  8
ASSI
100
AcDbLine
 62
253
  6
CONTINUOUS
 10
-121.2199659691
 20
-31.050605518
 11
-121.2199659691
 21
-33.3982707842
  0
LINE
  5
4D9
100
AcDbEntity
  8
RACCORDO
100
AcDbLine
 62
253
  6
CONTINUOUS
 10
-121.2199659691
 20
-39.8156039959
 11
-121.2199659691
 21
-51.8632692621
  0
LINE
  5
4DA
100
AcDbEntity
  8
ASSI
100
AcDbLine
 62
253
  6
CONTINUOUS
 10
-121.2199659691
 20
-39.8156039959
 11
-121.2199659691
 21
-51.8632692621
  0
LINE
  5
4DB
100
AcDbEntity
  8
RACCORDO
100
AcDbLine
 62
253
  6
CONTINUOUS
 10
-121.2199659691
 20
-55.350605518
 11
-121.2199659691
 21
-63.40693739
  0
LINE
  5
4DC
100
AcDbEntity
  8
ASSI
100
AcDbLine
 62
253
  6
CONTINUOUS
 10
-121.2199659691
 20
-55.350605518
 11
-121.2199659691
 21
-63.40693739
  0
LINE
  5
4DD
100
AcDbEntity
  8
RACCORDO
100
AcDbLine
 62
7
  6
CONTINUOUS
 10
-121.0234564504
 20
-31.050605518
 11
-121.0234564504
 21
-33.4017008706
  0
LINE
  5
4DE
100
AcDbEntity
  8
ASSI
100
AcDbLine
 62
7
  6
CONTINUOUS
 10
-121.0234564504
 20
-31.050605518
 11
-121.0234564504
 21
-33.4017008706
  0
LINE
  5
4DF
100
AcDbEntity
  8
RACCORDO
100
AcDbLine
 62
7
  6
CONTINUOUS
 10
-121.0234564504
 20
-39.8121739095
 11
-121.0234564504
 21
-51.8632692621
  0
LINE
  5
4E0
100
AcDbEntity
  8
ASSI
100
AcDbLine
 62
7
  6
CONTINUOUS
 10
-121.0234564504
 20
-39.8121739095
 11
-121.0234564504
 21
-51.8632692621
  0
LINE
  5
4E1
100
AcDbEntity
  8
RACCORDO
100
AcDbLine
 62
7
  6
CONTINUOUS
 10
-121.0234564504
 20
-55.350605518
 11
-121.0234564504
 21
-77.3013297298
  0
LINE
  5
4E2
100
AcDbEntity
  8
ASSI
100
AcDbLine
 62
7
  6
CONTINUOUS
 10
-121.0234564504
 20
-55.350605518
 11
-121.0234564504
 21
-77.3013297298
  0
LINE
  5
4E3
100
AcDbEntity
  8
RACCORDO
100
AcDbLine
 62
253
  6
CONTINUOUS
 10
-120.9199659691
 20
4.3964926964
 11
-120.9199659691
 21
-2.0103674764
  0
LINE
  5
4E4
100
AcDbEntity
  8
ASSI
100
AcDbLine
 62
253
  6
CONTINUOUS
 10
-120.9199659691
 20
4.3964926964
 11
-120.9199659691
 21
-2.0103674764
  0
LINE
  5
4E5
100
AcDbEntity
  8
RACCORDO
100
AcDbLine
 62
253
  6
CONTINUOUS
 10
-120.9199659691
 20
-33.4035073036
 11
-120.9199659691
 21
-39.8103674764
  0
LINE
  5
4E6
100
AcDbEntity
  8
ASSI
100
AcDbLine
 62
253
  6
CONTINUOUS
 10
-120.9199659691
 20
-33.4035073036
 11
-120.9199659691
 21
-39.8103674764
  0
LINE
  5
4E7
100
AcDbEntity
  8
RACCORDO
100
AcDbLine
 62
7
  6
CONTINUOUS
 10
-120.7234564504
 20
4.1965231573
 11
-120.7234564504
 21
-1.8103979374
  0
LINE
  5
4E8
100
AcDbEntity
  8
ASSI
100
AcDbLine
 62
7
  6
CONTINUOUS
 10
-120.7234564504
 20
4.1965231573
 11
-120.7234564504
 21
-1.8103979374
  0
LINE
  5
4E9
100
AcDbEntity
  8
RACCORDO
100
AcDbLine
 62
7
  6
CONTINUOUS
 10
-120.7234564504
 20
-33.6034768427
 11
-120.7234564504
 21
-39.6103979374
  0
LINE
  5
4EA
100
AcDbEntity
  8
ASSI
100
AcDbLine
 62
7
  6
CONTINUOUS
 10
-120.7234564504
 20
-33.6034768427
 11
-120.7234564504
 21
-39.6103979374
  0
LWPOLYLINE
  5
4EB
100
AcDbEntity
  8
RACCORDO
100
AcDbPolyline
 62
253
  6
CONTINUOUS
 90
10
 70
0
 10
-121.2185396916
 20
-51.9917858742
 10
-121.2185396883
 20
-52.0164325839
 10
-121.2185958657
 20
-52.027052956
 10
-121.2186890211
 20
-52.0364273265
 10
-121.2188184459
 20
-52.044484377
 10
-121.2189831557
 20
-52.0511628001
 10
-121.2191818972
 20
-52.056411777
 10
-121.2194131585
 20
-52.0601913724
 10
-121.2196751802
 20
-52.0624728332
 10
-121.2199659691
 20
-52.0632388011
  0
LWPOLYLINE
  5
4EC
100
AcDbEntity
  8
ASSI
100
AcDbPolyline
 62
253
  6
CONTINUOUS
 90
10
 70
0
 10
-121.2185396916
 20
-51.9917858742
 10
-121.2185396883
 20
-52.0164325839
 10
-121.2185958657
 20
-52.027052956
 10
-121.2186890211
 20
-52.0364273265
 10
-121.2188184459
 20
-52.044484377
 10
-121.2189831557
 20
-52.0511628001
 10
-121.2191818972
 20
-52.056411777
 10
-121.2194131585
 20
-52.0601913724
 10
-121.2196751802
 20
-52.0624728332
 10
-121.2199659691
 20
-52.0632388011
  0
LINE
  5
4ED
100
AcDbEntity
  8
RACCORDO
100
AcDbLine
 62
253
  6
CONTINUOUS
 10
-123.5283879569
 20
-30.8743032712
 11
-123.5283609289
 21
-30.8539801479
  0
LINE
  5
4EE
100
AcDbEntity
  8
ASSI
100
AcDbLine
 62
253
  6
CONTINUOUS
 10
-123.5283879569
 20
-30.8743032712
 11
-123.5283609289
 21
-30.8539801479
  0
LINE
  5
4EF
100
AcDbEntity
  8
RACCORDO
100
AcDbLine
 62
253
  6
CONTINUOUS
 10
-123.5283879569
 20
-55.1743032712
 11
-123.5283609289
 21
-55.1539801479
  0
LINE
  5
4F0
100
AcDbEntity
  8
ASSI
100
AcDbLine
 62
253
  6
CONTINUOUS
 10
-123.5283879569
 20
-55.1743032712
 11
-123.5283609289
 21
-55.1539801479
  0
LWPOLYLINE
  5
4F1
100
AcDbEntity
  8
RACCORDO
100
AcDbPolyline
 62
253
  6
CONTINUOUS
 90
3
 70
0
 10
-121.1440526563
 20
-63.60693739
 10
-121.1442466865
 20
-76.6230412285
 10
-121.1445524203
 20
-76.664388403
  0
LWPOLYLINE
  5
4F2
100
AcDbEntity
  8
ASSI
100
AcDbPolyline
 62
253
  6
CONTINUOUS
 90
3
 70
0
 10
-121.1440526563
 20
-63.60693739
 10
-121.1442466865
 20
-76.6230412285
 10
-121.1445524203
 20
-76.664388403
  0
LWPOLYLINE
  5
4F3
100
AcDbEntity
  8
RACCORDO
100
AcDbPolyline
 62
253
  6
CONTINUOUS
 90
6
 70
0
 10
-121.219561206
 20
-77.4744979419
 10
-121.2195797365
 20
-77.4892313662
 10
-121.2196333416
 20
-77.4944788108
 10
-121.2197160377
 20
-77.4982565392
 10
-121.2198271954
 20
-77.5005358068
 10
-121.2199659691
 20
-77.5012992688
  0
LWPOLYLINE
  5
4F4
100
AcDbEntity
  8
ASSI
100
AcDbPolyline
 62
253
  6
CONTINUOUS
 90
6
 70
0
 10
-121.219561206
 20
-77.4744979419
 10
-121.2195797365
 20
-77.4892313662
 10
-121.2196333416
 20
-77.4944788108
 10
-121.2197160377
 20
-77.4982565392
 10
-121.2198271954
 20
-77.5005358068
 10
-121.2199659691
 20
-77.5012992688
  0
LINE
  5
4F5
100
AcDbEntity
  8
RACCORDO
100
AcDbLine
 62
253
  6
CONTINUOUS
 10
-121.218520916
 20
-30.9092266849
 11
-121.2185958657
 21
-30.9359265036
  0
LINE
  5
4F6
100
AcDbEntity
  8
ASSI
100
AcDbLine
 62
253
  6
CONTINUOUS
 10
-121.218520916
 20
-30.9092266849
 11
-121.2185958657
 21
-30.9359265036
  0
LINE
  5
4F7
100
AcDbEntity
  8
RACCORDO
100
AcDbLine
 62
253
  6
CONTINUOUS
 10
-121.218520916
 20
-55.2092266849
 11
-121.2185958657
 21
-55.2359265036
  0
LINE
  5
4F8
100
AcDbEntity
  8
ASSI
100
AcDbLine
 62
253
  6
CONTINUOUS
 10
-121.218520916
 20
-55.2092266849
 11
-121.2185958657
 21
-55.2359265036
  0
LWPOLYLINE
  5
4F9
100
AcDbEntity
  8
RACCORDO
100
AcDbPolyline
 62
253
  6
CONTINUOUS
 90
88
 70
0
 10
-123.6735198594
 20
-76.5503072271
 10
-123.6735985828
 20
-76.56389069
 10
-123.6744487031
 20
-76.577407089
 10
-123.6760691025
 20
-76.5908540254
 10
-123.6784593757
 20
-76.6042078306
 10
-123.6816174656
 20
-76.617487661
 10
-123.6855406944
 20
-76.6307553257
 10
-123.6902375899
 20
-76.6440442872
 10
-123.6956995115
 20
-76.6573164497
 10
-123.7018983171
 20
-76.670526325
 10
-123.7088433774
 20
-76.6836729006
 10
-123.7165235754
 20
-76.6967531813
 10
-123.7248787611
 20
-76.7097192156
 10
-123.733902339
 20
-76.7225548478
 10
-123.7435977204
 20
-76.7352732764
 10
-123.7539191065
 20
-76.7478709896
 10
-123.7648632499
 20
-76.7603454227
 10
-123.7764303436
 20
-76.7726967398
 10
-123.7885797725
 20
-76.7849256535
 10
-123.801302788
 20
-76.7970263745
 10
-123.8146051765
 20
-76.8090028195
 10
-123.8284683875
 20
-76.8208702149
 10
-123.8428714411
 20
-76.8326169965
 10
-123.8578327945
 20
-76.8442530608
 10
-123.8733938907
 20
-76.8558252733
 10
-123.8895502101
 20
-76.8673360165
 10
-123.9063051114
 20
-76.8787804452
 10
-123.9237129214
 20
-76.890193705
 10
-123.9417752332
 20
-76.9015793763
 10
-123.9604901932
 20
-76.9129306541
 10
-123.979907662
 20
-76.9242664226
 10
-124.0000120324
 20
-76.9355797318
 10
-124.0208190278
 20
-76.9468738409
 10
-124.0424261891
 20
-76.9581821596
 10
-124.0647983367
 20
-76.9694907142
 10
-124.0879715339
 20
-76.9808086827
 10
-124.1121514865
 20
-76.9922025274
 10
-124.1373313145
 20
-77.0036727866
 10
-124.1635205951
 20
-77.0152112581
 10
-124.1909512934
 20
-77.026869027
 10
-124.2196652131
 20
-77.0386619545
 10
-124.2496247686
 20
-77.0505633353
 10
-124.2809434246
 20
-77.0625593427
 10
-124.3136897605
 20
-77.0746674421
 10
-124.3477991186
 20
-77.0868584545
 10
-124.38318388
 20
-77.0990503932
 10
-124.4198173879
 20
-77.1112269426
 10
-124.4577275959
 20
-77.1233961578
 10
-124.4969071341
 20
-77.1355154441
 10
-124.5372720898
 20
-77.1475595258
 10
-124.5789063592
 20
-77.1595474723
 10
-124.6220541176
 20
-77.1715035198
 10
-124.666705793
 20
-77.1834286716
 10
-124.7128719047
 20
-77.1953135062
 10
-124.7608273336
 20
-77.2071655675
 10
-124.8109014219
 20
-77.2190554401
 10
-124.8627667284
 20
-77.2309016313
 10
-124.9157100495
 20
-77.2424908433
 10
-124.9700002617
 20
-77.2538599053
 10
-125.0253640426
 20
-77.2649774189
 10
-125.0802676495
 20
-77.2755467055
 10
-125.1344700363
 20
-77.2855165776
 10
-125.1881998636
 20
-77.2949681529
 10
-125.2406229625
 20
-77.3038172267
 10
-125.2913923184
 20
-77.3120220494
 10
-125.3408429618
 20
-77.3196574982
 10
-125.3891639671
 20
-77.3268140521
 10
-125.436285141
 20
-77.3335023651
 10
-125.4822690914
 20
-77.3397348832
 10
-125.5275059662
 20
-77.3455993825
 10
-125.5720092533
 20
-77.3511149612
 10
-125.6157608257
 20
-77.3562783642
 10
-125.6591047152
 20
-77.3611401805
 10
-125.702092292
 20
-77.3657197053
 10
-125.744669274
 20
-77.370009387
 10
-125.7870218666
 20
-77.3740180823
 10
-125.8291669359
 20
-77.3777593173
 10
-125.8710856712
 20
-77.3812293431
 10
-125.9129110546
 20
-77.3844109958
 10
-125.9546289655
 20
-77.3873171063
 10
-125.9962524127
 20
-77.3899430609
 10
-126.0379553451
 20
-77.3922459106
 10
-126.0797351636
 20
-77.3942446421
 10
-126.1215944666
 20
-77.3959263858
 10
-126.1637155317
 20
-77.3972006655
 10
-126.2061598712
 20
-77.3980381975
 10
-126.2488680167
 20
-77.3984701844
 10
-126.2918414602
 20
-77.3984957464
  0
LWPOLYLINE
  5
4FA
100
AcDbEntity
  8
ASSI
100
AcDbPolyline
 62
253
  6
CONTINUOUS
 90
88
 70
0
 10
-123.6735198594
 20
-76.5503072271
 10
-123.6735985828
 20
-76.56389069
 10
-123.6744487031
 20
-76.577407089
 10
-123.6760691025
 20
-76.5908540254
 10
-123.6784593757
 20
-76.6042078306
 10
-123.6816174656
 20
-76.617487661
 10
-123.6855406944
 20
-76.6307553257
 10
-123.6902375899
 20
-76.6440442872
 10
-123.6956995115
 20
-76.6573164497
 10
-123.7018983171
 20
-76.670526325
 10
-123.7088433774
 20
-76.6836729006
 10
-123.7165235754
 20
-76.6967531813
 10
-123.7248787611
 20
-76.7097192156
 10
-123.733902339
 20
-76.7225548478
 10
-123.7435977204
 20
-76.7352732764
 10
-123.7539191065
 20
-76.7478709896
 10
-123.7648632499
 20
-76.7603454227
 10
-123.7764303436
 20
-76.7726967398
 10
-123.7885797725
 20
-76.7849256535
 10
-123.801302788
 20
-76.7970263745
 10
-123.8146051765
 20
-76.8090028195
 10
-123.8284683875
 20
-76.8208702149
 10
-123.8428714411
 20
-76.8326169965
 10
-123.8578327945
 20
-76.8442530608
 10
-123.8733938907
 20
-76.8558252733
 10
-123.8895502101
 20
-76.8673360165
 10
-123.9063051114
 20
-76.8787804452
 10
-123.9237129214
 20
-76.890193705
 10
-123.9417752332
 20
-76.9015793763
 10
-123.9604901932
 20
-76.9129306541
 10
-123.979907662
 20
-76.9242664226
 10
-124.0000120324
 20
-76.9355797318
 10
-124.0208190278
 20
-76.9468738409
 10
-124.0424261891
 20
-76.9581821596
 10
-124.0647983367
 20
-76.9694907142
 10
-124.0879715339
 20
-76.9808086828
 10
-124.1121514865
 20
-76.9922025274
 10
-124.1373313145
 20
-77.0036727866
 10
-124.1635205951
 20
-77.0152112581
 10
-124.1909512934
 20
-77.026869027
 10
-124.2196652131
 20
-77.0386619545
 10
-124.2496247686
 20
-77.0505633353
 10
-124.2809434246
 20
-77.0625593427
 10
-124.3136897605
 20
-77.0746674421
 10
-124.3477991186
 20
-77.0868584545
 10
-124.38318388
 20
-77.0990503932
 10
-124.4198173879
 20
-77.1112269426
 10
-124.4577275959
 20
-77.1233961578
 10
-124.4969071341
 20
-77.1355154441
 10
-124.5372720898
 20
-77.1475595258
 10
-124.5789063592
 20
-77.1595474723
 10
-124.6220541176
 20
-77.1715035198
 10
-124.666705793
 20
-77.1834286716
 10
-124.7128719047
 20
-77.1953135062
 10
-124.7608273336
 20
-77.2071655675
 10
-124.8109014219
 20
-77.2190554401
 10
-124.8627667284
 20
-77.2309016313
 10
-124.9157100495
 20
-77.2424908433
 10
-124.9700002617
 20
-77.2538599053
 10
-125.0253640426
 20
-77.2649774189
 10
-125.0802676495
 20
-77.2755467055
 10
-125.1344700363
 20
-77.2855165776
 10
-125.1881998636
 20
-77.2949681529
 10
-125.2406229625
 20
-77.3038172267
 10
-125.2913923184
 20
-77.3120220494
 10
-125.3408429618
 20
-77.3196574982
 10
-125.3891639671
 20
-77.3268140521
 10
-125.436285141
 20
-77.3335023651
 10
-125.4822690914
 20
-77.3397348832
 10
-125.5275059662
 20
-77.3455993825
 10
-125.5720092533
 20
-77.3511149612
 10
-125.6157608257
 20
-77.3562783642
 10
-125.6591047152
 20
-77.3611401805
 10
-125.702092292
 20
-77.3657197053
 10
-125.744669274
 20
-77.370009387
 10
-125.7870218666
 20
-77.3740180823
 10
-125.8291669359
 20
-77.3777593173
 10
-125.8710856712
 20
-77.3812293431
 10
-125.9129110546
 20
-77.3844109958
 10
-125.9546289655
 20
-77.3873171063
 10
-125.9962524127
 20
-77.3899430609
 10
-126.0379553451
 20
-77.3922459106
 10
-126.0797351636
 20
-77.3942446421
 10
-126.1215944666
 20
-77.3959263858
 10
-126.1637155317
 20
-77.3972006655
 10
-126.2061598712
 20
-77.3980381975
 10
-126.2488680167
 20
-77.3984701844
 10
-126.2918414602
 20
-77.3984957464
  0
LINE
  5
4FB
100
AcDbEntity
  8
RACCORDO
100
AcDbLine
 62
253
  6
CONTINUOUS
 10
-123.5283879694
 20
-52.0395934025
 11
-123.5282230998
 21
-52.0035691308
  0
LINE
  5
4FC
100
AcDbEntity
  8
ASSI
100
AcDbLine
 62
253
  6
CONTINUOUS
 10
-123.5283879694
 20
-52.0395934025
 11
-123.5282230998
 21
-52.0035691308
  0
LINE
  5
4FD
100
AcDbEntity
  8
RACCORDO
100
AcDbLine
 62
253
  6
CONTINUOUS
 10
-121.2185958657
 20
-30.9359265036
 11
-121.2189831557
 21
-30.9822241753
  0
LINE
  5
4FE
100
AcDbEntity
  8
ASSI
100
AcDbLine
 62
253
  6
CONTINUOUS
 10
-121.2185958657
 20
-30.9359265036
 11
-121.2189831557
 21
-30.9822241753
  0
LINE
  5
4FF
100
AcDbEntity
  8
RACCORDO
100
AcDbLine
 62
253
  6
CONTINUOUS
 10
-121.2185958657
 20
-55.2359265036
 11
-121.2189831557
 21
-55.2822241753
  0
LINE
  5
500
100
AcDbEntity
  8
ASSI
100
AcDbLine
 62
253
  6
CONTINUOUS
 10
-121.2185958657
 20
-55.2359265036
 11
-121.2189831557
 21
-55.2822241753
  0
LWPOLYLINE
  5
501
100
AcDbEntity
  8
RACCORDO
100
AcDbPolyline
 62
253
  6
CONTINUOUS
 90
9
 70
0
 10
-123.5283609289
 20
-30.8539801479
 10
-123.5282230998
 20
-30.8371453711
 10
-123.5281152536
 20
-30.830159719
 10
-123.5279808206
 20
-30.8241842705
 10
-123.5278198032
 20
-30.8192495171
 10
-123.5276364424
 20
-30.8153800037
 10
-123.5274314694
 20
-30.8125986505
 10
-123.5272020503
 20
-30.8109240349
 10
-123.5269469316
 20
-30.8103674764
  0
LWPOLYLINE
  5
502
100
AcDbEntity
  8
ASSI
100
AcDbPolyline
 62
253
  6
CONTINUOUS
 90
9
 70
0
 10
-123.5283609289
 20
-30.8539801479
 10
-123.5282230998
 20
-30.8371453711
 10
-123.5281152536
 20
-30.830159719
 10
-123.5279808206
 20
-30.8241842705
 10
-123.5278198032
 20
-30.8192495171
 10
-123.5276364424
 20
-30.8153800037
 10
-123.5274314694
 20
-30.8125986505
 10
-123.5272020503
 20
-30.8109240349
 10
-123.5269469316
 20
-30.8103674764
  0
LWPOLYLINE
  5
503
100
AcDbEntity
  8
RACCORDO
100
AcDbPolyline
 62
253
  6
CONTINUOUS
 90
9
 70
0
 10
-123.5283609289
 20
-55.1539801479
 10
-123.5282230998
 20
-55.1371453711
 10
-123.5281152536
 20
-55.130159719
 10
-123.5279808206
 20
-55.1241842705
 10
-123.5278198032
 20
-55.1192495171
 10
-123.5276364424
 20
-55.1153800037
 10
-123.5274314694
 20
-55.1125986505
 10
-123.5272020503
 20
-55.1109240349
 10
-123.5269469316
 20
-55.1103674764
  0
LWPOLYLINE
  5
504
100
AcDbEntity
  8
ASSI
100
AcDbPolyline
 62
253
  6
CONTINUOUS
 90
9
 70
0
 10
-123.5283609289
 20
-55.1539801479
 10
-123.5282230998
 20
-55.1371453711
 10
-123.5281152536
 20
-55.130159719
 10
-123.5279808206
 20
-55.1241842705
 10
-123.5278198032
 20
-55.1192495171
 10
-123.5276364424
 20
-55.1153800037
 10
-123.5274314694
 20
-55.1125986505
 10
-123.5272020503
 20
-55.1109240349
 10
-123.5269469316
 20
-55.1103674764
  0
LINE
  5
505
100
AcDbEntity
  8
RACCORDO
100
AcDbLine
 62
253
  6
CONTINUOUS
 10
-123.5282230998
 20
-52.0035691308
 11
-123.5278198032
 21
-51.9625442814
  0
LINE
  5
506
100
AcDbEntity
  8
ASSI
100
AcDbLine
 62
253
  6
CONTINUOUS
 10
-123.5282230998
 20
-52.0035691308
 11
-123.5278198032
 21
-51.9625442814
  0
LWPOLYLINE
  5
507
100
AcDbEntity
  8
RACCORDO
100
AcDbPolyline
 62
253
  6
CONTINUOUS
 90
3
 70
0
 10
-121.1445524203
 20
-76.664388403
 10
-121.1457066733
 20
-76.7500450563
 10
-121.1465058835
 20
-76.7939168851
  0
LWPOLYLINE
  5
508
100
AcDbEntity
  8
ASSI
100
AcDbPolyline
 62
253
  6
CONTINUOUS
 90
3
 70
0
 10
-121.1445524203
 20
-76.664388403
 10
-121.1457066733
 20
-76.7500450563
 10
-121.1465058835
 20
-76.7939168851
  0
LWPOLYLINE
  5
509
100
AcDbEntity
  8
RACCORDO
100
AcDbPolyline
 62
253
  6
CONTINUOUS
 90
3
 70
0
 10
-121.2189831557
 20
-30.9822241753
 10
-121.2196751802
 20
-31.0331802699
 10
-121.2199659691
 20
-31.050605518
  0
LWPOLYLINE
  5
50A
100
AcDbEntity
  8
ASSI
100
AcDbPolyline
 62
253
  6
CONTINUOUS
 90
3
 70
0
 10
-121.2189831557
 20
-30.9822241753
 10
-121.2196751802
 20
-31.0331802699
 10
-121.2199659691
 20
-31.050605518
  0
LWPOLYLINE
  5
50B
100
AcDbEntity
  8
RACCORDO
100
AcDbPolyline
 62
253
  6
CONTINUOUS
 90
3
 70
0
 10
-121.2189831557
 20
-55.2822241753
 10
-121.2196751802
 20
-55.3331802699
 10
-121.2199659691
 20
-55.350605518
  0
LWPOLYLINE
  5
50C
100
AcDbEntity
  8
ASSI
100
AcDbPolyline
 62
253
  6
CONTINUOUS
 90
3
 70
0
 10
-121.2189831557
 20
-55.2822241753
 10
-121.2196751802
 20
-55.3331802699
 10
-121.2199659691
 20
-55.350605518
  0
LINE
  5
50D
100
AcDbEntity
  8
RACCORDO
100
AcDbLine
 62
253
  6
CONTINUOUS
 10
-123.5278198032
 20
-51.9625442814
 11
-123.5269469316
 21
-51.9035377646
  0
LINE
  5
50E
100
AcDbEntity
  8
ASSI
100
AcDbLine
 62
253
  6
CONTINUOUS
 10
-123.5278198032
 20
-51.9625442814
 11
-123.5269469316
 21
-51.9035377646
  0
LWPOLYLINE
  5
50F
100
AcDbEntity
  8
RACCORDO
100
AcDbPolyline
 62
253
  6
CONTINUOUS
 90
11
 70
0
 10
-121.1465058835
 20
-76.7939168851
 10
-121.1487359792
 20
-76.8827122738
 10
-121.1501076674
 20
-76.927030526
 10
-121.1517079064
 20
-76.971099595
 10
-121.1535000061
 20
-77.01449253
 10
-121.1554679309
 20
-77.0570364953
 10
-121.1576393046
 20
-77.0986068985
 10
-121.1600104357
 20
-77.1388817646
 10
-121.1625654337
 20
-77.1776712928
 10
-121.165288517
 20
-77.2148973439
 10
-121.1681601886
 20
-77.2504246683
  0
LWPOLYLINE
  5
510
100
AcDbEntity
  8
ASSI
100
AcDbPolyline
 62
253
  6
CONTINUOUS
 90
11
 70
0
 10
-121.1465058835
 20
-76.7939168851
 10
-121.1487359792
 20
-76.8827122739
 10
-121.1501076674
 20
-76.9270305261
 10
-121.1517079064
 20
-76.971099595
 10
-121.1535000061
 20
-77.01449253
 10
-121.1554679309
 20
-77.0570364953
 10
-121.1576393046
 20
-77.0986068985
 10
-121.1600104357
 20
-77.1388817646
 10
-121.1625654337
 20
-77.1776712928
 10
-121.165288517
 20
-77.2148973439
 10
-121.1681601886
 20
-77.2504246683
  0
LINE
  5
511
100
AcDbEntity
  8
DRAFT
100
AcDbLine
 62
7
  6
CONTINUOUS
 10
-123.5269469316
 20
4.4419977183
 11
-120.9199659691
 21
4.3964926964
  0
LINE
  5
512
100
AcDbEntity
  8
ASSI
100
AcDbLine
 62
7
  6
CONTINUOUS
 10
-123.5269469316
 20
4.4419977183
 11
-120.9199659691
 21
4.3964926964
  0
LWPOLYLINE
  5
513
100
AcDbEntity
  8
RACCORDO
100
AcDbPolyline
 62
253
  6
CONTINUOUS
 90
8
 70
0
 10
-121.0234564504
 20
-77.101356386
 10
-121.0241924039
 20
-77.1145108034
 10
-121.0264038522
 20
-77.1277745245
 10
-121.0300824588
 20
-77.1409528956
 10
-121.0351861044
 20
-77.1536967659
 10
-121.0416706186
 20
-77.1659547124
 10
-121.049521762
 20
-77.1779257771
 10
-121.0586554547
 20
-77.1892361314
  0
LWPOLYLINE
  5
514
100
AcDbEntity
  8
ASSI
100
AcDbPolyline
 62
253
  6
CONTINUOUS
 90
8
 70
0
 10
-121.0234564504
 20
-77.101356386
 10
-121.0241924039
 20
-77.1145108034
 10
-121.0264038522
 20
-77.1277745245
 10
-121.0300824588
 20
-77.1409528956
 10
-121.0351861044
 20
-77.1536967659
 10
-121.0416706186
 20
-77.1659547124
 10
-121.049521762
 20
-77.1779257771
 10
-121.0586554547
 20
-77.1892361314
  0
LWPOLYLINE
  5
515
100
AcDbEntity
  8
RACCORDO
100
AcDbPolyline
 62
253
  6
CONTINUOUS
 90
43
 70
0
 10
-123.7771315217
 20
-76.55693739
 10
-123.7777794792
 20
-76.5616281104
 10
-123.7791618892
 20
-76.5663033866
 10
-123.7812787636
 20
-76.570962098
 10
-123.7841314889
 20
-76.5755979331
 10
-123.7877187065
 20
-76.5802150377
 10
-123.7920362989
 20
-76.5848279594
 10
-123.7970951668
 20
-76.5894460207
 10
-123.8028844052
 20
-76.594057653
 10
-123.8093671884
 20
-76.598646101
 10
-123.8165511429
 20
-76.603209363
 10
-123.8244286711
 20
-76.6077474592
 10
-123.8329401345
 20
-76.6122468803
 10
-123.842080343
 20
-76.6167023035
 10
-123.8518545384
 20
-76.6211174689
 10
-123.862218739
 20
-76.6254926052
 10
-123.8731711273
 20
-76.629826629
 10
-123.8847135689
 20
-76.6341192254
 10
-123.8968076047
 20
-76.6383717963
 10
-123.9094445121
 20
-76.6425817208
 10
-123.9226330593
 20
-76.6467503932
 10
-123.9363610156
 20
-76.6508851556
 10
-123.9506095975
 20
-76.654981962
 10
-123.9653976228
 20
-76.6590436
 10
-123.9807692434
 20
-76.6630873155
 10
-123.9967217769
 20
-76.6671136676
 10
-124.0132579111
 20
-76.67112031
 10
-124.0304298299
 20
-76.6751196235
 10
-124.0482378439
 20
-76.6791117911
 10
-124.0666816295
 20
-76.6830943259
 10
-124.0858124015
 20
-76.6870751623
 10
-124.1056122236
 20
-76.6910505019
 10
-124.126099009
 20
-76.6950213857
 10
-124.1473777277
 20
-76.6990024109
 10
-124.1694136921
 20
-76.7029874354
 10
-124.1922415449
 20
-76.7069788859
 10
-124.2160702167
 20
-76.7110030113
 10
-124.2408955252
 20
-76.7150584065
 10
-124.2667215613
 20
-76.7191406371
 10
-124.2937696242
 20
-76.7232697596
 10
-124.3220816037
 20
-76.7274486086
 10
-124.3516154778
 20
-76.7316659795
 10
-124.3824666566
 20
-76.7359197695
  0
LWPOLYLINE
  5
516
100
AcDbEntity
  8
ASSI
100
AcDbPolyline
 62
253
  6
CONTINUOUS
 90
43
 70
0
 10
-123.7771315217
 20
-76.55693739
 10
-123.7777794792
 20
-76.5616281104
 10
-123.7791618892
 20
-76.5663033866
 10
-123.7812787636
 20
-76.570962098
 10
-123.7841314889
 20
-76.5755979331
 10
-123.7877187065
 20
-76.5802150377
 10
-123.7920362989
 20
-76.5848279594
 10
-123.7970951668
 20
-76.5894460207
 10
-123.8028844052
 20
-76.594057653
 10
-123.8093671884
 20
-76.598646101
 10
-123.8165511429
 20
-76.603209363
 10
-123.8244286711
 20
-76.6077474592
 10
-123.8329401345
 20
-76.6122468803
 10
-123.842080343
 20
-76.6167023035
 10
-123.8518545384
 20
-76.6211174689
 10
-123.862218739
 20
-76.6254926052
 10
-123.8731711273
 20
-76.629826629
 10
-123.8847135689
 20
-76.6341192254
 10
-123.8968076047
 20
-76.6383717963
 10
-123.9094445121
 20
-76.6425817208
 10
-123.9226330593
 20
-76.6467503932
 10
-123.9363610156
 20
-76.6508851556
 10
-123.9506095975
 20
-76.654981962
 10
-123.9653976228
 20
-76.6590436
 10
-123.9807692434
 20
-76.6630873155
 10
-123.9967217769
 20
-76.6671136676
 10
-124.0132579111
 20
-76.67112031
 10
-124.0304298299
 20
-76.6751196235
 10
-124.0482378439
 20
-76.6791117911
 10
-124.0666816295
 20
-76.6830943259
 10
-124.0858124015
 20
-76.6870751623
 10
-124.1056122236
 20
-76.6910505019
 10
-124.126099009
 20
-76.6950213857
 10
-124.1473777277
 20
-76.6990024109
 10
-124.1694136921
 20
-76.7029874354
 10
-124.1922415449
 20
-76.7069788859
 10
-124.2160702167
 20
-76.7110030113
 10
-124.2408955252
 20
-76.7150584065
 10
-124.2667215613
 20
-76.7191406371
 10
-124.2937696242
 20
-76.7232697596
 10
-124.3220816037
 20
-76.7274486086
 10
-124.3516154778
 20
-76.7316659795
 10
-124.3824666566
 20
-76.7359197695
  0
LINE
  5
517
100
AcDbEntity
  8
RACCORDO
100
AcDbLine
 62
7
  6
CONTINUOUS
 10
-149.6412752596
 20
-75.0749138778
 11
-149.6234564504
 21
-75.05693739
  0
LINE
  5
518
100
AcDbEntity
  8
ASSI
100
AcDbLine
 62
7
  6
CONTINUOUS
 10
-149.6412752596
 20
-75.0749138778
 11
-149.6234564504
 21
-75.05693739
  0
LINE
  5
519
100
AcDbEntity
  8
RACCORDO
100
AcDbLine
 62
7
  6
CONTINUOUS
 10
-149.8195447398
 20
-75.2530256795
 11
-149.6412752596
 21
-75.0749138778
  0
LINE
  5
51A
100
AcDbEntity
  8
ASSI
100
AcDbLine
 62
7
  6
CONTINUOUS
 10
-149.8195447398
 20
-75.2530256795
 11
-149.6412752596
 21
-75.0749138778
  0
LWPOLYLINE
  5
51B
100
AcDbEntity
  8
RACCORDO
100
AcDbPolyline
 62
7
  6
CONTINUOUS
 90
3
 70
0
 10
-149.8234564504
 20
-75.25693739
 10
-149.8230309334
 20
-75.256547366
 10
-149.8195447398
 20
-75.2530256795
  0
LWPOLYLINE
  5
51C
100
AcDbEntity
  8
ASSI
100
AcDbPolyline
 62
7
  6
CONTINUOUS
 90
3
 70
0
 10
-149.8234564504
 20
-75.25693739
 10
-149.8230309334
 20
-75.256547366
 10
-149.8195447398
 20
-75.2530256795
  0
LINE
  5
51D
100
AcDbEntity
  8
RACCORDO
100
AcDbLine
 62
7
  6
CONTINUOUS
 10
-149.8230258886
 20
26.0426610091
 11
-149.8234564504
 21
26.04306261
  0
LINE
  5
51E
100
AcDbEntity
  8
ASSI
100
AcDbLine
 62
7
  6
CONTINUOUS
 10
-149.8230258886
 20
26.0426610091
 11
-149.8234564504
 21
26.04306261
  0
LINE
  5
51F
100
AcDbEntity
  8
RACCORDO
100
AcDbLine
 62
7
  6
CONTINUOUS
 10
-149.6906865837
 20
25.9102601478
 11
-149.8195107453
 21
26.0391169049
  0
LINE
  5
520
100
AcDbEntity
  8
ASSI
100
AcDbLine
 62
7
  6
CONTINUOUS
 10
-149.6906865837
 20
25.9102601478
 11
-149.8195107453
 21
26.0391169049
  0
LWPOLYLINE
  5
521
100
AcDbEntity
  8
RACCORDO
100
AcDbPolyline
 62
7
  6
CONTINUOUS
 90
3
 70
0
 10
-149.6234564504
 20
25.84306261
 10
-149.6412900571
 20
25.8610520156
 10
-149.6906865837
 20
25.9102601478
  0
LWPOLYLINE
  5
522
100
AcDbEntity
  8
ASSI
100
AcDbPolyline
 62
7
  6
CONTINUOUS
 90
3
 70
0
 10
-149.6234564504
 20
25.84306261
 10
-149.6412900571
 20
25.8610520156
 10
-149.6906865837
 20
25.9102601478
  0
LINE
  5
523
100
AcDbEntity
  8
RACCORDO
100
AcDbLine
 62
7
  6
CONTINUOUS
 10
-149.8195107453
 20
26.0391169049
 11
-149.8230258886
 21
26.0426610091
  0
LINE
  5
524
100
AcDbEntity
  8
ASSI
100
AcDbLine
 62
7
  6
CONTINUOUS
 10
-149.8195107453
 20
26.0391169049
 11
-149.8230258886
 21
26.0426610091
  0
LWPOLYLINE
  5
525
100
AcDbEntity
  8
RACCORDO
100
AcDbPolyline
 62
253
  6
CONTINUOUS
 90
31
 70
0
 10
-126.2918411721
 20
-77.3984968635
 10
-126.2849991433
 20
-77.3828057722
 10
-126.2786395467
 20
-77.3655385063
 10
-126.2728067612
 20
-77.3468155616
 10
-126.2675414897
 20
-77.3267675924
 10
-126.262880475
 20
-77.305534499
 10
-126.2588562429
 20
-77.2832644522
 10
-126.2554968757
 20
-77.2601128587
 10
-126.252825816
 20
-77.2362412771
 10
-126.2508617034
 20
-77.2118162901
 10
-126.249618244
 20
-77.1870083423
 10
-126.249104115
 20
-77.1619905507
 10
-126.2493229042
 20
-77.1369374967
 10
-126.2502730849
 20
-77.1120240078
 10
-126.2519480265
 20
-77.0874239373
 10
-126.2543360408
 20
-77.0633089518
 10
-126.2574204635
 20
-77.0398473325
 10
-126.2611797708
 20
-77.0172028014
 10
-126.265587729
 20
-76.9955333785
 10
-126.2706135783
 20
-76.9749902793
 10
-126.2762222468
 20
-76.9557168595
 10
-126.2823745957
 20
-76.9378476146
 10
-126.2890276921
 20
-76.9215072413
 10
-126.2961351088
 20
-76.9068097674
 10
-126.3036472483
 20
-76.8938577561
 10
-126.3115116887
 20
-76.8827415904
 10
-126.3196735498
 20
-76.8735388419
 10
-126.3280758757
 20
-76.8663137303
 10
-126.3366600326
 20
-76.8611166743
 10
-126.3453661178
 20
-76.8579839405
 10
-126.3541333779
 20
-76.85693739
  0
LWPOLYLINE
  5
526
100
AcDbEntity
  8
ASSI
100
AcDbPolyline
 62
253
  6
CONTINUOUS
 90
31
 70
0
 10
-126.2918411721
 20
-77.3984968635
 10
-126.2849991433
 20
-77.3828057722
 10
-126.2786395467
 20
-77.3655385063
 10
-126.2728067612
 20
-77.3468155616
 10
-126.2675414897
 20
-77.3267675924
 10
-126.262880475
 20
-77.305534499
 10
-126.2588562429
 20
-77.2832644522
 10
-126.2554968757
 20
-77.2601128587
 10
-126.252825816
 20
-77.2362412771
 10
-126.2508617034
 20
-77.2118162901
 10
-126.249618244
 20
-77.1870083423
 10
-126.249104115
 20
-77.1619905507
 10
-126.2493229042
 20
-77.1369374967
 10
-126.2502730849
 20
-77.1120240078
 10
-126.2519480265
 20
-77.0874239373
 10
-126.2543360408
 20
-77.0633089518
 10
-126.2574204635
 20
-77.0398473325
 10
-126.2611797708
 20
-77.0172028014
 10
-126.265587729
 20
-76.9955333785
 10
-126.2706135783
 20
-76.9749902793
 10
-126.2762222468
 20
-76.9557168595
 10
-126.2823745957
 20
-76.9378476146
 10
-126.2890276921
 20
-76.9215072413
 10
-126.2961351088
 20
-76.9068097674
 10
-126.3036472483
 20
-76.8938577561
 10
-126.3115116887
 20
-76.8827415904
 10
-126.3196735498
 20
-76.8735388419
 10
-126.3280758757
 20
-76.8663137303
 10
-126.3366600326
 20
-76.8611166743
 10
-126.3453661178
 20
-76.8579839405
 10
-126.3541333779
 20
-76.85693739
  0
LINE
  5
527
100
AcDbEntity
  8
0
100
AcDbLine
 62
7
  6
CONTINUOUS
 10
-153.3734198432
 20
15.39306261
 11
-150.9234564504
 21
15.39306261
  0
LINE
  5
528
100
AcDbEntity
  8
ASSI
100
AcDbLine
 62
7
  6
CONTINUOUS
 10
-153.3734198432
 20
15.39306261
 11
-150.9234564504
 21
15.39306261
  0
LINE
  5
529
100
AcDbEntity
  8
0
100
AcDbLine
 62
7
  6
CONTINUOUS
 10
-150.9234564504
 20
19.09306261
 11
-153.3734198432
 21
19.09306261
  0
LINE
  5
52A
100
AcDbEntity
  8
ASSI
100
AcDbLine
 62
7
  6
CONTINUOUS
 10
-150.9234564504
 20
19.09306261
 11
-153.3734198432
 21
19.09306261
  0
LINE
  5
52B
100
AcDbEntity
  8
RACCORDO
100
AcDbLine
 62
7
  6
CONTINUOUS
 10
-150.9234564504
 20
24.74306261
 11
-149.8234564504
 21
24.74306261
  0
LINE
  5
52C
100
AcDbEntity
  8
ASSI
100
AcDbLine
 62
7
  6
CONTINUOUS
 10
-150.9234564504
 20
24.74306261
 11
-149.8234564504
 21
24.74306261
  0
LINE
  5
52D
100
AcDbEntity
  8
RACCORDO
100
AcDbLine
 62
253
  6
CONTINUOUS
 10
-151.1234564504
 20
24.94306261
 11
-149.6234564504
 21
24.94306261
  0
LINE
  5
52E
100
AcDbEntity
  8
ASSI
100
AcDbLine
 62
253
  6
CONTINUOUS
 10
-151.1234564504
 20
24.94306261
 11
-149.6234564504
 21
24.94306261
  0
LINE
  5
52F
100
AcDbEntity
  8
RACCORDO
100
AcDbLine
 62
253
  6
CONTINUOUS
 10
-149.6234564504
 20
25.84306261
 11
-151.1234564504
 21
25.84306261
  0
LINE
  5
530
100
AcDbEntity
  8
ASSI
100
AcDbLine
 62
253
  6
CONTINUOUS
 10
-149.6234564504
 20
25.84306261
 11
-151.1234564504
 21
25.84306261
  0
LINE
  5
531
100
AcDbEntity
  8
RACCORDO
100
AcDbLine
 62
7
  6
CONTINUOUS
 10
-150.9234564504
 20
26.04306261
 11
-149.8234564504
 21
26.04306261
  0
LINE
  5
532
100
AcDbEntity
  8
ASSI
100
AcDbLine
 62
7
  6
CONTINUOUS
 10
-150.9234564504
 20
26.04306261
 11
-149.8234564504
 21
26.04306261
  0
LWPOLYLINE
  5
533
100
AcDbEntity
  8
RACCORDO
100
AcDbPolyline
 62
7
  6
CONTINUOUS
 90
10
 70
0
 10
-121.0730929478
 20
-77.2332308936
 10
-121.0630254143
 20
-77.2207797707
 10
-121.0539763392
 20
-77.2075474724
 10
-121.0460307682
 20
-77.193661182
 10
-121.0392482852
 20
-77.1792498531
 10
-121.0336406439
 20
-77.1643642604
 10
-121.029223054
 20
-77.1490367024
 10
-121.0260312977
 20
-77.1333457978
 10
-121.0241022791
 20
-77.1174161962
 10
-121.0234564504
 20
-77.101356646
  0
LWPOLYLINE
  5
534
100
AcDbEntity
  8
ASSI
100
AcDbPolyline
 62
7
  6
CONTINUOUS
 90
10
 70
0
 10
-121.0730929478
 20
-77.2332308936
 10
-121.0630254143
 20
-77.2207797707
 10
-121.0539763392
 20
-77.2075474724
 10
-121.0460307682
 20
-77.193661182
 10
-121.0392482852
 20
-77.1792498531
 10
-121.0336406439
 20
-77.1643642604
 10
-121.029223054
 20
-77.1490367024
 10
-121.0260312977
 20
-77.1333457978
 10
-121.0241022791
 20
-77.1174161962
 10
-121.0234564504
 20
-77.101356646
  0
LWPOLYLINE
  5
535
100
AcDbEntity
  8
RACCORDO
100
AcDbPolyline
 62
253
  6
CONTINUOUS
 90
16
 70
0
 10
-136.2277210884
 20
-76.7664803547
 10
-136.2025295239
 20
-76.7566312241
 10
-136.1780501851
 20
-76.746866458
 10
-136.1544927591
 20
-76.7372697002
 10
-136.1320590361
 20
-76.7279231555
 10
-136.1109411807
 20
-76.7189068854
 10
-136.0913200858
 20
-76.7102981227
 10
-136.0733638234
 20
-76.702170609
 10
-136.0572262048
 20
-76.6945939638
 10
-136.0430454628
 20
-76.6876330878
 10
-136.030943068
 20
-76.6813476071
 10
-136.021022688
 20
-76.6757913626
 10
-136.0133692997
 20
-76.6710119485
 10
-136.0080484611
 20
-76.6670503048
 10
-136.0051057497
 20
-76.6639403666
 10
-136.0045663725
 20
-76.6617087733
  0
LWPOLYLINE
  5
536
100
AcDbEntity
  8
ASSI
100
AcDbPolyline
 62
253
  6
CONTINUOUS
 90
16
 70
0
 10
-136.2277210884
 20
-76.7664803547
 10
-136.2025295239
 20
-76.7566312241
 10
-136.1780501851
 20
-76.746866458
 10
-136.1544927591
 20
-76.7372697002
 10
-136.1320590361
 20
-76.7279231555
 10
-136.1109411807
 20
-76.7189068854
 10
-136.0913200858
 20
-76.7102981227
 10
-136.0733638234
 20
-76.702170609
 10
-136.0572262048
 20
-76.6945939638
 10
-136.0430454628
 20
-76.6876330878
 10
-136.030943068
 20
-76.6813476071
 10
-136.021022688
 20
-76.6757913626
 10
-136.0133692997
 20
-76.6710119485
 10
-136.0080484611
 20
-76.6670503048
 10
-136.0051057497
 20
-76.6639403666
 10
-136.0045663725
 20
-76.6617087733
  0
LINE
  5
537
100
AcDbEntity
  8
RACCORDO
100
AcDbLine
 62
253
  6
CONTINUOUS
 10
-123.7234564504
 20
27.3428211993
 11
-124.0445448718
 21
27.3428212034
  0
LINE
  5
538
100
AcDbEntity
  8
ASSI
100
AcDbLine
 62
253
  6
CONTINUOUS
 10
-123.7234564504
 20
27.3428211993
 11
-124.0445448718
 21
27.3428212034
  0
LINE
  5
539
100
AcDbEntity
  8
RACCORDO
100
AcDbLine
 62
253
  6
CONTINUOUS
 10
-150.9234564504
 20
28.94306261
 11
-149.8234564504
 21
28.94306261
  0
LINE
  5
53A
100
AcDbEntity
  8
RACCORDO
100
AcDbLine
 62
7
  6
CONTINUOUS
 10
-150.4234564504
 20
29.44306261
 11
-149.8234564504
 21
29.44306261
  0
LINE
  5
53B
100
AcDbEntity
  8
RACCORDO
100
AcDbLine
 62
253
  6
CONTINUOUS
 10
-146.9734564504
 20
30.64306261
 11
-147.3234564504
 21
30.64306261
  0
LINE
  5
53C
100
AcDbEntity
  8
RACCORDO
100
AcDbLine
 62
7
  6
CONTINUOUS
 10
-147.0234564504
 20
31.26806261
 11
-147.3234564504
 21
31.26806261
  0
LINE
  5
53D
100
AcDbEntity
  8
RACCORDO
100
AcDbLine
 62
253
  6
CONTINUOUS
 10
-149.8234564504
 20
31.64306261
 11
-147.3234564504
 21
31.64306261
  0
LINE
  5
53E
100
AcDbEntity
  8
ASSI
100
AcDbLine
 62
253
  6
CONTINUOUS
 10
-149.8234564504
 20
31.64306261
 11
-147.3234564504
 21
31.64306261
  0
LINE
  5
53F
100
AcDbEntity
  8
RACCORDO
100
AcDbLine
 62
253
  6
CONTINUOUS
 10
-146.9734564504
 20
27.7376365864
 11
-124.0445448718
 21
27.3428212036
  0
LINE
  5
540
100
AcDbEntity
  8
ASSI
100
AcDbLine
 62
253
  6
CONTINUOUS
 10
-146.9734564504
 20
27.7376365864
 11
-124.0445448718
 21
27.3428212036
  0
LINE
  5
541
100
AcDbEntity
  8
RACCORDO
100
AcDbLine
 62
7
  6
CONTINUOUS
 10
-146.9734564504
 20
28.7369533372
 11
-124.2147302471
 21
28.3396982937
  0
LINE
  5
542
100
AcDbEntity
  8
ASSI
100
AcDbLine
 62
7
  6
CONTINUOUS
 10
-146.9734564504
 20
28.7369533372
 11
-124.2147302471
 21
28.3396982937
  0
LINE
  5
543
100
AcDbEntity
  8
DRAFT
100
AcDbLine
 62
7
  6
CONTINUOUS
 10
-146.9734564504
 20
28.9069533372
 11
-138.3234564504
 21
28.7559670256
  0
LINE
  5
544
100
AcDbEntity
  8
ASSI
100
AcDbLine
 62
7
  6
CONTINUOUS
 10
-146.9734564504
 20
28.9069533372
 11
-138.3234564504
 21
28.7559670256
  0
LWPOLYLINE
  5
545
100
AcDbEntity
  8
RACCORDO
100
AcDbPolyline
 62
253
  6
CONTINUOUS
 90
28
 70
0
 10
-124.2147302471
 20
28.3396982937
 10
-124.2042621455
 20
28.3377981182
 10
-124.193804798
 20
28.3324732433
 10
-124.1834290753
 20
28.3237487092
 10
-124.1732372881
 20
28.3116607328
 10
-124.1632655597
 20
28.2962572402
 10
-124.153483048
 20
28.2775999728
 10
-124.1439508745
 20
28.255760412
 10
-124.134735317
 20
28.2308217249
 10
-124.1258090355
 20
28.2028836934
 10
-124.1172255438
 20
28.1720538973
 10
-124.1090430536
 20
28.1384447831
 10
-124.1012362785
 20
28.1021803725
 10
-124.0938494525
 20
28.0633949827
 10
-124.0869320924
 20
28.0222260649
 10
-124.0804621329
 20
27.9788134646
 10
-124.0744741226
 20
27.9333112252
 10
-124.0690082445
 20
27.8858767716
 10
-124.0640466845
 20
27.8366620517
 10
-124.0596123507
 20
27.7858253722
 10
-124.0557379103
 20
27.7335491149
 10
-124.0524143064
 20
27.6800284237
 10
-124.0496543427
 20
27.6254614145
 10
-124.0474753696
 20
27.5700160844
 10
-124.0458703231
 20
27.5138460697
 10
-124.0448418305
 20
27.4571266572
 10
-124.0444000539
 20
27.4000557375
 10
-124.0445448857
 20
-21.35693739
  0
LWPOLYLINE
  5
546
100
AcDbEntity
  8
ASSI
100
AcDbPolyline
 62
253
  6
CONTINUOUS
 90
28
 70
0
 10
-124.2147302471
 20
28.3396982937
 10
-124.2042621455
 20
28.3377981182
 10
-124.193804798
 20
28.3324732433
 10
-124.1834290753
 20
28.3237487092
 10
-124.1732372881
 20
28.3116607328
 10
-124.1632655597
 20
28.2962572402
 10
-124.153483048
 20
28.2775999728
 10
-124.1439508745
 20
28.255760412
 10
-124.134735317
 20
28.2308217249
 10
-124.1258090355
 20
28.2028836934
 10
-124.1172255438
 20
28.1720538973
 10
-124.1090430536
 20
28.1384447831
 10
-124.1012362785
 20
28.1021803725
 10
-124.0938494525
 20
28.0633949827
 10
-124.0869320924
 20
28.0222260649
 10
-124.0804621329
 20
27.9788134646
 10
-124.0744741226
 20
27.9333112252
 10
-124.0690082445
 20
27.8858767716
 10
-124.0640466845
 20
27.8366620517
 10
-124.0596123507
 20
27.7858253722
 10
-124.0557379103
 20
27.7335491149
 10
-124.0524143064
 20
27.6800284237
 10
-124.0496543427
 20
27.6254614145
 10
-124.0474753696
 20
27.5700160844
 10
-124.0458703231
 20
27.5138460697
 10
-124.0448418305
 20
27.4571266572
 10
-124.0444000539
 20
27.4000557375
 10
-124.0445448857
 20
-21.35693739
  0
LWPOLYLINE
  5
547
100
AcDbEntity
  8
RACCORDO
100
AcDbPolyline
 62
253
  6
CONTINUOUS
 90
8
 70
0
 10
-121.0586554547
 20
-77.1892361314
 10
-121.0689754254
 20
-77.1997402813
 10
-121.0804862744
 20
-77.2098250635
 10
-121.0931082534
 20
-77.2190474719
 10
-121.1066211464
 20
-77.2271229527
 10
-121.1209242322
 20
-77.2345370557
 10
-121.1359941186
 20
-77.2412221372
 10
-121.1517495002
 20
-77.2466112895
  0
LWPOLYLINE
  5
548
100
AcDbEntity
  8
ASSI
100
AcDbPolyline
 62
253
  6
CONTINUOUS
 90
8
 70
0
 10
-121.0586554547
 20
-77.1892361314
 10
-121.0689754254
 20
-77.1997402813
 10
-121.0804862744
 20
-77.2098250635
 10
-121.0931082534
 20
-77.2190474719
 10
-121.1066211464
 20
-77.2271229527
 10
-121.1209242322
 20
-77.2345370557
 10
-121.1359941186
 20
-77.2412221372
 10
-121.1517495002
 20
-77.2466112895
  0
LWPOLYLINE
  5
549
100
AcDbEntity
  8
RACCORDO
100
AcDbPolyline
 62
7
  6
CONTINUOUS
 90
5
 70
0
 10
-121.1223768135
 20
-77.2739338932
 10
-121.1088495038
 20
-77.2652628628
 10
-121.096078757
 20
-77.2555478368
 10
-121.084128081
 20
-77.2448404617
 10
-121.0730929478
 20
-77.2332308936
  0
LWPOLYLINE
  5
54A
100
AcDbEntity
  8
ASSI
100
AcDbPolyline
 62
7
  6
CONTINUOUS
 90
5
 70
0
 10
-121.1223768135
 20
-77.2739338932
 10
-121.1088495038
 20
-77.2652628628
 10
-121.096078757
 20
-77.2555478368
 10
-121.084128081
 20
-77.2448404617
 10
-121.0730929478
 20
-77.2332308936
  0
LINE
  5
54B
100
AcDbEntity
  8
RACCORDO
100
AcDbLine
 62
253
  6
CONTINUOUS
 10
-121.1681601886
 20
-77.2504246683
 11
-121.2133849478
 21
-77.270567176
  0
LINE
  5
54C
100
AcDbEntity
  8
ASSI
100
AcDbLine
 62
253
  6
CONTINUOUS
 10
-121.1681601886
 20
-77.2504246683
 11
-121.2133849478
 21
-77.270567176
  0
LWPOLYLINE
  5
54D
100
AcDbEntity
  8
RACCORDO
100
AcDbPolyline
 62
7
  6
CONTINUOUS
 90
3
 70
0
 10
-121.151562613
 20
-77.2879880374
 10
-121.1366309738
 20
-77.2815269415
 10
-121.1223768135
 20
-77.2739338932
  0
LWPOLYLINE
  5
54E
100
AcDbEntity
  8
ASSI
100
AcDbPolyline
 62
7
  6
CONTINUOUS
 90
3
 70
0
 10
-121.151562613
 20
-77.2879880374
 10
-121.1366309738
 20
-77.2815269415
 10
-121.1223768135
 20
-77.2739338932
  0
LWPOLYLINE
  5
54F
100
AcDbEntity
  8
RACCORDO
100
AcDbPolyline
 62
253
  6
CONTINUOUS
 90
19
 70
0
 10
-121.2133849478
 20
-77.270567176
 10
-121.2603384093
 20
-77.2902629537
 10
-121.309018709
 20
-77.3094714695
 10
-121.3593894739
 20
-77.3281387984
 10
-121.4114808235
 20
-77.3462367471
 10
-121.4653907668
 20
-77.3637574229
 10
-121.5211032576
 20
-77.3806481845
 10
-121.5786257356
 20
-77.3968647339
 10
-121.6380928493
 20
-77.4123979819
 10
-121.6994905645
 20
-77.4271865524
 10
-121.7628209317
 20
-77.4411744432
 10
-121.8282440293
 20
-77.4543413257
 10
-121.8957459558
 20
-77.4666129857
 10
-121.9653232504
 20
-77.4779195416
 10
-122.0371522615
 20
-77.4882215842
 10
-122.1112216957
 20
-77.4974284588
 10
-122.187516922
 20
-77.5054525281
 10
-122.2662085378
 20
-77.5122255861
 10
-122.3473407696
 20
-77.5176427061
  0
LWPOLYLINE
  5
550
100
AcDbEntity
  8
ASSI
100
AcDbPolyline
 62
253
  6
CONTINUOUS
 90
19
 70
0
 10
-121.2133849478
 20
-77.270567176
 10
-121.2603384093
 20
-77.2902629537
 10
-121.309018709
 20
-77.3094714695
 10
-121.3593894739
 20
-77.3281387984
 10
-121.4114808235
 20
-77.3462367471
 10
-121.4653907668
 20
-77.3637574229
 10
-121.5211032576
 20
-77.3806481845
 10
-121.5786257356
 20
-77.3968647339
 10
-121.6380928493
 20
-77.4123979819
 10
-121.6994905645
 20
-77.4271865524
 10
-121.7628209317
 20
-77.4411744432
 10
-121.8282440293
 20
-77.4543413257
 10
-121.8957459558
 20
-77.4666129857
 10
-121.9653232504
 20
-77.4779195416
 10
-122.0371522615
 20
-77.4882215842
 10
-122.1112216957
 20
-77.4974284588
 10
-122.187516922
 20
-77.5054525281
 10
-122.2662085378
 20
-77.5122255861
 10
-122.3473407696
 20
-77.5176427061
  0
LINE
  5
551
100
AcDbEntity
  8
RACCORDO
100
AcDbLine
 62
7
  6
CONTINUOUS
 10
-121.1788049935
 20
-77.2983044816
 11
-121.1515625147
 21
-77.2879882041
  0
LINE
  5
552
100
AcDbEntity
  8
ASSI
100
AcDbLine
 62
7
  6
CONTINUOUS
 10
-121.1788049935
 20
-77.2983044816
 11
-121.1515625147
 21
-77.2879882041
  0
LINE
  5
553
100
AcDbEntity
  8
RACCORDO
100
AcDbLine
 62
7
  6
CONTINUOUS
 10
-149.6234564504
 20
32.64306261
 11
-147.3234564504
 21
32.64306261
  0
LINE
  5
554
100
AcDbEntity
  8
ASSI
100
AcDbLine
 62
7
  6
CONTINUOUS
 10
-149.6234564504
 20
32.64306261
 11
-147.3234564504
 21
32.64306261
  0
ARC
  5
555
100
AcDbEntity
  8
RACCORDO
100
AcDbCircle
 62
253
  6
CONTINUOUS
 10
-46.0992049786
 20
-75.85693739
 40
1.0
100
AcDbArc
 50
180.0
 51
270.0
  0
ARC
  5
556
100
AcDbEntity
  8
RACCORDO
100
AcDbCircle
 62
7
  6
CONTINUOUS
 10
-50.5992049786
 20
-80.85693739
 40
1.0
100
AcDbArc
 50
180.0
 51
270.0
  0
ARC
  5
557
100
AcDbEntity
  8
ASSI
100
AcDbCircle
 62
7
  6
CONTINUOUS
 10
-50.5992049786
 20
-80.85693739
 40
1.0
100
AcDbArc
 50
180.0
 51
270.0
  0
ARC
  5
558
100
AcDbEntity
  8
RACCORDO
100
AcDbCircle
 62
253
  6
CONTINUOUS
 10
-50.5992049786
 20
-80.85693739
 40
0.8
100
AcDbArc
 50
180.0
 51
270.0
  0
ARC
  5
559
100
AcDbEntity
  8
ASSI
100
AcDbCircle
 62
253
  6
CONTINUOUS
 10
-50.5992049786
 20
-80.85693739
 40
0.8
100
AcDbArc
 50
180.0
 51
270.0
  0
ARC
  5
55A
100
AcDbEntity
  8
RACCORDO
100
AcDbCircle
 62
7
  6
CONTINUOUS
 10
-46.0992049786
 20
-75.85693739
 40
0.5
100
AcDbArc
 50
180.0
 51
270.0
  0
ARC
  5
55B
100
AcDbEntity
  8
RACCORDO
100
AcDbCircle
 62
7
  6
CONTINUOUS
 10
-48.3992049786
 20
-78.15693739
 40
0.5
100
AcDbArc
 50
180.0
 51
270.0
  0
ARC
  5
55C
100
AcDbEntity
  8
RACCORDO
100
AcDbCircle
 62
253
  6
CONTINUOUS
 10
-46.0992049786
 20
26.64306261
 40
1.0
100
AcDbArc
 50
90.0
 51
180.0
  0
ARC
  5
55D
100
AcDbEntity
  8
RACCORDO
100
AcDbCircle
 62
7
  6
CONTINUOUS
 10
-50.5992049786
 20
31.64306261
 40
1.0
100
AcDbArc
 50
90.0
 51
180.0
  0
ARC
  5
55E
100
AcDbEntity
  8
ASSI
100
AcDbCircle
 62
7
  6
CONTINUOUS
 10
-50.5992049786
 20
31.64306261
 40
1.0
100
AcDbArc
 50
90.0
 51
180.0
  0
ARC
  5
55F
100
AcDbEntity
  8
RACCORDO
100
AcDbCircle
 62
7
  6
CONTINUOUS
 10
-46.0992049786
 20
26.64306261
 40
0.5
100
AcDbArc
 50
90.0
 51
180.0
  0
ARC
  5
560
100
AcDbEntity
  8
RACCORDO
100
AcDbCircle
 62
7
  6
CONTINUOUS
 10
-48.3992049786
 20
28.94306261
 40
0.5
100
AcDbArc
 50
90.0
 51
180.0
  0
ARC
  5
561
100
AcDbEntity
  8
RACCORDO
100
AcDbCircle
 62
253
  6
CONTINUOUS
 10
17.9007950214
 20
-75.85693739
 40
1.0
100
AcDbArc
 50
270.0
 51
360.0
  0
ARC
  5
562
100
AcDbEntity
  8
RACCORDO
100
AcDbCircle
 62
7
  6
CONTINUOUS
 10
22.4007950214
 20
-80.85693739
 40
1.0
100
AcDbArc
 50
270.0
 51
360.0
  0
ARC
  5
563
100
AcDbEntity
  8
ASSI
100
AcDbCircle
 62
7
  6
CONTINUOUS
 10
22.4007950214
 20
-80.85693739
 40
1.0
100
AcDbArc
 50
270.0
 51
360.0
  0
ARC
  5
564
100
AcDbEntity
  8
RACCORDO
100
AcDbCircle
 62
253
  6
CONTINUOUS
 10
22.4007950214
 20
-80.85693739
 40
0.8
100
AcDbArc
 50
270.0
 51
360.0
  0
ARC
  5
565
100
AcDbEntity
  8
ASSI
100
AcDbCircle
 62
253
  6
CONTINUOUS
 10
22.4007950214
 20
-80.85693739
 40
0.8
100
AcDbArc
 50
270.0
 51
360.0
  0
ARC
  5
566
100
AcDbEntity
  8
RACCORDO
100
AcDbCircle
 62
7
  6
CONTINUOUS
 10
17.9007950214
 20
-75.85693739
 40
0.5
100
AcDbArc
 50
270.0
 51
360.0
  0
ARC
  5
567
100
AcDbEntity
  8
RACCORDO
100
AcDbCircle
 62
7
  6
CONTINUOUS
 10
20.2007950214
 20
-78.15693739
 40
0.5
100
AcDbArc
 50
270.0
 51
360.0
  0
ARC
  5
568
100
AcDbEntity
  8
RACCORDO
100
AcDbCircle
 62
7
  6
CONTINUOUS
 10
23.2007950214
 20
-74.15693739
 40
0.2
100
AcDbArc
 50
0.0
 51
90.0
  0
ARC
  5
569
100
AcDbEntity
  8
RACCORDO
100
AcDbCircle
 62
7
  6
CONTINUOUS
 10
23.2007950214
 20
-75.05693739
 40
0.2
100
AcDbArc
 50
270.0
 51
360.0
  0
ARC
  5
56A
100
AcDbEntity
  8
ASSI
100
AcDbCircle
 62
7
  6
CONTINUOUS
 10
23.2007950214
 20
-74.15693739
 40
0.2
100
AcDbArc
 50
0.0
 51
90.0
  0
ARC
  5
56B
100
AcDbEntity
  8
ASSI
100
AcDbCircle
 62
7
  6
CONTINUOUS
 10
23.2007950214
 20
-75.05693739
 40
0.2
100
AcDbArc
 50
270.0
 51
360.0
  0
ARC
  5
56C
100
AcDbEntity
  8
RACCORDO
100
AcDbCircle
 62
253
  6
CONTINUOUS
 10
17.9007950214
 20
26.64306261
 40
1.0
100
AcDbArc
 50
0.0
 51
90.0
  0
ARC
  5
56D
100
AcDbEntity
  8
RACCORDO
100
AcDbCircle
 62
7
  6
CONTINUOUS
 10
22.4007950214
 20
31.64306261
 40
1.0
100
AcDbArc
 50
0.0
 51
90.0
  0
ARC
  5
56E
100
AcDbEntity
  8
ASSI
100
AcDbCircle
 62
7
  6
CONTINUOUS
 10
22.4007950214
 20
31.64306261
 40
1.0
100
AcDbArc
 50
0.0
 51
90.0
  0
ARC
  5
56F
100
AcDbEntity
  8
RACCORDO
100
AcDbCircle
 62
253
  6
CONTINUOUS
 10
22.4007950214
 20
31.64306261
 40
0.8
100
AcDbArc
 50
0.0
 51
90.0
  0
ARC
  5
570
100
AcDbEntity
  8
ASSI
100
AcDbCircle
 62
253
  6
CONTINUOUS
 10
22.4007950214
 20
31.64306261
 40
0.8
100
AcDbArc
 50
0.0
 51
90.0
  0
ARC
  5
571
100
AcDbEntity
  8
RACCORDO
100
AcDbCircle
 62
7
  6
CONTINUOUS
 10
17.9007950214
 20
26.64306261
 40
0.5
100
AcDbArc
 50
0.0
 51
90.0
  0
ARC
  5
572
100
AcDbEntity
  8
RACCORDO
100
AcDbCircle
 62
7
  6
CONTINUOUS
 10
20.2007950214
 20
28.94306261
 40
0.5
100
AcDbArc
 50
0.0
 51
90.0
  0
ARC
  5
573
100
AcDbEntity
  8
RACCORDO
100
AcDbCircle
 62
7
  6
CONTINUOUS
 10
23.2007950214
 20
25.84306261
 40
0.2
100
AcDbArc
 50
0.0
 51
90.0
  0
ARC
  5
574
100
AcDbEntity
  8
RACCORDO
100
AcDbCircle
 62
7
  6
CONTINUOUS
 10
23.2007950214
 20
24.94306261
 40
0.2
100
AcDbArc
 50
270.0
 51
360.0
  0
ARC
  5
575
100
AcDbEntity
  8
ASSI
100
AcDbCircle
 62
7
  6
CONTINUOUS
 10
23.2007950214
 20
25.84306261
 40
0.2
100
AcDbArc
 50
0.0
 51
90.0
  0
ARC
  5
576
100
AcDbEntity
  8
ASSI
100
AcDbCircle
 62
7
  6
CONTINUOUS
 10
23.2007950214
 20
24.94306261
 40
0.2
100
AcDbArc
 50
270.0
 51
360.0
  0
ARC
  5
577
100
AcDbEntity
  8
RACCORDO
100
AcDbCircle
 62
7
  6
CONTINUOUS
 10
-150.4234564504
 20
-78.15693739
 40
0.5
100
AcDbArc
 50
180.0
 51
270.0
  0
ARC
  5
578
100
AcDbEntity
  8
RACCORDO
100
AcDbCircle
 62
7
  6
CONTINUOUS
 10
-149.6234564504
 20
-81.65693739
 40
0.2
100
AcDbArc
 50
180.0
 51
270.0
  0
ARC
  5
579
100
AcDbEntity
  8
RACCORDO
100
AcDbCircle
 62
7
  6
CONTINUOUS
 10
-150.9234564504
 20
-74.15693739
 40
0.2
100
AcDbArc
 50
90.0
 51
180.0
  0
ARC
  5
57A
100
AcDbEntity
  8
RACCORDO
100
AcDbCircle
 62
7
  6
CONTINUOUS
 10
-150.9234564504
 20
-75.05693739
 40
0.2
100
AcDbArc
 50
180.0
 51
270.0
  0
ARC
  5
57B
100
AcDbEntity
  8
RACCORDO
100
AcDbCircle
 62
7
  6
CONTINUOUS
 10
-150.9234564504
 20
-77.05693739
 40
0.2
100
AcDbArc
 50
180.0
 51
270.0
  0
ARC
  5
57C
100
AcDbEntity
  8
RACCORDO
100
AcDbCircle
 62
7
  6
CONTINUOUS
 10
-150.9234564504
 20
-76.15693739
 40
0.2
100
AcDbArc
 50
90.0
 51
180.0
  0
ARC
  5
57D
100
AcDbEntity
  8
ASSI
100
AcDbCircle
 62
7
  6
CONTINUOUS
 10
-149.6234564504
 20
-81.65693739
 40
0.2
100
AcDbArc
 50
180.0
 51
270.0
  0
ARC
  5
57E
100
AcDbEntity
  8
ASSI
100
AcDbCircle
 62
7
  6
CONTINUOUS
 10
-150.9234564504
 20
-77.05693739
 40
0.2
100
AcDbArc
 50
180.0
 51
270.0
  0
ARC
  5
57F
100
AcDbEntity
  8
ASSI
100
AcDbCircle
 62
7
  6
CONTINUOUS
 10
-150.9234564504
 20
-76.15693739
 40
0.2
100
AcDbArc
 50
90.0
 51
180.0
  0
ARC
  5
580
100
AcDbEntity
  8
ASSI
100
AcDbCircle
 62
7
  6
CONTINUOUS
 10
-150.9234564504
 20
-74.15693739
 40
0.2
100
AcDbArc
 50
90.0
 51
180.0
  0
ARC
  5
581
100
AcDbEntity
  8
ASSI
100
AcDbCircle
 62
7
  6
CONTINUOUS
 10
-150.9234564504
 20
-75.05693739
 40
0.2
100
AcDbArc
 50
180.0
 51
270.0
  0
ARC
  5
582
100
AcDbEntity
  8
RACCORDO
100
AcDbCircle
 62
7
  6
CONTINUOUS
 10
-147.0234564504
 20
-80.43193739
 40
0.05
100
AcDbArc
 50
270.0
 51
360.0
  0
ARC
  5
583
100
AcDbEntity
  8
RACCORDO
100
AcDbCircle
 62
7
  6
CONTINUOUS
 10
-150.4234564504
 20
28.94306261
 40
0.5
100
AcDbArc
 50
90.0
 51
180.0
  0
ARC
  5
584
100
AcDbEntity
  8
RACCORDO
100
AcDbCircle
 62
7
  6
CONTINUOUS
 10
-149.6234564504
 20
32.44306261
 40
0.2
100
AcDbArc
 50
90.0
 51
180.0
  0
ARC
  5
585
100
AcDbEntity
  8
RACCORDO
100
AcDbCircle
 62
7
  6
CONTINUOUS
 10
-150.9234564504
 20
25.84306261
 40
0.2
100
AcDbArc
 50
90.0
 51
180.0
  0
ARC
  5
586
100
AcDbEntity
  8
RACCORDO
100
AcDbCircle
 62
7
  6
CONTINUOUS
 10
-150.9234564504
 20
24.94306261
 40
0.2
100
AcDbArc
 50
180.0
 51
270.0
  0
ARC
  5
587
100
AcDbEntity
  8
RACCORDO
100
AcDbCircle
 62
7
  6
CONTINUOUS
 10
-150.9234564504
 20
4.94306261
 40
0.2
100
AcDbArc
 50
180.0
 51
270.0
  0
ARC
  5
588
100
AcDbEntity
  8
RACCORDO
100
AcDbCircle
 62
7
  6
CONTINUOUS
 10
-150.9234564504
 20
5.84306261
 40
0.2
100
AcDbArc
 50
90.0
 51
180.0
  0
ARC
  5
589
100
AcDbEntity
  8
ASSI
100
AcDbCircle
 62
7
  6
CONTINUOUS
 10
-149.6234564504
 20
32.44306261
 40
0.2
100
AcDbArc
 50
90.0
 51
180.0
  0
ARC
  5
58A
100
AcDbEntity
  8
ASSI
100
AcDbCircle
 62
7
  6
CONTINUOUS
 10
-150.9234564504
 20
4.94306261
 40
0.2
100
AcDbArc
 50
180.0
 51
270.0
  0
ARC
  5
58B
100
AcDbEntity
  8
ASSI
100
AcDbCircle
 62
7
  6
CONTINUOUS
 10
-150.9234564504
 20
5.84306261
 40
0.2
100
AcDbArc
 50
90.0
 51
180.0
  0
ARC
  5
58C
100
AcDbEntity
  8
ASSI
100
AcDbCircle
 62
7
  6
CONTINUOUS
 10
-150.9234564504
 20
25.84306261
 40
0.2
100
AcDbArc
 50
90.0
 51
180.0
  0
ARC
  5
58D
100
AcDbEntity
  8
ASSI
100
AcDbCircle
 62
7
  6
CONTINUOUS
 10
-150.9234564504
 20
24.94306261
 40
0.2
100
AcDbArc
 50
180.0
 51
270.0
  0
ARC
  5
58E
100
AcDbEntity
  8
RACCORDO
100
AcDbCircle
 62
7
  6
CONTINUOUS
 10
-147.0234564504
 20
31.21806261
 40
0.05
100
AcDbArc
 50
0.0
 51
90.0
  0
ARC
  5
58F
100
AcDbEntity
  8
RACCORDO
100
AcDbCircle
 62
7
  6
CONTINUOUS
 10
-135.7234564504
 20
-76.55693739
 40
0.3
100
AcDbArc
 50
180.0
 51
270.0
  0
ARC
  5
590
100
AcDbEntity
  8
RACCORDO
100
AcDbCircle
 62
7
  6
CONTINUOUS
 10
-135.7234564504
 20
-64.80693739
 40
0.3
100
AcDbArc
 50
90.0
 51
180.0
  0
ARC
  5
591
100
AcDbEntity
  8
ASSI
100
AcDbCircle
 62
7
  6
CONTINUOUS
 10
-135.7234564504
 20
-76.55693739
 40
0.3
100
AcDbArc
 50
180.0
 51
270.0
  0
ARC
  5
592
100
AcDbEntity
  8
ASSI
100
AcDbCircle
 62
7
  6
CONTINUOUS
 10
-135.7234564504
 20
-64.80693739
 40
0.3
100
AcDbArc
 50
90.0
 51
180.0
  0
ARC
  5
593
100
AcDbEntity
  8
RACCORDO
100
AcDbCircle
 62
7
  6
CONTINUOUS
 10
-121.2234564504
 20
-55.350605518
 40
0.2
100
AcDbArc
 50
0.0
 51
89.0
  0
ARC
  5
594
100
AcDbEntity
  8
RACCORDO
100
AcDbCircle
 62
7
  6
CONTINUOUS
 10
-123.5234564504
 20
-54.9103979374
 40
0.2
100
AcDbArc
 50
180.0000000014
 51
269.0
  0
ARC
  5
595
100
AcDbEntity
  8
RACCORDO
100
AcDbCircle
 62
7
  6
CONTINUOUS
 10
-121.2234564504
 20
-77.3013297298
 40
0.2
100
AcDbArc
 50
271.0
 51
360.0
  0
ARC
  5
596
100
AcDbEntity
  8
RACCORDO
100
AcDbCircle
 62
7
  6
CONTINUOUS
 10
-121.2234564504
 20
-63.60693739
 40
0.2
100
AcDbArc
 50
0.0
 51
90.0
  0
ARC
  5
597
100
AcDbEntity
  8
RACCORDO
100
AcDbCircle
 62
7
  6
CONTINUOUS
 10
-123.5234564504
 20
-63.20693739
 40
0.2
100
AcDbArc
 50
180.0
 51
270.0
  0
ARC
  5
598
100
AcDbEntity
  8
ASSI
100
AcDbCircle
 62
7
  6
CONTINUOUS
 10
-121.2234564504
 20
-55.350605518
 40
0.2
100
AcDbArc
 50
0.0
 51
89.0
  0
ARC
  5
599
100
AcDbEntity
  8
ASSI
100
AcDbCircle
 62
7
  6
CONTINUOUS
 10
-123.5234564504
 20
-54.9103979374
 40
0.2
100
AcDbArc
 50
180.0000000014
 51
269.0
  0
ARC
  5
59A
100
AcDbEntity
  8
ASSI
100
AcDbCircle
 62
7
  6
CONTINUOUS
 10
-121.2234564504
 20
-77.3013297298
 40
0.2
100
AcDbArc
 50
271.0
 51
360.0
  0
ARC
  5
59B
100
AcDbEntity
  8
ASSI
100
AcDbCircle
 62
7
  6
CONTINUOUS
 10
-121.2234564504
 20
-63.60693739
 40
0.2
100
AcDbArc
 50
0.0
 51
90.0
  0
ARC
  5
59C
100
AcDbEntity
  8
ASSI
100
AcDbCircle
 62
7
  6
CONTINUOUS
 10
-123.5234564504
 20
-63.20693739
 40
0.2
100
AcDbArc
 50
180.0
 51
270.0
  0
ARC
  5
59D
100
AcDbEntity
  8
RACCORDO
100
AcDbCircle
 62
7
  6
CONTINUOUS
 10
-120.9234564504
 20
-39.6103979374
 40
0.2
100
AcDbArc
 50
271.0
 51
360.0
  0
ARC
  5
59E
100
AcDbEntity
  8
RACCORDO
100
AcDbCircle
 62
7
  6
CONTINUOUS
 10
-120.9234564504
 20
-33.6034768427
 40
0.2
100
AcDbArc
 50
0.0
 51
89.0
  0
ARC
  5
59F
100
AcDbEntity
  8
RACCORDO
100
AcDbCircle
 62
7
  6
CONTINUOUS
 10
-123.5234564504
 20
-40.0558420374
 40
0.2
100
AcDbArc
 50
91.0
 51
180.0
  0
ARC
  5
5A0
100
AcDbEntity
  8
RACCORDO
100
AcDbCircle
 62
7
  6
CONTINUOUS
 10
-123.5234564504
 20
-33.1580327426
 40
0.2
100
AcDbArc
 50
180.0
 51
269.0
  0
ARC
  5
5A1
100
AcDbEntity
  8
RACCORDO
100
AcDbCircle
 62
7
  6
CONTINUOUS
 10
-121.2234564504
 20
-31.050605518
 40
0.2
100
AcDbArc
 50
0.0
 51
89.0
  0
ARC
  5
5A2
100
AcDbEntity
  8
RACCORDO
100
AcDbCircle
 62
7
  6
CONTINUOUS
 10
-121.2234564504
 20
-51.8632692621
 40
0.2
100
AcDbArc
 50
271.0
 51
360.0
  0
ARC
  5
5A3
100
AcDbEntity
  8
RACCORDO
100
AcDbCircle
 62
7
  6
CONTINUOUS
 10
-123.5234564504
 20
-30.6103979374
 40
0.2
100
AcDbArc
 50
180.0
 51
269.0
  0
ARC
  5
5A4
100
AcDbEntity
  8
ASSI
100
AcDbCircle
 62
7
  6
CONTINUOUS
 10
-120.9234564504
 20
-39.6103979374
 40
0.2
100
AcDbArc
 50
271.0
 51
360.0
  0
ARC
  5
5A5
100
AcDbEntity
  8
ASSI
100
AcDbCircle
 62
7
  6
CONTINUOUS
 10
-120.9234564504
 20
-33.6034768427
 40
0.2
100
AcDbArc
 50
0.0
 51
89.0
  0
ARC
  5
5A6
100
AcDbEntity
  8
ASSI
100
AcDbCircle
 62
7
  6
CONTINUOUS
 10
-123.5234564504
 20
-40.0558420374
 40
0.2
100
AcDbArc
 50
91.0
 51
180.0
  0
ARC
  5
5A7
100
AcDbEntity
  8
ASSI
100
AcDbCircle
 62
7
  6
CONTINUOUS
 10
-123.5234564504
 20
-33.1580327426
 40
0.2
100
AcDbArc
 50
180.0
 51
269.0
  0
ARC
  5
5A8
100
AcDbEntity
  8
ASSI
100
AcDbCircle
 62
7
  6
CONTINUOUS
 10
-121.2234564504
 20
-31.050605518
 40
0.2
100
AcDbArc
 50
0.0
 51
89.0
  0
ARC
  5
5A9
100
AcDbEntity
  8
ASSI
100
AcDbCircle
 62
7
  6
CONTINUOUS
 10
-121.2234564504
 20
-51.8632692621
 40
0.2
100
AcDbArc
 50
271.0
 51
360.0
  0
ARC
  5
5AA
100
AcDbEntity
  8
ASSI
100
AcDbCircle
 62
7
  6
CONTINUOUS
 10
-123.5234564504
 20
-30.6103979374
 40
0.2
100
AcDbArc
 50
180.0
 51
269.0
  0
ARC
  5
5AB
100
AcDbEntity
  8
RACCORDO
100
AcDbCircle
 62
7
  6
CONTINUOUS
 10
-123.5234564504
 20
-52.303476349
 40
0.1999997532
100
AcDbArc
 50
91.0000024682
 51
180.0001414268
  0
ARC
  5
5AC
100
AcDbEntity
  8
ASSI
100
AcDbCircle
 62
7
  6
CONTINUOUS
 10
-123.5234564504
 20
-52.303476349
 40
0.1999997532
100
AcDbArc
 50
91.0000024682
 51
180.0001414268
  0
ARC
  5
5AD
100
AcDbEntity
  8
RACCORDO
100
AcDbCircle
 62
7
  6
CONTINUOUS
 10
-124.2234564504
 20
27.8397720363
 40
0.5
100
AcDbArc
 50
0.0002761435
 51
89.0000048193
  0
ARC
  5
5AE
100
AcDbEntity
  8
ASSI
100
AcDbCircle
 62
7
  6
CONTINUOUS
 10
-124.2234564504
 20
27.8397720363
 40
0.5
100
AcDbArc
 50
0.0002761435
 51
89.0000048193
  0
ARC
  5
5AF
100
AcDbEntity
  8
RACCORDO
100
AcDbCircle
 62
7
  6
CONTINUOUS
 10
-120.9234564504
 20
-1.8103979374
 40
0.2
100
AcDbArc
 50
271.0
 51
360.0
  0
ARC
  5
5B0
100
AcDbEntity
  8
RACCORDO
100
AcDbCircle
 62
7
  6
CONTINUOUS
 10
-120.9234564504
 20
4.1965231573
 40
0.2
100
AcDbArc
 50
0.0
 51
89.0
  0
ARC
  5
5B1
100
AcDbEntity
  8
RACCORDO
100
AcDbCircle
 62
7
  6
CONTINUOUS
 10
-123.5234564504
 20
-2.2558420374
 40
0.2
100
AcDbArc
 50
91.0
 51
180.0
  0
ARC
  5
5B2
100
AcDbEntity
  8
RACCORDO
100
AcDbCircle
 62
7
  6
CONTINUOUS
 10
-123.5234564504
 20
4.6419672574
 40
0.2
100
AcDbArc
 50
180.0
 51
269.0
  0
ARC
  5
5B3
100
AcDbEntity
  8
ASSI
100
AcDbCircle
 62
7
  6
CONTINUOUS
 10
-120.9234564504
 20
-1.8103979374
 40
0.2
100
AcDbArc
 50
271.0
 51
360.0
  0
ARC
  5
5B4
100
AcDbEntity
  8
ASSI
100
AcDbCircle
 62
7
  6
CONTINUOUS
 10
-120.9234564504
 20
4.1965231573
 40
0.2
100
AcDbArc
 50
0.0
 51
89.0
  0
ARC
  5
5B5
100
AcDbEntity
  8
ASSI
100
AcDbCircle
 62
7
  6
CONTINUOUS
 10
-123.5234564504
 20
-2.2558420374
 40
0.2
100
AcDbArc
 50
91.0
 51
180.0
  0
ARC
  5
5B6
100
AcDbEntity
  8
ASSI
100
AcDbCircle
 62
7
  6
CONTINUOUS
 10
-123.5234564504
 20
4.6419672574
 40
0.2
100
AcDbArc
 50
180.0
 51
269.0
  0
ENDSEC
  0
SECTION
  2
OBJECTS
  0
DICTIONARY
  5
C
100
AcDbDictionary
280
0
281
1
  3
ACAD_GROUP
350
D
  3
ACAD_MLINESTYLE
350
17
  3
ACAD_LAYOUT
350
1A
  3
ACAD_PLOTSETTINGS
350
19
  3
ACAD_PLOTSTYLENAME
350
E
  0
DICTIONARY
  5
D
102
{ACAD_REACTORS
330
C
102
}
100
AcDbDictionary
280
0
281
1
  0
ACDBDICTIONARYWDFLT
  5
E
102
{ACAD_REACTORS
330
C
102
}
100
AcDbDictionary
281
1
  3
Normal
350
F
100
AcDbDictionaryWithDefault
340
F
  0
DICTIONARY
  5
17
102
{ACAD_REACTORS
330
C
102
}
100
AcDbDictionary
280
0
281
1
  3
Standard
350
18
  0
DICTIONARY
  5
19
102
{ACAD_REACTORS
330
C
102
}
100
AcDbDictionary
281
1
  0
DICTIONARY
  5
1A
102
{ACAD_REACTORS
330
C
102
}
100
AcDbDictionary
281
1
  3
Model
350
5B7
  3
Layout1
350
5B8
  0
ACDBPLACEHOLDER
  5
F
102
{ACAD_REACTORS
330
E
102
}
  0
MLINESTYLE
  5
18
102
{ACAD_REACTORS
330
17
102
}
100
AcDbMlineStyle
  2
STANDARD
 70
0
  3

 62
256
 51
90.0
 52
90.0
 71
2
 49
0.5
 62
256
  6
BYLAYER
 49
-0.5
 62
256
  6
BYLAYER
  0
LAYOUT
  5
5B7
102
{ACAD_REACTORS
330
1A
102
}
100
AcDbPlotSettings
  1

  2
none_device
  4
ISO_A4_(297.00_x_210.00_MM)
  6

 40
0.0
 41
0.0
 42
0.0
 43
0.0
 44
297.0
 45
210.0
 46
0.0
 47
0.0
 48
0.0
 49
0.0
140
0.0
141
0.0
142
1.0
143
1.0
 70
1024
 72
1
 73
0
 74
0
  7

 75
0
147
1.0
148
0.0
149
0.0
100
AcDbLayout
  1
Model
 70
0
 71
0
 10
0.0
 20
0.0
 11
297.0
 21
210.0
 12
0.0
 22
0.0
 32
0.0
 14
0.0
 24
0.0
 34
0.0
 15
0.0
 25
0.0
 35
0.0
146
0.0
 13
0.0
 23
0.0
 33
0.0
 16
1.0
 26
0.0
 36
0.0
 17
0.0
 27
1.0
 37
0.0
 76
0
330
2BE
345
0
346
0
  0
LAYOUT
  5
5B8
102
{ACAD_REACTORS
330
1A
102
}
100
AcDbPlotSettings
  1

  2
none_device
  4
ISO_A4_(297.00_x_210.00_MM)
  6

 40
0.0
 41
0.0
 42
0.0
 43
0.0
 44
297.0
 45
210.0
 46
0.0
 47
0.0
 48
0.0
 49
0.0
140
0.0
141
0.0
142
1.0
143
1.0
 70
0
 72
1
 73
0
 74
0
  7

 75
0
147
1.0
148
0.0
149
0.0
100
AcDbLayout
  1
Layout1
 70
0
 71
1
 10
0.0
 20
0.0
 11
297.0
 21
210.0
 12
0.0
 22
0.0
 32
0.0
 14
0.0
 24
0.0
 34
0.0
 15
0.0
 25
0.0
 35
0.0
146
0.0
 13
0.0
 23
0.0
 33
0.0
 16
1.0
 26
0.0
 36
0.0
 17
0.0
 27
1.0
 37
0.0
 76
0
330
2BF
345
0
346
0
  0
ENDSEC
  0
EOF
