  0
SECTION
  2
HEADER
  9
$ACADVER
  1
AC1015
  9
$DWGCODEPAGE
  3
ANSI_1252
  9
$EXTMAX
 10
297.0
 20
210.0
 30
0.0
  9
$EXTMIN
 10
0.0
 20
0.0
 30
0.0
  9
$LIMMIN
 10
0.0
 20
0.0
  9
$LIMMAX
 10
297.0
 20
210.0
  9
$VIEWCTR
 10
148.5
 20
105.0
  9
$VIEWSIZE
 40
210.0
  9
$CLAYER
  8
0
  9
$LTSCALE
 40
16.335
  9
$CELTYPE
  6
BYLAYER
  9
$DIMSCALE
 40
1.0
  9
$DIMASZ
 40
3.0
  9
$DIMEXO
 40
0.5
  9
$DIMDLI
 40
11.286
  9
$DIMEXE
 40
1.5
  9
$DIMCEN
 40
2.673
  9
$DIMLFAC
 40
1.0
  9
$DIMBLK
  1
_FILLED
  9
$DIMALT
 70
0
  9
$DIMALTF
 40
0.0393700787
  9
$DIMTXT
 40
3.0
  9
$DIMTOL
 70
1
  9
$DIMLIM
 70
0
  9
$DIMTFAC
 40
1.0
  9
$DIMTP
 40
0.01
  9
$DIMTM
 40
0.01
  9
$DIMGAP
 40
0.625
  9
$DIMDSEP
 70
44
  9
$AUNITS
 70
0
  9
$PDMODE
 70
3
  9
$PDSIZE
 40
3.0
  9
$HANDSEED
  5
2C1
  9
$TILEMODE
 70
1
  9
$MEASUREMENT
 70
1
  9
$INSUNITS
 70
4
  0
ENDSEC
  0
SECTION
  2
CLASSES
  0
CLASS
  1
ACDBDICTIONARYWDFLT
  2
AcDbDictionaryWithDefault
  3
AutoCAD 2000
 90
0
280
0
281
0
  0
CLASS
  1
ACDBPLACEHOLDER
  2
AcDbPlaceHolder
  3
AutoCAD 2000
 90
0
280
0
281
0
  0
CLASS
  1
LAYOUT
  2
AcDbLayout
  3
AutoCAD 2000
 90
0
280
0
281
0
  0
ENDSEC
  0
SECTION
  2
TABLES
  0
TABLE
  2
VPORT
  5
8
100
AcDbSymbolTable
 70
2
  0
VPORT
  5
1F4
100
AcDbSymbolTableRecord
100
AcDbViewportTableRecord
  2
*ACTIVE
 70
0
 10
0.0
 20
0.0
 11
1.0
 21
1.0
 12
148.5
 22
105.0
 13
0.0
 23
0.0
 14
1.0
 24
1.0
 15
0.0
 25
0.0
 16
0.0
 26
0.0
 36
1.0
 17
0.0
 27
0.0
 37
0.0
 40
210.0
 41
1.4142857143
 42
50.0
 43
0.0
 44
0.0
 50
0.0
 51
0.0
 71
0
 72
100
 73
1
 74
1
 75
0
 76
0
 77
0
 78
0
  0
ENDTAB
  0
TABLE
  2
LTYPE
  5
5
100
AcDbSymbolTable
 70
6
  0
LTYPE
  5
14
100
AcDbSymbolTableRecord
100
AcDbLinetypeTableRecord
  2
BYBLOCK
 70
0
  3

 72
65
 73
0
 40
0.0
  0
LTYPE
  5
15
100
AcDbSymbolTableRecord
100
AcDbLinetypeTableRecord
  2
BYLAYER
 70
0
  3

 72
65
 73
0
 40
0.0
  0
LTYPE
  5
16
100
AcDbSymbolTableRecord
100
AcDbLinetypeTableRecord
  2
CONTINUOUS
 70
64
  3
Solid line
 72
65
 73
0
 40
0.0
  0
LTYPE
  5
1F5
100
AcDbSymbolTableRecord
100
AcDbLinetypeTableRecord
  2
CENTER
 70
64
  3
____ _ ____ _ ____ _ ____ _ ____ _ ____ _ ____
 72
65
 73
4
 40
0.6
 49
0.375
 74
0
 49
-0.075
 74
0
 49
0.075
 74
0
 49
-0.075
 74
0
  0
LTYPE
  5
1F6
100
AcDbSymbolTableRecord
100
AcDbLinetypeTableRecord
  2
HIDDEN
 70
64
  3
- - - - - - - - - - - - - - - - - - - -
 72
65
 73
2
 40
0.2
 49
0.1
 74
0
 49
-0.1
 74
0
  0
LTYPE
  5
1F7
100
AcDbSymbolTableRecord
100
AcDbLinetypeTableRecord
  2
PHANTOM
 70
64
  3
_____ _ _ _____ _ _ _____ _ _ _____
 72
65
 73
6
 40
0.8
 49
0.45
 74
0
 49
-0.05
 74
0
 49
0.1
 74
0
 49
-0.05
 74
0
 49
0.1
 74
0
 49
-0.05
 74
0
  0
LTYPE
  5
1F8
100
AcDbSymbolTableRecord
100
AcDbLinetypeTableRecord
  2
DOT
 70
64
  3
. . . . . . . . . . . . . . . . . . . .
 72
65
 73
2
 40
0.2
 49
0.1
 74
0
 49
-0.1
 74
0
  0
LTYPE
  5
1F9
100
AcDbSymbolTableRecord
100
AcDbLinetypeTableRecord
  2
DASHED
 70
64
  3
- - - - - - - - - - - - - - - - - - - -
 72
65
 73
2
 40
0.2
 49
0.1
 74
0
 49
-0.1
 74
0
  0
ENDTAB
  0
TABLE
  2
LAYER
  5
2
100
AcDbSymbolTable
 70
36
  0
LAYER
  5
10
100
AcDbSymbolTableRecord
100
AcDbLayerTableRecord
  2
0
 70
0
 62
7
  6
CONTINUOUS
370
-3
390
F
  0
LAYER
  5
1FA
100
AcDbSymbolTableRecord
100
AcDbLayerTableRecord
  2
DEFAULT_1
 70
0
 62
7
  6
CENTER
370
-3
390
F
  0
LAYER
  5
1FB
100
AcDbSymbolTableRecord
100
AcDbLayerTableRecord
  2
DEFAULT_2
 70
0
 62
7
  6
HIDDEN
370
-3
390
F
  0
LAYER
  5
1FC
100
AcDbSymbolTableRecord
100
AcDbLayerTableRecord
  2
DEFAULT_3
 70
0
 62
7
  6
PHANTOM
370
-3
390
F
  0
LAYER
  5
1FD
100
AcDbSymbolTableRecord
100
AcDbLayerTableRecord
  2
ASSI
 70
0
 62
7
  6
CONTINUOUS
370
-3
390
F
  0
LAYER
  5
1FE
100
AcDbSymbolTableRecord
100
AcDbLayerTableRecord
  2
COORDINATE
 70
0
 62
7
  6
CONTINUOUS
370
-3
390
F
  0
LAYER
  5
1FF
100
AcDbSymbolTableRecord
100
AcDbLayerTableRecord
  2
COPY_PUBLISH
 70
0
 62
7
  6
CONTINUOUS
370
-3
390
F
  0
LAYER
  5
200
100
AcDbSymbolTableRecord
100
AcDbLayerTableRecord
  2
COSMETICI
 70
0
 62
7
  6
CONTINUOUS
370
-3
390
F
  0
LAYER
  5
201
100
AcDbSymbolTableRecord
100
AcDbLayerTableRecord
  2
CURVE
 70
0
 62
7
  6
CONTINUOUS
370
-3
390
F
  0
LAYER
  5
202
100
AcDbSymbolTableRecord
100
AcDbLayerTableRecord
  2
DRAFT
 70
0
 62
7
  6
CONTINUOUS
370
-3
390
F
  0
LAYER
  5
203
100
AcDbSymbolTableRecord
100
AcDbLayerTableRecord
  2
IMPORT_IGES
 70
0
 62
7
  6
CONTINUOUS
370
-3
390
F
  0
LAYER
  5
204
100
AcDbSymbolTableRecord
100
AcDbLayerTableRecord
  2
NOTE
 70
0
 62
7
  6
CONTINUOUS
370
-3
390
F
  0
LAYER
  5
205
100
AcDbSymbolTableRecord
100
AcDbLayerTableRecord
  2
PIANI
 70
0
 62
7
  6
CONTINUOUS
370
-3
390
F
  0
LAYER
  5
206
100
AcDbSymbolTableRecord
100
AcDbLayerTableRecord
  2
PUNTI
 70
0
 62
7
  6
CONTINUOUS
370
-3
390
F
  0
LAYER
  5
207
100
AcDbSymbolTableRecord
100
AcDbLayerTableRecord
  2
RACCORDO
 70
0
 62
7
  6
CONTINUOUS
370
-3
390
F
  0
LAYER
  5
208
100
AcDbSymbolTableRecord
100
AcDbLayerTableRecord
  2
SIMBOLI
 70
0
 62
7
  6
CONTINUOUS
370
-3
390
F
  0
LAYER
  5
209
100
AcDbSymbolTableRecord
100
AcDbLayerTableRecord
  2
SMUSSO
 70
0
 62
7
  6
CONTINUOUS
370
-3
390
F
  0
LAYER
  5
20A
100
AcDbSymbolTableRecord
100
AcDbLayerTableRecord
  2
SNAPLINE
 70
0
 62
7
  6
CONTINUOUS
370
-3
390
F
  0
LAYER
  5
20B
100
AcDbSymbolTableRecord
100
AcDbLayerTableRecord
  2
SUPERFICI
 70
0
 62
7
  6
CONTINUOUS
370
-3
390
F
  0
LAYER
  5
20C
100
AcDbSymbolTableRecord
100
AcDbLayerTableRecord
  2
TRASH
 70
0
 62
7
  6
CONTINUOUS
370
-3
390
F
  0
ENDTAB
  0
TABLE
  2
STYLE
  5
3
100
AcDbSymbolTable
 70
1
  0
STYLE
  5
11
100
AcDbSymbolTableRecord
100
AcDbTextStyleTableRecord
  2
STANDARD
 70
0
 40
0.0
 41
0.8
 50
0.0
 71
0
 42
0.2
  3
txt
  4

  0
STYLE
  5
20D
100
AcDbSymbolTableRecord
100
AcDbTextStyleTableRecord
  2
TEXTSTYLE_1
 70
0
 40
0.0
 41
0.8
 50
0.0
 71
0
 42
0.2
  3
gdt
  4

  0
ENDTAB
  0
TABLE
  2
VIEW
  5
6
100
AcDbSymbolTable
 70
0
  0
ENDTAB
  0
TABLE
  2
UCS
  5
7
100
AcDbSymbolTable
 70
0
  0
ENDTAB
  0
TABLE
  2
APPID
  5
9
100
AcDbSymbolTable
 70
1
  0
APPID
  5
20E
100
AcDbSymbolTableRecord
100
AcDbRegAppTableRecord
  2
ACAD
 70
0
  0
ENDTAB
  0
TABLE
  2
BLOCK_RECORD
  5
1
100
AcDbSymbolTable
 70
0
  0
BLOCK_RECORD
  5
20F
100
AcDbSymbolTableRecord
100
AcDbBlockTableRecord
  2
*Model_Space
  0
BLOCK_RECORD
  5
210
100
AcDbSymbolTableRecord
100
AcDbBlockTableRecord
  2
*Paper_Space
  0
BLOCK_RECORD
  5
211
100
AcDbSymbolTableRecord
100
AcDbBlockTableRecord
  2
_FILLED
  0
BLOCK_RECORD
  5
212
100
AcDbSymbolTableRecord
100
AcDbBlockTableRecord
  2
*D0
  0
BLOCK_RECORD
  5
213
100
AcDbSymbolTableRecord
100
AcDbBlockTableRecord
  2
*D1
  0
BLOCK_RECORD
  5
214
100
AcDbSymbolTableRecord
100
AcDbBlockTableRecord
  2
*D2
  0
ENDTAB
  0
TABLE
  2
DIMSTYLE
  5
A
100
AcDbSymbolTable
 70
1
100
AcDbDimStyleTable
 71
0
  0
DIMSTYLE
105
215
100
AcDbSymbolTableRecord
100
AcDbDimStyleTableRecord
  2
STANDARD
 70
0
  3

  4

 40
1.0
 41
3.0
 42
0.5
 43
0.38
 44
1.5
 45
0.0
 46
0.0
 47
0.01
 48
0.01
140
3.0
141
0.09
142
0.0
143
25.4
144
1.0
145
0.0
146
1.0
147
0.625
 71
1.0
 72
0.0
 73
0
 74
0
 75
0
 76
0
 77
1
 78
8
170
0
171
2
172
0
173
0
174
0
175
0
176
0
177
0
178
0
270
2
271
2
272
2
273
2
274
2
275
0
280
0
281
0
282
0
283
1
284
8
285
0
286
0
287
3
288
0
340
11
278
44
341
211
342
211
343
211
344
211
  0
DIMSTYLE
105
216
100
AcDbSymbolTableRecord
100
AcDbDimStyleTableRecord
  2
DIMSTYLE_1
 70
0
  3

  4

 40
1.0
 41
3.0
 42
0.5
 43
0.38
 44
1.5
 45
0.0
 46
0.0
 47
0.0
 48
0.0
140
3.0
141
0.09
142
0.0
143
25.4
144
1.0
145
0.0
146
1.0
147
0.75
 71
0.0
 72
0.0
 73
0
 74
0
 75
0
 76
0
 77
1
 78
8
170
0
171
2
172
0
173
0
174
0
175
0
176
0
177
0
178
0
270
2
271
2
272
2
273
2
274
2
275
0
280
0
281
0
282
0
283
1
284
8
285
0
286
0
287
3
288
0
340
11
278
44
341
211
342
211
343
211
344
211
  0
DIMSTYLE
105
217
100
AcDbSymbolTableRecord
100
AcDbDimStyleTableRecord
  2
DIMSTYLE_2
 70
0
  3

  4

 40
1.0
 41
3.0
 42
0.5
 43
0.38
 44
1.5
 45
0.0
 46
0.0
 47
0.0
 48
0.0
140
3.0
141
0.09
142
0.0
143
25.4
144
1.0
145
0.0
146
1.0
147
0.75
 71
0.0
 72
0.0
 73
0
 74
0
 75
0
 76
0
 77
1
 78
8
170
0
171
2
172
0
173
0
174
0
175
0
176
0
177
0
178
0
270
2
271
1
272
1
273
2
274
2
275
0
280
0
281
0
282
0
283
1
284
8
285
0
286
0
287
3
288
0
340
11
278
44
341
211
342
211
343
211
344
211
  0
ENDTAB
  0
ENDSEC
  0
SECTION
  2
BLOCKS
  0
BLOCK
  5
20
100
AcDbEntity
  8
0
100
AcDbBlockBegin
  2
*Model_Space
 70
0
 10
0.0
 20
0.0
 30
0.0
  3
*Model_Space
  1

  0
ENDBLK
  5
21
100
AcDbEntity
  8
0
100
AcDbBlockEnd
  0
BLOCK
  5
1C
100
AcDbEntity
  8
0
100
AcDbBlockBegin
  2
*Paper_Space
 70
0
 10
0.0
 20
0.0
 30
0.0
  3
*Paper_Space
  1

  0
ENDBLK
  5
1D
100
AcDbEntity
  8
0
100
AcDbBlockEnd
  0
BLOCK
  5
218
100
AcDbEntity
  8
0
100
AcDbBlockBegin
  2
_FILLED
 70
64
 10
0.0
 20
0.0
  3
_FILLED
  1

  0
SOLID
  5
219
100
AcDbEntity
  8
0
  6
BYBLOCK
 62
0
100
AcDbTrace
 10
0.0
 20
0.0
 11
-1.0
 21
0.3166666667
 12
-1.0
 22
-0.3166666667
 13
-1.0
 23
-0.3166666667
  0
ENDBLK
  5
21A
100
AcDbEntity
  8
0
  6
BYBLOCK
 62
0
100
AcDbBlockEnd
  0
BLOCK
  5
21B
100
AcDbEntity
  8
0
100
AcDbBlockBegin
 62
7
  6
CONTINUOUS
  2
*D0
 70
65
 10
0.0
 20
0.0
  3
*D0
  1

  0
MTEXT
  5
21C
100
AcDbEntity
  8
0
100
AcDbMText
 62
7
  6
CONTINUOUS
  7
STANDARD
 71
2
 72
1
 10
-4.3669152145
 20
8.8015210623
 30
0.0
 11
1.0
 21
0.0
 31
0.0
 44
0.9
  1
70
 40
3.0
 41
7.0714285714
  0
LINE
  5
21D
100
AcDbEntity
  8
0
100
AcDbLine
 62
7
  6
CONTINUOUS
 10
-39.3669152145
 20
-3.2283148496
 11
-39.3669152145
 21
6.5515210623
  0
LINE
  5
21E
100
AcDbEntity
  8
0
100
AcDbLine
 62
7
  6
CONTINUOUS
 10
30.6330847855
 20
-3.2283148496
 11
30.6330847855
 21
6.5515210623
  0
LINE
  5
21F
100
AcDbEntity
  8
0
100
AcDbLine
 62
7
  6
CONTINUOUS
 10
-39.3669152145
 20
5.0515210623
 11
-4.3669152145
 21
5.0515210623
  0
LINE
  5
220
100
AcDbEntity
  8
0
100
AcDbLine
 62
7
  6
CONTINUOUS
 10
30.6330847855
 20
5.0515210623
 11
-4.3669152145
 21
5.0515210623
  0
INSERT
  5
221
100
AcDbEntity
  8
0
100
AcDbBlockReference
 62
7
  6
CONTINUOUS
  2
_FILLED
 10
-39.3669152145
 20
5.0515210623
 41
3.0
 42
3.0
 43
3.0
 50
180.0
  0
INSERT
  5
222
100
AcDbEntity
  8
0
100
AcDbBlockReference
 62
7
  6
CONTINUOUS
  2
_FILLED
 10
30.6330847855
 20
5.0515210623
 41
3.0
 42
3.0
 43
3.0
  0
ENDBLK
  5
223
100
AcDbEntity
  8
0
  6
BYBLOCK
 62
0
100
AcDbBlockEnd
  0
BLOCK
  5
224
100
AcDbEntity
  8
0
100
AcDbBlockBegin
 62
7
  6
CONTINUOUS
  2
*D1
 70
65
 10
0.0
 20
0.0
  3
*D1
  1

  0
MTEXT
  5
225
100
AcDbEntity
  8
0
100
AcDbMText
 62
7
  6
CONTINUOUS
  7
STANDARD
 71
2
 72
1
 10
35.4386347855
 20
-14.528391002
 30
0.0
 11
0.0
 21
1.0
 31
0.0
 44
0.9
  1
22,6
 40
3.0
 41
13.1785714286
  0
LINE
  5
226
100
AcDbEntity
  8
0
100
AcDbLine
 62
7
  6
CONTINUOUS
 10
30.6331609379
 20
-3.228391002
 11
40.6886347855
 21
-3.228391002
  0
LINE
  5
227
100
AcDbEntity
  8
0
100
AcDbLine
 62
7
  6
CONTINUOUS
 10
30.6331609379
 20
-25.828391002
 11
40.6886347855
 21
-25.828391002
  0
LINE
  5
228
100
AcDbEntity
  8
0
100
AcDbLine
 62
7
  6
CONTINUOUS
 10
39.1886347855
 20
-3.228391002
 11
39.1886347855
 21
-14.528391002
  0
LINE
  5
229
100
AcDbEntity
  8
0
100
AcDbLine
 62
7
  6
CONTINUOUS
 10
39.1886347855
 20
-25.828391002
 11
39.1886347855
 21
-14.528391002
  0
INSERT
  5
22A
100
AcDbEntity
  8
0
100
AcDbBlockReference
 62
7
  6
CONTINUOUS
  2
_FILLED
 10
39.1886347855
 20
-3.228391002
 41
3.0
 42
3.0
 43
3.0
 50
90.0
  0
INSERT
  5
22B
100
AcDbEntity
  8
0
100
AcDbBlockReference
 62
7
  6
CONTINUOUS
  2
_FILLED
 10
39.1886347855
 20
-25.828391002
 41
3.0
 42
3.0
 43
3.0
 50
270.0
  0
ENDBLK
  5
22C
100
AcDbEntity
  8
0
  6
BYBLOCK
 62
0
100
AcDbBlockEnd
  0
BLOCK
  5
22D
100
AcDbEntity
  8
0
100
AcDbBlockBegin
 62
7
  6
CONTINUOUS
  2
*D2
 70
65
 10
0.0
 20
0.0
  3
*D2
  1

  0
MTEXT
  5
22E
100
AcDbEntity
  8
0
100
AcDbMText
 62
7
  6
CONTINUOUS
  7
STANDARD
 71
2
 72
1
 10
-73.5402172801
 20
8.3543489444
 30
0.0
 11
1.0
 21
0.0
 31
0.0
 44
0.9
  1
10,3
 40
3.0
 41
11.8928571429
  0
LINE
  5
22F
100
AcDbEntity
  8
0
100
AcDbLine
 62
7
  6
CONTINUOUS
 10
-68.4152172801
 20
-11.9198201185
 11
-68.4152172801
 21
6.1043489444
  0
LINE
  5
230
100
AcDbEntity
  8
0
100
AcDbLine
 62
7
  6
CONTINUOUS
 10
-78.6652172801
 20
-3.3017784134
 11
-78.6652172801
 21
6.1043489444
  0
LINE
  5
231
100
AcDbEntity
  8
0
100
AcDbLine
 62
7
  6
CONTINUOUS
 10
-68.4152172801
 20
4.6043489444
 11
-64.4152172801
 21
4.6043489444
  0
LINE
  5
232
100
AcDbEntity
  8
0
100
AcDbLine
 62
7
  6
CONTINUOUS
 10
-64.4152172801
 20
4.6043489444
 11
-73.5402172801
 21
4.6043489444
  0
LINE
  5
233
100
AcDbEntity
  8
0
100
AcDbLine
 62
7
  6
CONTINUOUS
 10
-78.6652172801
 20
4.6043489444
 11
-82.6652172801
 21
4.6043489444
  0
LINE
  5
234
100
AcDbEntity
  8
0
100
AcDbLine
 62
7
  6
CONTINUOUS
 10
-82.6652172801
 20
4.6043489444
 11
-73.5402172801
 21
4.6043489444
  0
INSERT
  5
235
100
AcDbEntity
  8
0
100
AcDbBlockReference
 62
7
  6
CONTINUOUS
  2
_FILLED
 10
-68.4152172801
 20
4.6043489444
 41
3.0
 42
3.0
 43
3.0
 50
180.0
  0
INSERT
  5
236
100
AcDbEntity
  8
0
100
AcDbBlockReference
 62
7
  6
CONTINUOUS
  2
_FILLED
 10
-78.6652172801
 20
4.6043489444
 41
3.0
 42
3.0
 43
3.0
  0
ENDBLK
  5
237
100
AcDbEntity
  8
0
  6
BYBLOCK
 62
0
100
AcDbBlockEnd
  0
ENDSEC
  0
SECTION
  2
ENTITIES
  0
DIMENSION
  5
238
100
AcDbEntity
  8
0
100
AcDbDimension
 62
7
  6
CONTINUOUS
  2
*D0
 10
30.6330847855
 20
5.0515210623
 11
-4.7954867406
 21
5.0515210623
 70
160
 71
2
 42
70.0
  3
DIMSTYLE_1
100
AcDbAlignedDimension
 13
-39.3669152145
 23
-3.7283148496
 14
30.6330847855
 24
-3.7283148496
100
AcDbRotatedDimension
  0
DIMENSION
  5
239
100
AcDbEntity
  8
0
100
AcDbDimension
 62
7
  6
CONTINUOUS
  2
*D1
 10
39.1886347855
 20
-25.828391002
 11
39.1886347855
 21
-14.9569605366
 70
160
 71
2
 42
22.6
  3
DIMSTYLE_1
100
AcDbAlignedDimension
 13
30.1331609379
 23
-3.228391002
 14
30.1331609379
 24
-25.828391002
 50
270.0
100
AcDbRotatedDimension
  0
DIMENSION
  5
23A
100
AcDbEntity
  8
0
100
AcDbDimension
 62
7
  6
CONTINUOUS
  2
*D2
 10
-78.6652172801
 20
4.6043489444
 11
-73.9687867355
 21
4.6043489444
 70
160
 71
2
 42
10.25
  3
DIMSTYLE_2
100
AcDbAlignedDimension
 13
-68.4152172801
 23
-12.4198201185
 14
-78.6652172801
 24
-3.8017784134
 50
180.0
100
AcDbRotatedDimension
  0
LWPOLYLINE
  5
23B
100
AcDbEntity
  8
RACCORDO
100
AcDbPolyline
 62
253
  6
CONTINUOUS
 90
8
 70
0
 10
-38.8412670745
 20
-25.6080242078
 10
-38.8356290033
 20
-25.6778229653
 10
-38.8327902259
 20
-25.7066035236
 10
-38.8291624619
 20
-25.7306998581
 10
-38.8258002802
 20
-25.7497365935
 10
-38.8228462741
 20
-25.7637207655
 10
-38.8193848492
 20
-25.7726562721
 10
-38.8149308455
 20
-25.7763304802
  0
LWPOLYLINE
  5
23C
100
AcDbEntity
  8
RACCORDO
100
AcDbPolyline
 62
253
  6
CONTINUOUS
 90
19
 70
0
 10
-39.3148546927
 20
-25.2764066327
 10
-39.3129398002
 20
-25.3199694403
 10
-39.3072362279
 20
-25.3632008375
 10
-39.2977873663
 20
-25.4057719348
 10
-39.2846650991
 20
-25.4473588661
 10
-39.2679692559
 20
-25.4876452521
 10
-39.247826853
 20
-25.5263246077
 10
-39.224391127
 20
-25.5631026733
 10
-39.1978403688
 20
-25.5976996545
 10
-39.168376567
 20
-25.6298523496
 10
-39.1362238721
 20
-25.659316152
 10
-39.1016268907
 20
-25.6858669111
 10
-39.0648488247
 20
-25.7093026379
 10
-39.0261694691
 20
-25.7294450414
 10
-38.9858830829
 20
-25.7461408851
 10
-38.9442961512
 20
-25.7592631528
 10
-38.901725053
 20
-25.7687120149
 10
-38.8584936545
 20
-25.7744155876
 10
-38.8149308451
 20
-25.7763304802
  0
LWPOLYLINE
  5
23D
100
AcDbEntity
  8
RACCORDO
100
AcDbPolyline
 62
253
  6
CONTINUOUS
 90
3
 70
0
 10
-38.8473272167
 20
-25.4777029662
 10
-38.843475948
 20
-25.5674750808
 10
-38.8412670745
 20
-25.6080242078
  0
LINE
  5
23E
100
AcDbEntity
  8
RACCORDO
100
AcDbLine
 62
253
  6
CONTINUOUS
 10
-38.8504809129
 20
-25.2764066327
 11
-38.8494943478
 21
-25.3278613521
  0
LWPOLYLINE
  5
23F
100
AcDbEntity
  8
RACCORDO
100
AcDbPolyline
 62
253
  6
CONTINUOUS
 90
3
 70
0
 10
-38.8494943478
 20
-25.3278613521
 10
-38.8485897958
 20
-25.4292583759
 10
-38.8473272167
 20
-25.4777029662
  0
LINE
  5
240
100
AcDbEntity
  8
RACCORDO
100
AcDbLine
 62
7
  6
CONTINUOUS
 10
-39.3669152145
 20
-3.728391002
 11
-39.3669152145
 21
-25.328391002
  0
LINE
  5
241
100
AcDbEntity
  8
DRAFT
100
AcDbLine
 62
7
  6
CONTINUOUS
 10
-39.351205656
 20
-12.028391002
 11
-39.351205656
 21
-17.028391002
  0
LINE
  5
242
100
AcDbEntity
  8
RACCORDO
100
AcDbLine
 62
253
  6
CONTINUOUS
 10
-39.3148546927
 20
-3.7803753714
 11
-39.3148546927
 21
-25.2764066327
  0
LINE
  5
243
100
AcDbEntity
  8
RACCORDO
100
AcDbLine
 62
253
  6
CONTINUOUS
 10
-38.8504809129
 20
-3.7803753714
 11
-38.8504809129
 21
-25.2764066327
  0
LWPOLYLINE
  5
244
100
AcDbEntity
  8
RACCORDO
100
AcDbPolyline
 62
253
  6
CONTINUOUS
 90
3
 70
0
 10
-38.8504809129
 20
-3.7803753714
 10
-38.8494943973
 20
-3.7289220689
 10
-38.8485898835
 20
-3.6275272696
  0
LWPOLYLINE
  5
245
100
AcDbEntity
  8
RACCORDO
100
AcDbPolyline
 62
253
  6
CONTINUOUS
 90
3
 70
0
 10
-38.8485898835
 20
-3.6275272696
 10
-38.8473273378
 20
-3.5790834502
 10
-38.8434762111
 20
-3.4893119663
  0
LWPOLYLINE
  5
246
100
AcDbEntity
  8
RACCORDO
100
AcDbPolyline
 62
253
  6
CONTINUOUS
 90
3
 70
0
 10
-38.8434762111
 20
-3.4893119663
 10
-38.8412673706
 20
-3.4487626431
 10
-38.8356293635
 20
-3.3789627515
  0
LWPOLYLINE
  5
247
100
AcDbEntity
  8
RACCORDO
100
AcDbPolyline
 62
253
  6
CONTINUOUS
 90
7
 70
0
 10
-38.8356293635
 20
-3.3789627515
 10
-38.8327905977
 20
-3.3501813592
 10
-38.8291627508
 20
-3.3260841677
 10
-38.8258005424
 20
-3.3070466584
 10
-38.8228465679
 20
-3.2930618543
 10
-38.8193850816
 20
-3.2841259105
 10
-38.8149308455
 20
-3.2804515238
  0
LINE
  5
248
100
AcDbEntity
  8
RACCORDO
100
AcDbLine
 62
253
  6
CONTINUOUS
 10
-39.3148546927
 20
-25.2764066327
 11
-39.3669152145
 21
-25.3284671544
  0
LINE
  5
249
100
AcDbEntity
  8
RACCORDO
100
AcDbLine
 62
253
  6
CONTINUOUS
 10
-39.3669152145
 20
-3.7283148496
 11
-39.3148546927
 21
-3.7803753714
  0
LINE
  5
24A
100
AcDbEntity
  8
RACCORDO
100
AcDbLine
 62
253
  6
CONTINUOUS
 10
-38.8149308451
 20
-25.7763304802
 11
-38.8669913669
 21
-25.828391002
  0
LINE
  5
24B
100
AcDbEntity
  8
RACCORDO
100
AcDbLine
 62
253
  6
CONTINUOUS
 10
-38.8669913669
 20
-3.228391002
 11
-38.8149308451
 21
-3.2804515238
  0
LINE
  5
24C
100
AcDbEntity
  8
DRAFT
100
AcDbLine
 62
7
  6
CONTINUOUS
 10
-39.3669152145
 20
-17.036245183
 11
-39.351205656
 21
-17.028391002
  0
LWPOLYLINE
  5
24D
100
AcDbEntity
  8
RACCORDO
100
AcDbPolyline
 62
253
  6
CONTINUOUS
 90
19
 70
0
 10
30.0811004162
 20
-25.7763304802
 10
30.1246632255
 20
-25.7744155876
 10
30.167894624
 20
-25.7687120149
 10
30.2104657223
 20
-25.7592631528
 10
30.252052654
 20
-25.7461408851
 10
30.2923390401
 20
-25.7294450414
 10
30.3310183957
 20
-25.7093026379
 10
30.3677964617
 20
-25.6858669111
 10
30.4023934432
 20
-25.659316152
 10
30.4345461381
 20
-25.6298523496
 10
30.4640099398
 20
-25.5976996545
 10
30.4905606981
 20
-25.5631026733
 10
30.5139964241
 20
-25.5263246077
 10
30.534138827
 20
-25.4876452521
 10
30.5508346702
 20
-25.4473588661
 10
30.5639569374
 20
-25.4057719348
 10
30.5734057989
 20
-25.3632008375
 10
30.5791093713
 20
-25.3199694403
 10
30.5810242638
 20
-25.2764066327
  0
LINE
  5
24E
100
AcDbEntity
  8
RACCORDO
100
AcDbLine
 62
253
  6
CONTINUOUS
 10
-38.8149308451
 20
-25.7763304802
 11
-29.6403274956
 21
-25.7664410522
  0
LINE
  5
24F
100
AcDbEntity
  8
RACCORDO
100
AcDbLine
 62
253
  6
CONTINUOUS
 10
-29.6403274956
 20
-25.7664410522
 11
-20.4559845434
 21
-25.7595918951
  0
LINE
  5
250
100
AcDbEntity
  8
RACCORDO
100
AcDbLine
 62
253
  6
CONTINUOUS
 10
-20.4559845434
 20
-25.7595918951
 11
-11.263441522
 21
-25.755784215
  0
LINE
  5
251
100
AcDbEntity
  8
RACCORDO
100
AcDbLine
 62
7
  6
CONTINUOUS
 10
-38.8669913669
 20
-25.828391002
 11
30.1331609379
 21
-25.828391002
  0
LINE
  5
252
100
AcDbEntity
  8
RACCORDO
100
AcDbLine
 62
253
  6
CONTINUOUS
 10
-11.263441522
 20
-25.755784215
 11
-2.067834027
 21
-25.7550228363
  0
LINE
  5
253
100
AcDbEntity
  8
RACCORDO
100
AcDbLine
 62
253
  6
CONTINUOUS
 10
-2.067834027
 20
-25.7550228363
 11
7.126241674
 21
-25.7573073573
  0
LINE
  5
254
100
AcDbEntity
  8
RACCORDO
100
AcDbLine
 62
253
  6
CONTINUOUS
 10
7.126241674
 20
-25.7573073573
 11
16.3157139557
 21
-25.7626365746
  0
LWPOLYLINE
  5
255
100
AcDbEntity
  8
RACCORDO
100
AcDbPolyline
 62
253
  6
CONTINUOUS
 90
3
 70
0
 10
16.3157139557
 20
-25.7626365746
 10
25.4949428152
 20
-25.7710056739
 10
30.0811004162
 20
-25.7763304802
  0
LINE
  5
256
100
AcDbEntity
  8
DRAFT
100
AcDbLine
 62
7
  6
CONTINUOUS
 10
-39.3669152145
 20
-12.020536821
 11
-39.351205656
 21
-12.028391002
  0
LINE
  5
257
100
AcDbEntity
  8
RACCORDO
100
AcDbLine
 62
253
  6
CONTINUOUS
 10
-29.6669255026
 20
-25.2665171776
 11
-20.4724125094
 21
-25.259668022
  0
LINE
  5
258
100
AcDbEntity
  8
RACCORDO
100
AcDbLine
 62
253
  6
CONTINUOUS
 10
-20.4724125094
 20
-25.259668022
 11
-11.2705404705
 21
-25.2558603629
  0
LINE
  5
259
100
AcDbEntity
  8
RACCORDO
100
AcDbLine
 62
253
  6
CONTINUOUS
 10
-29.6669255026
 20
-25.2665171776
 11
-39.3148546927
 21
-25.2764066352
  0
LINE
  5
25A
100
AcDbEntity
  8
RACCORDO
100
AcDbLine
 62
253
  6
CONTINUOUS
 10
-11.2705404705
 20
-25.2558603629
 11
-2.0655969442
 21
-25.2550989889
  0
LINE
  5
25B
100
AcDbEntity
  8
RACCORDO
100
AcDbLine
 62
253
  6
CONTINUOUS
 10
-2.0655969442
 20
-25.2550989889
 11
7.1382260545
 21
-25.2573835019
  0
LINE
  5
25C
100
AcDbEntity
  8
RACCORDO
100
AcDbLine
 62
253
  6
CONTINUOUS
 10
7.1382260545
 20
-25.2573835019
 11
16.3370295984
 21
-25.2627127057
  0
LWPOLYLINE
  5
25D
100
AcDbEntity
  8
RACCORDO
100
AcDbPolyline
 62
253
  6
CONTINUOUS
 90
3
 70
0
 10
16.3370295984
 20
-25.2627127057
 10
25.5264331059
 20
-25.2710818146
 10
30.5810242638
 20
-25.2764066327
  0
LINE
  5
25E
100
AcDbEntity
  8
RACCORDO
100
AcDbLine
 62
253
  6
CONTINUOUS
 10
30.0811004162
 20
-3.2804515238
 11
20.9064806618
 21
-3.2903409653
  0
LINE
  5
25F
100
AcDbEntity
  8
RACCORDO
100
AcDbLine
 62
253
  6
CONTINUOUS
 10
20.9330885991
 20
-3.7902648317
 11
11.7385718218
 21
-3.7971139881
  0
LINE
  5
260
100
AcDbEntity
  8
RACCORDO
100
AcDbLine
 62
253
  6
CONTINUOUS
 10
20.9064806618
 20
-3.2903409653
 11
11.7221300912
 21
-3.2971901236
  0
LINE
  5
261
100
AcDbEntity
  8
RACCORDO
100
AcDbLine
 62
253
  6
CONTINUOUS
 10
11.7385718218
 20
-3.7971139881
 11
2.5366983751
 21
-3.8009216441
  0
LINE
  5
262
100
AcDbEntity
  8
RACCORDO
100
AcDbLine
 62
253
  6
CONTINUOUS
 10
11.7221300912
 20
-3.2971901236
 11
2.5295865224
 21
-3.3009977952
  0
LINE
  5
263
100
AcDbEntity
  8
RACCORDO
100
AcDbLine
 62
253
  6
CONTINUOUS
 10
2.5366983751
 20
-3.8009216441
 11
-6.6682454762
 21
-3.801683014
  0
LINE
  5
264
100
AcDbEntity
  8
RACCORDO
100
AcDbLine
 62
253
  6
CONTINUOUS
 10
20.9330885991
 20
-3.7902648317
 11
30.5810242638
 21
-3.7803753688
  0
LINE
  5
265
100
AcDbEntity
  8
RACCORDO
100
AcDbLine
 62
253
  6
CONTINUOUS
 10
2.5295865224
 20
-3.3009977952
 11
-6.6660213108
 21
-3.3017591655
  0
LINE
  5
266
100
AcDbEntity
  8
RACCORDO
100
AcDbLine
 62
7
  6
CONTINUOUS
 10
-38.8669913669
 20
-3.228391002
 11
30.1331609379
 21
-3.228391002
  0
LINE
  5
267
100
AcDbEntity
  8
RACCORDO
100
AcDbLine
 62
253
  6
CONTINUOUS
 10
-6.6682454762
 20
-3.801683014
 11
-15.8720676083
 21
-3.7993984975
  0
LINE
  5
268
100
AcDbEntity
  8
RACCORDO
100
AcDbLine
 62
253
  6
CONTINUOUS
 10
-6.6660213108
 20
-3.3017591655
 11
-15.8600965691
 21
-3.2994746362
  0
LINE
  5
269
100
AcDbEntity
  8
RACCORDO
100
AcDbLine
 62
253
  6
CONTINUOUS
 10
-15.8720676083
 20
-3.7993984975
 11
-25.0708687716
 21
-3.794069292
  0
LINE
  5
26A
100
AcDbEntity
  8
RACCORDO
100
AcDbLine
 62
253
  6
CONTINUOUS
 10
-15.8600965691
 20
-3.2994746362
 11
-25.0495659115
 21
-3.2941454135
  0
LWPOLYLINE
  5
26B
100
AcDbEntity
  8
RACCORDO
100
AcDbPolyline
 62
253
  6
CONTINUOUS
 90
3
 70
0
 10
-25.0708687716
 20
-3.794069292
 10
-34.260267094
 20
-3.7857001862
 10
-39.3148546927
 20
-3.7803753714
  0
LWPOLYLINE
  5
26C
100
AcDbEntity
  8
RACCORDO
100
AcDbPolyline
 62
253
  6
CONTINUOUS
 90
3
 70
0
 10
-25.0495659115
 20
-3.2941454135
 10
-34.2287824735
 20
-3.2857763219
 10
-38.8149308451
 20
-3.2804515238
  0
LINE
  5
26D
100
AcDbEntity
  8
DRAFT
100
AcDbLine
 62
7
  6
CONTINUOUS
 10
30.6330847855
 20
-12.020536821
 11
30.6173752271
 21
-12.028391002
  0
LWPOLYLINE
  5
26E
100
AcDbEntity
  8
RACCORDO
100
AcDbPolyline
 62
253
  6
CONTINUOUS
 90
19
 70
0
 10
-38.8149308451
 20
-3.2804515238
 10
-38.8584936545
 20
-3.2823664164
 10
-38.901725053
 20
-3.2880699892
 10
-38.9442961512
 20
-3.2975188512
 10
-38.9858830829
 20
-3.3106411189
 10
-39.0261694691
 20
-3.3273369627
 10
-39.0648488247
 20
-3.3474793661
 10
-39.1016268907
 20
-3.3709150929
 10
-39.1362238721
 20
-3.3974658521
 10
-39.168376567
 20
-3.4269296545
 10
-39.1978403688
 20
-3.4590823495
 10
-39.224391127
 20
-3.4936793307
 10
-39.247826853
 20
-3.5304573964
 10
-39.2679692559
 20
-3.5691367519
 10
-39.2846650991
 20
-3.609423138
 10
-39.2977873663
 20
-3.6510100692
 10
-39.3072362279
 20
-3.6935811665
 10
-39.3129398002
 20
-3.7368125637
 10
-39.3148546927
 20
-3.7803753714
  0
LINE
  5
26F
100
AcDbEntity
  8
DRAFT
100
AcDbLine
 62
7
  6
CONTINUOUS
 10
30.6330847855
 20
-17.036245183
 11
30.6173752271
 21
-17.028391002
  0
LINE
  5
270
100
AcDbEntity
  8
RACCORDO
100
AcDbLine
 62
253
  6
CONTINUOUS
 10
30.0811004162
 20
-3.2804515238
 11
30.1331609379
 21
-3.228391002
  0
LINE
  5
271
100
AcDbEntity
  8
RACCORDO
100
AcDbLine
 62
253
  6
CONTINUOUS
 10
30.5810242638
 20
-3.7803753714
 11
30.6330847855
 21
-3.7283148496
  0
LINE
  5
272
100
AcDbEntity
  8
RACCORDO
100
AcDbLine
 62
253
  6
CONTINUOUS
 10
30.1331609379
 20
-25.828391002
 11
30.0811004162
 21
-25.7763304802
  0
LINE
  5
273
100
AcDbEntity
  8
RACCORDO
100
AcDbLine
 62
253
  6
CONTINUOUS
 10
30.6330847855
 20
-25.3284671544
 11
30.5810242638
 21
-25.2764066327
  0
LWPOLYLINE
  5
274
100
AcDbEntity
  8
RACCORDO
100
AcDbPolyline
 62
253
  6
CONTINUOUS
 90
8
 70
0
 10
30.1074366456
 20
-3.448757797
 10
30.1017985744
 20
-3.3789590393
 10
30.098959797
 20
-3.3501784809
 10
30.095332033
 20
-3.3260821463
 10
30.0919698513
 20
-3.3070454108
 10
30.0890158452
 20
-3.2930612387
 10
30.0855544203
 20
-3.2841257319
 10
30.0811004166
 20
-3.2804515238
  0
LWPOLYLINE
  5
275
100
AcDbEntity
  8
RACCORDO
100
AcDbPolyline
 62
253
  6
CONTINUOUS
 90
19
 70
0
 10
30.5810242638
 20
-3.7803753714
 10
30.5791093713
 20
-3.7368125637
 10
30.5734057989
 20
-3.6935811665
 10
30.5639569374
 20
-3.6510100692
 10
30.5508346702
 20
-3.609423138
 10
30.534138827
 20
-3.5691367519
 10
30.5139964241
 20
-3.5304573964
 10
30.4905606981
 20
-3.4936793307
 10
30.4640099398
 20
-3.4590823495
 10
30.4345461381
 20
-3.4269296545
 10
30.4023934432
 20
-3.3974658521
 10
30.3677964617
 20
-3.3709150929
 10
30.3310183957
 20
-3.3474793661
 10
30.2923390401
 20
-3.3273369627
 10
30.252052654
 20
-3.3106411189
 10
30.2104657223
 20
-3.2975188512
 10
30.167894624
 20
-3.2880699892
 10
30.1246632255
 20
-3.2823664164
 10
30.0811004162
 20
-3.2804515238
  0
LWPOLYLINE
  5
276
100
AcDbEntity
  8
RACCORDO
100
AcDbPolyline
 62
253
  6
CONTINUOUS
 90
3
 70
0
 10
30.1134967878
 20
-3.5790790385
 10
30.1096455191
 20
-3.489306924
 10
30.1074366456
 20
-3.448757797
  0
LINE
  5
277
100
AcDbEntity
  8
RACCORDO
100
AcDbLine
 62
253
  6
CONTINUOUS
 10
30.1166504839
 20
-3.7803753714
 11
30.1156639188
 21
-3.7289206521
  0
LWPOLYLINE
  5
278
100
AcDbEntity
  8
RACCORDO
100
AcDbPolyline
 62
253
  6
CONTINUOUS
 90
3
 70
0
 10
30.1156639188
 20
-3.7289206521
 10
30.1147593668
 20
-3.6275236286
 10
30.1134967878
 20
-3.5790790385
  0
LINE
  5
279
100
AcDbEntity
  8
RACCORDO
100
AcDbLine
 62
253
  6
CONTINUOUS
 10
30.1166504839
 20
-25.2764066327
 11
30.1166504839
 21
-3.7803753714
  0
LINE
  5
27A
100
AcDbEntity
  8
RACCORDO
100
AcDbLine
 62
253
  6
CONTINUOUS
 10
30.5810242638
 20
-25.2764066327
 11
30.5810242638
 21
-3.7803753714
  0
LINE
  5
27B
100
AcDbEntity
  8
DRAFT
100
AcDbLine
 62
7
  6
CONTINUOUS
 10
30.6173752271
 20
-12.028391002
 11
30.6173752271
 21
-17.028391002
  0
LINE
  5
27C
100
AcDbEntity
  8
RACCORDO
100
AcDbLine
 62
7
  6
CONTINUOUS
 10
30.6330847855
 20
-3.728391002
 11
30.6330847855
 21
-25.328391002
  0
LWPOLYLINE
  5
27D
100
AcDbEntity
  8
RACCORDO
100
AcDbPolyline
 62
253
  6
CONTINUOUS
 90
3
 70
0
 10
30.1166504839
 20
-25.2764066327
 10
30.1156639684
 20
-25.3278599351
 10
30.1147594546
 20
-25.4292547344
  0
LWPOLYLINE
  5
27E
100
AcDbEntity
  8
RACCORDO
100
AcDbPolyline
 62
253
  6
CONTINUOUS
 90
3
 70
0
 10
30.1147594546
 20
-25.4292547344
 10
30.1134969088
 20
-25.4776985538
 10
30.1096457822
 20
-25.5674700377
  0
LWPOLYLINE
  5
27F
100
AcDbEntity
  8
RACCORDO
100
AcDbPolyline
 62
253
  6
CONTINUOUS
 90
3
 70
0
 10
30.1096457822
 20
-25.5674700377
 10
30.1074369417
 20
-25.6080193609
 10
30.1017989346
 20
-25.6778192525
  0
LWPOLYLINE
  5
280
100
AcDbEntity
  8
RACCORDO
100
AcDbPolyline
 62
253
  6
CONTINUOUS
 90
7
 70
0
 10
30.1017989346
 20
-25.6778192525
 10
30.0989601688
 20
-25.7066006449
 10
30.0953323219
 20
-25.7306978363
 10
30.0919701135
 20
-25.7497353456
 10
30.089016139
 20
-25.7637201497
 10
30.0855546526
 20
-25.7726560935
 10
30.0811004166
 20
-25.7763304802
  0
LINE
  5
281
100
AcDbEntity
  8
RACCORDO
100
AcDbLine
 62
7
  6
CONTINUOUS
 10
-72.4652172801
 20
-25.828391002
 11
-73.9652172801
 21
-25.828391002
  0
LINE
  5
282
100
AcDbEntity
  8
RACCORDO
100
AcDbLine
 62
253
  6
CONTINUOUS
 10
-72.4652172801
 20
-25.328391002
 11
-73.9652172801
 21
-25.328391002
  0
LINE
  5
283
100
AcDbEntity
  8
RACCORDO
100
AcDbLine
 62
7
  6
CONTINUOUS
 10
-73.9652172801
 20
-25.828391002
 11
-78.1739290046
 21
-25.7549276656
  0
LINE
  5
284
100
AcDbEntity
  8
RACCORDO
100
AcDbLine
 62
253
  6
CONTINUOUS
 10
-78.6652172801
 20
-25.255003818
 11
-77.4377709628
 21
-25.2764066327
  0
LINE
  5
285
100
AcDbEntity
  8
RACCORDO
100
AcDbLine
 62
253
  6
CONTINUOUS
 10
-73.9652172801
 20
-25.3284671544
 11
-76.9477625746
 21
-25.2764066327
  0
LINE
  5
286
100
AcDbEntity
  8
RACCORDO
100
AcDbLine
 62
253
  6
CONTINUOUS
 10
-77.4377709628
 20
-25.2764066327
 11
-76.9477625746
 21
-25.2764066327
  0
LINE
  5
287
100
AcDbEntity
  8
DRAFT
100
AcDbLine
 62
7
  6
CONTINUOUS
 10
-70.9652172801
 20
-24.728391002
 11
-71.2652172801
 21
-24.728391002
  0
LINE
  5
288
100
AcDbEntity
  8
DRAFT
100
AcDbLine
 62
7
  6
CONTINUOUS
 10
-72.4652172801
 20
-24.128391002
 11
-71.1953757411
 21
-24.128391002
  0
LINE
  5
289
100
AcDbEntity
  8
RACCORDO
100
AcDbLine
 62
7
  6
CONTINUOUS
 10
-70.2652172801
 20
-23.0052166949
 11
-72.4652172801
 21
-22.928391002
  0
LWPOLYLINE
  5
28A
100
AcDbEntity
  8
RACCORDO
100
AcDbPolyline
 62
253
  6
CONTINUOUS
 90
8
 70
0
 10
-76.9477625746
 20
-25.7763304802
 10
-76.9484895417
 20
-25.7744155876
 10
-76.9491445923
 20
-25.7687120149
 10
-76.9497227431
 20
-25.7592631528
 10
-76.9502195957
 20
-25.7461408851
 10
-76.9506313701
 20
-25.7294450414
 10
-76.9509549338
 20
-25.7093026379
 10
-76.9511878252
 20
-25.6858669111
  0
LINE
  5
28B
100
AcDbEntity
  8
ASSI
100
AcDbLine
 62
7
  6
CONTINUOUS
 10
-78.6652172801
 20
-3.8017784134
 11
-78.6652172801
 21
-25.2550035906
  0
LWPOLYLINE
  5
28C
100
AcDbEntity
  8
RACCORDO
100
AcDbPolyline
 62
253
  6
CONTINUOUS
 90
16
 70
0
 10
-77.4377709628
 20
-25.2764066327
 10
-77.4351794138
 20
-25.3278599351
 10
-77.4272015221
 20
-25.379040364
 10
-77.4139095407
 20
-25.4292547344
 10
-77.3955799397
 20
-25.4776985538
 10
-77.3724511756
 20
-25.5238529317
 10
-77.3445819993
 20
-25.5674700377
 10
-77.3123182835
 20
-25.6080193609
 10
-77.2761898126
 20
-25.6448934179
 10
-77.2364241316
 20
-25.6778192525
 10
-77.1932294891
 20
-25.7066006449
 10
-77.1474037276
 20
-25.7306978363
 10
-77.0997901556
 20
-25.7497353456
 10
-77.0506736296
 20
-25.7637201497
 10
-77.0000005607
 20
-25.7726560935
 10
-76.9477625746
 20
-25.7763304802
  0
LINE
  5
28D
100
AcDbEntity
  8
RACCORDO
100
AcDbLine
 62
253
  6
CONTINUOUS
 10
-76.9477625746
 20
-3.7803753714
 11
-76.9497227431
 21
-3.6510100692
  0
LINE
  5
28E
100
AcDbEntity
  8
RACCORDO
100
AcDbLine
 62
253
  6
CONTINUOUS
 10
-76.9497227431
 20
-3.6510100692
 11
-76.9509549338
 21
-3.5304573964
  0
LINE
  5
28F
100
AcDbEntity
  8
RACCORDO
100
AcDbLine
 62
253
  6
CONTINUOUS
 10
-76.9509549338
 20
-3.5304573964
 11
-76.9513282726
 21
-3.4590823495
  0
LINE
  5
290
100
AcDbEntity
  8
RACCORDO
100
AcDbLine
 62
253
  6
CONTINUOUS
 10
-76.9511878252
 20
-25.6858669111
 11
-76.9513752074
 21
-25.6298523496
  0
LINE
  5
291
100
AcDbEntity
  8
RACCORDO
100
AcDbLine
 62
253
  6
CONTINUOUS
 10
-77.4377709628
 20
-25.2764066327
 11
-77.4377709628
 21
-3.7803753714
  0
LINE
  5
292
100
AcDbEntity
  8
RACCORDO
100
AcDbLine
 62
253
  6
CONTINUOUS
 10
-76.9477625746
 20
-25.2764066327
 11
-76.9477625746
 21
-3.7803753714
  0
LWPOLYLINE
  5
293
100
AcDbEntity
  8
RACCORDO
100
AcDbPolyline
 62
253
  6
CONTINUOUS
 90
10
 70
0
 10
-76.9513282726
 20
-3.4590823495
 10
-76.9513282726
 20
-3.3974658521
 10
-76.9511878252
 20
-3.3709150929
 10
-76.9509549338
 20
-3.3474793661
 10
-76.9506313701
 20
-3.3273369627
 10
-76.9502195957
 20
-3.3106411189
 10
-76.9497227431
 20
-3.2975188512
 10
-76.9491445923
 20
-3.2880699892
 10
-76.9484895417
 20
-3.2823664164
 10
-76.9477625746
 20
-3.2804515238
  0
LINE
  5
294
100
AcDbEntity
  8
RACCORDO
100
AcDbLine
 62
253
  6
CONTINUOUS
 10
-76.9513752074
 20
-25.6298523496
 11
-76.9511878252
 21
-25.5631026733
  0
LINE
  5
295
100
AcDbEntity
  8
RACCORDO
100
AcDbLine
 62
253
  6
CONTINUOUS
 10
-76.9511878252
 20
-25.5631026733
 11
-76.9502195956
 21
-25.4473588661
  0
LWPOLYLINE
  5
296
100
AcDbEntity
  8
RACCORDO
100
AcDbPolyline
 62
253
  6
CONTINUOUS
 90
3
 70
0
 10
-76.9502195956
 20
-25.4473588661
 10
-76.9484895417
 20
-25.3199694403
 10
-76.9477625746
 20
-25.2764066327
  0
LWPOLYLINE
  5
297
100
AcDbEntity
  8
RACCORDO
100
AcDbPolyline
 62
253
  6
CONTINUOUS
 90
16
 70
0
 10
-77.4377709628
 20
-3.7803753714
 10
-77.4351792703
 20
-3.7289206521
 10
-77.4272009711
 20
-3.6777389956
 10
-77.413908375
 20
-3.6275236286
 10
-77.3955780031
 20
-3.5790790385
 10
-77.3724483867
 20
-3.5329241652
 10
-77.3445783989
 20
-3.489306924
 10
-77.3123139992
 20
-3.448757797
 10
-77.2761850338
 20
-3.4118841948
 10
-77.236419146
 20
-3.3789590393
 10
-77.193224644
 20
-3.3501784809
 10
-77.1473993402
 20
-3.3260821463
 10
-77.0997864999
 20
-3.3070454108
 10
-77.0506709631
 20
-3.2930612387
 10
-76.9999991241
 20
-3.2841257319
 10
-76.9477625746
 20
-3.2804515238
  0
LINE
  5
298
100
AcDbEntity
  8
RACCORDO
100
AcDbLine
 62
7
  6
CONTINUOUS
 10
-68.4152172801
 20
-16.6369618856
 11
-72.4652172801
 21
-16.778391002
  0
LINE
  5
299
100
AcDbEntity
  8
DRAFT
100
AcDbLine
 62
7
  6
CONTINUOUS
 10
-73.9652172801
 20
-17.036245183
 11
-74.8652172801
 21
-17.028391002
  0
LINE
  5
29A
100
AcDbEntity
  8
DRAFT
100
AcDbLine
 62
7
  6
CONTINUOUS
 10
-74.8652172801
 20
-12.028391002
 11
-74.8652172801
 21
-17.028391002
  0
LINE
  5
29B
100
AcDbEntity
  8
RACCORDO
100
AcDbLine
 62
253
  6
CONTINUOUS
 10
-74.6669625872
 20
-17.0301211445
 11
-74.6669625872
 21
-12.0266608595
  0
LINE
  5
29C
100
AcDbEntity
  8
RACCORDO
100
AcDbLine
 62
7
  6
CONTINUOUS
 10
-73.9652172801
 20
-3.228391002
 11
-73.9652172801
 21
-25.828391002
  0
LINE
  5
29D
100
AcDbEntity
  8
RACCORDO
100
AcDbLine
 62
7
  6
CONTINUOUS
 10
-72.4652172801
 20
-3.228391002
 11
-72.4652172801
 21
-25.828391002
  0
LINE
  5
29E
100
AcDbEntity
  8
DRAFT
100
AcDbLine
 62
7
  6
CONTINUOUS
 10
-71.2652172801
 20
-4.328391002
 11
-71.2652172801
 21
-4.928391002
  0
LINE
  5
29F
100
AcDbEntity
  8
DRAFT
100
AcDbLine
 62
7
  6
CONTINUOUS
 10
-71.2652172801
 20
-24.128391002
 11
-71.2652172801
 21
-24.728391002
  0
LINE
  5
2A0
100
AcDbEntity
  8
DRAFT
100
AcDbLine
 62
7
  6
CONTINUOUS
 10
-71.1953757411
 20
-4.328391002
 11
-71.1953757411
 21
-4.928391002
  0
LINE
  5
2A1
100
AcDbEntity
  8
DRAFT
100
AcDbLine
 62
7
  6
CONTINUOUS
 10
-71.1953757411
 20
-24.128391002
 11
-71.1953757411
 21
-24.728391002
  0
LINE
  5
2A2
100
AcDbEntity
  8
RACCORDO
100
AcDbLine
 62
253
  6
CONTINUOUS
 10
-70.7652172801
 20
-24.5569624306
 11
-70.7652172801
 21
-22.9877563101
  0
LINE
  5
2A3
100
AcDbEntity
  8
RACCORDO
100
AcDbLine
 62
253
  6
CONTINUOUS
 10
-70.7652172801
 20
-6.0690256939
 11
-70.7652172801
 21
-4.4998195734
  0
LINE
  5
2A4
100
AcDbEntity
  8
RACCORDO
100
AcDbLine
 62
7
  6
CONTINUOUS
 10
-70.2652172801
 20
-24.128391002
 11
-70.2652172801
 21
-23.0052166949
  0
LINE
  5
2A5
100
AcDbEntity
  8
RACCORDO
100
AcDbLine
 62
7
  6
CONTINUOUS
 10
-70.2652172801
 20
-6.0515653091
 11
-70.2652172801
 21
-4.928391002
  0
LINE
  5
2A6
100
AcDbEntity
  8
DRAFT
100
AcDbLine
 62
7
  6
CONTINUOUS
 10
-73.9652172801
 20
-12.020536821
 11
-74.8652172801
 21
-12.028391002
  0
LINE
  5
2A7
100
AcDbEntity
  8
RACCORDO
100
AcDbLine
 62
7
  6
CONTINUOUS
 10
-72.4652172801
 20
-12.278391002
 11
-68.4152172801
 21
-12.4198201185
  0
LINE
  5
2A8
100
AcDbEntity
  8
RACCORDO
100
AcDbLine
 62
253
  6
CONTINUOUS
 10
-68.8977675317
 20
-12.4029690923
 11
-68.8977675317
 21
-16.6538129117
  0
LINE
  5
2A9
100
AcDbEntity
  8
RACCORDO
100
AcDbLine
 62
7
  6
CONTINUOUS
 10
-68.4152172801
 20
-12.4198201185
 11
-68.4152172801
 21
-16.6369618856
  0
LINE
  5
2AA
100
AcDbEntity
  8
RACCORDO
100
AcDbLine
 62
7
  6
CONTINUOUS
 10
-70.2652172801
 20
-24.128391002
 11
-70.9652172801
 21
-24.728391002
  0
LINE
  5
2AB
100
AcDbEntity
  8
RACCORDO
100
AcDbLine
 62
7
  6
CONTINUOUS
 10
-70.2652172801
 20
-6.0515653091
 11
-72.4652172801
 21
-6.128391002
  0
LINE
  5
2AC
100
AcDbEntity
  8
DRAFT
100
AcDbLine
 62
7
  6
CONTINUOUS
 10
-71.1953757411
 20
-4.928391002
 11
-72.4652172801
 21
-4.928391002
  0
LINE
  5
2AD
100
AcDbEntity
  8
RACCORDO
100
AcDbLine
 62
7
  6
CONTINUOUS
 10
-70.2652172801
 20
-4.928391002
 11
-70.9652172801
 21
-4.328391002
  0
LINE
  5
2AE
100
AcDbEntity
  8
RACCORDO
100
AcDbLine
 62
253
  6
CONTINUOUS
 10
-76.9477625746
 20
-3.7803753714
 11
-73.9652172801
 21
-3.7283148496
  0
LINE
  5
2AF
100
AcDbEntity
  8
RACCORDO
100
AcDbLine
 62
253
  6
CONTINUOUS
 10
-77.4377709628
 20
-3.7803753714
 11
-78.6652172801
 21
-3.801778186
  0
LINE
  5
2B0
100
AcDbEntity
  8
DRAFT
100
AcDbLine
 62
7
  6
CONTINUOUS
 10
-70.9652172801
 20
-4.328391002
 11
-71.2652172801
 21
-4.328391002
  0
LINE
  5
2B1
100
AcDbEntity
  8
RACCORDO
100
AcDbLine
 62
253
  6
CONTINUOUS
 10
-77.4377709628
 20
-3.7803753714
 11
-76.9477625746
 21
-3.7803753688
  0
LINE
  5
2B2
100
AcDbEntity
  8
RACCORDO
100
AcDbLine
 62
253
  6
CONTINUOUS
 10
-73.9652172801
 20
-3.728391002
 11
-72.4652172801
 21
-3.728391002
  0
LINE
  5
2B3
100
AcDbEntity
  8
RACCORDO
100
AcDbLine
 62
7
  6
CONTINUOUS
 10
-78.1739290046
 20
-3.3018543384
 11
-73.9652172801
 21
-3.228391002
  0
LINE
  5
2B4
100
AcDbEntity
  8
RACCORDO
100
AcDbLine
 62
7
  6
CONTINUOUS
 10
-73.9652172801
 20
-3.228391002
 11
-72.4652172801
 21
-3.228391002
  0
ARC
  5
2B5
100
AcDbEntity
  8
RACCORDO
100
AcDbCircle
 62
7
  6
CONTINUOUS
 10
30.1330847855
 20
-25.328391002
 40
0.5
100
AcDbArc
 50
270.0
 51
360.0
  0
ARC
  5
2B6
100
AcDbEntity
  8
RACCORDO
100
AcDbCircle
 62
7
  6
CONTINUOUS
 10
-38.8669152145
 20
-25.328391002
 40
0.5
100
AcDbArc
 50
180.0
 51
270.0
  0
ARC
  5
2B7
100
AcDbEntity
  8
RACCORDO
100
AcDbCircle
 62
7
  6
CONTINUOUS
 10
-38.8669152145
 20
-3.728391002
 40
0.5
100
AcDbArc
 50
90.0
 51
180.0
  0
ARC
  5
2B8
100
AcDbEntity
  8
RACCORDO
100
AcDbCircle
 62
7
  6
CONTINUOUS
 10
30.1330847855
 20
-3.728391002
 40
0.5
100
AcDbArc
 50
0.0
 51
90.0
  0
ARC
  5
2B9
100
AcDbEntity
  8
RACCORDO
100
AcDbCircle
 62
7
  6
CONTINUOUS
 10
-78.1652158323
 20
-25.2550035906
 40
0.5
100
AcDbArc
 50
180.0000000057
 51
269.0
  0
ARC
  5
2BA
100
AcDbEntity
  8
RACCORDO
100
AcDbCircle
 62
7
  6
CONTINUOUS
 10
-78.1652158323
 20
-3.8017784135
 40
0.5
100
AcDbArc
 50
91.0
 51
179.9999999943
  0
ELLIPSE
  5
2BB
100
AcDbEntity
  8
RACCORDO
100
AcDbEllipse
 62
7
  6
CONTINUOUS
 10
-38.8668390505
 20
-25.328314838
 30
0.0
 11
0.3536610946
 21
0.3536610946
 31
0.0
 40
0.9996954599
 41
-3.9268385237
 42
-2.3563467834
  0
ELLIPSE
  5
2BC
100
AcDbEntity
  8
RACCORDO
100
AcDbEllipse
 62
7
  6
CONTINUOUS
 10
30.1330086215
 20
-25.328314838
 30
0.0
 11
0.3536610946
 21
-0.3536610946
 31
0.0
 40
0.9996954599
 41
-0.7852458701
 42
0.7852458701
  0
ELLIPSE
  5
2BD
100
AcDbEntity
  8
RACCORDO
100
AcDbEllipse
 62
7
  6
CONTINUOUS
 10
30.1330086215
 20
-3.728467166
 30
0.0
 11
0.3536610946
 21
0.3536610946
 31
0.0
 40
0.9996954599
 41
-0.7852458701
 42
0.7852458701
  0
ELLIPSE
  5
2BE
100
AcDbEntity
  8
RACCORDO
100
AcDbEllipse
 62
7
  6
CONTINUOUS
 10
-38.8668390505
 20
-3.728467166
 30
0.0
 11
0.3536610946
 21
-0.3536610946
 31
0.0
 40
0.9996954599
 41
2.3563467834
 42
3.9268385237
  0
ENDSEC
  0
SECTION
  2
OBJECTS
  0
DICTIONARY
  5
C
100
AcDbDictionary
280
0
281
1
  3
ACAD_GROUP
350
D
  3
ACAD_MLINESTYLE
350
17
  3
ACAD_LAYOUT
350
1A
  3
ACAD_PLOTSETTINGS
350
19
  3
ACAD_PLOTSTYLENAME
350
E
  0
DICTIONARY
  5
D
102
{ACAD_REACTORS
330
C
102
}
100
AcDbDictionary
280
0
281
1
  0
ACDBDICTIONARYWDFLT
  5
E
102
{ACAD_REACTORS
330
C
102
}
100
AcDbDictionary
281
1
  3
Normal
350
F
100
AcDbDictionaryWithDefault
340
F
  0
DICTIONARY
  5
17
102
{ACAD_REACTORS
330
C
102
}
100
AcDbDictionary
280
0
281
1
  3
Standard
350
18
  0
DICTIONARY
  5
19
102
{ACAD_REACTORS
330
C
102
}
100
AcDbDictionary
281
1
  0
DICTIONARY
  5
1A
102
{ACAD_REACTORS
330
C
102
}
100
AcDbDictionary
281
1
  3
Model
350
2BF
  3
Layout1
350
2C0
  0
ACDBPLACEHOLDER
  5
F
102
{ACAD_REACTORS
330
E
102
}
  0
MLINESTYLE
  5
18
102
{ACAD_REACTORS
330
17
102
}
100
AcDbMlineStyle
  2
STANDARD
 70
0
  3

 62
256
 51
90.0
 52
90.0
 71
2
 49
0.5
 62
256
  6
BYLAYER
 49
-0.5
 62
256
  6
BYLAYER
  0
LAYOUT
  5
2BF
102
{ACAD_REACTORS
330
1A
102
}
100
AcDbPlotSettings
  1

  2
none_device
  4
ISO_A4_(297.00_x_210.00_MM)
  6

 40
0.0
 41
0.0
 42
0.0
 43
0.0
 44
297.0
 45
210.0
 46
0.0
 47
0.0
 48
0.0
 49
0.0
140
0.0
141
0.0
142
1.0
143
1.0
 70
1024
 72
1
 73
0
 74
0
  7

 75
0
147
1.0
148
0.0
149
0.0
100
AcDbLayout
  1
Model
 70
0
 71
0
 10
0.0
 20
0.0
 11
297.0
 21
210.0
 12
0.0
 22
0.0
 32
0.0
 14
0.0
 24
0.0
 34
0.0
 15
0.0
 25
0.0
 35
0.0
146
0.0
 13
0.0
 23
0.0
 33
0.0
 16
1.0
 26
0.0
 36
0.0
 17
0.0
 27
1.0
 37
0.0
 76
0
330
20F
345
0
346
0
  0
LAYOUT
  5
2C0
102
{ACAD_REACTORS
330
1A
102
}
100
AcDbPlotSettings
  1

  2
none_device
  4
ISO_A4_(297.00_x_210.00_MM)
  6

 40
0.0
 41
0.0
 42
0.0
 43
0.0
 44
297.0
 45
210.0
 46
0.0
 47
0.0
 48
0.0
 49
0.0
140
0.0
141
0.0
142
1.0
143
1.0
 70
0
 72
1
 73
0
 74
0
  7

 75
0
147
1.0
148
0.0
149
0.0
100
AcDbLayout
  1
Layout1
 70
0
 71
1
 10
0.0
 20
0.0
 11
297.0
 21
210.0
 12
0.0
 22
0.0
 32
0.0
 14
0.0
 24
0.0
 34
0.0
 15
0.0
 25
0.0
 35
0.0
146
0.0
 13
0.0
 23
0.0
 33
0.0
 16
1.0
 26
0.0
 36
0.0
 17
0.0
 27
1.0
 37
0.0
 76
0
330
210
345
0
346
0
  0
ENDSEC
  0
EOF
