  0
SECTION
  2
HEADER
  9
$ACADVER
  1
AC1015
  9
$DWGCODEPAGE
  3
ANSI_1252
  9
$EXTMAX
 10
297.0
 20
210.0
 30
0.0
  9
$EXTMIN
 10
0.0
 20
0.0
 30
0.0
  9
$LIMMIN
 10
0.0
 20
0.0
  9
$LIMMAX
 10
297.0
 20
210.0
  9
$VIEWCTR
 10
148.5
 20
105.0
  9
$VIEWSIZE
 40
210.0
  9
$CLAYER
  8
0
  9
$LTSCALE
 40
16.335
  9
$CELTYPE
  6
BYLAYER
  9
$DIMSCALE
 40
1.0
  9
$DIMASZ
 40
3.0
  9
$DIMEXO
 40
0.5
  9
$DIMDLI
 40
11.286
  9
$DIMEXE
 40
1.5
  9
$DIMCEN
 40
2.673
  9
$DIMLFAC
 40
1.0
  9
$DIMBLK
  1
_FILLED
  9
$DIMALT
 70
0
  9
$DIMALTF
 40
0.0393700787
  9
$DIMTXT
 40
3.0
  9
$DIMTOL
 70
1
  9
$DIMLIM
 70
0
  9
$DIMTFAC
 40
1.0
  9
$DIMTP
 40
0.01
  9
$DIMTM
 40
0.01
  9
$DIMGAP
 40
0.625
  9
$DIMDSEP
 70
44
  9
$AUNITS
 70
0
  9
$PDMODE
 70
3
  9
$PDSIZE
 40
3.0
  9
$HANDSEED
  5
2E1
  9
$TILEMODE
 70
1
  9
$MEASUREMENT
 70
1
  9
$INSUNITS
 70
4
  0
ENDSEC
  0
SECTION
  2
CLASSES
  0
CLASS
  1
ACDBDICTIONARYWDFLT
  2
AcDbDictionaryWithDefault
  3
AutoCAD 2000
 90
0
280
0
281
0
  0
CLASS
  1
ACDBPLACEHOLDER
  2
AcDbPlaceHolder
  3
AutoCAD 2000
 90
0
280
0
281
0
  0
CLASS
  1
LAYOUT
  2
AcDbLayout
  3
AutoCAD 2000
 90
0
280
0
281
0
  0
ENDSEC
  0
SECTION
  2
TABLES
  0
TABLE
  2
VPORT
  5
8
100
AcDbSymbolTable
 70
2
  0
VPORT
  5
1F4
100
AcDbSymbolTableRecord
100
AcDbViewportTableRecord
  2
*ACTIVE
 70
0
 10
0.0
 20
0.0
 11
1.0
 21
1.0
 12
148.5
 22
105.0
 13
0.0
 23
0.0
 14
1.0
 24
1.0
 15
0.0
 25
0.0
 16
0.0
 26
0.0
 36
1.0
 17
0.0
 27
0.0
 37
0.0
 40
210.0
 41
1.4142857143
 42
50.0
 43
0.0
 44
0.0
 50
0.0
 51
0.0
 71
0
 72
100
 73
1
 74
1
 75
0
 76
0
 77
0
 78
0
  0
ENDTAB
  0
TABLE
  2
LTYPE
  5
5
100
AcDbSymbolTable
 70
6
  0
LTYPE
  5
14
100
AcDbSymbolTableRecord
100
AcDbLinetypeTableRecord
  2
BYBLOCK
 70
0
  3

 72
65
 73
0
 40
0.0
  0
LTYPE
  5
15
100
AcDbSymbolTableRecord
100
AcDbLinetypeTableRecord
  2
BYLAYER
 70
0
  3

 72
65
 73
0
 40
0.0
  0
LTYPE
  5
16
100
AcDbSymbolTableRecord
100
AcDbLinetypeTableRecord
  2
CONTINUOUS
 70
64
  3
Solid line
 72
65
 73
0
 40
0.0
  0
LTYPE
  5
1F5
100
AcDbSymbolTableRecord
100
AcDbLinetypeTableRecord
  2
CENTER
 70
64
  3
____ _ ____ _ ____ _ ____ _ ____ _ ____ _ ____
 72
65
 73
4
 40
0.6
 49
0.375
 74
0
 49
-0.075
 74
0
 49
0.075
 74
0
 49
-0.075
 74
0
  0
LTYPE
  5
1F6
100
AcDbSymbolTableRecord
100
AcDbLinetypeTableRecord
  2
HIDDEN
 70
64
  3
- - - - - - - - - - - - - - - - - - - -
 72
65
 73
2
 40
0.2
 49
0.1
 74
0
 49
-0.1
 74
0
  0
LTYPE
  5
1F7
100
AcDbSymbolTableRecord
100
AcDbLinetypeTableRecord
  2
PHANTOM
 70
64
  3
_____ _ _ _____ _ _ _____ _ _ _____
 72
65
 73
6
 40
0.8
 49
0.45
 74
0
 49
-0.05
 74
0
 49
0.1
 74
0
 49
-0.05
 74
0
 49
0.1
 74
0
 49
-0.05
 74
0
  0
LTYPE
  5
1F8
100
AcDbSymbolTableRecord
100
AcDbLinetypeTableRecord
  2
DOT
 70
64
  3
. . . . . . . . . . . . . . . . . . . .
 72
65
 73
2
 40
0.2
 49
0.1
 74
0
 49
-0.1
 74
0
  0
LTYPE
  5
1F9
100
AcDbSymbolTableRecord
100
AcDbLinetypeTableRecord
  2
DASHED
 70
64
  3
- - - - - - - - - - - - - - - - - - - -
 72
65
 73
2
 40
0.2
 49
0.1
 74
0
 49
-0.1
 74
0
  0
ENDTAB
  0
TABLE
  2
LAYER
  5
2
100
AcDbSymbolTable
 70
36
  0
LAYER
  5
10
100
AcDbSymbolTableRecord
100
AcDbLayerTableRecord
  2
0
 70
0
 62
7
  6
CONTINUOUS
370
-3
390
F
  0
LAYER
  5
1FA
100
AcDbSymbolTableRecord
100
AcDbLayerTableRecord
  2
DEFAULT_1
 70
0
 62
7
  6
CENTER
370
-3
390
F
  0
LAYER
  5
1FB
100
AcDbSymbolTableRecord
100
AcDbLayerTableRecord
  2
DEFAULT_2
 70
0
 62
7
  6
HIDDEN
370
-3
390
F
  0
LAYER
  5
1FC
100
AcDbSymbolTableRecord
100
AcDbLayerTableRecord
  2
DEFAULT_3
 70
0
 62
7
  6
PHANTOM
370
-3
390
F
  0
LAYER
  5
1FD
100
AcDbSymbolTableRecord
100
AcDbLayerTableRecord
  2
ASSI
 70
0
 62
7
  6
CONTINUOUS
370
-3
390
F
  0
LAYER
  5
1FE
100
AcDbSymbolTableRecord
100
AcDbLayerTableRecord
  2
COORDINATE
 70
0
 62
7
  6
CONTINUOUS
370
-3
390
F
  0
LAYER
  5
1FF
100
AcDbSymbolTableRecord
100
AcDbLayerTableRecord
  2
COPY_PUBLISH
 70
0
 62
7
  6
CONTINUOUS
370
-3
390
F
  0
LAYER
  5
200
100
AcDbSymbolTableRecord
100
AcDbLayerTableRecord
  2
COSMETICI
 70
0
 62
7
  6
CONTINUOUS
370
-3
390
F
  0
LAYER
  5
201
100
AcDbSymbolTableRecord
100
AcDbLayerTableRecord
  2
CURVE
 70
0
 62
7
  6
CONTINUOUS
370
-3
390
F
  0
LAYER
  5
202
100
AcDbSymbolTableRecord
100
AcDbLayerTableRecord
  2
DRAFT
 70
0
 62
7
  6
CONTINUOUS
370
-3
390
F
  0
LAYER
  5
203
100
AcDbSymbolTableRecord
100
AcDbLayerTableRecord
  2
IMPORT_IGES
 70
0
 62
7
  6
CONTINUOUS
370
-3
390
F
  0
LAYER
  5
204
100
AcDbSymbolTableRecord
100
AcDbLayerTableRecord
  2
NOTE
 70
0
 62
7
  6
CONTINUOUS
370
-3
390
F
  0
LAYER
  5
205
100
AcDbSymbolTableRecord
100
AcDbLayerTableRecord
  2
PIANI
 70
0
 62
7
  6
CONTINUOUS
370
-3
390
F
  0
LAYER
  5
206
100
AcDbSymbolTableRecord
100
AcDbLayerTableRecord
  2
PUNTI
 70
0
 62
7
  6
CONTINUOUS
370
-3
390
F
  0
LAYER
  5
207
100
AcDbSymbolTableRecord
100
AcDbLayerTableRecord
  2
RACCORDO
 70
0
 62
7
  6
CONTINUOUS
370
-3
390
F
  0
LAYER
  5
208
100
AcDbSymbolTableRecord
100
AcDbLayerTableRecord
  2
SIMBOLI
 70
0
 62
7
  6
CONTINUOUS
370
-3
390
F
  0
LAYER
  5
209
100
AcDbSymbolTableRecord
100
AcDbLayerTableRecord
  2
SMUSSO
 70
0
 62
7
  6
CONTINUOUS
370
-3
390
F
  0
LAYER
  5
20A
100
AcDbSymbolTableRecord
100
AcDbLayerTableRecord
  2
SNAPLINE
 70
0
 62
7
  6
CONTINUOUS
370
-3
390
F
  0
LAYER
  5
20B
100
AcDbSymbolTableRecord
100
AcDbLayerTableRecord
  2
SUPERFICI
 70
0
 62
7
  6
CONTINUOUS
370
-3
390
F
  0
LAYER
  5
20C
100
AcDbSymbolTableRecord
100
AcDbLayerTableRecord
  2
TRASH
 70
0
 62
7
  6
CONTINUOUS
370
-3
390
F
  0
ENDTAB
  0
TABLE
  2
STYLE
  5
3
100
AcDbSymbolTable
 70
1
  0
STYLE
  5
11
100
AcDbSymbolTableRecord
100
AcDbTextStyleTableRecord
  2
STANDARD
 70
0
 40
0.0
 41
0.8
 50
0.0
 71
0
 42
0.2
  3
txt
  4

  0
STYLE
  5
20D
100
AcDbSymbolTableRecord
100
AcDbTextStyleTableRecord
  2
TEXTSTYLE_1
 70
0
 40
0.0
 41
0.8
 50
0.0
 71
0
 42
0.2
  3
gdt
  4

  0
ENDTAB
  0
TABLE
  2
VIEW
  5
6
100
AcDbSymbolTable
 70
0
  0
ENDTAB
  0
TABLE
  2
UCS
  5
7
100
AcDbSymbolTable
 70
0
  0
ENDTAB
  0
TABLE
  2
APPID
  5
9
100
AcDbSymbolTable
 70
1
  0
APPID
  5
20E
100
AcDbSymbolTableRecord
100
AcDbRegAppTableRecord
  2
ACAD
 70
0
  0
ENDTAB
  0
TABLE
  2
BLOCK_RECORD
  5
1
100
AcDbSymbolTable
 70
0
  0
BLOCK_RECORD
  5
20F
100
AcDbSymbolTableRecord
100
AcDbBlockTableRecord
  2
*Model_Space
  0
BLOCK_RECORD
  5
210
100
AcDbSymbolTableRecord
100
AcDbBlockTableRecord
  2
*Paper_Space
  0
BLOCK_RECORD
  5
211
100
AcDbSymbolTableRecord
100
AcDbBlockTableRecord
  2
_FILLED
  0
BLOCK_RECORD
  5
212
100
AcDbSymbolTableRecord
100
AcDbBlockTableRecord
  2
*D0
  0
BLOCK_RECORD
  5
213
100
AcDbSymbolTableRecord
100
AcDbBlockTableRecord
  2
*D1
  0
BLOCK_RECORD
  5
214
100
AcDbSymbolTableRecord
100
AcDbBlockTableRecord
  2
*D2
  0
ENDTAB
  0
TABLE
  2
DIMSTYLE
  5
A
100
AcDbSymbolTable
 70
1
100
AcDbDimStyleTable
 71
0
  0
DIMSTYLE
105
215
100
AcDbSymbolTableRecord
100
AcDbDimStyleTableRecord
  2
STANDARD
 70
0
  3

  4

 40
1.0
 41
3.0
 42
0.5
 43
0.38
 44
1.5
 45
0.0
 46
0.0
 47
0.01
 48
0.01
140
3.0
141
0.09
142
0.0
143
25.4
144
1.0
145
0.0
146
1.0
147
0.625
 71
1.0
 72
0.0
 73
0
 74
0
 75
0
 76
0
 77
1
 78
8
170
0
171
2
172
0
173
0
174
0
175
0
176
0
177
0
178
0
270
2
271
2
272
2
273
2
274
2
275
0
280
0
281
0
282
0
283
1
284
8
285
0
286
0
287
3
288
0
340
11
278
44
341
211
342
211
343
211
344
211
  0
DIMSTYLE
105
216
100
AcDbSymbolTableRecord
100
AcDbDimStyleTableRecord
  2
DIMSTYLE_1
 70
0
  3

  4

 40
1.0
 41
3.0
 42
0.5
 43
0.38
 44
1.5
 45
0.0
 46
0.0
 47
0.0
 48
0.0
140
3.0
141
0.09
142
0.0
143
25.4
144
1.0
145
0.0
146
1.0
147
0.75
 71
0.0
 72
0.0
 73
0
 74
0
 75
0
 76
0
 77
1
 78
8
170
0
171
2
172
0
173
0
174
0
175
0
176
0
177
0
178
0
270
2
271
2
272
2
273
2
274
2
275
0
280
0
281
0
282
0
283
1
284
8
285
0
286
0
287
3
288
0
340
11
278
44
341
211
342
211
343
211
344
211
  0
DIMSTYLE
105
217
100
AcDbSymbolTableRecord
100
AcDbDimStyleTableRecord
  2
DIMSTYLE_2
 70
0
  3

  4

 40
1.0
 41
3.0
 42
0.5
 43
0.38
 44
1.5
 45
0.0
 46
0.0
 47
0.0
 48
0.0
140
3.0
141
0.09
142
0.0
143
25.4
144
1.0
145
0.0
146
1.0
147
0.75
 71
0.0
 72
0.0
 73
0
 74
0
 75
0
 76
0
 77
1
 78
8
170
0
171
2
172
0
173
0
174
0
175
0
176
0
177
0
178
0
270
2
271
1
272
1
273
2
274
2
275
0
280
0
281
0
282
0
283
1
284
8
285
0
286
0
287
3
288
0
340
11
278
44
341
211
342
211
343
211
344
211
  0
ENDTAB
  0
ENDSEC
  0
SECTION
  2
BLOCKS
  0
BLOCK
  5
20
100
AcDbEntity
  8
0
100
AcDbBlockBegin
  2
*Model_Space
 70
0
 10
0.0
 20
0.0
 30
0.0
  3
*Model_Space
  1

  0
ENDBLK
  5
21
100
AcDbEntity
  8
0
100
AcDbBlockEnd
  0
BLOCK
  5
1C
100
AcDbEntity
  8
0
100
AcDbBlockBegin
  2
*Paper_Space
 70
0
 10
0.0
 20
0.0
 30
0.0
  3
*Paper_Space
  1

  0
ENDBLK
  5
1D
100
AcDbEntity
  8
0
100
AcDbBlockEnd
  0
BLOCK
  5
218
100
AcDbEntity
  8
0
100
AcDbBlockBegin
  2
_FILLED
 70
64
 10
0.0
 20
0.0
  3
_FILLED
  1

  0
SOLID
  5
219
100
AcDbEntity
  8
0
  6
BYBLOCK
 62
0
100
AcDbTrace
 10
0.0
 20
0.0
 11
-1.0
 21
0.3166666667
 12
-1.0
 22
-0.3166666667
 13
-1.0
 23
-0.3166666667
  0
ENDBLK
  5
21A
100
AcDbEntity
  8
0
  6
BYBLOCK
 62
0
100
AcDbBlockEnd
  0
BLOCK
  5
21B
100
AcDbEntity
  8
0
100
AcDbBlockBegin
 62
7
  6
CONTINUOUS
  2
*D0
 70
65
 10
0.0
 20
0.0
  3
*D0
  1

  0
MTEXT
  5
21C
100
AcDbEntity
  8
0
100
AcDbMText
 62
7
  6
CONTINUOUS
  7
STANDARD
 71
2
 72
1
 10
-6.6973363145
 20
33.2383755027
 30
0.0
 11
1.0
 21
0.0
 31
0.0
 44
0.9
  1
70
 40
3.0
 41
7.0714285714
  0
LINE
  5
21D
100
AcDbEntity
  8
0
100
AcDbLine
 62
7
  6
CONTINUOUS
 10
-41.6973363145
 20
21.2784516551
 11
-41.6973363145
 21
30.9883755027
  0
LINE
  5
21E
100
AcDbEntity
  8
0
100
AcDbLine
 62
7
  6
CONTINUOUS
 10
28.3026636855
 20
21.2784516551
 11
28.3026636855
 21
30.9883755027
  0
LINE
  5
21F
100
AcDbEntity
  8
0
100
AcDbLine
 62
7
  6
CONTINUOUS
 10
-41.6973363145
 20
29.4883755027
 11
-6.6973363145
 21
29.4883755027
  0
LINE
  5
220
100
AcDbEntity
  8
0
100
AcDbLine
 62
7
  6
CONTINUOUS
 10
28.3026636855
 20
29.4883755027
 11
-6.6973363145
 21
29.4883755027
  0
INSERT
  5
221
100
AcDbEntity
  8
0
100
AcDbBlockReference
 62
7
  6
CONTINUOUS
  2
_FILLED
 10
-41.6973363145
 20
29.4883755027
 41
3.0
 42
3.0
 43
3.0
 50
180.0
  0
INSERT
  5
222
100
AcDbEntity
  8
0
100
AcDbBlockReference
 62
7
  6
CONTINUOUS
  2
_FILLED
 10
28.3026636855
 20
29.4883755027
 41
3.0
 42
3.0
 43
3.0
  0
ENDBLK
  5
223
100
AcDbEntity
  8
0
  6
BYBLOCK
 62
0
100
AcDbBlockEnd
  0
BLOCK
  5
224
100
AcDbEntity
  8
0
100
AcDbBlockBegin
 62
7
  6
CONTINUOUS
  2
*D1
 70
65
 10
0.0
 20
0.0
  3
*D1
  1

  0
MTEXT
  5
225
100
AcDbEntity
  8
0
100
AcDbMText
 62
7
  6
CONTINUOUS
  7
STANDARD
 71
2
 72
1
 10
33.1082136855
 20
-1.5116244973
 30
0.0
 11
0.0
 21
1.0
 31
0.0
 44
0.9
  1
45,6
 40
3.0
 41
12.8571428571
  0
LINE
  5
226
100
AcDbEntity
  8
0
100
AcDbLine
 62
7
  6
CONTINUOUS
 10
28.3027398379
 20
21.2783755027
 11
38.3582136855
 21
21.2783755027
  0
LINE
  5
227
100
AcDbEntity
  8
0
100
AcDbLine
 62
7
  6
CONTINUOUS
 10
28.3027398379
 20
-24.3016244973
 11
38.3582136855
 21
-24.3016244973
  0
LINE
  5
228
100
AcDbEntity
  8
0
100
AcDbLine
 62
7
  6
CONTINUOUS
 10
36.8582136855
 20
21.2783755027
 11
36.8582136855
 21
-1.5116244973
  0
LINE
  5
229
100
AcDbEntity
  8
0
100
AcDbLine
 62
7
  6
CONTINUOUS
 10
36.8582136855
 20
-24.3016244973
 11
36.8582136855
 21
-1.5116244973
  0
INSERT
  5
22A
100
AcDbEntity
  8
0
100
AcDbBlockReference
 62
7
  6
CONTINUOUS
  2
_FILLED
 10
36.8582136855
 20
21.2783755027
 41
3.0
 42
3.0
 43
3.0
 50
90.0
  0
INSERT
  5
22B
100
AcDbEntity
  8
0
100
AcDbBlockReference
 62
7
  6
CONTINUOUS
  2
_FILLED
 10
36.8582136855
 20
-24.3016244973
 41
3.0
 42
3.0
 43
3.0
 50
270.0
  0
ENDBLK
  5
22C
100
AcDbEntity
  8
0
  6
BYBLOCK
 62
0
100
AcDbBlockEnd
  0
BLOCK
  5
22D
100
AcDbEntity
  8
0
100
AcDbBlockBegin
 62
7
  6
CONTINUOUS
  2
*D2
 70
65
 10
0.0
 20
0.0
  3
*D2
  1

  0
MTEXT
  5
22E
100
AcDbEntity
  8
0
100
AcDbMText
 62
7
  6
CONTINUOUS
  7
STANDARD
 71
2
 72
1
 10
-78.1448590659
 20
33.2383755027
 30
0.0
 11
1.0
 21
0.0
 31
0.0
 44
0.9
  1
10,3
 40
3.0
 41
11.8928571429
  0
LINE
  5
22F
100
AcDbEntity
  8
0
100
AcDbLine
 62
7
  6
CONTINUOUS
 10
-83.2698590659
 20
21.2049880913
 11
-83.2698590659
 21
30.9883755027
  0
LINE
  5
230
100
AcDbEntity
  8
0
100
AcDbLine
 62
7
  6
CONTINUOUS
 10
-73.0198590659
 20
12.5869463862
 11
-73.0198590659
 21
30.9883755027
  0
LINE
  5
231
100
AcDbEntity
  8
0
100
AcDbLine
 62
7
  6
CONTINUOUS
 10
-83.2698590659
 20
29.4883755027
 11
-87.2698590659
 21
29.4883755027
  0
LINE
  5
232
100
AcDbEntity
  8
0
100
AcDbLine
 62
7
  6
CONTINUOUS
 10
-87.2698590659
 20
29.4883755027
 11
-78.1448590659
 21
29.4883755027
  0
LINE
  5
233
100
AcDbEntity
  8
0
100
AcDbLine
 62
7
  6
CONTINUOUS
 10
-73.0198590659
 20
29.4883755027
 11
-69.0198590659
 21
29.4883755027
  0
LINE
  5
234
100
AcDbEntity
  8
0
100
AcDbLine
 62
7
  6
CONTINUOUS
 10
-69.0198590659
 20
29.4883755027
 11
-78.1448590659
 21
29.4883755027
  0
INSERT
  5
235
100
AcDbEntity
  8
0
100
AcDbBlockReference
 62
7
  6
CONTINUOUS
  2
_FILLED
 10
-83.2698590659
 20
29.4883755027
 41
3.0
 42
3.0
 43
3.0
  0
INSERT
  5
236
100
AcDbEntity
  8
0
100
AcDbBlockReference
 62
7
  6
CONTINUOUS
  2
_FILLED
 10
-73.0198590659
 20
29.4883755027
 41
3.0
 42
3.0
 43
3.0
 50
180.0
  0
ENDBLK
  5
237
100
AcDbEntity
  8
0
  6
BYBLOCK
 62
0
100
AcDbBlockEnd
  0
ENDSEC
  0
SECTION
  2
ENTITIES
  0
DIMENSION
  5
238
100
AcDbEntity
  8
0
100
AcDbDimension
 62
7
  6
CONTINUOUS
  2
*D0
 10
28.3026636855
 20
29.4883755027
 11
-7.1259076967
 21
29.4883755027
 70
160
 71
2
 42
70.0
  3
DIMSTYLE_1
100
AcDbAlignedDimension
 13
-41.6973363145
 23
20.7784516551
 14
28.3026636855
 24
20.7784516551
100
AcDbRotatedDimension
  0
DIMENSION
  5
239
100
AcDbEntity
  8
0
100
AcDbDimension
 62
7
  6
CONTINUOUS
  2
*D1
 10
36.8582136855
 20
-24.3016244973
 11
36.8582136855
 21
-1.9401953976
 70
160
 71
2
 42
45.58
  3
DIMSTYLE_2
100
AcDbAlignedDimension
 13
27.8027398379
 23
21.2783755027
 14
27.8027398379
 24
-24.3016244973
 50
270.0
100
AcDbRotatedDimension
  0
DIMENSION
  5
23A
100
AcDbEntity
  8
0
100
AcDbDimension
 62
7
  6
CONTINUOUS
  2
*D2
 10
-73.0198590659
 20
29.4883755027
 11
-78.5734287643
 21
29.4883755027
 70
160
 71
2
 42
10.25
  3
DIMSTYLE_2
100
AcDbAlignedDimension
 13
-83.2698590659
 23
20.7049880913
 14
-73.0198590659
 24
12.0869463862
100
AcDbRotatedDimension
  0
LWPOLYLINE
  5
23B
100
AcDbEntity
  8
RACCORDO
100
AcDbPolyline
 62
253
  6
CONTINUOUS
 90
7
 70
0
 10
-41.1660504635
 20
21.1278037532
 10
-41.1632116978
 20
21.1565851455
 10
-41.1595838509
 20
21.180682337
 10
-41.1562216424
 20
21.1997198463
 10
-41.153267668
 20
21.2137046504
 10
-41.1498061816
 20
21.2226405942
 10
-41.1453519455
 20
21.2263149809
  0
LWPOLYLINE
  5
23C
100
AcDbEntity
  8
RACCORDO
100
AcDbPolyline
 62
253
  6
CONTINUOUS
 90
8
 70
0
 10
-41.1716881745
 20
-24.0812577031
 10
-41.1660501034
 20
-24.1510564606
 10
-41.1632113259
 20
-24.179837019
 10
-41.1595835619
 20
-24.2039333534
 10
-41.1562213802
 20
-24.2229700888
 10
-41.1532673742
 20
-24.2369542608
 10
-41.1498059493
 20
-24.2458897674
 10
-41.1453519455
 20
-24.2495639756
  0
LWPOLYLINE
  5
23D
100
AcDbEntity
  8
RACCORDO
100
AcDbPolyline
 62
253
  6
CONTINUOUS
 90
19
 70
0
 10
-41.6452757927
 20
-23.749640128
 10
-41.6433609003
 20
-23.7932029356
 10
-41.6376573279
 20
-23.8364343328
 10
-41.6282084664
 20
-23.8790054301
 10
-41.6150861992
 20
-23.9205923614
 10
-41.598390356
 20
-23.9608787474
 10
-41.5782479531
 20
-23.999558103
 10
-41.5548122271
 20
-24.0363361686
 10
-41.5282614688
 20
-24.0709331498
 10
-41.4987976671
 20
-24.1030858449
 10
-41.4666449722
 20
-24.1325496473
 10
-41.4320479907
 20
-24.1591004064
 10
-41.3952699247
 20
-24.1825361332
 10
-41.3565905691
 20
-24.2026785367
 10
-41.316304183
 20
-24.2193743804
 10
-41.2747172513
 20
-24.2324966481
 10
-41.232146153
 20
-24.2419455102
 10
-41.1889147545
 20
-24.2476490829
 10
-41.1453519452
 20
-24.2495639756
  0
LWPOLYLINE
  5
23E
100
AcDbEntity
  8
RACCORDO
100
AcDbPolyline
 62
253
  6
CONTINUOUS
 90
3
 70
0
 10
-41.1777483167
 20
-23.9509364615
 10
-41.173897048
 20
-24.0407085762
 10
-41.1716881745
 20
-24.0812577031
  0
LINE
  5
23F
100
AcDbEntity
  8
RACCORDO
100
AcDbLine
 62
253
  6
CONTINUOUS
 10
-41.1809020129
 20
-23.749640128
 11
-41.1799154478
 21
-23.8010948474
  0
LWPOLYLINE
  5
240
100
AcDbEntity
  8
RACCORDO
100
AcDbPolyline
 62
253
  6
CONTINUOUS
 90
3
 70
0
 10
-41.1799154478
 20
-23.8010948474
 10
-41.1790108958
 20
-23.9024918712
 10
-41.1777483167
 20
-23.9509364615
  0
LINE
  5
241
100
AcDbEntity
  8
DRAFT
100
AcDbLine
 62
7
  6
CONTINUOUS
 10
-41.6973363145
 20
10.9805213217
 11
-41.6973363145
 21
0.9962296837
  0
LINE
  5
242
100
AcDbEntity
  8
DRAFT
100
AcDbLine
 62
7
  6
CONTINUOUS
 10
-41.6973363145
 20
-4.0194786783
 11
-41.6973363145
 21
-14.0037703163
  0
LINE
  5
243
100
AcDbEntity
  8
RACCORDO
100
AcDbLine
 62
7
  6
CONTINUOUS
 10
-41.6973363145
 20
20.7783755027
 11
-41.6973363145
 21
-23.8016244973
  0
LINE
  5
244
100
AcDbEntity
  8
DRAFT
100
AcDbLine
 62
7
  6
CONTINUOUS
 10
-41.6816267561
 20
15.9883755027
 11
-41.6816267561
 21
10.9883755027
  0
LINE
  5
245
100
AcDbEntity
  8
DRAFT
100
AcDbLine
 62
7
  6
CONTINUOUS
 10
-41.6816267561
 20
0.9883755027
 11
-41.6816267561
 21
-4.0116244973
  0
LINE
  5
246
100
AcDbEntity
  8
DRAFT
100
AcDbLine
 62
7
  6
CONTINUOUS
 10
-41.6816267561
 20
-14.0116244973
 11
-41.6816267561
 21
-19.0116244973
  0
LINE
  5
247
100
AcDbEntity
  8
RACCORDO
100
AcDbLine
 62
253
  6
CONTINUOUS
 10
-41.6452757927
 20
20.7263911333
 11
-41.6452757927
 21
-23.749640128
  0
LINE
  5
248
100
AcDbEntity
  8
RACCORDO
100
AcDbLine
 62
253
  6
CONTINUOUS
 10
-41.1809020129
 20
20.7263911333
 11
-41.1809020129
 21
-23.749640128
  0
LWPOLYLINE
  5
249
100
AcDbEntity
  8
RACCORDO
100
AcDbPolyline
 62
253
  6
CONTINUOUS
 90
3
 70
0
 10
-41.1809020129
 20
20.7263911333
 10
-41.1799154974
 20
20.7778444358
 10
-41.1790109835
 20
20.8792392351
  0
LWPOLYLINE
  5
24A
100
AcDbEntity
  8
RACCORDO
100
AcDbPolyline
 62
253
  6
CONTINUOUS
 90
3
 70
0
 10
-41.1790109835
 20
20.8792392351
 10
-41.1777484378
 20
20.9276830545
 10
-41.1738973112
 20
21.0174545384
  0
LWPOLYLINE
  5
24B
100
AcDbEntity
  8
RACCORDO
100
AcDbPolyline
 62
253
  6
CONTINUOUS
 90
3
 70
0
 10
-41.1738973112
 20
21.0174545384
 10
-41.1716884706
 20
21.0580038616
 10
-41.1660504635
 20
21.1278037532
  0
LINE
  5
24C
100
AcDbEntity
  8
DRAFT
100
AcDbLine
 62
7
  6
CONTINUOUS
 10
-41.6973363145
 20
10.9805213217
 11
-41.6816267561
 21
10.9883755027
  0
LINE
  5
24D
100
AcDbEntity
  8
DRAFT
100
AcDbLine
 62
7
  6
CONTINUOUS
 10
-41.6973363145
 20
-14.0037703163
 11
-41.6816267561
 21
-14.0116244973
  0
LWPOLYLINE
  5
24E
100
AcDbEntity
  8
RACCORDO
100
AcDbPolyline
 62
253
  6
CONTINUOUS
 90
19
 70
0
 10
27.7506793161
 20
-24.2495639756
 10
27.7942421255
 20
-24.2476490829
 10
27.837473524
 20
-24.2419455102
 10
27.8800446222
 20
-24.2324966481
 10
27.9216315539
 20
-24.2193743804
 10
27.9619179401
 20
-24.2026785367
 10
28.0005972957
 20
-24.1825361332
 10
28.0373753617
 20
-24.1591004064
 10
28.0719723431
 20
-24.1325496473
 10
28.1041250381
 20
-24.1030858449
 10
28.1335888398
 20
-24.0709331498
 10
28.160139598
 20
-24.0363361686
 10
28.183575324
 20
-23.999558103
 10
28.2037177269
 20
-23.9608787474
 10
28.2204135702
 20
-23.9205923614
 10
28.2335358373
 20
-23.8790054301
 10
28.2429846989
 20
-23.8364343328
 10
28.2486882712
 20
-23.7932029356
 10
28.2506031637
 20
-23.749640128
  0
LINE
  5
24F
100
AcDbEntity
  8
RACCORDO
100
AcDbLine
 62
253
  6
CONTINUOUS
 10
-41.1453519452
 20
-24.2495639756
 11
-31.9707485957
 21
-24.2396745475
  0
LINE
  5
250
100
AcDbEntity
  8
RACCORDO
100
AcDbLine
 62
253
  6
CONTINUOUS
 10
-31.9707485957
 20
-24.2396745475
 11
-22.7864056434
 21
-24.2328253904
  0
LINE
  5
251
100
AcDbEntity
  8
RACCORDO
100
AcDbLine
 62
253
  6
CONTINUOUS
 10
-31.9973466026
 20
-23.739750673
 11
-22.8028336095
 21
-23.7329015173
  0
LINE
  5
252
100
AcDbEntity
  8
RACCORDO
100
AcDbLine
 62
253
  6
CONTINUOUS
 10
-22.7864056434
 20
-24.2328253904
 11
-13.593862622
 21
-24.2290177103
  0
LINE
  5
253
100
AcDbEntity
  8
RACCORDO
100
AcDbLine
 62
253
  6
CONTINUOUS
 10
-22.8028336095
 20
-23.7329015173
 11
-13.6009615706
 21
-23.7290938582
  0
LINE
  5
254
100
AcDbEntity
  8
RACCORDO
100
AcDbLine
 62
7
  6
CONTINUOUS
 10
-41.1974124669
 20
-24.3016244973
 11
27.8027398379
 21
-24.3016244973
  0
LINE
  5
255
100
AcDbEntity
  8
RACCORDO
100
AcDbLine
 62
253
  6
CONTINUOUS
 10
-13.593862622
 20
-24.2290177103
 11
-4.398255127
 21
-24.2282563316
  0
LINE
  5
256
100
AcDbEntity
  8
RACCORDO
100
AcDbLine
 62
253
  6
CONTINUOUS
 10
27.7862293839
 20
-23.749640128
 11
28.2506031637
 21
-23.749640128
  0
LINE
  5
257
100
AcDbEntity
  8
RACCORDO
100
AcDbLine
 62
253
  6
CONTINUOUS
 10
-41.1809020129
 20
-23.749640128
 11
-41.6452757927
 21
-23.7496401305
  0
LINE
  5
258
100
AcDbEntity
  8
RACCORDO
100
AcDbLine
 62
253
  6
CONTINUOUS
 10
-13.6009615706
 20
-23.7290938582
 11
-4.3960180443
 21
-23.7283324843
  0
LINE
  5
259
100
AcDbEntity
  8
RACCORDO
100
AcDbLine
 62
253
  6
CONTINUOUS
 10
-4.398255127
 20
-24.2282563316
 11
4.795820574
 21
-24.2305408526
  0
LINE
  5
25A
100
AcDbEntity
  8
RACCORDO
100
AcDbLine
 62
253
  6
CONTINUOUS
 10
-4.3960180443
 20
-23.7283324843
 11
4.8078049545
 21
-23.7306169972
  0
LINE
  5
25B
100
AcDbEntity
  8
RACCORDO
100
AcDbLine
 62
253
  6
CONTINUOUS
 10
4.795820574
 20
-24.2305408526
 11
13.9852928557
 21
-24.2358700699
  0
LWPOLYLINE
  5
25C
100
AcDbEntity
  8
RACCORDO
100
AcDbPolyline
 62
253
  6
CONTINUOUS
 90
3
 70
0
 10
4.8078049545
 20
-23.7306169972
 10
14.0066084984
 20
-23.735946201
 10
18.6026674991
 20
-23.7397506676
  0
LWPOLYLINE
  5
25D
100
AcDbEntity
  8
RACCORDO
100
AcDbPolyline
 62
253
  6
CONTINUOUS
 90
3
 70
0
 10
13.9852928557
 20
-24.2358700699
 10
23.1645217152
 20
-24.2442391692
 10
27.7506793161
 20
-24.2495639756
  0
LINE
  5
25E
100
AcDbEntity
  8
RACCORDO
100
AcDbLine
 62
253
  6
CONTINUOUS
 10
-41.1809020129
 20
-23.749640128
 11
-31.9973466026
 21
-23.739750673
  0
LINE
  5
25F
100
AcDbEntity
  8
RACCORDO
100
AcDbLine
 62
253
  6
CONTINUOUS
 10
18.6026674991
 20
-23.7397506676
 11
27.7862293839
 21
-23.749640128
  0
LINE
  5
260
100
AcDbEntity
  8
DRAFT
100
AcDbLine
 62
7
  6
CONTINUOUS
 10
-41.6973363145
 20
-4.0194786783
 11
-41.6816267561
 21
-4.0116244973
  0
LINE
  5
261
100
AcDbEntity
  8
DRAFT
100
AcDbLine
 62
7
  6
CONTINUOUS
 10
-41.6973363145
 20
0.9962296837
 11
-41.6816267561
 21
0.9883755027
  0
LINE
  5
262
100
AcDbEntity
  8
RACCORDO
100
AcDbLine
 62
253
  6
CONTINUOUS
 10
-41.6452757927
 20
-23.749640128
 11
-41.6973363145
 21
-23.8017006497
  0
LINE
  5
263
100
AcDbEntity
  8
RACCORDO
100
AcDbLine
 62
253
  6
CONTINUOUS
 10
-41.1453519452
 20
-24.2495639756
 11
-41.1974124669
 21
-24.3016244973
  0
LINE
  5
264
100
AcDbEntity
  8
RACCORDO
100
AcDbLine
 62
253
  6
CONTINUOUS
 10
-41.6973363145
 20
20.7784516551
 11
-41.6452757927
 21
20.7263911333
  0
LINE
  5
265
100
AcDbEntity
  8
RACCORDO
100
AcDbLine
 62
253
  6
CONTINUOUS
 10
-41.1974124669
 20
21.2783755027
 11
-41.1453519452
 21
21.2263149809
  0
LINE
  5
266
100
AcDbEntity
  8
DRAFT
100
AcDbLine
 62
7
  6
CONTINUOUS
 10
28.3026636855
 20
15.9962296837
 11
28.2869541271
 21
15.9883755027
  0
LINE
  5
267
100
AcDbEntity
  8
DRAFT
100
AcDbLine
 62
7
  6
CONTINUOUS
 10
-41.6973363145
 20
-19.0194786783
 11
-41.6816267561
 21
-19.0116244973
  0
LINE
  5
268
100
AcDbEntity
  8
DRAFT
100
AcDbLine
 62
7
  6
CONTINUOUS
 10
28.3026636855
 20
-19.0194786783
 11
28.2869541271
 21
-19.0116244973
  0
LINE
  5
269
100
AcDbEntity
  8
DRAFT
100
AcDbLine
 62
7
  6
CONTINUOUS
 10
-41.6973363145
 20
15.9962296837
 11
-41.6816267561
 21
15.9883755027
  0
LINE
  5
26A
100
AcDbEntity
  8
RACCORDO
100
AcDbLine
 62
253
  6
CONTINUOUS
 10
27.7506793161
 20
21.2263149809
 11
27.8027398379
 21
21.2783755027
  0
LINE
  5
26B
100
AcDbEntity
  8
RACCORDO
100
AcDbLine
 62
253
  6
CONTINUOUS
 10
27.8027398379
 20
-24.3016244973
 11
27.7506793161
 21
-24.2495639756
  0
LINE
  5
26C
100
AcDbEntity
  8
RACCORDO
100
AcDbLine
 62
253
  6
CONTINUOUS
 10
28.2506031637
 20
20.7263911333
 11
28.3026636855
 21
20.7784516551
  0
LINE
  5
26D
100
AcDbEntity
  8
RACCORDO
100
AcDbLine
 62
253
  6
CONTINUOUS
 10
28.3026636855
 20
-23.8017006497
 11
28.2506031637
 21
-23.749640128
  0
LINE
  5
26E
100
AcDbEntity
  8
DRAFT
100
AcDbLine
 62
7
  6
CONTINUOUS
 10
28.3026636855
 20
0.9962296837
 11
28.2869541271
 21
0.9883755027
  0
LINE
  5
26F
100
AcDbEntity
  8
DRAFT
100
AcDbLine
 62
7
  6
CONTINUOUS
 10
28.3026636855
 20
-4.0194786783
 11
28.2869541271
 21
-4.0116244973
  0
LINE
  5
270
100
AcDbEntity
  8
RACCORDO
100
AcDbLine
 62
253
  6
CONTINUOUS
 10
27.7506793161
 20
21.2263149809
 11
18.5760595617
 21
21.2164255394
  0
LINE
  5
271
100
AcDbEntity
  8
RACCORDO
100
AcDbLine
 62
253
  6
CONTINUOUS
 10
18.6026674991
 20
20.716501673
 11
9.4081507217
 21
20.7096525166
  0
LINE
  5
272
100
AcDbEntity
  8
RACCORDO
100
AcDbLine
 62
253
  6
CONTINUOUS
 10
18.5760595617
 20
21.2164255394
 11
9.3917089911
 21
21.2095763811
  0
LINE
  5
273
100
AcDbEntity
  8
RACCORDO
100
AcDbLine
 62
253
  6
CONTINUOUS
 10
9.4081507217
 20
20.7096525166
 11
0.2062772751
 21
20.7058448606
  0
LINE
  5
274
100
AcDbEntity
  8
RACCORDO
100
AcDbLine
 62
253
  6
CONTINUOUS
 10
9.3917089911
 20
21.2095763811
 11
0.1991654223
 21
21.2057687095
  0
LINE
  5
275
100
AcDbEntity
  8
RACCORDO
100
AcDbLine
 62
253
  6
CONTINUOUS
 10
0.2062772751
 20
20.7058448606
 11
-8.9986665762
 21
20.7050834907
  0
LINE
  5
276
100
AcDbEntity
  8
RACCORDO
100
AcDbLine
 62
253
  6
CONTINUOUS
 10
18.6026674991
 20
20.716501673
 11
28.2506031637
 21
20.7263911358
  0
LINE
  5
277
100
AcDbEntity
  8
RACCORDO
100
AcDbLine
 62
253
  6
CONTINUOUS
 10
0.1991654223
 20
21.2057687095
 11
-8.9964424109
 21
21.2050073392
  0
LINE
  5
278
100
AcDbEntity
  8
RACCORDO
100
AcDbLine
 62
7
  6
CONTINUOUS
 10
-41.1974124669
 20
21.2783755027
 11
27.8027398379
 21
21.2783755027
  0
LINE
  5
279
100
AcDbEntity
  8
RACCORDO
100
AcDbLine
 62
253
  6
CONTINUOUS
 10
-8.9986665762
 20
20.7050834907
 11
-18.2024887083
 21
20.7073680072
  0
LINE
  5
27A
100
AcDbEntity
  8
RACCORDO
100
AcDbLine
 62
253
  6
CONTINUOUS
 10
-8.9964424109
 20
21.2050073392
 11
-18.1905176691
 21
21.2072918685
  0
LINE
  5
27B
100
AcDbEntity
  8
RACCORDO
100
AcDbLine
 62
253
  6
CONTINUOUS
 10
-18.2024887083
 20
20.7073680072
 11
-27.4012898716
 21
20.7126972127
  0
LINE
  5
27C
100
AcDbEntity
  8
RACCORDO
100
AcDbLine
 62
253
  6
CONTINUOUS
 10
-18.1905176691
 20
21.2072918685
 11
-27.3799870116
 21
21.2126210912
  0
LWPOLYLINE
  5
27D
100
AcDbEntity
  8
RACCORDO
100
AcDbPolyline
 62
253
  6
CONTINUOUS
 90
3
 70
0
 10
-27.4012898716
 20
20.7126972127
 10
-36.590688194
 20
20.7210663185
 10
-41.6452757927
 20
20.7263911333
  0
LWPOLYLINE
  5
27E
100
AcDbEntity
  8
RACCORDO
100
AcDbPolyline
 62
253
  6
CONTINUOUS
 90
3
 70
0
 10
-27.3799870116
 20
21.2126210912
 10
-36.5592035735
 20
21.2209901828
 10
-41.1453519452
 20
21.2263149809
  0
LWPOLYLINE
  5
27F
100
AcDbEntity
  8
RACCORDO
100
AcDbPolyline
 62
253
  6
CONTINUOUS
 90
19
 70
0
 10
-41.1453519452
 20
21.2263149809
 10
-41.1889147545
 20
21.2244000883
 10
-41.232146153
 20
21.2186965155
 10
-41.2747172513
 20
21.2092476535
 10
-41.316304183
 20
21.1961253857
 10
-41.3565905691
 20
21.179429542
 10
-41.3952699247
 20
21.1592871386
 10
-41.4320479907
 20
21.1358514118
 10
-41.4666449722
 20
21.1093006526
 10
-41.4987976671
 20
21.0798368502
 10
-41.5282614688
 20
21.0476841552
 10
-41.5548122271
 20
21.013087174
 10
-41.5782479531
 20
20.9763091083
 10
-41.598390356
 20
20.9376297528
 10
-41.6150861992
 20
20.8973433667
 10
-41.6282084664
 20
20.8557564355
 10
-41.6376573279
 20
20.8131853382
 10
-41.6433609003
 20
20.769953941
 10
-41.6452757927
 20
20.7263911333
  0
LINE
  5
280
100
AcDbEntity
  8
DRAFT
100
AcDbLine
 62
7
  6
CONTINUOUS
 10
28.3026636855
 20
-14.0037703163
 11
28.2869541271
 21
-14.0116244973
  0
LINE
  5
281
100
AcDbEntity
  8
DRAFT
100
AcDbLine
 62
7
  6
CONTINUOUS
 10
28.3026636855
 20
10.9805213217
 11
28.2869541271
 21
10.9883755027
  0
LWPOLYLINE
  5
282
100
AcDbEntity
  8
RACCORDO
100
AcDbPolyline
 62
253
  6
CONTINUOUS
 90
8
 70
0
 10
27.7770155456
 20
21.0580087077
 10
27.7713774744
 20
21.1278074654
 10
27.768538697
 20
21.1565880238
 10
27.764910933
 20
21.1806843584
 10
27.7615487512
 20
21.1997210939
 10
27.7585947452
 20
21.213705266
 10
27.7551333203
 20
21.2226407728
 10
27.7506793165
 20
21.2263149809
  0
LWPOLYLINE
  5
283
100
AcDbEntity
  8
RACCORDO
100
AcDbPolyline
 62
253
  6
CONTINUOUS
 90
19
 70
0
 10
28.2506031637
 20
20.7263911333
 10
28.2486882712
 20
20.769953941
 10
28.2429846989
 20
20.8131853382
 10
28.2335358373
 20
20.8557564355
 10
28.2204135702
 20
20.8973433667
 10
28.2037177269
 20
20.9376297528
 10
28.183575324
 20
20.9763091083
 10
28.160139598
 20
21.013087174
 10
28.1335888398
 20
21.0476841552
 10
28.1041250381
 20
21.0798368502
 10
28.0719723431
 20
21.1093006526
 10
28.0373753617
 20
21.1358514118
 10
28.0005972957
 20
21.1592871386
 10
27.9619179401
 20
21.179429542
 10
27.9216315539
 20
21.1961253857
 10
27.8800446222
 20
21.2092476535
 10
27.837473524
 20
21.2186965155
 10
27.7942421255
 20
21.2244000883
 10
27.7506793161
 20
21.2263149809
  0
LWPOLYLINE
  5
284
100
AcDbEntity
  8
RACCORDO
100
AcDbPolyline
 62
253
  6
CONTINUOUS
 90
3
 70
0
 10
27.7830756877
 20
20.9276874662
 10
27.7792244191
 20
21.0174595807
 10
27.7770155456
 20
21.0580087077
  0
LINE
  5
285
100
AcDbEntity
  8
RACCORDO
100
AcDbLine
 62
253
  6
CONTINUOUS
 10
27.7862293839
 20
20.7263911333
 11
27.7852428188
 21
20.7778458525
  0
LWPOLYLINE
  5
286
100
AcDbEntity
  8
RACCORDO
100
AcDbPolyline
 62
253
  6
CONTINUOUS
 90
3
 70
0
 10
27.7852428188
 20
20.7778458525
 10
27.7843382668
 20
20.8792428761
 10
27.7830756877
 20
20.9276874662
  0
LINE
  5
287
100
AcDbEntity
  8
RACCORDO
100
AcDbLine
 62
253
  6
CONTINUOUS
 10
27.7862293839
 20
-23.749640128
 11
27.7862293839
 21
20.7263911333
  0
LINE
  5
288
100
AcDbEntity
  8
RACCORDO
100
AcDbLine
 62
253
  6
CONTINUOUS
 10
28.2506031637
 20
-23.749640128
 11
28.2506031637
 21
20.7263911333
  0
LINE
  5
289
100
AcDbEntity
  8
DRAFT
100
AcDbLine
 62
7
  6
CONTINUOUS
 10
28.2869541271
 20
15.9883755027
 11
28.2869541271
 21
10.9883755027
  0
LINE
  5
28A
100
AcDbEntity
  8
DRAFT
100
AcDbLine
 62
7
  6
CONTINUOUS
 10
28.2869541271
 20
0.9883755027
 11
28.2869541271
 21
-4.0116244973
  0
LINE
  5
28B
100
AcDbEntity
  8
DRAFT
100
AcDbLine
 62
7
  6
CONTINUOUS
 10
28.2869541271
 20
-14.0116244973
 11
28.2869541271
 21
-19.0116244973
  0
LINE
  5
28C
100
AcDbEntity
  8
DRAFT
100
AcDbLine
 62
7
  6
CONTINUOUS
 10
28.3026636855
 20
10.9805213217
 11
28.3026636855
 21
0.9962296837
  0
LINE
  5
28D
100
AcDbEntity
  8
DRAFT
100
AcDbLine
 62
7
  6
CONTINUOUS
 10
28.3026636855
 20
-4.0194786783
 11
28.3026636855
 21
-14.0037703163
  0
LINE
  5
28E
100
AcDbEntity
  8
RACCORDO
100
AcDbLine
 62
7
  6
CONTINUOUS
 10
28.3026636855
 20
20.7783755027
 11
28.3026636855
 21
-23.8016244973
  0
LWPOLYLINE
  5
28F
100
AcDbEntity
  8
RACCORDO
100
AcDbPolyline
 62
253
  6
CONTINUOUS
 90
3
 70
0
 10
27.7862293839
 20
-23.749640128
 10
27.7852428684
 20
-23.8010934304
 10
27.7843383545
 20
-23.9024882297
  0
LWPOLYLINE
  5
290
100
AcDbEntity
  8
RACCORDO
100
AcDbPolyline
 62
253
  6
CONTINUOUS
 90
3
 70
0
 10
27.7843383545
 20
-23.9024882297
 10
27.7830758088
 20
-23.9509320492
 10
27.7792246821
 20
-24.040703533
  0
LWPOLYLINE
  5
291
100
AcDbEntity
  8
RACCORDO
100
AcDbPolyline
 62
253
  6
CONTINUOUS
 90
3
 70
0
 10
27.7792246821
 20
-24.040703533
 10
27.7770158416
 20
-24.0812528562
 10
27.7713778345
 20
-24.1510527479
  0
LWPOLYLINE
  5
292
100
AcDbEntity
  8
RACCORDO
100
AcDbPolyline
 62
253
  6
CONTINUOUS
 90
7
 70
0
 10
27.7713778345
 20
-24.1510527479
 10
27.7685390687
 20
-24.1798341402
 10
27.7649112219
 20
-24.2039313316
 10
27.7615490134
 20
-24.222968841
 10
27.7585950389
 20
-24.236953645
 10
27.7551335526
 20
-24.2458895888
 10
27.7506793165
 20
-24.2495639756
  0
LINE
  5
293
100
AcDbEntity
  8
RACCORDO
100
AcDbLine
 62
7
  6
CONTINUOUS
 10
-77.0698590659
 20
-24.3016244973
 11
-78.5698590659
 21
-24.3016244973
  0
LINE
  5
294
100
AcDbEntity
  8
RACCORDO
100
AcDbLine
 62
253
  6
CONTINUOUS
 10
-77.0698590659
 20
-23.8016244973
 11
-78.5698590659
 21
-23.8016244973
  0
LINE
  5
295
100
AcDbEntity
  8
RACCORDO
100
AcDbLine
 62
253
  6
CONTINUOUS
 10
-82.0424127486
 20
-23.749640128
 11
-81.5524043604
 21
-23.749640128
  0
LINE
  5
296
100
AcDbEntity
  8
RACCORDO
100
AcDbLine
 62
7
  6
CONTINUOUS
 10
-78.5698590659
 20
-24.3016244973
 11
-82.7785707904
 21
-24.2281611609
  0
LINE
  5
297
100
AcDbEntity
  8
RACCORDO
100
AcDbLine
 62
253
  6
CONTINUOUS
 10
-83.2698590659
 20
-23.7282373133
 11
-82.0424127486
 21
-23.749640128
  0
LINE
  5
298
100
AcDbEntity
  8
RACCORDO
100
AcDbLine
 62
253
  6
CONTINUOUS
 10
-78.5698590659
 20
-23.8017006497
 11
-81.5524043604
 21
-23.749640128
  0
LINE
  5
299
100
AcDbEntity
  8
DRAFT
100
AcDbLine
 62
7
  6
CONTINUOUS
 10
-75.5698590659
 20
-23.2016244973
 11
-75.8698590659
 21
-23.2016244973
  0
LINE
  5
29A
100
AcDbEntity
  8
DRAFT
100
AcDbLine
 62
7
  6
CONTINUOUS
 10
-77.0698590659
 20
-22.6016244973
 11
-75.7956524307
 21
-22.6016244973
  0
LINE
  5
29B
100
AcDbEntity
  8
RACCORDO
100
AcDbLine
 62
7
  6
CONTINUOUS
 10
-74.8698590659
 20
-21.4784501902
 11
-77.0698590659
 21
-21.4016244973
  0
LINE
  5
29C
100
AcDbEntity
  8
DRAFT
100
AcDbLine
 62
7
  6
CONTINUOUS
 10
-78.5698590659
 20
-19.0194786783
 11
-79.4698590659
 21
-19.0116244973
  0
LINE
  5
29D
100
AcDbEntity
  8
RACCORDO
100
AcDbLine
 62
7
  6
CONTINUOUS
 10
-73.0198590659
 20
-15.1101953809
 11
-77.0698590659
 21
-15.2516244973
  0
LINE
  5
29E
100
AcDbEntity
  8
DRAFT
100
AcDbLine
 62
7
  6
CONTINUOUS
 10
-78.5698590659
 20
-14.0037703163
 11
-79.4698590659
 21
-14.0116244973
  0
LWPOLYLINE
  5
29F
100
AcDbEntity
  8
RACCORDO
100
AcDbPolyline
 62
253
  6
CONTINUOUS
 90
8
 70
0
 10
-81.5524043604
 20
-24.2495639756
 10
-81.5531313275
 20
-24.2476490829
 10
-81.5537863782
 20
-24.2419455102
 10
-81.5543645289
 20
-24.2324966481
 10
-81.5548613815
 20
-24.2193743804
 10
-81.555273156
 20
-24.2026785367
 10
-81.5555967197
 20
-24.1825361332
 10
-81.5558296111
 20
-24.1591004064
  0
LINE
  5
2A0
100
AcDbEntity
  8
RACCORDO
100
AcDbLine
 62
7
  6
CONTINUOUS
 10
-77.0698590659
 20
-10.7516244973
 11
-73.0198590659
 21
-10.8930536138
  0
LWPOLYLINE
  5
2A1
100
AcDbEntity
  8
RACCORDO
100
AcDbPolyline
 62
253
  6
CONTINUOUS
 90
16
 70
0
 10
-82.0424127486
 20
-23.749640128
 10
-82.0398211996
 20
-23.8010934304
 10
-82.0318433079
 20
-23.8522738593
 10
-82.0185513265
 20
-23.9024882297
 10
-82.0002217255
 20
-23.9509320492
 10
-81.9770929614
 20
-23.997086427
 10
-81.9492237851
 20
-24.040703533
 10
-81.9169600693
 20
-24.0812528562
 10
-81.8808315984
 20
-24.1181269132
 10
-81.8410659174
 20
-24.1510527479
 10
-81.7978712749
 20
-24.1798341402
 10
-81.7520455134
 20
-24.2039313316
 10
-81.7044319415
 20
-24.222968841
 10
-81.6553154154
 20
-24.236953645
 10
-81.6046423465
 20
-24.2458895888
 10
-81.5524043604
 20
-24.2495639756
  0
LINE
  5
2A2
100
AcDbEntity
  8
ASSI
100
AcDbLine
 62
7
  6
CONTINUOUS
 10
-83.2698590659
 20
20.7049880913
 11
-83.2698590659
 21
-23.7282370859
  0
LWPOLYLINE
  5
2A3
100
AcDbEntity
  8
RACCORDO
100
AcDbPolyline
 62
253
  6
CONTINUOUS
 90
16
 70
0
 10
-82.0424127486
 20
20.7263911333
 10
-82.0398210561
 20
20.7778458525
 10
-82.0318427569
 20
20.8290275091
 10
-82.0185501608
 20
20.8792428761
 10
-82.0002197889
 20
20.9276874662
 10
-81.9770901725
 20
20.9738423395
 10
-81.9492201847
 20
21.0174595807
 10
-81.916955785
 20
21.0580087077
 10
-81.8808268196
 20
21.0948823099
 10
-81.8410609318
 20
21.1278074654
 10
-81.7978664299
 20
21.1565880238
 10
-81.752041126
 20
21.1806843584
 10
-81.7044282857
 20
21.1997210939
 10
-81.6553127489
 20
21.213705266
 10
-81.6046409099
 20
21.2226407728
 10
-81.5524043604
 20
21.2263149809
  0
LINE
  5
2A4
100
AcDbEntity
  8
RACCORDO
100
AcDbLine
 62
253
  6
CONTINUOUS
 10
-81.5524043604
 20
20.7263911333
 11
-81.5543645289
 21
20.8557564355
  0
LINE
  5
2A5
100
AcDbEntity
  8
RACCORDO
100
AcDbLine
 62
253
  6
CONTINUOUS
 10
-81.5543645289
 20
20.8557564355
 11
-81.5555967196
 21
20.9763091083
  0
LINE
  5
2A6
100
AcDbEntity
  8
RACCORDO
100
AcDbLine
 62
253
  6
CONTINUOUS
 10
-81.5555967196
 20
20.9763091083
 11
-81.5559700584
 21
21.0476841552
  0
LINE
  5
2A7
100
AcDbEntity
  8
RACCORDO
100
AcDbLine
 62
253
  6
CONTINUOUS
 10
-81.5558296111
 20
-24.1591004064
 11
-81.5560169932
 21
-24.1030858449
  0
LINE
  5
2A8
100
AcDbEntity
  8
RACCORDO
100
AcDbLine
 62
253
  6
CONTINUOUS
 10
-82.0424127486
 20
-23.749640128
 11
-82.0424127486
 21
20.7263911333
  0
LINE
  5
2A9
100
AcDbEntity
  8
RACCORDO
100
AcDbLine
 62
253
  6
CONTINUOUS
 10
-81.5524043604
 20
-23.749640128
 11
-81.5524043604
 21
20.7263911333
  0
LWPOLYLINE
  5
2AA
100
AcDbEntity
  8
RACCORDO
100
AcDbPolyline
 62
253
  6
CONTINUOUS
 90
10
 70
0
 10
-81.5559700584
 20
21.0476841552
 10
-81.5559700584
 20
21.1093006526
 10
-81.5558296111
 20
21.1358514118
 10
-81.5555967197
 20
21.1592871386
 10
-81.555273156
 20
21.179429542
 10
-81.5548613815
 20
21.1961253857
 10
-81.5543645289
 20
21.2092476535
 10
-81.5537863782
 20
21.2186965155
 10
-81.5531313275
 20
21.2244000883
 10
-81.5524043604
 20
21.2263149809
  0
LINE
  5
2AB
100
AcDbEntity
  8
RACCORDO
100
AcDbLine
 62
253
  6
CONTINUOUS
 10
-81.5560169932
 20
-24.1030858449
 11
-81.555829611
 21
-24.0363361686
  0
LINE
  5
2AC
100
AcDbEntity
  8
RACCORDO
100
AcDbLine
 62
253
  6
CONTINUOUS
 10
-81.555829611
 20
-24.0363361686
 11
-81.5548613815
 21
-23.9205923614
  0
LWPOLYLINE
  5
2AD
100
AcDbEntity
  8
RACCORDO
100
AcDbPolyline
 62
253
  6
CONTINUOUS
 90
3
 70
0
 10
-81.5548613815
 20
-23.9205923614
 10
-81.5531313275
 20
-23.7932029356
 10
-81.5524043604
 20
-23.749640128
  0
LINE
  5
2AE
100
AcDbEntity
  8
DRAFT
100
AcDbLine
 62
7
  6
CONTINUOUS
 10
-78.5698590659
 20
-4.0194786783
 11
-79.4698590659
 21
-4.0116244973
  0
LINE
  5
2AF
100
AcDbEntity
  8
DRAFT
100
AcDbLine
 62
7
  6
CONTINUOUS
 10
-79.4698590659
 20
15.9883755027
 11
-79.4698590659
 21
10.9883755027
  0
LINE
  5
2B0
100
AcDbEntity
  8
DRAFT
100
AcDbLine
 62
7
  6
CONTINUOUS
 10
-79.4698590659
 20
0.9883755027
 11
-79.4698590659
 21
-4.0116244973
  0
LINE
  5
2B1
100
AcDbEntity
  8
DRAFT
100
AcDbLine
 62
7
  6
CONTINUOUS
 10
-79.4698590659
 20
-14.0116244973
 11
-79.4698590659
 21
-19.0116244973
  0
LINE
  5
2B2
100
AcDbEntity
  8
RACCORDO
100
AcDbLine
 62
253
  6
CONTINUOUS
 10
-79.271604373
 20
-19.0133546398
 11
-79.271604373
 21
-14.0098943548
  0
LINE
  5
2B3
100
AcDbEntity
  8
RACCORDO
100
AcDbLine
 62
253
  6
CONTINUOUS
 10
-79.271604373
 20
-4.0133546398
 11
-79.271604373
 21
0.9901056452
  0
LINE
  5
2B4
100
AcDbEntity
  8
RACCORDO
100
AcDbLine
 62
253
  6
CONTINUOUS
 10
-79.271604373
 20
10.9866453602
 11
-79.271604373
 21
15.9901056452
  0
LINE
  5
2B5
100
AcDbEntity
  8
DRAFT
100
AcDbLine
 62
7
  6
CONTINUOUS
 10
-78.5698590659
 20
10.9805213217
 11
-78.5698590659
 21
0.9962296837
  0
LINE
  5
2B6
100
AcDbEntity
  8
DRAFT
100
AcDbLine
 62
7
  6
CONTINUOUS
 10
-78.5698590659
 20
-4.0194786783
 11
-78.5698590659
 21
-14.0037703163
  0
LINE
  5
2B7
100
AcDbEntity
  8
RACCORDO
100
AcDbLine
 62
7
  6
CONTINUOUS
 10
-78.5698590659
 20
21.2783755027
 11
-78.5698590659
 21
-24.3016244973
  0
LINE
  5
2B8
100
AcDbEntity
  8
RACCORDO
100
AcDbLine
 62
7
  6
CONTINUOUS
 10
-77.0698590659
 20
21.2783755027
 11
-77.0698590659
 21
-24.3016244973
  0
LINE
  5
2B9
100
AcDbEntity
  8
DRAFT
100
AcDbLine
 62
7
  6
CONTINUOUS
 10
-75.8698590659
 20
20.1783755027
 11
-75.8698590659
 21
19.5783755027
  0
LINE
  5
2BA
100
AcDbEntity
  8
DRAFT
100
AcDbLine
 62
7
  6
CONTINUOUS
 10
-75.8698590659
 20
-22.6016244973
 11
-75.8698590659
 21
-23.2016244973
  0
LINE
  5
2BB
100
AcDbEntity
  8
DRAFT
100
AcDbLine
 62
7
  6
CONTINUOUS
 10
-75.7956524307
 20
20.1783755027
 11
-75.7956524307
 21
19.5783755027
  0
LINE
  5
2BC
100
AcDbEntity
  8
DRAFT
100
AcDbLine
 62
7
  6
CONTINUOUS
 10
-75.7956524307
 20
-22.6016244973
 11
-75.7956524307
 21
-23.2016244973
  0
LINE
  5
2BD
100
AcDbEntity
  8
RACCORDO
100
AcDbLine
 62
253
  6
CONTINUOUS
 10
-75.3698590659
 20
-23.0301959259
 11
-75.3698590659
 21
-21.4609898055
  0
LINE
  5
2BE
100
AcDbEntity
  8
RACCORDO
100
AcDbLine
 62
253
  6
CONTINUOUS
 10
-75.3698590659
 20
18.4377408108
 11
-75.3698590659
 21
20.0069469313
  0
LINE
  5
2BF
100
AcDbEntity
  8
RACCORDO
100
AcDbLine
 62
7
  6
CONTINUOUS
 10
-74.8698590659
 20
-22.6016244973
 11
-74.8698590659
 21
-21.4784501902
  0
LINE
  5
2C0
100
AcDbEntity
  8
RACCORDO
100
AcDbLine
 62
7
  6
CONTINUOUS
 10
-74.8698590659
 20
18.4552011956
 11
-74.8698590659
 21
19.5783755027
  0
LINE
  5
2C1
100
AcDbEntity
  8
DRAFT
100
AcDbLine
 62
7
  6
CONTINUOUS
 10
-78.5698590659
 20
0.9962296837
 11
-79.4698590659
 21
0.9883755027
  0
LINE
  5
2C2
100
AcDbEntity
  8
RACCORDO
100
AcDbLine
 62
253
  6
CONTINUOUS
 10
-73.5024093175
 20
12.1037974123
 11
-73.5024093175
 21
7.852953593
  0
LINE
  5
2C3
100
AcDbEntity
  8
RACCORDO
100
AcDbLine
 62
253
  6
CONTINUOUS
 10
-73.5024093175
 20
-10.8762025877
 11
-73.5024093175
 21
-15.127046407
  0
LINE
  5
2C4
100
AcDbEntity
  8
RACCORDO
100
AcDbLine
 62
7
  6
CONTINUOUS
 10
-73.0198590659
 20
12.0869463862
 11
-73.0198590659
 21
7.8698046191
  0
LINE
  5
2C5
100
AcDbEntity
  8
RACCORDO
100
AcDbLine
 62
7
  6
CONTINUOUS
 10
-73.0198590659
 20
-10.8930536138
 11
-73.0198590659
 21
-15.1101953809
  0
LINE
  5
2C6
100
AcDbEntity
  8
RACCORDO
100
AcDbLine
 62
7
  6
CONTINUOUS
 10
-73.0198590659
 20
7.8698046191
 11
-77.0698590659
 21
7.7283755027
  0
LINE
  5
2C7
100
AcDbEntity
  8
DRAFT
100
AcDbLine
 62
7
  6
CONTINUOUS
 10
-78.5698590659
 20
10.9805213217
 11
-79.4698590659
 21
10.9883755027
  0
LINE
  5
2C8
100
AcDbEntity
  8
RACCORDO
100
AcDbLine
 62
7
  6
CONTINUOUS
 10
-77.0698590659
 20
12.2283755027
 11
-73.0198590659
 21
12.0869463862
  0
LINE
  5
2C9
100
AcDbEntity
  8
RACCORDO
100
AcDbLine
 62
7
  6
CONTINUOUS
 10
-74.8698590659
 20
-22.6016244973
 11
-75.5698590659
 21
-23.2016244973
  0
LINE
  5
2CA
100
AcDbEntity
  8
DRAFT
100
AcDbLine
 62
7
  6
CONTINUOUS
 10
-78.5698590659
 20
15.9962296837
 11
-79.4698590659
 21
15.9883755027
  0
LINE
  5
2CB
100
AcDbEntity
  8
RACCORDO
100
AcDbLine
 62
7
  6
CONTINUOUS
 10
-74.8698590659
 20
19.5783755027
 11
-75.5698590659
 21
20.1783755027
  0
LINE
  5
2CC
100
AcDbEntity
  8
RACCORDO
100
AcDbLine
 62
7
  6
CONTINUOUS
 10
-74.8698590659
 20
18.4552011956
 11
-77.0698590659
 21
18.3783755027
  0
LINE
  5
2CD
100
AcDbEntity
  8
RACCORDO
100
AcDbLine
 62
253
  6
CONTINUOUS
 10
-81.5524043604
 20
20.7263911333
 11
-78.5698590659
 21
20.7784516551
  0
LINE
  5
2CE
100
AcDbEntity
  8
RACCORDO
100
AcDbLine
 62
253
  6
CONTINUOUS
 10
-82.0424127486
 20
20.7263911333
 11
-83.2698590659
 21
20.7049883187
  0
LINE
  5
2CF
100
AcDbEntity
  8
RACCORDO
100
AcDbLine
 62
7
  6
CONTINUOUS
 10
-82.7785707904
 20
21.2049121663
 11
-78.5698590659
 21
21.2783755027
  0
LINE
  5
2D0
100
AcDbEntity
  8
DRAFT
100
AcDbLine
 62
7
  6
CONTINUOUS
 10
-75.7956524307
 20
19.5783755027
 11
-77.0698590659
 21
19.5783755027
  0
LINE
  5
2D1
100
AcDbEntity
  8
DRAFT
100
AcDbLine
 62
7
  6
CONTINUOUS
 10
-75.5698590659
 20
20.1783755027
 11
-75.8698590659
 21
20.1783755027
  0
LINE
  5
2D2
100
AcDbEntity
  8
RACCORDO
100
AcDbLine
 62
253
  6
CONTINUOUS
 10
-82.0424127486
 20
20.7263911333
 11
-81.5524043605
 21
20.7263911358
  0
LINE
  5
2D3
100
AcDbEntity
  8
RACCORDO
100
AcDbLine
 62
253
  6
CONTINUOUS
 10
-78.5698590659
 20
20.7783755027
 11
-77.0698590659
 21
20.7783755027
  0
LINE
  5
2D4
100
AcDbEntity
  8
RACCORDO
100
AcDbLine
 62
7
  6
CONTINUOUS
 10
-78.5698590659
 20
21.2783755027
 11
-77.0698590659
 21
21.2783755027
  0
ARC
  5
2D5
100
AcDbEntity
  8
RACCORDO
100
AcDbCircle
 62
7
  6
CONTINUOUS
 10
27.8026636855
 20
-23.8016244973
 40
0.5
100
AcDbArc
 50
270.0
 51
360.0
  0
ARC
  5
2D6
100
AcDbEntity
  8
RACCORDO
100
AcDbCircle
 62
7
  6
CONTINUOUS
 10
-41.1973363145
 20
-23.8016244973
 40
0.5
100
AcDbArc
 50
180.0
 51
270.0
  0
ARC
  5
2D7
100
AcDbEntity
  8
RACCORDO
100
AcDbCircle
 62
7
  6
CONTINUOUS
 10
-41.1973363145
 20
20.7783755027
 40
0.5
100
AcDbArc
 50
90.0
 51
180.0
  0
ARC
  5
2D8
100
AcDbEntity
  8
RACCORDO
100
AcDbCircle
 62
7
  6
CONTINUOUS
 10
27.8026636855
 20
20.7783755027
 40
0.5
100
AcDbArc
 50
0.0
 51
90.0
  0
ARC
  5
2D9
100
AcDbEntity
  8
RACCORDO
100
AcDbCircle
 62
7
  6
CONTINUOUS
 10
-82.7698576181
 20
-23.7282370859
 40
0.5
100
AcDbArc
 50
180.0000000057
 51
269.0
  0
ARC
  5
2DA
100
AcDbEntity
  8
RACCORDO
100
AcDbCircle
 62
7
  6
CONTINUOUS
 10
-82.7698576181
 20
20.7049880912
 40
0.5
100
AcDbArc
 50
91.0
 51
179.9999999943
  0
ELLIPSE
  5
2DB
100
AcDbEntity
  8
RACCORDO
100
AcDbEllipse
 62
7
  6
CONTINUOUS
 10
-41.1972601505
 20
-23.8015483333
 30
0.0
 11
0.3536610946
 21
0.3536610946
 31
0.0
 40
0.9996954599
 41
-3.9268385237
 42
-2.3563467834
  0
ELLIPSE
  5
2DC
100
AcDbEntity
  8
RACCORDO
100
AcDbEllipse
 62
7
  6
CONTINUOUS
 10
27.8025875215
 20
-23.8015483333
 30
0.0
 11
-0.3536610946
 21
0.3536610946
 31
0.0
 40
0.9996954599
 41
-3.9268385237
 42
-2.3563467834
  0
ELLIPSE
  5
2DD
100
AcDbEntity
  8
RACCORDO
100
AcDbEllipse
 62
7
  6
CONTINUOUS
 10
27.8025875215
 20
20.7782993387
 30
0.0
 11
0.3536610946
 21
0.3536610946
 31
0.0
 40
0.9996954599
 41
-0.7852458701
 42
0.7852458701
  0
ELLIPSE
  5
2DE
100
AcDbEntity
  8
RACCORDO
100
AcDbEllipse
 62
7
  6
CONTINUOUS
 10
-41.1972601505
 20
20.7782993387
 30
0.0
 11
0.3536610946
 21
-0.3536610946
 31
0.0
 40
0.9996954599
 41
2.3563467834
 42
3.9268385237
  0
ENDSEC
  0
SECTION
  2
OBJECTS
  0
DICTIONARY
  5
C
100
AcDbDictionary
280
0
281
1
  3
ACAD_GROUP
350
D
  3
ACAD_MLINESTYLE
350
17
  3
ACAD_LAYOUT
350
1A
  3
ACAD_PLOTSETTINGS
350
19
  3
ACAD_PLOTSTYLENAME
350
E
  0
DICTIONARY
  5
D
102
{ACAD_REACTORS
330
C
102
}
100
AcDbDictionary
280
0
281
1
  0
ACDBDICTIONARYWDFLT
  5
E
102
{ACAD_REACTORS
330
C
102
}
100
AcDbDictionary
281
1
  3
Normal
350
F
100
AcDbDictionaryWithDefault
340
F
  0
DICTIONARY
  5
17
102
{ACAD_REACTORS
330
C
102
}
100
AcDbDictionary
280
0
281
1
  3
Standard
350
18
  0
DICTIONARY
  5
19
102
{ACAD_REACTORS
330
C
102
}
100
AcDbDictionary
281
1
  0
DICTIONARY
  5
1A
102
{ACAD_REACTORS
330
C
102
}
100
AcDbDictionary
281
1
  3
Model
350
2DF
  3
Layout1
350
2E0
  0
ACDBPLACEHOLDER
  5
F
102
{ACAD_REACTORS
330
E
102
}
  0
MLINESTYLE
  5
18
102
{ACAD_REACTORS
330
17
102
}
100
AcDbMlineStyle
  2
STANDARD
 70
0
  3

 62
256
 51
90.0
 52
90.0
 71
2
 49
0.5
 62
256
  6
BYLAYER
 49
-0.5
 62
256
  6
BYLAYER
  0
LAYOUT
  5
2DF
102
{ACAD_REACTORS
330
1A
102
}
100
AcDbPlotSettings
  1

  2
none_device
  4
ISO_A4_(297.00_x_210.00_MM)
  6

 40
0.0
 41
0.0
 42
0.0
 43
0.0
 44
297.0
 45
210.0
 46
0.0
 47
0.0
 48
0.0
 49
0.0
140
0.0
141
0.0
142
1.0
143
1.0
 70
1024
 72
1
 73
0
 74
0
  7

 75
0
147
1.0
148
0.0
149
0.0
100
AcDbLayout
  1
Model
 70
0
 71
0
 10
0.0
 20
0.0
 11
297.0
 21
210.0
 12
0.0
 22
0.0
 32
0.0
 14
0.0
 24
0.0
 34
0.0
 15
0.0
 25
0.0
 35
0.0
146
0.0
 13
0.0
 23
0.0
 33
0.0
 16
1.0
 26
0.0
 36
0.0
 17
0.0
 27
1.0
 37
0.0
 76
0
330
20F
345
0
346
0
  0
LAYOUT
  5
2E0
102
{ACAD_REACTORS
330
1A
102
}
100
AcDbPlotSettings
  1

  2
none_device
  4
ISO_A4_(297.00_x_210.00_MM)
  6

 40
0.0
 41
0.0
 42
0.0
 43
0.0
 44
297.0
 45
210.0
 46
0.0
 47
0.0
 48
0.0
 49
0.0
140
0.0
141
0.0
142
1.0
143
1.0
 70
0
 72
1
 73
0
 74
0
  7

 75
0
147
1.0
148
0.0
149
0.0
100
AcDbLayout
  1
Layout1
 70
0
 71
1
 10
0.0
 20
0.0
 11
297.0
 21
210.0
 12
0.0
 22
0.0
 32
0.0
 14
0.0
 24
0.0
 34
0.0
 15
0.0
 25
0.0
 35
0.0
146
0.0
 13
0.0
 23
0.0
 33
0.0
 16
1.0
 26
0.0
 36
0.0
 17
0.0
 27
1.0
 37
0.0
 76
0
330
210
345
0
346
0
  0
ENDSEC
  0
EOF
