  0
SECTION
  2
HEADER
  9
$ACADVER
  1
AC1015
  9
$DWGCODEPAGE
  3
ANSI_1252
  9
$EXTMAX
 10
297.0
 20
210.0
 30
0.0
  9
$EXTMIN
 10
0.0
 20
0.0
 30
0.0
  9
$LIMMIN
 10
0.0
 20
0.0
  9
$LIMMAX
 10
297.0
 20
210.0
  9
$VIEWCTR
 10
148.5
 20
105.0
  9
$VIEWSIZE
 40
210.0
  9
$CLAYER
  8
0
  9
$LTSCALE
 40
16.335
  9
$CELTYPE
  6
BYLAYER
  9
$DIMSCALE
 40
1.0
  9
$DIMASZ
 40
3.0
  9
$DIMEXO
 40
0.5
  9
$DIMDLI
 40
11.286
  9
$DIMEXE
 40
1.5
  9
$DIMCEN
 40
2.673
  9
$DIMLFAC
 40
1.0
  9
$DIMBLK
  1
_FILLED
  9
$DIMALT
 70
0
  9
$DIMALTF
 40
0.0393700787
  9
$DIMTXT
 40
3.0
  9
$DIMTOL
 70
1
  9
$DIMLIM
 70
0
  9
$DIMTFAC
 40
1.0
  9
$DIMTP
 40
0.01
  9
$DIMTM
 40
0.01
  9
$DIMGAP
 40
0.625
  9
$DIMDSEP
 70
44
  9
$AUNITS
 70
0
  9
$PDMODE
 70
3
  9
$PDSIZE
 40
3.0
  9
$HANDSEED
  5
613
  9
$TILEMODE
 70
1
  9
$MEASUREMENT
 70
1
  9
$INSUNITS
 70
4
  0
ENDSEC
  0
SECTION
  2
CLASSES
  0
CLASS
  1
ACDBDICTIONARYWDFLT
  2
AcDbDictionaryWithDefault
  3
AutoCAD 2000
 90
0
280
0
281
0
  0
CLASS
  1
ACDBPLACEHOLDER
  2
AcDbPlaceHolder
  3
AutoCAD 2000
 90
0
280
0
281
0
  0
CLASS
  1
LAYOUT
  2
AcDbLayout
  3
AutoCAD 2000
 90
0
280
0
281
0
  0
ENDSEC
  0
SECTION
  2
TABLES
  0
TABLE
  2
VPORT
  5
8
100
AcDbSymbolTable
 70
2
  0
VPORT
  5
1F4
100
AcDbSymbolTableRecord
100
AcDbViewportTableRecord
  2
*ACTIVE
 70
0
 10
0.0
 20
0.0
 11
1.0
 21
1.0
 12
148.5
 22
105.0
 13
0.0
 23
0.0
 14
1.0
 24
1.0
 15
0.0
 25
0.0
 16
0.0
 26
0.0
 36
1.0
 17
0.0
 27
0.0
 37
0.0
 40
210.0
 41
1.4142857143
 42
50.0
 43
0.0
 44
0.0
 50
0.0
 51
0.0
 71
0
 72
100
 73
1
 74
1
 75
0
 76
0
 77
0
 78
0
  0
ENDTAB
  0
TABLE
  2
LTYPE
  5
5
100
AcDbSymbolTable
 70
6
  0
LTYPE
  5
14
100
AcDbSymbolTableRecord
100
AcDbLinetypeTableRecord
  2
BYBLOCK
 70
0
  3

 72
65
 73
0
 40
0.0
  0
LTYPE
  5
15
100
AcDbSymbolTableRecord
100
AcDbLinetypeTableRecord
  2
BYLAYER
 70
0
  3

 72
65
 73
0
 40
0.0
  0
LTYPE
  5
16
100
AcDbSymbolTableRecord
100
AcDbLinetypeTableRecord
  2
CONTINUOUS
 70
64
  3
Solid line
 72
65
 73
0
 40
0.0
  0
LTYPE
  5
1F5
100
AcDbSymbolTableRecord
100
AcDbLinetypeTableRecord
  2
CENTER
 70
64
  3
____ _ ____ _ ____ _ ____ _ ____ _ ____ _ ____
 72
65
 73
4
 40
0.6
 49
0.375
 74
0
 49
-0.075
 74
0
 49
0.075
 74
0
 49
-0.075
 74
0
  0
LTYPE
  5
1F6
100
AcDbSymbolTableRecord
100
AcDbLinetypeTableRecord
  2
HIDDEN
 70
64
  3
- - - - - - - - - - - - - - - - - - - -
 72
65
 73
2
 40
0.2
 49
0.1
 74
0
 49
-0.1
 74
0
  0
LTYPE
  5
1F7
100
AcDbSymbolTableRecord
100
AcDbLinetypeTableRecord
  2
PHANTOM
 70
64
  3
_____ _ _ _____ _ _ _____ _ _ _____
 72
65
 73
6
 40
0.8
 49
0.45
 74
0
 49
-0.05
 74
0
 49
0.1
 74
0
 49
-0.05
 74
0
 49
0.1
 74
0
 49
-0.05
 74
0
  0
LTYPE
  5
1F8
100
AcDbSymbolTableRecord
100
AcDbLinetypeTableRecord
  2
DOT
 70
64
  3
. . . . . . . . . . . . . . . . . . . .
 72
65
 73
2
 40
0.2
 49
0.1
 74
0
 49
-0.1
 74
0
  0
LTYPE
  5
1F9
100
AcDbSymbolTableRecord
100
AcDbLinetypeTableRecord
  2
DASHED
 70
64
  3
- - - - - - - - - - - - - - - - - - - -
 72
65
 73
2
 40
0.2
 49
0.1
 74
0
 49
-0.1
 74
0
  0
ENDTAB
  0
TABLE
  2
LAYER
  5
2
100
AcDbSymbolTable
 70
36
  0
LAYER
  5
10
100
AcDbSymbolTableRecord
100
AcDbLayerTableRecord
  2
0
 70
0
 62
7
  6
CONTINUOUS
370
-3
390
F
  0
LAYER
  5
1FA
100
AcDbSymbolTableRecord
100
AcDbLayerTableRecord
  2
DEFAULT_1
 70
0
 62
7
  6
CENTER
370
-3
390
F
  0
LAYER
  5
1FB
100
AcDbSymbolTableRecord
100
AcDbLayerTableRecord
  2
DEFAULT_2
 70
0
 62
7
  6
HIDDEN
370
-3
390
F
  0
LAYER
  5
1FC
100
AcDbSymbolTableRecord
100
AcDbLayerTableRecord
  2
DEFAULT_3
 70
0
 62
7
  6
PHANTOM
370
-3
390
F
  0
LAYER
  5
1FD
100
AcDbSymbolTableRecord
100
AcDbLayerTableRecord
  2
ASSI
 70
0
 62
7
  6
CONTINUOUS
370
-3
390
F
  0
LAYER
  5
1FE
100
AcDbSymbolTableRecord
100
AcDbLayerTableRecord
  2
COORDINATE
 70
0
 62
7
  6
CONTINUOUS
370
-3
390
F
  0
LAYER
  5
1FF
100
AcDbSymbolTableRecord
100
AcDbLayerTableRecord
  2
COPY_PUBLISH
 70
0
 62
7
  6
CONTINUOUS
370
-3
390
F
  0
LAYER
  5
200
100
AcDbSymbolTableRecord
100
AcDbLayerTableRecord
  2
COSMETICI
 70
0
 62
7
  6
CONTINUOUS
370
-3
390
F
  0
LAYER
  5
201
100
AcDbSymbolTableRecord
100
AcDbLayerTableRecord
  2
CURVE
 70
0
 62
7
  6
CONTINUOUS
370
-3
390
F
  0
LAYER
  5
202
100
AcDbSymbolTableRecord
100
AcDbLayerTableRecord
  2
DRAFT
 70
0
 62
7
  6
CONTINUOUS
370
-3
390
F
  0
LAYER
  5
203
100
AcDbSymbolTableRecord
100
AcDbLayerTableRecord
  2
IMPORT_IGES
 70
0
 62
7
  6
CONTINUOUS
370
-3
390
F
  0
LAYER
  5
204
100
AcDbSymbolTableRecord
100
AcDbLayerTableRecord
  2
NOTE
 70
0
 62
7
  6
CONTINUOUS
370
-3
390
F
  0
LAYER
  5
205
100
AcDbSymbolTableRecord
100
AcDbLayerTableRecord
  2
PIANI
 70
0
 62
7
  6
CONTINUOUS
370
-3
390
F
  0
LAYER
  5
206
100
AcDbSymbolTableRecord
100
AcDbLayerTableRecord
  2
PUNTI
 70
0
 62
7
  6
CONTINUOUS
370
-3
390
F
  0
LAYER
  5
207
100
AcDbSymbolTableRecord
100
AcDbLayerTableRecord
  2
RACCORDO
 70
0
 62
7
  6
CONTINUOUS
370
-3
390
F
  0
LAYER
  5
208
100
AcDbSymbolTableRecord
100
AcDbLayerTableRecord
  2
SIMBOLI
 70
0
 62
7
  6
CONTINUOUS
370
-3
390
F
  0
LAYER
  5
209
100
AcDbSymbolTableRecord
100
AcDbLayerTableRecord
  2
SMUSSO
 70
0
 62
7
  6
CONTINUOUS
370
-3
390
F
  0
LAYER
  5
20A
100
AcDbSymbolTableRecord
100
AcDbLayerTableRecord
  2
SNAPLINE
 70
0
 62
7
  6
CONTINUOUS
370
-3
390
F
  0
LAYER
  5
20B
100
AcDbSymbolTableRecord
100
AcDbLayerTableRecord
  2
SUPERFICI
 70
0
 62
7
  6
CONTINUOUS
370
-3
390
F
  0
LAYER
  5
20C
100
AcDbSymbolTableRecord
100
AcDbLayerTableRecord
  2
TRASH
 70
0
 62
7
  6
CONTINUOUS
370
-3
390
F
  0
ENDTAB
  0
TABLE
  2
STYLE
  5
3
100
AcDbSymbolTable
 70
1
  0
STYLE
  5
11
100
AcDbSymbolTableRecord
100
AcDbTextStyleTableRecord
  2
STANDARD
 70
0
 40
0.0
 41
0.8
 50
0.0
 71
0
 42
0.2
  3
txt
  4

  0
STYLE
  5
20D
100
AcDbSymbolTableRecord
100
AcDbTextStyleTableRecord
  2
TEXTSTYLE_1
 70
0
 40
0.0
 41
0.8
 50
0.0
 71
0
 42
0.2
  3
gdt
  4

  0
ENDTAB
  0
TABLE
  2
VIEW
  5
6
100
AcDbSymbolTable
 70
0
  0
ENDTAB
  0
TABLE
  2
UCS
  5
7
100
AcDbSymbolTable
 70
0
  0
ENDTAB
  0
TABLE
  2
APPID
  5
9
100
AcDbSymbolTable
 70
1
  0
APPID
  5
20E
100
AcDbSymbolTableRecord
100
AcDbRegAppTableRecord
  2
ACAD
 70
0
  0
ENDTAB
  0
TABLE
  2
BLOCK_RECORD
  5
1
100
AcDbSymbolTable
 70
0
  0
BLOCK_RECORD
  5
20F
100
AcDbSymbolTableRecord
100
AcDbBlockTableRecord
  2
*Model_Space
  0
BLOCK_RECORD
  5
210
100
AcDbSymbolTableRecord
100
AcDbBlockTableRecord
  2
*Paper_Space
  0
BLOCK_RECORD
  5
211
100
AcDbSymbolTableRecord
100
AcDbBlockTableRecord
  2
_FILLED
  0
BLOCK_RECORD
  5
212
100
AcDbSymbolTableRecord
100
AcDbBlockTableRecord
  2
*D0
  0
BLOCK_RECORD
  5
213
100
AcDbSymbolTableRecord
100
AcDbBlockTableRecord
  2
*D1
  0
BLOCK_RECORD
  5
214
100
AcDbSymbolTableRecord
100
AcDbBlockTableRecord
  2
*D2
  0
ENDTAB
  0
TABLE
  2
DIMSTYLE
  5
A
100
AcDbSymbolTable
 70
1
100
AcDbDimStyleTable
 71
0
  0
DIMSTYLE
105
215
100
AcDbSymbolTableRecord
100
AcDbDimStyleTableRecord
  2
STANDARD
 70
0
  3

  4

 40
1.0
 41
3.0
 42
0.5
 43
0.38
 44
1.5
 45
0.0
 46
0.0
 47
0.01
 48
0.01
140
3.0
141
0.09
142
0.0
143
25.4
144
1.0
145
0.0
146
1.0
147
0.625
 71
1.0
 72
0.0
 73
0
 74
0
 75
0
 76
0
 77
1
 78
8
170
0
171
2
172
0
173
0
174
0
175
0
176
0
177
0
178
0
270
2
271
2
272
2
273
2
274
2
275
0
280
0
281
0
282
0
283
1
284
8
285
0
286
0
287
3
288
0
340
11
278
44
341
211
342
211
343
211
344
211
  0
DIMSTYLE
105
216
100
AcDbSymbolTableRecord
100
AcDbDimStyleTableRecord
  2
DIMSTYLE_1
 70
0
  3

  4

 40
1.0
 41
3.0
 42
0.5
 43
0.38
 44
1.5
 45
0.0
 46
0.0
 47
0.0
 48
0.0
140
3.0
141
0.09
142
0.0
143
25.4
144
1.0
145
0.0
146
1.0
147
0.75
 71
0.0
 72
0.0
 73
0
 74
0
 75
0
 76
0
 77
1
 78
8
170
0
171
2
172
0
173
0
174
0
175
0
176
0
177
0
178
0
270
2
271
2
272
2
273
2
274
2
275
0
280
0
281
0
282
0
283
1
284
8
285
0
286
0
287
3
288
0
340
11
278
44
341
211
342
211
343
211
344
211
  0
ENDTAB
  0
ENDSEC
  0
SECTION
  2
BLOCKS
  0
BLOCK
  5
20
100
AcDbEntity
  8
0
100
AcDbBlockBegin
  2
*Model_Space
 70
0
 10
0.0
 20
0.0
 30
0.0
  3
*Model_Space
  1

  0
ENDBLK
  5
21
100
AcDbEntity
  8
0
100
AcDbBlockEnd
  0
BLOCK
  5
1C
100
AcDbEntity
  8
0
100
AcDbBlockBegin
  2
*Paper_Space
 70
0
 10
0.0
 20
0.0
 30
0.0
  3
*Paper_Space
  1

  0
ENDBLK
  5
1D
100
AcDbEntity
  8
0
100
AcDbBlockEnd
  0
BLOCK
  5
217
100
AcDbEntity
  8
0
100
AcDbBlockBegin
  2
_FILLED
 70
64
 10
0.0
 20
0.0
  3
_FILLED
  1

  0
SOLID
  5
218
100
AcDbEntity
  8
0
  6
BYBLOCK
 62
0
100
AcDbTrace
 10
0.0
 20
0.0
 11
-1.0
 21
0.3166666667
 12
-1.0
 22
-0.3166666667
 13
-1.0
 23
-0.3166666667
  0
ENDBLK
  5
219
100
AcDbEntity
  8
0
  6
BYBLOCK
 62
0
100
AcDbBlockEnd
  0
BLOCK
  5
21A
100
AcDbEntity
  8
0
100
AcDbBlockBegin
 62
7
  6
CONTINUOUS
  2
*D0
 70
65
 10
0.0
 20
0.0
  3
*D0
  1

  0
MTEXT
  5
21B
100
AcDbEntity
  8
0
100
AcDbMText
 62
7
  6
CONTINUOUS
  7
STANDARD
 71
2
 72
1
 10
-31.2362465263
 20
20.8780160858
 30
0.0
 11
1.0
 21
0.0
 31
0.0
 44
0.9
  1
87,75
 40
3.0
 41
16.3928571429
  0
LINE
  5
21C
100
AcDbEntity
  8
0
100
AcDbLine
 62
7
  6
CONTINUOUS
 10
-75.1112465263
 20
-0.1719839142
 11
-75.1112465263
 21
18.6280160858
  0
LINE
  5
21D
100
AcDbEntity
  8
0
100
AcDbLine
 62
7
  6
CONTINUOUS
 10
12.6387534737
 20
-7.8719839142
 11
12.6387534737
 21
18.6280160858
  0
LINE
  5
21E
100
AcDbEntity
  8
0
100
AcDbLine
 62
7
  6
CONTINUOUS
 10
-75.1112465263
 20
17.1280160858
 11
-31.2362465263
 21
17.1280160858
  0
LINE
  5
21F
100
AcDbEntity
  8
0
100
AcDbLine
 62
7
  6
CONTINUOUS
 10
12.6387534737
 20
17.1280160858
 11
-31.2362465263
 21
17.1280160858
  0
INSERT
  5
220
100
AcDbEntity
  8
0
100
AcDbBlockReference
 62
7
  6
CONTINUOUS
  2
_FILLED
 10
-75.1112465263
 20
17.1280160858
 41
3.0
 42
3.0
 43
3.0
 50
180.0
  0
INSERT
  5
221
100
AcDbEntity
  8
0
100
AcDbBlockReference
 62
7
  6
CONTINUOUS
  2
_FILLED
 10
12.6387534737
 20
17.1280160858
 41
3.0
 42
3.0
 43
3.0
 50
0.0
  0
ENDBLK
  5
222
100
AcDbEntity
  8
0
  6
BYBLOCK
 62
0
100
AcDbBlockEnd
  0
BLOCK
  5
223
100
AcDbEntity
  8
0
100
AcDbBlockBegin
 62
7
  6
CONTINUOUS
  2
*D1
 70
65
 10
0.0
 20
0.0
  3
*D1
  1

  0
MTEXT
  5
224
100
AcDbEntity
  8
0
100
AcDbMText
 62
7
  6
CONTINUOUS
  7
STANDARD
 71
2
 72
1
 10
-128.8235767631
 20
20.8780160858
 30
0.0
 11
1.0
 21
0.0
 31
0.0
 44
0.9
  1
13,7
 40
3.0
 41
11.8928571429
  0
LINE
  5
225
100
AcDbEntity
  8
0
100
AcDbLine
 62
7
  6
CONTINUOUS
 10
-135.6735767631
 20
8.7295718948
 11
-135.6735767631
 21
18.6280160858
  0
LINE
  5
226
100
AcDbEntity
  8
0
100
AcDbLine
 62
7
  6
CONTINUOUS
 10
-121.9735767631
 20
-6.3719839142
 11
-121.9735767631
 21
18.6280160858
  0
LINE
  5
227
100
AcDbEntity
  8
0
100
AcDbLine
 62
7
  6
CONTINUOUS
 10
-135.6735767631
 20
17.1280160858
 11
-139.6735767631
 21
17.1280160858
  0
LINE
  5
228
100
AcDbEntity
  8
0
100
AcDbLine
 62
7
  6
CONTINUOUS
 10
-139.6735767631
 20
17.1280160858
 11
-128.8235767631
 21
17.1280160858
  0
LINE
  5
229
100
AcDbEntity
  8
0
100
AcDbLine
 62
7
  6
CONTINUOUS
 10
-121.9735767631
 20
17.1280160858
 11
-117.9735767631
 21
17.1280160858
  0
LINE
  5
22A
100
AcDbEntity
  8
0
100
AcDbLine
 62
7
  6
CONTINUOUS
 10
-117.9735767631
 20
17.1280160858
 11
-128.8235767631
 21
17.1280160858
  0
INSERT
  5
22B
100
AcDbEntity
  8
0
100
AcDbBlockReference
 62
7
  6
CONTINUOUS
  2
_FILLED
 10
-135.6735767631
 20
17.1280160858
 41
3.0
 42
3.0
 43
3.0
  0
INSERT
  5
22C
100
AcDbEntity
  8
0
100
AcDbBlockReference
 62
7
  6
CONTINUOUS
  2
_FILLED
 10
-121.9735767631
 20
17.1280160858
 41
3.0
 42
3.0
 43
3.0
 50
180.0
  0
ENDBLK
  5
22D
100
AcDbEntity
  8
0
  6
BYBLOCK
 62
0
100
AcDbBlockEnd
  0
BLOCK
  5
22E
100
AcDbEntity
  8
0
100
AcDbBlockBegin
 62
7
  6
CONTINUOUS
  2
*D2
 70
65
 10
0.0
 20
0.0
  3
*D2
  1

  0
MTEXT
  5
22F
100
AcDbEntity
  8
0
100
AcDbMText
 62
7
  6
CONTINUOUS
  7
STANDARD
 71
2
 72
1
 10
16.8737945174
 20
-48.3719839142
 30
0.0
 11
0.0
 21
1.0
 31
0.0
 44
0.9
  1
114,5
 40
3.0
 41
14.4642857143
  0
LINE
  5
230
100
AcDbEntity
  8
0
100
AcDbLine
 62
7
  6
CONTINUOUS
 10
6.2388296261
 20
8.8780160858
 11
22.1237945174
 21
8.8780160858
  0
LINE
  5
231
100
AcDbEntity
  8
0
100
AcDbLine
 62
7
  6
CONTINUOUS
 10
6.2388296261
 20
-105.6219839142
 11
22.1237945174
 21
-105.6219839142
  0
LINE
  5
232
100
AcDbEntity
  8
0
100
AcDbLine
 62
7
  6
CONTINUOUS
 10
20.6237945174
 20
8.8780160858
 11
20.6237945174
 21
-48.3719839142
  0
LINE
  5
233
100
AcDbEntity
  8
0
100
AcDbLine
 62
7
  6
CONTINUOUS
 10
20.6237945174
 20
-105.6219839142
 11
20.6237945174
 21
-48.3719839142
  0
INSERT
  5
234
100
AcDbEntity
  8
0
100
AcDbBlockReference
 62
7
  6
CONTINUOUS
  2
_FILLED
 10
20.6237945174
 20
8.8780160858
 41
3.0
 42
3.0
 43
3.0
 50
90.0
  0
INSERT
  5
235
100
AcDbEntity
  8
0
100
AcDbBlockReference
 62
7
  6
CONTINUOUS
  2
_FILLED
 10
20.6237945174
 20
-105.6219839142
 41
3.0
 42
3.0
 43
3.0
 50
270.0
  0
ENDBLK
  5
236
100
AcDbEntity
  8
0
  6
BYBLOCK
 62
0
100
AcDbBlockEnd
  0
ENDSEC
  0
SECTION
  2
ENTITIES
  0
DIMENSION
  5
237
100
AcDbEntity
  8
0
100
AcDbDimension
 62
7
  6
CONTINUOUS
  2
*D0
 10
12.6387534737
 20
17.1280160858
 11
-31.6648175125
 21
17.1280160858
 70
160
 71
2
 42
87.75
  3
DIMSTYLE_1
100
AcDbAlignedDimension
 13
-75.1112465263
 23
-0.6719839142
 14
12.6387534737
 24
-8.3719839142
100
AcDbRotatedDimension
  0
DIMENSION
  5
238
100
AcDbEntity
  8
0
100
AcDbDimension
 62
7
  6
CONTINUOUS
  2
*D1
 10
-121.9735767631
 20
17.1280160858
 11
-129.252146759
 21
17.1280160858
 70
160
 71
2
 42
13.7
  3
DIMSTYLE_1
100
AcDbAlignedDimension
 13
-135.6735767631
 23
8.2295718948
 14
-121.9735767631
 24
-6.8719839142
100
AcDbRotatedDimension
  0
DIMENSION
  5
239
100
AcDbEntity
  8
0
100
AcDbDimension
 62
7
  6
CONTINUOUS
  2
*D2
 10
20.6237945174
 20
-105.6219839142
 11
20.6237945174
 21
-48.8005552124
 70
160
 71
2
 42
114.5
  3
DIMSTYLE_1
100
AcDbAlignedDimension
 13
5.7388296261
 23
8.8780160858
 14
5.7388296261
 24
-105.6219839142
 50
270.0
100
AcDbRotatedDimension
  0
LWPOLYLINE
  5
23A
100
AcDbEntity
  8
RACCORDO
100
AcDbPolyline
 62
253
  6
CONTINUOUS
 90
9
 70
0
 10
-67.1341119779
 20
8.750805385
 10
-67.13675
 20
8.7482075667
 10
-67.1398680694
 20
8.7419018955
 10
-67.1431948595
 20
8.7319158812
 10
-67.1461853935
 20
8.7183573342
 10
-67.1488398388
 20
8.7013496804
 10
-67.151672326
 20
8.6809632606
 10
-67.1543467058
 20
8.6573539158
 10
-67.1589793158
 20
8.6013437457
  0
LWPOLYLINE
  5
23B
100
AcDbEntity
  8
RACCORDO
100
AcDbPolyline
 62
253
  6
CONTINUOUS
 90
22
 70
0
 10
-68.0017496128
 20
-105.300994597
 10
-67.9769528796
 20
-105.3067145168
 10
-67.9515718193
 20
-105.3136915079
 10
-67.9256923826
 20
-105.3217602472
 10
-67.8996316566
 20
-105.3303423996
 10
-67.8732450063
 20
-105.339749741
 10
-67.8458867711
 20
-105.3509980366
 10
-67.8176700503
 20
-105.363499545
 10
-67.788563651
 20
-105.3772975609
 10
-67.7575213825
 20
-105.3939052106
 10
-67.7238360302
 20
-105.4131633262
 10
-67.6878898077
 20
-105.4340393668
 10
-67.649845315
 20
-105.4564128697
 10
-67.6085281026
 20
-105.480359756
 10
-67.5640153084
 20
-105.5043077187
 10
-67.5182580402
 20
-105.5261524261
 10
-67.4712190295
 20
-105.5456039963
 10
-67.4223894687
 20
-105.5622763819
 10
-67.3735388346
 20
-105.5750664316
 10
-67.3254228554
 20
-105.5839067505
 10
-67.2775292561
 20
-105.5891007146
 10
-67.2299949517
 20
-105.5906558823
  0
LWPOLYLINE
  5
23C
100
AcDbEntity
  8
RACCORDO
100
AcDbPolyline
 62
253
  6
CONTINUOUS
 90
8
 70
0
 10
-67.1341119779
 20
-105.4947732134
 10
-67.1367499963
 20
-105.4921754025
 10
-67.1398680608
 20
-105.4858697498
 10
-67.143194846
 20
-105.4758837634
 10
-67.1461853759
 20
-105.4623252526
 10
-67.1488398188
 20
-105.4453176404
 10
-67.1516723049
 20
-105.4249312639
 10
-67.1543466835
 20
-105.4013219607
  0
LWPOLYLINE
  5
23D
100
AcDbEntity
  8
RACCORDO
100
AcDbPolyline
 62
253
  6
CONTINUOUS
 90
22
 70
0
 10
5.7177921584
 20
-105.3009921379
 10
5.7328244888
 20
-105.3004160096
 10
5.7476224019
 20
-105.2987529443
 10
5.7621858975
 20
-105.2960029419
 10
5.7765978896
 20
-105.292138424
 10
5.7907754643
 20
-105.287186969
 10
5.80446988
 20
-105.2812313126
 10
5.817668679
 20
-105.2742550154
 10
5.830384319
 20
-105.2662745168
 10
5.8424054314
 20
-105.2574218704
 10
5.8537204185
 20
-105.2476824145
 10
5.864340878
 20
-105.2370708109
 10
5.8740902347
 20
-105.2257630992
 10
5.8829539794
 20
-105.213747647
 10
5.8909466212
 20
-105.2010360866
 10
5.8979351131
 20
-105.1878393552
 10
5.9039029254
 20
-105.1741488632
 10
5.9088665878
 20
-105.1599732001
 10
5.912742642
 20
-105.1455490716
 10
5.9155032686
 20
-105.1309553794
 10
5.9171762871
 20
-105.1161132219
 10
5.9177616974
 20
-105.1010225989
  0
LWPOLYLINE
  5
23E
100
AcDbEntity
  8
RACCORDO
100
AcDbPolyline
 62
253
  6
CONTINUOUS
 90
22
 70
0
 10
1.6116189254
 20
-105.4947732134
 10
1.6490247795
 20
-105.493360445
 10
1.6862199152
 20
-105.4891529994
 10
1.7229958404
 20
-105.4821746907
 10
1.7591454215
 20
-105.4724651773
 10
1.7944671503
 20
-105.4600789434
 10
1.8287660142
 20
-105.4450842357
 10
1.8618531646
 20
-105.4275625709
 10
1.8935389614
 20
-105.4076132928
 10
1.9236381804
 20
-105.3853536722
 10
1.951977726
 20
-105.3609147168
 10
1.9784058828
 20
-105.3344304407
 10
2.0027835515
 20
-105.3060405223
 10
2.0249807212
 20
-105.275892263
 10
2.0448629949
 20
-105.2441636864
 10
2.062306081
 20
-105.2110566326
 10
2.0772193736
 20
-105.1767517648
 10
2.0895201021
 20
-105.1414496379
 10
2.0991330518
 20
-105.1053979937
 10
2.1060177342
 20
-105.0688182356
 10
2.1101566276
 20
-105.0319001511
 10
2.1115427729
 20
-104.9948493658
  0
LWPOLYLINE
  5
23F
100
AcDbEntity
  8
RACCORDO
100
AcDbPolyline
 62
253
  6
CONTINUOUS
 90
22
 70
0
 10
5.7177921584
 20
-105.6009464464
 10
5.7551490166
 20
-105.5995421133
 10
5.7922965881
 20
-105.5953505184
 10
5.8290272303
 20
-105.5883951315
 10
5.8651356458
 20
-105.5787148861
 10
5.9004199861
 20
-105.5663639145
 10
5.93468298
 20
-105.5514112452
 10
5.9677331056
 20
-105.533940484
 10
5.9993856257
 20
-105.5140493287
 10
6.0294635778
 20
-105.4918489793
 10
6.0577987933
 20
-105.4674635841
 10
6.0842329372
 20
-105.4410294574
 10
6.1086183345
 20
-105.4126942781
 10
6.1308186631
 20
-105.3826164038
 10
6.1507097952
 20
-105.3509639886
 10
6.1681805649
 20
-105.3179139348
 10
6.1831332752
 20
-105.2836509502
 10
6.1954842992
 20
-105.2483665755
 10
6.2051645983
 20
-105.2122580895
 10
6.2121200321
 20
-105.1755273433
 10
6.2163116605
 20
-105.1383796318
 10
6.2177160059
 20
-105.1010225989
  0
LWPOLYLINE
  5
240
100
AcDbEntity
  8
RACCORDO
100
AcDbPolyline
 62
253
  6
CONTINUOUS
 90
22
 70
0
 10
1.7075019098
 20
-105.5906561979
 10
1.7550540712
 20
-105.5890996909
 10
1.8029619595
 20
-105.5839011601
 10
1.8510894833
 20
-105.5750565873
 10
1.8999650033
 20
-105.5622552488
 10
1.9488190882
 20
-105.5455689135
 10
1.9958325946
 20
-105.5261176605
 10
2.0414681497
 20
-105.5043264886
 10
2.0858080538
 20
-105.4804787756
 10
2.1269918644
 20
-105.4566254841
 10
2.1649702414
 20
-105.4342964028
 10
2.2008781398
 20
-105.4134295572
 10
2.2345546277
 20
-105.3941652714
 10
2.2656372569
 20
-105.3775298574
 10
2.2948209779
 20
-105.3636750543
 10
2.3231129012
 20
-105.3511187179
 10
2.3505336799
 20
-105.3398339333
 10
2.3769825894
 20
-105.3303975331
 10
2.4030979886
 20
-105.3217905818
 10
2.4290212163
 20
-105.3137012567
 10
2.4544370116
 20
-105.3067111587
 10
2.4792586142
 20
-105.3009871584
  0
LINE
  5
241
100
AcDbEntity
  8
RACCORDO
100
AcDbLine
 62
7
  6
CONTINUOUS
 10
-68.7613226787
 20
-105.6219839142
 11
-63.2612465263
 21
-105.6219839142
  0
LINE
  5
242
100
AcDbEntity
  8
DRAFT
100
AcDbLine
 62
7
  6
CONTINUOUS
 10
-63.2612465263
 20
-105.6219839142
 11
-2.2612465263
 21
-105.6219839142
  0
LINE
  5
243
100
AcDbEntity
  8
RACCORDO
100
AcDbLine
 62
7
  6
CONTINUOUS
 10
-2.2612465263
 20
-105.6219839142
 11
5.7388296261
 21
-105.6219839142
  0
LINE
  5
244
100
AcDbEntity
  8
RACCORDO
100
AcDbLine
 62
253
  6
CONTINUOUS
 10
-68.7402852109
 20
-105.6009464464
 11
-68.0017502915
 21
-105.6009464472
  0
LINE
  5
245
100
AcDbEntity
  8
RACCORDO
100
AcDbLine
 62
253
  6
CONTINUOUS
 10
2.4792572536
 20
-105.6009464477
 11
5.7177921584
 21
-105.6009464464
  0
LWPOLYLINE
  5
246
100
AcDbEntity
  8
RACCORDO
100
AcDbPolyline
 62
253
  6
CONTINUOUS
 90
22
 70
0
 10
-67.1341119779
 20
-105.4947732134
 10
-67.1715178318
 20
-105.493360445
 10
-67.2087129672
 20
-105.4891529995
 10
-67.2454888921
 20
-105.4821746909
 10
-67.281638473
 20
-105.4724651777
 10
-67.3169602016
 20
-105.4600789439
 10
-67.3512590652
 20
-105.4450842365
 10
-67.3843462155
 20
-105.4275625719
 10
-67.4160320121
 20
-105.4076132941
 10
-67.446131231
 20
-105.3853536738
 10
-67.4744707766
 20
-105.3609147186
 10
-67.5008989335
 20
-105.3344304426
 10
-67.5252766023
 20
-105.3060405245
 10
-67.5474737719
 20
-105.2758922658
 10
-67.5673560455
 20
-105.2441636898
 10
-67.5847991317
 20
-105.2110566364
 10
-67.5997124247
 20
-105.1767517686
 10
-67.6120131536
 20
-105.1414496412
 10
-67.6216261037
 20
-105.1053979964
 10
-67.6285107864
 20
-105.0688182376
 10
-67.6326496801
 20
-105.0319001522
 10
-67.6340358255
 20
-104.9948493659
  0
LWPOLYLINE
  5
247
100
AcDbEntity
  8
RACCORDO
100
AcDbPolyline
 62
253
  6
CONTINUOUS
 90
24
 70
0
 10
-67.2634310705
 20
-105.5895435123
 10
-67.2967054196
 20
-105.586199409
 10
-67.3296695141
 20
-105.5806410984
 10
-67.3622311417
 20
-105.5728807316
 10
-67.39418883
 20
-105.5629627991
 10
-67.425243705
 20
-105.5510000858
 10
-67.4552430642
 20
-105.5370934049
 10
-67.4841006169
 20
-105.5213258088
 10
-67.5116463762
 20
-105.5038392487
 10
-67.5377280421
 20
-105.4847987775
 10
-67.5623336638
 20
-105.4642839995
 10
-67.5855063407
 20
-105.4423031873
 10
-67.6071786943
 20
-105.4189427367
 10
-67.6272596533
 20
-105.3943246976
 10
-67.6457344798
 20
-105.3684820906
 10
-67.6625117487
 20
-105.3415492046
 10
-67.6775451108
 20
-105.3136074308
 10
-67.690850788
 20
-105.284588095
 10
-67.7023260133
 20
-105.2546364898
 10
-67.7119086909
 20
-105.2238221491
 10
-67.7195902326
 20
-105.1919372646
 10
-67.7252521743
 20
-105.1589851876
 10
-67.7287358864
 20
-105.1252019531
 10
-67.7299187993
 20
-105.0907323396
  0
LINE
  5
248
100
AcDbEntity
  8
RACCORDO
100
AcDbLine
 62
253
  6
CONTINUOUS
 10
-67.3373473287
 20
-105.5937411718
 11
-67.2299949517
 21
-105.5906561872
  0
LINE
  5
249
100
AcDbEntity
  8
RACCORDO
100
AcDbLine
 62
253
  6
CONTINUOUS
 10
-67.4298921391
 20
-105.5958934241
 11
-67.3373473287
 21
-105.5937411718
  0
LINE
  5
24A
100
AcDbEntity
  8
RACCORDO
100
AcDbLine
 62
253
  6
CONTINUOUS
 10
-67.548417598
 20
-105.5979463928
 11
-67.4298921391
 21
-105.5958934241
  0
LINE
  5
24B
100
AcDbEntity
  8
RACCORDO
100
AcDbLine
 62
253
  6
CONTINUOUS
 10
-67.6799574507
 20
-105.5995030496
 11
-67.548417598
 21
-105.5979463928
  0
LINE
  5
24C
100
AcDbEntity
  8
RACCORDO
100
AcDbLine
 62
253
  6
CONTINUOUS
 10
-67.8622752266
 20
-105.6006832911
 11
-67.6799574507
 21
-105.5995030496
  0
LINE
  5
24D
100
AcDbEntity
  8
RACCORDO
100
AcDbLine
 62
253
  6
CONTINUOUS
 10
-53.4198952621
 20
-104.9812151282
 11
-67.1695844913
 21
-104.9948493659
  0
LINE
  5
24E
100
AcDbEntity
  8
RACCORDO
100
AcDbLine
 62
253
  6
CONTINUOUS
 10
-68.0017502915
 20
-105.6009464472
 11
-67.8622752266
 21
-105.6006832911
  0
LINE
  5
24F
100
AcDbEntity
  8
RACCORDO
100
AcDbLine
 62
253
  6
CONTINUOUS
 10
-44.2292371843
 20
-105.4758330753
 11
-67.1341119779
 21
-105.4947732134
  0
LINE
  5
250
100
AcDbEntity
  8
RACCORDO
100
AcDbLine
 62
253
  6
CONTINUOUS
 10
-39.6497337045
 20
-104.9743927423
 11
-53.4198952621
 21
-104.9812151282
  0
LINE
  5
251
100
AcDbEntity
  8
RACCORDO
100
AcDbLine
 62
253
  6
CONTINUOUS
 10
-30.4671922518
 20
-105.473558549
 11
-44.2292371843
 21
-105.4758330753
  0
LINE
  5
252
100
AcDbEntity
  8
RACCORDO
100
AcDbLine
 62
253
  6
CONTINUOUS
 10
-68.7402852109
 20
-105.3009921379
 11
-68.0017500078
 21
-105.300993367
  0
LINE
  5
253
100
AcDbEntity
  8
RACCORDO
100
AcDbLine
 62
253
  6
CONTINUOUS
 10
2.4792581273
 20
-105.3009896485
 11
5.7177921584
 21
-105.3009921379
  0
LINE
  5
254
100
AcDbEntity
  8
RACCORDO
100
AcDbLine
 62
253
  6
CONTINUOUS
 10
5.9177616974
 20
-105.1010225989
 11
6.2177160059
 21
-105.1010225989
  0
LINE
  5
255
100
AcDbEntity
  8
RACCORDO
100
AcDbLine
 62
253
  6
CONTINUOUS
 10
-68.94025475
 20
-105.1010225989
 11
-69.2402090585
 21
-105.1010225998
  0
LINE
  5
256
100
AcDbEntity
  8
RACCORDO
100
AcDbLine
 62
253
  6
CONTINUOUS
 10
2.2074257467
 20
-105.0907323396
 11
2.5073800553
 21
-105.0907323396
  0
LINE
  5
257
100
AcDbEntity
  8
RACCORDO
100
AcDbLine
 62
253
  6
CONTINUOUS
 10
-67.7299187993
 20
-105.0907323396
 11
-68.0298731078
 21
-105.0907323396
  0
LINE
  5
258
100
AcDbEntity
  8
RACCORDO
100
AcDbLine
 62
253
  6
CONTINUOUS
 10
-67.1695844913
 20
-104.9948493659
 11
-67.6340358255
 21
-104.9948493659
  0
LINE
  5
259
100
AcDbEntity
  8
RACCORDO
100
AcDbLine
 62
253
  6
CONTINUOUS
 10
-25.8727443971
 20
-104.9743927459
 11
-39.6497337045
 21
-104.9743927423
  0
LINE
  5
25A
100
AcDbEntity
  8
RACCORDO
100
AcDbLine
 62
253
  6
CONTINUOUS
 10
-16.7074250135
 20
-105.4781076002
 11
-30.4671922518
 21
-105.473558549
  0
LINE
  5
25B
100
AcDbEntity
  8
RACCORDO
100
AcDbLine
 62
253
  6
CONTINUOUS
 10
-12.1025888003
 20
-104.981215135
 11
-25.8727443971
 21
-104.9743927459
  0
LWPOLYLINE
  5
25C
100
AcDbEntity
  8
RACCORDO
100
AcDbPolyline
 62
253
  6
CONTINUOUS
 90
3
 70
0
 10
1.6116189254
 20
-105.4947732134
 10
-2.9646014081
 20
-105.4894716051
 10
-16.7074250135
 20
-105.4781076002
  0
LINE
  5
25D
100
AcDbEntity
  8
RACCORDO
100
AcDbLine
 62
253
  6
CONTINUOUS
 10
2.1115427729
 20
-104.9948493659
 11
-12.1025888003
 21
-104.981215135
  0
LINE
  5
25E
100
AcDbEntity
  8
RACCORDO
100
AcDbLine
 62
253
  6
CONTINUOUS
 10
2.293454474
 20
-105.6004777516
 11
2.4792572536
 21
-105.6009464477
  0
LINE
  5
25F
100
AcDbEntity
  8
RACCORDO
100
AcDbLine
 62
253
  6
CONTINUOUS
 10
2.1569221835
 20
-105.599497841
 11
2.293454474
 21
-105.6004777516
  0
LINE
  5
260
100
AcDbEntity
  8
RACCORDO
100
AcDbLine
 62
253
  6
CONTINUOUS
 10
2.0253423585
 20
-105.5979381961
 11
2.1569221835
 21
-105.599497841
  0
LINE
  5
261
100
AcDbEntity
  8
RACCORDO
100
AcDbLine
 62
253
  6
CONTINUOUS
 10
1.9071963503
 20
-105.5958894703
 11
2.0253423585
 21
-105.5979381961
  0
LINE
  5
262
100
AcDbEntity
  8
RACCORDO
100
AcDbLine
 62
253
  6
CONTINUOUS
 10
1.8149159544
 20
-105.5937425536
 11
1.9071963503
 21
-105.5958894703
  0
LINE
  5
263
100
AcDbEntity
  8
RACCORDO
100
AcDbLine
 62
253
  6
CONTINUOUS
 10
1.7075018991
 20
-105.5906561872
 11
1.8149159544
 21
-105.5937425536
  0
LWPOLYLINE
  5
264
100
AcDbEntity
  8
RACCORDO
100
AcDbPolyline
 62
7
  6
CONTINUOUS
 90
7
 70
0
 10
8.2437161175
 20
-88.6257000233
 10
8.2555934103
 20
-88.623021021
 10
8.2662354176
 20
-88.6190069388
 10
8.2755992978
 20
-88.613694637
 10
8.2836391533
 20
-88.6071279562
 10
8.2903064524
 20
-88.5993579635
 10
8.2955504956
 20
-88.5904432002
  0
LWPOLYLINE
  5
265
100
AcDbEntity
  8
RACCORDO
100
AcDbPolyline
 62
253
  6
CONTINUOUS
 90
13
 70
0
 10
8.2384948375
 20
-88.7097156961
 10
8.2207206646
 20
-88.7136998742
 10
8.2027677686
 20
-88.7195171639
 10
8.1848532529
 20
-88.7272922973
 10
8.1670832411
 20
-88.7372152358
 10
8.1498953891
 20
-88.7492994383
 10
8.1339568248
 20
-88.7632332432
 10
8.1194756204
 20
-88.7789045758
 10
8.1066590426
 20
-88.7961648591
 10
8.0959353639
 20
-88.8143835588
 10
8.0873904364
 20
-88.8331384939
 10
8.0809191732
 20
-88.8523294839
 10
8.0764852556
 20
-88.871725278
  0
LWPOLYLINE
  5
266
100
AcDbEntity
  8
RACCORDO
100
AcDbPolyline
 62
253
  6
CONTINUOUS
 90
13
 70
0
 10
8.2471653475
 20
-88.7588886015
 10
8.2334884975
 20
-88.7617500367
 10
8.2200395515
 20
-88.7661562554
 10
8.2068185096
 20
-88.7721072575
 10
8.1935330418
 20
-88.7797042889
 10
8.1804754781
 20
-88.7888461039
 10
8.1685228082
 20
-88.7992289646
 10
8.1578231171
 20
-88.8109955078
 10
8.1482283199
 20
-88.8240030968
 10
8.1401711522
 20
-88.8375200841
 10
8.1337958591
 20
-88.8513025871
 10
8.1289581953
 20
-88.8655944884
 10
8.1256581611
 20
-88.8803957879
  0
LWPOLYLINE
  5
267
100
AcDbEntity
  8
RACCORDO
100
AcDbPolyline
 62
253
  6
CONTINUOUS
 90
7
 70
0
 10
-68.0017500078
 20
-105.300993367
 10
-68.0101789368
 20
-105.2675631934
 10
-68.0171111676
 20
-105.2334876875
 10
-68.0225467001
 20
-105.1987668492
 10
-68.0264855343
 20
-105.1634006784
 10
-68.0289276702
 20
-105.1273891752
 10
-68.0298731078
 20
-105.0907323396
  0
LINE
  5
268
100
AcDbEntity
  8
0
100
AcDbLine
 62
7
  6
CONTINUOUS
 10
-75.1112465263
 20
-0.6719839142
 11
-75.1112465263
 21
-4.6719839142
  0
LINE
  5
269
100
AcDbEntity
  8
0
100
AcDbLine
 62
7
  6
CONTINUOUS
 10
-75.1112465263
 20
-82.6719839142
 11
-75.1112465263
 21
-86.6719839142
  0
LWPOLYLINE
  5
26A
100
AcDbEntity
  8
RACCORDO
100
AcDbPolyline
 62
7
  6
CONTINUOUS
 90
7
 70
0
 10
7.2337909063
 20
-88.1182677792
 10
7.2219135418
 20
-88.1209467705
 10
7.211271491
 20
-88.1249608441
 10
7.2019075959
 20
-88.1302731378
 10
7.1938677542
 20
-88.1368398095
 10
7.1872004975
 20
-88.1446097905
 10
7.181956525
 20
-88.1535245381
  0
LWPOLYLINE
  5
26B
100
AcDbEntity
  8
RACCORDO
100
AcDbPolyline
 62
253
  6
CONTINUOUS
 90
13
 70
0
 10
7.2390121099
 20
-88.0342521323
 10
7.2567862828
 20
-88.0302679543
 10
7.2747391788
 20
-88.0244506645
 10
7.2926536946
 20
-88.0166755311
 10
7.3104237064
 20
-88.0067525926
 10
7.3276115583
 20
-87.9946683901
 10
7.3435501226
 20
-87.9807345852
 10
7.358031327
 20
-87.9650632526
 10
7.3708479048
 20
-87.9478029693
 10
7.3815715835
 20
-87.9295842696
 10
7.3901165111
 20
-87.9108293345
 10
7.3965877742
 20
-87.8916383445
 10
7.4010216918
 20
-87.8722425504
  0
LWPOLYLINE
  5
26C
100
AcDbEntity
  8
RACCORDO
100
AcDbPolyline
 62
253
  6
CONTINUOUS
 90
13
 70
0
 10
7.2303416
 20
-87.9850792269
 10
7.24401845
 20
-87.9822177917
 10
7.2574673959
 20
-87.977811573
 10
7.2706884378
 20
-87.9718605709
 10
7.2839739056
 20
-87.9642635395
 10
7.2970314694
 20
-87.9551217246
 10
7.3089841392
 20
-87.9447388638
 10
7.3196838303
 20
-87.9329723206
 10
7.3292786275
 20
-87.9199647316
 10
7.3373357952
 20
-87.9064477443
 10
7.3437110884
 20
-87.8926652413
 10
7.3485487521
 20
-87.87837334
 10
7.3518487864
 20
-87.8635720405
  0
LINE
  5
26D
100
AcDbEntity
  8
RACCORDO
100
AcDbLine
 62
253
  6
CONTINUOUS
 10
7.5179498497
 20
-89.8224017286
 11
7.5671227551
 21
-89.8137312186
  0
LINE
  5
26E
100
AcDbEntity
  8
RACCORDO
100
AcDbLine
 62
253
  6
CONTINUOUS
 10
9.1891712881
 20
-88.5927875382
 11
8.2471653475
 21
-88.7588886015
  0
LINE
  5
26F
100
AcDbEntity
  8
RACCORDO
100
AcDbLine
 62
253
  6
CONTINUOUS
 10
7.3518487864
 20
-88.8803957879
 11
7.4010216918
 21
-88.871725278
  0
LINE
  5
270
100
AcDbEntity
  8
RACCORDO
100
AcDbLine
 62
253
  6
CONTINUOUS
 10
9.1805007779
 20
-88.5436146329
 11
8.2384948375
 21
-88.7097156961
  0
LINE
  5
271
100
AcDbEntity
  8
RACCORDO
100
AcDbLine
 62
253
  6
CONTINUOUS
 10
6.2970061359
 20
-88.2003532015
 11
7.2390121099
 21
-88.0342521323
  0
LINE
  5
272
100
AcDbEntity
  8
RACCORDO
100
AcDbLine
 62
253
  6
CONTINUOUS
 10
8.1256581611
 20
-87.8635720405
 11
8.0764852556
 21
-87.8722425504
  0
LINE
  5
273
100
AcDbEntity
  8
RACCORDO
100
AcDbLine
 62
253
  6
CONTINUOUS
 10
6.2883356257
 20
-88.1511802961
 11
7.2303416
 21
-87.9850792269
  0
LINE
  5
274
100
AcDbEntity
  8
RACCORDO
100
AcDbLine
 62
253
  6
CONTINUOUS
 10
7.9595570918
 20
-86.9215660662
 11
7.9103841864
 21
-86.9302365762
  0
LINE
  5
275
100
AcDbEntity
  8
RACCORDO
100
AcDbLine
 62
7
  6
CONTINUOUS
 10
8.1671197151
 20
-88.6383405737
 11
8.2437161178
 21
-88.6257000231
  0
LINE
  5
276
100
AcDbEntity
  8
RACCORDO
100
AcDbLine
 62
7
  6
CONTINUOUS
 10
7.3103872323
 20
-88.1056272547
 11
7.2337908289
 21
-88.1182678053
  0
LINE
  5
277
100
AcDbEntity
  8
RACCORDO
100
AcDbLine
 62
253
  6
CONTINUOUS
 10
7.1518496596
 20
-88.1572409472
 11
7.1819566075
 21
-88.1535244034
  0
LINE
  5
278
100
AcDbEntity
  8
RACCORDO
100
AcDbLine
 62
253
  6
CONTINUOUS
 10
8.3420928837
 20
-88.5847529004
 11
8.2955503591
 21
-88.5904434233
  0
LINE
  5
279
100
AcDbEntity
  8
RACCORDO
100
AcDbLine
 62
253
  6
CONTINUOUS
 10
7.1034251406
 20
-88.1629998828
 11
7.1518496596
 21
-88.1572409472
  0
LINE
  5
27A
100
AcDbEntity
  8
RACCORDO
100
AcDbLine
 62
253
  6
CONTINUOUS
 10
8.3917429385
 20
-88.5789266222
 11
8.3420928837
 21
-88.5847529004
  0
LINE
  5
27B
100
AcDbEntity
  8
RACCORDO
100
AcDbLine
 62
253
  6
CONTINUOUS
 10
7.0315290282
 20
-88.1711658212
 11
7.1034251406
 21
-88.1629998828
  0
LINE
  5
27C
100
AcDbEntity
  8
RACCORDO
100
AcDbLine
 62
253
  6
CONTINUOUS
 10
8.465993862
 20
-88.5705989479
 11
8.3917429385
 21
-88.5789266222
  0
LINE
  5
27D
100
AcDbEntity
  8
RACCORDO
100
AcDbLine
 62
253
  6
CONTINUOUS
 10
6.9494020322
 20
-88.1800541602
 11
7.0315290282
 21
-88.1711658212
  0
LINE
  5
27E
100
AcDbEntity
  8
RACCORDO
100
AcDbLine
 62
253
  6
CONTINUOUS
 10
8.5509991547
 20
-88.5614961443
 11
8.465993862
 21
-88.5705989479
  0
LINE
  5
27F
100
AcDbEntity
  8
RACCORDO
100
AcDbLine
 62
253
  6
CONTINUOUS
 10
6.8549924778
 20
-88.189840895
 11
6.9494020322
 21
-88.1800541602
  0
LINE
  5
280
100
AcDbEntity
  8
RACCORDO
100
AcDbLine
 62
253
  6
CONTINUOUS
 10
8.6752353288
 20
-88.5488274627
 11
8.5509991547
 21
-88.5614961443
  0
LINE
  5
281
100
AcDbEntity
  8
RACCORDO
100
AcDbLine
 62
253
  6
CONTINUOUS
 10
6.6885941052
 20
-88.2062822209
 11
6.8549924778
 21
-88.189840895
  0
LINE
  5
282
100
AcDbEntity
  8
RACCORDO
100
AcDbLine
 62
253
  6
CONTINUOUS
 10
8.850824263
 20
-88.5317486342
 11
8.6752353288
 21
-88.5488274627
  0
LINE
  5
283
100
AcDbEntity
  8
RACCORDO
100
AcDbLine
 62
253
  6
CONTINUOUS
 10
6.4253474043
 20
-88.2310232868
 11
6.6885941052
 21
-88.2062822209
  0
LINE
  5
284
100
AcDbEntity
  8
RACCORDO
100
AcDbLine
 62
253
  6
CONTINUOUS
 10
8.4305748582
 20
-88.6085687613
 11
8.2437161178
 21
-88.6257000231
  0
LWPOLYLINE
  5
285
100
AcDbEntity
  8
RACCORDO
100
AcDbPolyline
 62
253
  6
CONTINUOUS
 90
3
 70
0
 10
9.2411086135
 20
-88.4957736128
 10
9.2017549591
 20
-88.4993096708
 10
8.850824263
 20
-88.5317486342
  0
LINE
  5
286
100
AcDbEntity
  8
RACCORDO
100
AcDbLine
 62
253
  6
CONTINUOUS
 10
6.2363983419
 20
-88.2481942123
 11
6.4253474043
 21
-88.2310232868
  0
LINE
  5
287
100
AcDbEntity
  8
RACCORDO
100
AcDbLine
 62
253
  6
CONTINUOUS
 10
7.0484276037
 20
-88.1352650266
 11
7.2337908289
 21
-88.1182678053
  0
LINE
  5
288
100
AcDbEntity
  8
RACCORDO
100
AcDbLine
 62
253
  6
CONTINUOUS
 10
9.1805007779
 20
-88.5436146329
 11
8.4305748582
 21
-88.6085687613
  0
LINE
  5
289
100
AcDbEntity
  8
RACCORDO
100
AcDbLine
 62
253
  6
CONTINUOUS
 10
6.2970061359
 20
-88.2003532015
 11
7.0484276037
 21
-88.1352650266
  0
LINE
  5
28A
100
AcDbEntity
  8
RACCORDO
100
AcDbLine
 62
253
  6
CONTINUOUS
 10
9.2842636604
 20
-88.2446383623
 11
9.2411086076
 21
-88.2481942126
  0
LINE
  5
28B
100
AcDbEntity
  8
RACCORDO
100
AcDbLine
 62
253
  6
CONTINUOUS
 10
6.1932432927
 20
-88.4993294684
 11
6.2363983435
 21
-88.4957736185
  0
LINE
  5
28C
100
AcDbEntity
  8
RACCORDO
100
AcDbLine
 62
7
  6
CONTINUOUS
 10
6.0433698857
 20
-94.7432813212
 11
6.1755308327
 21
-94.7480454536
  0
LWPOLYLINE
  5
28D
100
AcDbEntity
  8
RACCORDO
100
AcDbPolyline
 62
7
  6
CONTINUOUS
 90
7
 70
0
 10
6.1755308327
 20
-94.7480454536
 10
6.1878886657
 20
-94.7485609972
 10
6.1982452486
 20
-94.7490515593
 10
6.2064340534
 20
-94.7495305729
 10
6.2124051374
 20
-94.7500025158
 10
6.2161662043
 20
-94.7504629102
 10
6.2177160059
 20
-94.7509117561
  0
LINE
  5
28E
100
AcDbEntity
  8
RACCORDO
100
AcDbLine
 62
7
  6
CONTINUOUS
 10
5.9689802575
 20
-94.7401705303
 11
6.0433698857
 21
-94.7432813212
  0
LINE
  5
28F
100
AcDbEntity
  8
RACCORDO
100
AcDbLine
 62
7
  6
CONTINUOUS
 10
5.9177616974
 20
-94.737713453
 11
5.9689802575
 21
-94.7401705303
  0
LINE
  5
290
100
AcDbEntity
  8
DRAFT
100
AcDbLine
 62
7
  6
CONTINUOUS
 10
-69.2612465263
 20
-99.5095512464
 11
-69.2472824743
 21
-99.6219839142
  0
LWPOLYLINE
  5
291
100
AcDbEntity
  8
RACCORDO
100
AcDbPolyline
 62
253
  6
CONTINUOUS
 90
3
 70
0
 10
-67.1543466835
 20
-105.4013219607
 10
-67.1589792957
 20
-105.3453118574
 10
-67.1611878016
 20
-105.313208413
  0
LWPOLYLINE
  5
292
100
AcDbEntity
  8
RACCORDO
100
AcDbPolyline
 62
253
  6
CONTINUOUS
 90
4
 70
0
 10
-67.1611878016
 20
-105.313208413
 10
-67.1646287725
 20
-105.2423324658
 10
-67.1662314938
 20
-105.2038940786
 10
-67.1673155386
 20
-105.163810456
  0
LWPOLYLINE
  5
293
100
AcDbEntity
  8
RACCORDO
100
AcDbPolyline
 62
253
  6
CONTINUOUS
 90
22
 70
0
 10
-68.94025475
 20
-105.1010225989
 10
-68.9396786217
 20
-105.1160549293
 10
-68.9380155564
 20
-105.1308528424
 10
-68.935265554
 20
-105.145416338
 10
-68.9314010361
 20
-105.1598283301
 10
-68.9264495811
 20
-105.1740059048
 10
-68.9204939247
 20
-105.1877003205
 10
-68.9135176275
 20
-105.2008991195
 10
-68.9055371288
 20
-105.2136147595
 10
-68.8966844825
 20
-105.2256358719
 10
-68.8869450266
 20
-105.236950859
 10
-68.876333423
 20
-105.2475713185
 10
-68.8650257113
 20
-105.2573206752
 10
-68.853010259
 20
-105.2661844199
 10
-68.8402986987
 20
-105.2741770617
 10
-68.8271019673
 20
-105.2811655536
 10
-68.8134114753
 20
-105.2871333659
 10
-68.7992358122
 20
-105.2920970283
 10
-68.7848116836
 20
-105.2959730825
 10
-68.7702179915
 20
-105.2987337091
 10
-68.7553758339
 20
-105.3004067276
 10
-68.7402852109
 20
-105.3009921379
  0
LWPOLYLINE
  5
294
100
AcDbEntity
  8
RACCORDO
100
AcDbPolyline
 62
253
  6
CONTINUOUS
 90
22
 70
0
 10
-69.2402090585
 20
-105.1010225989
 10
-69.2388047254
 20
-105.1383794571
 10
-69.2346131305
 20
-105.1755270286
 10
-69.2276577436
 20
-105.2122576708
 10
-69.2179774981
 20
-105.2483660863
 10
-69.2056265266
 20
-105.2836504266
 10
-69.1906738573
 20
-105.3179134205
 10
-69.173203096
 20
-105.3509635461
 10
-69.1533119408
 20
-105.3826160662
 10
-69.1311115914
 20
-105.4126940183
 10
-69.1067261961
 20
-105.4410292338
 10
-69.0802920694
 20
-105.4674633777
 10
-69.0519568902
 20
-105.491848775
 10
-69.0218790159
 20
-105.5140491036
 10
-68.9902266006
 20
-105.5339402357
 10
-68.9571765469
 20
-105.5514110054
 10
-68.9229135623
 20
-105.5663637157
 10
-68.8876291875
 20
-105.5787147397
 10
-68.8515207015
 20
-105.5883950388
 10
-68.8147899554
 20
-105.5953504726
 10
-68.7776422439
 20
-105.599542101
 10
-68.7402852109
 20
-105.6009464464
  0
LWPOLYLINE
  5
295
100
AcDbEntity
  8
RACCORDO
100
AcDbPolyline
 62
7
  6
CONTINUOUS
 90
22
 70
0
 10
-69.2612465263
 20
-105.1220600666
 10
-69.2598550533
 20
-105.1593402866
 10
-69.2556804784
 20
-105.1964626419
 10
-69.248734789
 20
-105.2332187423
 10
-69.2390309469
 20
-105.2694486517
 10
-69.2266199075
 20
-105.304896116
 10
-69.2116259435
 20
-105.3392221497
 10
-69.1942143464
 20
-105.3721377647
 10
-69.1744567472
 20
-105.4035838781
 10
-69.152347046
 20
-105.4335665624
 10
-69.1278861141
 20
-105.4620130908
 10
-69.1012757029
 20
-105.488623502
 10
-69.0728291745
 20
-105.5130844339
 10
-69.0428464902
 20
-105.5351941351
 10
-69.0114003768
 20
-105.5549517344
 10
-68.9784847618
 20
-105.5723633314
 10
-68.9441587281
 20
-105.5873572954
 10
-68.9087112638
 20
-105.5997683348
 10
-68.8724813544
 20
-105.609472177
 10
-68.835725254
 20
-105.6164178663
 10
-68.7986028986
 20
-105.6205924412
 10
-68.7613226787
 20
-105.6219839142
  0
LINE
  5
296
100
AcDbEntity
  8
DRAFT
100
AcDbLine
 62
7
  6
CONTINUOUS
 10
-70.2612465263
 20
-82.6719839142
 11
-70.2612465263
 21
-19.6719839142
  0
LINE
  5
297
100
AcDbEntity
  8
RACCORDO
100
AcDbLine
 62
7
  6
CONTINUOUS
 10
-70.2612465263
 20
-0.6719839142
 11
-70.2612465263
 21
8.3780922382
  0
LINE
  5
298
100
AcDbEntity
  8
RACCORDO
100
AcDbLine
 62
253
  6
CONTINUOUS
 10
-70.2402090585
 20
-82.6719839142
 11
-70.2402090585
 21
-19.693021382
  0
LINE
  5
299
100
AcDbEntity
  8
RACCORDO
100
AcDbLine
 62
253
  6
CONTINUOUS
 10
-70.2402090585
 20
-0.6719839142
 11
-70.2402090585
 21
8.3570547704
  0
LINE
  5
29A
100
AcDbEntity
  8
RACCORDO
100
AcDbLine
 62
253
  6
CONTINUOUS
 10
-69.94025475
 20
-82.6719839142
 11
-69.94025475
 21
-19.9929756905
  0
LINE
  5
29B
100
AcDbEntity
  8
RACCORDO
100
AcDbLine
 62
253
  6
CONTINUOUS
 10
-69.94025475
 20
-0.6719839142
 11
-69.94025475
 21
8.3570547704
  0
LINE
  5
29C
100
AcDbEntity
  8
0
100
AcDbLine
 62
7
  6
CONTINUOUS
 10
-69.8379223631
 20
-0.6719839142
 11
-69.8379223631
 21
-4.6719839142
  0
LINE
  5
29D
100
AcDbEntity
  8
0
100
AcDbLine
 62
7
  6
CONTINUOUS
 10
-69.8379223631
 20
-82.6719839142
 11
-69.8379223631
 21
-86.6719839142
  0
LINE
  5
29E
100
AcDbEntity
  8
RACCORDO
100
AcDbLine
 62
253
  6
CONTINUOUS
 10
-69.7402852109
 20
8.856978618
 11
-69.7402852109
 21
8.5570243095
  0
LINE
  5
29F
100
AcDbEntity
  8
DRAFT
100
AcDbLine
 62
7
  6
CONTINUOUS
 10
-69.2612465263
 20
-4.6719839142
 11
-69.2612465263
 21
-17.5095512464
  0
LINE
  5
2A0
100
AcDbEntity
  8
DRAFT
100
AcDbLine
 62
7
  6
CONTINUOUS
 10
-69.2612465263
 20
-19.234416582
 11
-69.2612465263
 21
-19.6719839142
  0
LINE
  5
2A1
100
AcDbEntity
  8
DRAFT
100
AcDbLine
 62
7
  6
CONTINUOUS
 10
-69.2612465263
 20
-86.6719839142
 11
-69.2612465263
 21
-99.5095512464
  0
LINE
  5
2A2
100
AcDbEntity
  8
RACCORDO
100
AcDbLine
 62
7
  6
CONTINUOUS
 10
-69.2612465263
 20
-101.234416582
 11
-69.2612465263
 21
-105.1220600666
  0
LINE
  5
2A3
100
AcDbEntity
  8
DRAFT
100
AcDbLine
 62
7
  6
CONTINUOUS
 10
-69.2472824743
 20
-17.6219839142
 11
-69.2472824743
 21
-19.1219839142
  0
LINE
  5
2A4
100
AcDbEntity
  8
DRAFT
100
AcDbLine
 62
7
  6
CONTINUOUS
 10
-69.2472824743
 20
-99.6219839142
 11
-69.2472824743
 21
-101.1219839142
  0
LINE
  5
2A5
100
AcDbEntity
  8
RACCORDO
100
AcDbLine
 62
253
  6
CONTINUOUS
 10
-69.2402090585
 20
-4.6719839142
 11
-69.2402090585
 21
-19.693021382
  0
LINE
  5
2A6
100
AcDbEntity
  8
RACCORDO
100
AcDbLine
 62
253
  6
CONTINUOUS
 10
-69.2402090585
 20
-86.6719839142
 11
-69.2402090585
 21
-105.1010225989
  0
LWPOLYLINE
  5
2A7
100
AcDbEntity
  8
RACCORDO
100
AcDbPolyline
 62
253
  6
CONTINUOUS
 90
7
 70
0
 10
-68.0298731078
 20
8.3467645112
 10
-68.0290297413
 20
8.3826671266
 10
-68.0266488652
 20
8.4182256309
 10
-68.0227304794
 20
8.4534400241
 10
-68.0172745841
 20
8.4883103062
 10
-68.0102811791
 20
8.5228364773
 10
-68.0017502645
 20
8.5570185372
  0
LWPOLYLINE
  5
2A8
100
AcDbEntity
  8
RACCORDO
100
AcDbPolyline
 62
253
  6
CONTINUOUS
 90
23
 70
0
 10
-67.7299187993
 20
8.3467645112
 10
-67.7289957674
 20
8.3772288473
 10
-67.7262335897
 20
8.4074580051
 10
-67.7216645719
 20
8.4373426975
 10
-67.7153354764
 20
8.4667440929
 10
-67.7072865536
 20
8.4955942776
 10
-67.6975315686
 20
8.5238910775
 10
-67.6861538362
 20
8.5514341467
 10
-67.6731643608
 20
8.5782318528
 10
-67.6583900377
 20
8.6045604448
 10
-67.641831246
 20
8.6302710933
 10
-67.6234772436
 20
8.6552444335
 10
-67.6030096737
 20
8.6797058107
 10
-67.5801735319
 20
8.703647197
 10
-67.5551175496
 20
8.7266127871
 10
-67.5281342256
 20
8.748137077
 10
-67.4992485052
 20
8.7680546864
 10
-67.4685717653
 20
8.7861488523
 10
-67.4366590501
 20
8.8020237252
 10
-67.4038109802
 20
8.8155411299
 10
-67.3700588729
 20
8.8266993855
 10
-67.3356203502
 20
8.8354262752
 10
-67.3006868724
 20
8.8416801552
  0
LWPOLYLINE
  5
2A9
100
AcDbEntity
  8
RACCORDO
100
AcDbPolyline
 62
7
  6
CONTINUOUS
 90
22
 70
0
 10
-70.2612465263
 20
8.3780922382
 10
-70.2598550533
 20
8.4153724581
 10
-70.2556804784
 20
8.4524948135
 10
-70.248734789
 20
8.4892509139
 10
-70.2390309469
 20
8.5254808233
 10
-70.2266199075
 20
8.5609282876
 10
-70.2116259435
 20
8.5952543213
 10
-70.1942143464
 20
8.6281699363
 10
-70.1744567472
 20
8.6596160497
 10
-70.152347046
 20
8.689598734
 10
-70.1278861141
 20
8.7180452624
 10
-70.1012757029
 20
8.7446556736
 10
-70.0728291745
 20
8.7691166055
 10
-70.0428464902
 20
8.7912263067
 10
-70.0114003768
 20
8.810983906
 10
-69.9784847618
 20
8.828395503
 10
-69.9441587281
 20
8.843389467
 10
-69.9087112638
 20
8.8558005064
 10
-69.8724813544
 20
8.8655043485
 10
-69.835725254
 20
8.8724500379
 10
-69.7986028986
 20
8.8766246128
 10
-69.7613226787
 20
8.8780160858
  0
LWPOLYLINE
  5
2AA
100
AcDbEntity
  8
RACCORDO
100
AcDbPolyline
 62
253
  6
CONTINUOUS
 90
22
 70
0
 10
-70.2402090585
 20
8.3570547704
 10
-70.2388047223
 20
8.3944116712
 10
-70.2346131187
 20
8.4315592796
 10
-70.2276577189
 20
8.4682899529
 10
-70.2179774565
 20
8.5043983964
 10
-70.2056264656
 20
8.539682758
 10
-70.1906737799
 20
8.5739457574
 10
-70.1732030138
 20
8.6069958639
 10
-70.153311864
 20
8.6386483527
 10
-70.1311115182
 20
8.6687262829
 10
-70.1067261175
 20
8.6970614905
 10
-70.080291979
 20
8.7234956327
 10
-70.0519567795
 20
8.7478810335
 10
-70.0218788679
 20
8.7700813736
 10
-69.990226404
 20
8.7899725171
 10
-69.957176313
 20
8.8074432856
 10
-69.9229133095
 20
8.822395983
 10
-69.8876289313
 20
8.834746988
 10
-69.8515204673
 20
8.8444272624
 10
-69.8147897727
 20
8.8513826709
 10
-69.7776421395
 20
8.85557428
 10
-69.7402852109
 20
8.856978618
  0
LWPOLYLINE
  5
2AB
100
AcDbEntity
  8
RACCORDO
100
AcDbPolyline
 62
253
  6
CONTINUOUS
 90
22
 70
0
 10
-69.94025475
 20
8.3570547704
 10
-69.9396774666
 20
8.3720970645
 10
-69.9380124526
 20
8.3869036185
 10
-69.9352597079
 20
8.4014744325
 10
-69.9313916083
 20
8.4158922214
 10
-69.9264357781
 20
8.4300742703
 10
-69.9204750904
 20
8.4437724346
 10
-69.9134929804
 20
8.4569745432
 10
-69.9055060129
 20
8.4696927673
 10
-69.8966467557
 20
8.4817154759
 10
-69.8869005322
 20
8.4930310054
 10
-69.876282019
 20
8.5036510195
 10
-69.8649678144
 20
8.513398878
 10
-69.8529462586
 20
8.5222599234
 10
-69.8402290114
 20
8.5302488133
 10
-69.8270276503
 20
8.5372328806
 10
-69.8133308878
 20
8.5431955458
 10
-69.7991500115
 20
8.5481533884
 10
-69.7847304615
 20
8.552023479
 10
-69.7701540515
 20
8.5547781745
 10
-69.755338968
 20
8.556445118
 10
-69.7402852109
 20
8.5570243095
  0
LWPOLYLINE
  5
2AC
100
AcDbEntity
  8
RACCORDO
100
AcDbPolyline
 62
253
  6
CONTINUOUS
 90
4
 70
0
 10
-67.164628785
 20
8.498364337
 10
-67.1662315018
 20
8.4599259731
 10
-67.1673155452
 20
8.4198423872
 10
-67.1691358147
 20
8.3372533205
  0
LWPOLYLINE
  5
2AD
100
AcDbEntity
  8
RACCORDO
100
AcDbPolyline
 62
253
  6
CONTINUOUS
 90
3
 70
0
 10
-67.1589793158
 20
8.6013437457
 10
-67.1611878194
 20
8.5692402831
 10
-67.164628785
 20
8.498364337
  0
LINE
  5
2AE
100
AcDbEntity
  8
DRAFT
100
AcDbLine
 62
7
  6
CONTINUOUS
 10
-69.2612465263
 20
-19.234416582
 11
-69.2472824743
 21
-19.1219839142
  0
LINE
  5
2AF
100
AcDbEntity
  8
RACCORDO
100
AcDbLine
 62
253
  6
CONTINUOUS
 10
4.9065734
 20
-90.5209692106
 11
4.7096118493
 21
-90.5209692106
  0
LINE
  5
2B0
100
AcDbEntity
  8
RACCORDO
100
AcDbLine
 62
253
  6
CONTINUOUS
 10
4.9065734
 20
-90.1288676234
 11
4.7096118493
 21
-90.1288676234
  0
LINE
  5
2B1
100
AcDbEntity
  8
0
100
AcDbLine
 62
7
  6
CONTINUOUS
 10
-75.1111982891
 20
-86.6719839142
 11
-69.8379223631
 21
-86.6719839142
  0
LINE
  5
2B2
100
AcDbEntity
  8
RACCORDO
100
AcDbLine
 62
7
  6
CONTINUOUS
 10
-69.8379223631
 20
-86.6719839142
 11
-68.94025475
 21
-86.6719839142
  0
LINE
  5
2B3
100
AcDbEntity
  8
RACCORDO
100
AcDbLine
 62
253
  6
CONTINUOUS
 10
4.7096118493
 20
-86.6151086909
 11
4.9065734
 21
-86.6151086909
  0
LWPOLYLINE
  5
2B4
100
AcDbEntity
  8
RACCORDO
100
AcDbPolyline
 62
253
  6
CONTINUOUS
 90
4
 70
0
 10
-67.1673155386
 20
-105.163810456
 10
-67.1691358156
 20
-105.081221288
 10
-67.1696535295
 20
-105.0385918953
 10
-67.1696535264
 20
8.2946239925
  0
LINE
  5
2B5
100
AcDbEntity
  8
RACCORDO
100
AcDbLine
 62
253
  6
CONTINUOUS
 10
-68.94025475
 20
-4.6719839142
 11
-68.94025475
 21
-19.9929756905
  0
LINE
  5
2B6
100
AcDbEntity
  8
RACCORDO
100
AcDbLine
 62
253
  6
CONTINUOUS
 10
-68.94025475
 20
-86.6719839142
 11
-68.94025475
 21
-105.1010225989
  0
LINE
  5
2B7
100
AcDbEntity
  8
RACCORDO
100
AcDbLine
 62
253
  6
CONTINUOUS
 10
-68.7402852109
 20
-105.3009921379
 11
-68.7402852109
 21
-105.6009464464
  0
LINE
  5
2B8
100
AcDbEntity
  8
RACCORDO
100
AcDbLine
 62
253
  6
CONTINUOUS
 10
-68.0298731078
 20
-105.0907323396
 11
-68.0298731078
 21
8.3467645112
  0
LINE
  5
2B9
100
AcDbEntity
  8
RACCORDO
100
AcDbLine
 62
253
  6
CONTINUOUS
 10
-68.0017484789
 20
8.8569786083
 11
-68.0017516216
 21
8.5570127752
  0
LINE
  5
2BA
100
AcDbEntity
  8
RACCORDO
100
AcDbLine
 62
253
  6
CONTINUOUS
 10
-68.0017499554
 20
-105.300993367
 11
-68.0017502916
 21
-105.6009464472
  0
LINE
  5
2BB
100
AcDbEntity
  8
RACCORDO
100
AcDbLine
 62
253
  6
CONTINUOUS
 10
-67.7299187993
 20
-105.0907323396
 11
-67.7299187993
 21
8.3467645112
  0
LINE
  5
2BC
100
AcDbEntity
  8
RACCORDO
100
AcDbLine
 62
253
  6
CONTINUOUS
 10
-67.6340358255
 20
-104.9948493659
 11
-67.6340358255
 21
8.2508815374
  0
LINE
  5
2BD
100
AcDbEntity
  8
RACCORDO
100
AcDbLine
 62
253
  6
CONTINUOUS
 10
-67.1691358147
 20
8.3372533205
 11
-67.1696535264
 21
8.2946239925
  0
LWPOLYLINE
  5
2BE
100
AcDbEntity
  8
RACCORDO
100
AcDbPolyline
 62
7
  6
CONTINUOUS
 90
6
 70
0
 10
6.2177160059
 20
-1.9930560723
 10
6.2161662043
 20
-1.9935049183
 10
6.2124051374
 20
-1.9939653127
 10
6.2064340534
 20
-1.9944372555
 10
6.1982452486
 20
-1.9949162692
 10
6.1878886657
 20
-1.9954068312
  0
LINE
  5
2BF
100
AcDbEntity
  8
RACCORDO
100
AcDbLine
 62
7
  6
CONTINUOUS
 10
5.9689802575
 20
-82.0037972981
 11
5.9177616974
 21
-82.0062543754
  0
LINE
  5
2C0
100
AcDbEntity
  8
RACCORDO
100
AcDbLine
 62
7
  6
CONTINUOUS
 10
6.0433698857
 20
-82.0006865072
 11
5.9689802575
 21
-82.0037972981
  0
LINE
  5
2C1
100
AcDbEntity
  8
RACCORDO
100
AcDbLine
 62
7
  6
CONTINUOUS
 10
6.1878886657
 20
-81.9954068312
 11
6.161351559
 21
-81.9964585774
  0
LINE
  5
2C2
100
AcDbEntity
  8
RACCORDO
100
AcDbLine
 62
7
  6
CONTINUOUS
 10
6.161351559
 20
-81.9964585774
 11
6.0433698857
 21
-82.0006865072
  0
LINE
  5
2C3
100
AcDbEntity
  8
RACCORDO
100
AcDbLine
 62
253
  6
CONTINUOUS
 10
4.9065734
 20
-86.2229986179
 11
4.7096118493
 21
-86.2229986179
  0
LINE
  5
2C4
100
AcDbEntity
  8
0
100
AcDbLine
 62
7
  6
CONTINUOUS
 10
-69.8379223631
 20
-82.6719839142
 11
-75.1111982435
 21
-82.6719839142
  0
LINE
  5
2C5
100
AcDbEntity
  8
RACCORDO
100
AcDbLine
 62
253
  6
CONTINUOUS
 10
6.1932432884
 20
-88.2446383618
 11
6.2363983482
 21
-88.248194211
  0
LINE
  5
2C6
100
AcDbEntity
  8
RACCORDO
100
AcDbLine
 62
253
  6
CONTINUOUS
 10
9.2842636655
 20
-88.4993294641
 11
9.2411086135
 21
-88.4957736134
  0
LINE
  5
2C7
100
AcDbEntity
  8
RACCORDO
100
AcDbLine
 62
253
  6
CONTINUOUS
 10
6.2970061385
 20
-88.5436146274
 11
6.657120938
 21
-88.5744424285
  0
LINE
  5
2C8
100
AcDbEntity
  8
RACCORDO
100
AcDbLine
 62
253
  6
CONTINUOUS
 10
9.1805008007
 20
-88.2003531996
 11
8.8218153744
 21
-88.1696486168
  0
LINE
  5
2C9
100
AcDbEntity
  8
RACCORDO
100
AcDbLine
 62
253
  6
CONTINUOUS
 10
8.8218153744
 20
-88.1696486168
 11
8.3738685326
 21
-88.1302882399
  0
LINE
  5
2CA
100
AcDbEntity
  8
RACCORDO
100
AcDbLine
 62
253
  6
CONTINUOUS
 10
6.657120938
 20
-88.5744424285
 11
7.1057806758
 21
-88.6138738973
  0
LINE
  5
2CB
100
AcDbEntity
  8
RACCORDO
100
AcDbLine
 62
253
  6
CONTINUOUS
 10
6.2363983437
 20
-88.4957736206
 11
6.5626301365
 21
-88.5256969796
  0
LINE
  5
2CC
100
AcDbEntity
  8
RACCORDO
100
AcDbLine
 62
253
  6
CONTINUOUS
 10
9.2411086074
 20
-88.2481942105
 11
8.9153417177
 21
-88.2183145238
  0
LINE
  5
2CD
100
AcDbEntity
  8
RACCORDO
100
AcDbLine
 62
253
  6
CONTINUOUS
 10
7.1057806758
 20
-88.6138738973
 11
7.2337908292
 21
-88.6257000231
  0
LINE
  5
2CE
100
AcDbEntity
  8
RACCORDO
100
AcDbLine
 62
253
  6
CONTINUOUS
 10
8.3738685326
 20
-88.1302882399
 11
8.2437161179
 21
-88.1182678053
  0
LINE
  5
2CF
100
AcDbEntity
  8
RACCORDO
100
AcDbLine
 62
253
  6
CONTINUOUS
 10
6.5626301365
 20
-88.5256969796
 11
6.7757665462
 21
-88.5461949961
  0
LINE
  5
2D0
100
AcDbEntity
  8
RACCORDO
100
AcDbLine
 62
253
  6
CONTINUOUS
 10
8.9153417177
 20
-88.2183145238
 11
8.7024105506
 21
-88.1978389679
  0
LINE
  5
2D1
100
AcDbEntity
  8
RACCORDO
100
AcDbLine
 62
253
  6
CONTINUOUS
 10
6.7757665462
 20
-88.5461949961
 11
6.9043107357
 21
-88.559186984
  0
LINE
  5
2D2
100
AcDbEntity
  8
RACCORDO
100
AcDbLine
 62
253
  6
CONTINUOUS
 10
8.7024105506
 20
-88.1978389679
 11
8.573906666
 21
-88.1848544556
  0
LWPOLYLINE
  5
2D3
100
AcDbEntity
  8
RACCORDO
100
AcDbPolyline
 62
253
  6
CONTINUOUS
 90
22
 70
0
 10
7.6114079239
 20
-89.917494106
 10
7.6064482428
 20
-89.9169740473
 10
7.6014330622
 20
-89.9161182
 10
7.5963623821
 20
-89.9149265641
 10
7.5912178481
 20
-89.9134148087
 10
7.5860178146
 20
-89.9115672648
 10
7.5808173448
 20
-89.9093369252
 10
7.5756122919
 20
-89.9067224455
 10
7.5704068028
 20
-89.9037251702
 10
7.5652683818
 20
-89.9003021264
 10
7.560196818
 20
-89.8964603664
 10
7.5551923224
 20
-89.8921928378
 10
7.5503230316
 20
-89.8874354105
 10
7.5455668698
 20
-89.8821733017
 10
7.5409459129
 20
-89.8764212942
 10
7.5365945252
 20
-89.8701596057
 10
7.5325006813
 20
-89.8633610823
 10
7.5286764066
 20
-89.8560528779
 10
7.5252921421
 20
-89.8482966723
 10
7.5224047012
 20
-89.8401130256
 10
7.5199572704
 20
-89.8314813776
 10
7.5179498497
 20
-89.8224017286
  0
LWPOLYLINE
  5
2D4
100
AcDbEntity
  8
RACCORDO
100
AcDbPolyline
 62
253
  6
CONTINUOUS
 90
22
 70
0
 10
7.8660990261
 20
-86.8264737289
 10
7.8710587063
 20
-86.8269937898
 10
7.876073886
 20
-86.8278496384
 10
7.8811445653
 20
-86.8290412747
 10
7.8862890985
 20
-86.8305530294
 10
7.8914891314
 20
-86.8324005717
 10
7.8966896007
 20
-86.8346309095
 10
7.9018946533
 20
-86.8372453876
 10
7.9071001423
 20
-86.8402426611
 10
7.9122385632
 20
-86.843665703
 10
7.9173101269
 20
-86.847507461
 10
7.9223146225
 20
-86.8517749874
 10
7.9271839132
 20
-86.8565324123
 10
7.9319400747
 20
-86.8617945183
 10
7.9365610313
 20
-86.8675465228
 10
7.9409124186
 20
-86.8738082082
 10
7.9450062622
 20
-86.8806067285
 10
7.9488305366
 20
-86.8879149297
 10
7.9522148008
 20
-86.895671132
 10
7.9551022413
 20
-86.9038547756
 10
7.9575496716
 20
-86.9124864204
 10
7.9595570918
 20
-86.9215660662
  0
LINE
  5
2D5
100
AcDbEntity
  8
RACCORDO
100
AcDbLine
 62
253
  6
CONTINUOUS
 10
8.573906666
 20
-88.1848544556
 11
8.486001956
 21
-88.1755550633
  0
LINE
  5
2D6
100
AcDbEntity
  8
RACCORDO
100
AcDbLine
 62
253
  6
CONTINUOUS
 10
6.9043107357
 20
-88.559186984
 11
6.9922163868
 21
-88.5684896449
  0
LINE
  5
2D7
100
AcDbEntity
  8
RACCORDO
100
AcDbLine
 62
253
  6
CONTINUOUS
 10
6.9922163868
 20
-88.5684896449
 11
7.0688081998
 21
-88.5769889947
  0
LINE
  5
2D8
100
AcDbEntity
  8
RACCORDO
100
AcDbLine
 62
253
  6
CONTINUOUS
 10
8.486001956
 20
-88.1755550633
 11
8.4094003802
 21
-88.1670577286
  0
LINE
  5
2D9
100
AcDbEntity
  8
RACCORDO
100
AcDbLine
 62
253
  6
CONTINUOUS
 10
8.4094003802
 20
-88.1670577286
 11
8.3582985498
 21
-88.1611497746
  0
LINE
  5
2DA
100
AcDbEntity
  8
RACCORDO
100
AcDbLine
 62
253
  6
CONTINUOUS
 10
7.0688081998
 20
-88.5769889947
 11
7.1200915746
 21
-88.5829298319
  0
LWPOLYLINE
  5
2DB
100
AcDbEntity
  8
RACCORDO
100
AcDbPolyline
 62
253
  6
CONTINUOUS
 90
3
 70
0
 10
7.1200915746
 20
-88.5829298319
 10
7.167142108
 20
-88.5885953997
 10
7.1819565939
 20
-88.5904434238
  0
LWPOLYLINE
  5
2DC
100
AcDbEntity
  8
RACCORDO
100
AcDbPolyline
 62
253
  6
CONTINUOUS
 90
3
 70
0
 10
8.3582985498
 20
-88.1611497746
 10
8.3107627438
 20
-88.1554086008
 10
8.2955503752
 20
-88.1535244065
  0
LWPOLYLINE
  5
2DD
100
AcDbEntity
  8
RACCORDO
100
AcDbPolyline
 62
253
  6
CONTINUOUS
 90
22
 70
0
 10
7.6149637699
 20
-89.8743391135
 10
7.6124879059
 20
-89.8739490845
 10
7.6099639882
 20
-89.8733608429
 10
7.6073996257
 20
-89.8725677582
 10
7.6048045245
 20
-89.8715672339
 10
7.6021866996
 20
-89.8703494855
 10
7.5995526416
 20
-89.868897173
 10
7.5969146451
 20
-89.8672046677
 10
7.5942837094
 20
-89.8652670035
 10
7.5916664093
 20
-89.8630673746
 10
7.589082409
 20
-89.8606059354
 10
7.5865417135
 20
-89.8578748103
 10
7.5840411506
 20
-89.8548423712
 10
7.5815968472
 20
-89.8514961157
 10
7.5792359827
 20
-89.8478403127
 10
7.576977811
 20
-89.843866727
 10
7.5748449493
 20
-89.8395645146
 10
7.5728681683
 20
-89.834946102
 10
7.5710802066
 20
-89.8300415257
 10
7.5695094618
 20
-89.824867343
 10
7.5681813203
 20
-89.8194259777
 10
7.5671227551
 20
-89.8137312186
  0
LINE
  5
2DE
100
AcDbEntity
  8
RACCORDO
100
AcDbLine
 62
7
  6
CONTINUOUS
 10
7.2337908292
 20
-88.6257000231
 11
7.3103872323
 21
-88.6383405737
  0
LINE
  5
2DF
100
AcDbEntity
  8
RACCORDO
100
AcDbLine
 62
253
  6
CONTINUOUS
 10
7.9595570939
 20
-89.8224017503
 11
7.9103841885
 21
-89.8137312404
  0
LINE
  5
2E0
100
AcDbEntity
  8
DRAFT
100
AcDbLine
 62
7
  6
CONTINUOUS
 10
-69.2612465263
 20
-17.5095512464
 11
-69.2472824743
 21
-17.6219839142
  0
LINE
  5
2E1
100
AcDbEntity
  8
DRAFT
100
AcDbLine
 62
7
  6
CONTINUOUS
 10
-69.2612465263
 20
-101.234416582
 11
-69.2472824743
 21
-101.1219839142
  0
LWPOLYLINE
  5
2E2
100
AcDbEntity
  8
RACCORDO
100
AcDbPolyline
 62
253
  6
CONTINUOUS
 90
22
 70
0
 10
7.8625431808
 20
-86.8696287385
 10
7.8650190436
 20
-86.87001877
 10
7.8675429603
 20
-86.870607013
 10
7.870107322
 20
-86.871400098
 10
7.8727024227
 20
-86.8724006214
 10
7.8753202474
 20
-86.8736183677
 10
7.8779543051
 20
-86.8750706781
 10
7.8805923015
 20
-86.8767631812
 10
7.883223237
 20
-86.8787008431
 10
7.885840537
 20
-86.8809004694
 10
7.8884245371
 20
-86.8833619058
 10
7.8909652325
 20
-86.8860930279
 10
7.8934657952
 20
-86.8891254635
 10
7.8959100982
 20
-86.8924717152
 10
7.8982709624
 20
-86.8961275141
 10
7.9005291337
 20
-86.9001010955
 10
7.902661995
 20
-86.9044033034
 10
7.9046387754
 20
-86.9090217114
 10
7.9064267367
 20
-86.913926283
 10
7.9079974809
 20
-86.919100461
 10
7.9093256219
 20
-86.9245418216
 10
7.9103841864
 20
-86.9302365762
  0
LINE
  5
2E3
100
AcDbEntity
  8
RACCORDO
100
AcDbLine
 62
7
  6
CONTINUOUS
 10
8.2437161179
 20
-88.1182678053
 11
8.1671197151
 21
-88.1056272547
  0
LINE
  5
2E4
100
AcDbEntity
  8
RACCORDO
100
AcDbLine
 62
253
  6
CONTINUOUS
 10
7.2303416
 20
-88.7588886015
 11
6.2883356294
 21
-88.5927875329
  0
LINE
  5
2E5
100
AcDbEntity
  8
RACCORDO
100
AcDbLine
 62
253
  6
CONTINUOUS
 10
8.1256581611
 20
-88.8803957879
 11
8.0764852556
 21
-88.871725278
  0
LINE
  5
2E6
100
AcDbEntity
  8
RACCORDO
100
AcDbLine
 62
253
  6
CONTINUOUS
 10
7.2390121099
 20
-88.7097156961
 11
6.2970061385
 21
-88.5436146274
  0
LINE
  5
2E7
100
AcDbEntity
  8
RACCORDO
100
AcDbLine
 62
253
  6
CONTINUOUS
 10
8.2384948375
 20
-88.0342521323
 11
9.1805008007
 21
-88.2003531996
  0
LINE
  5
2E8
100
AcDbEntity
  8
RACCORDO
100
AcDbLine
 62
253
  6
CONTINUOUS
 10
7.3518487864
 20
-87.8635720405
 11
7.4010216918
 21
-87.8722425504
  0
LINE
  5
2E9
100
AcDbEntity
  8
RACCORDO
100
AcDbLine
 62
253
  6
CONTINUOUS
 10
8.2471653475
 20
-87.9850792269
 11
9.1891713098
 21
-88.151180294
  0
LINE
  5
2EA
100
AcDbEntity
  8
RACCORDO
100
AcDbLine
 62
253
  6
CONTINUOUS
 10
7.517949855
 20
-86.9215660699
 11
7.5671227604
 21
-86.9302365798
  0
LWPOLYLINE
  5
2EB
100
AcDbEntity
  8
RACCORDO
100
AcDbPolyline
 62
253
  6
CONTINUOUS
 90
19
 70
0
 10
6.2970061393
 20
-88.5436146275
 10
6.2908425314
 20
-88.5424547263
 10
6.2849610167
 20
-88.5409754555
 10
6.2793799498
 20
-88.5392077169
 10
6.2741107094
 20
-88.5371841718
 10
6.2691675436
 20
-88.5349356517
 10
6.2645690743
 20
-88.5324884087
 10
6.2603172047
 20
-88.5298649063
 10
6.2564207322
 20
-88.5270984125
 10
6.2529033657
 20
-88.5242311311
 10
6.249783319
 20
-88.5213106349
 10
6.2470307922
 20
-88.5183458475
 10
6.2445992715
 20
-88.5153156191
 10
6.2424893112
 20
-88.5122510697
 10
6.2406948297
 20
-88.5091571048
 10
6.2391797296
 20
-88.5059600328
 10
6.2379455925
 20
-88.5026403639
 10
6.2370152187
 20
-88.4992401934
 10
6.236398306
 20
-88.4957736229
  0
LWPOLYLINE
  5
2EC
100
AcDbEntity
  8
RACCORDO
100
AcDbPolyline
 62
253
  6
CONTINUOUS
 90
19
 70
0
 10
9.1805007999
 20
-88.2003531994
 10
9.18666441
 20
-88.2015131009
 10
9.1925459269
 20
-88.202992372
 10
9.1981269959
 20
-88.2047601107
 10
9.2033962383
 20
-88.206783656
 10
9.208339406
 20
-88.2090321761
 10
9.2129378774
 20
-88.2114794193
 10
9.217189749
 20
-88.2141029219
 10
9.2210862236
 20
-88.216869416
 10
9.2246035919
 20
-88.2197366979
 10
9.2277236404
 20
-88.2226571947
 10
9.2304761688
 20
-88.2256219828
 10
9.2329076908
 20
-88.2286522118
 10
9.235017652
 20
-88.2317167615
 10
9.2368121342
 20
-88.2348107265
 10
9.2383272344
 20
-88.2380077985
 10
9.2395613711
 20
-88.2413274674
 10
9.240491744
 20
-88.2447276376
 10
9.2411086553
 20
-88.2481942078
  0
LWPOLYLINE
  5
2ED
100
AcDbEntity
  8
RACCORDO
100
AcDbPolyline
 62
7
  6
CONTINUOUS
 90
13
 70
0
 10
7.3103872323
 20
-88.6383405737
 10
7.3306788428
 20
-88.6427851534
 10
7.3502555646
 20
-88.649271585
 10
7.3689232353
 20
-88.6577001778
 10
7.3864819726
 20
-88.6679385644
 10
7.4027898285
 20
-88.6798640964
 10
7.4177491163
 20
-88.6933860714
 10
7.4312015312
 20
-88.7083512007
 10
7.4430308592
 20
-88.7246102084
 10
7.4531832976
 20
-88.7420981335
 10
7.4615462353
 20
-88.7606882842
 10
7.4679827095
 20
-88.7801696112
 10
7.4723968142
 20
-88.8003501556
  0
LWPOLYLINE
  5
2EE
100
AcDbEntity
  8
RACCORDO
100
AcDbPolyline
 62
7
  6
CONTINUOUS
 90
13
 70
0
 10
8.1671197151
 20
-88.1056272547
 10
8.1468281046
 20
-88.101182675
 10
8.1272513828
 20
-88.0946962435
 10
8.1085837121
 20
-88.0862676506
 10
8.0910249748
 20
-88.076029264
 10
8.0747171189
 20
-88.064103732
 10
8.0597578311
 20
-88.050581757
 10
8.0463054163
 20
-88.0356166277
 10
8.0344760882
 20
-88.01935762
 10
8.0243236499
 20
-88.0018696949
 10
8.0159607121
 20
-87.9832795443
 10
8.009524238
 20
-87.9637982172
 10
8.0051101332
 20
-87.9436176728
  0
LWPOLYLINE
  5
2EF
100
AcDbEntity
  8
RACCORDO
100
AcDbPolyline
 62
253
  6
CONTINUOUS
 90
19
 70
0
 10
6.2883356294
 20
-88.5927875329
 10
6.2785019049
 20
-88.5905799977
 10
6.269176045
 20
-88.5878487383
 10
6.2603580495
 20
-88.5845937548
 10
6.2520293793
 20
-88.5807582524
 10
6.2442085736
 20
-88.5763990258
 10
6.23695125
 20
-88.5716864589
 10
6.2302642591
 20
-88.5666125238
 10
6.2241407505
 20
-88.5611852484
 10
6.2186157903
 20
-88.5555990992
 10
6.2137295831
 20
-88.5499023108
 10
6.2094419244
 20
-88.5440466486
 10
6.2056672668
 20
-88.538081876
 10
6.2023910927
 20
-88.5320531726
 10
6.1996279196
 20
-88.5259153588
 10
6.1973357526
 20
-88.519582659
 10
6.1955005933
 20
-88.5130264814
 10
6.19413644
 20
-88.5062754179
 10
6.1932432927
 20
-88.4993294684
  0
LWPOLYLINE
  5
2F0
100
AcDbEntity
  8
RACCORDO
100
AcDbPolyline
 62
253
  6
CONTINUOUS
 90
19
 70
0
 10
9.1891713098
 20
-88.151180294
 10
9.1990050355
 20
-88.1533878293
 10
9.2083308967
 20
-88.1561190888
 10
9.2171488934
 20
-88.1593740724
 10
9.2254775649
 20
-88.1632095746
 10
9.233298372
 20
-88.167568801
 10
9.240555697
 20
-88.172281368
 10
9.2472426896
 20
-88.1773553033
 10
9.2533662002
 20
-88.1827825792
 10
9.2588911622
 20
-88.1883687291
 10
9.2637773711
 20
-88.1940655187
 10
9.2680650315
 20
-88.1999211822
 10
9.2718396904
 20
-88.2058859559
 10
9.2751158655
 20
-88.21191466
 10
9.2778790391
 20
-88.2180524742
 10
9.2801712059
 20
-88.224385174
 10
9.2820063642
 20
-88.2309413512
 10
9.2833705157
 20
-88.2376924139
 10
9.2842636604
 20
-88.2446383623
  0
LWPOLYLINE
  5
2F1
100
AcDbEntity
  8
RACCORDO
100
AcDbPolyline
 62
253
  6
CONTINUOUS
 90
43
 70
0
 10
5.026749852
 20
-90.0543135136
 10
5.0188302225
 20
-90.0524659832
 10
5.0106456378
 20
-90.0508048855
 10
5.0022141939
 20
-90.0493318535
 10
4.9935529651
 20
-90.048046877
 10
4.9846820812
 20
-90.0469528175
 10
4.9756248683
 20
-90.0460552481
 10
4.9664005208
 20
-90.0453557529
 10
4.9570291201
 20
-90.0448544564
 10
4.9475359996
 20
-90.0445542267
 10
4.9379415156
 20
-90.0444561582
 10
4.9282662618
 20
-90.0445597673
 10
4.9185364981
 20
-90.0448650196
 10
4.9087733846
 20
-90.0453724729
 10
4.8989979775
 20
-90.0460810887
 10
4.8892367988
 20
-90.0469878931
 10
4.8795114122
 20
-90.0480928839
 10
4.8698433164
 20
-90.0493944373
 10
4.8602591687
 20
-90.050886571
 10
4.8507809937
 20
-90.0525685857
 10
4.8414300885
 20
-90.0544382629
 10
4.8322320166
 20
-90.0564867316
 10
4.8232083827
 20
-90.058712605
 10
4.8143803696
 20
-90.061112952
 10
4.8057725821
 20
-90.0636759413
 10
4.7974023468
 20
-90.0664007105
 10
4.789293636
 20
-90.0692823315
 10
4.7814792353
 20
-90.0723018804
 10
4.773977633
 20
-90.0754561088
 10
4.7668057473
 20
-90.0787402557
 10
4.7599903118
 20
-90.0821319362
 10
4.7535581254
 20
-90.0856192854
 10
4.7475079843
 20
-90.0892042474
 10
4.741826494
 20
-90.0928852159
 10
4.736519361
 20
-90.0966652522
 10
4.7316134534
 20
-90.1005322496
 10
4.7271288524
 20
-90.1044619543
 10
4.7230781107
 20
-90.1084480747
 10
4.7194695668
 20
-90.112486216
 10
4.7163125941
 20
-90.1165544771
 10
4.7136140556
 20
-90.1206417914
 10
4.7113791047
 20
-90.1247480381
 10
4.7096118504
 20
-90.1288676234
  0
LINE
  5
2F2
100
AcDbEntity
  8
RACCORDO
100
AcDbLine
 62
7
  6
CONTINUOUS
 10
9.5700155016
 20
-3.2812824116
 11
9.5461519512
 21
-3.2943482347
  0
LINE
  5
2F3
100
AcDbEntity
  8
RACCORDO
100
AcDbLine
 62
7
  6
CONTINUOUS
 10
9.7292070757
 20
-3.1960395718
 11
9.5700155016
 21
-3.2812824116
  0
LINE
  5
2F4
100
AcDbEntity
  8
RACCORDO
100
AcDbLine
 62
7
  6
CONTINUOUS
 10
9.8461062598
 20
-3.1342765842
 11
9.8653068312
 21
-3.1241964058
  0
LINE
  5
2F5
100
AcDbEntity
  8
RACCORDO
100
AcDbLine
 62
7
  6
CONTINUOUS
 10
9.8653068312
 20
-93.6197714226
 11
9.8461062598
 21
-93.6096912442
  0
LWPOLYLINE
  5
2F6
100
AcDbEntity
  8
RACCORDO
100
AcDbPolyline
 62
7
  6
CONTINUOUS
 90
6
 70
0
 10
9.8124989565
 20
-93.5919663371
 10
9.8238382246
 20
-93.5979962864
 10
9.8330161866
 20
-93.6028079029
 10
9.8398790203
 20
-93.6063206829
 10
9.8442834069
 20
-93.60861513
 10
9.8461062598
 20
-93.6096912442
  0
LWPOLYLINE
  5
2F7
100
AcDbEntity
  8
RACCORDO
100
AcDbPolyline
 62
7
  6
CONTINUOUS
 90
3
 70
0
 10
9.7292070757
 20
-93.5479282566
 10
9.7839769114
 20
-93.5769678416
 10
9.8124989565
 20
-93.5919663371
  0
LINE
  5
2F8
100
AcDbEntity
  8
RACCORDO
100
AcDbLine
 62
7
  6
CONTINUOUS
 10
9.6643035659
 20
-93.5132997469
 11
9.7292070757
 21
-93.5479282566
  0
LWPOLYLINE
  5
2F9
100
AcDbEntity
  8
RACCORDO
100
AcDbPolyline
 62
7
  6
CONTINUOUS
 90
3
 70
0
 10
9.5461519512
 20
-93.4496195937
 10
9.5700155016
 20
-93.4626854168
 10
9.6643035659
 20
-93.5132997469
  0
LINE
  5
2FA
100
AcDbEntity
  8
RACCORDO
100
AcDbLine
 62
253
  6
CONTINUOUS
 10
1.6116189254
 20
8.750805385
 11
1.7075018991
 21
8.8466883588
  0
LINE
  5
2FB
100
AcDbEntity
  8
RACCORDO
100
AcDbLine
 62
253
  6
CONTINUOUS
 10
2.1115427729
 20
8.2508815374
 11
2.2074257467
 21
8.3467645112
  0
LINE
  5
2FC
100
AcDbEntity
  8
RACCORDO
100
AcDbLine
 62
253
  6
CONTINUOUS
 10
5.7177921584
 20
8.856978618
 11
5.7388296261
 21
8.8780160858
  0
LWPOLYLINE
  5
2FD
100
AcDbEntity
  8
RACCORDO
100
AcDbPolyline
 62
253
  6
CONTINUOUS
 90
26
 70
0
 10
4.7333560037
 20
-5.9575005289
 10
4.7339668311
 20
-5.9571207971
 10
4.7346871127
 20
-5.9569462191
 10
4.7355255501
 20
-5.9569838761
 10
4.7364915604
 20
-5.9572330869
 10
4.7375916979
 20
-5.9577074459
 10
4.7388371473
 20
-5.9584408278
 10
4.7402485657
 20
-5.9594426691
 10
4.7418372372
 20
-5.9607289781
 10
4.7436126343
 20
-5.9623532348
 10
4.7456053939
 20
-5.9643382864
 10
4.7478300768
 20
-5.9666967072
 10
4.7502754482
 20
-5.9694689321
 10
4.75296352
 20
-5.972676722
 10
4.7559121654
 20
-5.9763282614
 10
4.7590954022
 20
-5.9804362551
 10
4.7625238565
 20
-5.9850155617
 10
4.7662116615
 20
-5.9900676274
 10
4.7701239359
 20
-5.9955732661
 10
4.7742597837
 20
-6.0015389123
 10
4.7786258601
 20
-6.0079579035
 10
4.7831830065
 20
-6.0147788722
 10
4.7879151624
 20
-6.0219896668
 10
4.7928248591
 20
-6.0295862962
 10
4.7978892909
 20
-6.0375207671
 10
4.8030891052
 20
-6.0457729239
  0
LWPOLYLINE
  5
2FE
100
AcDbEntity
  8
RACCORDO
100
AcDbPolyline
 62
7
  6
CONTINUOUS
 90
8
 70
0
 10
9.8461062598
 20
-5.1437942969
 10
9.8442585111
 20
-5.1449218481
 10
9.8397937086
 20
-5.1473179513
 10
9.8328441632
 20
-5.1509826066
 10
9.8235626508
 20
-5.1560007008
 10
9.8121119363
 20
-5.1622873471
 10
9.7986555787
 20
-5.1695878844
 10
9.7284012336
 20
-5.2081301982
  0
LWPOLYLINE
  5
2FF
100
AcDbEntity
  8
RACCORDO
100
AcDbPolyline
 62
7
  6
CONTINUOUS
 90
7
 70
0
 10
7.5202941603
 20
-7.8151869141
 10
7.5113165522
 20
-7.8205191289
 10
7.5035118944
 20
-7.8272406597
 10
7.4969367388
 20
-7.835299482
 10
7.4916397639
 20
-7.8446461694
 10
7.4876620495
 20
-7.855234384
 10
7.4850373492
 20
-7.8670213159
  0
LWPOLYLINE
  5
300
100
AcDbEntity
  8
RACCORDO
100
AcDbPolyline
 62
7
  6
CONTINUOUS
 90
7
 70
0
 10
7.9572126859
 20
-8.9287809969
 10
7.9661903398
 20
-8.9234487337
 10
7.9739950297
 20
-8.9167271703
 10
7.9805702043
 20
-8.9086683319
 10
7.9858671864
 20
-8.8993216453
 10
7.9898448973
 20
-8.8887334487
 10
7.9924695847
 20
-8.8769465523
  0
LWPOLYLINE
  5
301
100
AcDbEntity
  8
RACCORDO
100
AcDbPolyline
 62
7
  6
CONTINUOUS
 90
7
 70
0
 10
9.8461062598
 20
-3.1342765842
 10
9.8442834069
 20
-3.1353526984
 10
9.8398790203
 20
-3.1376471455
 10
9.8330161866
 20
-3.1411599255
 10
9.8238382246
 20
-3.145971542
 10
9.8124989565
 20
-3.1520014913
 10
9.7292070757
 20
-3.1960395718
  0
LWPOLYLINE
  5
302
100
AcDbEntity
  8
RACCORDO
100
AcDbPolyline
 62
7
  6
CONTINUOUS
 90
4
 70
0
 10
5.818393991
 20
-11.5025083411
 10
5.8884014025
 20
-11.4631621473
 10
5.912124116
 20
-11.4497146704
 10
5.9357703091
 20
-11.4360716222
  0
LWPOLYLINE
  5
303
100
AcDbEntity
  8
RACCORDO
100
AcDbPolyline
 62
7
  6
CONTINUOUS
 90
4
 70
0
 10
9.6635505224
 20
-5.2441599356
 10
9.5935320146
 20
-5.2834468849
 10
9.5698040488
 20
-5.2968748928
 10
9.5461519512
 20
-5.3104985692
  0
LINE
  5
304
100
AcDbEntity
  8
RACCORDO
100
AcDbLine
 62
7
  6
CONTINUOUS
 10
5.7535463499
 20
-11.5385961045
 11
5.818393991
 21
-11.5025083411
  0
LINE
  5
305
100
AcDbEntity
  8
RACCORDO
100
AcDbLine
 62
7
  6
CONTINUOUS
 10
9.7284012336
 20
-5.2081301982
 11
9.6635505224
 21
-5.2441599356
  0
LINE
  5
306
100
AcDbEntity
  8
RACCORDO
100
AcDbLine
 62
7
  6
CONTINUOUS
 10
5.6217605587
 20
-11.6106648278
 11
5.6358160005
 21
-11.6030515325
  0
LINE
  5
307
100
AcDbEntity
  8
RACCORDO
100
AcDbLine
 62
7
  6
CONTINUOUS
 10
9.8601617016
 20
-5.1361934091
 11
9.8461062598
 21
-5.1437942969
  0
LINE
  5
308
100
AcDbEntity
  8
RACCORDO
100
AcDbLine
 62
7
  6
CONTINUOUS
 10
9.8601617016
 20
-91.6077744193
 11
9.8461062598
 21
-91.6001735316
  0
LINE
  5
309
100
AcDbEntity
  8
RACCORDO
100
AcDbLine
 62
7
  6
CONTINUOUS
 10
5.6217605587
 20
-85.1333030007
 11
5.6358160005
 21
-85.1409162959
  0
LWPOLYLINE
  5
30A
100
AcDbEntity
  8
RACCORDO
100
AcDbPolyline
 62
7
  6
CONTINUOUS
 90
3
 70
0
 10
9.8121119363
 20
-91.5816804814
 10
9.7833742881
 20
-91.5660584779
 10
9.7284012336
 20
-91.5358376302
  0
LWPOLYLINE
  5
30B
100
AcDbEntity
  8
RACCORDO
100
AcDbPolyline
 62
7
  6
CONTINUOUS
 90
3
 70
0
 10
5.6698239615
 20
-85.1594470441
 10
5.6985682858
 20
-85.1750982575
 10
5.7535463499
 20
-85.2053717239
  0
LINE
  5
30C
100
AcDbEntity
  8
RACCORDO
100
AcDbLine
 62
7
  6
CONTINUOUS
 10
9.7284012336
 20
-91.5358376302
 11
9.6635505224
 21
-91.4998078928
  0
LINE
  5
30D
100
AcDbEntity
  8
RACCORDO
100
AcDbLine
 62
7
  6
CONTINUOUS
 10
5.7535463499
 20
-85.2053717239
 11
5.818393991
 21
-85.2414594873
  0
LINE
  5
30E
100
AcDbEntity
  8
RACCORDO
100
AcDbLine
 62
7
  6
CONTINUOUS
 10
9.6635505224
 20
-91.4998078928
 11
9.5935320146
 21
-91.4605209436
  0
LINE
  5
30F
100
AcDbEntity
  8
RACCORDO
100
AcDbLine
 62
7
  6
CONTINUOUS
 10
5.818393991
 20
-85.2414594873
 11
5.8884014025
 21
-85.2808056811
  0
LWPOLYLINE
  5
310
100
AcDbEntity
  8
RACCORDO
100
AcDbPolyline
 62
7
  6
CONTINUOUS
 90
3
 70
0
 10
9.5935320146
 20
-91.4605209436
 10
9.5698040488
 20
-91.4470929356
 10
9.5461519512
 20
-91.4334692592
  0
LWPOLYLINE
  5
311
100
AcDbEntity
  8
RACCORDO
100
AcDbPolyline
 62
7
  6
CONTINUOUS
 90
6
 70
0
 10
9.8461062598
 20
-91.6001735316
 10
9.8442585111
 20
-91.5990459803
 10
9.8397937086
 20
-91.5966498771
 10
9.8328441632
 20
-91.5929852219
 10
9.8235626508
 20
-91.5879671276
 10
9.8121119363
 20
-91.5816804814
  0
LINE
  5
312
100
AcDbEntity
  8
RACCORDO
100
AcDbLine
 62
253
  6
CONTINUOUS
 10
1.7075018991
 20
-105.5906561872
 11
1.6116189254
 21
-105.4947732134
  0
LINE
  5
313
100
AcDbEntity
  8
RACCORDO
100
AcDbLine
 62
253
  6
CONTINUOUS
 10
2.2074257467
 20
-105.0907323396
 11
2.1115427729
 21
-104.9948493659
  0
LINE
  5
314
100
AcDbEntity
  8
RACCORDO
100
AcDbLine
 62
253
  6
CONTINUOUS
 10
5.7388296261
 20
-105.6219839142
 11
5.7177921584
 21
-105.6009464464
  0
LINE
  5
315
100
AcDbEntity
  8
RACCORDO
100
AcDbLine
 62
253
  6
CONTINUOUS
 10
6.2177160059
 20
8.3570547704
 11
6.2387534737
 21
8.3780922382
  0
LWPOLYLINE
  5
316
100
AcDbEntity
  8
RACCORDO
100
AcDbPolyline
 62
253
  6
CONTINUOUS
 90
10
 70
0
 10
4.9065734
 20
-10.1288698984
 10
4.9212818819
 20
-10.1195969029
 10
4.9360022835
 20
-10.1104946406
 10
4.9505601103
 20
-10.1015836558
 10
4.9647219032
 20
-10.0928290231
 10
4.9783812264
 20
-10.0842957989
 10
4.991553702
 20
-10.0761541009
 10
5.0041359358
 20
-10.0684675484
 10
5.0159151541
 20
-10.0611883302
 10
5.0267498353
 20
-10.0543163148
  0
LWPOLYLINE
  5
317
100
AcDbEntity
  8
RACCORDO
100
AcDbPolyline
 62
7
  6
CONTINUOUS
 90
8
 70
0
 10
5.6358160005
 20
-11.6030515325
 10
5.6376646916
 20
-11.601921278
 10
5.6421317393
 20
-11.5995201126
 10
5.6490844269
 20
-11.5958480363
 10
5.6583695464
 20
-11.5908198658
 10
5.6698239615
 20
-11.5845207844
 10
5.6832838731
 20
-11.5772063425
 10
5.7535463499
 20
-11.5385961045
  0
LWPOLYLINE
  5
318
100
AcDbEntity
  8
RACCORDO
100
AcDbPolyline
 62
7
  6
CONTINUOUS
 90
3
 70
0
 10
5.8884014025
 20
-85.2808056811
 10
5.912124116
 20
-85.294253158
 10
5.9357703091
 20
-85.3078962062
  0
LWPOLYLINE
  5
319
100
AcDbEntity
  8
RACCORDO
100
AcDbPolyline
 62
7
  6
CONTINUOUS
 90
6
 70
0
 10
5.6358160005
 20
-85.1409162959
 10
5.6376646916
 20
-85.1420465504
 10
5.6421317393
 20
-85.1444477158
 10
5.6490844269
 20
-85.1481197921
 10
5.6583695464
 20
-85.1531479627
 10
5.6698239615
 20
-85.1594470441
  0
LINE
  5
31A
100
AcDbEntity
  8
RACCORDO
100
AcDbLine
 62
253
  6
CONTINUOUS
 10
4.9065734
 20
-86.615112668
 11
5.0267510353
 21
-86.689660632
  0
LINE
  5
31B
100
AcDbEntity
  8
RACCORDO
100
AcDbLine
 62
253
  6
CONTINUOUS
 10
6.2387534737
 20
-105.1220600666
 11
6.2177160059
 21
-105.1010225989
  0
LWPOLYLINE
  5
31C
100
AcDbEntity
  8
RACCORDO
100
AcDbPolyline
 62
7
  6
CONTINUOUS
 90
7
 70
0
 10
-69.2402090585
 20
-19.693021382
 10
-69.238704734
 20
-19.6948606662
 10
-69.2352175468
 20
-19.6982811347
 10
-69.2299476529
 20
-19.7032827876
 10
-69.223110811
 20
-19.7100345753
 10
-69.2149002003
 20
-19.7183675473
 10
-69.1949519812
 20
-19.7382021192
  0
LINE
  5
31D
100
AcDbEntity
  8
RACCORDO
100
AcDbLine
 62
7
  6
CONTINUOUS
 10
6.2387534737
 20
-1.9719839142
 11
6.2177160059
 21
-1.9930560723
  0
LWPOLYLINE
  5
31E
100
AcDbEntity
  8
RACCORDO
100
AcDbPolyline
 62
253
  6
CONTINUOUS
 90
41
 70
0
 10
4.6922868843
 20
-6.0827417619
 10
4.6927469229
 20
-6.0822861756
 10
4.693214179
 20
-6.0819473838
 10
4.6936886523
 20
-6.0817253867
 10
4.694168856
 20
-6.0816111712
 10
4.694656277
 20
-6.0816137503
 10
4.6951553767
 20
-6.0817601628
 10
4.6956670388
 20
-6.0820444267
 10
4.6961903796
 20
-6.082472524
 10
4.6967272098
 20
-6.0830894395
 10
4.6972799317
 20
-6.0838957182
 10
4.697846143
 20
-6.0848908151
 10
4.6984204465
 20
-6.0861180805
 10
4.6990038882
 20
-6.0875835617
 10
4.6995954221
 20
-6.0892812115
 10
4.700186513
 20
-6.0912362377
 10
4.700777338
 20
-6.0934570113
 10
4.7013677199
 20
-6.0959351613
 10
4.7019485923
 20
-6.0986707829
 10
4.7025196254
 20
-6.1016726933
 10
4.7030811489
 20
-6.1049320753
 10
4.7036250858
 20
-6.1084225731
 10
4.7041502656
 20
-6.1121460308
 10
4.7046578587
 20
-6.1161006044
 10
4.7051432985
 20
-6.1202544057
 10
4.7056056991
 20
-6.1246046769
 10
4.7060459465
 20
-6.1291541758
 10
4.7064621316
 20
-6.1338792882
 10
4.706854033
 20
-6.138779219
 10
4.7072218721
 20
-6.1438547631
 10
4.707564404
 20
-6.1490846908
 10
4.707881581
 20
-6.1544700095
 10
4.7081734509
 20
-6.1600097117
 10
4.7084389119
 20
-6.1656795448
 10
4.7086777371
 20
-6.1714713435
 10
4.7088901533
 20
-6.1773932731
 10
4.70907574
 20
-6.1834455759
 10
4.7092348438
 20
-6.1896097806
 10
4.709367118
 20
-6.1959043584
 10
4.7094711018
 20
-6.2023849654
 10
4.7095463081
 20
-6.2090701537
  0
LINE
  5
31F
100
AcDbEntity
  8
RACCORDO
100
AcDbLine
 62
7
  6
CONTINUOUS
 10
-70.2612465263
 20
-19.6719839142
 11
-70.2402090585
 21
-19.693021382
  0
LINE
  5
320
100
AcDbEntity
  8
RACCORDO
100
AcDbLine
 62
7
  6
CONTINUOUS
 10
-69.2402090585
 20
-19.693021382
 11
-69.2612465263
 21
-19.6719839142
  0
LINE
  5
321
100
AcDbEntity
  8
RACCORDO
100
AcDbLine
 62
7
  6
CONTINUOUS
 10
6.2387534737
 20
-94.7719839142
 11
6.2177160059
 21
-94.7509117561
  0
LINE
  5
322
100
AcDbEntity
  8
RACCORDO
100
AcDbLine
 62
7
  6
CONTINUOUS
 10
-69.1447239773
 20
-19.7885242398
 11
-68.9562568267
 21
-19.976884864
  0
LWPOLYLINE
  5
323
100
AcDbEntity
  8
RACCORDO
100
AcDbPolyline
 62
7
  6
CONTINUOUS
 90
3
 70
0
 10
-70.1835267215
 20
-19.7496834421
 10
-69.9724900313
 20
-19.9608125284
 10
-69.94025475
 20
-19.9929756905
  0
LINE
  5
324
100
AcDbEntity
  8
RACCORDO
100
AcDbLine
 62
7
  6
CONTINUOUS
 10
-68.9562568267
 20
-19.976884864
 11
-68.94025475
 21
-19.9929756905
  0
LINE
  5
325
100
AcDbEntity
  8
RACCORDO
100
AcDbLine
 62
7
  6
CONTINUOUS
 10
-69.1583105199
 20
-19.7748647793
 11
-69.1447239773
 21
-19.7885242398
  0
LWPOLYLINE
  5
326
100
AcDbEntity
  8
RACCORDO
100
AcDbPolyline
 62
7
  6
CONTINUOUS
 90
3
 70
0
 10
-70.2148628932
 20
-19.7183302402
 10
-70.1950283213
 20
-19.7382784593
 10
-70.1835267215
 20
-19.7496834421
  0
LWPOLYLINE
  5
327
100
AcDbEntity
  8
RACCORDO
100
AcDbPolyline
 62
7
  6
CONTINUOUS
 90
3
 70
0
 10
-69.1949519812
 20
-19.7382021192
 10
-69.1835469984
 20
-19.749703719
 10
-69.1583105199
 20
-19.7748647793
  0
LINE
  5
328
100
AcDbEntity
  8
RACCORDO
100
AcDbLine
 62
253
  6
CONTINUOUS
 10
7.3103872323
 20
-8.6383405737
 11
7.2390121099
 21
-8.7097156961
  0
LINE
  5
329
100
AcDbEntity
  8
RACCORDO
100
AcDbLine
 62
253
  6
CONTINUOUS
 10
8.0051101332
 20
-7.9436176728
 11
8.0764852556
 21
-7.8722425504
  0
LINE
  5
32A
100
AcDbEntity
  8
RACCORDO
100
AcDbLine
 62
253
  6
CONTINUOUS
 10
7.4723968142
 20
-8.8003501556
 11
7.4010216918
 21
-8.871725278
  0
LINE
  5
32B
100
AcDbEntity
  8
RACCORDO
100
AcDbLine
 62
253
  6
CONTINUOUS
 10
8.1671197151
 20
-8.1056272547
 11
8.2384948375
 21
-8.0342521323
  0
LINE
  5
32C
100
AcDbEntity
  8
RACCORDO
100
AcDbLine
 62
7
  6
CONTINUOUS
 10
5.7591000619
 20
-14.5900242797
 11
5.8543141753
 21
-14.5012268155
  0
LINE
  5
32D
100
AcDbEntity
  8
RACCORDO
100
AcDbLine
 62
7
  6
CONTINUOUS
 10
5.6799820812
 20
-14.6628705955
 11
5.7591000619
 21
-14.5900242797
  0
LINE
  5
32E
100
AcDbEntity
  8
RACCORDO
100
AcDbLine
 62
7
  6
CONTINUOUS
 10
5.6603332246
 20
-14.6807341153
 11
5.6799820812
 21
-14.6628705955
  0
LINE
  5
32F
100
AcDbEntity
  8
RACCORDO
100
AcDbLine
 62
7
  6
CONTINUOUS
 10
5.6217605587
 20
-14.7158682152
 11
5.6358160005
 21
-14.7031006089
  0
LWPOLYLINE
  5
330
100
AcDbEntity
  8
RACCORDO
100
AcDbPolyline
 62
7
  6
CONTINUOUS
 90
6
 70
0
 10
-70.2402090585
 20
-19.693021382
 10
-70.2383697743
 20
-19.6945257065
 10
-70.2349493058
 20
-19.6980128937
 10
-70.2299476529
 20
-19.7032827876
 10
-70.2231958652
 20
-19.7101196295
 10
-70.2148628932
 20
-19.7183302402
  0
LINE
  5
331
100
AcDbEntity
  8
RACCORDO
100
AcDbLine
 62
7
  6
CONTINUOUS
 10
5.6217605587
 20
-82.0280996132
 11
5.6358160005
 21
-82.0408672195
  0
LWPOLYLINE
  5
332
100
AcDbEntity
  8
RACCORDO
100
AcDbPolyline
 62
7
  6
CONTINUOUS
 90
7
 70
0
 10
5.6799820812
 20
-82.0810972329
 10
5.6603332246
 20
-82.0632337132
 10
5.6523136066
 20
-82.0558247064
 10
5.6456806676
 20
-82.0498434311
 10
5.6406015805
 20
-82.0454236292
 10
5.6372573832
 20
-82.0424315586
 10
5.6358160005
 20
-82.0408672195
  0
LINE
  5
333
100
AcDbEntity
  8
RACCORDO
100
AcDbLine
 62
7
  6
CONTINUOUS
 10
5.7591000619
 20
-82.1539435487
 11
5.6799820812
 21
-82.0810972329
  0
LINE
  5
334
100
AcDbEntity
  8
RACCORDO
100
AcDbLine
 62
7
  6
CONTINUOUS
 10
5.8056358711
 20
-82.1971852933
 11
5.7591000619
 21
-82.1539435487
  0
LINE
  5
335
100
AcDbEntity
  8
RACCORDO
100
AcDbLine
 62
7
  6
CONTINUOUS
 10
5.8543141753
 20
-82.2427410129
 11
5.8056358711
 21
-82.1971852933
  0
LINE
  5
336
100
AcDbEntity
  8
RACCORDO
100
AcDbLine
 62
253
  6
CONTINUOUS
 10
7.3103872323
 20
-88.1056272547
 11
7.2390121099
 21
-88.0342521323
  0
LINE
  5
337
100
AcDbEntity
  8
RACCORDO
100
AcDbLine
 62
253
  6
CONTINUOUS
 10
8.0051101332
 20
-88.8003501556
 11
8.0764852556
 21
-88.871725278
  0
LINE
  5
338
100
AcDbEntity
  8
RACCORDO
100
AcDbLine
 62
253
  6
CONTINUOUS
 10
7.4723968142
 20
-87.9436176728
 11
7.4010216918
 21
-87.8722425504
  0
LINE
  5
339
100
AcDbEntity
  8
RACCORDO
100
AcDbLine
 62
253
  6
CONTINUOUS
 10
8.1671197151
 20
-88.6383405737
 11
8.2384948375
 21
-88.7097156961
  0
LWPOLYLINE
  5
33A
100
AcDbEntity
  8
RACCORDO
100
AcDbPolyline
 62
253
  6
CONTINUOUS
 90
10
 70
0
 10
4.6922868843
 20
-90.6612260665
 10
4.6754697484
 20
-90.6428101367
 10
4.6588595361
 20
-90.6243580815
 10
4.6424562473
 20
-90.6058699009
 10
4.626392775
 20
-90.5875068886
 10
4.6105362262
 20
-90.5691077508
 10
4.5944879217
 20
-90.5501886066
 10
4.5781149685
 20
-90.5305881623
 10
4.5615502596
 20
-90.5104677115
 10
4.5447937949
 20
-90.4898272544
  0
LWPOLYLINE
  5
33B
100
AcDbEntity
  8
RACCORDO
100
AcDbPolyline
 62
253
  6
CONTINUOUS
 90
10
 70
0
 10
4.7333560037
 20
-90.7864672995
 10
4.716317823
 20
-90.7676901158
 10
4.699489264
 20
-90.7488798669
 10
4.6828695558
 20
-90.7300392109
 10
4.6665832571
 20
-90.7113164934
 10
4.6505024144
 20
-90.6925703327
 10
4.63425547
 20
-90.6733610127
 10
4.6177271372
 20
-90.6535350401
 10
4.6010494949
 20
-90.633233756
 10
4.584230352
 20
-90.6124519315
  0
LWPOLYLINE
  5
33C
100
AcDbEntity
  8
RACCORDO
100
AcDbPolyline
 62
253
  6
CONTINUOUS
 90
10
 70
0
 10
4.733355996
 20
-5.9575005227
 10
4.7245693896
 20
-5.9694854382
 10
4.7167528762
 20
-5.9821375255
 10
4.7099525016
 20
-5.9953822534
 10
4.7042083254
 20
-6.0091415998
 10
4.6995541854
 20
-6.0233345109
 10
4.6960174984
 20
-6.037877379
 10
4.6936190984
 20
-6.0526845348
 10
4.6923731137
 20
-6.0676687522
 10
4.6922868843
 20
-6.0827417619
  0
LWPOLYLINE
  5
33D
100
AcDbEntity
  8
RACCORDO
100
AcDbPolyline
 62
253
  6
CONTINUOUS
 90
10
 70
0
 10
4.584230352
 20
-6.1315158969
 10
4.5997429833
 20
-6.1123349133
 10
4.615477032
 20
-6.0931522597
 10
4.6314337417
 20
-6.0739708038
 10
4.6475628876
 20
-6.0548535207
 10
4.6639163706
 20
-6.0357425472
 10
4.6806519253
 20
-6.0164627954
 10
4.6978266212
 20
-5.9969616449
 10
4.7153931492
 20
-5.9773053319
 10
4.7333560037
 20
-5.9575005289
  0
LWPOLYLINE
  5
33E
100
AcDbEntity
  8
RACCORDO
100
AcDbPolyline
 62
253
  6
CONTINUOUS
 90
10
 70
0
 10
4.5447937949
 20
-6.2541405741
 10
4.5601424645
 20
-6.235186277
 10
4.5757052578
 20
-6.2162562873
 10
4.591482175
 20
-6.1973506049
 10
4.6074122305
 20
-6.1785316447
 10
4.6235564099
 20
-6.1597369918
 10
4.6400976693
 20
-6.1407794015
 10
4.6570969942
 20
-6.121596459
 10
4.6744933992
 20
-6.1022505792
 10
4.6922868843
 20
-6.0827417619
  0
LWPOLYLINE
  5
33F
100
AcDbEntity
  8
RACCORDO
100
AcDbPolyline
 62
7
  6
CONTINUOUS
 90
6
 70
0
 10
5.6358160005
 20
-14.7031006089
 10
5.6372573832
 20
-14.7015362698
 10
5.6406015805
 20
-14.6985441993
 10
5.6456806676
 20
-14.6941243973
 10
5.6523136066
 20
-14.688143122
 10
5.6603332246
 20
-14.6807341153
  0
LINE
  5
340
100
AcDbEntity
  8
RACCORDO
100
AcDbLine
 62
7
  6
CONTINUOUS
 10
5.9197103499
 20
-14.4395552585
 11
5.9357703091
 21
-14.4242124281
  0
LINE
  5
341
100
AcDbEntity
  8
RACCORDO
100
AcDbLine
 62
7
  6
CONTINUOUS
 10
5.8543141753
 20
-14.5012268155
 11
5.9197103499
 21
-14.4395552585
  0
LWPOLYLINE
  5
342
100
AcDbEntity
  8
RACCORDO
100
AcDbPolyline
 62
7
  6
CONTINUOUS
 90
3
 70
0
 10
5.9357703091
 20
-82.3197554003
 10
5.9197103499
 20
-82.30441257
 10
5.8543141753
 20
-82.2427410129
  0
LWPOLYLINE
  5
343
100
AcDbEntity
  8
RACCORDO
100
AcDbPolyline
 62
253
  6
CONTINUOUS
 90
10
 70
0
 10
4.7333559784
 20
-90.7864673199
 10
4.7245693718
 20
-90.7744824021
 10
4.7167528588
 20
-90.7618303126
 10
4.709952485
 20
-90.7485855827
 10
4.7042083102
 20
-90.7348262344
 10
4.6995541723
 20
-90.7206333215
 10
4.6960174878
 20
-90.7060904519
 10
4.6936190907
 20
-90.6912832949
 10
4.6923731096
 20
-90.6762990767
 10
4.6922868843
 20
-90.6612260665
  0
LWPOLYLINE
  5
344
100
AcDbEntity
  8
RACCORDO
100
AcDbPolyline
 62
253
  6
CONTINUOUS
 90
26
 70
0
 10
4.7962011598
 20
-10.7091047164
 10
4.7887850302
 20
-10.7206360192
 10
4.785356942
 20
-10.7258916531
 10
4.7820960176
 20
-10.7308232401
 10
4.7789634362
 20
-10.7355087463
 10
4.775962321
 20
-10.7399493596
 10
4.773082876
 20
-10.7441471404
 10
4.7702791247
 20
-10.7481723074
 10
4.7675554217
 20
-10.7520294242
 10
4.7649143329
 20
-10.755707093
 10
4.7623201462
 20
-10.759241616
 10
4.7597803195
 20
-10.7626348096
 10
4.7573073945
 20
-10.7658678198
 10
4.7548833117
 20
-10.7689379892
 10
4.7525233069
 20
-10.7718372134
 10
4.7502409311
 20
-10.7745494813
 10
4.7480231194
 20
-10.777054155
 10
4.7458905111
 20
-10.7793385116
 10
4.7438608568
 20
-10.7813834206
 10
4.7419242326
 20
-10.783152509
 10
4.7401065704
 20
-10.7846289463
 10
4.7384310867
 20
-10.7857892037
 10
4.7368912835
 20
-10.7865807682
 10
4.7355063459
 20
-10.7869688281
 10
4.7343176085
 20
-10.7869392439
 10
4.7333560037
 20
-10.7864672995
  0
LWPOLYLINE
  5
345
100
AcDbEntity
  8
RACCORDO
100
AcDbPolyline
 62
7
  6
CONTINUOUS
 90
10
 70
0
 10
4.5842303622
 20
-90.6124519495
 10
4.576099942
 20
-90.6001054366
 10
4.5688906379
 20
-90.5873800458
 10
4.5626024499
 20
-90.5742757772
 10
4.5572140064
 20
-90.5607136112
 10
4.5527466791
 20
-90.5467725674
 10
4.5492645827
 20
-90.532689704
 10
4.5467890891
 20
-90.5185440404
 10
4.5452988265
 20
-90.5042565572
 10
4.5447937949
 20
-90.4898272544
  0
LINE
  5
346
100
AcDbEntity
  8
RACCORDO
100
AcDbLine
 62
253
  6
CONTINUOUS
 10
4.9065734
 20
-10.5209692106
 11
4.8914593046
 21
-10.5479716448
  0
LINE
  5
347
100
AcDbEntity
  8
RACCORDO
100
AcDbLine
 62
253
  6
CONTINUOUS
 10
4.8914593046
 20
-10.5479716448
 11
4.877153905
 21
-10.5732271585
  0
LINE
  5
348
100
AcDbEntity
  8
RACCORDO
100
AcDbLine
 62
253
  6
CONTINUOUS
 10
4.877153905
 20
-10.5732271585
 11
4.8637271844
 21
-10.5966620263
  0
LINE
  5
349
100
AcDbEntity
  8
RACCORDO
100
AcDbLine
 62
253
  6
CONTINUOUS
 10
4.8637271844
 20
-10.5966620263
 11
4.8511390532
 21
-10.6183641096
  0
LINE
  5
34A
100
AcDbEntity
  8
RACCORDO
100
AcDbLine
 62
253
  6
CONTINUOUS
 10
4.8511390532
 20
-10.6183641096
 11
4.8393666132
 21
-10.6384090532
  0
LINE
  5
34B
100
AcDbEntity
  8
RACCORDO
100
AcDbLine
 62
253
  6
CONTINUOUS
 10
4.8393666132
 20
-10.6384090532
 11
4.8283970083
 21
-10.6568297775
  0
LINE
  5
34C
100
AcDbEntity
  8
RACCORDO
100
AcDbLine
 62
253
  6
CONTINUOUS
 10
4.8283970083
 20
-10.6568297775
 11
4.8181997034
 21
-10.6737018517
  0
LINE
  5
34D
100
AcDbEntity
  8
RACCORDO
100
AcDbLine
 62
253
  6
CONTINUOUS
 10
4.8181997034
 20
-10.6737018517
 11
4.808799992
 21
-10.6890199111
  0
LWPOLYLINE
  5
34E
100
AcDbEntity
  8
RACCORDO
100
AcDbPolyline
 62
253
  6
CONTINUOUS
 90
3
 70
0
 10
4.808799992
 20
-10.6890199111
 10
4.8001929602
 20
-10.7027977745
 10
4.7962011598
 20
-10.7091047164
  0
LINE
  5
34F
100
AcDbEntity
  8
RACCORDO
100
AcDbLine
 62
253
  6
CONTINUOUS
 10
-69.2612465263
 20
-105.1220600666
 11
-69.2402090585
 21
-105.1010225989
  0
LINE
  5
350
100
AcDbEntity
  8
RACCORDO
100
AcDbLine
 62
253
  6
CONTINUOUS
 10
-68.7613226787
 20
-105.6219839142
 11
-68.7402852109
 21
-105.6009464464
  0
LINE
  5
351
100
AcDbEntity
  8
RACCORDO
100
AcDbLine
 62
253
  6
CONTINUOUS
 10
-67.6340358255
 20
-104.9948493659
 11
-67.7299187993
 21
-105.0907323396
  0
LINE
  5
352
100
AcDbEntity
  8
RACCORDO
100
AcDbLine
 62
253
  6
CONTINUOUS
 10
-67.1341119779
 20
-105.4947732134
 11
-67.2299949517
 21
-105.5906561872
  0
LINE
  5
353
100
AcDbEntity
  8
RACCORDO
100
AcDbLine
 62
253
  6
CONTINUOUS
 10
-70.2612465263
 20
8.3780922382
 11
-70.2402090585
 21
8.3570547704
  0
LINE
  5
354
100
AcDbEntity
  8
RACCORDO
100
AcDbLine
 62
253
  6
CONTINUOUS
 10
-69.7613226787
 20
8.8780160858
 11
-69.7402852109
 21
8.856978618
  0
LINE
  5
355
100
AcDbEntity
  8
RACCORDO
100
AcDbLine
 62
253
  6
CONTINUOUS
 10
-67.7299187993
 20
8.3467645112
 11
-67.6340358255
 21
8.2508815374
  0
LINE
  5
356
100
AcDbEntity
  8
RACCORDO
100
AcDbLine
 62
253
  6
CONTINUOUS
 10
-67.2299949517
 20
8.8466883588
 11
-67.1341119779
 21
8.750805385
  0
LWPOLYLINE
  5
357
100
AcDbEntity
  8
RACCORDO
100
AcDbPolyline
 62
253
  6
CONTINUOUS
 90
3
 70
0
 10
4.8030891052
 20
-86.0457729239
 10
4.8138811695
 20
-86.0631946906
 10
4.8194563705
 20
-86.0723243822
  0
LINE
  5
358
100
AcDbEntity
  8
RACCORDO
100
AcDbLine
 62
253
  6
CONTINUOUS
 10
4.8194563705
 20
-86.0723243822
 11
4.8309218943
 21
-86.0913573262
  0
LWPOLYLINE
  5
359
100
AcDbEntity
  8
RACCORDO
100
AcDbPolyline
 62
7
  6
CONTINUOUS
 90
7
 70
0
 10
7.1819564734
 20
-88.5904432272
 10
7.1872547554
 20
-88.5993967105
 10
7.1939554164
 20
-88.6071880658
 10
7.2020069419
 20
-88.613759972
 10
7.2113602489
 20
-88.6190628305
 10
7.2219691678
 20
-88.6230545009
 10
7.2337908752
 20
-88.6257000386
  0
LWPOLYLINE
  5
35A
100
AcDbEntity
  8
RACCORDO
100
AcDbPolyline
 62
7
  6
CONTINUOUS
 90
7
 70
0
 10
8.2955505566
 20
-88.1535247027
 10
8.290252228
 20
-88.1445711746
 10
8.2835515354
 20
-88.1367797877
 10
8.2754999941
 20
-88.1302078625
 10
8.2661466875
 20
-88.1249049965
 10
8.2555377856
 20
-88.1209133291
 10
8.2437161118
 20
-88.1182678032
  0
LINE
  5
35B
100
AcDbEntity
  8
RACCORDO
100
AcDbLine
 62
253
  6
CONTINUOUS
 10
4.8309218943
 20
-86.0913573262
 11
4.8427641052
 21
-86.1113243003
  0
LINE
  5
35C
100
AcDbEntity
  8
RACCORDO
100
AcDbLine
 62
253
  6
CONTINUOUS
 10
4.8427641052
 20
-86.1113243003
 11
4.8549106467
 21
-86.1320746232
  0
LINE
  5
35D
100
AcDbEntity
  8
RACCORDO
100
AcDbLine
 62
253
  6
CONTINUOUS
 10
4.8549106467
 20
-86.1320746232
 11
4.8673066756
 21
-86.1535287093
  0
LINE
  5
35E
100
AcDbEntity
  8
RACCORDO
100
AcDbLine
 62
253
  6
CONTINUOUS
 10
4.8673066756
 20
-86.1535287093
 11
4.8799383637
 21
-86.1756349975
  0
LWPOLYLINE
  5
35F
100
AcDbEntity
  8
RACCORDO
100
AcDbPolyline
 62
253
  6
CONTINUOUS
 90
3
 70
0
 10
4.8799383637
 20
-86.1756349975
 10
4.899755818
 20
-86.2107700846
 10
4.9065734
 20
-86.2229986179
  0
LWPOLYLINE
  5
360
100
AcDbEntity
  8
RACCORDO
100
AcDbPolyline
 62
253
  6
CONTINUOUS
 90
43
 70
0
 10
4.7096118506
 20
-86.6151086909
 10
4.7113978042
 20
-86.619266682
 10
4.7136568193
 20
-86.6234054705
 10
4.7163827774
 20
-86.6275193621
 10
4.7195683387
 20
-86.6316079257
 10
4.7232048183
 20
-86.6356603461
 10
4.7272816561
 20
-86.6396555215
 10
4.7317888248
 20
-86.6435889873
 10
4.7367122709
 20
-86.6474546942
 10
4.7420316149
 20
-86.651229674
 10
4.7477188766
 20
-86.6549019491
 10
4.7537673407
 20
-86.6584747645
 10
4.7601908677
 20
-86.6619478564
 10
4.7669900294
 20
-86.6653233287
 10
4.7741374649
 20
-86.6685895268
 10
4.7816075421
 20
-86.6717254242
 10
4.7893827167
 20
-86.6747263226
 10
4.7974447985
 20
-86.6775892694
 10
4.8057640931
 20
-86.6802969153
 10
4.8143169073
 20
-86.6828445379
 10
4.823086226
 20
-86.6852312408
 10
4.8320511265
 20
-86.6874462065
 10
4.8411910005
 20
-86.689486631
 10
4.8504846783
 20
-86.6913509354
 10
4.859910382
 20
-86.6930305691
 10
4.8694477748
 20
-86.6945233554
 10
4.8790748358
 20
-86.695828228
 10
4.8887673331
 20
-86.696938737
 10
4.8985046374
 20
-86.6978531374
 10
4.9082647993
 20
-86.6985710504
 10
4.9180217509
 20
-86.699088572
 10
4.927754541
 20
-86.6994044172
 10
4.9374417468
 20
-86.6995188595
 10
4.9470568857
 20
-86.6994308679
 10
4.9565790777
 20
-86.6991396821
 10
4.9659874718
 20
-86.6986461474
 10
4.9752560894
 20
-86.6979521866
 10
4.9843645148
 20
-86.6970576002
 10
4.9932925166
 20
-86.6959637985
 10
5.0020150303
 20
-86.6946756816
 10
5.0105108043
 20
-86.6931957758
 10
5.0187621679
 20
-86.691524038
 10
5.0267500404
 20
-86.6896619306
  0
LWPOLYLINE
  5
361
100
AcDbEntity
  8
RACCORDO
100
AcDbPolyline
 62
7
  6
CONTINUOUS
 90
7
 70
0
 10
9.8653068312
 20
-93.6197714226
 10
9.8648961832
 20
-93.6186166592
 10
9.8644867927
 20
-93.6149945639
 10
9.8640786596
 20
-93.6089051368
 10
9.8636669975
 20
-93.6003206528
 10
9.8632565928
 20
-93.5892688369
 10
9.8628618053
 20
-93.5758328642
  0
LWPOLYLINE
  5
362
100
AcDbEntity
  8
RACCORDO
100
AcDbPolyline
 62
7
  6
CONTINUOUS
 90
13
 70
0
 10
7.4723968142
 20
-7.9436176728
 10
7.4678661416
 20
-7.9642169132
 10
7.4612778316
 20
-7.9839628168
 10
7.4527709728
 20
-8.0026683197
 10
7.4425362412
 20
-8.0201139509
 10
7.4307128269
 20
-8.0362179707
 10
7.4173330158
 20
-8.0509978023
 10
7.402550139
 20
-8.0642998624
 10
7.3865056359
 20
-8.0760151403
 10
7.3691410373
 20
-8.0861552114
 10
7.3505190698
 20
-8.0945919828
 10
7.3308729583
 20
-8.1011278999
 10
7.3103872323
 20
-8.1056272547
  0
LWPOLYLINE
  5
363
100
AcDbEntity
  8
RACCORDO
100
AcDbPolyline
 62
253
  6
CONTINUOUS
 90
19
 70
0
 10
7.517949855
 20
-6.9215660699
 10
7.5201573902
 20
-6.9117323454
 10
7.5228886496
 20
-6.9024064855
 10
7.5261436332
 20
-6.89358849
 10
7.5299791355
 20
-6.8852598198
 10
7.5343383621
 20
-6.8774390141
 10
7.5390509291
 20
-6.8701816905
 10
7.5441248641
 20
-6.8634946996
 10
7.5495521395
 20
-6.857371191
 10
7.5551382887
 20
-6.8518462307
 10
7.5608350771
 20
-6.8469600236
 10
7.5666907393
 20
-6.8426723649
 10
7.5726555119
 20
-6.8388977073
 10
7.5786842153
 20
-6.8356215332
 10
7.5848220291
 20
-6.8328583601
 10
7.5911547289
 20
-6.8305661931
 10
7.5977109065
 20
-6.8287310338
 10
7.60446197
 20
-6.8273668805
 10
7.6114079195
 20
-6.8264737332
  0
LINE
  5
364
100
AcDbEntity
  8
RACCORDO
100
AcDbLine
 62
253
  6
CONTINUOUS
 10
-68.94025475
 20
-19.9929756905
 11
-69.94025475
 21
-19.9929756905
  0
LINE
  5
365
100
AcDbEntity
  8
RACCORDO
100
AcDbLine
 62
253
  6
CONTINUOUS
 10
-69.2402090585
 20
-19.693021382
 11
-70.2402090585
 21
-19.693021382
  0
LINE
  5
366
100
AcDbEntity
  8
DRAFT
100
AcDbLine
 62
7
  6
CONTINUOUS
 10
-70.2612465263
 20
-19.6719839142
 11
-69.2612465263
 21
-19.6719839142
  0
LWPOLYLINE
  5
367
100
AcDbEntity
  8
RACCORDO
100
AcDbPolyline
 62
253
  6
CONTINUOUS
 90
13
 70
0
 10
7.4010216918
 20
-88.871725278
 10
7.3970375138
 20
-88.8539511051
 10
7.391220224
 20
-88.8359982091
 10
7.3834450907
 20
-88.8180836934
 10
7.3735221521
 20
-88.8003136816
 10
7.3614379496
 20
-88.7831258296
 10
7.3475041447
 20
-88.7671872653
 10
7.3318328121
 20
-88.7527060609
 10
7.3145725288
 20
-88.7398894831
 10
7.2963538291
 20
-88.7291658044
 10
7.277598894
 20
-88.7206208769
 10
7.258407904
 20
-88.7141496137
 10
7.2390121099
 20
-88.7097156961
  0
LWPOLYLINE
  5
368
100
AcDbEntity
  8
RACCORDO
100
AcDbPolyline
 62
7
  6
CONTINUOUS
 90
7
 70
0
 10
7.4850373647
 20
-88.876946558
 10
7.4876813116
 20
-88.8887655237
 10
7.4916719145
 20
-88.8993728081
 10
7.496974322
 20
-88.908725589
 10
7.5035464766
 20
-88.916777684
 10
7.5113388518
 20
-88.9234799842
 10
7.5202941868
 20
-88.9287809358
  0
LWPOLYLINE
  5
369
100
AcDbEntity
  8
RACCORDO
100
AcDbPolyline
 62
253
  6
CONTINUOUS
 90
13
 70
0
 10
7.3518487864
 20
-88.8803957879
 10
7.3489873512
 20
-88.866718938
 10
7.3445811326
 20
-88.853269992
 10
7.3386301304
 20
-88.8400489501
 10
7.331033099
 20
-88.8267634823
 10
7.3218912841
 20
-88.8137059185
 10
7.3115084233
 20
-88.8017532487
 10
7.2997418801
 20
-88.7910535576
 10
7.2867342911
 20
-88.7814587604
 10
7.2732173038
 20
-88.7734015927
 10
7.2594348008
 20
-88.7670262996
 10
7.2451428995
 20
-88.7621886358
 10
7.2303416
 20
-88.7588886015
  0
LWPOLYLINE
  5
36A
100
AcDbEntity
  8
RACCORDO
100
AcDbPolyline
 62
253
  6
CONTINUOUS
 90
3
 70
0
 10
7.55165159
 20
-89.2074033507
 10
7.5492412436
 20
-89.1842295952
 10
7.54013844
 20
-89.0992243025
  0
LWPOLYLINE
  5
36B
100
AcDbEntity
  8
RACCORDO
100
AcDbPolyline
 62
253
  6
CONTINUOUS
 90
3
 70
0
 10
5.0114406673
 20
-89.7960725432
 10
5.0185375754
 20
-89.9237412498
 10
5.0267526723
 20
-90.054311594
  0
LWPOLYLINE
  5
36C
100
AcDbEntity
  8
RACCORDO
100
AcDbPolyline
 62
253
  6
CONTINUOUS
 90
4
 70
0
 10
1.6448224438
 20
8.4198441663
 10
1.6466427695
 20
8.3372543498
 10
1.6471604972
 20
8.2946245429
 10
1.6470914394
 20
8.2508815374
  0
LINE
  5
36D
100
AcDbEntity
  8
RACCORDO
100
AcDbLine
 62
253
  6
CONTINUOUS
 10
1.6471604744
 20
-105.0385918208
 11
1.6470914387
 21
8.2508815374
  0
LINE
  5
36E
100
AcDbEntity
  8
RACCORDO
100
AcDbLine
 62
253
  6
CONTINUOUS
 10
2.1115427729
 20
-104.9948493659
 11
2.1115427729
 21
8.2508815374
  0
LINE
  5
36F
100
AcDbEntity
  8
RACCORDO
100
AcDbLine
 62
253
  6
CONTINUOUS
 10
2.2074257467
 20
8.3467645112
 11
2.2074257467
 21
-105.0907323396
  0
LINE
  5
370
100
AcDbEntity
  8
RACCORDO
100
AcDbLine
 62
253
  6
CONTINUOUS
 10
2.4792579321
 20
-105.3009896485
 11
2.4792572536
 21
-105.6009464477
  0
LINE
  5
371
100
AcDbEntity
  8
RACCORDO
100
AcDbLine
 62
253
  6
CONTINUOUS
 10
2.479257804
 20
8.5570216709
 11
2.479257081
 21
8.8569786184
  0
LINE
  5
372
100
AcDbEntity
  8
RACCORDO
100
AcDbLine
 62
253
  6
CONTINUOUS
 10
2.5073800553
 20
8.3467645112
 11
2.5073800553
 21
-105.0907323396
  0
LINE
  5
373
100
AcDbEntity
  8
RACCORDO
100
AcDbLine
 62
253
  6
CONTINUOUS
 10
1.6466427626
 20
-105.0812211486
 11
1.6471604744
 21
-105.0385918208
  0
LWPOLYLINE
  5
374
100
AcDbEntity
  8
RACCORDO
100
AcDbPolyline
 62
7
  6
CONTINUOUS
 90
10
 70
0
 10
4.5447937949
 20
-6.2541405741
 10
4.5452990329
 20
-6.239710406
 10
4.5467893867
 20
-6.2254224759
 10
4.5492648561
 20
-6.2112767836
 10
4.5527467277
 20
-6.1971945794
 10
4.557213715
 20
-6.183254613
 10
4.5626019587
 20
-6.1696931338
 10
4.5688901721
 20
-6.1565888916
 10
4.5760996419
 20
-6.1438631365
 10
4.5842303681
 20
-6.1315158686
  0
LWPOLYLINE
  5
375
100
AcDbEntity
  8
RACCORDO
100
AcDbPolyline
 62
253
  6
CONTINUOUS
 90
4
 70
0
 10
5.0267503854
 20
-6.689661802
 10
5.0189858275
 20
-6.8145469181
 10
5.0121094361
 20
-6.9372113557
 10
5.0003481785
 20
-7.1767004884
  0
LWPOLYLINE
  5
376
100
AcDbEntity
  8
RACCORDO
100
AcDbPolyline
 62
253
  6
CONTINUOUS
 90
16
 70
0
 10
4.7096118493
 20
-6.615112668
 10
4.6995217382
 20
-6.7437496513
 10
4.6901801688
 20
-6.8707630176
 10
4.6815871411
 20
-6.996152767
 10
4.6737528488
 20
-7.1197615305
 10
4.6666670982
 20
-7.2417466769
 10
4.660299308
 20
-7.3625803136
 10
4.6546406151
 20
-7.4825889692
 10
4.6496998827
 20
-7.601446115
 10
4.6454731189
 20
-7.7186442715
 10
4.6419787521
 20
-7.8345326339
 10
4.6391983539
 20
-7.9487620069
 10
4.637072648
 20
-8.0597773254
 10
4.6355818754
 20
-8.1670602342
 10
4.634745795
 20
-8.2711290885
 10
4.6347050084
 20
-8.4669545045
  0
LWPOLYLINE
  5
377
100
AcDbEntity
  8
RACCORDO
100
AcDbPolyline
 62
253
  6
CONTINUOUS
 90
22
 70
0
 10
6.1932432884
 20
-8.2446383618
 10
6.1937633493
 20
-8.2396786817
 10
6.1946191979
 20
-8.234663502
 10
6.1958108342
 20
-8.2295928227
 10
6.1973225889
 20
-8.2244482894
 10
6.1991701312
 20
-8.2192482565
 10
6.201400469
 20
-8.2140477873
 10
6.2040149471
 20
-8.2088427346
 10
6.2070122206
 20
-8.2036372456
 10
6.2104352625
 20
-8.1984988247
 10
6.2142770205
 20
-8.193427261
 10
6.2185445469
 20
-8.1884227654
 10
6.2233019718
 20
-8.1835534747
 10
6.2285640778
 20
-8.1787973132
 10
6.2343160823
 20
-8.1741763566
 10
6.2405777677
 20
-8.1698249693
 10
6.247376288
 20
-8.1657311257
 10
6.2546844892
 20
-8.1619068513
 10
6.2624406915
 20
-8.1585225871
 10
6.2706243351
 20
-8.1556351466
 10
6.2792559799
 20
-8.1531877163
 10
6.2883356257
 20
-8.1511802961
  0
LINE
  5
378
100
AcDbEntity
  8
RACCORDO
100
AcDbLine
 62
253
  6
CONTINUOUS
 10
7.5515504039
 20
-7.5375411768
 11
7.542247743
 21
-7.6254468277
  0
LINE
  5
379
100
AcDbEntity
  8
RACCORDO
100
AcDbLine
 62
253
  6
CONTINUOUS
 10
7.542247743
 20
-7.6254468277
 11
7.5337483932
 21
-7.7020386405
  0
LINE
  5
37A
100
AcDbEntity
  8
RACCORDO
100
AcDbLine
 62
253
  6
CONTINUOUS
 10
7.5337483932
 20
-7.7020386405
 11
7.527807556
 21
-7.7533220152
  0
LINE
  5
37B
100
AcDbEntity
  8
RACCORDO
100
AcDbLine
 62
253
  6
CONTINUOUS
 10
7.9476539332
 20
-9.007983974
 11
7.9534283917
 21
-8.9595341545
  0
LWPOLYLINE
  5
37C
100
AcDbEntity
  8
RACCORDO
100
AcDbPolyline
 62
253
  6
CONTINUOUS
 90
3
 70
0
 10
7.527807556
 20
-7.7533220152
 10
7.5221419882
 20
-7.8003725485
 10
7.5202939641
 20
-7.8151870343
  0
LINE
  5
37D
100
AcDbEntity
  8
RACCORDO
100
AcDbLine
 62
253
  6
CONTINUOUS
 10
7.9534283917
 20
-8.9595341545
 11
7.9572129814
 21
-8.9287808157
  0
LWPOLYLINE
  5
37E
100
AcDbEntity
  8
RACCORDO
100
AcDbPolyline
 62
253
  6
CONTINUOUS
 90
22
 70
0
 10
6.236398298
 20
-8.2481942071
 10
6.2367883295
 20
-8.2457183444
 10
6.2373765725
 20
-8.2431944276
 10
6.2381696575
 20
-8.2406300659
 10
6.2391701809
 20
-8.2380349652
 10
6.2403879273
 20
-8.2354171406
 10
6.2418402376
 20
-8.2327830829
 10
6.2435327407
 20
-8.2301450865
 10
6.2454704026
 20
-8.2275141509
 10
6.2476700289
 20
-8.2248968509
 10
6.2501314653
 20
-8.2223128508
 10
6.2528625874
 20
-8.2197721555
 10
6.2558950231
 20
-8.2172715927
 10
6.2592412747
 20
-8.2148272897
 10
6.2628970736
 20
-8.2124664256
 10
6.266870655
 20
-8.2102082542
 10
6.2711728629
 20
-8.2080753929
 10
6.2757912709
 20
-8.2060986125
 10
6.2806958425
 20
-8.2043106512
 10
6.2858700205
 20
-8.202739907
 10
6.2913113811
 20
-8.2014117661
 10
6.2970061357
 20
-8.2003532015
  0
LWPOLYLINE
  5
37F
100
AcDbEntity
  8
RACCORDO
100
AcDbPolyline
 62
253
  6
CONTINUOUS
 90
22
 70
0
 10
9.241108673
 20
-8.4957736181
 10
9.2407186441
 20
-8.498249482
 10
9.2401304024
 20
-8.5007733998
 10
9.2393373178
 20
-8.5033377622
 10
9.2383367934
 20
-8.5059328634
 10
9.237119045
 20
-8.5085506884
 10
9.2356667325
 20
-8.5111847463
 10
9.2339742272
 20
-8.5138227429
 10
9.232036563
 20
-8.5164536786
 10
9.2298369341
 20
-8.5190709786
 10
9.2273754949
 20
-8.5216549789
 10
9.2246443698
 20
-8.5241956744
 10
9.2216119307
 20
-8.5266962373
 10
9.2182656752
 20
-8.5291405407
 10
9.2146098722
 20
-8.5315014052
 10
9.2106362865
 20
-8.533759577
 10
9.2063340741
 20
-8.5358924387
 10
9.2017156615
 20
-8.5378692196
 10
9.1968110852
 20
-8.5396571814
 10
9.1916369025
 20
-8.5412279261
 10
9.1861955373
 20
-8.5425560676
 10
9.1805007781
 20
-8.5436146328
  0
LINE
  5
380
100
AcDbEntity
  8
RACCORDO
100
AcDbLine
 62
7
  6
CONTINUOUS
 10
7.4850373648
 20
-7.8670212697
 11
7.4723968142
 21
-7.9436176728
  0
LINE
  5
381
100
AcDbEntity
  8
RACCORDO
100
AcDbLine
 62
7
  6
CONTINUOUS
 10
7.9924695826
 20
-8.8769465583
 11
8.0051101332
 21
-8.8003501556
  0
LINE
  5
382
100
AcDbEntity
  8
RACCORDO
100
AcDbLine
 62
253
  6
CONTINUOUS
 10
6.2883356294
 20
-8.5927875329
 11
6.2970061393
 21
-8.5436146275
  0
LINE
  5
383
100
AcDbEntity
  8
RACCORDO
100
AcDbLine
 62
253
  6
CONTINUOUS
 10
7.3518487864
 20
-7.8635720405
 11
7.517949855
 21
-6.9215660699
  0
LINE
  5
384
100
AcDbEntity
  8
RACCORDO
100
AcDbLine
 62
253
  6
CONTINUOUS
 10
7.2303416
 20
-8.7588886015
 11
7.2390121099
 21
-8.7097156961
  0
LINE
  5
385
100
AcDbEntity
  8
RACCORDO
100
AcDbLine
 62
253
  6
CONTINUOUS
 10
7.4010216918
 20
-7.8722425504
 11
7.5671227605
 21
-6.930236579
  0
LINE
  5
386
100
AcDbEntity
  8
RACCORDO
100
AcDbLine
 62
253
  6
CONTINUOUS
 10
8.0764852556
 20
-8.871725278
 11
7.9103841883
 21
-9.8137312412
  0
LINE
  5
387
100
AcDbEntity
  8
RACCORDO
100
AcDbLine
 62
253
  6
CONTINUOUS
 10
8.2471653475
 20
-7.9850792269
 11
8.2384948375
 21
-8.0342521323
  0
LINE
  5
388
100
AcDbEntity
  8
RACCORDO
100
AcDbLine
 62
253
  6
CONTINUOUS
 10
8.1256581611
 20
-8.8803957879
 11
7.9595570939
 21
-9.8224017503
  0
LINE
  5
389
100
AcDbEntity
  8
RACCORDO
100
AcDbLine
 62
253
  6
CONTINUOUS
 10
9.1891713098
 20
-8.151180294
 11
9.1805007999
 21
-8.2003531994
  0
LWPOLYLINE
  5
38A
100
AcDbEntity
  8
RACCORDO
100
AcDbPolyline
 62
253
  6
CONTINUOUS
 90
19
 70
0
 10
7.5671227604
 20
-6.9302365798
 10
7.5682826616
 20
-6.9240729718
 10
7.5697619325
 20
-6.9181914571
 10
7.571529671
 20
-6.9126103903
 10
7.5735532162
 20
-6.9073411499
 10
7.5758017362
 20
-6.9023979841
 10
7.5782489792
 20
-6.8977995148
 10
7.5808724817
 20
-6.8935476452
 10
7.5836389755
 20
-6.8896511727
 10
7.5865062568
 20
-6.8861338062
 10
7.589426753
 20
-6.8830137595
 10
7.5923915404
 20
-6.8802612327
 10
7.5954217688
 20
-6.877829712
 10
7.5984863182
 20
-6.8757197516
 10
7.6015802831
 20
-6.8739252702
 10
7.6047773551
 20
-6.8724101701
 10
7.608097024
 20
-6.871176033
 10
7.6114971945
 20
-6.8702456592
 10
7.6149637651
 20
-6.8696287465
  0
LWPOLYLINE
  5
38B
100
AcDbEntity
  8
RACCORDO
100
AcDbPolyline
 62
253
  6
CONTINUOUS
 90
19
 70
0
 10
7.9103841885
 20
-9.8137312404
 10
7.909224287
 20
-9.8198948505
 10
7.9077450159
 20
-9.8257763674
 10
7.9059772772
 20
-9.8313574364
 10
7.9039537319
 20
-9.8366266788
 10
7.9017052118
 20
-9.8415698465
 10
7.8992579687
 20
-9.8461683179
 10
7.896634466
 20
-9.8504201895
 10
7.8938679719
 20
-9.8543166641
 10
7.89100069
 20
-9.8578340324
 10
7.8880801933
 20
-9.8609540809
 10
7.8851154051
 20
-9.8637066093
 10
7.8820851761
 20
-9.8661381313
 10
7.8790206264
 20
-9.8682480925
 10
7.8759266614
 20
-9.8700425747
 10
7.8727295894
 20
-9.8715576749
 10
7.8694099205
 20
-9.8727918116
 10
7.8660097503
 20
-9.8737221845
 10
7.8625431801
 20
-9.8743390958
  0
LWPOLYLINE
  5
38C
100
AcDbEntity
  8
RACCORDO
100
AcDbPolyline
 62
7
  6
CONTINUOUS
 90
13
 70
0
 10
8.0051101332
 20
-8.8003501556
 10
8.0096408059
 20
-8.7797509152
 10
8.0162291158
 20
-8.7600050117
 10
8.0247359746
 20
-8.7412995087
 10
8.0349707062
 20
-8.7238538775
 10
8.0467941206
 20
-8.7077498577
 10
8.0601739316
 20
-8.6929700261
 10
8.0749568084
 20
-8.6796679661
 10
8.0910013115
 20
-8.6679526881
 10
8.1083659101
 20
-8.657812617
 10
8.1269878776
 20
-8.6493758456
 10
8.1466339891
 20
-8.6428399285
 10
8.1671197151
 20
-8.6383405737
  0
LWPOLYLINE
  5
38D
100
AcDbEntity
  8
RACCORDO
100
AcDbPolyline
 62
253
  6
CONTINUOUS
 90
19
 70
0
 10
7.9595570939
 20
-9.8224017503
 10
7.9573495586
 20
-9.832235476
 10
7.9546182992
 20
-9.8415613371
 10
7.9513633156
 20
-9.8503793339
 10
7.9475278133
 20
-9.8587080054
 10
7.9431685869
 20
-9.8665288125
 10
7.9384560199
 20
-9.8737861375
 10
7.9333820846
 20
-9.8804731301
 10
7.9279548087
 20
-9.8865966407
 10
7.9223686588
 20
-9.8921216027
 10
7.9166718693
 20
-9.8970078116
 10
7.9108162057
 20
-9.901295472
 10
7.904851432
 20
-9.9050701309
 10
7.898822728
 20
-9.908346306
 10
7.8926849138
 20
-9.9111094796
 10
7.886352214
 20
-9.9134016464
 10
7.8797960368
 20
-9.9152368047
 10
7.873044974
 20
-9.9166009562
 10
7.8660990256
 20
-9.9174941009
  0
LWPOLYLINE
  5
38E
100
AcDbEntity
  8
RACCORDO
100
AcDbPolyline
 62
7
  6
CONTINUOUS
 90
7
 70
0
 10
8.2437161175
 20
-8.6257000233
 10
8.2555934103
 20
-8.623021021
 10
8.2662354176
 20
-8.6190069388
 10
8.2755992978
 20
-8.613694637
 10
8.2836391533
 20
-8.6071279562
 10
8.2903064524
 20
-8.5993579635
 10
8.2955504956
 20
-8.5904432002
  0
LWPOLYLINE
  5
38F
100
AcDbEntity
  8
RACCORDO
100
AcDbPolyline
 62
7
  6
CONTINUOUS
 90
7
 70
0
 10
7.2337909063
 20
-8.1182677792
 10
7.2219135418
 20
-8.1209467705
 10
7.211271491
 20
-8.1249608441
 10
7.2019075959
 20
-8.1302731378
 10
7.1938677542
 20
-8.1368398095
 10
7.1872004975
 20
-8.1446097905
 10
7.181956525
 20
-8.1535245381
  0
LWPOLYLINE
  5
390
100
AcDbEntity
  8
RACCORDO
100
AcDbPolyline
 62
253
  6
CONTINUOUS
 90
13
 70
0
 10
8.2384948375
 20
-8.7097156961
 10
8.2207206646
 20
-8.7136998742
 10
8.2027677686
 20
-8.7195171639
 10
8.1848532529
 20
-8.7272922973
 10
8.1670832411
 20
-8.7372152358
 10
8.1498953891
 20
-8.7492994383
 10
8.1339568248
 20
-8.7632332432
 10
8.1194756204
 20
-8.7789045758
 10
8.1066590426
 20
-8.7961648591
 10
8.0959353639
 20
-8.8143835588
 10
8.0873904364
 20
-8.8331384939
 10
8.0809191732
 20
-8.8523294839
 10
8.0764852556
 20
-8.871725278
  0
LWPOLYLINE
  5
391
100
AcDbEntity
  8
RACCORDO
100
AcDbPolyline
 62
253
  6
CONTINUOUS
 90
13
 70
0
 10
7.2390121099
 20
-8.0342521323
 10
7.2567862828
 20
-8.0302679543
 10
7.2747391788
 20
-8.0244506645
 10
7.2926536946
 20
-8.0166755311
 10
7.3104237064
 20
-8.0067525926
 10
7.3276115583
 20
-7.9946683901
 10
7.3435501226
 20
-7.9807345852
 10
7.358031327
 20
-7.9650632526
 10
7.3708479048
 20
-7.9478029693
 10
7.3815715835
 20
-7.9295842696
 10
7.3901165111
 20
-7.9108293345
 10
7.3965877742
 20
-7.8916383445
 10
7.4010216918
 20
-7.8722425504
  0
LWPOLYLINE
  5
392
100
AcDbEntity
  8
RACCORDO
100
AcDbPolyline
 62
253
  6
CONTINUOUS
 90
13
 70
0
 10
8.2471653475
 20
-8.7588886015
 10
8.2334884975
 20
-8.7617500367
 10
8.2200395515
 20
-8.7661562554
 10
8.2068185096
 20
-8.7721072575
 10
8.1935330418
 20
-8.7797042889
 10
8.1804754781
 20
-8.7888461039
 10
8.1685228082
 20
-8.7992289646
 10
8.1578231171
 20
-8.8109955078
 10
8.1482283199
 20
-8.8240030968
 10
8.1401711522
 20
-8.8375200841
 10
8.1337958591
 20
-8.8513025871
 10
8.1289581953
 20
-8.8655944884
 10
8.1256581611
 20
-8.8803957879
  0
LWPOLYLINE
  5
393
100
AcDbEntity
  8
RACCORDO
100
AcDbPolyline
 62
253
  6
CONTINUOUS
 90
13
 70
0
 10
7.2303416
 20
-7.9850792269
 10
7.24401845
 20
-7.9822177917
 10
7.2574673959
 20
-7.977811573
 10
7.2706884378
 20
-7.9718605709
 10
7.2839739056
 20
-7.9642635395
 10
7.2970314694
 20
-7.9551217246
 10
7.3089841392
 20
-7.9447388638
 10
7.3196838303
 20
-7.9329723206
 10
7.3292786275
 20
-7.9199647316
 10
7.3373357952
 20
-7.9064477443
 10
7.3437110884
 20
-7.8926652413
 10
7.3485487521
 20
-7.87837334
 10
7.3518487864
 20
-7.8635720405
  0
LINE
  5
394
100
AcDbEntity
  8
RACCORDO
100
AcDbLine
 62
253
  6
CONTINUOUS
 10
7.5179498497
 20
-9.8224017286
 11
7.5671227551
 21
-9.8137312186
  0
LINE
  5
395
100
AcDbEntity
  8
RACCORDO
100
AcDbLine
 62
253
  6
CONTINUOUS
 10
9.1891712881
 20
-8.5927875382
 11
8.2471653475
 21
-8.7588886015
  0
LINE
  5
396
100
AcDbEntity
  8
RACCORDO
100
AcDbLine
 62
253
  6
CONTINUOUS
 10
7.3518487864
 20
-8.8803957879
 11
7.4010216918
 21
-8.871725278
  0
LINE
  5
397
100
AcDbEntity
  8
RACCORDO
100
AcDbLine
 62
253
  6
CONTINUOUS
 10
9.1805007779
 20
-8.5436146329
 11
8.2384948375
 21
-8.7097156961
  0
LINE
  5
398
100
AcDbEntity
  8
RACCORDO
100
AcDbLine
 62
253
  6
CONTINUOUS
 10
6.2970061359
 20
-8.2003532015
 11
7.2390121099
 21
-8.0342521323
  0
LINE
  5
399
100
AcDbEntity
  8
RACCORDO
100
AcDbLine
 62
253
  6
CONTINUOUS
 10
8.1256581611
 20
-7.8635720405
 11
8.0764852556
 21
-7.8722425504
  0
LINE
  5
39A
100
AcDbEntity
  8
RACCORDO
100
AcDbLine
 62
253
  6
CONTINUOUS
 10
6.2883356257
 20
-8.1511802961
 11
7.2303416
 21
-7.9850792269
  0
LINE
  5
39B
100
AcDbEntity
  8
RACCORDO
100
AcDbLine
 62
253
  6
CONTINUOUS
 10
7.9595570918
 20
-6.9215660662
 11
7.9103841864
 21
-6.9302365762
  0
LINE
  5
39C
100
AcDbEntity
  8
RACCORDO
100
AcDbLine
 62
7
  6
CONTINUOUS
 10
8.1671197151
 20
-8.6383405737
 11
8.2437161178
 21
-8.6257000231
  0
LINE
  5
39D
100
AcDbEntity
  8
RACCORDO
100
AcDbLine
 62
7
  6
CONTINUOUS
 10
7.3103872323
 20
-8.1056272547
 11
7.2337908289
 21
-8.1182678053
  0
LWPOLYLINE
  5
39E
100
AcDbEntity
  8
RACCORDO
100
AcDbPolyline
 62
253
  6
CONTINUOUS
 90
13
 70
0
 10
8.0764852556
 20
-87.8722425504
 10
8.0804694337
 20
-87.8900167233
 10
8.0862867234
 20
-87.9079696193
 10
8.0940618568
 20
-87.9258841351
 10
8.1039847953
 20
-87.9436541469
 10
8.1160689978
 20
-87.9608419988
 10
8.1300028027
 20
-87.9767805631
 10
8.1456741353
 20
-87.9912617675
 10
8.1629344186
 20
-88.0040783453
 10
8.1811531183
 20
-88.014802024
 10
8.1999080534
 20
-88.0233469516
 10
8.2190990435
 20
-88.0298182147
 10
8.2384948375
 20
-88.0342521323
  0
LWPOLYLINE
  5
39F
100
AcDbEntity
  8
RACCORDO
100
AcDbPolyline
 62
7
  6
CONTINUOUS
 90
7
 70
0
 10
7.9924696089
 20
-87.8670213473
 10
7.9898256713
 20
-87.8552023067
 10
7.9858350759
 20
-87.844594977
 10
7.980532676
 20
-87.8352421805
 10
7.9739605306
 20
-87.8271900997
 10
7.966168168
 20
-87.8204878436
 10
7.9572128504
 20
-87.8151869657
  0
LWPOLYLINE
  5
3A0
100
AcDbEntity
  8
RACCORDO
100
AcDbPolyline
 62
253
  6
CONTINUOUS
 90
13
 70
0
 10
8.1256581611
 20
-87.8635720405
 10
8.1285195962
 20
-87.8772488905
 10
8.1329258149
 20
-87.8906978364
 10
8.138876817
 20
-87.9039188783
 10
8.1464738484
 20
-87.9172043461
 10
8.1556156634
 20
-87.9302619099
 10
8.1659985241
 20
-87.9422145797
 10
8.1777650673
 20
-87.9529142708
 10
8.1907726563
 20
-87.962509068
 10
8.2042896436
 20
-87.9705662357
 10
8.2180721466
 20
-87.9769415289
 10
8.2323640479
 20
-87.9817791926
 10
8.2471653475
 20
-87.9850792269
  0
LINE
  5
3A1
100
AcDbEntity
  8
RACCORDO
100
AcDbLine
 62
253
  6
CONTINUOUS
 10
6.2883356257
 20
-88.1511802961
 11
6.2970061357
 21
-88.2003532015
  0
LINE
  5
3A2
100
AcDbEntity
  8
RACCORDO
100
AcDbLine
 62
253
  6
CONTINUOUS
 10
7.5179498497
 20
-89.8224017286
 11
7.3518487864
 21
-88.8803957879
  0
LINE
  5
3A3
100
AcDbEntity
  8
RACCORDO
100
AcDbLine
 62
253
  6
CONTINUOUS
 10
7.2303416
 20
-87.9850792269
 11
7.2390121099
 21
-88.0342521323
  0
LINE
  5
3A4
100
AcDbEntity
  8
RACCORDO
100
AcDbLine
 62
253
  6
CONTINUOUS
 10
7.5671227551
 20
-89.8137312184
 11
7.4010216918
 21
-88.871725278
  0
LINE
  5
3A5
100
AcDbEntity
  8
RACCORDO
100
AcDbLine
 62
253
  6
CONTINUOUS
 10
7.9103841864
 20
-86.9302365764
 11
8.0764852556
 21
-87.8722425504
  0
LINE
  5
3A6
100
AcDbEntity
  8
RACCORDO
100
AcDbLine
 62
253
  6
CONTINUOUS
 10
8.2471653475
 20
-88.7588886015
 11
8.2384948375
 21
-88.7097156961
  0
LINE
  5
3A7
100
AcDbEntity
  8
RACCORDO
100
AcDbLine
 62
253
  6
CONTINUOUS
 10
7.9595570918
 20
-86.9215660662
 11
8.1256581611
 21
-87.8635720405
  0
LINE
  5
3A8
100
AcDbEntity
  8
RACCORDO
100
AcDbLine
 62
253
  6
CONTINUOUS
 10
9.1891712881
 20
-88.5927875382
 11
9.1805007781
 21
-88.5436146328
  0
LINE
  5
3A9
100
AcDbEntity
  8
RACCORDO
100
AcDbLine
 62
7
  6
CONTINUOUS
 10
7.4723968142
 20
-88.8003501556
 11
7.4850373648
 21
-88.8769465583
  0
LINE
  5
3AA
100
AcDbEntity
  8
RACCORDO
100
AcDbLine
 62
7
  6
CONTINUOUS
 10
8.0051101332
 20
-87.9436176728
 11
7.9924695826
 21
-87.8670212694
  0
LINE
  5
3AB
100
AcDbEntity
  8
RACCORDO
100
AcDbLine
 62
253
  6
CONTINUOUS
 10
7.9534964407
 20
-87.7850801001
 11
7.9572129846
 21
-87.8151870479
  0
LINE
  5
3AC
100
AcDbEntity
  8
RACCORDO
100
AcDbLine
 62
253
  6
CONTINUOUS
 10
7.5259844875
 20
-88.9753233242
 11
7.5202939646
 21
-88.9287807996
  0
LINE
  5
3AD
100
AcDbEntity
  8
RACCORDO
100
AcDbLine
 62
253
  6
CONTINUOUS
 10
7.9477375051
 20
-87.736655581
 11
7.9534964407
 21
-87.7850801001
  0
LINE
  5
3AE
100
AcDbEntity
  8
RACCORDO
100
AcDbLine
 62
253
  6
CONTINUOUS
 10
7.5318107657
 20
-89.024973379
 11
7.5259844875
 21
-88.9753233242
  0
LINE
  5
3AF
100
AcDbEntity
  8
RACCORDO
100
AcDbLine
 62
253
  6
CONTINUOUS
 10
7.54013844
 20
-89.0992243025
 11
7.5318107657
 21
-89.024973379
  0
LINE
  5
3B0
100
AcDbEntity
  8
RACCORDO
100
AcDbLine
 62
253
  6
CONTINUOUS
 10
7.9283219756
 20
-87.5602762705
 11
7.9374246971
 21
-87.6452608806
  0
LINE
  5
3B1
100
AcDbEntity
  8
RACCORDO
100
AcDbLine
 62
253
  6
CONTINUOUS
 10
7.9156460098
 20
-87.4359938876
 11
7.9283219756
 21
-87.5602762705
  0
LINE
  5
3B2
100
AcDbEntity
  8
RACCORDO
100
AcDbLine
 62
253
  6
CONTINUOUS
 10
7.5674010089
 20
-89.3639763105
 11
7.55165159
 21
-89.2074033507
  0
LINE
  5
3B3
100
AcDbEntity
  8
RACCORDO
100
AcDbLine
 62
253
  6
CONTINUOUS
 10
7.8985549734
 20
-87.260298739
 11
7.9156460098
 21
-87.4359938876
  0
LINE
  5
3B4
100
AcDbEntity
  8
RACCORDO
100
AcDbLine
 62
253
  6
CONTINUOUS
 10
7.5881756372
 20
-89.5815502333
 11
7.5674010089
 21
-89.3639763105
  0
LINE
  5
3B5
100
AcDbEntity
  8
RACCORDO
100
AcDbLine
 62
253
  6
CONTINUOUS
 10
7.5021686266
 20
-89.0638052987
 11
7.4850373648
 21
-88.8769465583
  0
LINE
  5
3B6
100
AcDbEntity
  8
RACCORDO
100
AcDbLine
 62
253
  6
CONTINUOUS
 10
7.6149637752
 20
-89.874339054
 11
7.5881756372
 21
-89.5815502333
  0
LWPOLYLINE
  5
3B7
100
AcDbEntity
  8
RACCORDO
100
AcDbPolyline
 62
253
  6
CONTINUOUS
 90
3
 70
0
 10
7.8625431756
 20
-86.8696287824
 10
7.8660796395
 20
-86.9089932592
 10
7.8985549734
 20
-87.260298739
  0
LINE
  5
3B8
100
AcDbEntity
  8
RACCORDO
100
AcDbLine
 62
253
  6
CONTINUOUS
 10
7.9754723613
 20
-87.6816580442
 11
7.9924695826
 21
-87.8670212694
  0
LINE
  5
3B9
100
AcDbEntity
  8
RACCORDO
100
AcDbLine
 62
253
  6
CONTINUOUS
 10
7.5420432555
 20
-89.5204060581
 11
7.5021686266
 21
-89.0638052987
  0
LINE
  5
3BA
100
AcDbEntity
  8
RACCORDO
100
AcDbLine
 62
253
  6
CONTINUOUS
 10
7.935534303
 20
-87.2243834362
 11
7.9754723613
 21
-87.6816580442
  0
LINE
  5
3BB
100
AcDbEntity
  8
RACCORDO
100
AcDbLine
 62
253
  6
CONTINUOUS
 10
7.5671227551
 20
-89.8137312184
 11
7.5420432555
 21
-89.5204060581
  0
LINE
  5
3BC
100
AcDbEntity
  8
RACCORDO
100
AcDbLine
 62
253
  6
CONTINUOUS
 10
7.9103841864
 20
-86.9302365764
 11
7.935534303
 21
-87.2243834362
  0
LINE
  5
3BD
100
AcDbEntity
  8
RACCORDO
100
AcDbLine
 62
253
  6
CONTINUOUS
 10
7.8660990256
 20
-89.9174941009
 11
7.8625431753
 21
-89.8743390481
  0
LINE
  5
3BE
100
AcDbEntity
  8
RACCORDO
100
AcDbLine
 62
253
  6
CONTINUOUS
 10
7.6114079195
 20
-86.8264737332
 11
7.6149637694
 21
-86.869628784
  0
LWPOLYLINE
  5
3BF
100
AcDbEntity
  8
RACCORDO
100
AcDbPolyline
 62
253
  6
CONTINUOUS
 90
3
 70
0
 10
1.6318534886
 20
8.6573555204
 10
1.6364861147
 20
8.6013458445
 10
1.638694635
 20
8.5692425158
  0
LWPOLYLINE
  5
3C0
100
AcDbEntity
  8
RACCORDO
100
AcDbPolyline
 62
253
  6
CONTINUOUS
 90
3
 70
0
 10
5.0114384968
 20
-9.7960418114
 10
5.0185359437
 20
-9.9237241485
 10
5.0267530837
 20
-10.0543129567
  0
LWPOLYLINE
  5
3C1
100
AcDbEntity
  8
RACCORDO
100
AcDbPolyline
 62
253
  6
CONTINUOUS
 90
4
 70
0
 10
1.638694635
 20
8.5692425158
 10
1.6421356403
 20
8.4983665604
 10
1.6437383904
 20
8.4599280247
 10
1.6448224438
 20
8.4198441663
  0
LWPOLYLINE
  5
3C2
100
AcDbEntity
  8
RACCORDO
100
AcDbPolyline
 62
253
  6
CONTINUOUS
 90
3
 70
0
 10
4.9942419084
 20
-89.4277122632
 10
4.9994907207
 20
-89.5483199965
 10
5.0114406673
 20
-89.7960725432
  0
LWPOLYLINE
  5
3C3
100
AcDbEntity
  8
RACCORDO
100
AcDbPolyline
 62
253
  6
CONTINUOUS
 90
3
 70
0
 10
4.9942396502
 20
-9.4276669173
 10
4.9994888071
 20
-9.5482753505
 10
5.0114384968
 20
-9.7960418114
  0
LWPOLYLINE
  5
3C4
100
AcDbEntity
  8
RACCORDO
100
AcDbPolyline
 62
253
  6
CONTINUOUS
 90
3
 70
0
 10
4.9823866464
 20
-89.0789963016
 10
4.9858919294
 20
-89.1933350274
 10
4.9942419084
 20
-89.4277122632
  0
LWPOLYLINE
  5
3C5
100
AcDbEntity
  8
RACCORDO
100
AcDbPolyline
 62
253
  6
CONTINUOUS
 90
3
 70
0
 10
4.9823872558
 20
-9.0789903512
 10
4.9858918005
 20
-9.1933091412
 10
4.9942396502
 20
-9.4276669173
  0
LWPOLYLINE
  5
3C6
100
AcDbEntity
  8
RACCORDO
100
AcDbPolyline
 62
253
  6
CONTINUOUS
 90
3
 70
0
 10
4.9764225748
 20
-88.7984285359
 10
4.9775759927
 20
-88.860034725
 10
4.9823866464
 20
-89.0789963016
  0
LWPOLYLINE
  5
3C7
100
AcDbEntity
  8
RACCORDO
100
AcDbPolyline
 62
253
  6
CONTINUOUS
 90
3
 70
0
 10
4.9764222664
 20
-8.798426787
 10
4.9775758419
 20
-8.8600475739
 10
4.9823872558
 20
-9.0789903512
  0
LWPOLYLINE
  5
3C8
100
AcDbEntity
  8
RACCORDO
100
AcDbPolyline
 62
253
  6
CONTINUOUS
 90
15
 70
0
 10
4.6347049555
 20
-88.4669523144
 10
4.6354573266
 20
-88.5656641514
 10
4.6368215202
 20
-88.6681193991
 10
4.6387550995
 20
-88.7745543973
 10
4.6413005012
 20
-88.8847328062
 10
4.6445850356
 20
-88.9979456071
 10
4.6486334321
 20
-89.1142367373
 10
4.6534209612
 20
-89.2335622595
 10
4.6590007447
 20
-89.3550813431
 10
4.6653760891
 20
-89.4785034819
 10
4.6725436878
 20
-89.6041191822
 10
4.6805467431
 20
-89.7319591314
 10
4.6893996554
 20
-89.8620335588
 10
4.6990880242
 20
-89.9943322351
 10
4.7096118493
 20
-90.1288551604
  0
LWPOLYLINE
  5
3C9
100
AcDbEntity
  8
RACCORDO
100
AcDbPolyline
 62
253
  6
CONTINUOUS
 90
15
 70
0
 10
4.6347050084
 20
-8.4669545045
 10
4.6354573777
 20
-8.5656666231
 10
4.6368215147
 20
-8.6681202439
 10
4.6387550499
 20
-8.7745524702
 10
4.6413003529
 20
-8.8847261986
 10
4.6445845326
 20
-8.9979301192
 10
4.6486319647
 20
-9.1142017834
 10
4.6534182735
 20
-9.2335036397
 10
4.6589974418
 20
-9.3550117236
 10
4.6653733382
 20
-9.4784472288
 10
4.6725420941
 20
-9.6040889616
 10
4.6805460855
 20
-9.7319493757
 10
4.6893994378
 20
-9.8620326225
 10
4.6990880258
 20
-9.9943345507
 10
4.7096118493
 20
-10.1288551603
  0
LINE
  5
3CA
100
AcDbEntity
  8
RACCORDO
100
AcDbLine
 62
253
  6
CONTINUOUS
 10
4.7095463081
 20
-86.2090701537
 11
4.7096118493
 21
-86.2229986179
  0
LINE
  5
3CB
100
AcDbEntity
  8
RACCORDO
100
AcDbLine
 62
253
  6
CONTINUOUS
 10
4.7095463081
 20
-6.2090701537
 11
4.7096118493
 21
-6.2229986179
  0
LINE
  5
3CC
100
AcDbEntity
  8
RACCORDO
100
AcDbLine
 62
7
  6
CONTINUOUS
 10
4.5447937949
 20
-6.2541405741
 11
4.5447937949
 21
-10.4898272544
  0
LINE
  5
3CD
100
AcDbEntity
  8
RACCORDO
100
AcDbLine
 62
7
  6
CONTINUOUS
 10
4.5447937949
 20
-86.2541405741
 11
4.5447937949
 21
-90.4898272544
  0
LINE
  5
3CE
100
AcDbEntity
  8
RACCORDO
100
AcDbLine
 62
253
  6
CONTINUOUS
 10
4.7096118493
 20
-6.2229986179
 11
4.7096118493
 21
-6.615112668
  0
LINE
  5
3CF
100
AcDbEntity
  8
RACCORDO
100
AcDbLine
 62
253
  6
CONTINUOUS
 10
4.7096118493
 20
-86.2229986179
 11
4.7096118493
 21
-86.615112668
  0
LINE
  5
3D0
100
AcDbEntity
  8
RACCORDO
100
AcDbLine
 62
253
  6
CONTINUOUS
 10
4.9065734
 20
-6.2229988482
 11
4.9065734
 21
-6.615112668
  0
LINE
  5
3D1
100
AcDbEntity
  8
RACCORDO
100
AcDbLine
 62
253
  6
CONTINUOUS
 10
4.9065734
 20
-10.1288551604
 11
4.9065734
 21
-10.5209690288
  0
LINE
  5
3D2
100
AcDbEntity
  8
RACCORDO
100
AcDbLine
 62
253
  6
CONTINUOUS
 10
4.9065734
 20
-86.2229988482
 11
4.9065734
 21
-86.615112668
  0
LINE
  5
3D3
100
AcDbEntity
  8
RACCORDO
100
AcDbLine
 62
253
  6
CONTINUOUS
 10
4.9065734
 20
-90.1288551604
 11
4.9065734
 21
-90.5209690288
  0
LINE
  5
3D4
100
AcDbEntity
  8
DRAFT
100
AcDbLine
 62
7
  6
CONTINUOUS
 10
5.6217605587
 20
-2.0280996132
 11
5.6217605587
 21
-5.1333030007
  0
LINE
  5
3D5
100
AcDbEntity
  8
DRAFT
100
AcDbLine
 62
7
  6
CONTINUOUS
 10
5.6217605587
 20
-11.6106648278
 11
5.6217605587
 21
-14.7158682152
  0
LINE
  5
3D6
100
AcDbEntity
  8
DRAFT
100
AcDbLine
 62
7
  6
CONTINUOUS
 10
5.6217605587
 20
-82.0280996132
 11
5.6217605587
 21
-85.1333030007
  0
LINE
  5
3D7
100
AcDbEntity
  8
DRAFT
100
AcDbLine
 62
7
  6
CONTINUOUS
 10
5.6217605587
 20
-91.6106648278
 11
5.6217605587
 21
-94.7158682152
  0
LINE
  5
3D8
100
AcDbEntity
  8
RACCORDO
100
AcDbLine
 62
253
  6
CONTINUOUS
 10
5.6358160005
 20
-2.0408672195
 11
5.6358160005
 21
-5.1409162959
  0
LINE
  5
3D9
100
AcDbEntity
  8
RACCORDO
100
AcDbLine
 62
253
  6
CONTINUOUS
 10
5.6358160005
 20
-11.6030515325
 11
5.6358160005
 21
-14.7031006089
  0
LINE
  5
3DA
100
AcDbEntity
  8
RACCORDO
100
AcDbLine
 62
253
  6
CONTINUOUS
 10
5.6358160005
 20
-82.0408672195
 11
5.6358160005
 21
-85.1409162959
  0
LINE
  5
3DB
100
AcDbEntity
  8
RACCORDO
100
AcDbLine
 62
253
  6
CONTINUOUS
 10
5.6358160005
 20
-91.6030515325
 11
5.6358160005
 21
-94.7031006089
  0
LINE
  5
3DC
100
AcDbEntity
  8
RACCORDO
100
AcDbLine
 62
253
  6
CONTINUOUS
 10
5.7177921584
 20
8.5570243095
 11
5.7177921584
 21
8.856978618
  0
LINE
  5
3DD
100
AcDbEntity
  8
RACCORDO
100
AcDbLine
 62
253
  6
CONTINUOUS
 10
5.7177921584
 20
-105.3009921379
 11
5.7177921593
 21
-105.6009464464
  0
LINE
  5
3DE
100
AcDbEntity
  8
RACCORDO
100
AcDbLine
 62
253
  6
CONTINUOUS
 10
5.9177616974
 20
-105.1010225989
 11
5.9177616974
 21
-94.737713453
  0
LINE
  5
3DF
100
AcDbEntity
  8
RACCORDO
100
AcDbLine
 62
253
  6
CONTINUOUS
 10
5.9177616974
 20
-82.0062543754
 11
5.9177616974
 21
-14.737713453
  0
LINE
  5
3E0
100
AcDbEntity
  8
RACCORDO
100
AcDbLine
 62
253
  6
CONTINUOUS
 10
5.9177616974
 20
-2.0062543754
 11
5.9177616974
 21
8.3570547704
  0
LINE
  5
3E1
100
AcDbEntity
  8
RACCORDO
100
AcDbLine
 62
253
  6
CONTINUOUS
 10
5.9357703091
 20
-2.3197554003
 11
5.9357703091
 21
-5.3078962062
  0
LINE
  5
3E2
100
AcDbEntity
  8
RACCORDO
100
AcDbLine
 62
253
  6
CONTINUOUS
 10
5.9357703091
 20
-11.4360716222
 11
5.9357703091
 21
-14.4242124281
  0
LINE
  5
3E3
100
AcDbEntity
  8
RACCORDO
100
AcDbLine
 62
253
  6
CONTINUOUS
 10
5.9357703091
 20
-82.3197554003
 11
5.9357703091
 21
-85.3078962062
  0
LINE
  5
3E4
100
AcDbEntity
  8
RACCORDO
100
AcDbLine
 62
253
  6
CONTINUOUS
 10
5.9357703091
 20
-91.4360716222
 11
5.9357703091
 21
-94.4242124281
  0
LINE
  5
3E5
100
AcDbEntity
  8
RACCORDO
100
AcDbLine
 62
253
  6
CONTINUOUS
 10
6.2177160059
 20
-105.1010225989
 11
6.2177160059
 21
-94.7509117561
  0
LINE
  5
3E6
100
AcDbEntity
  8
RACCORDO
100
AcDbLine
 62
253
  6
CONTINUOUS
 10
6.2177160059
 20
-81.9930560723
 11
6.2177160059
 21
-14.7509117561
  0
LINE
  5
3E7
100
AcDbEntity
  8
RACCORDO
100
AcDbLine
 62
253
  6
CONTINUOUS
 10
6.2177160059
 20
-1.9930560723
 11
6.2177160059
 21
8.3570547704
  0
LINE
  5
3E8
100
AcDbEntity
  8
RACCORDO
100
AcDbLine
 62
7
  6
CONTINUOUS
 10
6.2387534737
 20
8.3780922382
 11
6.2387534737
 21
-1.9719839142
  0
LINE
  5
3E9
100
AcDbEntity
  8
DRAFT
100
AcDbLine
 62
7
  6
CONTINUOUS
 10
6.2387534737
 20
-14.7719839142
 11
6.2387534737
 21
-81.9719839142
  0
LINE
  5
3EA
100
AcDbEntity
  8
RACCORDO
100
AcDbLine
 62
7
  6
CONTINUOUS
 10
6.2387534737
 20
-94.7719839142
 11
6.2387534737
 21
-105.1220600666
  0
LWPOLYLINE
  5
3EB
100
AcDbEntity
  8
RACCORDO
100
AcDbPolyline
 62
253
  6
CONTINUOUS
 90
46
 70
0
 10
4.7096118493
 20
-10.1288551603
 10
4.7095865466
 20
-10.528876261
 10
4.7095287458
 20
-10.5364894995
 10
4.7094384469
 20
-10.5438089262
 10
4.7093131457
 20
-10.5508281527
 10
4.7091553463
 20
-10.5575535674
 10
4.7089725617
 20
-10.5640043354
 10
4.7087653549
 20
-10.5701795633
 10
4.708533163
 20
-10.5760801445
 10
4.7082818092
 20
-10.5817279245
 10
4.7080116065
 20
-10.5871243677
 10
4.707722242
 20
-10.5922680097
 10
4.707418601
 20
-10.5971763028
 10
4.7071006112
 20
-10.6018522437
 10
4.7067683448
 20
-10.6062928359
 10
4.7064269031
 20
-10.6105065416
 10
4.7060762355
 20
-10.6144928491
 10
4.7057163925
 20
-10.6182522702
 10
4.7053526275
 20
-10.6217948034
 10
4.7049858061
 20
-10.6251136552
 10
4.7046150627
 20
-10.6282156191
 10
4.7042430534
 20
-10.6311310744
 10
4.7038713854
 20
-10.6338545372
 10
4.7034984516
 20
-10.6363914914
 10
4.703122087
 20
-10.6387887681
 10
4.7027432302
 20
-10.6410499626
 10
4.7023609428
 20
-10.6431714796
 10
4.7019702438
 20
-10.6451893642
 10
4.7015711913
 20
-10.6471117987
 10
4.7011637274
 20
-10.6489306009
 10
4.7007426977
 20
-10.6506572688
 10
4.7003074373
 20
-10.6523002857
 10
4.6998586112
 20
-10.6538511683
 10
4.6993930593
 20
-10.6552959652
 10
4.6989105957
 20
-10.6566392907
 10
4.6984114064
 20
-10.6578765305
 10
4.6978928898
 20
-10.6589798911
 10
4.6973548504
 20
-10.6599536483
 10
4.6967974838
 20
-10.6607935262
 10
4.696218775
 20
-10.6614589042
 10
4.6956183276
 20
-10.6619539962
 10
4.694996538
 20
-10.6622745882
 10
4.6943525814
 20
-10.6623674175
 10
4.6936861827
 20
-10.6622147298
 10
4.692997617
 20
-10.6618342795
 10
4.6922868843
 20
-10.6612260665
  0
LWPOLYLINE
  5
3EC
100
AcDbEntity
  8
RACCORDO
100
AcDbPolyline
 62
253
  6
CONTINUOUS
 90
46
 70
0
 10
4.7096118493
 20
-90.1288551604
 10
4.7095865466
 20
-90.528876261
 10
4.7095287458
 20
-90.5364894995
 10
4.7094384469
 20
-90.5438089262
 10
4.7093131457
 20
-90.5508281527
 10
4.7091553463
 20
-90.5575535674
 10
4.7089725617
 20
-90.5640043354
 10
4.7087653549
 20
-90.5701795633
 10
4.708533163
 20
-90.5760801445
 10
4.7082818092
 20
-90.5817279245
 10
4.7080116065
 20
-90.5871243677
 10
4.707722242
 20
-90.5922680097
 10
4.707418601
 20
-90.5971763028
 10
4.7071006112
 20
-90.6018522437
 10
4.7067683448
 20
-90.6062928359
 10
4.7064269031
 20
-90.6105065416
 10
4.7060762355
 20
-90.6144928491
 10
4.7057163925
 20
-90.6182522702
 10
4.7053526275
 20
-90.6217948034
 10
4.7049858061
 20
-90.6251136552
 10
4.7046150627
 20
-90.6282156191
 10
4.7042430534
 20
-90.6311310744
 10
4.7038713854
 20
-90.6338545372
 10
4.7034984516
 20
-90.6363914914
 10
4.703122087
 20
-90.6387887681
 10
4.7027432302
 20
-90.6410499626
 10
4.7023609428
 20
-90.6431714796
 10
4.7019702438
 20
-90.6451893642
 10
4.7015711913
 20
-90.6471117987
 10
4.7011637274
 20
-90.6489306009
 10
4.7007426977
 20
-90.6506572688
 10
4.7003074373
 20
-90.6523002857
 10
4.6998586112
 20
-90.6538511683
 10
4.6993930593
 20
-90.6552959652
 10
4.6989105957
 20
-90.6566392907
 10
4.6984114064
 20
-90.6578765305
 10
4.6978928898
 20
-90.6589798911
 10
4.6973548504
 20
-90.6599536483
 10
4.6967974838
 20
-90.6607935262
 10
4.696218775
 20
-90.6614589042
 10
4.6956183276
 20
-90.6619539962
 10
4.694996538
 20
-90.6622745882
 10
4.6943525814
 20
-90.6623674175
 10
4.6936861827
 20
-90.6622147298
 10
4.692997617
 20
-90.6618342795
 10
4.6922868843
 20
-90.6612260665
  0
LWPOLYLINE
  5
3ED
100
AcDbEntity
  8
RACCORDO
100
AcDbPolyline
 62
253
  6
CONTINUOUS
 90
7
 70
0
 10
2.5073800553
 20
-105.0907323396
 10
2.5065353602
 20
-105.1266443423
 10
2.504153748
 20
-105.1622086979
 10
2.5002352186
 20
-105.1974254062
 10
2.494779772
 20
-105.2322944675
 10
2.4877874083
 20
-105.2668158815
 10
2.4792581273
 20
-105.3009896485
  0
LWPOLYLINE
  5
3EE
100
AcDbEntity
  8
RACCORDO
100
AcDbPolyline
 62
253
  6
CONTINUOUS
 90
3
 70
0
 10
4.9831902162
 20
-7.6383550693
 10
4.9803794777
 20
-7.7501846943
 10
4.9763011952
 20
-7.9462276706
  0
LWPOLYLINE
  5
3EF
100
AcDbEntity
  8
RACCORDO
100
AcDbPolyline
 62
253
  6
CONTINUOUS
 90
3
 70
0
 10
4.9831922216
 20
-87.6383129228
 10
4.9803808802
 20
-87.7501330232
 10
4.9763007733
 20
-87.9462300634
  0
LWPOLYLINE
  5
3F0
100
AcDbEntity
  8
RACCORDO
100
AcDbPolyline
 62
253
  6
CONTINUOUS
 90
24
 70
0
 10
2.2074257467
 20
-105.0907323396
 10
2.2063806226
 20
-105.1231411173
 10
2.2032540643
 20
-105.1552859475
 10
2.1980837449
 20
-105.1870352367
 10
2.1909249457
 20
-105.2182255227
 10
2.1818260173
 20
-105.248771652
 10
2.1708050989
 20
-105.2786603911
 10
2.157911193
 20
-105.3077684781
 10
2.1431982352
 20
-105.3359823448
 10
2.1266617507
 20
-105.3632915421
 10
2.1083595475
 20
-105.3895637011
 10
2.0883434721
 20
-105.4146907991
 10
2.06656764
 20
-105.438672229
 10
2.0430204995
 20
-105.4614306547
 10
2.0178228183
 20
-105.4827644257
 10
1.9911318309
 20
-105.5024836977
 10
1.9630261061
 20
-105.5204858142
 10
1.9336299961
 20
-105.5366484258
 10
1.9032117584
 20
-105.550804321
 10
1.8719588619
 20
-105.5628713349
 10
1.8399632441
 20
-105.5728189931
 10
1.8073721416
 20
-105.5806012937
 10
1.7743331226
 20
-105.5861831686
 10
1.7409931794
 20
-105.5895398326
  0
LWPOLYLINE
  5
3F1
100
AcDbEntity
  8
RACCORDO
100
AcDbPolyline
 62
7
  6
CONTINUOUS
 90
10
 70
0
 10
4.5447937949
 20
-86.2541405741
 10
4.5452988181
 20
-86.2397112906
 10
4.5467890755
 20
-86.2254238164
 10
4.549264567
 20
-86.2112781515
 10
4.5527466655
 20
-86.1971952696
 10
4.5572139982
 20
-86.183254197
 10
4.5626024468
 20
-86.1696920126
 10
4.5688906384
 20
-86.1565877425
 10
4.5760999459
 20
-86.1438623605
 10
4.5842303692
 20
-86.1315158665
  0
LWPOLYLINE
  5
3F2
100
AcDbEntity
  8
RACCORDO
100
AcDbPolyline
 62
253
  6
CONTINUOUS
 90
3
 70
0
 10
4.995209895
 20
-87.2939651276
 10
4.990716102
 20
-87.4097062331
 10
4.9831922216
 20
-87.6383129228
  0
LWPOLYLINE
  5
3F3
100
AcDbEntity
  8
RACCORDO
100
AcDbPolyline
 62
253
  6
CONTINUOUS
 90
4
 70
0
 10
1.6421357328
 20
-105.2423321648
 10
1.6437384497
 20
-105.2038938009
 10
1.6448224931
 20
-105.1638102152
 10
1.6466427626
 20
-105.0812211486
  0
LWPOLYLINE
  5
3F4
100
AcDbEntity
  8
RACCORDO
100
AcDbPolyline
 62
253
  6
CONTINUOUS
 90
4
 70
0
 10
5.0003481785
 20
-7.1767004884
 10
4.9952101837
 20
-7.2939622685
 10
4.9907161147
 20
-7.4097156061
 10
4.9831902162
 20
-7.6383550693
  0
LWPOLYLINE
  5
3F5
100
AcDbEntity
  8
RACCORDO
100
AcDbPolyline
 62
253
  6
CONTINUOUS
 90
5
 70
0
 10
5.0267510984
 20
-86.6896605305
 10
5.0189844384
 20
-86.8145581937
 10
5.0121076987
 20
-86.9372294146
 10
5.0059717498
 20
-87.0578635443
 10
4.995209895
 20
-87.2939651276
  0
LWPOLYLINE
  5
3F6
100
AcDbEntity
  8
RACCORDO
100
AcDbPolyline
 62
253
  6
CONTINUOUS
 90
3
 70
0
 10
1.6364862635
 20
-105.3453115734
 10
1.6386947671
 20
-105.3132081108
 10
1.6421357328
 20
-105.2423321648
  0
LWPOLYLINE
  5
3F7
100
AcDbEntity
  8
RACCORDO
100
AcDbPolyline
 62
253
  6
CONTINUOUS
 90
16
 70
0
 10
4.7096118493
 20
-86.615112668
 10
4.6995198213
 20
-86.7437750849
 10
4.6901765915
 20
-86.8708140759
 10
4.6815821601
 20
-86.996229641
 10
4.6737465588
 20
-87.119869159
 10
4.6666597559
 20
-87.2418852511
 10
4.6602916554
 20
-87.3627357807
 10
4.6546338156
 20
-87.4827402543
 10
4.6496946781
 20
-87.6015791654
 10
4.6454694723
 20
-87.7187518577
 10
4.6419764914
 20
-87.8346030092
 10
4.6391974422
 20
-87.9487879418
 10
4.6370726741
 20
-88.0597719651
 10
4.6355823038
 20
-88.1670435155
 10
4.6347462147
 20
-88.2711141565
 10
4.6347049555
 20
-88.4669523144
  0
LINE
  5
3F8
100
AcDbEntity
  8
RACCORDO
100
AcDbLine
 62
253
  6
CONTINUOUS
 10
7.6114079239
 20
-9.917494106
 11
7.6149637745
 21
-9.874339054
  0
LINE
  5
3F9
100
AcDbEntity
  8
RACCORDO
100
AcDbLine
 62
253
  6
CONTINUOUS
 10
7.8660990261
 20
-6.8264737289
 11
7.8625431769
 21
-6.8696287887
  0
LINE
  5
3FA
100
AcDbEntity
  8
RACCORDO
100
AcDbLine
 62
253
  6
CONTINUOUS
 10
7.5671227605
 20
-6.930236579
 11
7.5002323334
 21
-7.7017224297
  0
LINE
  5
3FB
100
AcDbEntity
  8
RACCORDO
100
AcDbLine
 62
253
  6
CONTINUOUS
 10
7.9103841883
 20
-9.8137312412
 11
7.9787932334
 21
-9.0253994402
  0
LINE
  5
3FC
100
AcDbEntity
  8
RACCORDO
100
AcDbLine
 62
253
  6
CONTINUOUS
 10
7.6149637673
 20
-6.8696287842
 11
7.5850404082
 21
-7.1958605785
  0
LINE
  5
3FD
100
AcDbEntity
  8
RACCORDO
100
AcDbLine
 62
253
  6
CONTINUOUS
 10
7.8625431774
 20
-9.8743390479
 11
7.8924228644
 21
-9.5485721548
  0
LINE
  5
3FE
100
AcDbEntity
  8
RACCORDO
100
AcDbLine
 62
253
  6
CONTINUOUS
 10
7.5002323334
 20
-7.7017224297
 11
7.4850373648
 21
-7.8670212697
  0
LINE
  5
3FF
100
AcDbEntity
  8
RACCORDO
100
AcDbLine
 62
253
  6
CONTINUOUS
 10
7.9787932334
 20
-9.0253994402
 11
7.9924695826
 21
-8.8769465583
  0
LINE
  5
400
100
AcDbEntity
  8
RACCORDO
100
AcDbLine
 62
253
  6
CONTINUOUS
 10
7.5850404082
 20
-7.1958605785
 11
7.5645423917
 21
-7.4089969877
  0
LINE
  5
401
100
AcDbEntity
  8
RACCORDO
100
AcDbLine
 62
253
  6
CONTINUOUS
 10
7.8924228644
 20
-9.5485721548
 11
7.9128984202
 21
-9.3356409889
  0
LINE
  5
402
100
AcDbEntity
  8
RACCORDO
100
AcDbLine
 62
253
  6
CONTINUOUS
 10
7.5645423917
 20
-7.4089969877
 11
7.5515504039
 21
-7.5375411768
  0
LINE
  5
403
100
AcDbEntity
  8
RACCORDO
100
AcDbLine
 62
253
  6
CONTINUOUS
 10
7.9128984202
 20
-9.3356409889
 11
7.9258829324
 21
-9.2071371051
  0
LWPOLYLINE
  5
404
100
AcDbEntity
  8
RACCORDO
100
AcDbPolyline
 62
253
  6
CONTINUOUS
 90
22
 70
0
 10
9.2842636655
 20
-8.4993294641
 10
9.2837436068
 20
-8.5042891452
 10
9.2828877595
 20
-8.5093043257
 10
9.2816961237
 20
-8.5143750058
 10
9.2801843682
 20
-8.5195195398
 10
9.2783368243
 20
-8.5247195734
 10
9.2761064848
 20
-8.5299200431
 10
9.273492005
 20
-8.535125096
 10
9.2704947297
 20
-8.5403305851
 10
9.2670716859
 20
-8.5454690062
 10
9.2632299259
 20
-8.5505405699
 10
9.2589623973
 20
-8.5555450655
 10
9.25420497
 20
-8.5604143563
 10
9.2489428612
 20
-8.5651705181
 10
9.2431908537
 20
-8.5697914751
 10
9.2369291652
 20
-8.5741428627
 10
9.2301306418
 20
-8.5782367067
 10
9.2228224374
 20
-8.5820609813
 10
9.2150662318
 20
-8.5854452459
 10
9.2068825851
 20
-8.5883326867
 10
9.1982509371
 20
-8.5907801175
 10
9.1891712881
 20
-8.5927875382
  0
LINE
  5
405
100
AcDbEntity
  8
RACCORDO
100
AcDbLine
 62
253
  6
CONTINUOUS
 10
7.9258829324
 20
-9.2071371051
 11
7.9351823248
 21
-9.1192323956
  0
LINE
  5
406
100
AcDbEntity
  8
RACCORDO
100
AcDbLine
 62
253
  6
CONTINUOUS
 10
7.9351823248
 20
-9.1192323956
 11
7.9436796593
 21
-9.0426308202
  0
LINE
  5
407
100
AcDbEntity
  8
RACCORDO
100
AcDbLine
 62
253
  6
CONTINUOUS
 10
7.9436796593
 20
-9.0426308202
 11
7.9476539332
 21
-9.007983974
  0
LINE
  5
408
100
AcDbEntity
  8
RACCORDO
100
AcDbLine
 62
253
  6
CONTINUOUS
 10
7.1518496596
 20
-8.1572409472
 11
7.1819566075
 21
-8.1535244034
  0
LINE
  5
409
100
AcDbEntity
  8
RACCORDO
100
AcDbLine
 62
253
  6
CONTINUOUS
 10
8.3420928837
 20
-8.5847529004
 11
8.2955503591
 21
-8.5904434233
  0
LINE
  5
40A
100
AcDbEntity
  8
RACCORDO
100
AcDbLine
 62
253
  6
CONTINUOUS
 10
7.1034251406
 20
-8.1629998828
 11
7.1518496596
 21
-8.1572409472
  0
LINE
  5
40B
100
AcDbEntity
  8
RACCORDO
100
AcDbLine
 62
253
  6
CONTINUOUS
 10
8.3917429385
 20
-8.5789266222
 11
8.3420928837
 21
-8.5847529004
  0
LINE
  5
40C
100
AcDbEntity
  8
RACCORDO
100
AcDbLine
 62
253
  6
CONTINUOUS
 10
7.0315290282
 20
-8.1711658212
 11
7.1034251406
 21
-8.1629998828
  0
LINE
  5
40D
100
AcDbEntity
  8
RACCORDO
100
AcDbLine
 62
253
  6
CONTINUOUS
 10
8.465993862
 20
-8.5705989479
 11
8.3917429385
 21
-8.5789266222
  0
LINE
  5
40E
100
AcDbEntity
  8
RACCORDO
100
AcDbLine
 62
253
  6
CONTINUOUS
 10
6.9494020322
 20
-8.1800541602
 11
7.0315290282
 21
-8.1711658212
  0
LINE
  5
40F
100
AcDbEntity
  8
RACCORDO
100
AcDbLine
 62
253
  6
CONTINUOUS
 10
8.5509991547
 20
-8.5614961443
 11
8.465993862
 21
-8.5705989479
  0
LINE
  5
410
100
AcDbEntity
  8
RACCORDO
100
AcDbLine
 62
253
  6
CONTINUOUS
 10
6.8549924778
 20
-8.189840895
 11
6.9494020322
 21
-8.1800541602
  0
LINE
  5
411
100
AcDbEntity
  8
RACCORDO
100
AcDbLine
 62
253
  6
CONTINUOUS
 10
8.6752353288
 20
-8.5488274627
 11
8.5509991547
 21
-8.5614961443
  0
LINE
  5
412
100
AcDbEntity
  8
RACCORDO
100
AcDbLine
 62
253
  6
CONTINUOUS
 10
6.6885941052
 20
-8.2062822209
 11
6.8549924778
 21
-8.189840895
  0
LINE
  5
413
100
AcDbEntity
  8
RACCORDO
100
AcDbLine
 62
253
  6
CONTINUOUS
 10
8.850824263
 20
-8.5317486342
 11
8.6752353288
 21
-8.5488274627
  0
LINE
  5
414
100
AcDbEntity
  8
RACCORDO
100
AcDbLine
 62
253
  6
CONTINUOUS
 10
6.4253474043
 20
-8.2310232868
 11
6.6885941052
 21
-8.2062822209
  0
LINE
  5
415
100
AcDbEntity
  8
RACCORDO
100
AcDbLine
 62
253
  6
CONTINUOUS
 10
8.4305748582
 20
-8.6085687613
 11
8.2437161178
 21
-8.6257000231
  0
LWPOLYLINE
  5
416
100
AcDbEntity
  8
RACCORDO
100
AcDbPolyline
 62
253
  6
CONTINUOUS
 90
3
 70
0
 10
9.2411086135
 20
-8.4957736128
 10
9.2017549591
 20
-8.4993096708
 10
8.850824263
 20
-8.5317486342
  0
LINE
  5
417
100
AcDbEntity
  8
RACCORDO
100
AcDbLine
 62
253
  6
CONTINUOUS
 10
6.2363983419
 20
-8.2481942123
 11
6.4253474043
 21
-8.2310232868
  0
LINE
  5
418
100
AcDbEntity
  8
RACCORDO
100
AcDbLine
 62
253
  6
CONTINUOUS
 10
7.0484276037
 20
-8.1352650266
 11
7.2337908289
 21
-8.1182678053
  0
LINE
  5
419
100
AcDbEntity
  8
RACCORDO
100
AcDbLine
 62
253
  6
CONTINUOUS
 10
8.8871756176
 20
-8.5686941324
 11
8.4305748582
 21
-8.6085687613
  0
LINE
  5
41A
100
AcDbEntity
  8
RACCORDO
100
AcDbLine
 62
253
  6
CONTINUOUS
 10
6.5911529957
 20
-8.1752030849
 11
7.0484276037
 21
-8.1352650266
  0
LINE
  5
41B
100
AcDbEntity
  8
RACCORDO
100
AcDbLine
 62
253
  6
CONTINUOUS
 10
9.1805007779
 20
-8.5436146329
 11
8.8871756176
 21
-8.5686941324
  0
LINE
  5
41C
100
AcDbEntity
  8
RACCORDO
100
AcDbLine
 62
253
  6
CONTINUOUS
 10
6.2970061359
 20
-8.2003532015
 11
6.5911529957
 21
-8.1752030849
  0
LINE
  5
41D
100
AcDbEntity
  8
RACCORDO
100
AcDbLine
 62
253
  6
CONTINUOUS
 10
9.2842636604
 20
-8.2446383623
 11
9.2411086076
 21
-8.2481942126
  0
LINE
  5
41E
100
AcDbEntity
  8
RACCORDO
100
AcDbLine
 62
253
  6
CONTINUOUS
 10
6.1932432927
 20
-8.4993294684
 11
6.2363983435
 21
-8.4957736185
  0
LINE
  5
41F
100
AcDbEntity
  8
RACCORDO
100
AcDbLine
 62
253
  6
CONTINUOUS
 10
4.9065734
 20
-10.5209692106
 11
4.7096118493
 21
-10.5209692106
  0
LINE
  5
420
100
AcDbEntity
  8
RACCORDO
100
AcDbLine
 62
253
  6
CONTINUOUS
 10
4.9065734
 20
-10.1288698984
 11
4.7096118493
 21
-10.1288698984
  0
LINE
  5
421
100
AcDbEntity
  8
RACCORDO
100
AcDbLine
 62
7
  6
CONTINUOUS
 10
6.0433698857
 20
-14.7432813212
 11
6.1755308327
 21
-14.7480454536
  0
LWPOLYLINE
  5
422
100
AcDbEntity
  8
RACCORDO
100
AcDbPolyline
 62
7
  6
CONTINUOUS
 90
7
 70
0
 10
6.1755308327
 20
-14.7480454536
 10
6.1878886657
 20
-14.7485609972
 10
6.1982452486
 20
-14.7490515593
 10
6.2064340534
 20
-14.7495305729
 10
6.2124051374
 20
-14.7500025158
 10
6.2161662043
 20
-14.7504629102
 10
6.2177160059
 20
-14.7509117561
  0
LINE
  5
423
100
AcDbEntity
  8
RACCORDO
100
AcDbLine
 62
7
  6
CONTINUOUS
 10
5.9689802575
 20
-14.7401705303
 11
6.0433698857
 21
-14.7432813212
  0
LINE
  5
424
100
AcDbEntity
  8
RACCORDO
100
AcDbLine
 62
7
  6
CONTINUOUS
 10
5.9177616974
 20
-14.737713453
 11
5.9689802575
 21
-14.7401705303
  0
LWPOLYLINE
  5
425
100
AcDbEntity
  8
RACCORDO
100
AcDbPolyline
 62
253
  6
CONTINUOUS
 90
3
 70
0
 10
7.9374246971
 20
-87.6452608806
 10
7.9395715668
 20
-87.6647594686
 10
7.9477375051
 20
-87.736655581
  0
LINE
  5
426
100
AcDbEntity
  8
RACCORDO
100
AcDbLine
 62
253
  6
CONTINUOUS
 10
7.5492412436
 20
-9.1842295952
 11
7.54013844
 21
-9.0992243025
  0
LINE
  5
427
100
AcDbEntity
  8
RACCORDO
100
AcDbLine
 62
253
  6
CONTINUOUS
 10
7.9283219756
 20
-7.5602762705
 11
7.9374246971
 21
-7.6452608806
  0
LINE
  5
428
100
AcDbEntity
  8
RACCORDO
100
AcDbLine
 62
253
  6
CONTINUOUS
 10
7.5619099252
 20
-9.3084657693
 11
7.5492412436
 21
-9.1842295952
  0
LINE
  5
429
100
AcDbEntity
  8
RACCORDO
100
AcDbLine
 62
253
  6
CONTINUOUS
 10
7.9156460098
 20
-7.4359938876
 11
7.9283219756
 21
-7.5602762705
  0
LINE
  5
42A
100
AcDbEntity
  8
RACCORDO
100
AcDbLine
 62
253
  6
CONTINUOUS
 10
7.5789887537
 20
-9.4840547035
 11
7.5619099252
 21
-9.3084657693
  0
LINE
  5
42B
100
AcDbEntity
  8
RACCORDO
100
AcDbLine
 62
253
  6
CONTINUOUS
 10
7.8985549734
 20
-7.260298739
 11
7.9156460098
 21
-7.4359938876
  0
LINE
  5
42C
100
AcDbEntity
  8
RACCORDO
100
AcDbLine
 62
253
  6
CONTINUOUS
 10
7.5021686266
 20
-9.0638052987
 11
7.4850373648
 21
-8.8769465583
  0
LWPOLYLINE
  5
42D
100
AcDbEntity
  8
RACCORDO
100
AcDbPolyline
 62
253
  6
CONTINUOUS
 90
3
 70
0
 10
7.6149637752
 20
-9.874339054
 10
7.6114277171
 20
-9.8349853996
 10
7.5789887537
 20
-9.4840547035
  0
LWPOLYLINE
  5
42E
100
AcDbEntity
  8
RACCORDO
100
AcDbPolyline
 62
253
  6
CONTINUOUS
 90
3
 70
0
 10
7.8625431756
 20
-6.8696287824
 10
7.8660796395
 20
-6.9089932592
 10
7.8985549734
 20
-7.260298739
  0
LINE
  5
42F
100
AcDbEntity
  8
RACCORDO
100
AcDbLine
 62
253
  6
CONTINUOUS
 10
7.9754723613
 20
-7.6816580442
 11
7.9924695826
 21
-7.8670212694
  0
LINE
  5
430
100
AcDbEntity
  8
RACCORDO
100
AcDbLine
 62
253
  6
CONTINUOUS
 10
7.5671227551
 20
-9.8137312184
 11
7.5021686266
 21
-9.0638052987
  0
LINE
  5
431
100
AcDbEntity
  8
RACCORDO
100
AcDbLine
 62
253
  6
CONTINUOUS
 10
7.9103841864
 20
-6.9302365764
 11
7.9754723613
 21
-7.6816580442
  0
LINE
  5
432
100
AcDbEntity
  8
RACCORDO
100
AcDbLine
 62
253
  6
CONTINUOUS
 10
7.6114079195
 20
-6.8264737332
 11
7.6149637694
 21
-6.869628784
  0
LINE
  5
433
100
AcDbEntity
  8
RACCORDO
100
AcDbLine
 62
253
  6
CONTINUOUS
 10
7.8660990256
 20
-9.9174941009
 11
7.8625431753
 21
-9.8743390481
  0
LWPOLYLINE
  5
434
100
AcDbEntity
  8
RACCORDO
100
AcDbPolyline
 62
253
  6
CONTINUOUS
 90
22
 70
0
 10
5.9177616974
 20
8.3570547704
 10
5.9171762871
 20
8.3721453935
 10
5.9155032686
 20
8.386987551
 10
5.912742642
 20
8.4015812431
 10
5.9088665878
 20
8.4160053717
 10
5.9039029254
 20
8.4301810348
 10
5.8979351131
 20
8.4438715268
 10
5.8909466212
 20
8.4570682582
 10
5.8829539794
 20
8.4697798185
 10
5.8740902347
 20
8.4817952708
 10
5.864340878
 20
8.4931029825
 10
5.8537204185
 20
8.5037145861
 10
5.8424054314
 20
8.513454042
 10
5.830384319
 20
8.5223066883
 10
5.817668679
 20
8.530287187
 10
5.80446988
 20
8.5372634842
 10
5.7907754643
 20
8.5432191406
 10
5.7765978896
 20
8.5481705956
 10
5.7621858975
 20
8.5520351135
 10
5.7476224019
 20
8.5547851159
 10
5.7328244888
 20
8.5564481812
 10
5.7177921584
 20
8.5570243095
  0
LWPOLYLINE
  5
435
100
AcDbEntity
  8
RACCORDO
100
AcDbPolyline
 62
253
  6
CONTINUOUS
 90
22
 70
0
 10
6.2177160059
 20
8.3570547704
 10
6.2163116605
 20
8.3944118034
 10
6.2121200321
 20
8.4315595149
 10
6.2051645983
 20
8.468290261
 10
6.1954842992
 20
8.5043987471
 10
6.1831332752
 20
8.5396831218
 10
6.1681805649
 20
8.5739461064
 10
6.1507097952
 20
8.6069961602
 10
6.1308186631
 20
8.6386485754
 10
6.1086183345
 20
8.6687264497
 10
6.0842329372
 20
8.6970616289
 10
6.0577987933
 20
8.7234957557
 10
6.0294635778
 20
8.7478811509
 10
5.9993856257
 20
8.7700815003
 10
5.9677331056
 20
8.7899726555
 10
5.93468298
 20
8.8074434168
 10
5.9004199861
 20
8.8223960861
 10
5.8651356458
 20
8.8347470576
 10
5.8290272303
 20
8.8444273031
 10
5.7922965881
 20
8.85138269
 10
5.7551490166
 20
8.8555742849
 10
5.7177921584
 20
8.856978618
  0
LWPOLYLINE
  5
436
100
AcDbEntity
  8
RACCORDO
100
AcDbPolyline
 62
7
  6
CONTINUOUS
 90
22
 70
0
 10
6.2387534737
 20
8.3780922382
 10
6.2373620007
 20
8.4153724581
 10
6.2331874258
 20
8.4524948135
 10
6.2262417365
 20
8.4892509139
 10
6.2165378943
 20
8.5254808233
 10
6.2041268549
 20
8.5609282876
 10
6.1891328909
 20
8.5952543213
 10
6.1717212939
 20
8.6281699363
 10
6.1519636946
 20
8.6596160497
 10
6.1298539934
 20
8.689598734
 10
6.1053930616
 20
8.7180452624
 10
6.0787826503
 20
8.7446556736
 10
6.0503361219
 20
8.7691166055
 10
6.0203534376
 20
8.7912263067
 10
5.9889073242
 20
8.810983906
 10
5.9559917092
 20
8.828395503
 10
5.9216656755
 20
8.843389467
 10
5.8862182113
 20
8.8558005064
 10
5.8499883018
 20
8.8655043485
 10
5.8132322014
 20
8.8724500379
 10
5.7761098461
 20
8.8766246128
 10
5.7388296261
 20
8.8780160858
  0
LINE
  5
437
100
AcDbEntity
  8
RACCORDO
100
AcDbLine
 62
7
  6
CONTINUOUS
 10
9.8628618053
 20
-93.5758328642
 11
9.8621221312
 21
-93.541637885
  0
LINE
  5
438
100
AcDbEntity
  8
RACCORDO
100
AcDbLine
 62
7
  6
CONTINUOUS
 10
9.8628618053
 20
-13.5758328642
 11
9.8621221312
 21
-13.541637885
  0
LINE
  5
439
100
AcDbEntity
  8
RACCORDO
100
AcDbLine
 62
7
  6
CONTINUOUS
 10
9.8621221312
 20
-93.541637885
 11
9.8614758189
 21
-93.4990293433
  0
LINE
  5
43A
100
AcDbEntity
  8
RACCORDO
100
AcDbLine
 62
7
  6
CONTINUOUS
 10
9.8621221312
 20
-13.541637885
 11
9.8614758189
 21
-13.4990293433
  0
LINE
  5
43B
100
AcDbEntity
  8
RACCORDO
100
AcDbLine
 62
7
  6
CONTINUOUS
 10
9.8614758189
 20
-93.4990293433
 11
9.8607129735
 21
-93.4197575445
  0
LINE
  5
43C
100
AcDbEntity
  8
RACCORDO
100
AcDbLine
 62
7
  6
CONTINUOUS
 10
9.8614758189
 20
-13.4990293433
 11
9.8607129735
 21
-13.4197575445
  0
LINE
  5
43D
100
AcDbEntity
  8
RACCORDO
100
AcDbLine
 62
7
  6
CONTINUOUS
 10
9.8607129735
 20
-93.4197575445
 11
9.8601886252
 21
-93.2900669948
  0
LINE
  5
43E
100
AcDbEntity
  8
RACCORDO
100
AcDbLine
 62
7
  6
CONTINUOUS
 10
9.8607129735
 20
-13.4197575445
 11
9.8601886252
 21
-13.2900669948
  0
LINE
  5
43F
100
AcDbEntity
  8
RACCORDO
100
AcDbLine
 62
253
  6
CONTINUOUS
 10
9.5461519512
 20
-93.4496195937
 11
9.5461519512
 21
-91.4334692592
  0
LINE
  5
440
100
AcDbEntity
  8
RACCORDO
100
AcDbLine
 62
253
  6
CONTINUOUS
 10
9.5461519512
 20
-85.3104985692
 11
9.5461519512
 21
-83.2943482347
  0
LINE
  5
441
100
AcDbEntity
  8
RACCORDO
100
AcDbLine
 62
253
  6
CONTINUOUS
 10
9.5461519512
 20
-13.4496195937
 11
9.5461519512
 21
-11.4334692592
  0
LINE
  5
442
100
AcDbEntity
  8
RACCORDO
100
AcDbLine
 62
253
  6
CONTINUOUS
 10
9.5461519512
 20
-5.3104985692
 11
9.5461519512
 21
-3.2943482347
  0
LINE
  5
443
100
AcDbEntity
  8
RACCORDO
100
AcDbLine
 62
253
  6
CONTINUOUS
 10
9.8461062598
 20
-93.6096912442
 11
9.8461062598
 21
-91.6001735316
  0
LINE
  5
444
100
AcDbEntity
  8
RACCORDO
100
AcDbLine
 62
253
  6
CONTINUOUS
 10
9.8461062598
 20
-85.1437942969
 11
9.8461062598
 21
-83.1342765842
  0
LINE
  5
445
100
AcDbEntity
  8
RACCORDO
100
AcDbLine
 62
253
  6
CONTINUOUS
 10
9.8461062598
 20
-13.6096912442
 11
9.8461062598
 21
-11.6001735316
  0
LINE
  5
446
100
AcDbEntity
  8
RACCORDO
100
AcDbLine
 62
253
  6
CONTINUOUS
 10
9.8461062598
 20
-5.1437942969
 11
9.8461062598
 21
-3.1342765842
  0
LINE
  5
447
100
AcDbEntity
  8
RACCORDO
100
AcDbLine
 62
7
  6
CONTINUOUS
 10
9.8601886252
 20
-93.2900669948
 11
9.8601617016
 21
-91.6077744193
  0
LINE
  5
448
100
AcDbEntity
  8
RACCORDO
100
AcDbLine
 62
7
  6
CONTINUOUS
 10
9.8601886252
 20
-13.2900669948
 11
9.8601617016
 21
-11.6077744193
  0
LINE
  5
449
100
AcDbEntity
  8
RACCORDO
100
AcDbLine
 62
7
  6
CONTINUOUS
 10
9.8601617016
 20
-5.1361934091
 11
9.8603653904
 21
-3.3867536718
  0
LINE
  5
44A
100
AcDbEntity
  8
RACCORDO
100
AcDbLine
 62
7
  6
CONTINUOUS
 10
9.8601617016
 20
-85.1361934091
 11
9.8603653904
 21
-83.3867536718
  0
LINE
  5
44B
100
AcDbEntity
  8
RACCORDO
100
AcDbLine
 62
7
  6
CONTINUOUS
 10
9.8603653904
 20
-3.3867536718
 11
9.8609378326
 21
-3.2956005647
  0
LINE
  5
44C
100
AcDbEntity
  8
RACCORDO
100
AcDbLine
 62
7
  6
CONTINUOUS
 10
9.8603653904
 20
-83.3867536718
 11
9.8609378326
 21
-83.2956005647
  0
LINE
  5
44D
100
AcDbEntity
  8
RACCORDO
100
AcDbLine
 62
7
  6
CONTINUOUS
 10
9.8609378326
 20
-3.2956005647
 11
9.8617855057
 21
-3.2226646484
  0
LINE
  5
44E
100
AcDbEntity
  8
RACCORDO
100
AcDbLine
 62
7
  6
CONTINUOUS
 10
9.8609378326
 20
-83.2956005647
 11
9.8617855057
 21
-83.2226646484
  0
LWPOLYLINE
  5
44F
100
AcDbEntity
  8
RACCORDO
100
AcDbPolyline
 62
7
  6
CONTINUOUS
 90
9
 70
0
 10
9.8617855057
 20
-3.2226646484
 10
9.8624841596
 20
-3.1840403754
 10
9.8628618053
 20
-3.1681349642
 10
9.8632565928
 20
-3.1546989915
 10
9.8636669975
 20
-3.1436471756
 10
9.8640786596
 20
-3.1350626916
 10
9.8644867927
 20
-3.1289732645
 10
9.8648961832
 20
-3.1253511692
 10
9.8653068312
 20
-3.1241964058
  0
LWPOLYLINE
  5
450
100
AcDbEntity
  8
RACCORDO
100
AcDbPolyline
 62
7
  6
CONTINUOUS
 90
9
 70
0
 10
9.8617855057
 20
-83.2226646484
 10
9.8624841596
 20
-83.1840403754
 10
9.8628618053
 20
-83.1681349642
 10
9.8632565928
 20
-83.1546989915
 10
9.8636669975
 20
-83.1436471756
 10
9.8640786596
 20
-83.1350626916
 10
9.8644867927
 20
-83.1289732645
 10
9.8648961832
 20
-83.1253511692
 10
9.8653068312
 20
-83.1241964058
  0
LWPOLYLINE
  5
451
100
AcDbEntity
  8
RACCORDO
100
AcDbPolyline
 62
7
  6
CONTINUOUS
 90
22
 70
0
 10
6.2387534737
 20
-105.1220600666
 10
6.2373620007
 20
-105.1593402866
 10
6.2331874258
 20
-105.1964626419
 10
6.2262417365
 20
-105.2332187423
 10
6.2165378943
 20
-105.2694486517
 10
6.2041268549
 20
-105.304896116
 10
6.1891328909
 20
-105.3392221497
 10
6.1717212939
 20
-105.3721377647
 10
6.1519636946
 20
-105.4035838781
 10
6.1298539934
 20
-105.4335665624
 10
6.1053930616
 20
-105.4620130908
 10
6.0787826503
 20
-105.488623502
 10
6.0503361219
 20
-105.5130844339
 10
6.0203534376
 20
-105.5351941351
 10
5.9889073242
 20
-105.5549517344
 10
5.9559917092
 20
-105.5723633314
 10
5.9216656755
 20
-105.5873572954
 10
5.8862182113
 20
-105.5997683348
 10
5.8499883018
 20
-105.609472177
 10
5.8132322014
 20
-105.6164178663
 10
5.7761098461
 20
-105.6205924412
 10
5.7388296261
 20
-105.6219839142
  0
LINE
  5
452
100
AcDbEntity
  8
RACCORDO
100
AcDbLine
 62
253
  6
CONTINUOUS
 10
7.6114079239
 20
-89.917494106
 11
7.6149637745
 21
-89.874339054
  0
LINE
  5
453
100
AcDbEntity
  8
RACCORDO
100
AcDbLine
 62
253
  6
CONTINUOUS
 10
7.8660990261
 20
-86.8264737289
 11
7.8625431769
 21
-86.8696287887
  0
LINE
  5
454
100
AcDbEntity
  8
RACCORDO
100
AcDbLine
 62
253
  6
CONTINUOUS
 10
7.9103841883
 20
-89.8137312412
 11
7.9410887712
 21
-89.4550458145
  0
LINE
  5
455
100
AcDbEntity
  8
RACCORDO
100
AcDbLine
 62
253
  6
CONTINUOUS
 10
7.5671227605
 20
-86.930236579
 11
7.5019924214
 21
-87.6821283566
  0
LINE
  5
456
100
AcDbEntity
  8
RACCORDO
100
AcDbLine
 62
253
  6
CONTINUOUS
 10
7.9410887712
 20
-89.4550458145
 11
7.980449148
 21
-89.007098973
  0
LINE
  5
457
100
AcDbEntity
  8
RACCORDO
100
AcDbLine
 62
253
  6
CONTINUOUS
 10
7.6149637673
 20
-86.8696287842
 11
7.5850404082
 21
-87.1958605785
  0
LINE
  5
458
100
AcDbEntity
  8
RACCORDO
100
AcDbLine
 62
253
  6
CONTINUOUS
 10
7.8625431774
 20
-89.8743390479
 11
7.8924228644
 21
-89.5485721548
  0
LINE
  5
459
100
AcDbEntity
  8
RACCORDO
100
AcDbLine
 62
253
  6
CONTINUOUS
 10
7.5019924214
 20
-87.6821283566
 11
7.4850373648
 21
-87.8670212697
  0
LINE
  5
45A
100
AcDbEntity
  8
RACCORDO
100
AcDbLine
 62
253
  6
CONTINUOUS
 10
7.980449148
 20
-89.007098973
 11
7.9924695826
 21
-88.8769465583
  0
LINE
  5
45B
100
AcDbEntity
  8
RACCORDO
100
AcDbLine
 62
253
  6
CONTINUOUS
 10
7.5850404082
 20
-87.1958605785
 11
7.5645423917
 21
-87.4089969877
  0
LINE
  5
45C
100
AcDbEntity
  8
RACCORDO
100
AcDbLine
 62
253
  6
CONTINUOUS
 10
7.8924228644
 20
-89.5485721548
 11
7.9128984202
 21
-89.3356409889
  0
LINE
  5
45D
100
AcDbEntity
  8
RACCORDO
100
AcDbLine
 62
253
  6
CONTINUOUS
 10
7.5645423917
 20
-87.4089969877
 11
7.5515504039
 21
-87.5375411768
  0
LINE
  5
45E
100
AcDbEntity
  8
RACCORDO
100
AcDbLine
 62
253
  6
CONTINUOUS
 10
7.9128984202
 20
-89.3356409889
 11
7.9258829324
 21
-89.2071371051
  0
LWPOLYLINE
  5
45F
100
AcDbEntity
  8
RACCORDO
100
AcDbPolyline
 62
253
  6
CONTINUOUS
 90
22
 70
0
 10
6.1932432884
 20
-88.2446383618
 10
6.1937633493
 20
-88.2396786817
 10
6.1946191979
 20
-88.234663502
 10
6.1958108342
 20
-88.2295928227
 10
6.1973225889
 20
-88.2244482894
 10
6.1991701312
 20
-88.2192482565
 10
6.201400469
 20
-88.2140477873
 10
6.2040149471
 20
-88.2088427346
 10
6.2070122206
 20
-88.2036372456
 10
6.2104352625
 20
-88.1984988247
 10
6.2142770205
 20
-88.193427261
 10
6.2185445469
 20
-88.1884227654
 10
6.2233019718
 20
-88.1835534747
 10
6.2285640778
 20
-88.1787973132
 10
6.2343160823
 20
-88.1741763566
 10
6.2405777677
 20
-88.1698249693
 10
6.247376288
 20
-88.1657311257
 10
6.2546844892
 20
-88.1619068513
 10
6.2624406915
 20
-88.1585225871
 10
6.2706243351
 20
-88.1556351466
 10
6.2792559799
 20
-88.1531877163
 10
6.2883356257
 20
-88.1511802961
  0
LINE
  5
460
100
AcDbEntity
  8
RACCORDO
100
AcDbLine
 62
253
  6
CONTINUOUS
 10
7.9258829324
 20
-89.2071371051
 11
7.9351823248
 21
-89.1192323956
  0
LINE
  5
461
100
AcDbEntity
  8
RACCORDO
100
AcDbLine
 62
253
  6
CONTINUOUS
 10
7.5515504039
 20
-87.5375411768
 11
7.542247743
 21
-87.6254468277
  0
LINE
  5
462
100
AcDbEntity
  8
RACCORDO
100
AcDbLine
 62
253
  6
CONTINUOUS
 10
7.542247743
 20
-87.6254468277
 11
7.5337483932
 21
-87.7020386405
  0
LINE
  5
463
100
AcDbEntity
  8
RACCORDO
100
AcDbLine
 62
253
  6
CONTINUOUS
 10
7.9351823248
 20
-89.1192323956
 11
7.9436796593
 21
-89.0426308202
  0
LINE
  5
464
100
AcDbEntity
  8
RACCORDO
100
AcDbLine
 62
253
  6
CONTINUOUS
 10
7.9436796593
 20
-89.0426308202
 11
7.9495876134
 21
-88.99152899
  0
LINE
  5
465
100
AcDbEntity
  8
RACCORDO
100
AcDbLine
 62
253
  6
CONTINUOUS
 10
7.5337483932
 20
-87.7020386405
 11
7.527807556
 21
-87.7533220152
  0
LWPOLYLINE
  5
466
100
AcDbEntity
  8
RACCORDO
100
AcDbPolyline
 62
253
  6
CONTINUOUS
 90
3
 70
0
 10
7.527807556
 20
-87.7533220152
 10
7.5221419882
 20
-87.8003725485
 10
7.5202939641
 20
-87.8151870343
  0
LWPOLYLINE
  5
467
100
AcDbEntity
  8
RACCORDO
100
AcDbPolyline
 62
253
  6
CONTINUOUS
 90
3
 70
0
 10
7.9495876134
 20
-88.99152899
 10
7.9553287871
 20
-88.9439931843
 10
7.9572129814
 20
-88.9287808157
  0
LWPOLYLINE
  5
468
100
AcDbEntity
  8
RACCORDO
100
AcDbPolyline
 62
253
  6
CONTINUOUS
 90
22
 70
0
 10
6.236398298
 20
-88.2481942071
 10
6.2367883295
 20
-88.2457183444
 10
6.2373765725
 20
-88.2431944276
 10
6.2381696575
 20
-88.2406300659
 10
6.2391701809
 20
-88.2380349652
 10
6.2403879273
 20
-88.2354171406
 10
6.2418402376
 20
-88.2327830829
 10
6.2435327407
 20
-88.2301450865
 10
6.2454704026
 20
-88.2275141509
 10
6.2476700289
 20
-88.2248968509
 10
6.2501314653
 20
-88.2223128508
 10
6.2528625874
 20
-88.2197721555
 10
6.2558950231
 20
-88.2172715927
 10
6.2592412747
 20
-88.2148272897
 10
6.2628970736
 20
-88.2124664256
 10
6.266870655
 20
-88.2102082542
 10
6.2711728629
 20
-88.2080753929
 10
6.2757912709
 20
-88.2060986125
 10
6.2806958425
 20
-88.2043106512
 10
6.2858700205
 20
-88.202739907
 10
6.2913113811
 20
-88.2014117661
 10
6.2970061357
 20
-88.2003532015
  0
LINE
  5
469
100
AcDbEntity
  8
RACCORDO
100
AcDbLine
 62
253
  6
CONTINUOUS
 10
6.2883356294
 20
-88.5927875329
 11
6.2970061393
 21
-88.5436146275
  0
LWPOLYLINE
  5
46A
100
AcDbEntity
  8
RACCORDO
100
AcDbPolyline
 62
7
  6
CONTINUOUS
 90
6
 70
0
 10
6.2177160059
 20
-81.9930560723
 10
6.2161662043
 20
-81.9935049183
 10
6.2124051374
 20
-81.9939653127
 10
6.2064340534
 20
-81.9944372555
 10
6.1982452486
 20
-81.9949162692
 10
6.1878886657
 20
-81.9954068312
  0
LINE
  5
46B
100
AcDbEntity
  8
RACCORDO
100
AcDbLine
 62
253
  6
CONTINUOUS
 10
4.7096118493
 20
-6.6151124036
 11
4.9065734
 21
-6.6151124036
  0
LINE
  5
46C
100
AcDbEntity
  8
RACCORDO
100
AcDbLine
 62
253
  6
CONTINUOUS
 10
4.9065734
 20
-6.2229986179
 11
4.7096118493
 21
-6.2229986179
  0
LINE
  5
46D
100
AcDbEntity
  8
0
100
AcDbLine
 62
7
  6
CONTINUOUS
 10
-75.1111982435
 20
-4.6719839142
 11
-69.8379223631
 21
-4.6719839142
  0
LINE
  5
46E
100
AcDbEntity
  8
RACCORDO
100
AcDbLine
 62
7
  6
CONTINUOUS
 10
-69.8379223631
 20
-4.6719839142
 11
-68.94025475
 21
-4.6719839142
  0
LINE
  5
46F
100
AcDbEntity
  8
RACCORDO
100
AcDbLine
 62
253
  6
CONTINUOUS
 10
6.1932432884
 20
-8.2446383618
 11
6.2363983482
 21
-8.248194211
  0
LINE
  5
470
100
AcDbEntity
  8
RACCORDO
100
AcDbLine
 62
253
  6
CONTINUOUS
 10
9.2842636655
 20
-8.4993294641
 11
9.2411086135
 21
-8.4957736134
  0
LINE
  5
471
100
AcDbEntity
  8
RACCORDO
100
AcDbLine
 62
253
  6
CONTINUOUS
 10
9.1805008007
 20
-8.2003531996
 11
8.8218153744
 21
-8.1696486168
  0
LINE
  5
472
100
AcDbEntity
  8
RACCORDO
100
AcDbLine
 62
253
  6
CONTINUOUS
 10
6.2970061385
 20
-8.5436146274
 11
7.0488979162
 21
-8.6087449665
  0
LINE
  5
473
100
AcDbEntity
  8
RACCORDO
100
AcDbLine
 62
253
  6
CONTINUOUS
 10
8.8218153744
 20
-8.1696486168
 11
8.3738685326
 21
-8.1302882399
  0
LINE
  5
474
100
AcDbEntity
  8
RACCORDO
100
AcDbLine
 62
253
  6
CONTINUOUS
 10
6.2363983437
 20
-8.4957736206
 11
6.5626301365
 21
-8.5256969796
  0
LINE
  5
475
100
AcDbEntity
  8
RACCORDO
100
AcDbLine
 62
253
  6
CONTINUOUS
 10
9.2411086074
 20
-8.2481942105
 11
8.9153417177
 21
-8.2183145238
  0
LINE
  5
476
100
AcDbEntity
  8
RACCORDO
100
AcDbLine
 62
253
  6
CONTINUOUS
 10
7.0488979162
 20
-8.6087449665
 11
7.2337908292
 21
-8.6257000231
  0
LINE
  5
477
100
AcDbEntity
  8
RACCORDO
100
AcDbLine
 62
253
  6
CONTINUOUS
 10
8.3738685326
 20
-8.1302882399
 11
8.2437161179
 21
-8.1182678053
  0
LINE
  5
478
100
AcDbEntity
  8
RACCORDO
100
AcDbLine
 62
253
  6
CONTINUOUS
 10
6.5626301365
 20
-8.5256969796
 11
6.7757665462
 21
-8.5461949961
  0
LINE
  5
479
100
AcDbEntity
  8
RACCORDO
100
AcDbLine
 62
253
  6
CONTINUOUS
 10
8.9153417177
 20
-8.2183145238
 11
8.7024105506
 21
-8.1978389679
  0
LINE
  5
47A
100
AcDbEntity
  8
RACCORDO
100
AcDbLine
 62
253
  6
CONTINUOUS
 10
8.7024105506
 20
-8.1978389679
 11
8.5979109899
 21
-8.1873240648
  0
LINE
  5
47B
100
AcDbEntity
  8
RACCORDO
100
AcDbLine
 62
253
  6
CONTINUOUS
 10
6.7757665462
 20
-8.5461949961
 11
6.9043107357
 21
-8.559186984
  0
LWPOLYLINE
  5
47C
100
AcDbEntity
  8
RACCORDO
100
AcDbPolyline
 62
253
  6
CONTINUOUS
 90
22
 70
0
 10
7.6114079239
 20
-9.917494106
 10
7.6064482428
 20
-9.9169740473
 10
7.6014330622
 20
-9.9161182
 10
7.5963623821
 20
-9.9149265641
 10
7.5912178481
 20
-9.9134148087
 10
7.5860178146
 20
-9.9115672648
 10
7.5808173448
 20
-9.9093369252
 10
7.5756122919
 20
-9.9067224455
 10
7.5704068028
 20
-9.9037251702
 10
7.5652683818
 20
-9.9003021264
 10
7.560196818
 20
-9.8964603664
 10
7.5551923224
 20
-9.8921928378
 10
7.5503230316
 20
-9.8874354105
 10
7.5455668698
 20
-9.8821733017
 10
7.5409459129
 20
-9.8764212942
 10
7.5365945252
 20
-9.8701596057
 10
7.5325006813
 20
-9.8633610823
 10
7.5286764066
 20
-9.8560528779
 10
7.5252921421
 20
-9.8482966723
 10
7.5224047012
 20
-9.8401130256
 10
7.5199572704
 20
-9.8314813776
 10
7.5179498497
 20
-9.8224017286
  0
LINE
  5
47D
100
AcDbEntity
  8
RACCORDO
100
AcDbLine
 62
253
  6
CONTINUOUS
 10
6.9043107357
 20
-8.559186984
 11
6.9922163868
 21
-8.5684896449
  0
LINE
  5
47E
100
AcDbEntity
  8
RACCORDO
100
AcDbLine
 62
253
  6
CONTINUOUS
 10
6.9922163868
 20
-8.5684896449
 11
7.0688081998
 21
-8.5769889947
  0
LINE
  5
47F
100
AcDbEntity
  8
RACCORDO
100
AcDbLine
 62
253
  6
CONTINUOUS
 10
7.0688081998
 20
-8.5769889947
 11
7.1200915746
 21
-8.5829298319
  0
LINE
  5
480
100
AcDbEntity
  8
RACCORDO
100
AcDbLine
 62
253
  6
CONTINUOUS
 10
6.2883356257
 20
-8.1511802961
 11
6.2970061357
 21
-8.2003532015
  0
LINE
  5
481
100
AcDbEntity
  8
RACCORDO
100
AcDbLine
 62
253
  6
CONTINUOUS
 10
7.9534964407
 20
-7.7850801001
 11
7.9572129846
 21
-7.8151870479
  0
LINE
  5
482
100
AcDbEntity
  8
RACCORDO
100
AcDbLine
 62
253
  6
CONTINUOUS
 10
7.5259844875
 20
-8.9753233242
 11
7.5202939646
 21
-8.9287807996
  0
LINE
  5
483
100
AcDbEntity
  8
RACCORDO
100
AcDbLine
 62
253
  6
CONTINUOUS
 10
7.9477375051
 20
-7.736655581
 11
7.9534964407
 21
-7.7850801001
  0
LINE
  5
484
100
AcDbEntity
  8
RACCORDO
100
AcDbLine
 62
253
  6
CONTINUOUS
 10
7.5318107657
 20
-9.024973379
 11
7.5259844875
 21
-8.9753233242
  0
LINE
  5
485
100
AcDbEntity
  8
RACCORDO
100
AcDbLine
 62
253
  6
CONTINUOUS
 10
7.54013844
 20
-9.0992243025
 11
7.5318107657
 21
-9.024973379
  0
LWPOLYLINE
  5
486
100
AcDbEntity
  8
RACCORDO
100
AcDbPolyline
 62
253
  6
CONTINUOUS
 90
3
 70
0
 10
7.9374246971
 20
-7.6452608806
 10
7.9395715668
 20
-7.6647594686
 10
7.9477375051
 20
-7.736655581
  0
LWPOLYLINE
  5
487
100
AcDbEntity
  8
RACCORDO
100
AcDbPolyline
 62
253
  6
CONTINUOUS
 90
22
 70
0
 10
9.2842636655
 20
-88.4993294641
 10
9.2837436068
 20
-88.5042891452
 10
9.2828877595
 20
-88.5093043257
 10
9.2816961237
 20
-88.5143750058
 10
9.2801843682
 20
-88.5195195398
 10
9.2783368243
 20
-88.5247195734
 10
9.2761064848
 20
-88.5299200431
 10
9.273492005
 20
-88.535125096
 10
9.2704947297
 20
-88.5403305851
 10
9.2670716859
 20
-88.5454690062
 10
9.2632299259
 20
-88.5505405699
 10
9.2589623973
 20
-88.5555450655
 10
9.25420497
 20
-88.5604143563
 10
9.2489428612
 20
-88.5651705181
 10
9.2431908537
 20
-88.5697914751
 10
9.2369291652
 20
-88.5741428627
 10
9.2301306418
 20
-88.5782367067
 10
9.2228224374
 20
-88.5820609813
 10
9.2150662318
 20
-88.5854452459
 10
9.2068825851
 20
-88.5883326867
 10
9.1982509371
 20
-88.5907801175
 10
9.1891712881
 20
-88.5927875382
  0
LWPOLYLINE
  5
488
100
AcDbEntity
  8
RACCORDO
100
AcDbPolyline
 62
253
  6
CONTINUOUS
 90
22
 70
0
 10
9.241108673
 20
-88.4957736181
 10
9.2407186441
 20
-88.498249482
 10
9.2401304024
 20
-88.5007733998
 10
9.2393373178
 20
-88.5033377622
 10
9.2383367934
 20
-88.5059328634
 10
9.237119045
 20
-88.5085506884
 10
9.2356667325
 20
-88.5111847463
 10
9.2339742272
 20
-88.5138227429
 10
9.232036563
 20
-88.5164536786
 10
9.2298369341
 20
-88.5190709786
 10
9.2273754949
 20
-88.5216549789
 10
9.2246443698
 20
-88.5241956744
 10
9.2216119307
 20
-88.5266962373
 10
9.2182656752
 20
-88.5291405407
 10
9.2146098722
 20
-88.5315014052
 10
9.2106362865
 20
-88.533759577
 10
9.2063340741
 20
-88.5358924387
 10
9.2017156615
 20
-88.5378692196
 10
9.1968110852
 20
-88.5396571814
 10
9.1916369025
 20
-88.5412279261
 10
9.1861955373
 20
-88.5425560676
 10
9.1805007781
 20
-88.5436146328
  0
LINE
  5
489
100
AcDbEntity
  8
RACCORDO
100
AcDbLine
 62
7
  6
CONTINUOUS
 10
7.4850373648
 20
-87.8670212697
 11
7.4723968142
 21
-87.9436176728
  0
LINE
  5
48A
100
AcDbEntity
  8
RACCORDO
100
AcDbLine
 62
7
  6
CONTINUOUS
 10
7.9924695826
 20
-88.8769465583
 11
8.0051101332
 21
-88.8003501556
  0
LINE
  5
48B
100
AcDbEntity
  8
RACCORDO
100
AcDbLine
 62
253
  6
CONTINUOUS
 10
7.3518487864
 20
-87.8635720405
 11
7.517949855
 21
-86.9215660699
  0
LINE
  5
48C
100
AcDbEntity
  8
RACCORDO
100
AcDbLine
 62
253
  6
CONTINUOUS
 10
7.2303416
 20
-88.7588886015
 11
7.2390121099
 21
-88.7097156961
  0
LINE
  5
48D
100
AcDbEntity
  8
RACCORDO
100
AcDbLine
 62
253
  6
CONTINUOUS
 10
7.4010216918
 20
-87.8722425504
 11
7.5671227605
 21
-86.930236579
  0
LINE
  5
48E
100
AcDbEntity
  8
RACCORDO
100
AcDbLine
 62
253
  6
CONTINUOUS
 10
8.0764852556
 20
-88.871725278
 11
7.9103841883
 21
-89.8137312412
  0
LINE
  5
48F
100
AcDbEntity
  8
RACCORDO
100
AcDbLine
 62
253
  6
CONTINUOUS
 10
8.2471653475
 20
-87.9850792269
 11
8.2384948375
 21
-88.0342521323
  0
LINE
  5
490
100
AcDbEntity
  8
RACCORDO
100
AcDbLine
 62
253
  6
CONTINUOUS
 10
8.1256581611
 20
-88.8803957879
 11
7.9595570939
 21
-89.8224017503
  0
LINE
  5
491
100
AcDbEntity
  8
RACCORDO
100
AcDbLine
 62
253
  6
CONTINUOUS
 10
9.1891713098
 20
-88.151180294
 11
9.1805007999
 21
-88.2003531994
  0
LWPOLYLINE
  5
492
100
AcDbEntity
  8
RACCORDO
100
AcDbPolyline
 62
253
  6
CONTINUOUS
 90
19
 70
0
 10
7.5671227604
 20
-86.9302365798
 10
7.5682826616
 20
-86.9240729718
 10
7.5697619325
 20
-86.9181914571
 10
7.571529671
 20
-86.9126103903
 10
7.5735532162
 20
-86.9073411499
 10
7.5758017362
 20
-86.9023979841
 10
7.5782489792
 20
-86.8977995148
 10
7.5808724817
 20
-86.8935476452
 10
7.5836389755
 20
-86.8896511727
 10
7.5865062568
 20
-86.8861338062
 10
7.589426753
 20
-86.8830137595
 10
7.5923915404
 20
-86.8802612327
 10
7.5954217688
 20
-86.877829712
 10
7.5984863182
 20
-86.8757197516
 10
7.6015802831
 20
-86.8739252702
 10
7.6047773551
 20
-86.8724101701
 10
7.608097024
 20
-86.871176033
 10
7.6114971945
 20
-86.8702456592
 10
7.6149637651
 20
-86.8696287465
  0
LWPOLYLINE
  5
493
100
AcDbEntity
  8
RACCORDO
100
AcDbPolyline
 62
253
  6
CONTINUOUS
 90
19
 70
0
 10
7.9103841885
 20
-89.8137312404
 10
7.909224287
 20
-89.8198948505
 10
7.9077450159
 20
-89.8257763674
 10
7.9059772772
 20
-89.8313574364
 10
7.9039537319
 20
-89.8366266788
 10
7.9017052118
 20
-89.8415698465
 10
7.8992579687
 20
-89.8461683179
 10
7.896634466
 20
-89.8504201895
 10
7.8938679719
 20
-89.8543166641
 10
7.89100069
 20
-89.8578340324
 10
7.8880801933
 20
-89.8609540809
 10
7.8851154051
 20
-89.8637066093
 10
7.8820851761
 20
-89.8661381313
 10
7.8790206264
 20
-89.8682480925
 10
7.8759266614
 20
-89.8700425747
 10
7.8727295894
 20
-89.8715576749
 10
7.8694099205
 20
-89.8727918116
 10
7.8660097503
 20
-89.8737221845
 10
7.8625431801
 20
-89.8743390958
  0
LWPOLYLINE
  5
494
100
AcDbEntity
  8
RACCORDO
100
AcDbPolyline
 62
7
  6
CONTINUOUS
 90
13
 70
0
 10
7.4723968142
 20
-87.9436176728
 10
7.4678661416
 20
-87.9642169132
 10
7.4612778316
 20
-87.9839628168
 10
7.4527709728
 20
-88.0026683197
 10
7.4425362412
 20
-88.0201139509
 10
7.4307128269
 20
-88.0362179707
 10
7.4173330158
 20
-88.0509978023
 10
7.402550139
 20
-88.0642998624
 10
7.3865056359
 20
-88.0760151403
 10
7.3691410373
 20
-88.0861552114
 10
7.3505190698
 20
-88.0945919828
 10
7.3308729583
 20
-88.1011278999
 10
7.3103872323
 20
-88.1056272547
  0
LWPOLYLINE
  5
495
100
AcDbEntity
  8
RACCORDO
100
AcDbPolyline
 62
7
  6
CONTINUOUS
 90
13
 70
0
 10
8.0051101332
 20
-88.8003501556
 10
8.0096408059
 20
-88.7797509152
 10
8.0162291158
 20
-88.7600050117
 10
8.0247359746
 20
-88.7412995087
 10
8.0349707062
 20
-88.7238538775
 10
8.0467941206
 20
-88.7077498577
 10
8.0601739316
 20
-88.6929700261
 10
8.0749568084
 20
-88.6796679661
 10
8.0910013115
 20
-88.6679526881
 10
8.1083659101
 20
-88.657812617
 10
8.1269878776
 20
-88.6493758456
 10
8.1466339891
 20
-88.6428399285
 10
8.1671197151
 20
-88.6383405737
  0
LWPOLYLINE
  5
496
100
AcDbEntity
  8
RACCORDO
100
AcDbPolyline
 62
253
  6
CONTINUOUS
 90
19
 70
0
 10
7.517949855
 20
-86.9215660699
 10
7.5201573902
 20
-86.9117323454
 10
7.5228886496
 20
-86.9024064855
 10
7.5261436332
 20
-86.89358849
 10
7.5299791355
 20
-86.8852598198
 10
7.5343383621
 20
-86.8774390141
 10
7.5390509291
 20
-86.8701816905
 10
7.5441248641
 20
-86.8634946996
 10
7.5495521395
 20
-86.857371191
 10
7.5551382887
 20
-86.8518462307
 10
7.5608350771
 20
-86.8469600236
 10
7.5666907393
 20
-86.8426723649
 10
7.5726555119
 20
-86.8388977073
 10
7.5786842153
 20
-86.8356215332
 10
7.5848220291
 20
-86.8328583601
 10
7.5911547289
 20
-86.8305661931
 10
7.5977109065
 20
-86.8287310338
 10
7.60446197
 20
-86.8273668805
 10
7.6114079195
 20
-86.8264737332
  0
LWPOLYLINE
  5
497
100
AcDbEntity
  8
RACCORDO
100
AcDbPolyline
 62
253
  6
CONTINUOUS
 90
19
 70
0
 10
7.9595570939
 20
-89.8224017503
 10
7.9573495586
 20
-89.832235476
 10
7.9546182992
 20
-89.8415613371
 10
7.9513633156
 20
-89.8503793339
 10
7.9475278133
 20
-89.8587080054
 10
7.9431685869
 20
-89.8665288125
 10
7.9384560199
 20
-89.8737861375
 10
7.9333820846
 20
-89.8804731301
 10
7.9279548087
 20
-89.8865966407
 10
7.9223686588
 20
-89.8921216027
 10
7.9166718693
 20
-89.8970078116
 10
7.9108162057
 20
-89.901295472
 10
7.904851432
 20
-89.9050701309
 10
7.898822728
 20
-89.908346306
 10
7.8926849138
 20
-89.9111094796
 10
7.886352214
 20
-89.9134016464
 10
7.8797960368
 20
-89.9152368047
 10
7.873044974
 20
-89.9166009562
 10
7.8660990256
 20
-89.9174941009
  0
LINE
  5
498
100
AcDbEntity
  8
RACCORDO
100
AcDbLine
 62
7
  6
CONTINUOUS
 10
5.9689802575
 20
-2.0037972981
 11
5.9177616974
 21
-2.0062543754
  0
LINE
  5
499
100
AcDbEntity
  8
RACCORDO
100
AcDbLine
 62
7
  6
CONTINUOUS
 10
6.0433698857
 20
-2.0006865072
 11
5.9689802575
 21
-2.0037972981
  0
LINE
  5
49A
100
AcDbEntity
  8
RACCORDO
100
AcDbLine
 62
7
  6
CONTINUOUS
 10
6.1878886657
 20
-1.9954068312
 11
6.161351559
 21
-1.9964585774
  0
LINE
  5
49B
100
AcDbEntity
  8
RACCORDO
100
AcDbLine
 62
7
  6
CONTINUOUS
 10
6.161351559
 20
-1.9964585774
 11
6.0433698857
 21
-2.0006865072
  0
LINE
  5
49C
100
AcDbEntity
  8
0
100
AcDbLine
 62
7
  6
CONTINUOUS
 10
-69.8379223631
 20
-0.6719839142
 11
-75.1111982435
 21
-0.6719839142
  0
LWPOLYLINE
  5
49D
100
AcDbEntity
  8
RACCORDO
100
AcDbPolyline
 62
253
  6
CONTINUOUS
 90
22
 70
0
 10
7.8660990261
 20
-6.8264737289
 10
7.8710587063
 20
-6.8269937898
 10
7.876073886
 20
-6.8278496384
 10
7.8811445653
 20
-6.8290412747
 10
7.8862890985
 20
-6.8305530294
 10
7.8914891314
 20
-6.8324005717
 10
7.8966896007
 20
-6.8346309095
 10
7.9018946533
 20
-6.8372453876
 10
7.9071001423
 20
-6.8402426611
 10
7.9122385632
 20
-6.843665703
 10
7.9173101269
 20
-6.847507461
 10
7.9223146225
 20
-6.8517749874
 10
7.9271839132
 20
-6.8565324123
 10
7.9319400747
 20
-6.8617945183
 10
7.9365610313
 20
-6.8675465228
 10
7.9409124186
 20
-6.8738082082
 10
7.9450062622
 20
-6.8806067285
 10
7.9488305366
 20
-6.8879149297
 10
7.9522148008
 20
-6.895671132
 10
7.9551022413
 20
-6.9038547756
 10
7.9575496716
 20
-6.9124864204
 10
7.9595570918
 20
-6.9215660662
  0
LINE
  5
49E
100
AcDbEntity
  8
RACCORDO
100
AcDbLine
 62
253
  6
CONTINUOUS
 10
8.5979109899
 20
-8.1873240648
 11
8.5068458286
 21
-8.1777944464
  0
LINE
  5
49F
100
AcDbEntity
  8
RACCORDO
100
AcDbLine
 62
253
  6
CONTINUOUS
 10
8.5068458286
 20
-8.1777944464
 11
8.427595521
 21
-8.1691190616
  0
LINE
  5
4A0
100
AcDbEntity
  8
RACCORDO
100
AcDbLine
 62
253
  6
CONTINUOUS
 10
8.427595521
 20
-8.1691190616
 11
8.3582985498
 21
-8.1611497746
  0
LWPOLYLINE
  5
4A1
100
AcDbEntity
  8
RACCORDO
100
AcDbPolyline
 62
253
  6
CONTINUOUS
 90
3
 70
0
 10
7.1200915746
 20
-8.5829298319
 10
7.167142108
 20
-8.5885953997
 10
7.1819565939
 20
-8.5904434238
  0
LWPOLYLINE
  5
4A2
100
AcDbEntity
  8
RACCORDO
100
AcDbPolyline
 62
253
  6
CONTINUOUS
 90
3
 70
0
 10
8.3582985498
 20
-8.1611497746
 10
8.3107627438
 20
-8.1554086008
 10
8.2955503752
 20
-8.1535244065
  0
LWPOLYLINE
  5
4A3
100
AcDbEntity
  8
RACCORDO
100
AcDbPolyline
 62
253
  6
CONTINUOUS
 90
22
 70
0
 10
7.6149637699
 20
-9.8743391135
 10
7.6124879059
 20
-9.8739490845
 10
7.6099639882
 20
-9.8733608429
 10
7.6073996257
 20
-9.8725677582
 10
7.6048045245
 20
-9.8715672339
 10
7.6021866996
 20
-9.8703494855
 10
7.5995526416
 20
-9.868897173
 10
7.5969146451
 20
-9.8672046677
 10
7.5942837094
 20
-9.8652670035
 10
7.5916664093
 20
-9.8630673746
 10
7.589082409
 20
-9.8606059354
 10
7.5865417135
 20
-9.8578748103
 10
7.5840411506
 20
-9.8548423712
 10
7.5815968472
 20
-9.8514961157
 10
7.5792359827
 20
-9.8478403127
 10
7.576977811
 20
-9.843866727
 10
7.5748449493
 20
-9.8395645146
 10
7.5728681683
 20
-9.834946102
 10
7.5710802066
 20
-9.8300415257
 10
7.5695094618
 20
-9.824867343
 10
7.5681813203
 20
-9.8194259777
 10
7.5671227551
 20
-9.8137312186
  0
LWPOLYLINE
  5
4A4
100
AcDbEntity
  8
RACCORDO
100
AcDbPolyline
 62
253
  6
CONTINUOUS
 90
22
 70
0
 10
7.8625431808
 20
-6.8696287385
 10
7.8650190436
 20
-6.87001877
 10
7.8675429603
 20
-6.870607013
 10
7.870107322
 20
-6.871400098
 10
7.8727024227
 20
-6.8724006214
 10
7.8753202474
 20
-6.8736183677
 10
7.8779543051
 20
-6.8750706781
 10
7.8805923015
 20
-6.8767631812
 10
7.883223237
 20
-6.8787008431
 10
7.885840537
 20
-6.8809004694
 10
7.8884245371
 20
-6.8833619058
 10
7.8909652325
 20
-6.8860930279
 10
7.8934657952
 20
-6.8891254635
 10
7.8959100982
 20
-6.8924717152
 10
7.8982709624
 20
-6.8961275141
 10
7.9005291337
 20
-6.9001010955
 10
7.902661995
 20
-6.9044033034
 10
7.9046387754
 20
-6.9090217114
 10
7.9064267367
 20
-6.913926283
 10
7.9079974809
 20
-6.919100461
 10
7.9093256219
 20
-6.9245418216
 10
7.9103841864
 20
-6.9302365762
  0
LINE
  5
4A5
100
AcDbEntity
  8
RACCORDO
100
AcDbLine
 62
7
  6
CONTINUOUS
 10
7.2337908292
 20
-8.6257000231
 11
7.3103872323
 21
-8.6383405737
  0
LINE
  5
4A6
100
AcDbEntity
  8
RACCORDO
100
AcDbLine
 62
7
  6
CONTINUOUS
 10
8.2437161179
 20
-8.1182678053
 11
8.1671197151
 21
-8.1056272547
  0
LINE
  5
4A7
100
AcDbEntity
  8
RACCORDO
100
AcDbLine
 62
253
  6
CONTINUOUS
 10
7.9595570939
 20
-9.8224017503
 11
7.9103841885
 21
-9.8137312404
  0
LINE
  5
4A8
100
AcDbEntity
  8
RACCORDO
100
AcDbLine
 62
253
  6
CONTINUOUS
 10
7.2303416
 20
-8.7588886015
 11
6.2883356294
 21
-8.5927875329
  0
LINE
  5
4A9
100
AcDbEntity
  8
RACCORDO
100
AcDbLine
 62
253
  6
CONTINUOUS
 10
8.1256581611
 20
-8.8803957879
 11
8.0764852556
 21
-8.871725278
  0
LINE
  5
4AA
100
AcDbEntity
  8
RACCORDO
100
AcDbLine
 62
253
  6
CONTINUOUS
 10
7.2390121099
 20
-8.7097156961
 11
6.2970061385
 21
-8.5436146274
  0
LINE
  5
4AB
100
AcDbEntity
  8
RACCORDO
100
AcDbLine
 62
253
  6
CONTINUOUS
 10
8.2384948375
 20
-8.0342521323
 11
9.1805008007
 21
-8.2003531996
  0
LINE
  5
4AC
100
AcDbEntity
  8
RACCORDO
100
AcDbLine
 62
253
  6
CONTINUOUS
 10
7.3518487864
 20
-7.8635720405
 11
7.4010216918
 21
-7.8722425504
  0
LINE
  5
4AD
100
AcDbEntity
  8
RACCORDO
100
AcDbLine
 62
253
  6
CONTINUOUS
 10
8.2471653475
 20
-7.9850792269
 11
9.1891713098
 21
-8.151180294
  0
LINE
  5
4AE
100
AcDbEntity
  8
RACCORDO
100
AcDbLine
 62
253
  6
CONTINUOUS
 10
7.517949855
 20
-6.9215660699
 11
7.5671227604
 21
-6.9302365798
  0
LWPOLYLINE
  5
4AF
100
AcDbEntity
  8
RACCORDO
100
AcDbPolyline
 62
253
  6
CONTINUOUS
 90
19
 70
0
 10
6.2970061393
 20
-8.5436146275
 10
6.2908425314
 20
-8.5424547263
 10
6.2849610167
 20
-8.5409754555
 10
6.2793799498
 20
-8.5392077169
 10
6.2741107094
 20
-8.5371841718
 10
6.2691675436
 20
-8.5349356517
 10
6.2645690743
 20
-8.5324884087
 10
6.2603172047
 20
-8.5298649063
 10
6.2564207322
 20
-8.5270984125
 10
6.2529033657
 20
-8.5242311311
 10
6.249783319
 20
-8.5213106349
 10
6.2470307922
 20
-8.5183458475
 10
6.2445992715
 20
-8.5153156191
 10
6.2424893112
 20
-8.5122510697
 10
6.2406948297
 20
-8.5091571048
 10
6.2391797296
 20
-8.5059600328
 10
6.2379455925
 20
-8.5026403639
 10
6.2370152187
 20
-8.4992401934
 10
6.236398306
 20
-8.4957736229
  0
LWPOLYLINE
  5
4B0
100
AcDbEntity
  8
RACCORDO
100
AcDbPolyline
 62
253
  6
CONTINUOUS
 90
19
 70
0
 10
9.1805007999
 20
-8.2003531994
 10
9.18666441
 20
-8.2015131009
 10
9.1925459269
 20
-8.202992372
 10
9.1981269959
 20
-8.2047601107
 10
9.2033962383
 20
-8.206783656
 10
9.208339406
 20
-8.2090321761
 10
9.2129378774
 20
-8.2114794193
 10
9.217189749
 20
-8.2141029219
 10
9.2210862236
 20
-8.216869416
 10
9.2246035919
 20
-8.2197366979
 10
9.2277236404
 20
-8.2226571947
 10
9.2304761688
 20
-8.2256219828
 10
9.2329076908
 20
-8.2286522118
 10
9.235017652
 20
-8.2317167615
 10
9.2368121342
 20
-8.2348107265
 10
9.2383272344
 20
-8.2380077985
 10
9.2395613711
 20
-8.2413274674
 10
9.240491744
 20
-8.2447276376
 10
9.2411086553
 20
-8.2481942078
  0
LWPOLYLINE
  5
4B1
100
AcDbEntity
  8
RACCORDO
100
AcDbPolyline
 62
7
  6
CONTINUOUS
 90
13
 70
0
 10
7.3103872323
 20
-8.6383405737
 10
7.3306788428
 20
-8.6427851534
 10
7.3502555646
 20
-8.649271585
 10
7.3689232353
 20
-8.6577001778
 10
7.3864819726
 20
-8.6679385644
 10
7.4027898285
 20
-8.6798640964
 10
7.4177491163
 20
-8.6933860714
 10
7.4312015312
 20
-8.7083512007
 10
7.4430308592
 20
-8.7246102084
 10
7.4531832976
 20
-8.7420981335
 10
7.4615462353
 20
-8.7606882842
 10
7.4679827095
 20
-8.7801696112
 10
7.4723968142
 20
-8.8003501556
  0
LWPOLYLINE
  5
4B2
100
AcDbEntity
  8
RACCORDO
100
AcDbPolyline
 62
7
  6
CONTINUOUS
 90
13
 70
0
 10
8.1671197151
 20
-8.1056272547
 10
8.1468281046
 20
-8.101182675
 10
8.1272513828
 20
-8.0946962435
 10
8.1085837121
 20
-8.0862676506
 10
8.0910249748
 20
-8.076029264
 10
8.0747171189
 20
-8.064103732
 10
8.0597578311
 20
-8.050581757
 10
8.0463054163
 20
-8.0356166277
 10
8.0344760882
 20
-8.01935762
 10
8.0243236499
 20
-8.0018696949
 10
8.0159607121
 20
-7.9832795443
 10
8.009524238
 20
-7.9637982172
 10
8.0051101332
 20
-7.9436176728
  0
LWPOLYLINE
  5
4B3
100
AcDbEntity
  8
RACCORDO
100
AcDbPolyline
 62
253
  6
CONTINUOUS
 90
19
 70
0
 10
6.2883356294
 20
-8.5927875329
 10
6.2785019049
 20
-8.5905799977
 10
6.269176045
 20
-8.5878487383
 10
6.2603580495
 20
-8.5845937548
 10
6.2520293793
 20
-8.5807582524
 10
6.2442085736
 20
-8.5763990258
 10
6.23695125
 20
-8.5716864589
 10
6.2302642591
 20
-8.5666125238
 10
6.2241407505
 20
-8.5611852484
 10
6.2186157903
 20
-8.5555990992
 10
6.2137295831
 20
-8.5499023108
 10
6.2094419244
 20
-8.5440466486
 10
6.2056672668
 20
-8.538081876
 10
6.2023910927
 20
-8.5320531726
 10
6.1996279196
 20
-8.5259153588
 10
6.1973357526
 20
-8.519582659
 10
6.1955005933
 20
-8.5130264814
 10
6.19413644
 20
-8.5062754179
 10
6.1932432927
 20
-8.4993294684
  0
LWPOLYLINE
  5
4B4
100
AcDbEntity
  8
RACCORDO
100
AcDbPolyline
 62
253
  6
CONTINUOUS
 90
19
 70
0
 10
9.1891713098
 20
-8.151180294
 10
9.1990050355
 20
-8.1533878293
 10
9.2083308967
 20
-8.1561190888
 10
9.2171488934
 20
-8.1593740724
 10
9.2254775649
 20
-8.1632095746
 10
9.233298372
 20
-8.167568801
 10
9.240555697
 20
-8.172281368
 10
9.2472426896
 20
-8.1773553033
 10
9.2533662002
 20
-8.1827825792
 10
9.2588911622
 20
-8.1883687291
 10
9.2637773711
 20
-8.1940655187
 10
9.2680650315
 20
-8.1999211822
 10
9.2718396904
 20
-8.2058859559
 10
9.2751158655
 20
-8.21191466
 10
9.2778790391
 20
-8.2180524742
 10
9.2801712059
 20
-8.224385174
 10
9.2820063642
 20
-8.2309413512
 10
9.2833705157
 20
-8.2376924139
 10
9.2842636604
 20
-8.2446383623
  0
LWPOLYLINE
  5
4B5
100
AcDbEntity
  8
RACCORDO
100
AcDbPolyline
 62
253
  6
CONTINUOUS
 90
43
 70
0
 10
5.0267498353
 20
-10.0543163148
 10
5.018830192
 20
-10.0524687971
 10
5.0106455927
 20
-10.0508077101
 10
5.002214134
 20
-10.0493346868
 10
4.9935528903
 20
-10.048049717
 10
4.9846819916
 20
-10.046955662
 10
4.9756247638
 20
-10.0460580953
 10
4.9664004015
 20
-10.0453586006
 10
4.9570289863
 20
-10.0448573026
 10
4.9475358518
 20
-10.0445570694
 10
4.9379413545
 20
-10.0444589956
 10
4.9282660882
 20
-10.0445625973
 10
4.9185363129
 20
-10.0448678405
 10
4.9087731883
 20
-10.045375283
 10
4.8989977712
 20
-10.0460838861
 10
4.889236585
 20
-10.0469906762
 10
4.8795111937
 20
-10.0480956509
 10
4.8698430957
 20
-10.0493971864
 10
4.8602589483
 20
-10.0508893005
 10
4.8507807761
 20
-10.0525712939
 10
4.8414298759
 20
-10.054440948
 10
4.8322318103
 20
-10.0564893923
 10
4.8232081835
 20
-10.0587152401
 10
4.8143801784
 20
-10.0611155601
 10
4.8057724001
 20
-10.0636785215
 10
4.7974021749
 20
-10.0664032618
 10
4.7892934751
 20
-10.0692848529
 10
4.7814790861
 20
-10.072304371
 10
4.7739774966
 20
-10.0754585679
 10
4.7668056241
 20
-10.0787426824
 10
4.7599902021
 20
-10.0821343303
 10
4.7535580291
 20
-10.0856216463
 10
4.7475079013
 20
-10.0892065747
 10
4.7418264232
 20
-10.0928875099
 10
4.7365193012
 20
-10.0966675131
 10
4.7316134035
 20
-10.1005344776
 10
4.7271288108
 20
-10.1044641502
 10
4.7230780754
 20
-10.1084502298
 10
4.7194695363
 20
-10.112488331
 10
4.7163125692
 20
-10.1165565812
 10
4.7136140379
 20
-10.1206439232
 10
4.711379095
 20
-10.1247502269
 10
4.7096118499
 20
-10.1288698984
  0
LWPOLYLINE
  5
4B6
100
AcDbEntity
  8
RACCORDO
100
AcDbPolyline
 62
253
  6
CONTINUOUS
 90
7
 70
0
 10
2.4792580108
 20
8.5570216709
 10
2.4876171429
 20
8.5241017087
 10
2.4945074252
 20
8.4903325875
 10
2.4999288575
 20
8.4557143071
 10
2.50388144
 20
8.4202468676
 10
2.5063651726
 20
8.3839302689
 10
2.5073800553
 20
8.3467645112
  0
LWPOLYLINE
  5
4B7
100
AcDbEntity
  8
RACCORDO
100
AcDbPolyline
 62
253
  6
CONTINUOUS
 90
13
 70
0
 10
7.4010216918
 20
-8.871725278
 10
7.3970375138
 20
-8.8539511051
 10
7.391220224
 20
-8.8359982091
 10
7.3834450907
 20
-8.8180836934
 10
7.3735221521
 20
-8.8003136816
 10
7.3614379496
 20
-8.7831258296
 10
7.3475041447
 20
-8.7671872653
 10
7.3318328121
 20
-8.7527060609
 10
7.3145725288
 20
-8.7398894831
 10
7.2963538291
 20
-8.7291658044
 10
7.277598894
 20
-8.7206208769
 10
7.258407904
 20
-8.7141496137
 10
7.2390121099
 20
-8.7097156961
  0
LWPOLYLINE
  5
4B8
100
AcDbEntity
  8
RACCORDO
100
AcDbPolyline
 62
253
  6
CONTINUOUS
 90
13
 70
0
 10
8.0764852556
 20
-7.8722425504
 10
8.0804694337
 20
-7.8900167233
 10
8.0862867234
 20
-7.9079696193
 10
8.0940618568
 20
-7.9258841351
 10
8.1039847953
 20
-7.9436541469
 10
8.1160689978
 20
-7.9608419988
 10
8.1300028027
 20
-7.9767805631
 10
8.1456741353
 20
-7.9912617675
 10
8.1629344186
 20
-8.0040783453
 10
8.1811531183
 20
-8.014802024
 10
8.1999080534
 20
-8.0233469516
 10
8.2190990435
 20
-8.0298182147
 10
8.2384948375
 20
-8.0342521323
  0
LWPOLYLINE
  5
4B9
100
AcDbEntity
  8
RACCORDO
100
AcDbPolyline
 62
7
  6
CONTINUOUS
 90
7
 70
0
 10
7.4850373647
 20
-8.876946558
 10
7.4876813116
 20
-8.8887655237
 10
7.4916719145
 20
-8.8993728081
 10
7.496974322
 20
-8.908725589
 10
7.5035464766
 20
-8.916777684
 10
7.5113388518
 20
-8.9234799842
 10
7.5202941868
 20
-8.9287809358
  0
LWPOLYLINE
  5
4BA
100
AcDbEntity
  8
RACCORDO
100
AcDbPolyline
 62
7
  6
CONTINUOUS
 90
7
 70
0
 10
7.9924696089
 20
-7.8670213473
 10
7.9898256713
 20
-7.8552023067
 10
7.9858350759
 20
-7.844594977
 10
7.980532676
 20
-7.8352421805
 10
7.9739605306
 20
-7.8271900997
 10
7.966168168
 20
-7.8204878436
 10
7.9572128504
 20
-7.8151869657
  0
LWPOLYLINE
  5
4BB
100
AcDbEntity
  8
RACCORDO
100
AcDbPolyline
 62
253
  6
CONTINUOUS
 90
13
 70
0
 10
7.3518487864
 20
-8.8803957879
 10
7.3489873512
 20
-8.866718938
 10
7.3445811326
 20
-8.853269992
 10
7.3386301304
 20
-8.8400489501
 10
7.331033099
 20
-8.8267634823
 10
7.3218912841
 20
-8.8137059185
 10
7.3115084233
 20
-8.8017532487
 10
7.2997418801
 20
-8.7910535576
 10
7.2867342911
 20
-8.7814587604
 10
7.2732173038
 20
-8.7734015927
 10
7.2594348008
 20
-8.7670262996
 10
7.2451428995
 20
-8.7621886358
 10
7.2303416
 20
-8.7588886015
  0
LWPOLYLINE
  5
4BC
100
AcDbEntity
  8
RACCORDO
100
AcDbPolyline
 62
253
  6
CONTINUOUS
 90
13
 70
0
 10
8.1256581611
 20
-7.8635720405
 10
8.1285195962
 20
-7.8772488905
 10
8.1329258149
 20
-7.8906978364
 10
8.138876817
 20
-7.9039188783
 10
8.1464738484
 20
-7.9172043461
 10
8.1556156634
 20
-7.9302619099
 10
8.1659985241
 20
-7.9422145797
 10
8.1777650673
 20
-7.9529142708
 10
8.1907726563
 20
-7.962509068
 10
8.2042896436
 20
-7.9705662357
 10
8.2180721466
 20
-7.9769415289
 10
8.2323640479
 20
-7.9817791926
 10
8.2471653475
 20
-7.9850792269
  0
LINE
  5
4BD
100
AcDbEntity
  8
RACCORDO
100
AcDbLine
 62
253
  6
CONTINUOUS
 10
7.5179498497
 20
-9.8224017286
 11
7.3518487864
 21
-8.8803957879
  0
LINE
  5
4BE
100
AcDbEntity
  8
RACCORDO
100
AcDbLine
 62
253
  6
CONTINUOUS
 10
7.2303416
 20
-7.9850792269
 11
7.2390121099
 21
-8.0342521323
  0
LINE
  5
4BF
100
AcDbEntity
  8
RACCORDO
100
AcDbLine
 62
253
  6
CONTINUOUS
 10
7.5671227551
 20
-9.8137312184
 11
7.4010216918
 21
-8.871725278
  0
LINE
  5
4C0
100
AcDbEntity
  8
RACCORDO
100
AcDbLine
 62
253
  6
CONTINUOUS
 10
7.9103841864
 20
-6.9302365764
 11
8.0764852556
 21
-7.8722425504
  0
LINE
  5
4C1
100
AcDbEntity
  8
RACCORDO
100
AcDbLine
 62
253
  6
CONTINUOUS
 10
8.2471653475
 20
-8.7588886015
 11
8.2384948375
 21
-8.7097156961
  0
LINE
  5
4C2
100
AcDbEntity
  8
RACCORDO
100
AcDbLine
 62
253
  6
CONTINUOUS
 10
7.9595570918
 20
-6.9215660662
 11
8.1256581611
 21
-7.8635720405
  0
LINE
  5
4C3
100
AcDbEntity
  8
RACCORDO
100
AcDbLine
 62
253
  6
CONTINUOUS
 10
9.1891712881
 20
-8.5927875382
 11
9.1805007781
 21
-8.5436146328
  0
LINE
  5
4C4
100
AcDbEntity
  8
RACCORDO
100
AcDbLine
 62
7
  6
CONTINUOUS
 10
7.4723968142
 20
-8.8003501556
 11
7.4850373648
 21
-8.8769465583
  0
LINE
  5
4C5
100
AcDbEntity
  8
RACCORDO
100
AcDbLine
 62
7
  6
CONTINUOUS
 10
8.0051101332
 20
-7.9436176728
 11
7.9924695826
 21
-7.8670212694
  0
LINE
  5
4C6
100
AcDbEntity
  8
RACCORDO
100
AcDbLine
 62
253
  6
CONTINUOUS
 10
4.9065734
 20
-90.5209692106
 11
4.8914593046
 21
-90.5479716448
  0
LINE
  5
4C7
100
AcDbEntity
  8
RACCORDO
100
AcDbLine
 62
253
  6
CONTINUOUS
 10
4.8914593046
 20
-90.5479716448
 11
4.877153905
 21
-90.5732271585
  0
LINE
  5
4C8
100
AcDbEntity
  8
RACCORDO
100
AcDbLine
 62
253
  6
CONTINUOUS
 10
4.877153905
 20
-90.5732271585
 11
4.8637271844
 21
-90.5966620263
  0
LINE
  5
4C9
100
AcDbEntity
  8
RACCORDO
100
AcDbLine
 62
253
  6
CONTINUOUS
 10
4.8637271844
 20
-90.5966620263
 11
4.8511390532
 21
-90.6183641096
  0
LINE
  5
4CA
100
AcDbEntity
  8
RACCORDO
100
AcDbLine
 62
253
  6
CONTINUOUS
 10
4.8511390532
 20
-90.6183641096
 11
4.8393666132
 21
-90.6384090532
  0
LINE
  5
4CB
100
AcDbEntity
  8
RACCORDO
100
AcDbLine
 62
253
  6
CONTINUOUS
 10
4.8393666132
 20
-90.6384090532
 11
4.8283970083
 21
-90.6568297775
  0
LINE
  5
4CC
100
AcDbEntity
  8
RACCORDO
100
AcDbLine
 62
253
  6
CONTINUOUS
 10
4.8283970083
 20
-90.6568297775
 11
4.8181997034
 21
-90.6737018517
  0
LINE
  5
4CD
100
AcDbEntity
  8
RACCORDO
100
AcDbLine
 62
253
  6
CONTINUOUS
 10
4.8181997034
 20
-90.6737018517
 11
4.808799992
 21
-90.6890199111
  0
LWPOLYLINE
  5
4CE
100
AcDbEntity
  8
RACCORDO
100
AcDbPolyline
 62
253
  6
CONTINUOUS
 90
3
 70
0
 10
4.808799992
 20
-90.6890199111
 10
4.8001929602
 20
-90.7027977745
 10
4.7962011598
 20
-90.7091047164
  0
LWPOLYLINE
  5
4CF
100
AcDbEntity
  8
RACCORDO
100
AcDbPolyline
 62
253
  6
CONTINUOUS
 90
26
 70
0
 10
4.7962011598
 20
-90.7091047164
 10
4.7887850302
 20
-90.7206360192
 10
4.785356942
 20
-90.7258916531
 10
4.7820960176
 20
-90.7308232401
 10
4.7789634362
 20
-90.7355087463
 10
4.775962321
 20
-90.7399493596
 10
4.773082876
 20
-90.7441471404
 10
4.7702791247
 20
-90.7481723074
 10
4.7675554217
 20
-90.7520294242
 10
4.7649143329
 20
-90.755707093
 10
4.7623201462
 20
-90.759241616
 10
4.7597803195
 20
-90.7626348096
 10
4.7573073945
 20
-90.7658678198
 10
4.7548833117
 20
-90.7689379892
 10
4.7525233069
 20
-90.7718372134
 10
4.7502409311
 20
-90.7745494813
 10
4.7480231194
 20
-90.777054155
 10
4.7458905111
 20
-90.7793385116
 10
4.7438608568
 20
-90.7813834206
 10
4.7419242326
 20
-90.783152509
 10
4.7401065704
 20
-90.7846289463
 10
4.7384310867
 20
-90.7857892037
 10
4.7368912835
 20
-90.7865807682
 10
4.7355063459
 20
-90.7869688281
 10
4.7343176085
 20
-90.7869392439
 10
4.7333560037
 20
-90.7864672995
  0
LWPOLYLINE
  5
4D0
100
AcDbEntity
  8
RACCORDO
100
AcDbPolyline
 62
253
  6
CONTINUOUS
 90
10
 70
0
 10
4.733355996
 20
-85.9575005227
 10
4.7245693896
 20
-85.9694854382
 10
4.7167528762
 20
-85.9821375255
 10
4.7099525016
 20
-85.9953822534
 10
4.7042083254
 20
-86.0091415998
 10
4.6995541854
 20
-86.0233345109
 10
4.6960174984
 20
-86.037877379
 10
4.6936190984
 20
-86.0526845348
 10
4.6923731137
 20
-86.0676687522
 10
4.6922868843
 20
-86.0827417619
  0
LWPOLYLINE
  5
4D1
100
AcDbEntity
  8
RACCORDO
100
AcDbPolyline
 62
253
  6
CONTINUOUS
 90
10
 70
0
 10
4.584230352
 20
-86.131515897
 10
4.5997611039
 20
-86.1123126995
 10
4.6155076775
 20
-86.0931151869
 10
4.6314711854
 20
-86.0739261092
 10
4.6475995085
 20
-86.0548104046
 10
4.6639461551
 20
-86.0357079777
 10
4.680674097
 20
-86.0164374351
 10
4.6978421897
 20
-85.9969440921
 10
4.7154013324
 20
-85.9772962387
 10
4.7333560037
 20
-85.9575005289
  0
LWPOLYLINE
  5
4D2
100
AcDbEntity
  8
RACCORDO
100
AcDbPolyline
 62
253
  6
CONTINUOUS
 90
10
 70
0
 10
4.5447937949
 20
-86.2541405741
 10
4.5601636466
 20
-86.2351609319
 10
4.5757407649
 20
-86.2162138964
 10
4.5915251499
 20
-86.1972994675
 10
4.607453734
 20
-86.1784826774
 10
4.6235895848
 20
-86.1596984941
 10
4.640121905
 20
-86.1407518205
 10
4.6571137621
 20
-86.1215776245
 10
4.6745020885
 20
-86.1022409383
 10
4.6922868843
 20
-86.0827417619
  0
LINE
  5
4D3
100
AcDbEntity
  8
RACCORDO
100
AcDbLine
 62
7
  6
CONTINUOUS
 10
6.2387534737
 20
-81.9719839142
 11
6.2177160059
 21
-81.9930560723
  0
LWPOLYLINE
  5
4D4
100
AcDbEntity
  8
RACCORDO
100
AcDbPolyline
 62
253
  6
CONTINUOUS
 90
41
 70
0
 10
4.6922868843
 20
-86.0827417619
 10
4.6927469229
 20
-86.0822861756
 10
4.693214179
 20
-86.0819473838
 10
4.6936886523
 20
-86.0817253867
 10
4.694168856
 20
-86.0816111712
 10
4.694656277
 20
-86.0816137503
 10
4.6951553767
 20
-86.0817601628
 10
4.6956670388
 20
-86.0820444267
 10
4.6961903796
 20
-86.082472524
 10
4.6967272098
 20
-86.0830894395
 10
4.6972799317
 20
-86.0838957182
 10
4.697846143
 20
-86.0848908151
 10
4.6984204465
 20
-86.0861180805
 10
4.6990038882
 20
-86.0875835617
 10
4.6995954221
 20
-86.0892812115
 10
4.700186513
 20
-86.0912362377
 10
4.700777338
 20
-86.0934570113
 10
4.7013677199
 20
-86.0959351613
 10
4.7019485923
 20
-86.0986707829
 10
4.7025196254
 20
-86.1016726933
 10
4.7030811489
 20
-86.1049320753
 10
4.7036250858
 20
-86.1084225731
 10
4.7041502656
 20
-86.1121460308
 10
4.7046578587
 20
-86.1161006044
 10
4.7051432985
 20
-86.1202544057
 10
4.7056056991
 20
-86.1246046769
 10
4.7060459465
 20
-86.1291541758
 10
4.7064621316
 20
-86.1338792882
 10
4.706854033
 20
-86.138779219
 10
4.7072218721
 20
-86.1438547631
 10
4.707564404
 20
-86.1490846908
 10
4.707881581
 20
-86.1544700095
 10
4.7081734509
 20
-86.1600097117
 10
4.7084389119
 20
-86.1656795448
 10
4.7086777371
 20
-86.1714713435
 10
4.7088901533
 20
-86.1773932731
 10
4.70907574
 20
-86.1834455759
 10
4.7092348438
 20
-86.1896097806
 10
4.709367118
 20
-86.1959043584
 10
4.7094711018
 20
-86.2023849654
 10
4.7095463081
 20
-86.2090701537
  0
LWPOLYLINE
  5
4D5
100
AcDbEntity
  8
RACCORDO
100
AcDbPolyline
 62
253
  6
CONTINUOUS
 90
26
 70
0
 10
4.7333560037
 20
-85.9575005289
 10
4.7339668311
 20
-85.9571207971
 10
4.7346871127
 20
-85.9569462191
 10
4.7355255501
 20
-85.9569838761
 10
4.7364915604
 20
-85.9572330869
 10
4.7375916979
 20
-85.9577074459
 10
4.7388371473
 20
-85.9584408278
 10
4.7402485657
 20
-85.9594426691
 10
4.7418372372
 20
-85.9607289781
 10
4.7436126343
 20
-85.9623532348
 10
4.7456053939
 20
-85.9643382864
 10
4.7478300768
 20
-85.9666967072
 10
4.7502754482
 20
-85.9694689321
 10
4.75296352
 20
-85.972676722
 10
4.7559121654
 20
-85.9763282614
 10
4.7590954022
 20
-85.9804362551
 10
4.7625238565
 20
-85.9850155617
 10
4.7662116615
 20
-85.9900676274
 10
4.7701239359
 20
-85.9955732661
 10
4.7742597837
 20
-86.0015389123
 10
4.7786258601
 20
-86.0079579035
 10
4.7831830065
 20
-86.0147788722
 10
4.7879151624
 20
-86.0219896668
 10
4.7928248591
 20
-86.0295862962
 10
4.7978892909
 20
-86.0375207671
 10
4.8030891052
 20
-86.0457729239
  0
LWPOLYLINE
  5
4D6
100
AcDbEntity
  8
RACCORDO
100
AcDbPolyline
 62
7
  6
CONTINUOUS
 90
8
 70
0
 10
9.8461062598
 20
-85.1437942969
 10
9.8442585111
 20
-85.1449218481
 10
9.8397937086
 20
-85.1473179513
 10
9.8328441632
 20
-85.1509826066
 10
9.8235626508
 20
-85.1560007008
 10
9.8121119363
 20
-85.1622873471
 10
9.7986555787
 20
-85.1695878844
 10
9.7284012336
 20
-85.2081301982
  0
LWPOLYLINE
  5
4D7
100
AcDbEntity
  8
RACCORDO
100
AcDbPolyline
 62
7
  6
CONTINUOUS
 90
7
 70
0
 10
9.8461062598
 20
-83.1342765842
 10
9.8442834069
 20
-83.1353526984
 10
9.8398790203
 20
-83.1376471455
 10
9.8330161866
 20
-83.1411599255
 10
9.8238382246
 20
-83.145971542
 10
9.8124989565
 20
-83.1520014913
 10
9.7292070757
 20
-83.1960395718
  0
LWPOLYLINE
  5
4D8
100
AcDbEntity
  8
RACCORDO
100
AcDbPolyline
 62
7
  6
CONTINUOUS
 90
4
 70
0
 10
9.6635505224
 20
-85.2441599356
 10
9.5935320146
 20
-85.2834468849
 10
9.5698040488
 20
-85.2968748928
 10
9.5461519512
 20
-85.3104985692
  0
LINE
  5
4D9
100
AcDbEntity
  8
RACCORDO
100
AcDbLine
 62
7
  6
CONTINUOUS
 10
9.7284012336
 20
-85.2081301982
 11
9.6635505224
 21
-85.2441599356
  0
LINE
  5
4DA
100
AcDbEntity
  8
RACCORDO
100
AcDbLine
 62
7
  6
CONTINUOUS
 10
9.5700155016
 20
-83.2812824116
 11
9.5461519512
 21
-83.2943482347
  0
LINE
  5
4DB
100
AcDbEntity
  8
RACCORDO
100
AcDbLine
 62
7
  6
CONTINUOUS
 10
9.8601617016
 20
-85.1361934091
 11
9.8461062598
 21
-85.1437942969
  0
LINE
  5
4DC
100
AcDbEntity
  8
RACCORDO
100
AcDbLine
 62
7
  6
CONTINUOUS
 10
9.7292070757
 20
-83.1960395718
 11
9.5700155016
 21
-83.2812824116
  0
LINE
  5
4DD
100
AcDbEntity
  8
RACCORDO
100
AcDbLine
 62
7
  6
CONTINUOUS
 10
9.8461062598
 20
-83.1342765842
 11
9.8653068312
 21
-83.1241964058
  0
LINE
  5
4DE
100
AcDbEntity
  8
RACCORDO
100
AcDbLine
 62
7
  6
CONTINUOUS
 10
9.8653068312
 20
-13.6197714226
 11
9.8461062598
 21
-13.6096912442
  0
LWPOLYLINE
  5
4DF
100
AcDbEntity
  8
RACCORDO
100
AcDbPolyline
 62
7
  6
CONTINUOUS
 90
6
 70
0
 10
9.8124989565
 20
-13.5919663371
 10
9.8238382246
 20
-13.5979962864
 10
9.8330161866
 20
-13.6028079029
 10
9.8398790203
 20
-13.6063206829
 10
9.8442834069
 20
-13.60861513
 10
9.8461062598
 20
-13.6096912442
  0
LWPOLYLINE
  5
4E0
100
AcDbEntity
  8
RACCORDO
100
AcDbPolyline
 62
7
  6
CONTINUOUS
 90
3
 70
0
 10
9.7292070757
 20
-13.5479282566
 10
9.7839769114
 20
-13.5769678416
 10
9.8124989565
 20
-13.5919663371
  0
LINE
  5
4E1
100
AcDbEntity
  8
RACCORDO
100
AcDbLine
 62
7
  6
CONTINUOUS
 10
9.6643035659
 20
-13.5132997469
 11
9.7292070757
 21
-13.5479282566
  0
LINE
  5
4E2
100
AcDbEntity
  8
RACCORDO
100
AcDbLine
 62
7
  6
CONTINUOUS
 10
9.8601617016
 20
-11.6077744193
 11
9.8461062598
 21
-11.6001735316
  0
LWPOLYLINE
  5
4E3
100
AcDbEntity
  8
RACCORDO
100
AcDbPolyline
 62
7
  6
CONTINUOUS
 90
3
 70
0
 10
9.8121119363
 20
-11.5816804814
 10
9.7833742881
 20
-11.5660584779
 10
9.7284012336
 20
-11.5358376302
  0
LWPOLYLINE
  5
4E4
100
AcDbEntity
  8
RACCORDO
100
AcDbPolyline
 62
7
  6
CONTINUOUS
 90
3
 70
0
 10
9.5461519512
 20
-13.4496195937
 10
9.5700155016
 20
-13.4626854168
 10
9.6643035659
 20
-13.5132997469
  0
LINE
  5
4E5
100
AcDbEntity
  8
RACCORDO
100
AcDbLine
 62
7
  6
CONTINUOUS
 10
9.7284012336
 20
-11.5358376302
 11
9.6635505224
 21
-11.4998078928
  0
LINE
  5
4E6
100
AcDbEntity
  8
RACCORDO
100
AcDbLine
 62
7
  6
CONTINUOUS
 10
9.6635505224
 20
-11.4998078928
 11
9.5935320146
 21
-11.4605209436
  0
LWPOLYLINE
  5
4E7
100
AcDbEntity
  8
RACCORDO
100
AcDbPolyline
 62
7
  6
CONTINUOUS
 90
3
 70
0
 10
9.5935320146
 20
-11.4605209436
 10
9.5698040488
 20
-11.4470929356
 10
9.5461519512
 20
-11.4334692592
  0
LWPOLYLINE
  5
4E8
100
AcDbEntity
  8
RACCORDO
100
AcDbPolyline
 62
7
  6
CONTINUOUS
 90
6
 70
0
 10
9.8461062598
 20
-11.6001735316
 10
9.8442585111
 20
-11.5990459803
 10
9.8397937086
 20
-11.5966498771
 10
9.8328441632
 20
-11.5929852219
 10
9.8235626508
 20
-11.5879671276
 10
9.8121119363
 20
-11.5816804814
  0
LINE
  5
4E9
100
AcDbEntity
  8
RACCORDO
100
AcDbLine
 62
7
  6
CONTINUOUS
 10
6.2387534737
 20
-14.7719839142
 11
6.2177160059
 21
-14.7509117561
  0
LWPOLYLINE
  5
4EA
100
AcDbEntity
  8
RACCORDO
100
AcDbPolyline
 62
253
  6
CONTINUOUS
 90
10
 70
0
 10
4.6922868843
 20
-10.6612260665
 10
4.6755000596
 20
-10.6428436008
 10
4.6589193426
 20
-10.6244250412
 10
4.6425447333
 20
-10.6059703877
 10
4.6265181408
 20
-10.5876521306
 10
4.610697656
 20
-10.5692977796
 10
4.5946575517
 20
-10.5503898636
 10
4.5782559189
 20
-10.5307558922
 10
4.5616346667
 20
-10.5105683558
 10
4.5447937949
 20
-10.4898272544
  0
LWPOLYLINE
  5
4EB
100
AcDbEntity
  8
RACCORDO
100
AcDbPolyline
 62
253
  6
CONTINUOUS
 90
10
 70
0
 10
4.7333560037
 20
-10.7864672995
 10
4.7163456503
 20
-10.7677210046
 10
4.6995436761
 20
-10.7489411195
 10
4.6829493256
 20
-10.7301302778
 10
4.6666951329
 20
-10.7114460492
 10
4.6506450909
 20
-10.6927378861
 10
4.6344041094
 20
-10.6735379859
 10
4.6178496472
 20
-10.6536829318
 10
4.601122259
 20
-10.6333228364
 10
4.584230352
 20
-10.6124519315
  0
LWPOLYLINE
  5
4EC
100
AcDbEntity
  8
RACCORDO
100
AcDbPolyline
 62
253
  6
CONTINUOUS
 90
10
 70
0
 10
4.7333559775
 20
-10.7864673206
 10
4.724569371
 20
-10.7744824026
 10
4.716752858
 20
-10.7618303131
 10
4.7099524843
 20
-10.748585583
 10
4.7042083096
 20
-10.7348262346
 10
4.6995541718
 20
-10.7206333217
 10
4.6960174874
 20
-10.706090452
 10
4.6936190905
 20
-10.691283295
 10
4.6923731095
 20
-10.6762990767
 10
4.6922868843
 20
-10.6612260665
  0
LWPOLYLINE
  5
4ED
100
AcDbEntity
  8
RACCORDO
100
AcDbPolyline
 62
7
  6
CONTINUOUS
 90
10
 70
0
 10
4.5842303642
 20
-10.6124519529
 10
4.5760997415
 20
-10.6001049323
 10
4.5688903282
 20
-10.5873792966
 10
4.5626021244
 20
-10.574275046
 10
4.5572138154
 20
-10.5607133423
 10
4.5527467158
 20
-10.5467730236
 10
4.5492647696
 20
-10.532690604
 10
4.5467892914
 20
-10.5185449216
 10
4.5452989665
 20
-10.5042571384
 10
4.5447937949
 20
-10.4898272544
  0
LWPOLYLINE
  5
4EE
100
AcDbEntity
  8
RACCORDO
100
AcDbPolyline
 62
253
  6
CONTINUOUS
 90
3
 70
0
 10
4.8030891052
 20
-6.0457729239
 10
4.8138811695
 20
-6.0631946906
 10
4.8194563705
 20
-6.0723243822
  0
LINE
  5
4EF
100
AcDbEntity
  8
RACCORDO
100
AcDbLine
 62
253
  6
CONTINUOUS
 10
4.8194563705
 20
-6.0723243822
 11
4.8309218943
 21
-6.0913573262
  0
LWPOLYLINE
  5
4F0
100
AcDbEntity
  8
RACCORDO
100
AcDbPolyline
 62
7
  6
CONTINUOUS
 90
7
 70
0
 10
7.1819564734
 20
-8.5904432272
 10
7.1872547554
 20
-8.5993967105
 10
7.1939554164
 20
-8.6071880658
 10
7.2020069419
 20
-8.613759972
 10
7.2113602489
 20
-8.6190628305
 10
7.2219691678
 20
-8.6230545009
 10
7.2337908752
 20
-8.6257000386
  0
LINE
  5
4F1
100
AcDbEntity
  8
RACCORDO
100
AcDbLine
 62
253
  6
CONTINUOUS
 10
4.8309218943
 20
-6.0913573262
 11
4.8427641052
 21
-6.1113243003
  0
LINE
  5
4F2
100
AcDbEntity
  8
RACCORDO
100
AcDbLine
 62
253
  6
CONTINUOUS
 10
4.8427641052
 20
-6.1113243003
 11
4.8549106467
 21
-6.1320746232
  0
LINE
  5
4F3
100
AcDbEntity
  8
RACCORDO
100
AcDbLine
 62
253
  6
CONTINUOUS
 10
4.8549106467
 20
-6.1320746232
 11
4.8673066756
 21
-6.1535287093
  0
LINE
  5
4F4
100
AcDbEntity
  8
RACCORDO
100
AcDbLine
 62
253
  6
CONTINUOUS
 10
4.8673066756
 20
-6.1535287093
 11
4.8799383637
 21
-6.1756349975
  0
LWPOLYLINE
  5
4F5
100
AcDbEntity
  8
RACCORDO
100
AcDbPolyline
 62
253
  6
CONTINUOUS
 90
3
 70
0
 10
4.8799383637
 20
-6.1756349975
 10
4.899755818
 20
-6.2107700846
 10
4.9065734
 20
-6.2229986179
  0
LWPOLYLINE
  5
4F6
100
AcDbEntity
  8
RACCORDO
100
AcDbPolyline
 62
253
  6
CONTINUOUS
 90
43
 70
0
 10
4.7096118501
 20
-6.6151124036
 10
4.7113977926
 20
-6.6192705581
 10
4.7136568043
 20
-6.6234094369
 10
4.716382767
 20
-6.6275233457
 10
4.7195683436
 20
-6.6316118291
 10
4.7232048476
 20
-6.6356640964
 10
4.7272817125
 20
-6.6396591191
 10
4.7317889091
 20
-6.6435924568
 10
4.7367123861
 20
-6.647458036
 10
4.7420317634
 20
-6.6512328888
 10
4.7477190613
 20
-6.6549050381
 10
4.7537675642
 20
-6.6584777285
 10
4.7601911305
 20
-6.6619506952
 10
4.7669903315
 20
-6.6653260418
 10
4.7741378062
 20
-6.6685921143
 10
4.7816079221
 20
-6.6717278874
 10
4.7893831341
 20
-6.6747286625
 10
4.797445252
 20
-6.6775914874
 10
4.8057645812
 20
-6.6802990142
 10
4.8143174282
 20
-6.6828465207
 10
4.8230867776
 20
-6.6852331102
 10
4.8320517065
 20
-6.6874479669
 10
4.841191607
 20
-6.6894882867
 10
4.8504853083
 20
-6.6913524906
 10
4.8599110298
 20
-6.6930320292
 10
4.8694484335
 20
-6.6945247255
 10
4.8790754991
 20
-6.6958295137
 10
4.8887679944
 20
-6.6969399454
 10
4.8985052887
 20
-6.6978542758
 10
4.9082654337
 20
-6.6985721263
 10
4.9180223648
 20
-6.6990895947
 10
4.9277551317
 20
-6.6994053959
 10
4.9374423104
 20
-6.6995198036
 10
4.9470574195
 20
-6.6994317877
 10
4.9565795787
 20
-6.699140588
 10
4.9659879368
 20
-6.6986470499
 10
4.9752565169
 20
-6.6979530967
 10
4.9843649034
 20
-6.6970585292
 10
4.9932928644
 20
-6.6959647575
 10
5.0020153365
 20
-6.6946766821
 10
5.0105110684
 20
-6.6931968293
 10
5.0187623891
 20
-6.6915251562
 10
5.026750218
 20
-6.6896631252
  0
LWPOLYLINE
  5
4F7
100
AcDbEntity
  8
RACCORDO
100
AcDbPolyline
 62
7
  6
CONTINUOUS
 90
7
 70
0
 10
9.8653068312
 20
-13.6197714226
 10
9.8648961832
 20
-13.6186166592
 10
9.8644867927
 20
-13.6149945639
 10
9.8640786596
 20
-13.6089051368
 10
9.8636669975
 20
-13.6003206528
 10
9.8632565928
 20
-13.5892688369
 10
9.8628618053
 20
-13.5758328642
  0
LINE
  5
4F8
100
AcDbEntity
  8
RACCORDO
100
AcDbLine
 62
253
  6
CONTINUOUS
 10
8.0051101332
 20
-87.9436176728
 11
8.0764852556
 21
-87.8722425504
  0
LINE
  5
4F9
100
AcDbEntity
  8
RACCORDO
100
AcDbLine
 62
253
  6
CONTINUOUS
 10
7.3103872323
 20
-88.6383405737
 11
7.2390121099
 21
-88.7097156961
  0
LINE
  5
4FA
100
AcDbEntity
  8
RACCORDO
100
AcDbLine
 62
253
  6
CONTINUOUS
 10
8.1671197151
 20
-88.1056272547
 11
8.2384948375
 21
-88.0342521323
  0
LINE
  5
4FB
100
AcDbEntity
  8
RACCORDO
100
AcDbLine
 62
253
  6
CONTINUOUS
 10
7.4723968142
 20
-88.8003501556
 11
7.4010216918
 21
-88.871725278
  0
LWPOLYLINE
  5
4FC
100
AcDbEntity
  8
RACCORDO
100
AcDbPolyline
 62
253
  6
CONTINUOUS
 90
10
 70
0
 10
4.9065734
 20
-90.1288676234
 10
4.921281815
 20
-90.1195946818
 10
4.9360021787
 20
-90.1104924525
 10
4.9505599984
 20
-90.101581481
 10
4.964721827
 20
-90.0928268586
 10
4.9783812136
 20
-90.0842936288
 10
4.9915537403
 20
-90.0761518666
 10
5.004135995
 20
-90.0684651783
 10
5.015915209
 20
-90.0611857702
 10
5.026749852
 20
-90.0543135136
  0
LWPOLYLINE
  5
4FD
100
AcDbEntity
  8
RACCORDO
100
AcDbPolyline
 62
7
  6
CONTINUOUS
 90
8
 70
0
 10
5.6358160005
 20
-91.6030515325
 10
5.6376646916
 20
-91.601921278
 10
5.6421317393
 20
-91.5995201126
 10
5.6490844269
 20
-91.5958480363
 10
5.6583695464
 20
-91.5908198658
 10
5.6698239615
 20
-91.5845207844
 10
5.6832838731
 20
-91.5772063425
 10
5.7535463499
 20
-91.5385961045
  0
LWPOLYLINE
  5
4FE
100
AcDbEntity
  8
RACCORDO
100
AcDbPolyline
 62
7
  6
CONTINUOUS
 90
7
 70
0
 10
7.5202941603
 20
-87.8151869141
 10
7.5113165522
 20
-87.8205191289
 10
7.5035118944
 20
-87.8272406597
 10
7.4969367388
 20
-87.835299482
 10
7.4916397639
 20
-87.8446461694
 10
7.4876620495
 20
-87.855234384
 10
7.4850373492
 20
-87.8670213159
  0
LWPOLYLINE
  5
4FF
100
AcDbEntity
  8
RACCORDO
100
AcDbPolyline
 62
7
  6
CONTINUOUS
 90
7
 70
0
 10
7.9572126859
 20
-88.9287809969
 10
7.9661903398
 20
-88.9234487337
 10
7.9739950297
 20
-88.9167271703
 10
7.9805702043
 20
-88.9086683319
 10
7.9858671864
 20
-88.8993216453
 10
7.9898448973
 20
-88.8887334487
 10
7.9924695847
 20
-88.8769465523
  0
LWPOLYLINE
  5
500
100
AcDbEntity
  8
RACCORDO
100
AcDbPolyline
 62
7
  6
CONTINUOUS
 90
4
 70
0
 10
5.818393991
 20
-91.5025083411
 10
5.8884014025
 20
-91.4631621473
 10
5.912124116
 20
-91.4497146704
 10
5.9357703091
 20
-91.4360716222
  0
LINE
  5
501
100
AcDbEntity
  8
RACCORDO
100
AcDbLine
 62
7
  6
CONTINUOUS
 10
5.7535463499
 20
-91.5385961045
 11
5.818393991
 21
-91.5025083411
  0
LINE
  5
502
100
AcDbEntity
  8
RACCORDO
100
AcDbLine
 62
7
  6
CONTINUOUS
 10
5.6217605587
 20
-91.6106648278
 11
5.6358160005
 21
-91.6030515325
  0
LWPOLYLINE
  5
503
100
AcDbEntity
  8
RACCORDO
100
AcDbPolyline
 62
253
  6
CONTINUOUS
 90
22
 70
0
 10
-67.1341119779
 20
8.750805385
 10
-67.1715178337
 20
8.7493926165
 10
-67.2087129711
 20
8.7451851704
 10
-67.2454888979
 20
8.7382068611
 10
-67.2816384807
 20
8.7284973469
 10
-67.316960211
 20
8.7161111118
 10
-67.3512590762
 20
8.7011164027
 10
-67.384346228
 20
8.6835947362
 10
-67.416032026
 20
8.6636454562
 10
-67.4461312456
 20
8.6413858337
 10
-67.4744707908
 20
8.616946877
 10
-67.5008989469
 20
8.5904625998
 10
-67.5252766152
 20
8.5620726798
 10
-67.5474737856
 20
8.5319244171
 10
-67.56735606
 20
8.5001958362
 10
-67.5847991453
 20
8.4670887798
 10
-67.5997124355
 20
8.4327839125
 10
-67.6120131611
 20
8.3974817882
 10
-67.6216261083
 20
8.3614301479
 10
-67.6285107886
 20
8.3248503945
 10
-67.6326496806
 20
8.2879323158
 10
-67.6340358255
 20
8.2508815374
  0
LINE
  5
504
100
AcDbEntity
  8
RACCORDO
100
AcDbLine
 62
253
  6
CONTINUOUS
 10
-67.2773296214
 20
8.8451532848
 11
-67.2299949518
 21
8.8466853662
  0
LINE
  5
505
100
AcDbEntity
  8
RACCORDO
100
AcDbLine
 62
253
  6
CONTINUOUS
 10
1.814769726
 20
8.8497710632
 11
1.7075018991
 21
8.8466883588
  0
LINE
  5
506
100
AcDbEntity
  8
RACCORDO
100
AcDbLine
 62
253
  6
CONTINUOUS
 10
1.9073164113
 20
8.8519238865
 11
1.814769726
 21
8.8497710632
  0
LINE
  5
507
100
AcDbEntity
  8
RACCORDO
100
AcDbLine
 62
253
  6
CONTINUOUS
 10
2.0258616147
 20
8.853977656
 11
1.9073164113
 21
8.8519238865
  0
LINE
  5
508
100
AcDbEntity
  8
RACCORDO
100
AcDbLine
 62
253
  6
CONTINUOUS
 10
2.1574189561
 20
8.8555348045
 11
2.0258616147
 21
8.853977656
  0
LINE
  5
509
100
AcDbEntity
  8
RACCORDO
100
AcDbLine
 62
253
  6
CONTINUOUS
 10
2.3397592714
 20
8.8567153634
 11
2.1574189561
 21
8.8555348045
  0
LINE
  5
50A
100
AcDbEntity
  8
RACCORDO
100
AcDbLine
 62
253
  6
CONTINUOUS
 10
-12.123870444
 20
8.737171166
 11
1.6116189254
 21
8.750805385
  0
LINE
  5
50B
100
AcDbEntity
  8
RACCORDO
100
AcDbLine
 62
253
  6
CONTINUOUS
 10
-12.1025888003
 20
8.2372473066
 11
1.6470914387
 21
8.2508815374
  0
LINE
  5
50C
100
AcDbEntity
  8
RACCORDO
100
AcDbLine
 62
253
  6
CONTINUOUS
 10
-25.8727443971
 20
8.2304249175
 11
-12.1025888003
 21
8.2372473066
  0
LINE
  5
50D
100
AcDbEntity
  8
RACCORDO
100
AcDbLine
 62
253
  6
CONTINUOUS
 10
-25.87984492
 20
8.7303487653
 11
-12.123870444
 21
8.737171166
  0
LINE
  5
50E
100
AcDbEntity
  8
RACCORDO
100
AcDbLine
 62
253
  6
CONTINUOUS
 10
1.6470914387
 20
8.2508815374
 11
2.1115427729
 21
8.2508815374
  0
LINE
  5
50F
100
AcDbEntity
  8
RACCORDO
100
AcDbLine
 62
253
  6
CONTINUOUS
 10
2.2074257467
 20
8.3467645112
 11
2.5073800553
 21
8.3467645112
  0
LINE
  5
510
100
AcDbEntity
  8
RACCORDO
100
AcDbLine
 62
253
  6
CONTINUOUS
 10
-67.7299187993
 20
8.3467645112
 11
-68.0298731078
 21
8.3467645112
  0
LINE
  5
511
100
AcDbEntity
  8
RACCORDO
100
AcDbLine
 62
253
  6
CONTINUOUS
 10
-70.2402090585
 20
8.3570547704
 11
-69.94025475
 21
8.3570547704
  0
LINE
  5
512
100
AcDbEntity
  8
RACCORDO
100
AcDbLine
 62
253
  6
CONTINUOUS
 10
5.9177616974
 20
8.3570547704
 11
6.2177160059
 21
8.3570547709
  0
LINE
  5
513
100
AcDbEntity
  8
RACCORDO
100
AcDbLine
 62
253
  6
CONTINUOUS
 10
-69.7402852109
 20
8.5570243095
 11
-68.0017502645
 21
8.5570185372
  0
LINE
  5
514
100
AcDbEntity
  8
RACCORDO
100
AcDbLine
 62
253
  6
CONTINUOUS
 10
5.7177921584
 20
8.5570243095
 11
2.4792580108
 21
8.5570216709
  0
LINE
  5
515
100
AcDbEntity
  8
RACCORDO
100
AcDbLine
 62
253
  6
CONTINUOUS
 10
5.7177921584
 20
8.856978618
 11
2.3397592714
 21
8.8567153634
  0
LINE
  5
516
100
AcDbEntity
  8
RACCORDO
100
AcDbLine
 62
7
  6
CONTINUOUS
 10
-69.7613226787
 20
8.8780160858
 11
5.7388296261
 21
8.8780160858
  0
LINE
  5
517
100
AcDbEntity
  8
RACCORDO
100
AcDbLine
 62
253
  6
CONTINUOUS
 10
-39.6497337045
 20
8.2304249139
 11
-25.8727443971
 21
8.2304249175
  0
LINE
  5
518
100
AcDbEntity
  8
RACCORDO
100
AcDbLine
 62
253
  6
CONTINUOUS
 10
-39.6426460892
 20
8.7303487649
 11
-25.87984492
 21
8.7303487653
  0
LINE
  5
519
100
AcDbEntity
  8
RACCORDO
100
AcDbLine
 62
253
  6
CONTINUOUS
 10
-53.4198952621
 20
8.2372472997
 11
-39.6497337045
 21
8.2304249139
  0
LINE
  5
51A
100
AcDbEntity
  8
RACCORDO
100
AcDbLine
 62
253
  6
CONTINUOUS
 10
-53.3986264357
 20
8.7371711687
 11
-39.6426460892
 21
8.7303487649
  0
LINE
  5
51B
100
AcDbEntity
  8
RACCORDO
100
AcDbLine
 62
253
  6
CONTINUOUS
 10
-67.6340358255
 20
8.2508815374
 11
-53.4198952621
 21
8.2372472997
  0
LINE
  5
51C
100
AcDbEntity
  8
RACCORDO
100
AcDbLine
 62
253
  6
CONTINUOUS
 10
-67.1341119779
 20
8.750805385
 11
-53.3986264357
 21
8.7371711687
  0
LINE
  5
51D
100
AcDbEntity
  8
RACCORDO
100
AcDbLine
 62
253
  6
CONTINUOUS
 10
-69.7402852109
 20
8.856978618
 11
-67.8621191559
 21
8.8567146635
  0
LINE
  5
51E
100
AcDbEntity
  8
RACCORDO
100
AcDbLine
 62
253
  6
CONTINUOUS
 10
-67.8621191559
 20
8.8567146635
 11
-67.6777126357
 21
8.8555127694
  0
LINE
  5
51F
100
AcDbEntity
  8
RACCORDO
100
AcDbLine
 62
253
  6
CONTINUOUS
 10
-67.6777126357
 20
8.8555127694
 11
-67.5455738681
 21
8.853938744
  0
LINE
  5
520
100
AcDbEntity
  8
RACCORDO
100
AcDbLine
 62
253
  6
CONTINUOUS
 10
-67.5455738681
 20
8.853938744
 11
-67.4286572049
 21
8.8519006878
  0
LINE
  5
521
100
AcDbEntity
  8
RACCORDO
100
AcDbLine
 62
253
  6
CONTINUOUS
 10
-67.4286572049
 20
8.8519006878
 11
-67.3369267617
 21
8.8497620013
  0
LINE
  5
522
100
AcDbEntity
  8
RACCORDO
100
AcDbLine
 62
253
  6
CONTINUOUS
 10
-67.3369267617
 20
8.8497620013
 11
-67.2299949517
 21
8.8466883588
  0
LWPOLYLINE
  5
523
100
AcDbEntity
  8
RACCORDO
100
AcDbPolyline
 62
253
  6
CONTINUOUS
 90
22
 70
0
 10
1.6116189254
 20
8.750805385
 10
1.6490247792
 20
8.7493926166
 10
1.6862199147
 20
8.745185171
 10
1.7229958396
 20
8.7382068625
 10
1.7591454205
 20
8.7284973492
 10
1.7944671491
 20
8.7161111155
 10
1.8287660127
 20
8.701116408
 10
1.8618531629
 20
8.6835947435
 10
1.8935389595
 20
8.6636454657
 10
1.9236381784
 20
8.6413858454
 10
1.951977724
 20
8.6169468902
 10
1.978405881
 20
8.5904626142
 10
2.0027835497
 20
8.5620726961
 10
2.0249807193
 20
8.5319244373
 10
2.0448629929
 20
8.5001958614
 10
2.0623060792
 20
8.467088808
 10
2.0772193722
 20
8.4327839401
 10
2.089520101
 20
8.3974818128
 10
2.0991330512
 20
8.361430168
 10
2.1060177339
 20
8.3248504092
 10
2.1101566275
 20
8.2879323238
 10
2.1115427729
 20
8.2508815374
  0
LINE
  5
524
100
AcDbEntity
  8
RACCORDO
100
AcDbLine
 62
7
  6
CONTINUOUS
 10
5.6217605587
 20
-5.1333030007
 11
5.6358160005
 21
-5.1409162959
  0
LWPOLYLINE
  5
525
100
AcDbEntity
  8
RACCORDO
100
AcDbPolyline
 62
7
  6
CONTINUOUS
 90
3
 70
0
 10
5.6698239615
 20
-5.1594470441
 10
5.6985682858
 20
-5.1750982575
 10
5.7535463499
 20
-5.2053717239
  0
LINE
  5
526
100
AcDbEntity
  8
RACCORDO
100
AcDbLine
 62
7
  6
CONTINUOUS
 10
5.7535463499
 20
-5.2053717239
 11
5.818393991
 21
-5.2414594873
  0
LINE
  5
527
100
AcDbEntity
  8
RACCORDO
100
AcDbLine
 62
7
  6
CONTINUOUS
 10
5.818393991
 20
-5.2414594873
 11
5.8884014025
 21
-5.2808056811
  0
LWPOLYLINE
  5
528
100
AcDbEntity
  8
RACCORDO
100
AcDbPolyline
 62
7
  6
CONTINUOUS
 90
3
 70
0
 10
5.8884014025
 20
-5.2808056811
 10
5.912124116
 20
-5.294253158
 10
5.9357703091
 20
-5.3078962062
  0
LWPOLYLINE
  5
529
100
AcDbEntity
  8
RACCORDO
100
AcDbPolyline
 62
7
  6
CONTINUOUS
 90
6
 70
0
 10
5.6358160005
 20
-5.1409162959
 10
5.6376646916
 20
-5.1420465504
 10
5.6421317393
 20
-5.1444477158
 10
5.6490844269
 20
-5.1481197921
 10
5.6583695464
 20
-5.1531479627
 10
5.6698239615
 20
-5.1594470441
  0
LINE
  5
52A
100
AcDbEntity
  8
RACCORDO
100
AcDbLine
 62
253
  6
CONTINUOUS
 10
4.9065734
 20
-6.615112668
 11
5.0267503539
 21
-6.6896618524
  0
LINE
  5
52B
100
AcDbEntity
  8
RACCORDO
100
AcDbLine
 62
253
  6
CONTINUOUS
 10
8.0051101332
 20
-8.8003501556
 11
8.0764852556
 21
-8.871725278
  0
LINE
  5
52C
100
AcDbEntity
  8
RACCORDO
100
AcDbLine
 62
253
  6
CONTINUOUS
 10
7.3103872323
 20
-8.1056272547
 11
7.2390121099
 21
-8.0342521323
  0
LINE
  5
52D
100
AcDbEntity
  8
RACCORDO
100
AcDbLine
 62
253
  6
CONTINUOUS
 10
8.1671197151
 20
-8.6383405737
 11
8.2384948375
 21
-8.7097156961
  0
LINE
  5
52E
100
AcDbEntity
  8
RACCORDO
100
AcDbLine
 62
253
  6
CONTINUOUS
 10
7.4723968142
 20
-7.9436176728
 11
7.4010216918
 21
-7.8722425504
  0
LWPOLYLINE
  5
52F
100
AcDbEntity
  8
RACCORDO
100
AcDbPolyline
 62
7
  6
CONTINUOUS
 90
7
 70
0
 10
8.2955505566
 20
-8.1535247027
 10
8.290252228
 20
-8.1445711746
 10
8.2835515354
 20
-8.1367797877
 10
8.2754999941
 20
-8.1302078625
 10
8.2661466875
 20
-8.1249049965
 10
8.2555377856
 20
-8.1209133291
 10
8.2437161118
 20
-8.1182678032
  0
LWPOLYLINE
  5
530
100
AcDbEntity
  8
RACCORDO
100
AcDbPolyline
 62
7
  6
CONTINUOUS
 90
6
 70
0
 10
5.6358160005
 20
-94.7031006089
 10
5.6372573832
 20
-94.7015362698
 10
5.6406015805
 20
-94.6985441993
 10
5.6456806676
 20
-94.6941243973
 10
5.6523136066
 20
-94.688143122
 10
5.6603332246
 20
-94.6807341153
  0
LINE
  5
531
100
AcDbEntity
  8
RACCORDO
100
AcDbLine
 62
7
  6
CONTINUOUS
 10
5.9197103499
 20
-94.4395552585
 11
5.9357703091
 21
-94.4242124281
  0
LINE
  5
532
100
AcDbEntity
  8
RACCORDO
100
AcDbLine
 62
7
  6
CONTINUOUS
 10
5.7591000619
 20
-94.5900242797
 11
5.9197103499
 21
-94.4395552585
  0
LINE
  5
533
100
AcDbEntity
  8
RACCORDO
100
AcDbLine
 62
7
  6
CONTINUOUS
 10
5.6799820812
 20
-94.6628705955
 11
5.7591000619
 21
-94.5900242797
  0
LINE
  5
534
100
AcDbEntity
  8
RACCORDO
100
AcDbLine
 62
7
  6
CONTINUOUS
 10
5.6603332246
 20
-94.6807341153
 11
5.6799820812
 21
-94.6628705955
  0
LINE
  5
535
100
AcDbEntity
  8
RACCORDO
100
AcDbLine
 62
7
  6
CONTINUOUS
 10
5.6217605587
 20
-94.7158682152
 11
5.6358160005
 21
-94.7031006089
  0
LINE
  5
536
100
AcDbEntity
  8
RACCORDO
100
AcDbLine
 62
253
  6
CONTINUOUS
 10
-67.3250370761
 20
8.8400045876
 11
-67.2654191368
 21
8.8454388861
  0
LWPOLYLINE
  5
537
100
AcDbEntity
  8
RACCORDO
100
AcDbPolyline
 62
253
  6
CONTINUOUS
 90
27
 70
0
 10
1.7393881549
 20
8.8456768246
 10
1.7711872767
 20
8.8426287828
 10
1.8027687852
 20
8.8375483369
 10
1.8341313685
 20
8.8304142484
 10
1.8650110254
 20
8.8212647504
 10
1.8949059728
 20
8.8102797715
 10
1.9237034107
 20
8.7975748027
 10
1.951332162
 20
8.783256559
 10
1.9774206583
 20
8.7676290417
 10
2.001801217
 20
8.75096058
 10
2.0246076478
 20
8.7333298664
 10
2.0459558612
 20
8.7147849547
 10
2.0657867084
 20
8.6955086007
 10
2.0841602128
 20
8.675577838
 10
2.1013231504
 20
8.654811345
 10
2.1172754067
 20
8.6332452373
 10
2.1319593864
 20
8.6109955224
 10
2.1454666659
 20
8.5879385999
 10
2.157762594
 20
8.5641089595
 10
2.168787345
 20
8.5395951745
 10
2.1785475989
 20
8.514329424
 10
2.186958191
 20
8.4884596499
 10
2.1939967512
 20
8.4619693692
 10
2.1996816762
 20
8.4345245084
 10
2.2039098281
 20
8.4060541109
 10
2.2065303112
 20
8.3767702749
 10
2.2074257467
 20
8.3467645112
  0
LWPOLYLINE
  5
538
100
AcDbEntity
  8
RACCORDO
100
AcDbPolyline
 62
253
  6
CONTINUOUS
 90
22
 70
0
 10
2.4792585401
 20
8.5570190294
 10
2.4544557167
 20
8.5627453844
 10
2.4290687268
 20
8.5697276747
 10
2.4031840442
 20
8.5778006914
 10
2.3771188703
 20
8.5863855058
 10
2.3507284531
 20
8.5957945418
 10
2.3233666783
 20
8.607045214
 10
2.2951466034
 20
8.6195487721
 10
2.2660350111
 20
8.6333484235
 10
2.2349847904
 20
8.6499609464
 10
2.2012888683
 20
8.6692324166
 10
2.1653279311
 20
8.6901216116
 10
2.1272682318
 20
8.7124964047
 10
2.085949675
 20
8.7364332646
 10
2.0414349192
 20
8.76036428
 10
1.9956693755
 20
8.7822113486
 10
1.9485847905
 20
8.8016827348
 10
1.8996910004
 20
8.8183752409
 10
1.8508145373
 20
8.8311596737
 10
1.8027303021
 20
8.8399716501
 10
1.7549149743
 20
8.8451456701
 10
1.7075018993
 20
8.8466852759
  0
LINE
  5
539
100
AcDbEntity
  8
RACCORDO
100
AcDbLine
 62
7
  6
CONTINUOUS
 10
5.6217605587
 20
-2.0280996132
 11
5.6358160005
 21
-2.0408672195
  0
LWPOLYLINE
  5
53A
100
AcDbEntity
  8
RACCORDO
100
AcDbPolyline
 62
7
  6
CONTINUOUS
 90
7
 70
0
 10
5.6799820812
 20
-2.0810972329
 10
5.6603332246
 20
-2.0632337132
 10
5.6523136066
 20
-2.0558247064
 10
5.6456806676
 20
-2.0498434311
 10
5.6406015805
 20
-2.0454236292
 10
5.6372573832
 20
-2.0424315586
 10
5.6358160005
 20
-2.0408672195
  0
LINE
  5
53B
100
AcDbEntity
  8
RACCORDO
100
AcDbLine
 62
7
  6
CONTINUOUS
 10
5.7591000619
 20
-2.1539435487
 11
5.6799820812
 21
-2.0810972329
  0
LINE
  5
53C
100
AcDbEntity
  8
RACCORDO
100
AcDbLine
 62
7
  6
CONTINUOUS
 10
5.8056358711
 20
-2.1971852933
 11
5.7591000619
 21
-2.1539435487
  0
LWPOLYLINE
  5
53D
100
AcDbEntity
  8
RACCORDO
100
AcDbPolyline
 62
7
  6
CONTINUOUS
 90
3
 70
0
 10
5.9357703091
 20
-2.3197554003
 10
5.9197103499
 20
-2.30441257
 10
5.8056358711
 20
-2.1971852933
  0
LWPOLYLINE
  5
53E
100
AcDbEntity
  8
RACCORDO
100
AcDbPolyline
 62
253
  6
CONTINUOUS
 90
9
 70
0
 10
1.6116189254
 20
-105.4947732134
 10
1.6142569474
 20
-105.4921753951
 10
1.6173750168
 20
-105.4858697239
 10
1.620701807
 20
-105.4758837094
 10
1.623692341
 20
-105.4623251624
 10
1.6263467864
 20
-105.4453175084
 10
1.6291792735
 20
-105.4249310886
 10
1.6318536533
 20
-105.4013217437
 10
1.6364862635
 20
-105.3453115734
  0
LWPOLYLINE
  5
53F
100
AcDbEntity
  8
RACCORDO
100
AcDbPolyline
 62
253
  6
CONTINUOUS
 90
20
 70
0
 10
-68.0017516284
 20
8.5570127729
 10
-67.977018406
 20
8.5626972416
 10
-67.9516031211
 20
8.5696994913
 10
-67.925593342
 20
8.5778424105
 10
-67.899300928
 20
8.5865163489
 10
-67.872597025
 20
8.5960408426
 10
-67.8448652178
 20
8.6074732967
 10
-67.8161265212
 20
8.6202928684
 10
-67.7864460171
 20
8.6344320815
 10
-67.7550674917
 20
8.651221312
 10
-67.7214014402
 20
8.6704912713
 10
-67.6856538658
 20
8.6913000544
 10
-67.6478538644
 20
8.7135361506
 10
-67.6068566394
 20
8.737261864
 10
-67.5627223499
 20
8.7609595203
 10
-67.5172749436
 20
8.7826227568
 10
-67.4704103559
 20
8.8019559809
 10
-67.4217007533
 20
8.8185355963
 10
-67.3729848793
 20
8.8312407288
 10
-67.3250370761
 20
8.8400045876
  0
LWPOLYLINE
  5
540
100
AcDbEntity
  8
RACCORDO
100
AcDbPolyline
 62
253
  6
CONTINUOUS
 90
8
 70
0
 10
1.6116189254
 20
8.750805385
 10
1.61425692
 20
8.7482076213
 10
1.6173749533
 20
8.7419020875
 10
1.6207017066
 20
8.7319162808
 10
1.6236922106
 20
8.718358001
 10
1.6263466373
 20
8.7013506564
 10
1.629179117
 20
8.6809645568
 10
1.6318534886
 20
8.6573555204
  0
LWPOLYLINE
  5
541
100
AcDbEntity
  8
RACCORDO
100
AcDbPolyline
 62
253
  6
CONTINUOUS
 90
22
 70
0
 10
-128.4683407975
 20
-105.5906555035
 10
-128.4523253163
 20
-105.5890996909
 10
-128.4353721316
 20
-105.5839011601
 10
-128.4175586121
 20
-105.5750565873
 10
-128.3990581077
 20
-105.5622552488
 10
-128.3799143885
 20
-105.5455689135
 10
-128.3600545734
 20
-105.5261176605
 10
-128.3393622752
 20
-105.5043264886
 10
-128.3183876148
 20
-105.4804787756
 10
-128.2980030524
 20
-105.4566254841
 10
-128.2783476529
 20
-105.4342964028
 10
-128.2596861525
 20
-105.4134295572
 10
-128.2428449691
 20
-105.3941652714
 10
-128.2280489077
 20
-105.3775298574
 10
-128.2150806177
 20
-105.3636750543
 10
-128.2039222208
 20
-105.3511187179
 10
-128.19458879
 20
-105.3398339333
 10
-128.1870228359
 20
-105.3303975331
 10
-128.1811372725
 20
-105.3217905818
 10
-128.1769266835
 20
-105.3137012567
 10
-128.1744108736
 20
-105.3067111587
 10
-128.1735766122
 20
-105.3009871584
  0
LINE
  5
542
100
AcDbEntity
  8
RACCORDO
100
AcDbLine
 62
7
  6
CONTINUOUS
 10
-124.9735767631
 20
-105.5923103038
 11
-126.6735767631
 21
-105.6219839142
  0
LINE
  5
543
100
AcDbEntity
  8
RACCORDO
100
AcDbLine
 62
253
  6
CONTINUOUS
 10
-124.9735767631
 20
-105.0923864563
 11
-126.6735767631
 21
-105.1220600666
  0
LINE
  5
544
100
AcDbEntity
  8
RACCORDO
100
AcDbLine
 62
253
  6
CONTINUOUS
 10
-128.1735767631
 20
-105.1010225989
 11
-127.878812485
 21
-105.1010225989
  0
LINE
  5
545
100
AcDbEntity
  8
RACCORDO
100
AcDbLine
 62
253
  6
CONTINUOUS
 10
-128.4683410411
 20
-105.0907323396
 11
-128.1735767631
 21
-105.0907323396
  0
LINE
  5
546
100
AcDbEntity
  8
RACCORDO
100
AcDbLine
 62
253
  6
CONTINUOUS
 10
-133.9614729298
 20
-104.9948493659
 11
-134.4514868401
 21
-104.9948493659
  0
LINE
  5
547
100
AcDbEntity
  8
RACCORDO
100
AcDbLine
 62
7
  6
CONTINUOUS
 10
-126.6735767631
 20
-105.6219839142
 11
-135.1822887932
 21
-105.4734637933
  0
LINE
  5
548
100
AcDbEntity
  8
RACCORDO
100
AcDbLine
 62
253
  6
CONTINUOUS
 10
-134.4514868401
 20
-104.9948493659
 11
-135.6735767631
 21
-104.9735399457
  0
LINE
  5
549
100
AcDbEntity
  8
RACCORDO
100
AcDbLine
 62
253
  6
CONTINUOUS
 10
-126.6735767631
 20
-105.1220600666
 11
-127.878812485
 21
-105.1010225989
  0
LINE
  5
54A
100
AcDbEntity
  8
RACCORDO
100
AcDbLine
 62
253
  6
CONTINUOUS
 10
-128.4683410411
 20
-105.0907323396
 11
-133.9614729298
 21
-104.9948493659
  0
LWPOLYLINE
  5
54B
100
AcDbEntity
  8
RACCORDO
100
AcDbPolyline
 62
253
  6
CONTINUOUS
 90
19
 70
0
 10
-133.9614729298
 20
-105.4947732134
 10
-134.0043205713
 20
-105.4921753951
 10
-134.0469055044
 20
-105.4858697239
 10
-134.0888476508
 20
-105.4758837094
 10
-134.1297230309
 20
-105.4623251624
 10
-134.1692219968
 20
-105.4453175084
 10
-134.2071506297
 20
-105.4249310886
 10
-134.2432131822
 20
-105.4013217437
 10
-134.2770669929
 20
-105.3747319646
 10
-134.3084964372
 20
-105.3453115734
 10
-134.3373434092
 20
-105.3132081108
 10
-134.3633129678
 20
-105.2787627455
 10
-134.3861299158
 20
-105.2423321648
 10
-134.4058126824
 20
-105.2038938009
 10
-134.4221609941
 20
-105.1638102152
 10
-134.4348764424
 20
-105.1228569066
 10
-134.4439831727
 20
-105.0812211486
 10
-134.4495599671
 20
-105.0385918208
 10
-134.45148684
 20
-104.9948493659
  0
LINE
  5
54C
100
AcDbEntity
  8
DRAFT
100
AcDbLine
 62
7
  6
CONTINUOUS
 10
-124.9735767631
 20
-94.7423103038
 11
-126.6735767631
 21
-94.7719839142
  0
LINE
  5
54D
100
AcDbEntity
  8
DRAFT
100
AcDbLine
 62
7
  6
CONTINUOUS
 10
-126.6735767631
 20
-94.7719839142
 11
-128.978812485
 21
-94.731745875
  0
LINE
  5
54E
100
AcDbEntity
  8
RACCORDO
100
AcDbLine
 62
7
  6
CONTINUOUS
 10
-127.878812485
 20
-93.6197714226
 11
-128.978812485
 21
-93.6096912442
  0
LINE
  5
54F
100
AcDbEntity
  8
RACCORDO
100
AcDbLine
 62
7
  6
CONTINUOUS
 10
-128.1735767631
 20
-91.6077744193
 11
-128.978812485
 21
-91.6001735316
  0
LWPOLYLINE
  5
550
100
AcDbEntity
  8
RACCORDO
100
AcDbPolyline
 62
7
  6
CONTINUOUS
 90
19
 70
0
 10
-128.978812485
 20
-91.6001735316
 10
-129.0072290872
 20
-91.5990459803
 10
-129.0350138718
 20
-91.5966498771
 10
-129.0619372497
 20
-91.5929852219
 10
-129.0877840472
 20
-91.5879671276
 10
-129.1123762095
 20
-91.5816804814
 10
-129.1355703373
 20
-91.574379944
 10
-129.1572219723
 20
-91.5660584779
 10
-129.177211002
 20
-91.5567231208
 10
-129.1954561159
 20
-91.5466496461
 10
-129.2118732151
 20
-91.5358376302
 10
-129.2263991146
 20
-91.5242874969
 10
-129.2390029941
 20
-91.512276291
 10
-129.2496520707
 20
-91.4998078928
 10
-129.2583309738
 20
-91.4868784222
 10
-129.2650474702
 20
-91.4737532831
 10
-129.269811686
 20
-91.4605209436
 10
-129.2726429402
 20
-91.4470929356
 10
-129.2735767631
 20
-91.4334692592
  0
LWPOLYLINE
  5
551
100
AcDbEntity
  8
RACCORDO
100
AcDbPolyline
 62
7
  6
CONTINUOUS
 90
19
 70
0
 10
-127.878812485
 20
-93.6197714226
 10
-127.9023384928
 20
-93.6186166592
 10
-127.92579246
 20
-93.6149945639
 10
-127.9491743868
 20
-93.6089051368
 10
-127.9727584956
 20
-93.6003206528
 10
-127.996270564
 20
-93.5892688369
 10
-128.0188879242
 20
-93.5758328642
 10
-128.0405232292
 20
-93.559927453
 10
-128.0612638261
 20
-93.541637885
 10
-128.0805490887
 20
-93.52130318
 10
-128.0982910289
 20
-93.4990293433
 10
-128.1145776348
 20
-93.4747103696
 10
-128.1291122447
 20
-93.4483672637
 10
-128.1419944123
 20
-93.4197575445
 10
-128.1531245839
 20
-93.3891236929
 10
-128.1619074371
 20
-93.3572141566
 10
-128.1681445309
 20
-93.3242784181
 10
-128.1720343062
 20
-93.2900669948
 10
-128.1735767631
 20
-93.2545798867
  0
LINE
  5
552
100
AcDbEntity
  8
0
100
AcDbLine
 62
7
  6
CONTINUOUS
 10
-121.9735767631
 20
-89.8719839142
 11
-124.4735767631
 21
-89.8719839142
  0
LINE
  5
553
100
AcDbEntity
  8
0
100
AcDbLine
 62
7
  6
CONTINUOUS
 10
-121.9735767631
 20
-89.5719839142
 11
-124.4735767631
 21
-89.5719839142
  0
LINE
  5
554
100
AcDbEntity
  8
0
100
AcDbLine
 62
7
  6
CONTINUOUS
 10
-124.4735767631
 20
-89.5719839142
 11
-124.9735767631
 21
-89.5719839142
  0
LINE
  5
555
100
AcDbEntity
  8
0
100
AcDbLine
 62
7
  6
CONTINUOUS
 10
-121.9735767631
 20
-87.1719839142
 11
-124.4735767631
 21
-87.1719839142
  0
LINE
  5
556
100
AcDbEntity
  8
0
100
AcDbLine
 62
7
  6
CONTINUOUS
 10
-124.4735767631
 20
-87.1719839142
 11
-124.9735767631
 21
-87.1719839142
  0
LINE
  5
557
100
AcDbEntity
  8
0
100
AcDbLine
 62
7
  6
CONTINUOUS
 10
-121.9735767631
 20
-86.8719839142
 11
-124.4735767631
 21
-86.8719839142
  0
LINE
  5
558
100
AcDbEntity
  8
0
100
AcDbLine
 62
7
  6
CONTINUOUS
 10
-124.9735767631
 20
-86.6719839142
 11
-123.8235777655
 21
-86.6719839142
  0
LWPOLYLINE
  5
559
100
AcDbEntity
  8
RACCORDO
100
AcDbPolyline
 62
7
  6
CONTINUOUS
 90
19
 70
0
 10
-128.978812485
 20
-85.1437942969
 10
-129.0072290872
 20
-85.1449218481
 10
-129.0350138718
 20
-85.1473179513
 10
-129.0619372497
 20
-85.1509826066
 10
-129.0877840472
 20
-85.1560007008
 10
-129.1123762095
 20
-85.1622873471
 10
-129.1355703373
 20
-85.1695878844
 10
-129.1572219723
 20
-85.1779093505
 10
-129.177211002
 20
-85.1872447077
 10
-129.1954561159
 20
-85.1973181823
 10
-129.2118732151
 20
-85.2081301982
 10
-129.2263991146
 20
-85.2196803315
 10
-129.2390029941
 20
-85.2316915374
 10
-129.2496520707
 20
-85.2441599356
 10
-129.2583309738
 20
-85.2570894062
 10
-129.2650474702
 20
-85.2702145454
 10
-129.269811686
 20
-85.2834468849
 10
-129.2726429402
 20
-85.2968748928
 10
-129.2735767631
 20
-85.3104985692
  0
LWPOLYLINE
  5
55A
100
AcDbEntity
  8
RACCORDO
100
AcDbPolyline
 62
7
  6
CONTINUOUS
 90
19
 70
0
 10
-128.978812485
 20
-83.1342765842
 10
-129.0070078135
 20
-83.1353526984
 10
-129.0346046984
 20
-83.1376471455
 10
-129.0613771641
 20
-83.1411599255
 10
-129.0871123679
 20
-83.145971542
 10
-129.1116320881
 20
-83.1520014913
 10
-129.1347905853
 20
-83.1590082629
 10
-129.1564408883
 20
-83.1669999868
 10
-129.1764596354
 20
-83.175968533
 10
-129.194760679
 20
-83.1856480004
 10
-129.2112547414
 20
-83.1960395718
 10
-129.2258729102
 20
-83.2071420646
 10
-129.2385779625
 20
-83.2186860298
 10
-129.2493306315
 20
-83.2306680815
 10
-129.2581088269
 20
-83.2430916057
 10
-129.2649134996
 20
-83.2556973122
 10
-129.2697482471
 20
-83.2683987708
 10
-129.2726261419
 20
-83.2812824116
 10
-129.2735767631
 20
-83.2943482347
  0
LINE
  5
55B
100
AcDbEntity
  8
RACCORDO
100
AcDbLine
 62
7
  6
CONTINUOUS
 10
-128.1735767631
 20
-85.1361934091
 11
-128.978812485
 21
-85.1437942969
  0
LINE
  5
55C
100
AcDbEntity
  8
RACCORDO
100
AcDbLine
 62
7
  6
CONTINUOUS
 10
-128.978812485
 20
-83.1342765842
 11
-127.878812485
 21
-83.1241964058
  0
LINE
  5
55D
100
AcDbEntity
  8
0
100
AcDbLine
 62
7
  6
CONTINUOUS
 10
-123.8235777215
 20
-82.6719839142
 11
-124.9735767631
 21
-82.6719839142
  0
LINE
  5
55E
100
AcDbEntity
  8
DRAFT
100
AcDbLine
 62
7
  6
CONTINUOUS
 10
-126.6735767631
 20
-81.9719839142
 11
-128.978812485
 21
-82.0122219534
  0
LINE
  5
55F
100
AcDbEntity
  8
DRAFT
100
AcDbLine
 62
7
  6
CONTINUOUS
 10
-124.9735767631
 20
-82.0016575246
 11
-126.6735767631
 21
-81.9719839142
  0
LWPOLYLINE
  5
560
100
AcDbEntity
  8
RACCORDO
100
AcDbPolyline
 62
253
  6
CONTINUOUS
 90
9
 70
0
 10
-133.9614729298
 20
8.750805385
 10
-133.9621011915
 20
8.7493926166
 10
-133.9626769937
 20
8.745185171
 10
-133.9631971131
 20
8.7382068625
 10
-133.9636586262
 20
8.7284973492
 10
-133.9640589667
 20
8.7161111155
 10
-133.964395922
 20
8.701116408
 10
-133.9646676186
 20
8.6835947435
 10
-133.965009321
 20
8.6413858454
  0
LWPOLYLINE
  5
561
100
AcDbEntity
  8
RACCORDO
100
AcDbPolyline
 62
253
  6
CONTINUOUS
 90
8
 70
0
 10
-133.9614729298
 20
-105.4947732134
 10
-133.9621011915
 20
-105.493360445
 10
-133.9626769937
 20
-105.4891529994
 10
-133.9631971131
 20
-105.4821746907
 10
-133.9636586262
 20
-105.4724651773
 10
-133.9640589667
 20
-105.4600789434
 10
-133.964395922
 20
-105.4450842357
 10
-133.9646676186
 20
-105.4275625709
  0
LWPOLYLINE
  5
562
100
AcDbEntity
  8
RACCORDO
100
AcDbPolyline
 62
253
  6
CONTINUOUS
 90
6
 70
0
 10
-127.878812485
 20
-105.6009464464
 10
-127.8791869862
 20
-105.5995421133
 10
-127.8795324914
 20
-105.5953505184
 10
-127.8798457858
 20
-105.5883951315
 10
-127.8801230902
 20
-105.5787148861
 10
-127.8803627015
 20
-105.5663639145
  0
LWPOLYLINE
  5
563
100
AcDbEntity
  8
RACCORDO
100
AcDbPolyline
 62
7
  6
CONTINUOUS
 90
19
 70
0
 10
-129.2735767631
 20
-93.4496195937
 10
-129.2726261419
 20
-93.4626854168
 10
-129.2697482471
 20
-93.4755690576
 10
-129.2649134996
 20
-93.4882705162
 10
-129.2581088269
 20
-93.5008762227
 10
-129.2493306315
 20
-93.5132997469
 10
-129.2385779625
 20
-93.5252817986
 10
-129.2258729102
 20
-93.5368257639
 10
-129.2112547414
 20
-93.5479282566
 10
-129.194760679
 20
-93.558319828
 10
-129.1764596354
 20
-93.5679992954
 10
-129.1564408883
 20
-93.5769678416
 10
-129.1347905853
 20
-93.5849595655
 10
-129.1116320881
 20
-93.5919663371
 10
-129.0871123679
 20
-93.5979962864
 10
-129.0613771641
 20
-93.6028079029
 10
-129.0346046984
 20
-93.6063206829
 10
-129.0070078135
 20
-93.60861513
 10
-128.978812485
 20
-93.6096912442
  0
LINE
  5
564
100
AcDbEntity
  8
RACCORDO
100
AcDbLine
 62
253
  6
CONTINUOUS
 10
-133.96364744
 20
8.3974818128
 11
-133.9614729298
 21
8.2508815374
  0
LINE
  5
565
100
AcDbEntity
  8
RACCORDO
100
AcDbLine
 62
253
  6
CONTINUOUS
 10
-133.9646608276
 20
8.5001958614
 11
-133.96364744
 21
8.3974818128
  0
LINE
  5
566
100
AcDbEntity
  8
RACCORDO
100
AcDbLine
 62
253
  6
CONTINUOUS
 10
-133.9646676186
 20
-105.4275625709
 11
-133.965009321
 21
-105.3853536722
  0
LINE
  5
567
100
AcDbEntity
  8
RACCORDO
100
AcDbLine
 62
253
  6
CONTINUOUS
 10
-133.9650764265
 20
8.5904626142
 11
-133.9646608276
 21
8.5001958614
  0
LINE
  5
568
100
AcDbEntity
  8
ASSI
100
AcDbLine
 62
7
  6
CONTINUOUS
 10
-135.6735767631
 20
8.2295718948
 11
-135.6735767631
 21
-104.9735397232
  0
LINE
  5
569
100
AcDbEntity
  8
RACCORDO
100
AcDbLine
 62
253
  6
CONTINUOUS
 10
-134.4514868401
 20
-104.9948493659
 11
-134.4514868401
 21
8.2508815374
  0
LINE
  5
56A
100
AcDbEntity
  8
RACCORDO
100
AcDbLine
 62
253
  6
CONTINUOUS
 10
-133.965009321
 20
-105.3853536722
 11
-133.9650764265
 21
-105.3344304407
  0
LINE
  5
56B
100
AcDbEntity
  8
RACCORDO
100
AcDbLine
 62
253
  6
CONTINUOUS
 10
-133.9614729298
 20
-104.9948493659
 11
-133.9614729298
 21
8.2508815374
  0
LINE
  5
56C
100
AcDbEntity
  8
RACCORDO
100
AcDbLine
 62
253
  6
CONTINUOUS
 10
-133.965009321
 20
8.6413858454
 11
-133.9650764265
 21
8.5904626142
  0
LINE
  5
56D
100
AcDbEntity
  8
RACCORDO
100
AcDbLine
 62
253
  6
CONTINUOUS
 10
-133.9650764265
 20
-105.3344304407
 11
-133.9646608276
 21
-105.2441636864
  0
LINE
  5
56E
100
AcDbEntity
  8
RACCORDO
100
AcDbLine
 62
253
  6
CONTINUOUS
 10
-133.9646608276
 20
-105.2441636864
 11
-133.9636474399
 21
-105.1414496379
  0
LINE
  5
56F
100
AcDbEntity
  8
RACCORDO
100
AcDbLine
 62
253
  6
CONTINUOUS
 10
-133.9636474399
 20
-105.1414496379
 11
-133.9614729299
 21
-104.9948493658
  0
LINE
  5
570
100
AcDbEntity
  8
DRAFT
100
AcDbLine
 62
7
  6
CONTINUOUS
 10
-124.9735767631
 20
-52.1394389791
 11
-125.9735767631
 21
-52.1219839142
  0
LINE
  5
571
100
AcDbEntity
  8
RACCORDO
100
AcDbLine
 62
253
  6
CONTINUOUS
 10
-127.8803627015
 20
-105.5663639145
 11
-127.8807285372
 21
-105.533940484
  0
LINE
  5
572
100
AcDbEntity
  8
RACCORDO
100
AcDbLine
 62
253
  6
CONTINUOUS
 10
-128.4683410411
 20
-105.0907323396
 11
-128.4667580044
 21
-105.2786603911
  0
LINE
  5
573
100
AcDbEntity
  8
RACCORDO
100
AcDbLine
 62
253
  6
CONTINUOUS
 10
-128.4667580044
 20
-105.2786603911
 11
-128.4661965252
 21
-105.4146907991
  0
LINE
  5
574
100
AcDbEntity
  8
RACCORDO
100
AcDbLine
 62
7
  6
CONTINUOUS
 10
-129.2735767631
 20
-14.4317224434
 11
-129.2735767631
 21
-2.3143227013
  0
LINE
  5
575
100
AcDbEntity
  8
RACCORDO
100
AcDbLine
 62
7
  6
CONTINUOUS
 10
-129.2735767631
 20
-82.3143227013
 11
-129.2735767631
 21
-94.432101119
  0
LINE
  5
576
100
AcDbEntity
  8
RACCORDO
100
AcDbLine
 62
253
  6
CONTINUOUS
 10
-128.978812485
 20
-14.731745875
 11
-128.978812485
 21
-2.0122219534
  0
LINE
  5
577
100
AcDbEntity
  8
RACCORDO
100
AcDbLine
 62
253
  6
CONTINUOUS
 10
-128.978812485
 20
-82.0122219534
 11
-128.978812485
 21
-94.731745875
  0
LINE
  5
578
100
AcDbEntity
  8
RACCORDO
100
AcDbLine
 62
253
  6
CONTINUOUS
 10
-128.4683410411
 20
8.3467645112
 11
-128.4683410411
 21
-2.0033116412
  0
LINE
  5
579
100
AcDbEntity
  8
RACCORDO
100
AcDbLine
 62
253
  6
CONTINUOUS
 10
-128.4683410411
 20
-14.7406561872
 11
-128.4683410411
 21
-82.0033116412
  0
LINE
  5
57A
100
AcDbEntity
  8
RACCORDO
100
AcDbLine
 62
253
  6
CONTINUOUS
 10
-128.4683410411
 20
-94.7406561872
 11
-128.4683410411
 21
-105.0907323396
  0
LINE
  5
57B
100
AcDbEntity
  8
RACCORDO
100
AcDbLine
 62
253
  6
CONTINUOUS
 10
-128.4662617672
 20
8.75096058
 11
-128.466189712
 21
8.675577838
  0
LINE
  5
57C
100
AcDbEntity
  8
RACCORDO
100
AcDbLine
 62
253
  6
CONTINUOUS
 10
-128.4661965252
 20
-105.4146907991
 11
-128.4662239106
 21
-105.4827644257
  0
LINE
  5
57D
100
AcDbEntity
  8
RACCORDO
100
AcDbLine
 62
253
  6
CONTINUOUS
 10
-128.466189712
 20
8.675577838
 11
-128.4667276877
 21
8.5395951745
  0
LINE
  5
57E
100
AcDbEntity
  8
RACCORDO
100
AcDbLine
 62
253
  6
CONTINUOUS
 10
-128.4667276877
 20
8.5395951745
 11
-128.4683410411
 21
8.3467645112
  0
LWPOLYLINE
  5
57F
100
AcDbEntity
  8
RACCORDO
100
AcDbPolyline
 62
253
  6
CONTINUOUS
 90
7
 70
0
 10
-127.8807285372
 20
8.7899726555
 10
-127.8803627015
 20
8.8223960861
 10
-127.8801230902
 20
8.8347470576
 10
-127.8798457858
 20
8.8444273031
 10
-127.8795324914
 20
8.85138269
 10
-127.8791869862
 20
8.8555742849
 10
-127.878812485
 20
8.856978618
  0
LWPOLYLINE
  5
580
100
AcDbEntity
  8
RACCORDO
100
AcDbPolyline
 62
7
  6
CONTINUOUS
 90
19
 70
0
 10
-128.1735767631
 20
-3.4893879417
 10
-128.1720343062
 20
-3.4539008336
 10
-128.1681445309
 20
-3.4196894103
 10
-128.1619074371
 20
-3.3867536718
 10
-128.1531245839
 20
-3.3548441355
 10
-128.1419944123
 20
-3.3242102839
 10
-128.1291122447
 20
-3.2956005647
 10
-128.1145776348
 20
-3.2692574588
 10
-128.0982910289
 20
-3.2449384851
 10
-128.0805490887
 20
-3.2226646484
 10
-128.0612638261
 20
-3.2023299435
 10
-128.0405232292
 20
-3.1840403754
 10
-128.0188879242
 20
-3.1681349642
 10
-127.996270564
 20
-3.1546989915
 10
-127.9727584956
 20
-3.1436471756
 10
-127.9491743868
 20
-3.1350626916
 10
-127.92579246
 20
-3.1289732645
 10
-127.9023384928
 20
-3.1253511692
 10
-127.878812485
 20
-3.1241964058
  0
LWPOLYLINE
  5
581
100
AcDbEntity
  8
RACCORDO
100
AcDbPolyline
 62
7
  6
CONTINUOUS
 90
19
 70
0
 10
-129.2735767631
 20
-13.4496195937
 10
-129.2726261419
 20
-13.4626854168
 10
-129.2697482471
 20
-13.4755690576
 10
-129.2649134996
 20
-13.4882705162
 10
-129.2581088269
 20
-13.5008762227
 10
-129.2493306315
 20
-13.5132997469
 10
-129.2385779625
 20
-13.5252817986
 10
-129.2258729102
 20
-13.5368257639
 10
-129.2112547414
 20
-13.5479282566
 10
-129.194760679
 20
-13.558319828
 10
-129.1764596354
 20
-13.5679992954
 10
-129.1564408883
 20
-13.5769678416
 10
-129.1347905853
 20
-13.5849595655
 10
-129.1116320881
 20
-13.5919663371
 10
-129.0871123679
 20
-13.5979962864
 10
-129.0613771641
 20
-13.6028079029
 10
-129.0346046984
 20
-13.6063206829
 10
-129.0070078135
 20
-13.60861513
 10
-128.978812485
 20
-13.6096912442
  0
LINE
  5
582
100
AcDbEntity
  8
RACCORDO
100
AcDbLine
 62
253
  6
CONTINUOUS
 10
-128.4667614438
 20
8.8102797715
 11
-128.4664567759
 21
8.783256559
  0
LINE
  5
583
100
AcDbEntity
  8
RACCORDO
100
AcDbLine
 62
253
  6
CONTINUOUS
 10
-127.878812485
 20
8.3570547704
 11
-127.8805647043
 21
8.5739461064
  0
LINE
  5
584
100
AcDbEntity
  8
RACCORDO
100
AcDbLine
 62
253
  6
CONTINUOUS
 10
-128.4664567759
 20
8.783256559
 11
-128.4662617672
 21
8.75096058
  0
LINE
  5
585
100
AcDbEntity
  8
RACCORDO
100
AcDbLine
 62
253
  6
CONTINUOUS
 10
-127.8807285372
 20
-105.533940484
 11
-127.8809337153
 21
-105.4918489793
  0
LINE
  5
586
100
AcDbEntity
  8
RACCORDO
100
AcDbLine
 62
253
  6
CONTINUOUS
 10
-127.8805647043
 20
8.5739461064
 11
-127.8809752748
 21
8.6970616289
  0
LINE
  5
587
100
AcDbEntity
  8
RACCORDO
100
AcDbLine
 62
7
  6
CONTINUOUS
 10
-128.1735767631
 20
-105.3009921379
 11
-128.1735767631
 21
-94.7458013168
  0
LINE
  5
588
100
AcDbEntity
  8
RACCORDO
100
AcDbLine
 62
7
  6
CONTINUOUS
 10
-128.1735767631
 20
-93.2545798867
 11
-128.1735767631
 21
-83.4893879417
  0
LINE
  5
589
100
AcDbEntity
  8
RACCORDO
100
AcDbLine
 62
7
  6
CONTINUOUS
 10
-128.1735767631
 20
-81.9981665116
 11
-128.1735767631
 21
-14.7458013168
  0
LINE
  5
58A
100
AcDbEntity
  8
RACCORDO
100
AcDbLine
 62
7
  6
CONTINUOUS
 10
-128.1735767631
 20
-13.2545798867
 11
-128.1735767631
 21
-3.4893879417
  0
LINE
  5
58B
100
AcDbEntity
  8
RACCORDO
100
AcDbLine
 62
7
  6
CONTINUOUS
 10
-128.1735767631
 20
-1.9981665116
 11
-128.1735767631
 21
8.5570243095
  0
LINE
  5
58C
100
AcDbEntity
  8
RACCORDO
100
AcDbLine
 62
253
  6
CONTINUOUS
 10
-127.878812485
 20
-105.1010225989
 11
-127.878812485
 21
-94.7509117561
  0
LINE
  5
58D
100
AcDbEntity
  8
RACCORDO
100
AcDbLine
 62
253
  6
CONTINUOUS
 10
-127.878812485
 20
-93.6197714226
 11
-127.878812485
 21
-83.1241964058
  0
LINE
  5
58E
100
AcDbEntity
  8
RACCORDO
100
AcDbLine
 62
253
  6
CONTINUOUS
 10
-127.878812485
 20
-81.9930560723
 11
-127.878812485
 21
-14.7509117561
  0
LINE
  5
58F
100
AcDbEntity
  8
RACCORDO
100
AcDbLine
 62
253
  6
CONTINUOUS
 10
-127.878812485
 20
-13.6197714226
 11
-127.878812485
 21
-3.1241964058
  0
LINE
  5
590
100
AcDbEntity
  8
RACCORDO
100
AcDbLine
 62
253
  6
CONTINUOUS
 10
-127.878812485
 20
-1.9930560723
 11
-127.878812485
 21
8.3570547704
  0
LINE
  5
591
100
AcDbEntity
  8
DRAFT
100
AcDbLine
 62
7
  6
CONTINUOUS
 10
-126.6735767631
 20
-94.7719839142
 11
-126.6735767631
 21
-1.9719839142
  0
LINE
  5
592
100
AcDbEntity
  8
RACCORDO
100
AcDbLine
 62
7
  6
CONTINUOUS
 10
-126.6735767631
 20
-1.9719839142
 11
-126.6735767631
 21
8.8780160858
  0
LINE
  5
593
100
AcDbEntity
  8
RACCORDO
100
AcDbLine
 62
7
  6
CONTINUOUS
 10
-126.6735767631
 20
-94.7719839142
 11
-126.6735767631
 21
-105.6219839142
  0
LINE
  5
594
100
AcDbEntity
  8
DRAFT
100
AcDbLine
 62
7
  6
CONTINUOUS
 10
-125.9735767631
 20
-44.6219839142
 11
-125.9735767631
 21
-52.1219839142
  0
LINE
  5
595
100
AcDbEntity
  8
RACCORDO
100
AcDbLine
 62
7
  6
CONTINUOUS
 10
-124.9735767631
 20
8.8483424754
 11
-124.9735767631
 21
-2.0017266363
  0
LINE
  5
596
100
AcDbEntity
  8
DRAFT
100
AcDbLine
 62
7
  6
CONTINUOUS
 10
-124.9735767631
 20
-44.6045288493
 11
-124.9735767631
 21
-2.0016698998
  0
LINE
  5
597
100
AcDbEntity
  8
DRAFT
100
AcDbLine
 62
7
  6
CONTINUOUS
 10
-124.9735767631
 20
-52.1394389791
 11
-124.9735767631
 21
-94.7422979286
  0
LINE
  5
598
100
AcDbEntity
  8
RACCORDO
100
AcDbLine
 62
7
  6
CONTINUOUS
 10
-124.9735767631
 20
-94.7422411922
 11
-124.9735767631
 21
-105.5923103038
  0
LINE
  5
599
100
AcDbEntity
  8
0
100
AcDbLine
 62
7
  6
CONTINUOUS
 10
-124.4735767631
 20
-9.8705813631
 11
-124.4735767631
 21
-6.8733864654
  0
LINE
  5
59A
100
AcDbEntity
  8
0
100
AcDbLine
 62
7
  6
CONTINUOUS
 10
-124.4735767631
 20
-86.8733864654
 11
-124.4735767631
 21
-89.8705813631
  0
LINE
  5
59B
100
AcDbEntity
  8
RACCORDO
100
AcDbLine
 62
253
  6
CONTINUOUS
 10
-127.8809337153
 20
-105.4918489793
 11
-127.8809336247
 21
-105.4126942781
  0
LWPOLYLINE
  5
59C
100
AcDbEntity
  8
RACCORDO
100
AcDbPolyline
 62
253
  6
CONTINUOUS
 90
3
 70
0
 10
-127.8809752748
 20
8.6970616289
 10
-127.8808513586
 20
8.7700815003
 10
-127.8807285372
 20
8.7899726555
  0
LINE
  5
59D
100
AcDbEntity
  8
RACCORDO
100
AcDbLine
 62
253
  6
CONTINUOUS
 10
-128.4662239106
 20
-105.4827644257
 11
-128.4664029745
 21
-105.5204858142
  0
LINE
  5
59E
100
AcDbEntity
  8
RACCORDO
100
AcDbLine
 62
253
  6
CONTINUOUS
 10
-127.8809336247
 20
-105.4126942781
 11
-127.8801228905
 21
-105.2483665755
  0
LINE
  5
59F
100
AcDbEntity
  8
RACCORDO
100
AcDbLine
 62
253
  6
CONTINUOUS
 10
-127.8801228905
 20
-105.2483665755
 11
-127.878812485
 21
-105.1010225989
  0
LWPOLYLINE
  5
5A0
100
AcDbEntity
  8
RACCORDO
100
AcDbPolyline
 62
253
  6
CONTINUOUS
 90
8
 70
0
 10
-128.4664029745
 20
-105.5204858142
 10
-128.4667102667
 20
-105.550804321
 10
-128.4669106815
 20
-105.5628713349
 10
-128.4671431658
 20
-105.5728189931
 10
-128.4674011621
 20
-105.5806012937
 10
-128.4676838595
 20
-105.5861831686
 10
-128.4679961658
 20
-105.5895398326
 10
-128.468340429
 20
-105.5906561979
  0
LWPOLYLINE
  5
5A1
100
AcDbEntity
  8
RACCORDO
100
AcDbPolyline
 62
7
  6
CONTINUOUS
 90
19
 70
0
 10
-128.1735767631
 20
-83.4893879417
 10
-128.1720343062
 20
-83.4539008336
 10
-128.1681445309
 20
-83.4196894103
 10
-128.1619074371
 20
-83.3867536718
 10
-128.1531245839
 20
-83.3548441355
 10
-128.1419944123
 20
-83.3242102839
 10
-128.1291122447
 20
-83.2956005647
 10
-128.1145776348
 20
-83.2692574588
 10
-128.0982910289
 20
-83.2449384851
 10
-128.0805490887
 20
-83.2226646484
 10
-128.0612638261
 20
-83.2023299435
 10
-128.0405232292
 20
-83.1840403754
 10
-128.0188879242
 20
-83.1681349642
 10
-127.996270564
 20
-83.1546989915
 10
-127.9727584956
 20
-83.1436471756
 10
-127.9491743868
 20
-83.1350626916
 10
-127.92579246
 20
-83.1289732645
 10
-127.9023384928
 20
-83.1253511692
 10
-127.878812485
 20
-83.1241964058
  0
LINE
  5
5A2
100
AcDbEntity
  8
DRAFT
100
AcDbLine
 62
7
  6
CONTINUOUS
 10
-124.9735767631
 20
-44.6045288493
 11
-125.9735767631
 21
-44.6219839142
  0
LINE
  5
5A3
100
AcDbEntity
  8
0
100
AcDbLine
 62
7
  6
CONTINUOUS
 10
-123.8235767631
 20
-0.6719839142
 11
-123.8235767631
 21
-4.6719839142
  0
LINE
  5
5A4
100
AcDbEntity
  8
0
100
AcDbLine
 62
7
  6
CONTINUOUS
 10
-123.8235767631
 20
-82.6719839142
 11
-123.8235767631
 21
-86.6719839142
  0
LINE
  5
5A5
100
AcDbEntity
  8
0
100
AcDbLine
 62
7
  6
CONTINUOUS
 10
-121.9735767631
 20
-9.8705813631
 11
-121.9735767631
 21
-6.8733864654
  0
LINE
  5
5A6
100
AcDbEntity
  8
0
100
AcDbLine
 62
7
  6
CONTINUOUS
 10
-121.9735767631
 20
-86.8733864654
 11
-121.9735767631
 21
-89.8705813631
  0
LWPOLYLINE
  5
5A7
100
AcDbEntity
  8
RACCORDO
100
AcDbPolyline
 62
253
  6
CONTINUOUS
 90
22
 70
0
 10
-128.1735767137
 20
8.5570190294
 10
-128.1744095514
 20
8.5627453844
 10
-128.1769200076
 20
8.5697276747
 10
-128.1811198594
 20
8.5778006914
 10
-128.1869871753
 20
8.5863855058
 10
-128.1945266079
 20
8.5957945418
 10
-128.2038278325
 20
8.607045214
 10
-128.2149458381
 20
8.6195487721
 10
-128.2278691832
 20
8.6333484235
 10
-128.2426332846
 20
8.6499609464
 10
-128.2594717858
 20
8.6692324166
 10
-128.2781593344
 20
8.6901216116
 10
-128.2978609145
 20
8.7124964047
 10
-128.3183191953
 20
8.7364332646
 10
-128.3393928074
 20
8.76036428
 10
-128.3601536643
 20
8.7822113486
 10
-128.3800251512
 20
8.8016827348
 10
-128.3991424353
 20
8.8183752409
 10
-128.4176146663
 20
8.8311596737
 10
-128.4354111014
 20
8.8399716501
 10
-128.4523452487
 20
8.8451456701
 10
-128.4683409873
 20
8.8466852759
  0
LWPOLYLINE
  5
5A8
100
AcDbEntity
  8
RACCORDO
100
AcDbPolyline
 62
253
  6
CONTINUOUS
 90
7
 70
0
 10
-128.4683410411
 20
8.8466883588
 10
-128.4680125822
 20
8.8456768246
 10
-128.4677129911
 20
8.8426287828
 10
-128.4674400619
 20
8.8375483369
 10
-128.4671895346
 20
8.8304142484
 10
-128.4669613349
 20
8.8212647504
 10
-128.4667614438
 20
8.8102797715
  0
LINE
  5
5A9
100
AcDbEntity
  8
DRAFT
100
AcDbLine
 62
7
  6
CONTINUOUS
 10
-124.9735767631
 20
-14.7423103038
 11
-126.6735767631
 21
-14.7719839142
  0
LINE
  5
5AA
100
AcDbEntity
  8
RACCORDO
100
AcDbLine
 62
7
  6
CONTINUOUS
 10
-127.878812485
 20
-13.6197714226
 11
-128.978812485
 21
-13.6096912442
  0
LINE
  5
5AB
100
AcDbEntity
  8
DRAFT
100
AcDbLine
 62
7
  6
CONTINUOUS
 10
-126.6735767631
 20
-14.7719839142
 11
-128.978812485
 21
-14.731745875
  0
LWPOLYLINE
  5
5AC
100
AcDbEntity
  8
RACCORDO
100
AcDbPolyline
 62
7
  6
CONTINUOUS
 90
19
 70
0
 10
-127.878812485
 20
-13.6197714226
 10
-127.9023384928
 20
-13.6186166592
 10
-127.92579246
 20
-13.6149945639
 10
-127.9491743868
 20
-13.6089051368
 10
-127.9727584956
 20
-13.6003206528
 10
-127.996270564
 20
-13.5892688369
 10
-128.0188879242
 20
-13.5758328642
 10
-128.0405232292
 20
-13.559927453
 10
-128.0612638261
 20
-13.541637885
 10
-128.0805490887
 20
-13.52130318
 10
-128.0982910289
 20
-13.4990293433
 10
-128.1145776348
 20
-13.4747103696
 10
-128.1291122447
 20
-13.4483672637
 10
-128.1419944123
 20
-13.4197575445
 10
-128.1531245839
 20
-13.3891236929
 10
-128.1619074371
 20
-13.3572141566
 10
-128.1681445309
 20
-13.3242784181
 10
-128.1720343062
 20
-13.2900669948
 10
-128.1735767631
 20
-13.2545798867
  0
LINE
  5
5AD
100
AcDbEntity
  8
0
100
AcDbLine
 62
7
  6
CONTINUOUS
 10
-121.9735767631
 20
-9.8719839142
 11
-124.4735767631
 21
-9.8719839142
  0
LINE
  5
5AE
100
AcDbEntity
  8
0
100
AcDbLine
 62
7
  6
CONTINUOUS
 10
-121.9735767631
 20
-9.5719839142
 11
-124.4735767631
 21
-9.5719839142
  0
LINE
  5
5AF
100
AcDbEntity
  8
0
100
AcDbLine
 62
7
  6
CONTINUOUS
 10
-124.4735767631
 20
-9.5719839142
 11
-124.9735767631
 21
-9.5719839142
  0
LINE
  5
5B0
100
AcDbEntity
  8
RACCORDO
100
AcDbLine
 62
7
  6
CONTINUOUS
 10
-128.1735767631
 20
-11.6077744193
 11
-128.978812485
 21
-11.6001735316
  0
LWPOLYLINE
  5
5B1
100
AcDbEntity
  8
RACCORDO
100
AcDbPolyline
 62
7
  6
CONTINUOUS
 90
19
 70
0
 10
-128.978812485
 20
-11.6001735316
 10
-129.0072290872
 20
-11.5990459803
 10
-129.0350138718
 20
-11.5966498771
 10
-129.0619372497
 20
-11.5929852219
 10
-129.0877840472
 20
-11.5879671276
 10
-129.1123762095
 20
-11.5816804814
 10
-129.1355703373
 20
-11.574379944
 10
-129.1572219723
 20
-11.5660584779
 10
-129.177211002
 20
-11.5567231208
 10
-129.1954561159
 20
-11.5466496461
 10
-129.2118732151
 20
-11.5358376302
 10
-129.2263991146
 20
-11.5242874969
 10
-129.2390029941
 20
-11.512276291
 10
-129.2496520707
 20
-11.4998078928
 10
-129.2583309738
 20
-11.4868784222
 10
-129.2650474702
 20
-11.4737532831
 10
-129.269811686
 20
-11.4605209436
 10
-129.2726429402
 20
-11.4470929356
 10
-129.2735767631
 20
-11.4334692592
  0
LINE
  5
5B2
100
AcDbEntity
  8
0
100
AcDbLine
 62
7
  6
CONTINUOUS
 10
-121.9735767631
 20
-7.1719839142
 11
-124.4735767631
 21
-7.1719839142
  0
LINE
  5
5B3
100
AcDbEntity
  8
0
100
AcDbLine
 62
7
  6
CONTINUOUS
 10
-124.4735767631
 20
-7.1719839142
 11
-124.9735767631
 21
-7.1719839142
  0
LINE
  5
5B4
100
AcDbEntity
  8
0
100
AcDbLine
 62
7
  6
CONTINUOUS
 10
-121.9735767631
 20
-6.8719839142
 11
-124.4735767631
 21
-6.8719839142
  0
LWPOLYLINE
  5
5B5
100
AcDbEntity
  8
RACCORDO
100
AcDbPolyline
 62
7
  6
CONTINUOUS
 90
19
 70
0
 10
-128.978812485
 20
-5.1437942969
 10
-129.0072290872
 20
-5.1449218481
 10
-129.0350138718
 20
-5.1473179513
 10
-129.0619372497
 20
-5.1509826066
 10
-129.0877840472
 20
-5.1560007008
 10
-129.1123762095
 20
-5.1622873471
 10
-129.1355703373
 20
-5.1695878844
 10
-129.1572219723
 20
-5.1779093505
 10
-129.177211002
 20
-5.1872447077
 10
-129.1954561159
 20
-5.1973181823
 10
-129.2118732151
 20
-5.2081301982
 10
-129.2263991146
 20
-5.2196803315
 10
-129.2390029941
 20
-5.2316915374
 10
-129.2496520707
 20
-5.2441599356
 10
-129.2583309738
 20
-5.2570894062
 10
-129.2650474702
 20
-5.2702145454
 10
-129.269811686
 20
-5.2834468849
 10
-129.2726429402
 20
-5.2968748928
 10
-129.2735767631
 20
-5.3104985692
  0
LWPOLYLINE
  5
5B6
100
AcDbEntity
  8
RACCORDO
100
AcDbPolyline
 62
7
  6
CONTINUOUS
 90
19
 70
0
 10
-128.978812485
 20
-3.1342765842
 10
-129.0070078135
 20
-3.1353526984
 10
-129.0346046984
 20
-3.1376471455
 10
-129.0613771641
 20
-3.1411599255
 10
-129.0871123679
 20
-3.145971542
 10
-129.1116320881
 20
-3.1520014913
 10
-129.1347905853
 20
-3.1590082629
 10
-129.1564408883
 20
-3.1669999868
 10
-129.1764596354
 20
-3.175968533
 10
-129.194760679
 20
-3.1856480004
 10
-129.2112547414
 20
-3.1960395718
 10
-129.2258729102
 20
-3.2071420646
 10
-129.2385779625
 20
-3.2186860298
 10
-129.2493306315
 20
-3.2306680815
 10
-129.2581088269
 20
-3.2430916057
 10
-129.2649134996
 20
-3.2556973122
 10
-129.2697482471
 20
-3.2683987708
 10
-129.2726261419
 20
-3.2812824116
 10
-129.2735767631
 20
-3.2943482347
  0
LINE
  5
5B7
100
AcDbEntity
  8
DRAFT
100
AcDbLine
 62
7
  6
CONTINUOUS
 10
-126.6735767631
 20
-1.9719839142
 11
-128.978812485
 21
-2.0122219534
  0
LINE
  5
5B8
100
AcDbEntity
  8
RACCORDO
100
AcDbLine
 62
7
  6
CONTINUOUS
 10
-128.1735767631
 20
-5.1361934091
 11
-128.978812485
 21
-5.1437942969
  0
LINE
  5
5B9
100
AcDbEntity
  8
RACCORDO
100
AcDbLine
 62
7
  6
CONTINUOUS
 10
-128.978812485
 20
-3.1342765842
 11
-127.878812485
 21
-3.1241964058
  0
LINE
  5
5BA
100
AcDbEntity
  8
0
100
AcDbLine
 62
7
  6
CONTINUOUS
 10
-124.9735767631
 20
-4.6719839142
 11
-123.8235777215
 21
-4.6719839142
  0
LINE
  5
5BB
100
AcDbEntity
  8
DRAFT
100
AcDbLine
 62
7
  6
CONTINUOUS
 10
-124.9735767631
 20
-2.0016575246
 11
-126.6735767631
 21
-1.9719839142
  0
LINE
  5
5BC
100
AcDbEntity
  8
0
100
AcDbLine
 62
7
  6
CONTINUOUS
 10
-123.8235777215
 20
-0.6719839142
 11
-124.9735767631
 21
-0.6719839142
  0
LWPOLYLINE
  5
5BD
100
AcDbEntity
  8
RACCORDO
100
AcDbPolyline
 62
253
  6
CONTINUOUS
 90
19
 70
0
 10
-133.9614729298
 20
8.750805385
 10
-134.0043200461
 20
8.7482076213
 10
-134.0469045068
 20
8.7419020875
 10
-134.0888462446
 20
8.7319162808
 10
-134.1297212778
 20
8.718358001
 10
-134.1692199752
 20
8.7013506564
 10
-134.2071484485
 20
8.6809645568
 10
-134.2432109475
 20
8.6573555204
 10
-134.2770647982
 20
8.6307660198
 10
-134.3084943792
 20
8.6013458445
 10
-134.3373415698
 20
8.5692425158
 10
-134.3633114004
 20
8.5347971963
 10
-134.3861286523
 20
8.4983665604
 10
-134.4058117397
 20
8.4599280247
 10
-134.422160357
 20
8.4198441663
 10
-134.4348760631
 20
8.3788905146
 10
-134.4439829912
 20
8.3372543498
 10
-134.449559917
 20
8.2946245429
 10
-134.45148684
 20
8.2508815374
  0
LINE
  5
5BE
100
AcDbEntity
  8
RACCORDO
100
AcDbLine
 62
253
  6
CONTINUOUS
 10
-133.9614729298
 20
8.2508815374
 11
-128.4683410411
 21
8.3467645112
  0
LINE
  5
5BF
100
AcDbEntity
  8
RACCORDO
100
AcDbLine
 62
253
  6
CONTINUOUS
 10
-127.878812485
 20
8.3570547704
 11
-126.6735767631
 21
8.3780922382
  0
LINE
  5
5C0
100
AcDbEntity
  8
RACCORDO
100
AcDbLine
 62
253
  6
CONTINUOUS
 10
-135.6735767631
 20
8.2295721173
 11
-134.4514868401
 21
8.2508815374
  0
LINE
  5
5C1
100
AcDbEntity
  8
RACCORDO
100
AcDbLine
 62
7
  6
CONTINUOUS
 10
-126.6735767631
 20
8.8780160858
 11
-135.1822887932
 21
8.7294959648
  0
LINE
  5
5C2
100
AcDbEntity
  8
RACCORDO
100
AcDbLine
 62
253
  6
CONTINUOUS
 10
-134.4514868401
 20
8.2508815374
 11
-133.9614729298
 21
8.2508815374
  0
LINE
  5
5C3
100
AcDbEntity
  8
RACCORDO
100
AcDbLine
 62
253
  6
CONTINUOUS
 10
-128.4683410411
 20
8.3467645112
 11
-128.1735767631
 21
8.3467645112
  0
LINE
  5
5C4
100
AcDbEntity
  8
RACCORDO
100
AcDbLine
 62
253
  6
CONTINUOUS
 10
-128.1735767631
 20
8.3570547704
 11
-127.878812485
 21
8.3570547709
  0
LINE
  5
5C5
100
AcDbEntity
  8
RACCORDO
100
AcDbLine
 62
253
  6
CONTINUOUS
 10
-126.6735767631
 20
8.3780922382
 11
-124.9735767631
 21
8.3484186278
  0
LINE
  5
5C6
100
AcDbEntity
  8
RACCORDO
100
AcDbLine
 62
7
  6
CONTINUOUS
 10
-126.6735767631
 20
8.8780160858
 11
-124.9735767631
 21
8.8483424754
  0
ARC
  5
5C7
100
AcDbEntity
  8
DRAFT
100
AcDbCircle
 62
7
  6
CONTINUOUS
 10
6.2387534737
 20
-88.3719839142
 40
6.4
100
AcDbArc
 50
270.0
 51
90.0
  0
ARC
  5
5C8
100
AcDbEntity
  8
RACCORDO
100
AcDbCircle
 62
253
  6
CONTINUOUS
 10
6.2387534737
 20
-88.3719839142
 40
6.3789625322
100
AcDbArc
 50
304.6469277515
 51
55.3530722485
  0
ARC
  5
5C9
100
AcDbEntity
  8
RACCORDO
100
AcDbCircle
 62
7
  6
CONTINUOUS
 10
6.2387534737
 20
-88.3719839142
 40
6.3738174026
100
AcDbArc
 50
264.4450034812
 51
267.1133065269
  0
ARC
  5
5CA
100
AcDbEntity
  8
RACCORDO
100
AcDbCircle
 62
7
  6
CONTINUOUS
 10
6.2387534737
 20
-88.3719839142
 40
6.3738174026
100
AcDbArc
 50
92.8866934731
 51
95.5549965188
  0
ARC
  5
5CB
100
AcDbEntity
  8
RACCORDO
100
AcDbCircle
 62
253
  6
CONTINUOUS
 10
6.2387534737
 20
-88.3719839142
 40
6.3597619608
100
AcDbArc
 50
264.5599013439
 51
304.5562511077
  0
ARC
  5
5CC
100
AcDbEntity
  8
RACCORDO
100
AcDbCircle
 62
253
  6
CONTINUOUS
 10
6.2387534737
 20
-88.3719839142
 40
6.3597619608
100
AcDbArc
 50
55.4437488923
 51
95.4400986561
  0
ARC
  5
5CD
100
AcDbEntity
  8
RACCORDO
100
AcDbCircle
 62
253
  6
CONTINUOUS
 10
6.2387534737
 20
-88.3719839142
 40
6.0790082237
100
AcDbArc
 50
306.5642279968
 51
53.4357720032
  0
ARC
  5
5CE
100
AcDbEntity
  8
RACCORDO
100
AcDbCircle
 62
253
  6
CONTINUOUS
 10
6.2387534737
 20
-88.3719839142
 40
6.0598076523
100
AcDbArc
 50
56.9211527794
 51
92.8659156509
  0
ARC
  5
5CF
100
AcDbEntity
  8
RACCORDO
100
AcDbCircle
 62
253
  6
CONTINUOUS
 10
6.2387534737
 20
-88.3719839142
 40
6.0598076523
100
AcDbArc
 50
267.1340843491
 51
303.0788472206
  0
ARC
  5
5D0
100
AcDbEntity
  8
DRAFT
100
AcDbCircle
 62
7
  6
CONTINUOUS
 10
6.2387534737
 20
-8.3719839142
 40
6.4
100
AcDbArc
 50
270.0
 51
90.0
  0
ARC
  5
5D1
100
AcDbEntity
  8
RACCORDO
100
AcDbCircle
 62
253
  6
CONTINUOUS
 10
6.2387534737
 20
-8.3719839142
 40
6.3789625322
100
AcDbArc
 50
304.6469277515
 51
55.3530722485
  0
ARC
  5
5D2
100
AcDbEntity
  8
RACCORDO
100
AcDbCircle
 62
7
  6
CONTINUOUS
 10
6.2387534737
 20
-8.3719839142
 40
6.3738174026
100
AcDbArc
 50
92.8866934731
 51
95.5549965188
  0
ARC
  5
5D3
100
AcDbEntity
  8
RACCORDO
100
AcDbCircle
 62
7
  6
CONTINUOUS
 10
6.2387534737
 20
-8.3719839142
 40
6.3738174026
100
AcDbArc
 50
264.4450034812
 51
267.1133065269
  0
ARC
  5
5D4
100
AcDbEntity
  8
RACCORDO
100
AcDbCircle
 62
253
  6
CONTINUOUS
 10
6.2387534737
 20
-8.3719839142
 40
6.3597619608
100
AcDbArc
 50
264.5599013439
 51
304.5562511077
  0
ARC
  5
5D5
100
AcDbEntity
  8
RACCORDO
100
AcDbCircle
 62
253
  6
CONTINUOUS
 10
6.2387534737
 20
-8.3719839142
 40
6.3597619608
100
AcDbArc
 50
55.4437488923
 51
95.4400986561
  0
ARC
  5
5D6
100
AcDbEntity
  8
RACCORDO
100
AcDbCircle
 62
253
  6
CONTINUOUS
 10
6.2387534737
 20
-8.3719839142
 40
6.0790082237
100
AcDbArc
 50
306.5642279968
 51
53.4357720032
  0
ARC
  5
5D7
100
AcDbEntity
  8
RACCORDO
100
AcDbCircle
 62
253
  6
CONTINUOUS
 10
6.2387534737
 20
-8.3719839142
 40
6.0598076523
100
AcDbArc
 50
56.9211527794
 51
92.8659156509
  0
ARC
  5
5D8
100
AcDbEntity
  8
RACCORDO
100
AcDbCircle
 62
253
  6
CONTINUOUS
 10
6.2387534737
 20
-8.3719839142
 40
6.0598076523
100
AcDbArc
 50
267.1340843491
 51
303.0788472206
  0
ARC
  5
5D9
100
AcDbEntity
  8
RACCORDO
100
AcDbCircle
 62
7
  6
CONTINUOUS
 10
7.7387534737
 20
-88.3719839142
 40
3.8692005714
100
AcDbArc
 50
215.3838875966
 51
236.8290008805
  0
ARC
  5
5DA
100
AcDbEntity
  8
RACCORDO
100
AcDbCircle
 62
7
  6
CONTINUOUS
 10
7.7387534737
 20
-88.3719839142
 40
3.8692005714
100
AcDbArc
 50
123.1709991195
 51
144.616112193
  0
ARC
  5
5DB
100
AcDbEntity
  8
DRAFT
100
AcDbCircle
 62
7
  6
CONTINUOUS
 10
7.7387534737
 20
-88.3719839142
 40
3.8692005714
100
AcDbArc
 50
303.2491456541
 51
56.7508543459
  0
ARC
  5
5DC
100
AcDbEntity
  8
RACCORDO
100
AcDbCircle
 62
253
  6
CONTINUOUS
 10
7.7387534737
 20
-88.3719839142
 40
3.8551451296
100
AcDbArc
 50
218.7777819415
 51
236.9419451979
  0
ARC
  5
5DD
100
AcDbEntity
  8
RACCORDO
100
AcDbCircle
 62
253
  6
CONTINUOUS
 10
7.7387534737
 20
-88.3719839142
 40
3.8551451296
100
AcDbArc
 50
123.0580548021
 51
141.2222180585
  0
ARC
  5
5DE
100
AcDbEntity
  8
RACCORDO
100
AcDbCircle
 62
253
  6
CONTINUOUS
 10
7.7387534737
 20
-88.3719839142
 40
3.8551451296
100
AcDbArc
 50
303.1363854035
 51
56.8636145965
  0
ARC
  5
5DF
100
AcDbEntity
  8
RACCORDO
100
AcDbCircle
 62
253
  6
CONTINUOUS
 10
7.7387534737
 20
-88.3719839142
 40
3.5551908211
100
AcDbArc
 50
120.4735826823
 51
142.8097126409
  0
ARC
  5
5E0
100
AcDbEntity
  8
RACCORDO
100
AcDbCircle
 62
253
  6
CONTINUOUS
 10
7.7387534737
 20
-88.3719839142
 40
3.5551908211
100
AcDbArc
 50
300.5561802598
 51
59.4438197402
  0
ARC
  5
5E1
100
AcDbEntity
  8
RACCORDO
100
AcDbCircle
 62
253
  6
CONTINUOUS
 10
7.7387534737
 20
-88.3719839142
 40
3.5551908211
100
AcDbArc
 50
217.1902879828
 51
239.5264173177
  0
ARC
  5
5E2
100
AcDbEntity
  8
RACCORDO
100
AcDbCircle
 62
253
  6
CONTINUOUS
 10
7.7387534737
 20
-88.3719839142
 40
3.3328427125
100
AcDbArc
 50
211.812349017
 51
148.187650983
  0
ARC
  5
5E3
100
AcDbEntity
  8
RACCORDO
100
AcDbCircle
 62
253
  6
CONTINUOUS
 10
7.7387534737
 20
-88.3719839142
 40
3.1914213562
100
AcDbArc
 50
211.8124497719
 51
148.1876306632
  0
CIRCLE
  5
5E4
100
AcDbEntity
  8
0
100
AcDbCircle
 62
7
  6
CONTINUOUS
 10
7.7387534737
 20
-88.3719839142
 40
2.8
  0
ARC
  5
5E5
100
AcDbEntity
  8
RACCORDO
100
AcDbCircle
 62
253
  6
CONTINUOUS
 10
7.7387534737
 20
-88.3719839142
 40
1.5507477288
100
AcDbArc
 50
85.2896348736
 51
94.7103652049
  0
ARC
  5
5E6
100
AcDbEntity
  8
RACCORDO
100
AcDbCircle
 62
253
  6
CONTINUOUS
 10
7.7387534737
 20
-88.3719839142
 40
1.5507477288
100
AcDbArc
 50
175.2896348736
 51
184.7103652049
  0
ARC
  5
5E7
100
AcDbEntity
  8
RACCORDO
100
AcDbCircle
 62
253
  6
CONTINUOUS
 10
7.7387534737
 20
-88.3719839142
 40
1.5507477288
100
AcDbArc
 50
265.2896349873
 51
274.710365103
  0
ARC
  5
5E8
100
AcDbEntity
  8
RACCORDO
100
AcDbCircle
 62
253
  6
CONTINUOUS
 10
7.7387534737
 20
-88.3719839142
 40
1.5507477288
100
AcDbArc
 50
355.2896349873
 51
4.710365103
  0
ARC
  5
5E9
100
AcDbEntity
  8
RACCORDO
100
AcDbCircle
 62
253
  6
CONTINUOUS
 10
7.7387534737
 20
-88.3719839142
 40
1.5074464586
100
AcDbArc
 50
355.2896350024
 51
4.7103652124
  0
ARC
  5
5EA
100
AcDbEntity
  8
RACCORDO
100
AcDbCircle
 62
253
  6
CONTINUOUS
 10
7.7387534737
 20
-88.3719839142
 40
1.5074464586
100
AcDbArc
 50
85.2896348497
 51
94.7103653245
  0
ARC
  5
5EB
100
AcDbEntity
  8
RACCORDO
100
AcDbCircle
 62
253
  6
CONTINUOUS
 10
7.7387534737
 20
-88.3719839142
 40
1.5074464586
100
AcDbArc
 50
175.2896348503
 51
184.7103653259
  0
ARC
  5
5EC
100
AcDbEntity
  8
RACCORDO
100
AcDbCircle
 62
253
  6
CONTINUOUS
 10
7.7387534737
 20
-88.3719839142
 40
1.5074464586
100
AcDbArc
 50
265.2896350024
 51
274.7103652093
  0
ARC
  5
5ED
100
AcDbEntity
  8
RACCORDO
100
AcDbCircle
 62
7
  6
CONTINUOUS
 10
7.7387534737
 20
-88.3719839142
 40
0.5981197846
100
AcDbArc
 50
338.5774177782
 51
21.4225815303
  0
ARC
  5
5EE
100
AcDbEntity
  8
RACCORDO
100
AcDbCircle
 62
7
  6
CONTINUOUS
 10
7.7387534737
 20
-88.3719839142
 40
0.5981197846
100
AcDbArc
 50
68.5774169549
 51
111.4225824591
  0
ARC
  5
5EF
100
AcDbEntity
  8
RACCORDO
100
AcDbCircle
 62
7
  6
CONTINUOUS
 10
7.7387534737
 20
-88.3719839142
 40
0.5981197846
100
AcDbArc
 50
158.5774169549
 51
201.4225824591
  0
ARC
  5
5F0
100
AcDbEntity
  8
RACCORDO
100
AcDbCircle
 62
7
  6
CONTINUOUS
 10
7.7387534737
 20
-88.3719839142
 40
0.5981197846
100
AcDbArc
 50
248.5774177782
 51
291.4225815303
  0
ARC
  5
5F1
100
AcDbEntity
  8
RACCORDO
100
AcDbCircle
 62
7
  6
CONTINUOUS
 10
7.7387534737
 20
-8.3719839142
 40
3.8692005714
100
AcDbArc
 50
215.3838876555
 51
236.8290008805
  0
ARC
  5
5F2
100
AcDbEntity
  8
RACCORDO
100
AcDbCircle
 62
7
  6
CONTINUOUS
 10
7.7387534737
 20
-8.3719839142
 40
3.8692005714
100
AcDbArc
 50
123.1709991195
 51
144.6161122279
  0
ARC
  5
5F3
100
AcDbEntity
  8
DRAFT
100
AcDbCircle
 62
7
  6
CONTINUOUS
 10
7.7387534737
 20
-8.3719839142
 40
3.8692005714
100
AcDbArc
 50
303.2491456541
 51
56.7508543459
  0
ARC
  5
5F4
100
AcDbEntity
  8
RACCORDO
100
AcDbCircle
 62
253
  6
CONTINUOUS
 10
7.7387534737
 20
-8.3719839142
 40
3.8551451296
100
AcDbArc
 50
218.7777819415
 51
236.9419451979
  0
ARC
  5
5F5
100
AcDbEntity
  8
RACCORDO
100
AcDbCircle
 62
253
  6
CONTINUOUS
 10
7.7387534737
 20
-8.3719839142
 40
3.8551451296
100
AcDbArc
 50
123.0580548021
 51
141.2222180585
  0
ARC
  5
5F6
100
AcDbEntity
  8
RACCORDO
100
AcDbCircle
 62
253
  6
CONTINUOUS
 10
7.7387534737
 20
-8.3719839142
 40
3.8551451296
100
AcDbArc
 50
303.1363854035
 51
56.8636145965
  0
ARC
  5
5F7
100
AcDbEntity
  8
RACCORDO
100
AcDbCircle
 62
253
  6
CONTINUOUS
 10
7.7387534737
 20
-8.3719839142
 40
3.5551908211
100
AcDbArc
 50
120.4735826823
 51
142.8097126409
  0
ARC
  5
5F8
100
AcDbEntity
  8
RACCORDO
100
AcDbCircle
 62
253
  6
CONTINUOUS
 10
7.7387534737
 20
-8.3719839142
 40
3.5551908211
100
AcDbArc
 50
300.5561802598
 51
59.4438197402
  0
ARC
  5
5F9
100
AcDbEntity
  8
RACCORDO
100
AcDbCircle
 62
253
  6
CONTINUOUS
 10
7.7387534737
 20
-8.3719839142
 40
3.5551908211
100
AcDbArc
 50
217.1902879828
 51
239.5264173177
  0
ARC
  5
5FA
100
AcDbEntity
  8
RACCORDO
100
AcDbCircle
 62
253
  6
CONTINUOUS
 10
7.7387534737
 20
-8.3719839142
 40
3.3328427125
100
AcDbArc
 50
211.812349017
 51
148.187650983
  0
ARC
  5
5FB
100
AcDbEntity
  8
RACCORDO
100
AcDbCircle
 62
253
  6
CONTINUOUS
 10
7.7387534737
 20
-8.3719839142
 40
3.1914213562
100
AcDbArc
 50
211.8124744551
 51
148.1876568095
  0
CIRCLE
  5
5FC
100
AcDbEntity
  8
0
100
AcDbCircle
 62
7
  6
CONTINUOUS
 10
7.7387534737
 20
-8.3719839142
 40
2.8
  0
ARC
  5
5FD
100
AcDbEntity
  8
RACCORDO
100
AcDbCircle
 62
253
  6
CONTINUOUS
 10
7.7387534737
 20
-8.3719839142
 40
1.5507477288
100
AcDbArc
 50
85.2896348736
 51
94.7103652049
  0
ARC
  5
5FE
100
AcDbEntity
  8
RACCORDO
100
AcDbCircle
 62
253
  6
CONTINUOUS
 10
7.7387534737
 20
-8.3719839142
 40
1.5507477288
100
AcDbArc
 50
175.2896348736
 51
184.7103652049
  0
ARC
  5
5FF
100
AcDbEntity
  8
RACCORDO
100
AcDbCircle
 62
253
  6
CONTINUOUS
 10
7.7387534737
 20
-8.3719839142
 40
1.5507477288
100
AcDbArc
 50
265.2896349873
 51
274.710365103
  0
ARC
  5
600
100
AcDbEntity
  8
RACCORDO
100
AcDbCircle
 62
253
  6
CONTINUOUS
 10
7.7387534737
 20
-8.3719839142
 40
1.5507477288
100
AcDbArc
 50
355.2896349873
 51
4.710365103
  0
ARC
  5
601
100
AcDbEntity
  8
RACCORDO
100
AcDbCircle
 62
253
  6
CONTINUOUS
 10
7.7387534737
 20
-8.3719839142
 40
1.5074464586
100
AcDbArc
 50
355.2896350024
 51
4.7103652124
  0
ARC
  5
602
100
AcDbEntity
  8
RACCORDO
100
AcDbCircle
 62
253
  6
CONTINUOUS
 10
7.7387534737
 20
-8.3719839142
 40
1.5074464586
100
AcDbArc
 50
85.2896348497
 51
94.7103653245
  0
ARC
  5
603
100
AcDbEntity
  8
RACCORDO
100
AcDbCircle
 62
253
  6
CONTINUOUS
 10
7.7387534737
 20
-8.3719839142
 40
1.5074464586
100
AcDbArc
 50
175.2896348503
 51
184.7103653259
  0
ARC
  5
604
100
AcDbEntity
  8
RACCORDO
100
AcDbCircle
 62
253
  6
CONTINUOUS
 10
7.7387534737
 20
-8.3719839142
 40
1.5074464586
100
AcDbArc
 50
265.2896350024
 51
274.7103652093
  0
ARC
  5
605
100
AcDbEntity
  8
RACCORDO
100
AcDbCircle
 62
7
  6
CONTINUOUS
 10
7.7387534737
 20
-8.3719839142
 40
0.5981197846
100
AcDbArc
 50
338.5774177782
 51
21.4225815303
  0
ARC
  5
606
100
AcDbEntity
  8
RACCORDO
100
AcDbCircle
 62
7
  6
CONTINUOUS
 10
7.7387534737
 20
-8.3719839142
 40
0.5981197846
100
AcDbArc
 50
68.5774169549
 51
111.4225824591
  0
ARC
  5
607
100
AcDbEntity
  8
RACCORDO
100
AcDbCircle
 62
7
  6
CONTINUOUS
 10
7.7387534737
 20
-8.3719839142
 40
0.5981197846
100
AcDbArc
 50
158.5774169549
 51
201.4225824591
  0
ARC
  5
608
100
AcDbEntity
  8
RACCORDO
100
AcDbCircle
 62
7
  6
CONTINUOUS
 10
7.7387534737
 20
-8.3719839142
 40
0.5981197846
100
AcDbArc
 50
248.5774177782
 51
291.4225815303
  0
ARC
  5
609
100
AcDbEntity
  8
RACCORDO
100
AcDbCircle
 62
7
  6
CONTINUOUS
 10
-135.1735753365
 20
8.2295718948
 40
0.5
100
AcDbArc
 50
91.0
 51
179.9999999943
  0
ARC
  5
60A
100
AcDbEntity
  8
RACCORDO
100
AcDbCircle
 62
7
  6
CONTINUOUS
 10
-135.1735753365
 20
-104.9735397232
 40
0.5
100
AcDbArc
 50
180.0000000057
 51
269.0
  0
ARC
  5
60B
100
AcDbEntity
  8
RACCORDO
100
AcDbCircle
 62
7
  6
CONTINUOUS
 10
-128.9735767631
 20
-82.312176262
 40
0.3
100
AcDbArc
 50
91.0
 51
180.0
  0
ARC
  5
60C
100
AcDbEntity
  8
RACCORDO
100
AcDbCircle
 62
7
  6
CONTINUOUS
 10
-128.9735767631
 20
-94.4317915665
 40
0.3
100
AcDbArc
 50
180.0
 51
269.0
  0
ARC
  5
60D
100
AcDbEntity
  8
RACCORDO
100
AcDbCircle
 62
7
  6
CONTINUOUS
 10
-128.9735767631
 20
-2.312176262
 40
0.3
100
AcDbArc
 50
91.0
 51
180.0
  0
ARC
  5
60E
100
AcDbEntity
  8
RACCORDO
100
AcDbCircle
 62
7
  6
CONTINUOUS
 10
-128.9735767631
 20
-14.4317915665
 40
0.3
100
AcDbArc
 50
180.0
 51
269.0
  0
ARC
  5
60F
100
AcDbEntity
  8
RACCORDO
100
AcDbCircle
 62
7
  6
CONTINUOUS
 10
-127.8735767631
 20
-105.3009883471
 40
0.3
100
AcDbArc
 50
180.0007239881
 51
269.000012634
  0
ARC
  5
610
100
AcDbEntity
  8
RACCORDO
100
AcDbCircle
 62
7
  6
CONTINUOUS
 10
-127.8735767631
 20
8.5570243095
 40
0.3
100
AcDbArc
 50
91.0
 51
180.0
  0
ENDSEC
  0
SECTION
  2
OBJECTS
  0
DICTIONARY
  5
C
100
AcDbDictionary
280
0
281
1
  3
ACAD_GROUP
350
D
  3
ACAD_MLINESTYLE
350
17
  3
ACAD_LAYOUT
350
1A
  3
ACAD_PLOTSETTINGS
350
19
  3
ACAD_PLOTSTYLENAME
350
E
  0
DICTIONARY
  5
D
102
{ACAD_REACTORS
330
C
102
}
100
AcDbDictionary
280
0
281
1
  0
ACDBDICTIONARYWDFLT
  5
E
102
{ACAD_REACTORS
330
C
102
}
100
AcDbDictionary
281
1
  3
Normal
350
F
100
AcDbDictionaryWithDefault
340
F
  0
DICTIONARY
  5
17
102
{ACAD_REACTORS
330
C
102
}
100
AcDbDictionary
280
0
281
1
  3
Standard
350
18
  0
DICTIONARY
  5
19
102
{ACAD_REACTORS
330
C
102
}
100
AcDbDictionary
281
1
  0
DICTIONARY
  5
1A
102
{ACAD_REACTORS
330
C
102
}
100
AcDbDictionary
281
1
  3
Model
350
611
  3
Layout1
350
612
  0
ACDBPLACEHOLDER
  5
F
102
{ACAD_REACTORS
330
E
102
}
  0
MLINESTYLE
  5
18
102
{ACAD_REACTORS
330
17
102
}
100
AcDbMlineStyle
  2
STANDARD
 70
0
  3

 62
256
 51
90.0
 52
90.0
 71
2
 49
0.5
 62
256
  6
BYLAYER
 49
-0.5
 62
256
  6
BYLAYER
  0
LAYOUT
  5
611
102
{ACAD_REACTORS
330
1A
102
}
100
AcDbPlotSettings
  1

  2
none_device
  4
ISO_A4_(297.00_x_210.00_MM)
  6

 40
0.0
 41
0.0
 42
0.0
 43
0.0
 44
297.0
 45
210.0
 46
0.0
 47
0.0
 48
0.0
 49
0.0
140
0.0
141
0.0
142
1.0
143
1.0
 70
1024
 72
1
 73
0
 74
0
  7

 75
0
147
1.0
148
0.0
149
0.0
100
AcDbLayout
  1
Model
 70
0
 71
0
 10
0.0
 20
0.0
 11
297.0
 21
210.0
 12
0.0
 22
0.0
 32
0.0
 14
0.0
 24
0.0
 34
0.0
 15
0.0
 25
0.0
 35
0.0
146
0.0
 13
0.0
 23
0.0
 33
0.0
 16
1.0
 26
0.0
 36
0.0
 17
0.0
 27
1.0
 37
0.0
 76
0
330
20F
345
0
346
0
  0
LAYOUT
  5
612
102
{ACAD_REACTORS
330
1A
102
}
100
AcDbPlotSettings
  1

  2
none_device
  4
ISO_A4_(297.00_x_210.00_MM)
  6

 40
0.0
 41
0.0
 42
0.0
 43
0.0
 44
297.0
 45
210.0
 46
0.0
 47
0.0
 48
0.0
 49
0.0
140
0.0
141
0.0
142
1.0
143
1.0
 70
0
 72
1
 73
0
 74
0
  7

 75
0
147
1.0
148
0.0
149
0.0
100
AcDbLayout
  1
Layout1
 70
0
 71
1
 10
0.0
 20
0.0
 11
297.0
 21
210.0
 12
0.0
 22
0.0
 32
0.0
 14
0.0
 24
0.0
 34
0.0
 15
0.0
 25
0.0
 35
0.0
146
0.0
 13
0.0
 23
0.0
 33
0.0
 16
1.0
 26
0.0
 36
0.0
 17
0.0
 27
1.0
 37
0.0
 76
0
330
210
345
0
346
0
  0
ENDSEC
  0
EOF
