  0
SECTION
  2
HEADER
  9
$ACADVER
  1
AC1021
  9
$DWGCODEPAGE
  3
ANSI_1252
  9
$EXTMAX
 10
297.0
 20
210.0
 30
0.0
  9
$EXTMIN
 10
0.0
 20
0.0
 30
0.0
  9
$LIMMIN
 10
0.0
 20
0.0
  9
$LIMMAX
 10
297.0
 20
210.0
  9
$VIEWCTR
 10
148.5
 20
105.0
  9
$VIEWSIZE
 40
210.0
  9
$CLAYER
  8
0
  9
$LTSCALE
 40
16.335
  9
$CELTYPE
  6
BYLAYER
  9
$DIMSCALE
 40
1.0
  9
$DIMASZ
 40
3.0
  9
$DIMEXO
 40
0.5
  9
$DIMDLI
 40
11.286
  9
$DIMEXE
 40
1.5
  9
$DIMCEN
 40
2.673
  9
$DIMLFAC
 40
1.0
  9
$DIMBLK
  1
_FILLED
  9
$DIMALT
 70
0
  9
$DIMALTF
 40
0.0393700787
  9
$DIMTXT
 40
3.0
  9
$DIMTOL
 70
1
  9
$DIMLIM
 70
0
  9
$DIMTFAC
 40
1.0
  9
$DIMTP
 40
0.01
  9
$DIMTM
 40
0.01
  9
$DIMGAP
 40
0.625
  9
$DIMDSEP
 70
44
  9
$AUNITS
 70
0
  9
$PDMODE
 70
3
  9
$PDSIZE
 40
3.0
  9
$HANDSEED
  5
691
  9
$TILEMODE
 70
1
  9
$MEASUREMENT
 70
1
  9
$INSUNITS
 70
4
  0
ENDSEC
  0
SECTION
  2
CLASSES
  0
CLASS
  1
ACDBDICTIONARYWDFLT
  2
AcDbDictionaryWithDefault
  3
AutoCAD 2000
 90
0
 91
1
280
0
281
0
  0
CLASS
  1
ACDBPLACEHOLDER
  2
AcDbPlaceHolder
  3
AutoCAD 2000
 90
0
 91
1
280
0
281
0
  0
CLASS
  1
LAYOUT
  2
AcDbLayout
  3
AutoCAD 2000
 90
0
 91
0
280
0
281
0
  0
ENDSEC
  0
SECTION
  2
TABLES
  0
TABLE
  2
VPORT
  5
8
100
AcDbSymbolTable
 70
2
  0
VPORT
  5
1F4
100
AcDbSymbolTableRecord
100
AcDbViewportTableRecord
  2
*ACTIVE
 70
0
 10
0.0
 20
0.0
 11
1.0
 21
1.0
 12
148.5
 22
105.0
 13
0.0
 23
0.0
 14
1.0
 24
1.0
 15
0.0
 25
0.0
 16
0.0
 26
0.0
 36
1.0
 17
0.0
 27
0.0
 37
0.0
 40
210.0
 41
1.4142857143
 42
50.0
 43
0.0
 44
0.0
 50
0.0
 51
0.0
 71
0
 72
100
 73
1
 74
1
 75
0
 76
0
 77
0
 78
0
  0
ENDTAB
  0
TABLE
  2
LTYPE
  5
5
100
AcDbSymbolTable
 70
6
  0
LTYPE
  5
14
100
AcDbSymbolTableRecord
100
AcDbLinetypeTableRecord
  2
BYBLOCK
 70
0
  3

 72
65
 73
0
 40
0.0
  0
LTYPE
  5
15
100
AcDbSymbolTableRecord
100
AcDbLinetypeTableRecord
  2
BYLAYER
 70
0
  3

 72
65
 73
0
 40
0.0
  0
LTYPE
  5
16
100
AcDbSymbolTableRecord
100
AcDbLinetypeTableRecord
  2
CONTINUOUS
 70
64
  3
Solid line
 72
65
 73
0
 40
0.0
  0
LTYPE
  5
1F5
100
AcDbSymbolTableRecord
100
AcDbLinetypeTableRecord
  2
CENTER
 70
64
  3
____ _ ____ _ ____ _ ____ _ ____ _ ____ _ ____
 72
65
 73
4
 40
0.6
 49
0.375
 74
0
 49
-0.075
 74
0
 49
0.075
 74
0
 49
-0.075
 74
0
  0
LTYPE
  5
1F6
100
AcDbSymbolTableRecord
100
AcDbLinetypeTableRecord
  2
HIDDEN
 70
64
  3
- - - - - - - - - - - - - - - - - - - -
 72
65
 73
2
 40
0.2
 49
0.1
 74
0
 49
-0.1
 74
0
  0
LTYPE
  5
1F7
100
AcDbSymbolTableRecord
100
AcDbLinetypeTableRecord
  2
PHANTOM
 70
64
  3
_____ _ _ _____ _ _ _____ _ _ _____
 72
65
 73
6
 40
0.8
 49
0.45
 74
0
 49
-0.05
 74
0
 49
0.1
 74
0
 49
-0.05
 74
0
 49
0.1
 74
0
 49
-0.05
 74
0
  0
LTYPE
  5
1F8
100
AcDbSymbolTableRecord
100
AcDbLinetypeTableRecord
  2
DOT
 70
64
  3
. . . . . . . . . . . . . . . . . . . .
 72
65
 73
2
 40
0.2
 49
0.1
 74
0
 49
-0.1
 74
0
  0
LTYPE
  5
1F9
100
AcDbSymbolTableRecord
100
AcDbLinetypeTableRecord
  2
DASHED
 70
64
  3
- - - - - - - - - - - - - - - - - - - -
 72
65
 73
2
 40
0.2
 49
0.1
 74
0
 49
-0.1
 74
0
  0
ENDTAB
  0
TABLE
  2
LAYER
  5
2
100
AcDbSymbolTable
 70
36
  0
LAYER
  5
10
100
AcDbSymbolTableRecord
100
AcDbLayerTableRecord
  2
0
 70
0
 62
7
  6
CONTINUOUS
370
-3
390
F
  0
LAYER
  5
1FA
100
AcDbSymbolTableRecord
100
AcDbLayerTableRecord
  2
DEFAULT_1
 70
0
 62
7
  6
CENTER
370
-3
390
F
  0
LAYER
  5
1FB
100
AcDbSymbolTableRecord
100
AcDbLayerTableRecord
  2
DEFAULT_2
 70
0
 62
7
  6
HIDDEN
370
-3
390
F
  0
LAYER
  5
1FC
100
AcDbSymbolTableRecord
100
AcDbLayerTableRecord
  2
DEFAULT_3
 70
0
 62
7
  6
PHANTOM
370
-3
390
F
  0
LAYER
  5
1FD
100
AcDbSymbolTableRecord
100
AcDbLayerTableRecord
  2
ASSI
 70
0
 62
7
  6
CONTINUOUS
370
-3
390
F
  0
LAYER
  5
1FE
100
AcDbSymbolTableRecord
100
AcDbLayerTableRecord
  2
COLOR1
 70
0
 62
7
  6
CONTINUOUS
370
-3
390
F
  0
LAYER
  5
1FF
100
AcDbSymbolTableRecord
100
AcDbLayerTableRecord
  2
COLOR15
 70
0
 62
7
  6
CONTINUOUS
370
-3
390
F
  0
LAYER
  5
200
100
AcDbSymbolTableRecord
100
AcDbLayerTableRecord
  2
COORDINATE
 70
0
 62
7
  6
CONTINUOUS
370
-3
390
F
  0
LAYER
  5
201
100
AcDbSymbolTableRecord
100
AcDbLayerTableRecord
  2
COPY_PUBLISH
 70
0
 62
7
  6
CONTINUOUS
370
-3
390
F
  0
LAYER
  5
202
100
AcDbSymbolTableRecord
100
AcDbLayerTableRecord
  2
COSMETICI
 70
0
 62
7
  6
CONTINUOUS
370
-3
390
F
  0
LAYER
  5
203
100
AcDbSymbolTableRecord
100
AcDbLayerTableRecord
  2
CURVE
 70
0
 62
7
  6
CONTINUOUS
370
-3
390
F
  0
LAYER
  5
204
100
AcDbSymbolTableRecord
100
AcDbLayerTableRecord
  2
DRAFT
 70
0
 62
7
  6
CONTINUOUS
370
-3
390
F
  0
LAYER
  5
205
100
AcDbSymbolTableRecord
100
AcDbLayerTableRecord
  2
IMPORT_IGES
 70
0
 62
7
  6
CONTINUOUS
370
-3
390
F
  0
LAYER
  5
206
100
AcDbSymbolTableRecord
100
AcDbLayerTableRecord
  2
INTF_11
 70
0
 62
7
  6
CONTINUOUS
370
-3
390
F
  0
LAYER
  5
207
100
AcDbSymbolTableRecord
100
AcDbLayerTableRecord
  2
INTF_2
 70
0
 62
7
  6
CONTINUOUS
370
-3
390
F
  0
LAYER
  5
208
100
AcDbSymbolTableRecord
100
AcDbLayerTableRecord
  2
INTF_5
 70
0
 62
7
  6
CONTINUOUS
370
-3
390
F
  0
LAYER
  5
209
100
AcDbSymbolTableRecord
100
AcDbLayerTableRecord
  2
INTF_YELLOW
 70
0
 62
7
  6
CONTINUOUS
370
-3
390
F
  0
LAYER
  5
20A
100
AcDbSymbolTableRecord
100
AcDbLayerTableRecord
  2
NOTE
 70
0
 62
7
  6
CONTINUOUS
370
-3
390
F
  0
LAYER
  5
20B
100
AcDbSymbolTableRecord
100
AcDbLayerTableRecord
  2
PIANI
 70
0
 62
7
  6
CONTINUOUS
370
-3
390
F
  0
LAYER
  5
20C
100
AcDbSymbolTableRecord
100
AcDbLayerTableRecord
  2
PUNTI
 70
0
 62
7
  6
CONTINUOUS
370
-3
390
F
  0
LAYER
  5
20D
100
AcDbSymbolTableRecord
100
AcDbLayerTableRecord
  2
RACCORDO
 70
0
 62
7
  6
CONTINUOUS
370
-3
390
F
  0
LAYER
  5
20E
100
AcDbSymbolTableRecord
100
AcDbLayerTableRecord
  2
SIMBOLI
 70
0
 62
7
  6
CONTINUOUS
370
-3
390
F
  0
LAYER
  5
20F
100
AcDbSymbolTableRecord
100
AcDbLayerTableRecord
  2
SMUSSO
 70
0
 62
7
  6
CONTINUOUS
370
-3
390
F
  0
LAYER
  5
210
100
AcDbSymbolTableRecord
100
AcDbLayerTableRecord
  2
SNAPLINE
 70
0
 62
7
  6
CONTINUOUS
370
-3
390
F
  0
LAYER
  5
211
100
AcDbSymbolTableRecord
100
AcDbLayerTableRecord
  2
SUPERFICI
 70
0
 62
7
  6
CONTINUOUS
370
-3
390
F
  0
LAYER
  5
212
100
AcDbSymbolTableRecord
100
AcDbLayerTableRecord
  2
TRASH
 70
0
 62
7
  6
CONTINUOUS
370
-3
390
F
  0
LAYER
  5
213
100
AcDbSymbolTableRecord
100
AcDbLayerTableRecord
  2
WHITE
 70
0
 62
7
  6
CONTINUOUS
370
-3
390
F
  0
LAYER
  5
214
100
AcDbSymbolTableRecord
100
AcDbLayerTableRecord
  2
XSEC_DATUMS
 70
0
 62
7
  6
CONTINUOUS
370
-3
390
F
  0
ENDTAB
  0
TABLE
  2
STYLE
  5
3
100
AcDbSymbolTable
 70
1
  0
STYLE
  5
11
100
AcDbSymbolTableRecord
100
AcDbTextStyleTableRecord
  2
STANDARD
 70
0
 40
0.0
 41
0.8
 50
0.0
 71
0
 42
0.2
  3
txt
  4

  0
STYLE
  5
215
100
AcDbSymbolTableRecord
100
AcDbTextStyleTableRecord
  2
TEXTSTYLE_1
 70
0
 40
0.0
 41
0.8
 50
0.0
 71
0
 42
0.2
  3
gdt
  4

  0
ENDTAB
  0
TABLE
  2
VIEW
  5
6
100
AcDbSymbolTable
 70
0
  0
ENDTAB
  0
TABLE
  2
UCS
  5
7
100
AcDbSymbolTable
 70
0
  0
ENDTAB
  0
TABLE
  2
APPID
  5
9
100
AcDbSymbolTable
 70
1
  0
APPID
  5
216
100
AcDbSymbolTableRecord
100
AcDbRegAppTableRecord
  2
ACAD
 70
0
  0
ENDTAB
  0
TABLE
  2
BLOCK_RECORD
  5
1
100
AcDbSymbolTable
 70
0
  0
BLOCK_RECORD
  5
217
100
AcDbSymbolTableRecord
100
AcDbBlockTableRecord
  2
*Model_Space
  0
BLOCK_RECORD
  5
218
100
AcDbSymbolTableRecord
100
AcDbBlockTableRecord
  2
*Paper_Space
  0
BLOCK_RECORD
  5
219
100
AcDbSymbolTableRecord
100
AcDbBlockTableRecord
  2
_FILLED
  0
BLOCK_RECORD
  5
21A
100
AcDbSymbolTableRecord
100
AcDbBlockTableRecord
  2
*D0
  0
BLOCK_RECORD
  5
21B
100
AcDbSymbolTableRecord
100
AcDbBlockTableRecord
  2
*D1
  0
BLOCK_RECORD
  5
21C
100
AcDbSymbolTableRecord
100
AcDbBlockTableRecord
  2
*D2
  0
ENDTAB
  0
TABLE
  2
DIMSTYLE
  5
A
100
AcDbSymbolTable
 70
1
100
AcDbDimStyleTable
 71
0
  0
DIMSTYLE
105
21D
100
AcDbSymbolTableRecord
100
AcDbDimStyleTableRecord
  2
STANDARD
 70
0
  3

  4

 40
1.0
 41
3.0
 42
0.5
 43
0.38
 44
1.5
 45
0.0
 46
0.0
 47
0.01
 48
0.01
140
3.0
141
0.09
142
0.0
143
25.4
144
1.0
145
0.0
146
1.0
147
0.625
 71
1.0
 72
0.0
 73
0
 74
0
 75
0
 76
0
 77
1
 78
8
170
0
171
2
172
0
173
0
174
0
175
0
176
0
177
0
178
0
270
2
271
2
272
2
273
2
274
2
275
0
280
0
281
0
282
0
283
1
284
8
285
0
286
0
287
3
288
0
340
11
278
44
341
219
342
219
343
219
344
219
  0
DIMSTYLE
105
21E
100
AcDbSymbolTableRecord
100
AcDbDimStyleTableRecord
  2
DIMSTYLE_1
 70
0
  3

  4

 40
1.0
 41
3.0
 42
0.5
 43
0.38
 44
1.5
 45
0.0
 46
0.0
 47
0.0
 48
0.0
140
3.0
141
0.09
142
0.0
143
25.4
144
1.0
145
0.0
146
1.0
147
0.75
 71
0.0
 72
0.0
 73
0
 74
0
 75
0
 76
0
 77
1
 78
8
170
0
171
2
172
0
173
0
174
0
175
0
176
0
177
0
178
0
270
2
271
1
272
1
273
2
274
2
275
0
280
0
281
0
282
0
283
1
284
8
285
0
286
0
287
3
288
0
340
11
278
44
341
219
342
219
343
219
344
219
  0
DIMSTYLE
105
21F
100
AcDbSymbolTableRecord
100
AcDbDimStyleTableRecord
  2
DIMSTYLE_2
 70
0
  3

  4

 40
1.0
 41
3.0
 42
0.5
 43
0.38
 44
1.5
 45
0.0
 46
0.0
 47
0.0
 48
0.0
140
3.0
141
0.09
142
0.0
143
25.4
144
1.0
145
0.0
146
1.0
147
0.75
 71
0.0
 72
0.0
 73
0
 74
0
 75
0
 76
0
 77
1
 78
8
170
0
171
2
172
0
173
0
174
0
175
0
176
0
177
0
178
0
270
2
271
2
272
2
273
2
274
2
275
0
280
0
281
0
282
0
283
1
284
8
285
0
286
0
287
3
288
0
340
11
278
44
341
219
342
219
343
219
344
219
  0
ENDTAB
  0
ENDSEC
  0
SECTION
  2
BLOCKS
  0
BLOCK
  5
20
100
AcDbEntity
  8
0
100
AcDbBlockBegin
  2
*Model_Space
 70
0
 10
0.0
 20
0.0
 30
0.0
  3
*Model_Space
  1

  0
ENDBLK
  5
21
100
AcDbEntity
  8
0
100
AcDbBlockEnd
  0
BLOCK
  5
1C
100
AcDbEntity
  8
0
100
AcDbBlockBegin
  2
*Paper_Space
 70
0
 10
0.0
 20
0.0
 30
0.0
  3
*Paper_Space
  1

  0
ENDBLK
  5
1D
100
AcDbEntity
  8
0
100
AcDbBlockEnd
  0
BLOCK
  5
220
100
AcDbEntity
  8
0
100
AcDbBlockBegin
  2
_FILLED
 70
64
 10
0.0
 20
0.0
  3
_FILLED
  1

  0
SOLID
  5
221
100
AcDbEntity
  8
0
  6
BYBLOCK
 62
0
100
AcDbTrace
 10
0.0
 20
0.0
 11
-1.0
 21
0.3166666667
 12
-1.0
 22
-0.3166666667
 13
-1.0
 23
-0.3166666667
  0
ENDBLK
  5
222
100
AcDbEntity
  8
0
  6
BYBLOCK
 62
0
100
AcDbBlockEnd
  0
BLOCK
  5
223
100
AcDbEntity
  8
0
100
AcDbBlockBegin
 62
7
  6
CONTINUOUS
  2
*D0
 70
65
 10
0.0
 20
0.0
  3
*D0
  1

  0
MTEXT
  5
224
100
AcDbEntity
  8
0
100
AcDbMText
 62
7
  6
CONTINUOUS
  7
STANDARD
 71
2
 72
1
 10
0.6746277061
 20
81.4960941006
 30
0.0
 11
1.0
 21
0.0
 31
0.0
 44
0.9
  1
87,8
 40
3.0
 41
13.1785714286
  0
LINE
  5
225
100
AcDbEntity
  8
0
100
AcDbLine
 62
7
  6
CONTINUOUS
 10
44.5496277061
 20
52.9960941006
 11
44.5496277061
 21
79.2460941006
  0
LINE
  5
226
100
AcDbEntity
  8
0
100
AcDbLine
 62
7
  6
CONTINUOUS
 10
-43.2003722939
 20
60.6960941006
 11
-43.2003722939
 21
79.2460941006
  0
LINE
  5
227
100
AcDbEntity
  8
0
100
AcDbLine
 62
7
  6
CONTINUOUS
 10
44.5496277061
 20
77.7460941006
 11
0.6746277061
 21
77.7460941006
  0
LINE
  5
228
100
AcDbEntity
  8
0
100
AcDbLine
 62
7
  6
CONTINUOUS
 10
-43.2003722939
 20
77.7460941006
 11
0.6746277061
 21
77.7460941006
  0
INSERT
  5
229
100
AcDbEntity
  8
0
100
AcDbBlockReference
 62
7
  6
CONTINUOUS
  2
_FILLED
 10
44.5496277061
 20
77.7460941006
 41
3.0
 42
3.0
 43
3.0
  0
INSERT
  5
22A
100
AcDbEntity
  8
0
100
AcDbBlockReference
 62
7
  6
CONTINUOUS
  2
_FILLED
 10
-43.2003722939
 20
77.7460941006
 41
3.0
 42
3.0
 43
3.0
 50
180.0
  0
ENDBLK
  5
22B
100
AcDbEntity
  8
0
  6
BYBLOCK
 62
0
100
AcDbBlockEnd
  0
BLOCK
  5
22C
100
AcDbEntity
  8
0
100
AcDbBlockBegin
 62
7
  6
CONTINUOUS
  2
*D1
 70
65
 10
0.0
 20
0.0
  3
*D1
  1

  0
MTEXT
  5
22D
100
AcDbEntity
  8
0
100
AcDbMText
 62
7
  6
CONTINUOUS
  7
STANDARD
 71
2
 72
1
 10
-54.9433748149
 20
12.4960941006
 30
0.0
 11
0.0
 21
1.0
 31
0.0
 44
0.9
  1
114,5
 40
3.0
 41
14.4642857143
  0
LINE
  5
22E
100
AcDbEntity
  8
0
100
AcDbLine
 62
7
  6
CONTINUOUS
 10
-38.3504484463
 20
69.7460941006
 11
-52.6933748149
 21
69.7460941006
  0
LINE
  5
22F
100
AcDbEntity
  8
0
100
AcDbLine
 62
7
  6
CONTINUOUS
 10
-37.3504484463
 20
-44.7539058994
 11
-52.6933748149
 21
-44.7539058994
  0
LINE
  5
230
100
AcDbEntity
  8
0
100
AcDbLine
 62
7
  6
CONTINUOUS
 10
-51.1933748149
 20
69.7460941006
 11
-51.1933748149
 21
12.4960941006
  0
LINE
  5
231
100
AcDbEntity
  8
0
100
AcDbLine
 62
7
  6
CONTINUOUS
 10
-51.1933748149
 20
-44.7539058994
 11
-51.1933748149
 21
12.4960941006
  0
INSERT
  5
232
100
AcDbEntity
  8
0
100
AcDbBlockReference
 62
7
  6
CONTINUOUS
  2
_FILLED
 10
-51.1933748149
 20
69.7460941006
 41
3.0
 42
3.0
 43
3.0
 50
90.0
  0
INSERT
  5
233
100
AcDbEntity
  8
0
100
AcDbBlockReference
 62
7
  6
CONTINUOUS
  2
_FILLED
 10
-51.1933748149
 20
-44.7539058994
 41
3.0
 42
3.0
 43
3.0
 50
270.0
  0
ENDBLK
  5
234
100
AcDbEntity
  8
0
  6
BYBLOCK
 62
0
100
AcDbBlockEnd
  0
BLOCK
  5
235
100
AcDbEntity
  8
0
100
AcDbBlockBegin
 62
7
  6
CONTINUOUS
  2
*D2
 70
65
 10
0.0
 20
0.0
  3
*D2
  1

  0
MTEXT
  5
236
100
AcDbEntity
  8
0
100
AcDbMText
 62
7
  6
CONTINUOUS
  7
STANDARD
 71
2
 72
1
 10
79.719781399
 20
81.4960941006
 30
0.0
 11
1.0
 21
0.0
 31
0.0
 44
0.9
  1
13,7
 40
3.0
 41
11.8928571429
  0
LINE
  5
237
100
AcDbEntity
  8
0
100
AcDbLine
 62
7
  6
CONTINUOUS
 10
86.569781399
 20
70.0960941006
 11
86.569781399
 21
79.2460941006
  0
LINE
  5
238
100
AcDbEntity
  8
0
100
AcDbLine
 62
7
  6
CONTINUOUS
 10
72.869781399
 20
54.4960941006
 11
72.869781399
 21
79.2460941006
  0
LINE
  5
239
100
AcDbEntity
  8
0
100
AcDbLine
 62
7
  6
CONTINUOUS
 10
86.569781399
 20
77.7460941006
 11
90.569781399
 21
77.7460941006
  0
LINE
  5
23A
100
AcDbEntity
  8
0
100
AcDbLine
 62
7
  6
CONTINUOUS
 10
90.569781399
 20
77.7460941006
 11
79.719781399
 21
77.7460941006
  0
LINE
  5
23B
100
AcDbEntity
  8
0
100
AcDbLine
 62
7
  6
CONTINUOUS
 10
72.869781399
 20
77.7460941006
 11
68.869781399
 21
77.7460941006
  0
LINE
  5
23C
100
AcDbEntity
  8
0
100
AcDbLine
 62
7
  6
CONTINUOUS
 10
68.869781399
 20
77.7460941006
 11
79.719781399
 21
77.7460941006
  0
INSERT
  5
23D
100
AcDbEntity
  8
0
100
AcDbBlockReference
 62
7
  6
CONTINUOUS
  2
_FILLED
 10
86.569781399
 20
77.7460941006
 41
3.0
 42
3.0
 43
3.0
 50
180.0
  0
INSERT
  5
23E
100
AcDbEntity
  8
0
100
AcDbBlockReference
 62
7
  6
CONTINUOUS
  2
_FILLED
 10
72.869781399
 20
77.7460941006
 41
3.0
 42
3.0
 43
3.0
  0
ENDBLK
  5
23F
100
AcDbEntity
  8
0
  6
BYBLOCK
 62
0
100
AcDbBlockEnd
  0
ENDSEC
  0
SECTION
  2
ENTITIES
  0
DIMENSION
  5
240
100
AcDbEntity
  8
0
100
AcDbDimension
 62
7
  6
CONTINUOUS
  2
*D0
 10
-43.2003722939
 20
77.7460941006
 11
0.2460562248
 21
77.7460941006
 70
160
 71
2
 42
87.75
  3
DIMSTYLE_1
100
AcDbAlignedDimension
 13
44.5496277061
 23
52.4960941006
 14
-43.2003722939
 24
60.1960941006
 50
180.0
100
AcDbRotatedDimension
  0
DIMENSION
  5
241
100
AcDbEntity
  8
0
100
AcDbDimension
 62
7
  6
CONTINUOUS
  2
*D1
 10
-51.1933748149
 20
-44.7539058994
 11
-51.1933748149
 21
12.0675227964
 70
160
 71
2
 42
114.5
  3
DIMSTYLE_2
100
AcDbAlignedDimension
 13
-37.8504484463
 23
69.7460941006
 14
-36.8504484463
 24
-44.7539058994
 50
270.0
100
AcDbRotatedDimension
  0
DIMENSION
  5
242
100
AcDbEntity
  8
0
100
AcDbDimension
 62
7
  6
CONTINUOUS
  2
*D2
 10
72.869781399
 20
77.7460941006
 11
79.291211998
 21
77.7460941006
 70
160
 71
2
 42
13.7
  3
DIMSTYLE_2
100
AcDbAlignedDimension
 13
86.569781399
 23
69.5960941006
 14
72.869781399
 24
53.9960941006
 50
180.0
100
AcDbRotatedDimension
  0
LWPOLYLINE
  5
243
100
AcDbEntity
  8
RACCORDO
100
AcDbPolyline
 62
253
  6
CONTINUOUS
 90
5
 70
0
 10
-34.2877944813
 20
69.6230479169
 10
-34.2899364164
 20
69.6209009847
 10
-34.2920554009
 20
69.6155630819
 10
-34.2941287302
 20
69.6070914035
 10
-34.2960440794
 20
69.5960941006
  0
LINE
  5
244
100
AcDbEntity
  8
RACCORDO
100
AcDbLine
 62
7
  6
CONTINUOUS
 10
-35.8383414092
 20
60.2581249853
 11
-35.8427705796
 21
60.2536958148
  0
LWPOLYLINE
  5
245
100
AcDbEntity
  8
RACCORDO
100
AcDbPolyline
 62
7
  6
CONTINUOUS
 90
11
 70
0
 10
-35.2397259599
 20
-44.6393298215
 10
-35.2241172102
 20
-44.6546560056
 10
-35.207298024
 20
-44.6689407099
 10
-35.1892468687
 20
-44.6820827674
 10
-35.1699406109
 20
-44.6940841275
 10
-35.1493092847
 20
-44.7047981027
 10
-35.1274228558
 20
-44.7140305953
 10
-35.1044680883
 20
-44.7216425863
 10
-35.0805072367
 20
-44.7274498885
 10
-35.0554780465
 20
-44.7312522094
 10
-35.0293805176
 20
-44.7328684316
  0
LWPOLYLINE
  5
246
100
AcDbEntity
  8
RACCORDO
100
AcDbPolyline
 62
253
  6
CONTINUOUS
 90
5
 70
0
 10
-34.2877944813
 20
-44.6308597158
 10
-34.2899363714
 20
-44.6287128622
 10
-34.2920553189
 20
-44.6233751496
 10
-34.2941286201
 20
-44.614903739
 10
-34.2960440967
 20
-44.6039058994
  0
LWPOLYLINE
  5
247
100
AcDbEntity
  8
RACCORDO
100
AcDbPolyline
 62
7
  6
CONTINUOUS
 90
4
 70
0
 10
-35.2685469781
 20
-44.6039058994
 10
-35.2672060877
 20
-44.6059484782
 10
-35.2541027405
 20
-44.6230991646
 10
-35.2397259599
 20
-44.6393298215
  0
LWPOLYLINE
  5
248
100
AcDbEntity
  8
RACCORDO
100
AcDbPolyline
 62
253
  6
CONTINUOUS
 90
4
 70
0
 10
33.3009542408
 20
-44.6362649242
 10
33.3312753418
 20
-44.6281329826
 10
33.3605816216
 20
-44.61687703
 10
33.386029896
 20
-44.6039058994
  0
LWPOLYLINE
  5
249
100
AcDbEntity
  8
RACCORDO
100
AcDbPolyline
 62
253
  6
CONTINUOUS
 90
4
 70
0
 10
-35.0017000298
 20
-44.6362646686
 10
-35.0320215398
 20
-44.6281324591
 10
-35.0613280917
 20
-44.6168761916
 10
-35.0867742611
 20
-44.6039058994
  0
LINE
  5
24A
100
AcDbEntity
  8
RACCORDO
100
AcDbLine
 62
7
  6
CONTINUOUS
 10
-35.8383414092
 20
-35.2659367841
 11
-35.8427705796
 21
-35.2615076137
  0
LINE
  5
24B
100
AcDbEntity
  8
0
100
AcDbLine
 62
7
  6
CONTINUOUS
 10
-43.2003722939
 20
60.1960941006
 11
-43.2003722939
 21
56.1960941006
  0
LINE
  5
24C
100
AcDbEntity
  8
0
100
AcDbLine
 62
7
  6
CONTINUOUS
 10
-43.2003722939
 20
-21.8039058994
 11
-43.2003722939
 21
-25.8039058994
  0
LWPOLYLINE
  5
24D
100
AcDbEntity
  8
RACCORDO
100
AcDbPolyline
 62
7
  6
CONTINUOUS
 90
7
 70
0
 10
38.1285902383
 20
58.8750219425
 10
38.1274463365
 20
58.8746453668
 10
38.1247556171
 20
58.8742618057
 10
38.120512903
 20
58.8738712593
 10
38.1147074174
 20
58.8734757373
 10
38.1073584979
 20
58.87307323
 10
38.0985475862
 20
58.8726577076
  0
LWPOLYLINE
  5
24E
100
AcDbEntity
  8
RACCORDO
100
AcDbPolyline
 62
7
  6
CONTINUOUS
 90
14
 70
0
 10
33.3286359298
 20
-44.7328684316
 10
33.3547334587
 20
-44.7312522094
 10
33.3797626489
 20
-44.7274498885
 10
33.4037235005
 20
-44.7216425863
 10
33.426678268
 20
-44.7140305953
 10
33.4485646968
 20
-44.7047981027
 10
33.4691960231
 20
-44.6940841275
 10
33.4885022809
 20
-44.6820827674
 10
33.5065534362
 20
-44.6689407099
 10
33.5233726224
 20
-44.6546560056
 10
33.5389813721
 20
-44.6393298215
 10
33.5533581527
 20
-44.6230991646
 10
33.5664614999
 20
-44.6059484782
 10
33.5678023903
 20
-44.6039058994
  0
LWPOLYLINE
  5
24F
100
AcDbEntity
  8
RACCORDO
100
AcDbPolyline
 62
253
  6
CONTINUOUS
 90
3
 70
0
 10
33.2386033471
 20
-44.642835849
 10
33.269950394
 20
-44.641183826
 10
33.3009542408
 20
-44.6362649242
  0
LWPOLYLINE
  5
250
100
AcDbEntity
  8
RACCORDO
100
AcDbPolyline
 62
253
  6
CONTINUOUS
 90
22
 70
0
 10
37.6286663907
 20
-44.4329141231
 10
37.6437490581
 20
-44.4323029932
 10
37.6585209867
 20
-44.4306459666
 10
37.6729821767
 20
-44.4279430431
 10
37.6871767078
 20
-44.4241731554
 10
37.7010605002
 20
-44.4193573708
 10
37.7145013146
 20
-44.4135588917
 10
37.7275334942
 20
-44.4067510301
 10
37.7401226958
 20
-44.3989604739
 10
37.7520336504
 20
-44.3903304885
 10
37.7632346754
 20
-44.380865334
 10
37.7737574534
 20
-44.3705607503
 10
37.783461764
 20
-44.3595472221
 10
37.7923407394
 20
-44.3478438315
 10
37.8004012473
 20
-44.3354314964
 10
37.8075236704
 20
-44.3223834548
 10
37.8137304792
 20
-44.3086480917
 10
37.8189992031
 20
-44.294277022
 10
37.823142813
 20
-44.2794983282
 10
37.8260989659
 20
-44.2643880376
 10
37.8279300048
 20
-44.2488701229
 10
37.8286359298
 20
-44.2329445841
  0
LWPOLYLINE
  5
251
100
AcDbEntity
  8
RACCORDO
100
AcDbPolyline
 62
253
  6
CONTINUOUS
 90
8
 70
0
 10
-34.866889083
 20
-44.6376314353
 10
-34.8849409597
 20
-44.6383217882
 10
-34.9005719041
 20
-44.6390356994
 10
-34.9137912028
 20
-44.6397719494
 10
-34.9243075826
 20
-44.6405210393
 10
-34.9320239523
 20
-44.6412798027
 10
-34.9370374031
 20
-44.6420514059
 10
-34.9393479349
 20
-44.642835849
  0
LWPOLYLINE
  5
252
100
AcDbEntity
  8
RACCORDO
100
AcDbPolyline
 62
253
  6
CONTINUOUS
 90
22
 70
0
 10
37.6286663907
 20
-44.7328684316
 10
37.6660465037
 20
-44.7314623428
 10
37.7030371669
 20
-44.727292646
 10
37.7394378883
 20
-44.7204227657
 10
37.7749805396
 20
-44.7109533176
 10
37.8095614833
 20
-44.6989624504
 10
37.8432233352
 20
-44.6844499875
 10
37.8758772576
 20
-44.667427494
 10
37.9072364492
 20
-44.6480167298
 10
37.9370476431
 20
-44.6263724482
 10
37.965101087
 20
-44.6026678209
 10
37.9913109113
 20
-44.5769975119
 10
38.0156176323
 20
-44.5494139876
 10
38.0378415757
 20
-44.520105315
 10
38.0578910382
 20
-44.489175067
 10
38.0757783811
 20
-44.4565105522
 10
38.0913726547
 20
-44.4221470709
 10
38.1044482558
 20
-44.386342198
 10
38.1148386974
 20
-44.3493101936
 10
38.1224040954
 20
-44.3112609623
 10
38.1270241279
 20
-44.2723962171
 10
38.1285902383
 20
-44.2329445841
  0
LWPOLYLINE
  5
253
100
AcDbEntity
  8
RACCORDO
100
AcDbPolyline
 62
7
  6
CONTINUOUS
 90
22
 70
0
 10
37.6497038585
 20
-44.7539058994
 10
37.6869840785
 20
-44.7525144264
 10
37.7241064338
 20
-44.7483398515
 10
37.7608625342
 20
-44.7413941622
 10
37.7970924436
 20
-44.73169032
 10
37.8325399079
 20
-44.7192792806
 10
37.8668659416
 20
-44.7042853166
 10
37.8997815566
 20
-44.6868737196
 10
37.93122767
 20
-44.6671161203
 10
37.9612103543
 20
-44.6450064191
 10
37.9896568827
 20
-44.6205454873
 10
38.0162672939
 20
-44.593935076
 10
38.0407282258
 20
-44.5654885477
 10
38.062837927
 20
-44.5355058633
 10
38.0825955263
 20
-44.50405975
 10
38.1000071233
 20
-44.4711441349
 10
38.1150010873
 20
-44.4368181012
 10
38.1274121267
 20
-44.401370637
 10
38.1371159688
 20
-44.3651407275
 10
38.1440616582
 20
-44.3283846271
 10
38.1482362331
 20
-44.2912622718
 10
38.1496277061
 20
-44.2539820518
  0
LINE
  5
254
100
AcDbEntity
  8
RACCORDO
100
AcDbLine
 62
253
  6
CONTINUOUS
 10
-34.8238695255
 20
-44.6363235866
 11
-34.866889083
 21
-44.6376314353
  0
LINE
  5
255
100
AcDbEntity
  8
RACCORDO
100
AcDbLine
 62
253
  6
CONTINUOUS
 10
-34.7725593406
 20
-44.6351303311
 11
-34.8238695255
 21
-44.6363235866
  0
LINE
  5
256
100
AcDbEntity
  8
RACCORDO
100
AcDbLine
 62
253
  6
CONTINUOUS
 10
-34.6809849537
 20
-44.6335681242
 11
-34.7725593406
 21
-44.6351303311
  0
LINE
  5
257
100
AcDbEntity
  8
RACCORDO
100
AcDbLine
 62
253
  6
CONTINUOUS
 10
-34.574511746
 20
-44.6323215473
 11
-34.6809849537
 21
-44.6335681242
  0
LINE
  5
258
100
AcDbEntity
  8
RACCORDO
100
AcDbLine
 62
253
  6
CONTINUOUS
 10
-34.4161011537
 20
-44.6312259946
 11
-34.574511746
 21
-44.6323215473
  0
LINE
  5
259
100
AcDbEntity
  8
RACCORDO
100
AcDbLine
 62
253
  6
CONTINUOUS
 10
-25.2219301093
 20
-44.6214009079
 11
-34.4161011537
 21
-44.6312259946
  0
LINE
  5
25A
100
AcDbEntity
  8
RACCORDO
100
AcDbLine
 62
253
  6
CONTINUOUS
 10
-11.6551357779
 20
-44.6127956925
 11
-25.2219301093
 21
-44.6214009079
  0
LINE
  5
25B
100
AcDbEntity
  8
RACCORDO
100
AcDbLine
 62
7
  6
CONTINUOUS
 10
-36.8504484463
 20
-44.7539058994
 11
37.6497038585
 21
-44.7539058994
  0
LINE
  5
25C
100
AcDbEntity
  8
RACCORDO
100
AcDbLine
 62
253
  6
CONTINUOUS
 10
-36.8294109785
 20
-44.7328684316
 11
-35.0293805176
 21
-44.7328684316
  0
LINE
  5
25D
100
AcDbEntity
  8
RACCORDO
100
AcDbLine
 62
253
  6
CONTINUOUS
 10
33.3286359298
 20
-44.7328684316
 11
37.6286663907
 21
-44.7328684316
  0
LINE
  5
25E
100
AcDbEntity
  8
RACCORDO
100
AcDbLine
 62
253
  6
CONTINUOUS
 10
1.7524165924
 20
-44.6108095772
 11
-11.6551357779
 21
-44.6127956925
  0
LINE
  5
25F
100
AcDbEntity
  8
0
100
AcDbLine
 62
7
  6
CONTINUOUS
 10
34.0996277061
 20
-44.6039058994
 11
-35.8003722939
 21
-44.6039058994
  0
LINE
  5
260
100
AcDbEntity
  8
RACCORDO
100
AcDbLine
 62
253
  6
CONTINUOUS
 10
-36.8294109785
 20
-44.4329141231
 11
-35.8003722939
 21
-44.4329141231
  0
LINE
  5
261
100
AcDbEntity
  8
RACCORDO
100
AcDbLine
 62
253
  6
CONTINUOUS
 10
34.0996277061
 20
-44.4329141231
 11
37.6286663907
 21
-44.4329141231
  0
LINE
  5
262
100
AcDbEntity
  8
RACCORDO
100
AcDbLine
 62
253
  6
CONTINUOUS
 10
-37.0293805176
 20
-44.2329445841
 11
-37.3293348261
 21
-44.2329445845
  0
LINE
  5
263
100
AcDbEntity
  8
RACCORDO
100
AcDbLine
 62
253
  6
CONTINUOUS
 10
37.8286359298
 20
-44.2329445841
 11
38.1285902383
 21
-44.2329445841
  0
LINE
  5
264
100
AcDbEntity
  8
RACCORDO
100
AcDbLine
 62
253
  6
CONTINUOUS
 10
14.895682937
 20
-44.6151355435
 11
1.7524165924
 21
-44.6108095772
  0
LINE
  5
265
100
AcDbEntity
  8
RACCORDO
100
AcDbLine
 62
253
  6
CONTINUOUS
 10
28.12345578
 20
-44.6258488787
 11
14.895682937
 21
-44.6151355435
  0
LINE
  5
266
100
AcDbEntity
  8
RACCORDO
100
AcDbLine
 62
253
  6
CONTINUOUS
 10
32.761016808
 20
-44.6314633638
 11
28.12345578
 21
-44.6258488787
  0
LINE
  5
267
100
AcDbEntity
  8
RACCORDO
100
AcDbLine
 62
253
  6
CONTINUOUS
 10
32.9182182239
 20
-44.6327825658
 11
32.761016808
 21
-44.6314633638
  0
LINE
  5
268
100
AcDbEntity
  8
RACCORDO
100
AcDbLine
 62
253
  6
CONTINUOUS
 10
33.019280527
 20
-44.6341647365
 11
32.9182182239
 21
-44.6327825658
  0
LINE
  5
269
100
AcDbEntity
  8
RACCORDO
100
AcDbLine
 62
253
  6
CONTINUOUS
 10
33.077582331
 20
-44.6352509369
 11
33.019280527
 21
-44.6341647365
  0
LWPOLYLINE
  5
26A
100
AcDbEntity
  8
RACCORDO
100
AcDbPolyline
 62
7
  6
CONTINUOUS
 90
22
 70
0
 10
-36.8504484463
 20
-44.7539058994
 10
-36.8877286663
 20
-44.7525144264
 10
-36.9248510216
 20
-44.7483398515
 10
-36.961607122
 20
-44.7413941622
 10
-36.9978370314
 20
-44.73169032
 10
-37.0332844957
 20
-44.7192792806
 10
-37.0676105294
 20
-44.7042853166
 10
-37.1005261444
 20
-44.6868737196
 10
-37.1319722578
 20
-44.6671161203
 10
-37.1619549421
 20
-44.6450064191
 10
-37.1904014705
 20
-44.6205454873
 10
-37.2170118817
 20
-44.593935076
 10
-37.2414728136
 20
-44.5654885477
 10
-37.2635825148
 20
-44.5355058633
 10
-37.2833401141
 20
-44.50405975
 10
-37.3007517111
 20
-44.4711441349
 10
-37.3157456751
 20
-44.4368181012
 10
-37.3281567145
 20
-44.401370637
 10
-37.3378605567
 20
-44.3651407275
 10
-37.344806246
 20
-44.3283846271
 10
-37.3489808209
 20
-44.2912622718
 10
-37.3503722939
 20
-44.2539820518
  0
LWPOLYLINE
  5
26B
100
AcDbEntity
  8
RACCORDO
100
AcDbPolyline
 62
253
  6
CONTINUOUS
 90
3
 70
0
 10
-34.9393479349
 20
-44.642835849
 10
-34.9706956418
 20
-44.6411837564
 10
-35.0017000298
 20
-44.6362646686
  0
LWPOLYLINE
  5
26C
100
AcDbEntity
  8
RACCORDO
100
AcDbPolyline
 62
253
  6
CONTINUOUS
 90
22
 70
0
 10
-37.0293805176
 20
-44.2329445841
 10
-37.0288118986
 20
-44.2477878635
 10
-37.0271936201
 20
-44.2623882092
 10
-37.0245256821
 20
-44.2767456213
 10
-37.0207839395
 20
-44.2909304376
 10
-37.0159925374
 20
-44.3048723202
 10
-37.0102239108
 20
-44.3183602553
 10
-37.0034555156
 20
-44.3313975597
 10
-36.9957098959
 20
-44.3439809165
 10
-36.9871271186
 20
-44.3558893614
 10
-36.9777234838
 20
-44.367089013
 10
-36.9674826915
 20
-44.3776137527
 10
-36.9564959091
 20
-44.387344261
 10
-36.9447594321
 20
-44.3962926236
 10
-36.932276965
 20
-44.4044467548
 10
-36.9191507891
 20
-44.4116510774
 10
-36.9053286804
 20
-44.4179169083
 10
-36.8908628629
 20
-44.4232329307
 10
-36.8760122887
 20
-44.4274096162
 10
-36.8608632753
 20
-44.4303837887
 10
-36.8453295052
 20
-44.4322186243
 10
-36.8294109785
 20
-44.4329141231
  0
LWPOLYLINE
  5
26D
100
AcDbEntity
  8
RACCORDO
100
AcDbPolyline
 62
253
  6
CONTINUOUS
 90
22
 70
0
 10
-37.3293348261
 20
-44.2329445841
 10
-37.327973647
 20
-44.2697223863
 10
-37.3239134049
 20
-44.3062831398
 10
-37.3171799531
 20
-44.3424293915
 10
-37.3078170142
 20
-44.3779549866
 10
-37.2958771333
 20
-44.4126809187
 10
-37.2814130444
 20
-44.4464534978
 10
-37.2644829138
 20
-44.4791175242
 10
-37.2451867281
 20
-44.5104635246
 10
-37.2236644741
 20
-44.5402696727
 10
-37.2001055229
 20
-44.568308797
 10
-37.1745900346
 20
-44.5945173687
 10
-37.1470860739
 20
-44.6189065454
 10
-37.1177080668
 20
-44.6413198181
 10
-37.086598717
 20
-44.6615962417
 10
-37.0537292277
 20
-44.6796795399
 10
-37.0191498958
 20
-44.6954310656
 10
-36.9831110365
 20
-44.7086287859
 10
-36.9458954866
 20
-44.7190883987
 10
-36.9077423553
 20
-44.7266799106
 10
-36.8688371243
 20
-44.7313043468
 10
-36.8294109785
 20
-44.7328684316
  0
LINE
  5
26E
100
AcDbEntity
  8
RACCORDO
100
AcDbLine
 62
7
  6
CONTINUOUS
 10
-38.3503722939
 20
-21.8039058994
 11
-38.3503722939
 21
40.696170253
  0
LINE
  5
26F
100
AcDbEntity
  8
RACCORDO
100
AcDbLine
 62
7
  6
CONTINUOUS
 10
-38.3503722939
 20
60.1960941006
 11
-38.3503722939
 21
69.246170253
  0
LINE
  5
270
100
AcDbEntity
  8
RACCORDO
100
AcDbLine
 62
253
  6
CONTINUOUS
 10
-38.3293348261
 20
-21.8039058994
 11
-38.3293348261
 21
40.6751327852
  0
LINE
  5
271
100
AcDbEntity
  8
RACCORDO
100
AcDbLine
 62
253
  6
CONTINUOUS
 10
-38.3293348261
 20
60.1960941006
 11
-38.3293348261
 21
69.2251327852
  0
LINE
  5
272
100
AcDbEntity
  8
RACCORDO
100
AcDbLine
 62
253
  6
CONTINUOUS
 10
-38.0293805176
 20
-21.8039058994
 11
-38.0293805176
 21
40.6751327852
  0
LINE
  5
273
100
AcDbEntity
  8
RACCORDO
100
AcDbLine
 62
253
  6
CONTINUOUS
 10
-38.0293805176
 20
60.1960941006
 11
-38.0293805176
 21
69.2251327852
  0
LINE
  5
274
100
AcDbEntity
  8
0
100
AcDbLine
 62
7
  6
CONTINUOUS
 10
-37.9270481307
 20
60.1960941006
 11
-37.9270481307
 21
56.1960941006
  0
LINE
  5
275
100
AcDbEntity
  8
0
100
AcDbLine
 62
7
  6
CONTINUOUS
 10
-37.9270481307
 20
-21.8039058994
 11
-37.9270481307
 21
-25.8039058994
  0
LINE
  5
276
100
AcDbEntity
  8
RACCORDO
100
AcDbLine
 62
253
  6
CONTINUOUS
 10
-37.8294109785
 20
69.7250566328
 11
-37.8294109785
 21
69.4251023242
  0
LINE
  5
277
100
AcDbEntity
  8
RACCORDO
100
AcDbLine
 62
253
  6
CONTINUOUS
 10
-37.8294109785
 20
41.1750566328
 11
-37.8294109785
 21
40.8751023242
  0
LINE
  5
278
100
AcDbEntity
  8
DRAFT
100
AcDbLine
 62
7
  6
CONTINUOUS
 10
-37.3503722939
 20
56.1960941006
 11
-37.3503722939
 21
43.3585267683
  0
LINE
  5
279
100
AcDbEntity
  8
DRAFT
100
AcDbLine
 62
7
  6
CONTINUOUS
 10
-37.3503722939
 20
41.6336614328
 11
-37.3503722939
 21
41.1960941006
  0
LINE
  5
27A
100
AcDbEntity
  8
DRAFT
100
AcDbLine
 62
7
  6
CONTINUOUS
 10
-37.3503722939
 20
-25.8039058994
 11
-37.3503722939
 21
-38.6414732317
  0
LINE
  5
27B
100
AcDbEntity
  8
RACCORDO
100
AcDbLine
 62
7
  6
CONTINUOUS
 10
-37.3503722939
 20
-40.3663385672
 11
-37.3503722939
 21
-44.2539820518
  0
LINE
  5
27C
100
AcDbEntity
  8
DRAFT
100
AcDbLine
 62
7
  6
CONTINUOUS
 10
-37.336408242
 20
43.2460941006
 11
-37.336408242
 21
41.7460941006
  0
LINE
  5
27D
100
AcDbEntity
  8
DRAFT
100
AcDbLine
 62
7
  6
CONTINUOUS
 10
-37.336408242
 20
-38.7539058994
 11
-37.336408242
 21
-40.2539058994
  0
LINE
  5
27E
100
AcDbEntity
  8
RACCORDO
100
AcDbLine
 62
253
  6
CONTINUOUS
 10
-37.3293348261
 20
56.1960941006
 11
-37.3293348261
 21
41.1750566328
  0
LINE
  5
27F
100
AcDbEntity
  8
RACCORDO
100
AcDbLine
 62
253
  6
CONTINUOUS
 10
-37.3293348261
 20
-25.8039058994
 11
-37.3293348261
 21
-44.2329445841
  0
LINE
  5
280
100
AcDbEntity
  8
RACCORDO
100
AcDbLine
 62
253
  6
CONTINUOUS
 10
-37.0293805176
 20
56.1960941006
 11
-37.0293805176
 21
40.8751023242
  0
LINE
  5
281
100
AcDbEntity
  8
RACCORDO
100
AcDbLine
 62
253
  6
CONTINUOUS
 10
-37.0293805176
 20
-25.8039058994
 11
-37.0293805176
 21
-44.2329445841
  0
LWPOLYLINE
  5
282
100
AcDbEntity
  8
RACCORDO
100
AcDbPolyline
 62
253
  6
CONTINUOUS
 90
22
 70
0
 10
-38.3293348261
 20
69.2251327852
 10
-38.3279568706
 20
69.2621366583
 10
-38.3238700865
 20
69.29876246
 10
-38.3171354496
 20
69.3348155389
 10
-38.3078501665
 20
69.3700338456
 10
-38.2960891832
 20
69.4043180246
 10
-38.281850352
 20
69.4377136793
 10
-38.2651384861
 20
69.4701436954
 10
-38.2460738661
 20
69.5013181662
 10
-38.2248220191
 20
69.5309672288
 10
-38.2015876634
 20
69.558851455
 10
-38.1764372289
 20
69.5849330433
 10
-38.1493289575
 20
69.6092375996
 10
-38.1204341725
 20
69.6315696037
 10
-38.0898363842
 20
69.651824867
 10
-38.0572916579
 20
69.6700606852
 10
-38.0227476839
 20
69.6861263777
 10
-37.9865006883
 20
69.6997079009
 10
-37.948822537
 20
69.7105654752
 10
-37.9099475768
 20
69.7185128306
 10
-37.8700627449
 20
69.7233938465
 10
-37.8294109785
 20
69.7250566328
  0
LWPOLYLINE
  5
283
100
AcDbEntity
  8
RACCORDO
100
AcDbPolyline
 62
253
  6
CONTINUOUS
 90
22
 70
0
 10
-38.3293348261
 20
40.6751327852
 10
-38.3279695763
 20
40.7119655087
 10
-38.3239140834
 20
40.7484667315
 10
-38.3172191943
 20
40.7844427428
 10
-38.30796712
 20
40.8196472997
 10
-38.2962257813
 20
40.8539619756
 10
-38.2820058296
 20
40.887382543
 10
-38.2653223994
 20
40.9198163965
 10
-38.2462903405
 20
40.9509913485
 10
-38.2250741175
 20
40.9806410399
 10
-38.2018863976
 20
41.0085180066
 10
-38.1767874482
 20
41.0345949275
 10
-38.1497066005
 20
41.058922732
 10
-38.120790441
 20
41.0813142388
 10
-38.0901357105
 20
41.1016420041
 10
-38.0575258069
 20
41.1199406561
 10
-38.0229132289
 20
41.1360568929
 10
-37.9865917059
 20
41.1496777496
 10
-37.9488554783
 20
41.1605573658
 10
-37.9099484858
 20
41.1685126833
 10
-37.8700523926
 20
41.1733946942
 10
-37.8294109785
 20
41.1750566328
  0
LWPOLYLINE
  5
284
100
AcDbEntity
  8
RACCORDO
100
AcDbPolyline
 62
253
  6
CONTINUOUS
 90
22
 70
0
 10
-38.0293805176
 20
40.6751327852
 10
-38.0287942727
 20
40.6899931715
 10
-38.0271812231
 20
40.7045702006
 10
-38.0245413686
 20
40.7188638726
 10
-38.0208542794
 20
40.7329232468
 10
-38.0161403854
 20
40.7466992638
 10
-38.0104609761
 20
40.7600447454
 10
-38.0037878565
 20
40.7729890893
 10
-37.9961492216
 20
40.7855028978
 10
-37.9876909463
 20
40.7973507992
 10
-37.9784376198
 20
40.808488219
 10
-37.9683646529
 20
40.8189597317
 10
-37.9575441525
 20
40.8286636891
 10
-37.9459953659
 20
40.8376126969
 10
-37.9336990457
 20
40.8457941494
 10
-37.9206695574
 20
40.8530685812
 10
-37.9068270171
 20
40.8594741884
 10
-37.8922513088
 20
40.864972775
 10
-37.877196449
 20
40.8693102873
 10
-37.8617471102
 20
40.8724020406
 10
-37.8458186201
 20
40.8743327196
 10
-37.8294109785
 20
40.8751023242
  0
LWPOLYLINE
  5
285
100
AcDbEntity
  8
RACCORDO
100
AcDbPolyline
 62
253
  6
CONTINUOUS
 90
22
 70
0
 10
-38.0293805176
 20
69.2251327852
 10
-38.0287825832
 20
69.2400613082
 10
-38.0271583746
 20
69.2546880505
 10
-38.0245078918
 20
69.2690130121
 10
-38.0208112504
 20
69.2830785673
 10
-38.0160883349
 20
69.2968423419
 10
-38.010398798
 20
69.3101772128
 10
-38.003713959
 20
69.3231199013
 10
-37.9960624988
 20
69.3356336861
 10
-37.9875901123
 20
69.3474812802
 10
-37.9783169144
 20
69.3586200948
 10
-37.9682227904
 20
69.3690927186
 10
-37.9573930908
 20
69.3787896316
 10
-37.945854608
 20
69.3877168679
 10
-37.9335805497
 20
69.3958683933
 10
-37.9205758894
 20
69.4031165845
 10
-37.9067609613
 20
69.4095032759
 10
-37.8922154312
 20
69.4149866331
 10
-37.8771832707
 20
69.4193135292
 10
-37.8617458037
 20
69.4223995887
 10
-37.8458217063
 20
69.424329187
 10
-37.8294109785
 20
69.4251023242
  0
LINE
  5
286
100
AcDbEntity
  8
DRAFT
100
AcDbLine
 62
7
  6
CONTINUOUS
 10
-37.3503722939
 20
41.6336614328
 11
-37.336408242
 21
41.7460941006
  0
LWPOLYLINE
  5
287
100
AcDbEntity
  8
RACCORDO
100
AcDbPolyline
 62
7
  6
CONTINUOUS
 90
10
 70
0
 10
37.8286359298
 20
58.826205996
 10
37.8501779097
 20
58.8351488677
 10
37.8720117648
 20
58.843050972
 10
37.8940107434
 20
58.8499123089
 10
37.9161279285
 20
58.8557130609
 10
37.938115855
 20
58.8604730454
 10
37.9595515323
 20
58.8642517149
 10
37.9802104631
 20
58.8670688866
 10
38.0000431187
 20
58.8689047431
 10
38.0189123263
 20
58.8697592845
  0
LINE
  5
288
100
AcDbEntity
  8
DRAFT
100
AcDbLine
 62
7
  6
CONTINUOUS
 10
-35.8427705796
 20
-40.6463041852
 11
-35.8003722939
 21
-40.6463041852
  0
LINE
  5
289
100
AcDbEntity
  8
DRAFT
100
AcDbLine
 62
7
  6
CONTINUOUS
 10
34.0996277061
 20
-40.6463041852
 11
34.1420259918
 21
-40.6463041852
  0
LINE
  5
28A
100
AcDbEntity
  8
DRAFT
100
AcDbLine
 62
7
  6
CONTINUOUS
 10
-37.3503722939
 20
-38.6414732317
 11
-37.336408242
 21
-38.7539058994
  0
LINE
  5
28B
100
AcDbEntity
  8
RACCORDO
100
AcDbLine
 62
253
  6
CONTINUOUS
 10
-36.8294109785
 20
-44.4329141231
 11
-36.8294109785
 21
-44.7328684316
  0
LINE
  5
28C
100
AcDbEntity
  8
DRAFT
100
AcDbLine
 62
7
  6
CONTINUOUS
 10
-35.8427705796
 20
65.6384923863
 11
-35.8427705796
 21
60.2536958148
  0
LINE
  5
28D
100
AcDbEntity
  8
DRAFT
100
AcDbLine
 62
7
  6
CONTINUOUS
 10
-35.8427705796
 20
10.6884923863
 11
-35.8427705796
 21
5.3036958148
  0
LINE
  5
28E
100
AcDbEntity
  8
DRAFT
100
AcDbLine
 62
7
  6
CONTINUOUS
 10
-35.8427705796
 20
-35.2615076137
 11
-35.8427705796
 21
-40.6463041852
  0
LINE
  5
28F
100
AcDbEntity
  8
RACCORDO
100
AcDbLine
 62
253
  6
CONTINUOUS
 10
-35.8383414092
 20
-40.6418750147
 11
-35.8383414092
 21
-35.2659367841
  0
LINE
  5
290
100
AcDbEntity
  8
RACCORDO
100
AcDbLine
 62
253
  6
CONTINUOUS
 10
-35.8383414092
 20
5.3081249853
 11
-35.8383414092
 21
10.6840632159
  0
LINE
  5
291
100
AcDbEntity
  8
RACCORDO
100
AcDbLine
 62
253
  6
CONTINUOUS
 10
-35.8383414092
 20
60.2581249853
 11
-35.8383414092
 21
65.6340632159
  0
LINE
  5
292
100
AcDbEntity
  8
0
100
AcDbLine
 62
7
  6
CONTINUOUS
 10
-35.8003722939
 20
69.5960941006
 11
-35.8003722939
 21
-44.6039058994
  0
LINE
  5
293
100
AcDbEntity
  8
0
100
AcDbLine
 62
253
  6
CONTINUOUS
 10
-35.1003722939
 20
69.5960941006
 11
-35.1003722939
 21
-44.6039058994
  0
LINE
  5
294
100
AcDbEntity
  8
DRAFT
100
AcDbLine
 62
7
  6
CONTINUOUS
 10
-37.3503722939
 20
-40.3663385672
 11
-37.336408242
 21
-40.2539058994
  0
LINE
  5
295
100
AcDbEntity
  8
RACCORDO
100
AcDbLine
 62
253
  6
CONTINUOUS
 10
41.5397346619
 20
57.8996427323
 11
41.5197665747
 21
57.8894915645
  0
LWPOLYLINE
  5
296
100
AcDbEntity
  8
RACCORDO
100
AcDbPolyline
 62
7
  6
CONTINUOUS
 90
7
 70
0
 10
40.1545903499
 20
-27.7576220085
 10
40.1664676426
 20
-27.7549430063
 10
40.17710965
 20
-27.750928924
 10
40.1864735301
 20
-27.7456166222
 10
40.1945133857
 20
-27.7390499414
 10
40.2011806847
 20
-27.7312799487
 10
40.206424728
 20
-27.7223651854
  0
LWPOLYLINE
  5
297
100
AcDbEntity
  8
RACCORDO
100
AcDbPolyline
 62
7
  6
CONTINUOUS
 90
7
 70
0
 10
39.1446651387
 20
-27.2501897644
 10
39.1327877742
 20
-27.2528687557
 10
39.1221457234
 20
-27.2568828293
 10
39.1127818283
 20
-27.262195123
 10
39.1047419866
 20
-27.2687617948
 10
39.0980747299
 20
-27.2765317757
 10
39.0928307574
 20
-27.2854465233
  0
LWPOLYLINE
  5
298
100
AcDbEntity
  8
RACCORDO
100
AcDbPolyline
 62
253
  6
CONTINUOUS
 90
13
 70
0
 10
40.1493690699
 20
-27.8416376814
 10
40.131594897
 20
-27.8456218594
 10
40.113642001
 20
-27.8514391491
 10
40.0957274852
 20
-27.8592142825
 10
40.0779574734
 20
-27.869137221
 10
40.0607696215
 20
-27.8812214235
 10
40.0448310572
 20
-27.8951552284
 10
40.0303498528
 20
-27.910826561
 10
40.017533275
 20
-27.9280868443
 10
40.0068095963
 20
-27.946305544
 10
39.9982646688
 20
-27.9650604791
 10
39.9917934056
 20
-27.9842514692
 10
39.987359488
 20
-28.0036472632
  0
LWPOLYLINE
  5
299
100
AcDbEntity
  8
RACCORDO
100
AcDbPolyline
 62
253
  6
CONTINUOUS
 90
13
 70
0
 10
39.1498863423
 20
-27.1661741175
 10
39.1676605152
 20
-27.1621899395
 10
39.1856134112
 20
-27.1563726497
 10
39.203527927
 20
-27.1485975164
 10
39.2212979388
 20
-27.1386745778
 10
39.2384857907
 20
-27.1265903754
 10
39.254424355
 20
-27.1126565704
 10
39.2689055594
 20
-27.0969852378
 10
39.2817221372
 20
-27.0797249546
 10
39.2924458159
 20
-27.0615062548
 10
39.3009907434
 20
-27.0427513197
 10
39.3074620066
 20
-27.0235603297
 10
39.3118959242
 20
-27.0041645356
  0
LWPOLYLINE
  5
29A
100
AcDbEntity
  8
RACCORDO
100
AcDbPolyline
 62
253
  6
CONTINUOUS
 90
13
 70
0
 10
40.1580395798
 20
-27.8908105868
 10
40.1443627298
 20
-27.8936720219
 10
40.1309137839
 20
-27.8980782406
 10
40.117692742
 20
-27.9040292427
 10
40.1044072742
 20
-27.9116262742
 10
40.0913497104
 20
-27.9207680891
 10
40.0793970406
 20
-27.9311509498
 10
40.0686973495
 20
-27.942917493
 10
40.0591025523
 20
-27.9559250821
 10
40.0510453846
 20
-27.9694420693
 10
40.0446700914
 20
-27.9832245724
 10
40.0398324277
 20
-27.9975164736
 10
40.0365323934
 20
-28.0123177732
  0
LWPOLYLINE
  5
29B
100
AcDbEntity
  8
RACCORDO
100
AcDbPolyline
 62
253
  6
CONTINUOUS
 90
13
 70
0
 10
39.1412158324
 20
-27.1170012121
 10
39.1548926824
 20
-27.1141397769
 10
39.1683416283
 20
-27.1097335583
 10
39.1815626702
 20
-27.1037825562
 10
39.194848138
 20
-27.0961855247
 10
39.2079057018
 20
-27.0870437098
 10
39.2198583716
 20
-27.076660849
 10
39.2305580627
 20
-27.0648943058
 10
39.2401528599
 20
-27.0518867168
 10
39.2482100276
 20
-27.0383697295
 10
39.2545853208
 20
-27.0245872265
 10
39.2594229845
 20
-27.0102953252
 10
39.2627230188
 20
-26.9954940257
  0
LINE
  5
29C
100
AcDbEntity
  8
RACCORDO
100
AcDbLine
 62
253
  6
CONTINUOUS
 10
39.4288240821
 20
-28.9543237138
 11
39.4779969875
 21
-28.9456532038
  0
LINE
  5
29D
100
AcDbEntity
  8
RACCORDO
100
AcDbLine
 62
253
  6
CONTINUOUS
 10
41.1000455204
 20
-27.7247095234
 11
40.1580395798
 21
-27.8908105868
  0
LINE
  5
29E
100
AcDbEntity
  8
RACCORDO
100
AcDbLine
 62
253
  6
CONTINUOUS
 10
39.2627230188
 20
-28.0123177732
 11
39.3118959242
 21
-28.0036472633
  0
LINE
  5
29F
100
AcDbEntity
  8
RACCORDO
100
AcDbLine
 62
253
  6
CONTINUOUS
 10
41.0913750103
 20
-27.6755366181
 11
40.1493690699
 21
-27.8416376814
  0
LINE
  5
2A0
100
AcDbEntity
  8
RACCORDO
100
AcDbLine
 62
253
  6
CONTINUOUS
 10
38.2078803683
 20
-27.3322751867
 11
39.1498863423
 21
-27.1661741175
  0
LINE
  5
2A1
100
AcDbEntity
  8
RACCORDO
100
AcDbLine
 62
253
  6
CONTINUOUS
 10
40.0365323934
 20
-26.9954940257
 11
39.987359488
 21
-27.0041645356
  0
LINE
  5
2A2
100
AcDbEntity
  8
RACCORDO
100
AcDbLine
 62
253
  6
CONTINUOUS
 10
38.1992098581
 20
-27.2831022813
 11
39.1412158324
 21
-27.1170012121
  0
LINE
  5
2A3
100
AcDbEntity
  8
RACCORDO
100
AcDbLine
 62
253
  6
CONTINUOUS
 10
39.8704313242
 20
-26.0534880515
 11
39.8212584188
 21
-26.0621585614
  0
LINE
  5
2A4
100
AcDbEntity
  8
RACCORDO
100
AcDbLine
 62
7
  6
CONTINUOUS
 10
40.0779939475
 20
-27.7702625589
 11
40.1545903502
 21
-27.7576220084
  0
LINE
  5
2A5
100
AcDbEntity
  8
RACCORDO
100
AcDbLine
 62
7
  6
CONTINUOUS
 10
39.2212614647
 20
-27.2375492399
 11
39.1446650613
 21
-27.2501897906
  0
LINE
  5
2A6
100
AcDbEntity
  8
RACCORDO
100
AcDbLine
 62
253
  6
CONTINUOUS
 10
39.0779983013
 20
-27.2872968437
 11
39.0928308398
 21
-27.2854463886
  0
LINE
  5
2A7
100
AcDbEntity
  8
RACCORDO
100
AcDbLine
 62
253
  6
CONTINUOUS
 10
40.252967116
 20
-27.7166748856
 11
40.2064245915
 21
-27.7223654086
  0
LINE
  5
2A8
100
AcDbEntity
  8
RACCORDO
100
AcDbLine
 62
253
  6
CONTINUOUS
 10
40.3026171709
 20
-27.7108486075
 11
40.252967116
 21
-27.7166748856
  0
LWPOLYLINE
  5
2A9
100
AcDbEntity
  8
RACCORDO
100
AcDbPolyline
 62
253
  6
CONTINUOUS
 90
3
 70
0
 10
40.3970172909
 20
-27.7003198276
 10
40.3768680944
 20
-27.7025209331
 10
40.3026171709
 20
-27.7108486075
  0
LINE
  5
2AA
100
AcDbEntity
  8
DRAFT
100
AcDbLine
 62
7
  6
CONTINUOUS
 10
-35.8427705796
 20
-35.2615076137
 11
-35.8003722939
 21
-35.2615076137
  0
LINE
  5
2AB
100
AcDbEntity
  8
DRAFT
100
AcDbLine
 62
7
  6
CONTINUOUS
 10
34.0996277061
 20
-35.2615076137
 11
34.1420259918
 21
-35.2615076137
  0
LINE
  5
2AC
100
AcDbEntity
  8
RACCORDO
100
AcDbLine
 62
253
  6
CONTINUOUS
 10
37.844436885
 20
-33.3627992416
 11
37.5444825765
 21
-33.362799242
  0
LINE
  5
2AD
100
AcDbEntity
  8
RACCORDO
100
AcDbLine
 62
253
  6
CONTINUOUS
 10
41.4548185272
 20
-32.4733428396
 11
41.7547728357
 21
-32.4733428396
  0
LWPOLYLINE
  5
2AE
100
AcDbEntity
  8
RACCORDO
100
AcDbPolyline
 62
7
  6
CONTINUOUS
 90
9
 70
0
 10
38.0189123263
 20
-33.8775710834
 10
38.088352204
 20
-33.8800434001
 10
38.0985475862
 20
-33.8804695064
 10
38.1073584979
 20
-33.8808850288
 10
38.1147074174
 20
-33.8812875362
 10
38.120512903
 20
-33.8816830581
 10
38.1247556171
 20
-33.8820736046
 10
38.1274463365
 20
-33.8824571657
 10
38.1285902383
 20
-33.8828337413
  0
LWPOLYLINE
  5
2AF
100
AcDbEntity
  8
RACCORDO
100
AcDbPolyline
 62
7
  6
CONTINUOUS
 90
10
 70
0
 10
38.0189123263
 20
-33.8775710834
 10
38.0002192441
 20
-33.8767201396
 10
37.980598618
 20
-33.8749161973
 10
37.9601863863
 20
-33.8721592564
 10
37.939122306
 20
-33.868508089
 10
37.9175408268
 20
-33.8639039231
 10
37.8955694174
 20
-33.8581704424
 10
37.873339238
 20
-33.8512488747
 10
37.8509850833
 20
-33.8431979922
 10
37.8286359298
 20
-33.8340177949
  0
LINE
  5
2B0
100
AcDbEntity
  8
DRAFT
100
AcDbLine
 62
7
  6
CONTINUOUS
 10
-37.3503722939
 20
43.3585267683
 11
-37.336408242
 21
43.2460941006
  0
LINE
  5
2B1
100
AcDbEntity
  8
RACCORDO
100
AcDbLine
 62
7
  6
CONTINUOUS
 10
-35.8383414092
 20
5.3081249853
 11
-35.8427705796
 21
5.3036958148
  0
LWPOLYLINE
  5
2B2
100
AcDbEntity
  8
RACCORDO
100
AcDbPolyline
 62
253
  6
CONTINUOUS
 90
26
 70
0
 10
36.6442302361
 20
54.9105774859
 10
36.6448826998
 20
54.9109773266
 10
36.6456608736
 20
54.911142828
 10
36.6465798501
 20
54.9110617545
 10
36.6476581275
 20
54.9107334413
 10
36.6489062833
 20
54.9101350926
 10
36.6503356377
 20
54.9092148636
 10
36.6519787178
 20
54.9079535399
 10
36.6538527292
 20
54.9063307521
 10
36.6559560118
 20
54.9042851879
 10
36.6583222672
 20
54.901787222
 10
36.6609726985
 20
54.8988238625
 10
36.6638817297
 20
54.8953634616
 10
36.667067158
 20
54.8913831249
 10
36.6705495717
 20
54.8868781492
 10
36.6742901074
 20
54.8818587967
 10
36.6782905398
 20
54.8763145597
 10
36.682562764
 20
54.870249949
 10
36.6870624229
 20
54.8637145705
 10
36.6917735634
 20
54.8567184679
 10
36.6967006514
 20
54.8492667327
 10
36.7018141157
 20
54.8414139812
 10
36.7070914405
 20
54.8331825266
 10
36.71252988
 20
54.8245763346
 10
36.7181230828
 20
54.8156272445
 10
36.7238553003
 20
54.8063505017
  0
LINE
  5
2B3
100
AcDbEntity
  8
RACCORDO
100
AcDbLine
 62
253
  6
CONTINUOUS
 10
41.9556575376
 20
55.5854905443
 11
41.9690667348
 21
55.5930144505
  0
LINE
  5
2B4
100
AcDbEntity
  8
RACCORDO
100
AcDbLine
 62
253
  6
CONTINUOUS
 10
41.7689951677
 20
57.4734084018
 11
41.7547728357
 21
57.4655310408
  0
LINE
  5
2B5
100
AcDbEntity
  8
RACCORDO
100
AcDbLine
 62
253
  6
CONTINUOUS
 10
41.7547728357
 20
55.9861143613
 11
41.7688282775
 21
55.9931550761
  0
LINE
  5
2B6
100
AcDbEntity
  8
RACCORDO
100
AcDbLine
 62
253
  6
CONTINUOUS
 10
37.5444825765
 20
49.0060738399
 11
37.5304271347
 21
48.9990331251
  0
LINE
  5
2B7
100
AcDbEntity
  8
RACCORDO
100
AcDbLine
 62
253
  6
CONTINUOUS
 10
39.0308757555
 20
-27.2929705145
 11
39.0779983013
 21
-27.2872968437
  0
LINE
  5
2B8
100
AcDbEntity
  8
RACCORDO
100
AcDbLine
 62
253
  6
CONTINUOUS
 10
38.9612681865
 20
-27.3009872846
 11
39.0308757555
 21
-27.2929705145
  0
LINE
  5
2B9
100
AcDbEntity
  8
RACCORDO
100
AcDbLine
 62
253
  6
CONTINUOUS
 10
38.8818933301
 20
-27.3096781499
 11
38.9612681865
 21
-27.3009872846
  0
LINE
  5
2BA
100
AcDbEntity
  8
RACCORDO
100
AcDbLine
 62
253
  6
CONTINUOUS
 10
40.4850471426
 20
-27.6910077831
 11
40.3970172909
 21
-27.7003198276
  0
LINE
  5
2BB
100
AcDbEntity
  8
RACCORDO
100
AcDbLine
 62
253
  6
CONTINUOUS
 10
38.7658667102
 20
-27.3217628803
 11
38.8818933301
 21
-27.3096781499
  0
LINE
  5
2BC
100
AcDbEntity
  8
RACCORDO
100
AcDbLine
 62
253
  6
CONTINUOUS
 10
40.6416201023
 20
-27.6752583642
 11
40.4850471426
 21
-27.6910077831
  0
LINE
  5
2BD
100
AcDbEntity
  8
RACCORDO
100
AcDbLine
 62
253
  6
CONTINUOUS
 10
38.5994683376
 20
-27.3382042061
 11
38.7658667102
 21
-27.3217628803
  0
LINE
  5
2BE
100
AcDbEntity
  8
RACCORDO
100
AcDbLine
 62
253
  6
CONTINUOUS
 10
40.8591940252
 20
-27.6544837359
 11
40.6416201023
 21
-27.6752583642
  0
LINE
  5
2BF
100
AcDbEntity
  8
RACCORDO
100
AcDbLine
 62
253
  6
CONTINUOUS
 10
38.3362216367
 20
-27.362945272
 11
38.5994683376
 21
-27.3382042061
  0
LINE
  5
2C0
100
AcDbEntity
  8
RACCORDO
100
AcDbLine
 62
253
  6
CONTINUOUS
 10
40.3414490906
 20
-27.7404907465
 11
40.1545903502
 21
-27.7576220084
  0
LINE
  5
2C1
100
AcDbEntity
  8
RACCORDO
100
AcDbLine
 62
253
  6
CONTINUOUS
 10
41.1519828459
 20
-27.627695598
 11
40.8591940252
 21
-27.6544837359
  0
LINE
  5
2C2
100
AcDbEntity
  8
RACCORDO
100
AcDbLine
 62
253
  6
CONTINUOUS
 10
38.1472725743
 20
-27.3801161975
 11
38.3362216367
 21
-27.362945272
  0
LINE
  5
2C3
100
AcDbEntity
  8
RACCORDO
100
AcDbLine
 62
253
  6
CONTINUOUS
 10
38.9593018361
 20
-27.2671870118
 11
39.1446650613
 21
-27.2501897906
  0
LINE
  5
2C4
100
AcDbEntity
  8
RACCORDO
100
AcDbLine
 62
253
  6
CONTINUOUS
 10
41.0913750103
 20
-27.6755366181
 11
40.3414490906
 21
-27.7404907465
  0
LINE
  5
2C5
100
AcDbEntity
  8
RACCORDO
100
AcDbLine
 62
253
  6
CONTINUOUS
 10
38.2078803683
 20
-27.3322751867
 11
38.9593018361
 21
-27.2671870118
  0
LINE
  5
2C6
100
AcDbEntity
  8
RACCORDO
100
AcDbLine
 62
253
  6
CONTINUOUS
 10
41.1951378928
 20
-27.3765603475
 11
41.15198284
 21
-27.3801161978
  0
LINE
  5
2C7
100
AcDbEntity
  8
RACCORDO
100
AcDbLine
 62
253
  6
CONTINUOUS
 10
38.1041175251
 20
-27.6312514536
 11
38.1472725759
 21
-27.6276956038
  0
LINE
  5
2C8
100
AcDbEntity
  8
RACCORDO
100
AcDbLine
 62
253
  6
CONTINUOUS
 10
37.844436885
 20
-30.9939261601
 11
37.5444825765
 21
-30.9939261601
  0
LINE
  5
2C9
100
AcDbEntity
  8
RACCORDO
100
AcDbLine
 62
253
  6
CONTINUOUS
 10
41.4548185272
 20
-30.9939261601
 11
41.7547728357
 21
-30.9939261601
  0
LINE
  5
2CA
100
AcDbEntity
  8
RACCORDO
100
AcDbLine
 62
253
  6
CONTINUOUS
 10
36.8174476323
 20
-29.6528911958
 11
36.6204860817
 21
-29.6528911958
  0
LINE
  5
2CB
100
AcDbEntity
  8
RACCORDO
100
AcDbLine
 62
253
  6
CONTINUOUS
 10
36.8174476323
 20
-29.2607862149
 11
36.6204860817
 21
-29.2607862149
  0
LWPOLYLINE
  5
2CC
100
AcDbEntity
  8
RACCORDO
100
AcDbPolyline
 62
253
  6
CONTINUOUS
 90
11
 70
0
 10
33.2386033471
 20
-44.642835849
 10
33.2363652935
 20
-44.6420706939
 10
33.2315874783
 20
-44.6413187796
 10
33.2242699016
 20
-44.6405801061
 10
33.2143732677
 20
-44.6398535325
 10
33.2019368724
 20
-44.6391401997
 10
33.1870786021
 20
-44.6384435307
 10
33.1697621004
 20
-44.6377620251
 10
33.1500237239
 20
-44.6370971833
 10
33.1280904283
 20
-44.6364569293
 10
33.077582331
 20
-44.6352509369
  0
LINE
  5
2CD
100
AcDbEntity
  8
RACCORDO
100
AcDbLine
 62
253
  6
CONTINUOUS
 10
33.2386033471
 20
69.6350240502
 11
33.3286359298
 21
69.7250566328
  0
LINE
  5
2CE
100
AcDbEntity
  8
RACCORDO
100
AcDbLine
 62
253
  6
CONTINUOUS
 10
37.6286663907
 20
69.7250566328
 11
37.6497038585
 21
69.7460941006
  0
LINE
  5
2CF
100
AcDbEntity
  8
RACCORDO
100
AcDbLine
 62
7
  6
CONTINUOUS
 10
34.1420259918
 20
65.6384923863
 11
34.1375968214
 21
65.6340632159
  0
LINE
  5
2D0
100
AcDbEntity
  8
RACCORDO
100
AcDbLine
 62
253
  6
CONTINUOUS
 10
38.1285902383
 20
69.2251327852
 11
38.1496277061
 21
69.246170253
  0
LWPOLYLINE
  5
2D1
100
AcDbEntity
  8
RACCORDO
100
AcDbPolyline
 62
253
  6
CONTINUOUS
 90
10
 70
0
 10
36.8174476323
 20
50.7392153462
 10
36.8321554003
 20
50.7484878451
 10
36.846875074
 20
50.7575896274
 10
36.861432186
 20
50.7665001531
 10
36.8755931141
 20
50.7752546959
 10
36.8892516388
 20
50.7837878571
 10
36.9024239827
 20
50.7919284873
 10
36.9150069858
 20
50.7996126372
 10
36.9267877344
 20
50.8068884855
 10
36.937624763
 20
50.8137561941
  0
LWPOLYLINE
  5
2D2
100
AcDbEntity
  8
RACCORDO
100
AcDbPolyline
 62
7
  6
CONTINUOUS
 90
7
 70
0
 10
39.4311683927
 20
53.0528911007
 10
39.4221907846
 20
53.0475588858
 10
39.4143861268
 20
53.0408373551
 10
39.4078109712
 20
53.0327785328
 10
39.4025139962
 20
53.0234318454
 10
39.3985362819
 20
53.0128436307
 10
39.3959115816
 20
53.0010566989
  0
LWPOLYLINE
  5
2D3
100
AcDbEntity
  8
RACCORDO
100
AcDbPolyline
 62
7
  6
CONTINUOUS
 90
7
 70
0
 10
39.8680869183
 20
51.9392970179
 10
39.8770645722
 20
51.9446292811
 10
39.8848692621
 20
51.9513508445
 10
39.8914444367
 20
51.9594096829
 10
39.8967414188
 20
51.9687563695
 10
39.9007191296
 20
51.9793445661
 10
39.9033438171
 20
51.9911314625
  0
LINE
  5
2D4
100
AcDbEntity
  8
RACCORDO
100
AcDbLine
 62
253
  6
CONTINUOUS
 10
37.3435978746
 20
49.4066976568
 11
37.3301886774
 21
49.3991737506
  0
LWPOLYLINE
  5
2D5
100
AcDbEntity
  8
RACCORDO
100
AcDbPolyline
 62
253
  6
CONTINUOUS
 90
22
 70
0
 10
38.0408157018
 20
-21.4450752589
 10
38.0261966608
 20
-21.4458895935
 10
38.0118280533
 20
-21.4477213675
 10
37.9977098792
 20
-21.4505705808
 10
37.9837747722
 20
-21.4544612157
 10
37.9700900986
 20
-21.45936929
 10
37.9568579575
 20
-21.4652228569
 10
37.9440747568
 20
-21.4720442222
 10
37.9317440885
 20
-21.4798110802
 10
37.9200788283
 20
-21.4883845666
 10
37.9091146109
 20
-21.4977441323
 10
37.8988158016
 20
-21.5079103265
 10
37.8892883719
 20
-21.5188059329
 10
37.8805173679
 20
-21.5304320852
 10
37.8725177435
 20
-21.5427876498
 10
37.8654403317
 20
-21.5557920096
 10
37.8592690068
 20
-21.5695023323
 10
37.8540198944
 20
-21.5838614502
 10
37.8498922051
 20
-21.5986172436
 10
37.8469523421
 20
-21.6136856726
 10
37.8451339021
 20
-21.6291507772
 10
37.844436885
 20
-21.6450125573
  0
LWPOLYLINE
  5
2D6
100
AcDbEntity
  8
RACCORDO
100
AcDbPolyline
 62
253
  6
CONTINUOUS
 90
22
 70
0
 10
38.035429619
 20
-21.1451693121
 10
37.9991980512
 20
-21.1471433456
 10
37.9632192988
 20
-21.1517375284
 10
37.9276822821
 20
-21.1589245288
 10
37.892783709
 20
-21.1686600839
 10
37.8586951066
 20
-21.1808918214
 10
37.8255645673
 20
-21.1955670946
 10
37.7935383628
 20
-21.2126295266
 10
37.7628185644
 20
-21.2319801681
 10
37.7336231511
 20
-21.2534776609
 10
37.7061779769
 20
-21.2769277499
 10
37.6805306109
 20
-21.3022602489
 10
37.6566474261
 20
-21.3295314852
 10
37.6346829537
 20
-21.358632756
 10
37.6147940334
 20
-21.3894307946
 10
37.5970216271
 20
-21.4219910794
 10
37.581504946
 20
-21.456286252
 10
37.5684793842
 20
-21.4920639975
 10
37.5581391939
 20
-21.5290422651
 10
37.5506224828
 20
-21.5669862302
 10
37.5460360703
 20
-21.6057186159
 10
37.5444825773
 20
-21.6450125581
  0
LINE
  5
2D7
100
AcDbEntity
  8
RACCORDO
100
AcDbLine
 62
7
  6
CONTINUOUS
 10
38.0985475862
 20
-21.1273422924
 11
38.0768199856
 21
-21.1282075201
  0
LINE
  5
2D8
100
AcDbEntity
  8
RACCORDO
100
AcDbLine
 62
7
  6
CONTINUOUS
 10
38.0768199856
 20
-21.1282075201
 11
38.0189123263
 21
-21.1302407155
  0
LINE
  5
2D9
100
AcDbEntity
  8
0
100
AcDbLine
 62
7
  6
CONTINUOUS
 10
-43.2003240111
 20
-25.8039058994
 11
-37.9270481307
 21
-25.8039058994
  0
LINE
  5
2DA
100
AcDbEntity
  8
RACCORDO
100
AcDbLine
 62
7
  6
CONTINUOUS
 10
-37.9270481307
 20
-25.8039058994
 11
-37.0293805176
 21
-25.8039058994
  0
LINE
  5
2DB
100
AcDbEntity
  8
RACCORDO
100
AcDbLine
 62
253
  6
CONTINUOUS
 10
36.6204860817
 20
-25.7470346164
 11
36.8174476323
 21
-25.7470346164
  0
LINE
  5
2DC
100
AcDbEntity
  8
RACCORDO
100
AcDbLine
 62
253
  6
CONTINUOUS
 10
36.8174476323
 20
-25.3549206031
 11
36.6204860817
 21
-25.3549206031
  0
LINE
  5
2DD
100
AcDbEntity
  8
RACCORDO
100
AcDbLine
 62
253
  6
CONTINUOUS
 10
37.844436885
 20
-24.0138856387
 11
37.5444825765
 21
-24.0138856387
  0
LINE
  5
2DE
100
AcDbEntity
  8
RACCORDO
100
AcDbLine
 62
253
  6
CONTINUOUS
 10
41.4548185272
 20
-24.0138856387
 11
41.7547728357
 21
-24.0138856387
  0
LINE
  5
2DF
100
AcDbEntity
  8
RACCORDO
100
AcDbLine
 62
253
  6
CONTINUOUS
 10
41.4548185272
 20
-22.5344689592
 11
41.7547728357
 21
-22.5344689584
  0
LINE
  5
2E0
100
AcDbEntity
  8
0
100
AcDbLine
 62
7
  6
CONTINUOUS
 10
-37.9270481307
 20
-21.8039058994
 11
-43.2003240111
 21
-21.8039058994
  0
LINE
  5
2E1
100
AcDbEntity
  8
RACCORDO
100
AcDbLine
 62
253
  6
CONTINUOUS
 10
37.844436885
 20
-21.6450125573
 11
37.5444825765
 21
-21.6450125573
  0
LINE
  5
2E2
100
AcDbEntity
  8
RACCORDO
100
AcDbLine
 62
253
  6
CONTINUOUS
 10
41.1951378979
 20
-27.6312514493
 11
41.1519828459
 21
-27.6276955987
  0
LINE
  5
2E3
100
AcDbEntity
  8
RACCORDO
100
AcDbLine
 62
253
  6
CONTINUOUS
 10
38.1041175208
 20
-27.376560347
 11
38.1472725806
 21
-27.3801161962
  0
LINE
  5
2E4
100
AcDbEntity
  8
RACCORDO
100
AcDbLine
 62
253
  6
CONTINUOUS
 10
38.2078803709
 20
-27.6755366126
 11
38.5679951703
 21
-27.7063644137
  0
LINE
  5
2E5
100
AcDbEntity
  8
RACCORDO
100
AcDbLine
 62
253
  6
CONTINUOUS
 10
41.0913750331
 20
-27.3322751848
 11
40.7326896068
 21
-27.301570602
  0
LINE
  5
2E6
100
AcDbEntity
  8
RACCORDO
100
AcDbLine
 62
253
  6
CONTINUOUS
 10
40.7326896068
 20
-27.301570602
 11
40.284742765
 21
-27.2622102252
  0
LINE
  5
2E7
100
AcDbEntity
  8
RACCORDO
100
AcDbLine
 62
253
  6
CONTINUOUS
 10
38.5679951703
 20
-27.7063644137
 11
39.0166549081
 21
-27.7457958825
  0
LINE
  5
2E8
100
AcDbEntity
  8
RACCORDO
100
AcDbLine
 62
253
  6
CONTINUOUS
 10
38.1472725761
 20
-27.6276956058
 11
38.4735043689
 21
-27.6576189648
  0
LINE
  5
2E9
100
AcDbEntity
  8
RACCORDO
100
AcDbLine
 62
253
  6
CONTINUOUS
 10
41.1519828398
 20
-27.3801161957
 11
40.8262159501
 21
-27.3502365091
  0
LINE
  5
2EA
100
AcDbEntity
  8
RACCORDO
100
AcDbLine
 62
253
  6
CONTINUOUS
 10
39.0166549081
 20
-27.7457958825
 11
39.1446650616
 21
-27.7576220083
  0
LINE
  5
2EB
100
AcDbEntity
  8
RACCORDO
100
AcDbLine
 62
253
  6
CONTINUOUS
 10
40.284742765
 20
-27.2622102252
 11
40.1545903502
 21
-27.2501897905
  0
LINE
  5
2EC
100
AcDbEntity
  8
RACCORDO
100
AcDbLine
 62
253
  6
CONTINUOUS
 10
38.4735043689
 20
-27.6576189648
 11
38.6866407786
 21
-27.6781169813
  0
LINE
  5
2ED
100
AcDbEntity
  8
RACCORDO
100
AcDbLine
 62
253
  6
CONTINUOUS
 10
40.8262159501
 20
-27.3502365091
 11
40.613284783
 21
-27.3297609531
  0
LINE
  5
2EE
100
AcDbEntity
  8
RACCORDO
100
AcDbLine
 62
253
  6
CONTINUOUS
 10
38.6866407786
 20
-27.6781169813
 11
38.8151849681
 21
-27.6911089692
  0
LINE
  5
2EF
100
AcDbEntity
  8
RACCORDO
100
AcDbLine
 62
253
  6
CONTINUOUS
 10
40.613284783
 20
-27.3297609531
 11
40.4847808983
 21
-27.3167764408
  0
LWPOLYLINE
  5
2F0
100
AcDbEntity
  8
RACCORDO
100
AcDbPolyline
 62
253
  6
CONTINUOUS
 90
22
 70
0
 10
39.5222821562
 20
-29.0494160912
 10
39.5173224751
 20
-29.0488960325
 10
39.5123072946
 20
-29.0480401852
 10
39.5072366145
 20
-29.0468485494
 10
39.5020920805
 20
-29.045336794
 10
39.4968920469
 20
-29.04348925
 10
39.4916915772
 20
-29.0412589105
 10
39.4864865243
 20
-29.0386444307
 10
39.4812810352
 20
-29.0356471554
 10
39.4761426141
 20
-29.0322241116
 10
39.4710710504
 20
-29.0283823516
 10
39.4660665548
 20
-29.024114823
 10
39.461197264
 20
-29.0193573957
 10
39.4564411022
 20
-29.0140952869
 10
39.4518201452
 20
-29.0083432794
 10
39.4474687576
 20
-29.0020815909
 10
39.4433749137
 20
-28.9952830675
 10
39.439550639
 20
-28.9879748631
 10
39.4361663744
 20
-28.9802186575
 10
39.4332789336
 20
-28.9720350108
 10
39.4308315028
 20
-28.9634033629
 10
39.4288240821
 20
-28.9543237138
  0
LWPOLYLINE
  5
2F1
100
AcDbEntity
  8
RACCORDO
100
AcDbPolyline
 62
253
  6
CONTINUOUS
 90
22
 70
0
 10
39.7769732585
 20
-25.9583957141
 10
39.7819329386
 20
-25.958915775
 10
39.7869481183
 20
-25.9597716236
 10
39.7920187976
 20
-25.9609632599
 10
39.7971633309
 20
-25.9624750146
 10
39.8023633638
 20
-25.9643225569
 10
39.807563833
 20
-25.9665528947
 10
39.8127688857
 20
-25.9691673728
 10
39.8179743747
 20
-25.9721646463
 10
39.8231127956
 20
-25.9755876882
 10
39.8281843593
 20
-25.9794294462
 10
39.8331888549
 20
-25.9836969726
 10
39.8380581456
 20
-25.9884543975
 10
39.8428143071
 20
-25.9937165035
 10
39.8474352637
 20
-25.999468508
 10
39.851786651
 20
-26.0057301934
 10
39.8558804946
 20
-26.0125287137
 10
39.859704769
 20
-26.0198369149
 10
39.8630890332
 20
-26.0275931172
 10
39.8659764737
 20
-26.0357767608
 10
39.868423904
 20
-26.0444084056
 10
39.8704313242
 20
-26.0534880515
  0
LINE
  5
2F2
100
AcDbEntity
  8
RACCORDO
100
AcDbLine
 62
253
  6
CONTINUOUS
 10
40.4847808983
 20
-27.3167764408
 11
40.3968761884
 21
-27.3074770485
  0
LINE
  5
2F3
100
AcDbEntity
  8
RACCORDO
100
AcDbLine
 62
253
  6
CONTINUOUS
 10
38.8151849681
 20
-27.6911089692
 11
38.9030906192
 21
-27.7004116301
  0
LINE
  5
2F4
100
AcDbEntity
  8
RACCORDO
100
AcDbLine
 62
253
  6
CONTINUOUS
 10
38.9030906192
 20
-27.7004116301
 11
38.9796824322
 21
-27.7089109799
  0
LINE
  5
2F5
100
AcDbEntity
  8
RACCORDO
100
AcDbLine
 62
253
  6
CONTINUOUS
 10
40.3968761884
 20
-27.3074770485
 11
40.3202746126
 21
-27.2989797139
  0
LINE
  5
2F6
100
AcDbEntity
  8
RACCORDO
100
AcDbLine
 62
253
  6
CONTINUOUS
 10
40.3202746126
 20
-27.2989797139
 11
40.2691727821
 21
-27.2930717598
  0
LINE
  5
2F7
100
AcDbEntity
  8
RACCORDO
100
AcDbLine
 62
253
  6
CONTINUOUS
 10
38.9796824322
 20
-27.7089109799
 11
39.0309658069
 21
-27.7148518171
  0
LWPOLYLINE
  5
2F8
100
AcDbEntity
  8
RACCORDO
100
AcDbPolyline
 62
253
  6
CONTINUOUS
 90
3
 70
0
 10
39.0309658069
 20
-27.7148518171
 10
39.0780163404
 20
-27.7205173849
 10
39.0928308262
 20
-27.722365409
  0
LWPOLYLINE
  5
2F9
100
AcDbEntity
  8
RACCORDO
100
AcDbPolyline
 62
253
  6
CONTINUOUS
 90
3
 70
0
 10
40.2691727821
 20
-27.2930717598
 10
40.2216369762
 20
-27.287330586
 10
40.2064246076
 20
-27.2854463917
  0
LWPOLYLINE
  5
2FA
100
AcDbEntity
  8
RACCORDO
100
AcDbPolyline
 62
253
  6
CONTINUOUS
 90
22
 70
0
 10
39.5258380022
 20
-29.0062610987
 10
39.5233621383
 20
-29.0058710698
 10
39.5208382205
 20
-29.0052828282
 10
39.5182738581
 20
-29.0044897435
 10
39.5156787569
 20
-29.0034892191
 10
39.5130609319
 20
-29.0022714707
 10
39.510426874
 20
-29.0008191582
 10
39.5077888774
 20
-28.999126653
 10
39.5051579417
 20
-28.9971889887
 10
39.5025406417
 20
-28.9949893598
 10
39.4999566414
 20
-28.9925279206
 10
39.4974159459
 20
-28.9897967955
 10
39.494915383
 20
-28.9867643564
 10
39.4924710796
 20
-28.983418101
 10
39.4901102151
 20
-28.9797622979
 10
39.4878520433
 20
-28.9757887122
 10
39.4857191816
 20
-28.9714864998
 10
39.4837424007
 20
-28.9668680872
 10
39.481954439
 20
-28.9619635109
 10
39.4803836942
 20
-28.9567893282
 10
39.4790555527
 20
-28.951347963
 10
39.4779969875
 20
-28.9456532038
  0
LINE
  5
2FB
100
AcDbEntity
  8
RACCORDO
100
AcDbLine
 62
7
  6
CONTINUOUS
 10
39.1446650616
 20
-27.7576220083
 11
39.2212614647
 21
-27.7702625589
  0
LINE
  5
2FC
100
AcDbEntity
  8
RACCORDO
100
AcDbLine
 62
253
  6
CONTINUOUS
 10
39.8704313263
 20
-28.9543237356
 11
39.8212584209
 21
-28.9456532256
  0
LWPOLYLINE
  5
2FD
100
AcDbEntity
  8
RACCORDO
100
AcDbPolyline
 62
7
  6
CONTINUOUS
 90
13
 70
0
 10
37.3301886774
 20
55.5930144505
 10
37.3604265073
 20
55.6176042421
 10
37.3883941975
 20
55.6441177953
 10
37.4140917481
 20
55.67255511
 10
37.4376500254
 20
55.7031092286
 10
37.458938163
 20
55.7355871088
 10
37.4775635624
 20
55.7694096235
 10
37.4934763247
 20
55.8046159047
 10
37.5067263487
 20
55.8411668204
 10
37.5170707319
 20
55.8783658477
 10
37.524428507
 20
55.9159808123
 10
37.5288806412
 20
55.9542438884
 10
37.5304271347
 20
55.9931550761
  0
LWPOLYLINE
  5
2FE
100
AcDbEntity
  8
RACCORDO
100
AcDbPolyline
 62
253
  6
CONTINUOUS
 90
16
 70
0
 10
41.3608160228
 20
47.3570729509
 10
41.3716262582
 20
47.3643491158
 10
41.3818516314
 20
47.3722098805
 10
41.3914921425
 20
47.380655245
 10
41.4005558791
 20
47.38967883
 10
41.4090347536
 20
47.3992870148
 10
41.4169045029
 20
47.4094989376
 10
41.4242013631
 20
47.4203238731
 10
41.4308890983
 20
47.4317525465
 10
41.4368347371
 20
47.4437762714
 10
41.4420621071
 20
47.4564566027
 10
41.4465473808
 20
47.4697319855
 10
41.4500861049
 20
47.4834090679
 10
41.4526101285
 20
47.4974233991
 10
41.4541876026
 20
47.51183943
 10
41.4548185272
 20
47.5266571604
  0
LWPOLYLINE
  5
2FF
100
AcDbEntity
  8
RACCORDO
100
AcDbPolyline
 62
253
  6
CONTINUOUS
 90
16
 70
0
 10
41.5197665747
 20
47.1026966367
 10
41.5466365092
 20
47.1207251427
 10
41.5722300859
 20
47.140409479
 10
41.596448833
 20
47.161656829
 10
41.6191081068
 20
47.1842698315
 10
41.6402294123
 20
47.2082325474
 10
41.6599754271
 20
47.2337684478
 10
41.678238409
 20
47.2608527116
 10
41.6948542577
 20
47.2893686763
 10
41.709800588
 20
47.3194620174
 10
41.7229464198
 20
47.3511680824
 10
41.7340566065
 20
47.3842736383
 10
41.7429329921
 20
47.4185418
 10
41.7494269498
 20
47.4537873666
 10
41.7534151237
 20
47.4898855061
 10
41.7547728355
 20
47.5266571605
  0
LWPOLYLINE
  5
300
100
AcDbEntity
  8
RACCORDO
100
AcDbPolyline
 62
253
  6
CONTINUOUS
 90
22
 70
0
 10
39.7734174132
 20
-26.0015507237
 10
39.7758932759
 20
-26.0019407552
 10
39.7784171927
 20
-26.0025289982
 10
39.7809815544
 20
-26.0033220832
 10
39.7835766551
 20
-26.0043226066
 10
39.7861944798
 20
-26.005540353
 10
39.7888285375
 20
-26.0069926633
 10
39.7914665338
 20
-26.0086851664
 10
39.7940974694
 20
-26.0106228283
 10
39.7967147694
 20
-26.0128224546
 10
39.7992987695
 20
-26.015283891
 10
39.8018394649
 20
-26.0180150131
 10
39.8043400276
 20
-26.0210474488
 10
39.8067843306
 20
-26.0243937004
 10
39.8091451947
 20
-26.0280494993
 10
39.8114033661
 20
-26.0320230807
 10
39.8135362274
 20
-26.0363252886
 10
39.8155130078
 20
-26.0409436966
 10
39.8173009691
 20
-26.0458482682
 10
39.8188717133
 20
-26.0510224462
 10
39.8201998542
 20
-26.0564638068
 10
39.8212584188
 20
-26.0621585614
  0
LINE
  5
301
100
AcDbEntity
  8
RACCORDO
100
AcDbLine
 62
7
  6
CONTINUOUS
 10
40.1545903502
 20
-27.2501897905
 11
40.0779939475
 21
-27.2375492399
  0
LINE
  5
302
100
AcDbEntity
  8
RACCORDO
100
AcDbLine
 62
253
  6
CONTINUOUS
 10
39.1412158324
 20
-27.8908105868
 11
38.1992098618
 21
-27.7247095182
  0
LINE
  5
303
100
AcDbEntity
  8
RACCORDO
100
AcDbLine
 62
253
  6
CONTINUOUS
 10
40.0365323934
 20
-28.0123177732
 11
39.987359488
 21
-28.0036472632
  0
LINE
  5
304
100
AcDbEntity
  8
RACCORDO
100
AcDbLine
 62
253
  6
CONTINUOUS
 10
39.1498863423
 20
-27.8416376814
 11
38.2078803709
 21
-27.6755366126
  0
LINE
  5
305
100
AcDbEntity
  8
RACCORDO
100
AcDbLine
 62
253
  6
CONTINUOUS
 10
40.1493690699
 20
-27.1661741175
 11
41.0913750331
 21
-27.3322751848
  0
LINE
  5
306
100
AcDbEntity
  8
RACCORDO
100
AcDbLine
 62
253
  6
CONTINUOUS
 10
39.2627230188
 20
-26.9954940257
 11
39.3118959242
 21
-27.0041645356
  0
LINE
  5
307
100
AcDbEntity
  8
RACCORDO
100
AcDbLine
 62
253
  6
CONTINUOUS
 10
40.1580395798
 20
-27.1170012121
 11
41.1000455422
 21
-27.2831022792
  0
LINE
  5
308
100
AcDbEntity
  8
RACCORDO
100
AcDbLine
 62
253
  6
CONTINUOUS
 10
39.4288240874
 20
-26.0534880551
 11
39.4779969928
 21
-26.062158565
  0
LWPOLYLINE
  5
309
100
AcDbEntity
  8
RACCORDO
100
AcDbPolyline
 62
253
  6
CONTINUOUS
 90
19
 70
0
 10
38.2078803717
 20
-27.6755366127
 10
38.2017167637
 20
-27.6743767115
 10
38.195835249
 20
-27.6728974407
 10
38.1902541821
 20
-27.6711297021
 10
38.1849849417
 20
-27.669106157
 10
38.180041776
 20
-27.6668576369
 10
38.1754433067
 20
-27.6644103939
 10
38.1711914371
 20
-27.6617868915
 10
38.1672949645
 20
-27.6590203977
 10
38.1637775981
 20
-27.6561531163
 10
38.1606575514
 20
-27.6532326201
 10
38.1579050245
 20
-27.6502678327
 10
38.1554735039
 20
-27.6472376043
 10
38.1533635435
 20
-27.6441730549
 10
38.1515690621
 20
-27.6410790901
 10
38.150053962
 20
-27.6378820181
 10
38.1488198249
 20
-27.6345623491
 10
38.1478894511
 20
-27.6311621786
 10
38.1472725384
 20
-27.6276956081
  0
LWPOLYLINE
  5
30A
100
AcDbEntity
  8
RACCORDO
100
AcDbPolyline
 62
253
  6
CONTINUOUS
 90
19
 70
0
 10
41.0913750323
 20
-27.3322751847
 10
41.0975386424
 20
-27.3334350861
 10
41.1034201592
 20
-27.3349143572
 10
41.1090012282
 20
-27.3366820959
 10
41.1142704707
 20
-27.3387056412
 10
41.1192136384
 20
-27.3409541613
 10
41.1238121097
 20
-27.3434014045
 10
41.1280639814
 20
-27.3460249071
 10
41.131960456
 20
-27.3487914013
 10
41.1354778243
 20
-27.3516586831
 10
41.1385978728
 20
-27.3545791799
 10
41.1413504012
 20
-27.357543968
 10
41.1437819232
 20
-27.360574197
 10
41.1458918844
 20
-27.3636387468
 10
41.1476863666
 20
-27.3667327118
 10
41.1492014668
 20
-27.3699297838
 10
41.1504356035
 20
-27.3732494526
 10
41.1513659764
 20
-27.3766496229
 10
41.1519828877
 20
-27.380116193
  0
LWPOLYLINE
  5
30B
100
AcDbEntity
  8
RACCORDO
100
AcDbPolyline
 62
7
  6
CONTINUOUS
 90
13
 70
0
 10
39.2212614647
 20
-27.7702625589
 10
39.2415530752
 20
-27.7747071386
 10
39.261129797
 20
-27.7811935702
 10
39.2797974677
 20
-27.7896221631
 10
39.297356205
 20
-27.7998605497
 10
39.3136640609
 20
-27.8117860816
 10
39.3286233487
 20
-27.8253080566
 10
39.3420757635
 20
-27.8402731859
 10
39.3539050916
 20
-27.8565321936
 10
39.36405753
 20
-27.8740201187
 10
39.3724204677
 20
-27.8926102694
 10
39.3788569418
 20
-27.9120915964
 10
39.3832710466
 20
-27.9322721408
  0
LWPOLYLINE
  5
30C
100
AcDbEntity
  8
RACCORDO
100
AcDbPolyline
 62
7
  6
CONTINUOUS
 90
13
 70
0
 10
40.0779939475
 20
-27.2375492399
 10
40.057702337
 20
-27.2331046602
 10
40.0381256152
 20
-27.2266182287
 10
40.0194579445
 20
-27.2181896358
 10
40.0018992072
 20
-27.2079512492
 10
39.9855913513
 20
-27.1960257173
 10
39.9706320635
 20
-27.1825037423
 10
39.9571796487
 20
-27.1675386129
 10
39.9453503206
 20
-27.1512796053
 10
39.9351978822
 20
-27.1337916801
 10
39.9268349445
 20
-27.1152015295
 10
39.9203984704
 20
-27.0957202024
 10
39.9159843656
 20
-27.075539658
  0
LWPOLYLINE
  5
30D
100
AcDbEntity
  8
RACCORDO
100
AcDbPolyline
 62
253
  6
CONTINUOUS
 90
19
 70
0
 10
38.1992098618
 20
-27.7247095182
 10
38.1893761373
 20
-27.722501983
 10
38.1800502773
 20
-27.7197707236
 10
38.1712322819
 20
-27.71651574
 10
38.1629036117
 20
-27.7126802376
 10
38.1550828059
 20
-27.708321011
 10
38.1478254824
 20
-27.7036084441
 10
38.1411384915
 20
-27.6985345091
 10
38.1350149828
 20
-27.6931072336
 10
38.1294900226
 20
-27.6875210845
 10
38.1246038155
 20
-27.681824296
 10
38.1203161568
 20
-27.6759686339
 10
38.1165414992
 20
-27.6700038613
 10
38.1132653251
 20
-27.6639751579
 10
38.110502152
 20
-27.657837344
 10
38.108209985
 20
-27.6515046442
 10
38.1063748257
 20
-27.6449484667
 10
38.1050106724
 20
-27.6381974031
 10
38.1041175251
 20
-27.6312514536
  0
LWPOLYLINE
  5
30E
100
AcDbEntity
  8
RACCORDO
100
AcDbPolyline
 62
253
  6
CONTINUOUS
 90
19
 70
0
 10
41.1000455422
 20
-27.2831022792
 10
41.1098792679
 20
-27.2853098145
 10
41.119205129
 20
-27.288041074
 10
41.1280231258
 20
-27.2912960576
 10
41.1363517973
 20
-27.2951315598
 10
41.1441726044
 20
-27.2994907862
 10
41.1514299294
 20
-27.3042033532
 10
41.158116922
 20
-27.3092772885
 10
41.1642404326
 20
-27.3147045644
 10
41.1697653946
 20
-27.3202907143
 10
41.1746516035
 20
-27.3259875039
 10
41.1789392639
 20
-27.3318431674
 10
41.1827139228
 20
-27.3378079411
 10
41.1859900979
 20
-27.3438366452
 10
41.1887532715
 20
-27.3499744594
 10
41.1910454383
 20
-27.3563071592
 10
41.1928805966
 20
-27.3628633364
 10
41.1942447481
 20
-27.3696143992
 10
41.1951378928
 20
-27.3765603475
  0
LWPOLYLINE
  5
30F
100
AcDbEntity
  8
RACCORDO
100
AcDbPolyline
 62
253
  6
CONTINUOUS
 90
43
 70
0
 10
36.937624734
 20
-29.1862453359
 10
36.9297051238
 20
-29.1843981696
 10
36.9215205543
 20
-29.1827373824
 10
36.9130891234
 20
-29.1812646077
 10
36.9044279096
 20
-29.1799798358
 10
36.8955570427
 20
-29.1788859282
 10
36.8864998438
 20
-29.1779884576
 10
36.8772755101
 20
-29.1772890074
 10
36.8679041248
 20
-29.1767877029
 10
36.8584110145
 20
-29.1764874142
 10
36.8488165373
 20
-29.1763892351
 10
36.8391412894
 20
-29.1764926826
 10
36.8294115252
 20
-29.1767977267
 10
36.8196484076
 20
-29.1773049246
 10
36.8098729939
 20
-29.178013238
 10
36.8001117964
 20
-29.1789197003
 10
36.7903863764
 20
-29.1800243091
 10
36.7807182385
 20
-29.1813254408
 10
36.7711340418
 20
-29.1828171203
 10
36.7616558118
 20
-29.184498648
 10
36.7523048472
 20
-29.1863678054
 10
36.7431067145
 20
-29.1884157285
 10
36.7340829983
 20
-29.1906410366
 10
36.7252549034
 20
-29.1930407924
 10
36.7166470955
 20
-29.1956031522
 10
36.7082769157
 20
-29.1983272456
 10
36.7001683101
 20
-29.2012081481
 10
36.6923540571
 20
-29.2042269389
 10
36.6848526976
 20
-29.2073803398
 10
36.6776810759
 20
-29.2106636161
 10
36.6708657522
 20
-29.214054477
 10
36.6644334547
 20
-29.2175411112
 10
36.6583830941
 20
-29.2211254183
 10
36.6527013878
 20
-29.2248057414
 10
36.6473940612
 20
-29.2285851308
 10
36.6424879661
 20
-29.2324514909
 10
36.6380032162
 20
-29.236380546
 10
36.6339523606
 20
-29.2403658409
 10
36.6303437263
 20
-29.2444031433
 10
36.627186704
 20
-29.2484710198
 10
36.6244881644
 20
-29.2525585609
 10
36.622253253
 20
-29.2566654906
 10
36.6204860792
 20
-29.260786215
  0
LINE
  5
310
100
AcDbEntity
  8
RACCORDO
100
AcDbLine
 62
7
  6
CONTINUOUS
 10
-35.8383414092
 20
10.6840632159
 11
-35.8427705796
 21
10.6884923863
  0
LINE
  5
311
100
AcDbEntity
  8
0
100
AcDbLine
 62
7
  6
CONTINUOUS
 10
-10.5603826138
 20
-5.9039058994
 11
-10.558062904
 21
-5.9641904633
  0
LINE
  5
312
100
AcDbEntity
  8
0
100
AcDbLine
 62
7
  6
CONTINUOUS
 10
-10.5603826138
 20
30.8960941006
 11
-10.5603826138
 21
-5.9039058994
  0
LINE
  5
313
100
AcDbEntity
  8
ASSI
100
AcDbLine
 62
7
  6
CONTINUOUS
 10
-10.5503722939
 20
-5.9039058994
 11
-10.5503722939
 21
30.8960941006
  0
LINE
  5
314
100
AcDbEntity
  8
0
100
AcDbLine
 62
7
  6
CONTINUOUS
 10
-10.5580035103
 20
30.9564367994
 11
-10.5603826138
 21
30.8960941006
  0
LINE
  5
315
100
AcDbEntity
  8
RACCORDO
100
AcDbLine
 62
7
  6
CONTINUOUS
 10
38.1496277061
 20
58.8960941006
 11
38.1285902383
 21
58.8750219425
  0
LWPOLYLINE
  5
316
100
AcDbEntity
  8
RACCORDO
100
AcDbPolyline
 62
253
  6
CONTINUOUS
 90
39
 70
0
 10
36.6031611167
 20
54.7853362528
 10
36.6036476882
 20
54.7858217853
 10
36.6041463358
 20
54.786171172
 10
36.6046570596
 20
54.7863844129
 10
36.6051784809
 20
54.7864760843
 10
36.6057119785
 20
54.7864316099
 10
36.6062616879
 20
54.7862072613
 10
36.6068298252
 20
54.7858075128
 10
36.6074141744
 20
54.7852278901
 10
36.6080122238
 20
54.7844112418
 10
36.6086262901
 20
54.783352572
 10
36.6092540566
 20
54.7820568767
 10
36.6098860606
 20
54.7804819919
 10
36.6105228921
 20
54.7786176431
 10
36.6111639612
 20
54.7764741048
 10
36.6117980358
 20
54.7740400373
 10
36.6124247557
 20
54.7713043728
 10
36.613044481
 20
54.768278179
 10
36.6136470609
 20
54.7649833196
 10
36.6142311826
 20
54.761415358
 10
36.6147981587
 20
54.7575787307
 10
36.6153417761
 20
54.7535086116
 10
36.6158608527
 20
54.749207359
 10
36.6163565705
 20
54.7446726146
 10
36.6168262623
 20
54.7399324761
 10
36.6172696326
 20
54.7349869713
 10
36.6176869768
 20
54.7298360726
 10
36.6180765139
 20
54.7245077945
 10
36.61843795
 20
54.7190056844
 10
36.618771579
 20
54.713326195
 10
36.6190765015
 20
54.7074866992
 10
36.6193523355
 20
54.7015162109
 10
36.6195994631
 20
54.6953857163
 10
36.6198181306
 20
54.689025546
 10
36.6200101566
 20
54.6824429438
 10
36.6201737226
 20
54.675630666
 10
36.6203036191
 20
54.6684973124
 10
36.6203981095
 20
54.6610124163
 10
36.6204589304
 20
54.6532064445
  0
LWPOLYLINE
  5
317
100
AcDbEntity
  8
RACCORDO
100
AcDbPolyline
 62
7
  6
CONTINUOUS
 90
13
 70
0
 10
41.9690667348
 20
49.3991737506
 10
41.9388289049
 20
49.374583959
 10
41.9108612147
 20
49.3480704058
 10
41.8851636641
 20
49.3196330911
 10
41.8616053868
 20
49.2890789725
 10
41.8403172492
 20
49.2566010923
 10
41.8216918498
 20
49.2227785776
 10
41.8057790875
 20
49.1875722964
 10
41.7925290635
 20
49.1510213807
 10
41.7821846802
 20
49.1138223534
 10
41.7748269052
 20
49.0762073889
 10
41.770374771
 20
49.0379443127
 10
41.7688282775
 20
48.9990331251
  0
LWPOLYLINE
  5
318
100
AcDbEntity
  8
RACCORDO
100
AcDbPolyline
 62
7
  6
CONTINUOUS
 90
16
 70
0
 10
37.8286359298
 20
-33.8340177949
 10
37.7942505027
 20
-33.817235928
 10
37.7615480308
 20
-33.798110076
 10
37.7305285143
 20
-33.7766402388
 10
37.7010439068
 20
-33.7527275459
 10
37.6732422547
 20
-33.7264708677
 10
37.647567696
 20
-33.6981668164
 10
37.6239972433
 20
-33.6677263654
 10
37.6025538842
 20
-33.6352385411
 10
37.5837507198
 20
-33.6012670346
 10
37.5676467426
 20
-33.5656597333
 10
37.5541829602
 20
-33.5285687497
 10
37.5436954959
 20
-33.4910141116
 10
37.5362963908
 20
-33.4533358284
 10
37.5318736037
 20
-33.4151938906
 10
37.5304271347
 20
-33.3765882984
  0
LINE
  5
319
100
AcDbEntity
  8
RACCORDO
100
AcDbLine
 62
253
  6
CONTINUOUS
 10
41.5197665747
 20
-32.8973033634
 11
41.5397346619
 21
-32.9074545312
  0
LWPOLYLINE
  5
31A
100
AcDbEntity
  8
0
100
AcDbPolyline
 62
7
  6
CONTINUOUS
 90
20
 70
0
 10
-10.558062904
 20
-5.9641904633
 10
-10.5513696749
 20
-6.0235313066
 10
-10.540302923
 20
-6.0819284293
 10
-10.5247299358
 20
-6.1397433836
 10
-10.5047834112
 20
-6.1966146173
 10
-10.4808614584
 20
-6.2514574745
 10
-10.4529733253
 20
-6.3041204355
 10
-10.4211097387
 20
-6.3547550199
 10
-10.3856410252
 20
-6.4027311303
 10
-10.3463940769
 20
-6.448144818
 10
-10.3035419689
 20
-6.4909000317
 10
-10.2579743059
 20
-6.5300785204
 10
-10.2096820951
 20
-6.565533852
 10
-10.1586742995
 20
-6.5974124587
 10
-10.1058674667
 20
-6.6252353856
 10
-10.0513271922
 20
-6.6489222353
 10
-9.9949878593
 20
-6.6685534054
 10
-9.9375692065
 20
-6.6838911331
 10
-9.8793111448
 20
-6.6948561642
 10
-9.8199737516
 20
-6.701527753
  0
LWPOLYLINE
  5
31B
100
AcDbEntity
  8
RACCORDO
100
AcDbPolyline
 62
253
  6
CONTINUOUS
 90
10
 70
0
 10
36.4951046391
 20
54.7365621949
 10
36.5102148173
 20
54.7552496324
 10
36.5256553431
 20
54.7740835362
 10
36.5414299793
 20
54.7930587935
 10
36.5575093719
 20
54.812131949
 10
36.5739299058
 20
54.831336363
 10
36.5907960707
 20
54.8507798771
 10
36.6081475801
 20
54.8704922578
 10
36.6259569956
 20
54.8904275265
 10
36.6442302361
 20
54.9105774859
  0
LWPOLYLINE
  5
31C
100
AcDbEntity
  8
RACCORDO
100
AcDbPolyline
 62
253
  6
CONTINUOUS
 90
10
 70
0
 10
36.4556680273
 20
54.6139374407
 10
36.470584275
 20
54.6323725418
 10
36.485835322
 20
54.6509314824
 10
36.5014211684
 20
54.6696142624
 10
36.5172975888
 20
54.6883829308
 10
36.5335088086
 20
54.7072754386
 10
36.5501875037
 20
54.7264056394
 10
36.5673778994
 20
54.7458114843
 10
36.5850357704
 20
54.7654550221
 10
36.6031611167
 20
54.7853362528
  0
LINE
  5
31D
100
AcDbEntity
  8
RACCORDO
100
AcDbLine
 62
253
  6
CONTINUOUS
 10
39.2212614647
 20
52.2297374411
 11
39.1498863423
 21
52.1583623186
  0
LINE
  5
31E
100
AcDbEntity
  8
RACCORDO
100
AcDbLine
 62
253
  6
CONTINUOUS
 10
39.9159843656
 20
52.924460342
 11
39.987359488
 21
52.9958354644
  0
LINE
  5
31F
100
AcDbEntity
  8
RACCORDO
100
AcDbLine
 62
253
  6
CONTINUOUS
 10
39.3832710466
 20
52.0677278592
 11
39.3118959242
 21
51.9963527368
  0
LINE
  5
320
100
AcDbEntity
  8
RACCORDO
100
AcDbLine
 62
253
  6
CONTINUOUS
 10
40.0779939475
 20
52.7624507601
 11
40.1493690699
 21
52.8338258825
  0
LINE
  5
321
100
AcDbEntity
  8
RACCORDO
100
AcDbLine
 62
253
  6
CONTINUOUS
 10
37.5444825765
 20
46.6372007584
 11
37.5304271347
 21
46.6234117016
  0
LINE
  5
322
100
AcDbEntity
  8
RACCORDO
100
AcDbLine
 62
253
  6
CONTINUOUS
 10
38.0354296184
 20
46.1373575126
 11
38.0189123263
 21
46.1224289166
  0
LWPOLYLINE
  5
323
100
AcDbEntity
  8
0
100
AcDbPolyline
 62
7
  6
CONTINUOUS
 90
20
 70
0
 10
8.1191720379
 20
-6.7015868957
 10
8.1785847125
 20
-6.6948981498
 10
8.2370504618
 20
-6.6838396619
 10
8.2949309456
 20
-6.6682786106
 10
8.3518645136
 20
-6.6483478172
 10
8.406766214
 20
-6.6244457456
 10
8.4594845131
 20
-6.5965817609
 10
8.5101709699
 20
-6.5647464979
 10
8.5581952822
 20
-6.529310326
 10
8.6036536543
 20
-6.4901003117
 10
8.6464499105
 20
-6.4472893884
 10
8.6856651867
 20
-6.401766725
 10
8.7211528387
 20
-6.353523432
 10
8.7530595431
 20
-6.3025683989
 10
8.7809064214
 20
-6.2498174625
 10
8.8046129742
 20
-6.1953360368
 10
8.8242597266
 20
-6.1390587077
 10
8.8396093361
 20
-6.08170507
 10
8.8505826937
 20
-6.0235149885
 10
8.8572589225
 20
-5.9642485983
  0
LINE
  5
324
100
AcDbEntity
  8
0
100
AcDbLine
 62
7
  6
CONTINUOUS
 10
8.0588124326
 20
-6.7039058994
 11
8.1191720379
 21
-6.7015868957
  0
LINE
  5
325
100
AcDbEntity
  8
0
100
AcDbLine
 62
7
  6
CONTINUOUS
 10
8.0588124326
 20
-6.7039058994
 11
-9.7595570204
 21
-6.7039058994
  0
LINE
  5
326
100
AcDbEntity
  8
0
100
AcDbLine
 62
7
  6
CONTINUOUS
 10
-9.8199737516
 20
-6.701527753
 11
-9.7595570204
 21
-6.7039058994
  0
LINE
  5
327
100
AcDbEntity
  8
RACCORDO
100
AcDbLine
 62
253
  6
CONTINUOUS
 10
41.7688282775
 20
-31.0009668749
 11
41.7547728357
 21
-30.9939261601
  0
LINE
  5
328
100
AcDbEntity
  8
RACCORDO
100
AcDbLine
 62
253
  6
CONTINUOUS
 10
37.5304271347
 20
-24.0068449239
 11
37.5444825765
 21
-24.0138856387
  0
LINE
  5
329
100
AcDbEntity
  8
RACCORDO
100
AcDbLine
 62
253
  6
CONTINUOUS
 10
41.7547728357
 20
-32.4733428396
 11
41.7689951677
 21
-32.4812202006
  0
LINE
  5
32A
100
AcDbEntity
  8
RACCORDO
100
AcDbLine
 62
253
  6
CONTINUOUS
 10
41.9690667348
 20
-30.6008262494
 11
41.9556575376
 21
-30.5933023432
  0
LINE
  5
32B
100
AcDbEntity
  8
RACCORDO
100
AcDbLine
 62
253
  6
CONTINUOUS
 10
33.3286359298
 20
-44.7328684316
 11
33.2386033471
 21
-44.642835849
  0
LINE
  5
32C
100
AcDbEntity
  8
RACCORDO
100
AcDbLine
 62
253
  6
CONTINUOUS
 10
37.6497038585
 20
-44.7539058994
 11
37.6286663907
 21
-44.7328684316
  0
LINE
  5
32D
100
AcDbEntity
  8
RACCORDO
100
AcDbLine
 62
7
  6
CONTINUOUS
 10
34.1420259918
 20
-40.6463041852
 11
34.1375968214
 21
-40.6418750147
  0
LINE
  5
32E
100
AcDbEntity
  8
RACCORDO
100
AcDbLine
 62
253
  6
CONTINUOUS
 10
38.1496277061
 20
-44.2539820518
 11
38.1285902383
 21
-44.2329445841
  0
LWPOLYLINE
  5
32F
100
AcDbEntity
  8
RACCORDO
100
AcDbPolyline
 62
253
  6
CONTINUOUS
 90
10
 70
0
 10
36.6442302361
 20
54.9105774859
 10
36.6354436286
 20
54.898592572
 10
36.627627114
 20
54.8859404862
 10
36.6208267381
 20
54.8726957594
 10
36.6150825607
 20
54.8589364139
 10
36.6104284197
 20
54.8447435034
 10
36.6068917318
 20
54.8302006356
 10
36.6044933311
 20
54.8153934799
 10
36.603247346
 20
54.8004092626
 10
36.6031611167
 20
54.7853362528
  0
LINE
  5
330
100
AcDbEntity
  8
RACCORDO
100
AcDbLine
 62
253
  6
CONTINUOUS
 10
41.7762340502
 20
55.3451162541
 11
41.9556575372
 21
55.5854905446
  0
LINE
  5
331
100
AcDbEntity
  8
RACCORDO
100
AcDbLine
 62
253
  6
CONTINUOUS
 10
37.523021362
 20
49.647071947
 11
37.3435978755
 21
49.4066976562
  0
LINE
  5
332
100
AcDbEntity
  8
RACCORDO
100
AcDbLine
 62
253
  6
CONTINUOUS
 10
37.3301886774
 20
-24.4069855495
 11
37.3435978746
 21
-24.4145094557
  0
LINE
  5
333
100
AcDbEntity
  8
RACCORDO
100
AcDbLine
 62
253
  6
CONTINUOUS
 10
36.8174476323
 20
-25.7470346532
 11
36.9376245533
 21
-25.8215831658
  0
LWPOLYLINE
  5
334
100
AcDbEntity
  8
RACCORDO
100
AcDbPolyline
 62
253
  6
CONTINUOUS
 90
16
 70
0
 10
37.3435978737
 20
-30.5933023437
 10
37.367839898
 20
-30.6125917315
 10
37.3907105188
 20
-30.6332209681
 10
37.4121451775
 20
-30.6550871644
 10
37.4320281475
 20
-30.6780130004
 10
37.4503781066
 20
-30.7019571737
 10
37.4673033644
 20
-30.7270491817
 10
37.4827434842
 20
-30.753237421
 10
37.4966055407
 20
-30.780406359
 10
37.5088869555
 20
-30.808626883
 10
37.5195246722
 20
-30.8379043079
 10
37.5283876139
 20
-30.8680551114
 10
37.5353691496
 20
-30.8988628979
 10
37.5404066002
 20
-30.930173796
 10
37.5434588304
 20
-30.9619035407
 10
37.5444825754
 20
-30.9939261607
  0
LWPOLYLINE
  5
335
100
AcDbEntity
  8
RACCORDO
100
AcDbPolyline
 62
253
  6
CONTINUOUS
 90
16
 70
0
 10
37.523021362
 20
-30.352928053
 10
37.5619559442
 20
-30.3840728197
 10
37.5985108418
 20
-30.4170265628
 10
37.6326860546
 20
-30.4517892821
 10
37.6644925756
 20
-30.4883942515
 10
37.6939194119
 20
-30.5268081971
 10
37.7209335849
 20
-30.5669312982
 10
37.7456145692
 20
-30.6087870196
 10
37.7678828901
 20
-30.6523518965
 10
37.7874671458
 20
-30.6974557138
 10
37.8044112251
 20
-30.744268762
 10
37.8186712391
 20
-30.7926207507
 10
37.8298441189
 20
-30.8418305935
 10
37.8377955084
 20
-30.8916712616
 10
37.8426597638
 20
-30.9423697838
 10
37.844436885
 20
-30.9939261601
  0
LINE
  5
336
100
AcDbEntity
  8
RACCORDO
100
AcDbLine
 62
253
  6
CONTINUOUS
 10
36.7699008095
 20
50.2632772805
 11
36.7580415391
 21
50.2429189207
  0
LINE
  5
337
100
AcDbEntity
  8
RACCORDO
100
AcDbLine
 62
253
  6
CONTINUOUS
 10
36.7580415391
 20
50.2429189207
 11
36.7469212417
 21
50.2240714142
  0
LINE
  5
338
100
AcDbEntity
  8
RACCORDO
100
AcDbLine
 62
253
  6
CONTINUOUS
 10
36.7469212417
 20
50.2240714142
 11
36.7365449126
 21
50.2067117426
  0
LINE
  5
339
100
AcDbEntity
  8
RACCORDO
100
AcDbLine
 62
253
  6
CONTINUOUS
 10
36.7365449126
 20
50.2067117426
 11
36.7269147974
 21
50.1908353933
  0
LINE
  5
33A
100
AcDbEntity
  8
RACCORDO
100
AcDbLine
 62
253
  6
CONTINUOUS
 10
36.7269147974
 20
50.1908353933
 11
36.7180485947
 21
50.176446876
  0
LINE
  5
33B
100
AcDbEntity
  8
RACCORDO
100
AcDbLine
 62
253
  6
CONTINUOUS
 10
41.3608160228
 20
57.6351152503
 11
41.5197665748
 21
57.8894915645
  0
LINE
  5
33C
100
AcDbEntity
  8
RACCORDO
100
AcDbLine
 62
253
  6
CONTINUOUS
 10
36.7180485947
 20
50.176446876
 11
36.709945308
 21
50.163502023
  0
LWPOLYLINE
  5
33D
100
AcDbEntity
  8
RACCORDO
100
AcDbPolyline
 62
253
  6
CONTINUOUS
 90
26
 70
0
 10
36.709945308
 20
50.163502023
 10
36.7025513955
 20
50.1519164106
 10
36.6990980938
 20
50.1465763638
 10
36.6957934472
 20
50.141528364
 10
36.6925988217
 20
50.1367005499
 10
36.6895186262
 20
50.1320928166
 10
36.6865462449
 20
50.1277054751
 10
36.6836377856
 20
50.1234756451
 10
36.6807991187
 20
50.119400431
 10
36.6780347579
 20
50.1154923169
 10
36.6753107269
 20
50.111720702
 10
36.6726375767
 20
50.1080868584
 10
36.6700274872
 20
50.1046087841
 10
36.6674591085
 20
50.1012890687
 10
36.6649507607
 20
50.0981374007
 10
36.6625175395
 20
50.0951720021
 10
36.6601423974
 20
50.0924157087
 10
36.6578512152
 20
50.0898839259
 10
36.6556639235
 20
50.0875992078
 10
36.653565008
 20
50.0856036871
 10
36.6515862067
 20
50.0839176025
 10
36.6497583038
 20
50.0825720278
 10
36.6480744837
 20
50.08163361
 10
36.6465592887
 20
50.0811463278
 10
36.645264728
 20
50.0811281825
 10
36.6442302361
 20
50.0816107153
  0
LINE
  5
33E
100
AcDbEntity
  8
RACCORDO
100
AcDbLine
 62
7
  6
CONTINUOUS
 10
-35.8383414092
 20
-40.6418750147
 11
-35.8427705796
 21
-40.6463041852
  0
LINE
  5
33F
100
AcDbEntity
  8
RACCORDO
100
AcDbLine
 62
253
  6
CONTINUOUS
 10
-37.3293348261
 20
-44.2329445841
 11
-37.3503722939
 21
-44.2539820518
  0
LINE
  5
340
100
AcDbEntity
  8
RACCORDO
100
AcDbLine
 62
253
  6
CONTINUOUS
 10
-36.8294109785
 20
-44.7328684316
 11
-36.8504484463
 21
-44.7539058994
  0
LINE
  5
341
100
AcDbEntity
  8
DRAFT
100
AcDbLine
 62
7
  6
CONTINUOUS
 10
-35.8427705796
 20
5.3036958148
 11
-35.8003722939
 21
5.3036958148
  0
LINE
  5
342
100
AcDbEntity
  8
DRAFT
100
AcDbLine
 62
7
  6
CONTINUOUS
 10
34.0996277061
 20
5.3036958148
 11
34.1420259918
 21
5.3036958148
  0
LWPOLYLINE
  5
343
100
AcDbEntity
  8
RACCORDO
100
AcDbPolyline
 62
7
  6
CONTINUOUS
 90
19
 70
0
 10
41.5397346619
 20
-22.1003572677
 10
41.5672997961
 20
-22.1195009235
 10
41.5927520153
 20
-22.1398369891
 10
41.6161652152
 20
-22.161198004
 10
41.6376282107
 20
-22.1833970965
 10
41.6572241041
 20
-22.2062786968
 10
41.6750047913
 20
-22.2297548387
 10
41.6910253672
 20
-22.2536810903
 10
41.7053781162
 20
-22.2779416233
 10
41.7181332018
 20
-22.3025528623
 10
41.7293597407
 20
-22.32744369
 10
41.7391083814
 20
-22.3524926319
 10
41.7473945571
 20
-22.3776824325
 10
41.7542806284
 20
-22.4029861092
 10
41.7598166975
 20
-22.4282689437
 10
41.7639967245
 20
-22.4533623182
 10
41.766864374
 20
-22.4781535224
 10
41.7685084644
 20
-22.5025896322
 10
41.7689951677
 20
-22.5265915982
  0
LWPOLYLINE
  5
344
100
AcDbEntity
  8
RACCORDO
100
AcDbPolyline
 62
253
  6
CONTINUOUS
 90
16
 70
0
 10
41.7762340502
 20
-24.6548837459
 10
41.737299468
 20
-24.6237389791
 10
41.7007445704
 20
-24.5907852361
 10
41.6665693576
 20
-24.5560225167
 10
41.6347628366
 20
-24.5194175474
 10
41.6053360003
 20
-24.4810036018
 10
41.5783218273
 20
-24.4408805006
 10
41.553640843
 20
-24.3990247793
 10
41.5313725221
 20
-24.3554599024
 10
41.5117882664
 20
-24.310356085
 10
41.4948441871
 20
-24.2635430368
 10
41.4805841731
 20
-24.2151910482
 10
41.4694112933
 20
-24.1659812054
 10
41.4614599038
 20
-24.1161405373
 10
41.4565956484
 20
-24.0654420151
 10
41.4548185272
 20
-24.0138856387
  0
LWPOLYLINE
  5
345
100
AcDbEntity
  8
RACCORDO
100
AcDbPolyline
 62
7
  6
CONTINUOUS
 90
5
 70
0
 10
-37.3293348261
 20
41.1750566328
 10
-37.3281352535
 20
41.173991751
 10
-37.3252339416
 20
41.1710597344
 10
-37.3205387761
 20
41.1662605828
 10
-37.3139501199
 20
41.1596081359
  0
LINE
  5
346
100
AcDbEntity
  8
RACCORDO
100
AcDbLine
 62
253
  6
CONTINUOUS
 10
-38.3293348261
 20
40.6751327852
 11
-38.3503722939
 21
40.696170253
  0
LINE
  5
347
100
AcDbEntity
  8
RACCORDO
100
AcDbLine
 62
253
  6
CONTINUOUS
 10
-37.8294109785
 20
41.1750566328
 11
-37.8504484463
 21
41.1960941006
  0
LINE
  5
348
100
AcDbEntity
  8
RACCORDO
100
AcDbLine
 62
7
  6
CONTINUOUS
 10
-37.3503722939
 20
41.1960941006
 11
-37.3293348261
 21
41.1750566328
  0
LINE
  5
349
100
AcDbEntity
  8
RACCORDO
100
AcDbLine
 62
7
  6
CONTINUOUS
 10
38.1496277061
 20
-33.9039058994
 11
38.1285902383
 21
-33.8828337413
  0
LWPOLYLINE
  5
34A
100
AcDbEntity
  8
RACCORDO
100
AcDbPolyline
 62
7
  6
CONTINUOUS
 90
3
 70
0
 10
-37.3139501199
 20
41.1596081359
 10
-37.1447447188
 20
40.9903883704
 10
-37.0602579977
 20
40.9063243718
  0
LINE
  5
34B
100
AcDbEntity
  8
RACCORDO
100
AcDbLine
 62
7
  6
CONTINUOUS
 10
-37.0602579977
 20
40.9063243718
 11
-37.0293805176
 21
40.8751023242
  0
LINE
  5
34C
100
AcDbEntity
  8
0
100
AcDbLine
 62
7
  6
CONTINUOUS
 10
8.859638026
 20
30.8960941006
 11
8.8573183162
 21
30.9563786644
  0
LINE
  5
34D
100
AcDbEntity
  8
ASSI
100
AcDbLine
 62
7
  6
CONTINUOUS
 10
8.8496277061
 20
30.8960941006
 11
8.8496277061
 21
-5.9039058994
  0
LINE
  5
34E
100
AcDbEntity
  8
0
100
AcDbLine
 62
7
  6
CONTINUOUS
 10
8.859638026
 20
30.8960941006
 11
8.859638026
 21
-5.9039058994
  0
LINE
  5
34F
100
AcDbEntity
  8
0
100
AcDbLine
 62
7
  6
CONTINUOUS
 10
8.8572589225
 20
-5.9642485983
 11
8.859638026
 21
-5.9039058994
  0
LINE
  5
350
100
AcDbEntity
  8
RACCORDO
100
AcDbLine
 62
253
  6
CONTINUOUS
 10
36.8174476323
 20
50.3471088042
 11
36.8029045838
 21
50.3211141331
  0
LINE
  5
351
100
AcDbEntity
  8
RACCORDO
100
AcDbLine
 62
253
  6
CONTINUOUS
 10
36.8029045838
 20
50.3211141331
 11
36.7891084695
 21
50.2967406266
  0
LWPOLYLINE
  5
352
100
AcDbEntity
  8
RACCORDO
100
AcDbPolyline
 62
253
  6
CONTINUOUS
 90
3
 70
0
 10
36.7891084695
 20
50.2967406266
 10
36.7761181175
 20
50.2740458065
 10
36.7699008095
 20
50.2632772805
  0
LINE
  5
353
100
AcDbEntity
  8
RACCORDO
100
AcDbLine
 62
253
  6
CONTINUOUS
 10
-34.9393479349
 20
-44.642835849
 11
-35.0293805176
 21
-44.7328684316
  0
LINE
  5
354
100
AcDbEntity
  8
DRAFT
100
AcDbLine
 62
7
  6
CONTINUOUS
 10
-35.8427705796
 20
10.6884923863
 11
-35.8003722939
 21
10.6884923863
  0
LINE
  5
355
100
AcDbEntity
  8
DRAFT
100
AcDbLine
 62
7
  6
CONTINUOUS
 10
34.0996277061
 20
10.6884923863
 11
34.1420259918
 21
10.6884923863
  0
LWPOLYLINE
  5
356
100
AcDbEntity
  8
RACCORDO
100
AcDbPolyline
 62
253
  6
CONTINUOUS
 90
16
 70
0
 10
41.9556575385
 20
-24.4145094552
 10
41.9314155142
 20
-24.3952200674
 10
41.9085448934
 20
-24.3745908307
 10
41.8871102347
 20
-24.3527246344
 10
41.8672272647
 20
-24.3297987985
 10
41.8488773056
 20
-24.3058546252
 10
41.8319520478
 20
-24.2807626171
 10
41.816511928
 20
-24.2545743778
 10
41.8026498714
 20
-24.2274054399
 10
41.7903684567
 20
-24.1991849159
 10
41.77973074
 20
-24.169907491
 10
41.7708677983
 20
-24.1397566875
 10
41.7638862626
 20
-24.108948901
 10
41.758848812
 20
-24.0776380028
 10
41.7557965818
 20
-24.0459082582
 10
41.7547728368
 20
-24.0138856382
  0
LINE
  5
357
100
AcDbEntity
  8
RACCORDO
100
AcDbLine
 62
253
  6
CONTINUOUS
 10
38.0354296184
 20
-21.1451693115
 11
38.0189123263
 21
-21.1302407155
  0
LINE
  5
358
100
AcDbEntity
  8
RACCORDO
100
AcDbLine
 62
253
  6
CONTINUOUS
 10
37.5444825765
 20
-21.6450125573
 11
37.5304271347
 21
-21.6312235005
  0
LINE
  5
359
100
AcDbEntity
  8
RACCORDO
100
AcDbLine
 62
253
  6
CONTINUOUS
 10
39.2212614647
 20
-27.2375492399
 11
39.1498863423
 21
-27.1661741175
  0
LINE
  5
35A
100
AcDbEntity
  8
RACCORDO
100
AcDbLine
 62
253
  6
CONTINUOUS
 10
39.9159843656
 20
-27.9322721408
 11
39.987359488
 21
-28.0036472632
  0
LINE
  5
35B
100
AcDbEntity
  8
RACCORDO
100
AcDbLine
 62
253
  6
CONTINUOUS
 10
39.3832710466
 20
-27.075539658
 11
39.3118959242
 21
-27.0041645356
  0
LINE
  5
35C
100
AcDbEntity
  8
RACCORDO
100
AcDbLine
 62
253
  6
CONTINUOUS
 10
40.0779939475
 20
-27.7702625589
 11
40.1493690699
 21
-27.8416376814
  0
LWPOLYLINE
  5
35D
100
AcDbEntity
  8
RACCORDO
100
AcDbPolyline
 62
253
  6
CONTINUOUS
 90
10
 70
0
 10
36.6031611167
 20
-29.7931480517
 10
36.587067359
 20
-29.7755443259
 10
36.570994308
 20
-29.7577018822
 10
36.5549419636
 20
-29.7396207206
 10
36.5390360557
 20
-29.7214627462
 10
36.5231508545
 20
-29.7030660539
 10
36.50690917
 20
-29.6839449286
 10
36.4901852724
 20
-29.6639374652
 10
36.4731048915
 20
-29.6432055689
 10
36.4556680273
 20
-29.6217492396
  0
LWPOLYLINE
  5
35E
100
AcDbEntity
  8
RACCORDO
100
AcDbPolyline
 62
253
  6
CONTINUOUS
 90
10
 70
0
 10
36.6442302361
 20
-29.9183892847
 10
36.6279110388
 20
-29.9004107804
 10
36.6116106327
 20
-29.8822057488
 10
36.5953318657
 20
-29.8637730187
 10
36.5791997107
 20
-29.8452537452
 10
36.563093253
 20
-29.8265061706
 10
36.5466543965
 20
-29.8070972358
 10
36.5297748879
 20
-29.7868733119
 10
36.5125876197
 20
-29.7659686017
 10
36.4951046903
 20
-29.7443740658
  0
LWPOLYLINE
  5
35F
100
AcDbEntity
  8
RACCORDO
100
AcDbPolyline
 62
253
  6
CONTINUOUS
 90
10
 70
0
 10
36.6442302361
 20
-29.9183892847
 10
36.6354436283
 20
-29.9064043707
 10
36.6276271136
 20
-29.8937522848
 10
36.6208267376
 20
-29.880507558
 10
36.6150825602
 20
-29.8667482126
 10
36.6104284191
 20
-29.8525553022
 10
36.6068917313
 20
-29.8380124346
 10
36.6044933307
 20
-29.823205279
 10
36.6032473458
 20
-29.8082210616
 10
36.6031611167
 20
-29.7931480517
  0
LWPOLYLINE
  5
360
100
AcDbEntity
  8
0
100
AcDbPolyline
 62
7
  6
CONTINUOUS
 90
20
 70
0
 10
8.8573183162
 20
30.9563786644
 10
8.8506250871
 20
31.0157195077
 10
8.8395583352
 20
31.0741166305
 10
8.823985348
 20
31.1319315847
 10
8.8040388234
 20
31.1888028185
 10
8.7801168705
 20
31.2436456756
 10
8.7522287375
 20
31.2963086366
 10
8.7203651509
 20
31.346943221
 10
8.6848964374
 20
31.3949193315
 10
8.6456494891
 20
31.4403330191
 10
8.6027973811
 20
31.4830882328
 10
8.5572297181
 20
31.5222667216
 10
8.5089375073
 20
31.5577220532
 10
8.4579297117
 20
31.5896006598
 10
8.4051228789
 20
31.6174235867
 10
8.3505826044
 20
31.6411104365
 10
8.2942432714
 20
31.6607416065
 10
8.2368246187
 20
31.6760793342
 10
8.178566557
 20
31.6870443653
 10
8.1192291638
 20
31.6937159541
  0
LINE
  5
361
100
AcDbEntity
  8
RACCORDO
100
AcDbLine
 62
7
  6
CONTINUOUS
 10
34.1420259918
 20
10.6884923863
 11
34.1375968214
 21
10.6840632159
  0
LINE
  5
362
100
AcDbEntity
  8
RACCORDO
100
AcDbLine
 62
253
  6
CONTINUOUS
 10
37.523021362
 20
-24.6548837459
 11
37.3435978745
 21
-24.4145094558
  0
LINE
  5
363
100
AcDbEntity
  8
RACCORDO
100
AcDbLine
 62
253
  6
CONTINUOUS
 10
41.7762340502
 20
-30.352928053
 11
41.9556575375
 21
-30.5933023432
  0
LWPOLYLINE
  5
364
100
AcDbEntity
  8
RACCORDO
100
AcDbPolyline
 62
7
  6
CONTINUOUS
 90
10
 70
0
 10
36.4951046149
 20
-29.7443739706
 10
36.4869741858
 20
-29.7320275264
 10
36.4797648712
 20
-29.7193021675
 10
36.4734766711
 20
-29.7061978939
 10
36.4680882097
 20
-29.6926356613
 10
36.4636208629
 20
-29.678694514
 10
36.4601387584
 20
-29.6646115849
 10
36.4576632723
 20
-29.6504659182
 10
36.4561730286
 20
-29.6361784698
 10
36.4556680273
 20
-29.6217492396
  0
LINE
  5
365
100
AcDbEntity
  8
RACCORDO
100
AcDbLine
 62
253
  6
CONTINUOUS
 10
41.3608160228
 20
-32.6429270491
 11
41.5197665749
 21
-32.8973033633
  0
LINE
  5
366
100
AcDbEntity
  8
RACCORDO
100
AcDbLine
 62
7
  6
CONTINUOUS
 10
-35.8383414092
 20
65.6340632159
 11
-35.8427705796
 21
65.6384923863
  0
LINE
  5
367
100
AcDbEntity
  8
RACCORDO
100
AcDbLine
 62
253
  6
CONTINUOUS
 10
-38.3503722939
 20
69.246170253
 11
-38.3293348261
 21
69.2251327852
  0
LINE
  5
368
100
AcDbEntity
  8
RACCORDO
100
AcDbLine
 62
253
  6
CONTINUOUS
 10
-37.8504484463
 20
69.7460941006
 11
-37.8294109785
 21
69.7250566328
  0
LINE
  5
369
100
AcDbEntity
  8
RACCORDO
100
AcDbLine
 62
253
  6
CONTINUOUS
 10
36.7238553003
 20
-25.1936494983
 11
36.7356988583
 21
-25.2131181239
  0
LINE
  5
36A
100
AcDbEntity
  8
RACCORDO
100
AcDbLine
 62
253
  6
CONTINUOUS
 10
36.7356988583
 20
-25.2131181239
 11
36.7479759232
 21
-25.2336583836
  0
LWPOLYLINE
  5
36B
100
AcDbEntity
  8
RACCORDO
100
AcDbPolyline
 62
7
  6
CONTINUOUS
 90
7
 70
0
 10
39.0928307058
 20
-27.7223652124
 10
39.0981289878
 20
-27.7313186957
 10
39.1048296488
 20
-27.7391100511
 10
39.1128811743
 20
-27.7456819573
 10
39.1222344813
 20
-27.7509848158
 10
39.1328434002
 20
-27.7549764861
 10
39.1446651076
 20
-27.7576220239
  0
LWPOLYLINE
  5
36C
100
AcDbEntity
  8
RACCORDO
100
AcDbPolyline
 62
7
  6
CONTINUOUS
 90
7
 70
0
 10
40.206424789
 20
-27.2854466879
 10
40.2011264604
 20
-27.2764931598
 10
40.1944257678
 20
-27.2687017729
 10
40.1863742265
 20
-27.2621298477
 10
40.1770209199
 20
-27.2568269818
 10
40.166412018
 20
-27.2528353143
 10
40.1545903442
 20
-27.2501897885
  0
LINE
  5
36D
100
AcDbEntity
  8
RACCORDO
100
AcDbLine
 62
253
  6
CONTINUOUS
 10
36.7479759232
 20
-25.2336583836
 11
36.7606262683
 21
-25.2551357105
  0
LINE
  5
36E
100
AcDbEntity
  8
RACCORDO
100
AcDbLine
 62
253
  6
CONTINUOUS
 10
36.7606262683
 20
-25.2551357105
 11
36.7736628696
 21
-25.2775971463
  0
LINE
  5
36F
100
AcDbEntity
  8
RACCORDO
100
AcDbLine
 62
253
  6
CONTINUOUS
 10
36.7736628696
 20
-25.2775971463
 11
36.7873371809
 21
-25.3014374066
  0
LINE
  5
370
100
AcDbEntity
  8
RACCORDO
100
AcDbLine
 62
253
  6
CONTINUOUS
 10
36.7873371809
 20
-25.3014374066
 11
36.8019288023
 21
-25.3271938851
  0
LINE
  5
371
100
AcDbEntity
  8
RACCORDO
100
AcDbLine
 62
253
  6
CONTINUOUS
 10
36.8019288023
 20
-25.3271938851
 11
36.8174476323
 21
-25.3549206031
  0
LINE
  5
372
100
AcDbEntity
  8
RACCORDO
100
AcDbLine
 62
253
  6
CONTINUOUS
 10
38.1992098618
 20
52.2752904818
 11
38.2078803717
 21
52.3244633873
  0
LWPOLYLINE
  5
373
100
AcDbEntity
  8
RACCORDO
100
AcDbPolyline
 62
7
  6
CONTINUOUS
 90
13
 70
0
 10
39.3832710466
 20
52.924460342
 10
39.3787403739
 20
52.9038611015
 10
39.372152064
 20
52.884115198
 10
39.3636452052
 20
52.8654096951
 10
39.3534104736
 20
52.8479640638
 10
39.3415870592
 20
52.8318600441
 10
39.3282072482
 20
52.8170802125
 10
39.3134243714
 20
52.8037781524
 10
39.2973798683
 20
52.7920628745
 10
39.2800152697
 20
52.7819228034
 10
39.2613933022
 20
52.773486032
 10
39.2417471907
 20
52.7669501149
 10
39.2212614647
 20
52.7624507601
  0
LWPOLYLINE
  5
374
100
AcDbEntity
  8
RACCORDO
100
AcDbPolyline
 62
7
  6
CONTINUOUS
 90
13
 70
0
 10
39.9159843656
 20
52.0677278592
 10
39.9205150382
 20
52.0883270996
 10
39.9271033482
 20
52.1080730031
 10
39.935610207
 20
52.1267785061
 10
39.9458449386
 20
52.1442241373
 10
39.957668353
 20
52.1603281571
 10
39.971048164
 20
52.1751079886
 10
39.9858310408
 20
52.1884100487
 10
40.0018755439
 20
52.2001253267
 10
40.0192401425
 20
52.2102653978
 10
40.03786211
 20
52.2187021692
 10
40.0575082215
 20
52.2252380863
 10
40.0779939475
 20
52.2297374411
  0
LWPOLYLINE
  5
375
100
AcDbEntity
  8
RACCORDO
100
AcDbPolyline
 62
253
  6
CONTINUOUS
 90
19
 70
0
 10
39.4288240874
 20
53.9465119449
 10
39.4310316226
 20
53.9563456694
 10
39.433762882
 20
53.9656715293
 10
39.4370178655
 20
53.9744895248
 10
39.4408533679
 20
53.982818195
 10
39.4452125945
 20
53.9906390007
 10
39.4499251615
 20
53.9978963243
 10
39.4549990965
 20
54.0045833151
 10
39.4604263719
 20
54.0107068238
 10
39.4660125211
 20
54.016231784
 10
39.4717093095
 20
54.0211179912
 10
39.4775649717
 20
54.0254056499
 10
39.4835297443
 20
54.0291803075
 10
39.4895584477
 20
54.0324564816
 10
39.4956962615
 20
54.0352196547
 10
39.5020289613
 20
54.0375118217
 10
39.5085851389
 20
54.039346981
 10
39.5153362024
 20
54.0407111343
 10
39.5222821519
 20
54.0416042816
  0
LWPOLYLINE
  5
376
100
AcDbEntity
  8
RACCORDO
100
AcDbPolyline
 62
253
  6
CONTINUOUS
 90
19
 70
0
 10
39.8704313263
 20
51.0456762644
 10
39.868223791
 20
51.0358425388
 10
39.8654925315
 20
51.0265166776
 10
39.8622375479
 20
51.0176986809
 10
39.8584020457
 20
51.0093700094
 10
39.8540428193
 20
51.0015492023
 10
39.8493302523
 20
50.9942918773
 10
39.844256317
 20
50.9876048847
 10
39.8388290411
 20
50.9814813741
 10
39.8332428912
 20
50.9759564121
 10
39.8275461017
 20
50.9710702032
 10
39.8216904381
 20
50.9667825428
 10
39.8157256644
 20
50.9630078839
 10
39.8096969603
 20
50.9597317088
 10
39.8035591461
 20
50.9569685352
 10
39.7972264463
 20
50.9546763684
 10
39.7906702691
 20
50.9528412101
 10
39.7839192064
 20
50.9514770586
 10
39.776973258
 20
50.9505839139
  0
LINE
  5
377
100
AcDbEntity
  8
RACCORDO
100
AcDbLine
 62
253
  6
CONTINUOUS
 10
-35.0293805176
 20
69.7250566328
 11
-34.9393479349
 21
69.6350240502
  0
LINE
  5
378
100
AcDbEntity
  8
RACCORDO
100
AcDbLine
 62
7
  6
CONTINUOUS
 10
34.1420259918
 20
5.3036958148
 11
34.1375968214
 21
5.3081249853
  0
LWPOLYLINE
  5
379
100
AcDbEntity
  8
RACCORDO
100
AcDbPolyline
 62
253
  6
CONTINUOUS
 90
43
 70
0
 10
36.6204860817
 20
-25.7470346164
 10
36.6222719734
 20
-25.751193092
 10
36.6245309438
 20
-25.7553321859
 10
36.62725688
 20
-25.7594462038
 10
36.63044245
 20
-25.7635346463
 10
36.6340789724
 20
-25.767586767
 10
36.6381558908
 20
-25.7715816684
 10
36.6426632003
 20
-25.7755149637
 10
36.6475868465
 20
-25.7793805237
 10
36.652906412
 20
-25.7831553474
 10
36.6585939337
 20
-25.7868274668
 10
36.6646426774
 20
-25.7904001166
 10
36.6710663824
 20
-25.7938729742
 10
36.6778655025
 20
-25.7972480992
 10
36.6850127479
 20
-25.8005138903
 10
36.6924826558
 20
-25.8036494087
 10
36.7002577538
 20
-25.8066499825
 10
36.7083197974
 20
-25.8095126293
 10
36.7166390932
 20
-25.8122199973
 10
36.7251919702
 20
-25.814767367
 10
36.7339613996
 20
-25.8171538359
 10
36.7429264011
 20
-25.8193685717
 10
36.7520663444
 20
-25.8214087649
 10
36.7613600788
 20
-25.8232728429
 10
36.7707858266
 20
-25.8249522598
 10
36.7803232504
 20
-25.8264448391
 10
36.7899503283
 20
-25.8277495147
 10
36.7996428286
 20
-25.8288598411
 10
36.8093801189
 20
-25.8297740737
 10
36.8191402517
 20
-25.8304918339
 10
36.8288971657
 20
-25.8310092222
 10
36.8386299106
 20
-25.831324954
 10
36.8483170618
 20
-25.8314393025
 10
36.8579321404
 20
-25.8313512398
 10
36.8674542657
 20
-25.8310600059
 10
36.8768625866
 20
-25.830566446
 10
36.8861311283
 20
-25.8298724847
 10
36.8952394757
 20
-25.8289779228
 10
36.9041673961
 20
-25.8278841704
 10
36.9128898257
 20
-25.8265961289
 10
36.9213855132
 20
-25.8251163247
 10
36.9296367878
 20
-25.8234447151
 10
36.9376245692
 20
-25.8215827627
  0
LINE
  5
37A
100
AcDbEntity
  8
RACCORDO
100
AcDbLine
 62
253
  6
CONTINUOUS
 10
36.6119276379
 20
-29.1521538172
 11
36.6204860817
 21
-29.2607850598
  0
LINE
  5
37B
100
AcDbEntity
  8
0
100
AcDbLine
 62
253
  6
CONTINUOUS
 10
33.3996277061
 20
-44.6039058994
 11
33.3996277061
 21
69.5960941006
  0
LINE
  5
37C
100
AcDbEntity
  8
0
100
AcDbLine
 62
7
  6
CONTINUOUS
 10
34.0996277061
 20
-44.6039058994
 11
34.0996277061
 21
69.5960941006
  0
LINE
  5
37D
100
AcDbEntity
  8
RACCORDO
100
AcDbLine
 62
253
  6
CONTINUOUS
 10
34.1375968214
 20
-40.6418750147
 11
34.1375968214
 21
-35.2659367841
  0
LINE
  5
37E
100
AcDbEntity
  8
RACCORDO
100
AcDbLine
 62
253
  6
CONTINUOUS
 10
34.1375968214
 20
5.3081249853
 11
34.1375968214
 21
10.6840632159
  0
LINE
  5
37F
100
AcDbEntity
  8
RACCORDO
100
AcDbLine
 62
253
  6
CONTINUOUS
 10
34.1375968214
 20
60.2581249853
 11
34.1375968214
 21
65.6340632159
  0
LINE
  5
380
100
AcDbEntity
  8
DRAFT
100
AcDbLine
 62
7
  6
CONTINUOUS
 10
34.1420259918
 20
65.6384923863
 11
34.1420259918
 21
60.2536958148
  0
LINE
  5
381
100
AcDbEntity
  8
DRAFT
100
AcDbLine
 62
7
  6
CONTINUOUS
 10
34.1420259918
 20
10.6884923863
 11
34.1420259918
 21
5.3036958148
  0
LINE
  5
382
100
AcDbEntity
  8
DRAFT
100
AcDbLine
 62
7
  6
CONTINUOUS
 10
34.1420259918
 20
-35.2615076137
 11
34.1420259918
 21
-40.6463041852
  0
LINE
  5
383
100
AcDbEntity
  8
RACCORDO
100
AcDbLine
 62
253
  6
CONTINUOUS
 10
36.5703008158
 20
53.488004426
 11
36.5644002613
 21
53.3602246453
  0
LINE
  5
384
100
AcDbEntity
  8
RACCORDO
100
AcDbLine
 62
253
  6
CONTINUOUS
 10
36.5773948937
 20
53.6235812356
 11
36.5703008158
 21
53.488004426
  0
LINE
  5
385
100
AcDbEntity
  8
RACCORDO
100
AcDbLine
 62
253
  6
CONTINUOUS
 10
36.5857894783
 20
53.7672918701
 11
36.5773948937
 21
53.6235812356
  0
LWPOLYLINE
  5
386
100
AcDbEntity
  8
RACCORDO
100
AcDbPolyline
 62
253
  6
CONTINUOUS
 90
4
 70
0
 10
36.9376249229
 20
54.1784180438
 10
36.9322040065
 20
54.0941966939
 10
36.9274753524
 20
54.0125450461
 10
36.9154264064
 20
53.7821607278
  0
LINE
  5
387
100
AcDbEntity
  8
RACCORDO
100
AcDbLine
 62
253
  6
CONTINUOUS
 10
36.5956535669
 20
53.9197041799
 11
36.5857894783
 21
53.7672918701
  0
LINE
  5
388
100
AcDbEntity
  8
RACCORDO
100
AcDbLine
 62
253
  6
CONTINUOUS
 10
36.6071983464
 20
54.0815258631
 11
36.5956535669
 21
53.9197041799
  0
LINE
  5
389
100
AcDbEntity
  8
RACCORDO
100
AcDbLine
 62
253
  6
CONTINUOUS
 10
36.6204860817
 20
54.2529653468
 11
36.6071983464
 21
54.0815258631
  0
LINE
  5
38A
100
AcDbEntity
  8
RACCORDO
100
AcDbLine
 62
253
  6
CONTINUOUS
 10
39.4898232406
 20
53.6077476982
 11
39.4726918007
 21
53.4316543251
  0
LINE
  5
38B
100
AcDbEntity
  8
RACCORDO
100
AcDbLine
 62
253
  6
CONTINUOUS
 10
39.4726918007
 20
53.4316543251
 11
39.4600155402
 21
53.3073819673
  0
LWPOLYLINE
  5
38C
100
AcDbEntity
  8
RACCORDO
100
AcDbPolyline
 62
253
  6
CONTINUOUS
 90
22
 70
0
 10
38.1041175208
 20
52.623439653
 10
38.1046375817
 20
52.6283993331
 10
38.1054934303
 20
52.6334145128
 10
38.1066850666
 20
52.6384851921
 10
38.1081968213
 20
52.6436297254
 10
38.1100443636
 20
52.6488297583
 10
38.1122747014
 20
52.6540302275
 10
38.1148891794
 20
52.6592352802
 10
38.117886453
 20
52.6644407691
 10
38.1213094949
 20
52.6695791901
 10
38.1251512529
 20
52.6746507538
 10
38.1294187793
 20
52.6796552494
 10
38.1341762042
 20
52.6845245401
 10
38.1394383102
 20
52.6892807016
 10
38.1451903147
 20
52.6939016581
 10
38.151452
 20
52.6982530455
 10
38.1582505204
 20
52.7023468891
 10
38.1655587216
 20
52.7061711635
 10
38.1733149239
 20
52.7095554277
 10
38.1814985675
 20
52.7124428681
 10
38.1901302122
 20
52.7148902985
 10
38.1992098581
 20
52.7168977187
  0
LINE
  5
38D
100
AcDbEntity
  8
RACCORDO
100
AcDbLine
 62
253
  6
CONTINUOUS
 10
39.4600155402
 20
53.3073819673
 11
39.45092477
 21
53.222527826
  0
LINE
  5
38E
100
AcDbEntity
  8
RACCORDO
100
AcDbLine
 62
253
  6
CONTINUOUS
 10
39.8391652302
 20
51.6840929701
 11
39.8482532756
 21
51.7689526593
  0
LINE
  5
38F
100
AcDbEntity
  8
RACCORDO
100
AcDbLine
 62
253
  6
CONTINUOUS
 10
39.45092477
 20
53.222527826
 11
39.442605697
 21
53.1483943582
  0
LINE
  5
390
100
AcDbEntity
  8
RACCORDO
100
AcDbLine
 62
253
  6
CONTINUOUS
 10
39.8482532756
 20
51.7689526593
 11
39.8565673396
 21
51.8430781843
  0
LINE
  5
391
100
AcDbEntity
  8
RACCORDO
100
AcDbLine
 62
253
  6
CONTINUOUS
 10
39.442605697
 20
53.1483943582
 11
39.4367652815
 21
53.0986531573
  0
LINE
  5
392
100
AcDbEntity
  8
RACCORDO
100
AcDbLine
 62
253
  6
CONTINUOUS
 10
39.8565673396
 20
51.8430781843
 11
39.8623869448
 21
51.8926734265
  0
LWPOLYLINE
  5
393
100
AcDbEntity
  8
RACCORDO
100
AcDbPolyline
 62
253
  6
CONTINUOUS
 90
3
 70
0
 10
39.4367652815
 20
53.0986531573
 10
39.4330162206
 20
53.0677054663
 10
39.4311681965
 20
53.0528909804
  0
LINE
  5
394
100
AcDbEntity
  8
RACCORDO
100
AcDbLine
 62
253
  6
CONTINUOUS
 10
39.8623869448
 20
51.8926734265
 11
39.8680872138
 21
51.9392971991
  0
LWPOLYLINE
  5
395
100
AcDbEntity
  8
RACCORDO
100
AcDbPolyline
 62
253
  6
CONTINUOUS
 90
22
 70
0
 10
38.1472725303
 20
52.6198838076
 10
38.1476625619
 20
52.6223596704
 10
38.1482508049
 20
52.6248835872
 10
38.1490438899
 20
52.6274479488
 10
38.1500444133
 20
52.6300430495
 10
38.1512621596
 20
52.6326608742
 10
38.1527144699
 20
52.6352949319
 10
38.1544069731
 20
52.6379329283
 10
38.156344635
 20
52.6405638639
 10
38.1585442613
 20
52.6431811638
 10
38.1610056977
 20
52.645765164
 10
38.1637368197
 20
52.6483058593
 10
38.1667692554
 20
52.650806422
 10
38.1701155071
 20
52.6532507251
 10
38.173771306
 20
52.6556115892
 10
38.1777448874
 20
52.6578697605
 10
38.1820470953
 20
52.6600026218
 10
38.1866655032
 20
52.6619794023
 10
38.1915700749
 20
52.6637673636
 10
38.1967442529
 20
52.6653381078
 10
38.2021856135
 20
52.6666662487
 10
38.2078803681
 20
52.6677248133
  0
LWPOLYLINE
  5
396
100
AcDbEntity
  8
RACCORDO
100
AcDbPolyline
 62
253
  6
CONTINUOUS
 90
22
 70
0
 10
41.1519829054
 20
52.3723043967
 10
41.1515928764
 20
52.3698285327
 10
41.1510046348
 20
52.367304615
 10
41.1502115501
 20
52.3647402526
 10
41.1492110258
 20
52.3621451514
 10
41.1479932774
 20
52.3595273264
 10
41.1465409649
 20
52.3568932685
 10
41.1448484596
 20
52.3542552719
 10
41.1429107954
 20
52.3516243362
 10
41.1407111665
 20
52.3490070361
 10
41.1382497273
 20
52.3464230359
 10
41.1355186022
 20
52.3438823404
 10
41.1324861631
 20
52.3413817775
 10
41.1291399076
 20
52.3389374741
 10
41.1254841046
 20
52.3365766095
 10
41.1215105189
 20
52.3343184378
 10
41.1172083065
 20
52.3321855761
 10
41.1125898939
 20
52.3302087952
 10
41.1076853176
 20
52.3284208334
 10
41.1025111349
 20
52.3268500887
 10
41.0970697696
 20
52.3255219471
 10
41.0913750105
 20
52.324463382
  0
LINE
  5
397
100
AcDbEntity
  8
RACCORDO
100
AcDbLine
 62
7
  6
CONTINUOUS
 10
39.3959115972
 20
53.0010567451
 11
39.3832710466
 21
52.924460342
  0
LINE
  5
398
100
AcDbEntity
  8
RACCORDO
100
AcDbLine
 62
7
  6
CONTINUOUS
 10
39.903343815
 20
51.9911314564
 11
39.9159843656
 21
52.0677278592
  0
LINE
  5
399
100
AcDbEntity
  8
RACCORDO
100
AcDbLine
 62
253
  6
CONTINUOUS
 10
39.2627230188
 20
53.0045059743
 11
39.4288240874
 21
53.9465119449
  0
LINE
  5
39A
100
AcDbEntity
  8
RACCORDO
100
AcDbLine
 62
253
  6
CONTINUOUS
 10
39.1412158324
 20
52.1091894132
 11
39.1498863423
 21
52.1583623186
  0
LINE
  5
39B
100
AcDbEntity
  8
RACCORDO
100
AcDbLine
 62
253
  6
CONTINUOUS
 10
39.3118959242
 20
52.9958354644
 11
39.4779969929
 21
53.9378414358
  0
LINE
  5
39C
100
AcDbEntity
  8
RACCORDO
100
AcDbLine
 62
253
  6
CONTINUOUS
 10
39.987359488
 20
51.9963527368
 11
39.8212584207
 21
51.0543467736
  0
LINE
  5
39D
100
AcDbEntity
  8
RACCORDO
100
AcDbLine
 62
253
  6
CONTINUOUS
 10
40.1580395798
 20
52.8829987879
 11
40.1493690699
 21
52.8338258825
  0
LINE
  5
39E
100
AcDbEntity
  8
RACCORDO
100
AcDbLine
 62
253
  6
CONTINUOUS
 10
40.0365323934
 20
51.9876822268
 11
39.8704313263
 21
51.0456762644
  0
LINE
  5
39F
100
AcDbEntity
  8
RACCORDO
100
AcDbLine
 62
253
  6
CONTINUOUS
 10
41.1000455422
 20
52.7168977208
 11
41.0913750323
 21
52.6677248153
  0
LWPOLYLINE
  5
3A0
100
AcDbEntity
  8
RACCORDO
100
AcDbPolyline
 62
253
  6
CONTINUOUS
 90
19
 70
0
 10
39.4779969928
 20
53.937841435
 10
39.479156894
 20
53.9440050429
 10
39.4806361648
 20
53.9498865576
 10
39.4824039034
 20
53.9554676245
 10
39.4844274485
 20
53.9607368649
 10
39.4866759686
 20
53.9656800307
 10
39.4891232116
 20
53.9702785
 10
39.4917467141
 20
53.9745303695
 10
39.4945132078
 20
53.9784268421
 10
39.4973804892
 20
53.9819442085
 10
39.5003009854
 20
53.9850642553
 10
39.5032657728
 20
53.9878167821
 10
39.5062960012
 20
53.9902483028
 10
39.5093605506
 20
53.9923582631
 10
39.5124545155
 20
53.9941527446
 10
39.5156515875
 20
53.9956678447
 10
39.5189712564
 20
53.9969019818
 10
39.5223714269
 20
53.9978323556
 10
39.5258379974
 20
53.9984492682
  0
LWPOLYLINE
  5
3A1
100
AcDbEntity
  8
RACCORDO
100
AcDbPolyline
 62
253
  6
CONTINUOUS
 90
19
 70
0
 10
39.8212584209
 20
51.0543467744
 10
39.8200985194
 20
51.0481831643
 10
39.8186192483
 20
51.0423016474
 10
39.8168515096
 20
51.0367205784
 10
39.8148279643
 20
51.031451336
 10
39.8125794442
 20
51.0265081682
 10
39.8101322011
 20
51.0219096969
 10
39.8075086984
 20
51.0176578253
 10
39.8047422043
 20
51.0137613507
 10
39.8018749224
 20
51.0102439824
 10
39.7989544256
 20
51.0071239339
 10
39.7959896375
 20
51.0043714055
 10
39.7929594085
 20
51.0019398835
 10
39.7898948588
 20
50.9998299222
 10
39.7868008938
 20
50.9980354401
 10
39.7836038218
 20
50.9965203398
 10
39.7802841529
 20
50.9952862032
 10
39.7768839827
 20
50.9943558303
 10
39.7734174125
 20
50.993738919
  0
LWPOLYLINE
  5
3A2
100
AcDbEntity
  8
RACCORDO
100
AcDbPolyline
 62
7
  6
CONTINUOUS
 90
7
 70
0
 10
38.1285902383
 20
-21.1249780575
 10
38.1274463365
 20
-21.1253546332
 10
38.1247556171
 20
-21.1257381943
 10
38.120512903
 20
-21.1261287407
 10
38.1147074174
 20
-21.1265242627
 10
38.1073584979
 20
-21.12692677
 10
38.0985475862
 20
-21.1273422924
  0
LWPOLYLINE
  5
3A3
100
AcDbEntity
  8
0
100
AcDbPolyline
 62
7
  6
CONTINUOUS
 90
20
 70
0
 10
-9.8199166257
 20
31.6937750968
 10
-9.8793293003
 20
31.687086351
 10
-9.9377950497
 20
31.676027863
 10
-9.9956755334
 20
31.6604668117
 10
-10.0526091014
 20
31.6405360183
 10
-10.1075108018
 20
31.6166339468
 10
-10.160229101
 20
31.588769962
 10
-10.2109155577
 20
31.5569346991
 10
-10.25893987
 20
31.5214985271
 10
-10.3043982421
 20
31.4822885129
 10
-10.3471944983
 20
31.4394775896
 10
-10.3864097745
 20
31.3939549261
 10
-10.4218974265
 20
31.3457116332
 10
-10.4538041309
 20
31.2947566001
 10
-10.4816510092
 20
31.2420056636
 10
-10.505357562
 20
31.1875242379
 10
-10.5250043144
 20
31.1312469089
 10
-10.5403539239
 20
31.0738932711
 10
-10.5513272815
 20
31.0157031896
 10
-10.5580035103
 20
30.9564367994
  0
LINE
  5
3A4
100
AcDbEntity
  8
0
100
AcDbLine
 62
7
  6
CONTINUOUS
 10
-9.7595570204
 20
31.6960941006
 11
-9.8199166257
 21
31.6937750968
  0
LINE
  5
3A5
100
AcDbEntity
  8
0
100
AcDbLine
 62
7
  6
CONTINUOUS
 10
8.0588124326
 20
31.6960941006
 11
-9.7595570204
 21
31.6960941006
  0
LINE
  5
3A6
100
AcDbEntity
  8
0
100
AcDbLine
 62
7
  6
CONTINUOUS
 10
8.1192291638
 20
31.6937159541
 11
8.0588124326
 21
31.6960941006
  0
LWPOLYLINE
  5
3A7
100
AcDbEntity
  8
RACCORDO
100
AcDbPolyline
 62
253
  6
CONTINUOUS
 90
13
 70
0
 10
39.3118959242
 20
-28.0036472632
 10
39.3079117461
 20
-27.9858730903
 10
39.3020944564
 20
-27.9679201943
 10
39.294319323
 20
-27.9500056786
 10
39.2843963845
 20
-27.9322356668
 10
39.272312182
 20
-27.9150478148
 10
39.2583783771
 20
-27.8991092505
 10
39.2427070445
 20
-27.8846280462
 10
39.2254467612
 20
-27.8718114683
 10
39.2072280615
 20
-27.8610877896
 10
39.1884731264
 20
-27.8525428621
 10
39.1692821364
 20
-27.8460715989
 10
39.1498863423
 20
-27.8416376814
  0
LWPOLYLINE
  5
3A8
100
AcDbEntity
  8
RACCORDO
100
AcDbPolyline
 62
253
  6
CONTINUOUS
 90
13
 70
0
 10
39.987359488
 20
-27.0041645356
 10
39.991343666
 20
-27.0219387085
 10
39.9971609558
 20
-27.0398916045
 10
40.0049360892
 20
-27.0578061203
 10
40.0148590277
 20
-27.0755761321
 10
40.0269432302
 20
-27.092763984
 10
40.0408770351
 20
-27.1087025483
 10
40.0565483677
 20
-27.1231837527
 10
40.073808651
 20
-27.1360003305
 10
40.0920273507
 20
-27.1467240092
 10
40.1107822858
 20
-27.1552689368
 10
40.1299732758
 20
-27.1617402
 10
40.1493690699
 20
-27.1661741175
  0
LWPOLYLINE
  5
3A9
100
AcDbEntity
  8
RACCORDO
100
AcDbPolyline
 62
7
  6
CONTINUOUS
 90
7
 70
0
 10
39.395911597
 20
-28.0088685432
 10
39.398555544
 20
-28.0206875089
 10
39.4025461469
 20
-28.0312947933
 10
39.4078485544
 20
-28.0406475742
 10
39.414420709
 20
-28.0486996693
 10
39.4222130842
 20
-28.0554019694
 10
39.4311684192
 20
-28.060702921
  0
LWPOLYLINE
  5
3AA
100
AcDbEntity
  8
RACCORDO
100
AcDbPolyline
 62
7
  6
CONTINUOUS
 90
7
 70
0
 10
39.9033438413
 20
-26.9989433325
 10
39.9006999036
 20
-26.9871242919
 10
39.8967093083
 20
-26.9765169622
 10
39.8914069084
 20
-26.9671641657
 10
39.884834763
 20
-26.9591120849
 10
39.8770424003
 20
-26.9524098288
 10
39.8680870828
 20
-26.947108951
  0
LWPOLYLINE
  5
3AB
100
AcDbEntity
  8
RACCORDO
100
AcDbPolyline
 62
253
  6
CONTINUOUS
 90
13
 70
0
 10
39.2627230188
 20
-28.0123177732
 10
39.2598615836
 20
-27.9986409232
 10
39.2554553649
 20
-27.9851919772
 10
39.2495043628
 20
-27.9719709353
 10
39.2419073314
 20
-27.9586854675
 10
39.2327655165
 20
-27.9456279038
 10
39.2223826557
 20
-27.9336752339
 10
39.2106161125
 20
-27.9229755428
 10
39.1976085235
 20
-27.9133807457
 10
39.1840915362
 20
-27.9053235779
 10
39.1703090332
 20
-27.8989482848
 10
39.1560171319
 20
-27.8941106211
 10
39.1412158324
 20
-27.8908105868
  0
LWPOLYLINE
  5
3AC
100
AcDbEntity
  8
RACCORDO
100
AcDbPolyline
 62
253
  6
CONTINUOUS
 90
13
 70
0
 10
40.0365323934
 20
-26.9954940257
 10
40.0393938286
 20
-27.0091708757
 10
40.0438000473
 20
-27.0226198216
 10
40.0497510494
 20
-27.0358408635
 10
40.0573480808
 20
-27.0491263313
 10
40.0664898957
 20
-27.0621838951
 10
40.0768727565
 20
-27.0741365649
 10
40.0886392997
 20
-27.084836256
 10
40.1016468887
 20
-27.0944310532
 10
40.115163876
 20
-27.1024882209
 10
40.128946379
 20
-27.1088635141
 10
40.1432382803
 20
-27.1137011778
 10
40.1580395798
 20
-27.1170012121
  0
LINE
  5
3AD
100
AcDbEntity
  8
RACCORDO
100
AcDbLine
 62
253
  6
CONTINUOUS
 10
38.1992098581
 20
-27.2831022813
 11
38.2078803681
 21
-27.3322751867
  0
LINE
  5
3AE
100
AcDbEntity
  8
RACCORDO
100
AcDbLine
 62
253
  6
CONTINUOUS
 10
39.4288240821
 20
-28.9543237138
 11
39.2627230188
 21
-28.0123177732
  0
LINE
  5
3AF
100
AcDbEntity
  8
RACCORDO
100
AcDbLine
 62
253
  6
CONTINUOUS
 10
39.1412158324
 20
-27.1170012121
 11
39.1498863423
 21
-27.1661741175
  0
LINE
  5
3B0
100
AcDbEntity
  8
RACCORDO
100
AcDbLine
 62
253
  6
CONTINUOUS
 10
39.4779969875
 20
-28.9456532036
 11
39.3118959242
 21
-28.0036472632
  0
LINE
  5
3B1
100
AcDbEntity
  8
RACCORDO
100
AcDbLine
 62
253
  6
CONTINUOUS
 10
39.460115476
 20
-28.3161515805
 11
39.4510126724
 21
-28.2311462878
  0
LINE
  5
3B2
100
AcDbEntity
  8
RACCORDO
100
AcDbLine
 62
253
  6
CONTINUOUS
 10
39.839196208
 20
-26.6921982557
 11
39.8482989295
 21
-26.7771828658
  0
LINE
  5
3B3
100
AcDbEntity
  8
RACCORDO
100
AcDbLine
 62
253
  6
CONTINUOUS
 10
39.4727841576
 20
-28.4403877545
 11
39.460115476
 21
-28.3161515805
  0
LINE
  5
3B4
100
AcDbEntity
  8
RACCORDO
100
AcDbLine
 62
253
  6
CONTINUOUS
 10
39.8265202422
 20
-26.5679158728
 11
39.839196208
 21
-26.6921982557
  0
LINE
  5
3B5
100
AcDbEntity
  8
RACCORDO
100
AcDbLine
 62
253
  6
CONTINUOUS
 10
39.4898629861
 20
-28.6159766887
 11
39.4727841576
 21
-28.4403877545
  0
LINE
  5
3B6
100
AcDbEntity
  8
RACCORDO
100
AcDbLine
 62
253
  6
CONTINUOUS
 10
39.8094292058
 20
-26.3922207242
 11
39.8265202422
 21
-26.5679158728
  0
LINE
  5
3B7
100
AcDbEntity
  8
RACCORDO
100
AcDbLine
 62
253
  6
CONTINUOUS
 10
39.413042859
 20
-28.1957272839
 11
39.3959115972
 21
-28.0088685435
  0
LWPOLYLINE
  5
3B8
100
AcDbEntity
  8
RACCORDO
100
AcDbPolyline
 62
253
  6
CONTINUOUS
 90
3
 70
0
 10
39.5258380075
 20
-29.0062610392
 10
39.5223019495
 20
-28.9669073848
 10
39.4898629861
 20
-28.6159766887
  0
LWPOLYLINE
  5
3B9
100
AcDbEntity
  8
RACCORDO
100
AcDbPolyline
 62
253
  6
CONTINUOUS
 90
3
 70
0
 10
39.773417408
 20
-26.0015507676
 10
39.7769538719
 20
-26.0409152445
 10
39.8094292058
 20
-26.3922207242
  0
LINE
  5
3BA
100
AcDbEntity
  8
RACCORDO
100
AcDbLine
 62
253
  6
CONTINUOUS
 10
39.8863465937
 20
-26.8135800294
 11
39.903343815
 21
-26.9989432546
  0
LINE
  5
3BB
100
AcDbEntity
  8
RACCORDO
100
AcDbLine
 62
253
  6
CONTINUOUS
 10
39.4779969875
 20
-28.9456532036
 11
39.413042859
 21
-28.1957272839
  0
LINE
  5
3BC
100
AcDbEntity
  8
RACCORDO
100
AcDbLine
 62
253
  6
CONTINUOUS
 10
39.8212584188
 20
-26.0621585616
 11
39.8863465937
 21
-26.8135800294
  0
LINE
  5
3BD
100
AcDbEntity
  8
RACCORDO
100
AcDbLine
 62
253
  6
CONTINUOUS
 10
39.776973258
 20
-29.0494160861
 11
39.7734174077
 21
-29.0062610333
  0
LINE
  5
3BE
100
AcDbEntity
  8
RACCORDO
100
AcDbLine
 62
253
  6
CONTINUOUS
 10
39.5222821519
 20
-25.9583957184
 11
39.5258380018
 21
-26.0015507692
  0
LWPOLYLINE
  5
3BF
100
AcDbEntity
  8
RACCORDO
100
AcDbPolyline
 62
253
  6
CONTINUOUS
 90
3
 70
0
 10
36.5895172836
 20
-28.8344580977
 10
36.5964402384
 20
-28.9389783148
 10
36.6119276379
 20
-29.1521538172
  0
LWPOLYLINE
  5
3C0
100
AcDbEntity
  8
RACCORDO
100
AcDbPolyline
 62
253
  6
CONTINUOUS
 90
3
 70
0
 10
36.9227618629
 20
-28.9357604357
 10
36.9296795845
 20
-29.0596553134
 10
36.9376261193
 20
-29.1862355063
  0
LWPOLYLINE
  5
3C1
100
AcDbEntity
  8
RACCORDO
100
AcDbPolyline
 62
253
  6
CONTINUOUS
 90
3
 70
0
 10
36.9227766633
 20
51.0639771528
 10
36.9296881192
 20
50.9402109856
 10
36.9376258322
 20
50.8137653173
  0
LWPOLYLINE
  5
3C2
100
AcDbEntity
  8
RACCORDO
100
AcDbPolyline
 62
253
  6
CONTINUOUS
 90
3
 70
0
 10
36.9058896279
 20
-28.577852041
 10
36.9110465451
 20
-28.695095966
 10
36.9227618629
 20
-28.9357604357
  0
LWPOLYLINE
  5
3C3
100
AcDbEntity
  8
RACCORDO
100
AcDbPolyline
 62
253
  6
CONTINUOUS
 90
3
 70
0
 10
36.9059147444
 20
51.4215297724
 10
36.9110690101
 20
51.3044001785
 10
36.9227766633
 20
51.0639771528
  0
LWPOLYLINE
  5
3C4
100
AcDbEntity
  8
RACCORDO
100
AcDbPolyline
 62
7
  6
CONTINUOUS
 90
13
 70
0
 10
37.5304271347
 20
-31.0009668749
 10
37.5288806412
 20
-30.9620556873
 10
37.524428507
 20
-30.9237926111
 10
37.5170707319
 20
-30.8861776466
 10
37.5067263487
 20
-30.8489786193
 10
37.4934763247
 20
-30.8124277036
 10
37.4775635624
 20
-30.7772214224
 10
37.458938163
 20
-30.7433989077
 10
37.4376500254
 20
-30.7109210275
 10
37.4140917481
 20
-30.6803669089
 10
37.3883941975
 20
-30.6519295942
 10
37.3604265073
 20
-30.625416041
 10
37.3301886774
 20
-30.6008262494
  0
LWPOLYLINE
  5
3C5
100
AcDbEntity
  8
RACCORDO
100
AcDbPolyline
 62
7
  6
CONTINUOUS
 90
13
 70
0
 10
37.5304271347
 20
48.9990331251
 10
37.5288806412
 20
49.0379443127
 10
37.524428507
 20
49.0762073889
 10
37.5170707319
 20
49.1138223534
 10
37.5067263487
 20
49.1510213807
 10
37.4934763247
 20
49.1875722964
 10
37.4775635624
 20
49.2227785776
 10
37.458938163
 20
49.2566010923
 10
37.4376500254
 20
49.2890789725
 10
37.4140917481
 20
49.3196330911
 10
37.3883941975
 20
49.3480704058
 10
37.3604265073
 20
49.374583959
 10
37.3301886774
 20
49.3991737506
  0
LWPOLYLINE
  5
3C6
100
AcDbEntity
  8
RACCORDO
100
AcDbPolyline
 62
253
  6
CONTINUOUS
 90
22
 70
0
 10
37.844436885
 20
-33.3627992416
 10
37.84498887
 20
-33.3774323011
 10
37.8465626289
 20
-33.391832786
 10
37.8491581618
 20
-33.4060006961
 10
37.8527982025
 20
-33.420003627
 10
37.8574600171
 20
-33.4337739832
 10
37.8630754043
 20
-33.4471089783
 10
37.8696666625
 20
-33.4600128657
 10
37.8772114933
 20
-33.4724813921
 10
37.8855748005
 20
-33.4842990109
 10
37.894736849
 20
-33.4954297525
 10
37.9047173739
 20
-33.5059095866
 10
37.9154404843
 20
-33.5156308759
 10
37.9269066642
 20
-33.5246082956
 10
37.9391154297
 20
-33.5328271706
 10
37.9519894368
 20
-33.5401358389
 10
37.9655856141
 20
-33.5465516593
 10
37.9798470331
 20
-33.552057273
 10
37.9945255644
 20
-33.5564489417
 10
38.009538498
 20
-33.5596587528
 10
38.0249685438
 20
-33.5617546188
 10
38.0408157018
 20
-33.5627365399
  0
LWPOLYLINE
  5
3C7
100
AcDbEntity
  8
RACCORDO
100
AcDbPolyline
 62
253
  6
CONTINUOUS
 90
22
 70
0
 10
37.844436885
 20
46.6372007584
 10
37.84498887
 20
46.6225676989
 10
37.8465626289
 20
46.608167214
 10
37.8491581618
 20
46.5939993039
 10
37.8527982025
 20
46.579996373
 10
37.8574600171
 20
46.5662260168
 10
37.8630754043
 20
46.5528910217
 10
37.8696666625
 20
46.5399871343
 10
37.8772114933
 20
46.5275186079
 10
37.8855748005
 20
46.5157009891
 10
37.894736849
 20
46.5045702475
 10
37.9047173739
 20
46.4940904134
 10
37.9154404843
 20
46.4843691241
 10
37.9269066642
 20
46.4753917044
 10
37.9391154297
 20
46.4671728294
 10
37.9519894368
 20
46.4598641611
 10
37.9655856141
 20
46.4534483407
 10
37.9798470331
 20
46.447942727
 10
37.9945255644
 20
46.4435510583
 10
38.009538498
 20
46.4403412472
 10
38.0249685438
 20
46.4382453812
 10
38.0408157018
 20
46.4372634601
  0
LWPOLYLINE
  5
3C8
100
AcDbEntity
  8
RACCORDO
100
AcDbPolyline
 62
253
  6
CONTINUOUS
 90
22
 70
0
 10
37.5444825771
 20
-33.362799241
 10
37.5458060262
 20
-33.3990648082
 10
37.5497542219
 20
-33.4351235178
 10
37.5563029891
 20
-33.4707859626
 10
37.5654112194
 20
-33.5058541927
 10
37.577029471
 20
-33.5401563201
 10
37.5911081857
 20
-33.5735447945
 10
37.607594039
 20
-33.6058729106
 10
37.62639156
 20
-33.6369361595
 10
37.6473630819
 20
-33.6665135837
 10
37.6703186395
 20
-33.6943761362
 10
37.6951886866
 20
-33.7204746869
 10
37.722027706
 20
-33.7448428386
 10
37.7507286023
 20
-33.7673237164
 10
37.7811615819
 20
-33.787759237
 10
37.8133943879
 20
-33.8061108433
 10
37.8474025999
 20
-33.822238999
 10
37.8829379113
 20
-33.8359035948
 10
37.9197225927
 20
-33.8469055007
 10
37.9575246815
 20
-33.855102249
 10
37.9961686758
 20
-33.8603835488
 10
38.0354296192
 20
-33.8626424866
  0
LWPOLYLINE
  5
3C9
100
AcDbEntity
  8
RACCORDO
100
AcDbPolyline
 62
253
  6
CONTINUOUS
 90
22
 70
0
 10
37.5444825771
 20
46.637200759
 10
37.5458060262
 20
46.6009351918
 10
37.5497542219
 20
46.5648764822
 10
37.5563029891
 20
46.5292140374
 10
37.5654112194
 20
46.4941458073
 10
37.577029471
 20
46.4598436799
 10
37.5911081857
 20
46.4264552055
 10
37.607594039
 20
46.3941270894
 10
37.62639156
 20
46.3630638405
 10
37.6473630819
 20
46.3334864163
 10
37.6703186395
 20
46.3056238638
 10
37.6951886866
 20
46.2795253131
 10
37.722027706
 20
46.2551571614
 10
37.7507286023
 20
46.2326762836
 10
37.7811615819
 20
46.212240763
 10
37.8133943879
 20
46.1938891567
 10
37.8474025999
 20
46.177761001
 10
37.8829379113
 20
46.1640964052
 10
37.9197225927
 20
46.1530944993
 10
37.9575246815
 20
46.144897751
 10
37.9961686758
 20
46.1396164512
 10
38.0354296192
 20
46.1373575134
  0
LWPOLYLINE
  5
3CA
100
AcDbEntity
  8
RACCORDO
100
AcDbPolyline
 62
253
  6
CONTINUOUS
 90
3
 70
0
 10
36.8940556497
 20
-28.237030257
 10
36.897548474
 20
-28.3490723775
 10
36.9058896279
 20
-28.577852041
  0
LWPOLYLINE
  5
3CB
100
AcDbEntity
  8
RACCORDO
100
AcDbPolyline
 62
253
  6
CONTINUOUS
 90
3
 70
0
 10
36.8940920148
 20
51.7619426877
 10
36.8975818124
 20
51.6500485087
 10
36.9059147444
 20
51.4215297724
  0
LWPOLYLINE
  5
3CC
100
AcDbEntity
  8
RACCORDO
100
AcDbPolyline
 62
253
  6
CONTINUOUS
 90
3
 70
0
 10
36.8873438327
 20
-27.9306172159
 10
36.8890107026
 20
-28.0196945413
 10
36.8940556497
 20
-28.237030257
  0
LWPOLYLINE
  5
3CD
100
AcDbEntity
  8
RACCORDO
100
AcDbPolyline
 62
253
  6
CONTINUOUS
 90
3
 70
0
 10
36.887339993
 20
52.0694045599
 10
36.8890265626
 20
51.979258843
 10
36.8940920148
 20
51.7619426877
  0
LINE
  5
3CE
100
AcDbEntity
  8
RACCORDO
100
AcDbLine
 62
253
  6
CONTINUOUS
 10
38.0408157018
 20
-21.4450752589
 11
38.035429618
 21
-21.1451693115
  0
LINE
  5
3CF
100
AcDbEntity
  8
RACCORDO
100
AcDbLine
 62
253
  6
CONTINUOUS
 10
38.0408157018
 20
58.5549247411
 11
38.035429618
 21
58.8548306885
  0
LWPOLYLINE
  5
3D0
100
AcDbEntity
  8
RACCORDO
100
AcDbPolyline
 62
253
  6
CONTINUOUS
 90
13
 70
0
 10
36.5456209235
 20
-27.5918497999
 10
36.5462312791
 20
-27.6807159277
 10
36.5472697061
 20
-27.7705042569
 10
36.5487227916
 20
-27.8611074521
 10
36.5506039484
 20
-27.9526328486
 10
36.5529534154
 20
-28.0454024526
 10
36.5557728406
 20
-28.1394998934
 10
36.5590605761
 20
-28.2348415417
 10
36.5628519162
 20
-28.3314985164
 10
36.5671514408
 20
-28.4295028995
 10
36.57195457
 20
-28.5288226091
 10
36.5772828589
 20
-28.6294325181
 10
36.5895172836
 20
-28.8344580977
  0
LWPOLYLINE
  5
3D1
100
AcDbEntity
  8
RACCORDO
100
AcDbPolyline
 62
253
  6
CONTINUOUS
 90
13
 70
0
 10
36.5456227808
 20
52.4078953328
 10
36.5462362568
 20
52.3188036244
 10
36.5472790672
 20
52.2288190012
 10
36.5487385266
 20
52.1380408369
 10
36.5506273204
 20
52.0463697578
 10
36.5529835047
 20
51.9535076437
 10
36.5558083351
 20
51.8593862719
 10
36.559100556
 20
51.7640738651
 10
36.562894457
 20
51.6674769704
 10
36.5671939974
 20
51.5695663893
 10
36.571995218
 20
51.4703713203
 10
36.5773205311
 20
51.3698859062
 10
36.589546309
 20
51.1650881561
  0
LINE
  5
3D2
100
AcDbEntity
  8
RACCORDO
100
AcDbLine
 62
7
  6
CONTINUOUS
 10
36.4556680273
 20
54.6139374407
 11
36.4556680273
 21
50.3782507604
  0
LINE
  5
3D3
100
AcDbEntity
  8
RACCORDO
100
AcDbLine
 62
7
  6
CONTINUOUS
 10
36.4556680273
 20
-25.3860625593
 11
36.4556680273
 21
-29.6217492396
  0
LINE
  5
3D4
100
AcDbEntity
  8
RACCORDO
100
AcDbLine
 62
253
  6
CONTINUOUS
 10
36.6204589304
 20
54.6532064445
 11
36.6204860817
 21
54.2529653468
  0
LINE
  5
3D5
100
AcDbEntity
  8
RACCORDO
100
AcDbLine
 62
253
  6
CONTINUOUS
 10
36.6204589304
 20
-25.3467935555
 11
36.6204860817
 21
-25.7470346122
  0
LINE
  5
3D6
100
AcDbEntity
  8
RACCORDO
100
AcDbLine
 62
253
  6
CONTINUOUS
 10
36.8174476323
 20
54.6450793839
 11
36.8174476323
 21
54.2529653468
  0
LINE
  5
3D7
100
AcDbEntity
  8
RACCORDO
100
AcDbLine
 62
253
  6
CONTINUOUS
 10
36.8174476323
 20
50.7392228543
 11
36.8174476323
 21
50.3471088156
  0
LINE
  5
3D8
100
AcDbEntity
  8
RACCORDO
100
AcDbLine
 62
253
  6
CONTINUOUS
 10
36.8174476323
 20
-25.3549206161
 11
36.8174476323
 21
-25.7470346532
  0
LINE
  5
3D9
100
AcDbEntity
  8
RACCORDO
100
AcDbLine
 62
253
  6
CONTINUOUS
 10
36.8174476323
 20
-29.2607771457
 11
36.8174476323
 21
-29.6528911844
  0
LINE
  5
3DA
100
AcDbEntity
  8
RACCORDO
100
AcDbLine
 62
7
  6
CONTINUOUS
 10
37.5304271347
 20
58.3687764995
 11
37.5304271347
 21
55.9931550761
  0
LINE
  5
3DB
100
AcDbEntity
  8
RACCORDO
100
AcDbLine
 62
7
  6
CONTINUOUS
 10
37.5304271347
 20
48.9990331251
 11
37.5304271347
 21
46.6234117016
  0
LINE
  5
3DC
100
AcDbEntity
  8
RACCORDO
100
AcDbLine
 62
7
  6
CONTINUOUS
 10
37.5304271347
 20
-21.6312235005
 11
37.5304271347
 21
-24.0068449239
  0
LINE
  5
3DD
100
AcDbEntity
  8
RACCORDO
100
AcDbLine
 62
7
  6
CONTINUOUS
 10
37.5304271347
 20
-31.0009668749
 11
37.5304271347
 21
-33.3765882984
  0
LINE
  5
3DE
100
AcDbEntity
  8
RACCORDO
100
AcDbLine
 62
253
  6
CONTINUOUS
 10
37.5444825765
 20
58.3549874427
 11
37.5444825765
 21
55.9861143613
  0
LINE
  5
3DF
100
AcDbEntity
  8
RACCORDO
100
AcDbLine
 62
253
  6
CONTINUOUS
 10
37.5444825765
 20
49.0060738399
 11
37.5444825765
 21
46.6372007584
  0
LINE
  5
3E0
100
AcDbEntity
  8
RACCORDO
100
AcDbLine
 62
253
  6
CONTINUOUS
 10
37.5444825765
 20
-21.6450125573
 11
37.5444825765
 21
-24.0138856387
  0
LINE
  5
3E1
100
AcDbEntity
  8
RACCORDO
100
AcDbLine
 62
253
  6
CONTINUOUS
 10
37.5444825765
 20
-30.9939261601
 11
37.5444825765
 21
-33.3627992416
  0
LINE
  5
3E2
100
AcDbEntity
  8
RACCORDO
100
AcDbLine
 62
253
  6
CONTINUOUS
 10
37.6286663907
 20
-44.4329141231
 11
37.6286663917
 21
-44.7328684316
  0
LINE
  5
3E3
100
AcDbEntity
  8
RACCORDO
100
AcDbLine
 62
253
  6
CONTINUOUS
 10
37.6286663907
 20
69.4251023242
 11
37.6286663907
 21
69.7250566328
  0
LINE
  5
3E4
100
AcDbEntity
  8
RACCORDO
100
AcDbLine
 62
253
  6
CONTINUOUS
 10
37.8286359298
 20
-44.2329445841
 11
37.8286359298
 21
-33.8340177949
  0
LINE
  5
3E5
100
AcDbEntity
  8
RACCORDO
100
AcDbLine
 62
253
  6
CONTINUOUS
 10
37.8286359298
 20
-21.173794004
 11
37.8286359298
 21
46.1659822051
  0
LINE
  5
3E6
100
AcDbEntity
  8
RACCORDO
100
AcDbLine
 62
253
  6
CONTINUOUS
 10
37.8286359298
 20
58.826205996
 11
37.8286359298
 21
69.2251327852
  0
LINE
  5
3E7
100
AcDbEntity
  8
RACCORDO
100
AcDbLine
 62
253
  6
CONTINUOUS
 10
37.844436885
 20
58.3549874427
 11
37.844436885
 21
55.9861143613
  0
LINE
  5
3E8
100
AcDbEntity
  8
RACCORDO
100
AcDbLine
 62
253
  6
CONTINUOUS
 10
37.844436885
 20
49.0060738399
 11
37.844436885
 21
46.6372007584
  0
LINE
  5
3E9
100
AcDbEntity
  8
RACCORDO
100
AcDbLine
 62
253
  6
CONTINUOUS
 10
37.844436885
 20
-21.6450125573
 11
37.844436885
 21
-24.0138856387
  0
LINE
  5
3EA
100
AcDbEntity
  8
RACCORDO
100
AcDbLine
 62
253
  6
CONTINUOUS
 10
37.844436885
 20
-30.9939261601
 11
37.844436885
 21
-33.3627992416
  0
LINE
  5
3EB
100
AcDbEntity
  8
RACCORDO
100
AcDbLine
 62
253
  6
CONTINUOUS
 10
38.1285902383
 20
-44.2329445841
 11
38.1285902383
 21
-33.8828337413
  0
LINE
  5
3EC
100
AcDbEntity
  8
RACCORDO
100
AcDbLine
 62
253
  6
CONTINUOUS
 10
38.1285902383
 20
-21.1249780575
 11
38.1285902383
 21
46.1171662587
  0
LINE
  5
3ED
100
AcDbEntity
  8
RACCORDO
100
AcDbLine
 62
253
  6
CONTINUOUS
 10
38.1285902383
 20
58.8750219425
 11
38.1285902383
 21
69.2251327852
  0
LINE
  5
3EE
100
AcDbEntity
  8
RACCORDO
100
AcDbLine
 62
7
  6
CONTINUOUS
 10
38.1496277061
 20
69.246170253
 11
38.1496277061
 21
58.8960941006
  0
LINE
  5
3EF
100
AcDbEntity
  8
DRAFT
100
AcDbLine
 62
7
  6
CONTINUOUS
 10
38.1496277061
 20
46.0960941006
 11
38.1496277061
 21
-21.1039058994
  0
LINE
  5
3F0
100
AcDbEntity
  8
RACCORDO
100
AcDbLine
 62
7
  6
CONTINUOUS
 10
38.1496277061
 20
-33.9039058994
 11
38.1496277061
 21
-44.2539820518
  0
LINE
  5
3F1
100
AcDbEntity
  8
RACCORDO
100
AcDbLine
 62
253
  6
CONTINUOUS
 10
36.5454646387
 20
52.5335563595
 11
36.5456227808
 21
52.4078953328
  0
LINE
  5
3F2
100
AcDbEntity
  8
RACCORDO
100
AcDbLine
 62
253
  6
CONTINUOUS
 10
36.5454595927
 20
-27.4706978369
 11
36.5456209235
 21
-27.5918497999
  0
LWPOLYLINE
  5
3F3
100
AcDbEntity
  8
RACCORDO
100
AcDbPolyline
 62
253
  6
CONTINUOUS
 90
46
 70
0
 10
36.6204860817
 20
50.7392162052
 10
36.6204628209
 20
50.3395012428
 10
36.6204092342
 20
50.3321658293
 10
36.6203253217
 20
50.3251025638
 10
36.6202089016
 20
50.3183187099
 10
36.6200621556
 20
50.3118070038
 10
36.6198916291
 20
50.3055456553
 10
36.6196977362
 20
50.2995324824
 10
36.6194800628
 20
50.2937696669
 10
36.6192439112
 20
50.2882419637
 10
36.6189894712
 20
50.2829480669
 10
36.618716553
 20
50.2778892823
 10
36.6184298894
 20
50.2730542824
 10
36.6181294174
 20
50.2684413489
 10
36.6178152001
 20
50.2640522002
 10
36.6174921593
 20
50.2598806641
 10
36.6171605167
 20
50.2559296483
 10
36.6168200507
 20
50.2521962452
 10
36.616475018
 20
50.2486655598
 10
36.6161263948
 20
50.2453439288
 10
36.6157732048
 20
50.2422250156
 10
36.6154167766
 20
50.2392749157
 10
36.615058325
 20
50.2364960856
 10
36.6146966352
 20
50.2338860688
 10
36.6143293903
 20
50.2314035908
 10
36.6139573831
 20
50.2290450169
 10
36.6135798208
 20
50.2268139819
 10
36.6131920086
 20
50.2246801157
 10
36.6127939863
 20
50.2226356356
 10
36.6123857139
 20
50.2206883245
 10
36.6119623769
 20
50.2188311606
 10
36.6115236128
 20
50.2170565148
 10
36.6110697839
 20
50.2153720164
 10
36.6105971623
 20
50.2137935314
 10
36.6101056468
 20
50.2123156424
 10
36.6095953385
 20
50.2109437669
 10
36.6090628129
 20
50.2097100234
 10
36.6085080539
 20
50.2086087869
 10
36.6079310774
 20
50.2076456824
 10
36.6073285065
 20
50.206869703
 10
36.6066995018
 20
50.2062745686
 10
36.6060449026
 20
50.2058665594
 10
36.6053638504
 20
50.2057135093
 10
36.6046560589
 20
50.2058380298
 10
36.6039218143
 20
50.2062175095
 10
36.6031611167
 20
50.2068519483
  0
LWPOLYLINE
  5
3F4
100
AcDbEntity
  8
RACCORDO
100
AcDbPolyline
 62
253
  6
CONTINUOUS
 90
46
 70
0
 10
36.6204860817
 20
-29.2607850598
 10
36.6204628209
 20
-29.6604987572
 10
36.6204092342
 20
-29.6678341707
 10
36.6203253217
 20
-29.6748974362
 10
36.6202089016
 20
-29.6816812901
 10
36.6200621556
 20
-29.6881929962
 10
36.6198916291
 20
-29.6944543447
 10
36.6196977362
 20
-29.7004675176
 10
36.6194800628
 20
-29.7062303331
 10
36.6192439112
 20
-29.7117580363
 10
36.6189894712
 20
-29.7170519331
 10
36.618716553
 20
-29.7221107177
 10
36.6184298894
 20
-29.7269457176
 10
36.6181294174
 20
-29.7315586511
 10
36.6178152001
 20
-29.7359477998
 10
36.6174921593
 20
-29.7401193359
 10
36.6171605167
 20
-29.7440703517
 10
36.6168200507
 20
-29.7478037548
 10
36.616475018
 20
-29.7513344402
 10
36.6161263948
 20
-29.7546560712
 10
36.6157732048
 20
-29.7577749844
 10
36.6154167766
 20
-29.7607250843
 10
36.615058325
 20
-29.7635039144
 10
36.6146966352
 20
-29.7661139312
 10
36.6143293903
 20
-29.7685964092
 10
36.6139573831
 20
-29.7709549831
 10
36.6135798208
 20
-29.7731860181
 10
36.6131920086
 20
-29.7753198843
 10
36.6127939863
 20
-29.7773643644
 10
36.6123857139
 20
-29.7793116755
 10
36.6119623769
 20
-29.7811688394
 10
36.6115236128
 20
-29.7829434852
 10
36.6110697839
 20
-29.7846279836
 10
36.6105971623
 20
-29.7862064686
 10
36.6101056468
 20
-29.7876843576
 10
36.6095953385
 20
-29.7890562331
 10
36.6090628129
 20
-29.7902899766
 10
36.6085080539
 20
-29.7913912131
 10
36.6079310774
 20
-29.7923543176
 10
36.6073285065
 20
-29.793130297
 10
36.6066995018
 20
-29.7937254314
 10
36.6060449026
 20
-29.7941334406
 10
36.6053638504
 20
-29.7942864907
 10
36.6046560589
 20
-29.7941619702
 10
36.6039218143
 20
-29.7937824905
 10
36.6031611167
 20
-29.7931480517
  0
LINE
  5
3F5
100
AcDbEntity
  8
RACCORDO
100
AcDbLine
 62
253
  6
CONTINUOUS
 10
36.5459290228
 20
-27.3660834274
 11
36.5454595927
 21
-27.4706978369
  0
LINE
  5
3F6
100
AcDbEntity
  8
RACCORDO
100
AcDbLine
 62
253
  6
CONTINUOUS
 10
36.5460658183
 20
52.651960385
 11
36.5454646387
 21
52.5335563595
  0
LINE
  5
3F7
100
AcDbEntity
  8
RACCORDO
100
AcDbLine
 62
253
  6
CONTINUOUS
 10
36.5469216226
 20
52.736079786
 11
36.5460658183
 21
52.651960385
  0
LINE
  5
3F8
100
AcDbEntity
  8
RACCORDO
100
AcDbLine
 62
253
  6
CONTINUOUS
 10
36.5470540833
 20
-27.2535146595
 11
36.5459290228
 21
-27.3660834274
  0
LINE
  5
3F9
100
AcDbEntity
  8
RACCORDO
100
AcDbLine
 62
253
  6
CONTINUOUS
 10
36.5482183952
 20
52.8250735619
 11
36.5469216226
 21
52.736079786
  0
LINE
  5
3FA
100
AcDbEntity
  8
RACCORDO
100
AcDbLine
 62
253
  6
CONTINUOUS
 10
36.8882626404
 20
-27.0226455003
 11
36.8873347988
 21
-27.0772458164
  0
LINE
  5
3FB
100
AcDbEntity
  8
RACCORDO
100
AcDbLine
 62
253
  6
CONTINUOUS
 10
38.0408157018
 20
46.4372634601
 11
38.0354296183
 21
46.1373575126
  0
LINE
  5
3FC
100
AcDbEntity
  8
RACCORDO
100
AcDbLine
 62
253
  6
CONTINUOUS
 10
38.0408157018
 20
-33.5627365399
 11
38.0354296183
 21
-33.8626424874
  0
LINE
  5
3FD
100
AcDbEntity
  8
RACCORDO
100
AcDbLine
 62
253
  6
CONTINUOUS
 10
36.5490072575
 20
-27.1314044026
 11
36.5470540833
 21
-27.2535146595
  0
LINE
  5
3FE
100
AcDbEntity
  8
RACCORDO
100
AcDbLine
 62
253
  6
CONTINUOUS
 10
36.8895905293
 20
53.044724762
 11
36.8873417223
 21
52.9227934484
  0
LINE
  5
3FF
100
AcDbEntity
  8
RACCORDO
100
AcDbLine
 62
253
  6
CONTINUOUS
 10
36.5500459759
 20
52.919518573
 11
36.5482183952
 21
52.8250735619
  0
LINE
  5
400
100
AcDbEntity
  8
RACCORDO
100
AcDbLine
 62
253
  6
CONTINUOUS
 10
36.5508675152
 20
-27.0440113519
 11
36.5490072575
 21
-27.1314044026
  0
LINE
  5
401
100
AcDbEntity
  8
RACCORDO
100
AcDbLine
 62
253
  6
CONTINUOUS
 10
36.8911906492
 20
-26.8840539108
 11
36.8882626404
 21
-27.0226455003
  0
LINE
  5
402
100
AcDbEntity
  8
RACCORDO
100
AcDbLine
 62
253
  6
CONTINUOUS
 10
36.5524690465
 20
53.0197809816
 11
36.5500459759
 21
52.919518573
  0
LINE
  5
403
100
AcDbEntity
  8
RACCORDO
100
AcDbLine
 62
253
  6
CONTINUOUS
 10
36.8934437807
 20
53.2045854999
 11
36.8895905293
 21
53.044724762
  0
LINE
  5
404
100
AcDbEntity
  8
RACCORDO
100
AcDbLine
 62
253
  6
CONTINUOUS
 10
36.5532567804
 20
-26.9513476312
 11
36.5508675152
 21
-27.0440113519
  0
LINE
  5
405
100
AcDbEntity
  8
RACCORDO
100
AcDbLine
 62
253
  6
CONTINUOUS
 10
36.8952333017
 20
-26.7324934113
 11
36.8911906492
 21
-26.8840539108
  0
LINE
  5
406
100
AcDbEntity
  8
RACCORDO
100
AcDbLine
 62
253
  6
CONTINUOUS
 10
36.5555924951
 20
53.1263938887
 11
36.5524690465
 21
53.0197809816
  0
LWPOLYLINE
  5
407
100
AcDbEntity
  8
RACCORDO
100
AcDbPolyline
 62
253
  6
CONTINUOUS
 90
16
 70
0
 10
37.5444825756
 20
55.9861143617
 10
37.5435214006
 20
55.9550835173
 10
37.5406623218
 20
55.9243849058
 10
37.5359555497
 20
55.894131572
 10
37.529490671
 20
55.8645631533
 10
37.5213123981
 20
55.8356444239
 10
37.5113410187
 20
55.8070874387
 10
37.4995294248
 20
55.7788980405
 10
37.4859252358
 20
55.7513109955
 10
37.4705238677
 20
55.7244080152
 10
37.4532970058
 20
55.6982455494
 10
37.4343143131
 20
55.6730258166
 10
37.4137556957
 20
55.6490306441
 10
37.3917486309
 20
55.6264080803
 10
37.3683328979
 20
55.6051983182
 10
37.3435978735
 20
55.5854905449
  0
LWPOLYLINE
  5
408
100
AcDbEntity
  8
RACCORDO
100
AcDbPolyline
 62
253
  6
CONTINUOUS
 90
16
 70
0
 10
37.5444825756
 20
-24.0138856383
 10
37.5435214006
 20
-24.0449164827
 10
37.5406623218
 20
-24.0756150942
 10
37.5359555497
 20
-24.105868428
 10
37.529490671
 20
-24.1354368467
 10
37.5213123981
 20
-24.1643555761
 10
37.5113410187
 20
-24.1929125613
 10
37.4995294248
 20
-24.2211019595
 10
37.4859252358
 20
-24.2486890045
 10
37.4705238677
 20
-24.2755919848
 10
37.4532970058
 20
-24.3017544506
 10
37.4343143131
 20
-24.3269741834
 10
37.4137556957
 20
-24.3509693559
 10
37.3917486309
 20
-24.3735919197
 10
37.3683328979
 20
-24.3948016818
 10
37.3435978735
 20
-24.4145094551
  0
LINE
  5
409
100
AcDbEntity
  8
RACCORDO
100
AcDbLine
 62
253
  6
CONTINUOUS
 10
36.5562689893
 20
-26.8530174258
 11
36.5532567804
 21
-26.9513476312
  0
LINE
  5
40A
100
AcDbEntity
  8
RACCORDO
100
AcDbLine
 62
253
  6
CONTINUOUS
 10
36.898792939
 20
53.3799328273
 11
36.8934437807
 21
53.2045854999
  0
LWPOLYLINE
  5
40B
100
AcDbEntity
  8
RACCORDO
100
AcDbPolyline
 62
253
  6
CONTINUOUS
 90
16
 70
0
 10
37.844436885
 20
55.9861143613
 10
37.8427448638
 20
55.9361810307
 10
37.8381934474
 20
55.8871253807
 10
37.830782636
 20
55.8389474115
 10
37.8205192537
 20
55.7916811338
 10
37.8073964763
 20
55.7452925369
 10
37.7913938313
 20
55.6996795879
 10
37.7724895729
 20
55.654634217
 10
37.7507054469
 20
55.610364494
 10
37.7260862179
 20
55.5673925961
 10
37.6984950239
 20
55.525623828
 10
37.6680687268
 20
55.4851528849
 10
37.6352626771
 20
55.4467860296
 10
37.6002286581
 20
55.4107920166
 10
37.5628148864
 20
55.3769020914
 10
37.523021362
 20
55.3451162541
  0
LWPOLYLINE
  5
40C
100
AcDbEntity
  8
RACCORDO
100
AcDbPolyline
 62
253
  6
CONTINUOUS
 90
16
 70
0
 10
37.844436885
 20
-24.0138856387
 10
37.8427448638
 20
-24.0638189693
 10
37.8381934474
 20
-24.1128746193
 10
37.830782636
 20
-24.1610525885
 10
37.8205192537
 20
-24.2083188662
 10
37.8073964763
 20
-24.2547074631
 10
37.7913938313
 20
-24.3003204121
 10
37.7724895729
 20
-24.345365783
 10
37.7507054469
 20
-24.389635506
 10
37.7260862179
 20
-24.4326074039
 10
37.6984950239
 20
-24.474376172
 10
37.6680687268
 20
-24.5148471151
 10
37.6352626771
 20
-24.5532139704
 10
37.6002286581
 20
-24.5892079834
 10
37.5628148864
 20
-24.6230979086
 10
37.523021362
 20
-24.6548837459
  0
LINE
  5
40D
100
AcDbEntity
  8
RACCORDO
100
AcDbLine
 62
253
  6
CONTINUOUS
 10
36.9006456002
 20
-26.5670185065
 11
36.8952333017
 21
-26.7324934113
  0
LWPOLYLINE
  5
40E
100
AcDbEntity
  8
RACCORDO
100
AcDbPolyline
 62
7
  6
CONTINUOUS
 90
10
 70
0
 10
36.4556680273
 20
54.6139374407
 10
36.4561736905
 20
54.6283317944
 10
36.4576551361
 20
54.6425772848
 10
36.4601123638
 20
54.656673912
 10
36.4635543575
 20
54.6706796538
 10
36.4679721335
 20
54.6845365324
 10
36.4733387408
 20
54.6980706142
 10
36.4796451959
 20
54.7112239214
 10
36.4869004823
 20
54.7240544319
 10
36.4951046001
 20
54.7365621456
  0
LWPOLYLINE
  5
40F
100
AcDbEntity
  8
RACCORDO
100
AcDbPolyline
 62
7
  6
CONTINUOUS
 90
10
 70
0
 10
36.4556680273
 20
-25.3860625593
 10
36.4561734017
 20
-25.3716694412
 10
36.4576547086
 20
-25.3574246126
 10
36.460111948
 20
-25.3433280736
 10
36.4635542077
 20
-25.3293214932
 10
36.4679724
 20
-25.3154632024
 10
36.4733392616
 20
-25.3019281939
 10
36.479645705
 20
-25.2887747986
 10
36.4869008177
 20
-25.2759446856
 10
36.4951045998
 20
-25.263437855
  0
LINE
  5
410
100
AcDbEntity
  8
RACCORDO
100
AcDbLine
 62
253
  6
CONTINUOUS
 10
36.5595411285
 20
53.2397888395
 11
36.5555924951
 21
53.1263938887
  0
LINE
  5
411
100
AcDbEntity
  8
RACCORDO
100
AcDbLine
 62
253
  6
CONTINUOUS
 10
36.55996918
 20
-26.7487793581
 11
36.5562689893
 21
-26.8530174258
  0
LWPOLYLINE
  5
412
100
AcDbEntity
  8
RACCORDO
100
AcDbPolyline
 62
7
  6
CONTINUOUS
 90
16
 70
0
 10
37.5304271347
 20
58.3687764995
 10
37.5318837283
 20
58.4074294025
 10
37.5363137191
 20
58.4456019706
 10
37.5437171069
 20
58.483294204
 10
37.5542084715
 20
58.5208432829
 10
37.5676732331
 20
58.5579120271
 10
37.5837676532
 20
58.5934888953
 10
37.602540838
 20
58.6274155234
 10
37.6239436812
 20
58.6598502755
 10
37.6474851256
 20
58.6902567035
 10
37.6731506104
 20
58.718560494
 10
37.7009546965
 20
58.7448359603
 10
37.7304500089
 20
58.7687695945
 10
37.7614874228
 20
58.7902568938
 10
37.7942160631
 20
58.809402361
 10
37.8286359298
 20
58.826205996
  0
LWPOLYLINE
  5
413
100
AcDbEntity
  8
RACCORDO
100
AcDbPolyline
 62
7
  6
CONTINUOUS
 90
16
 70
0
 10
37.5304271347
 20
-21.6312235005
 10
37.5318837283
 20
-21.5925705975
 10
37.5363137191
 20
-21.5543980294
 10
37.5437171069
 20
-21.516705796
 10
37.5542084715
 20
-21.479156717
 10
37.5676732331
 20
-21.4420879729
 10
37.5837676533
 20
-21.4065111046
 10
37.602540838
 20
-21.3725844766
 10
37.6239436812
 20
-21.3401497245
 10
37.6474851256
 20
-21.3097432965
 10
37.6731506104
 20
-21.281439506
 10
37.7009546965
 20
-21.2551640397
 10
37.7304500089
 20
-21.2312304055
 10
37.7614874228
 20
-21.2097431062
 10
37.7942160631
 20
-21.190597639
 10
37.8286359298
 20
-21.173794004
  0
LINE
  5
414
100
AcDbEntity
  8
RACCORDO
100
AcDbLine
 62
253
  6
CONTINUOUS
 10
36.9059808111
 20
53.5719244935
 11
36.898792939
 21
53.3799328273
  0
LINE
  5
415
100
AcDbEntity
  8
RACCORDO
100
AcDbLine
 62
253
  6
CONTINUOUS
 10
36.907718847
 20
-26.386648791
 11
36.9006456002
 21
-26.5670185065
  0
LINE
  5
416
100
AcDbEntity
  8
RACCORDO
100
AcDbLine
 62
253
  6
CONTINUOUS
 10
36.5644002613
 20
53.3602246453
 11
36.5595411285
 21
53.2397888395
  0
LINE
  5
417
100
AcDbEntity
  8
RACCORDO
100
AcDbLine
 62
253
  6
CONTINUOUS
 10
36.5644596025
 20
-26.6383057008
 11
36.55996918
 21
-26.7487793581
  0
LINE
  5
418
100
AcDbEntity
  8
RACCORDO
100
AcDbLine
 62
253
  6
CONTINUOUS
 10
36.9154264064
 20
53.7821607278
 11
36.9059808111
 21
53.5719244935
  0
LINE
  5
419
100
AcDbEntity
  8
RACCORDO
100
AcDbLine
 62
253
  6
CONTINUOUS
 10
36.5698525385
 20
-26.5213331987
 11
36.5644596025
 21
-26.6383057008
  0
LINE
  5
41A
100
AcDbEntity
  8
RACCORDO
100
AcDbLine
 62
253
  6
CONTINUOUS
 10
36.916804623
 20
-26.1900224621
 11
36.907718847
 21
-26.386648791
  0
LINE
  5
41B
100
AcDbEntity
  8
RACCORDO
100
AcDbLine
 62
253
  6
CONTINUOUS
 10
36.5762265931
 20
-26.3976508822
 11
36.5698525385
 21
-26.5213331987
  0
LINE
  5
41C
100
AcDbEntity
  8
RACCORDO
100
AcDbLine
 62
253
  6
CONTINUOUS
 10
36.5837028839
 20
-26.2669353975
 11
36.5762265931
 21
-26.3976508822
  0
LWPOLYLINE
  5
41D
100
AcDbEntity
  8
RACCORDO
100
AcDbPolyline
 62
253
  6
CONTINUOUS
 90
4
 70
0
 10
36.9376245482
 20
-25.8215831743
 10
36.9326157474
 20
-25.8996654664
 10
36.9281953748
 20
-25.9754823193
 10
36.916804623
 20
-26.1900224621
  0
LINE
  5
41E
100
AcDbEntity
  8
RACCORDO
100
AcDbLine
 62
253
  6
CONTINUOUS
 10
36.5924282174
 20
-26.1286358438
 11
36.5837028839
 21
-26.2669353975
  0
LINE
  5
41F
100
AcDbEntity
  8
RACCORDO
100
AcDbLine
 62
253
  6
CONTINUOUS
 10
36.6025021358
 20
-25.9824059818
 11
36.5924282174
 21
-26.1286358438
  0
LWPOLYLINE
  5
420
100
AcDbEntity
  8
RACCORDO
100
AcDbPolyline
 62
253
  6
CONTINUOUS
 90
3
 70
0
 10
36.6204860817
 20
-25.7470346122
 10
36.614115243
 20
-25.8276053547
 10
36.6025021358
 20
-25.9824059818
  0
LINE
  5
421
100
AcDbEntity
  8
RACCORDO
100
AcDbLine
 62
253
  6
CONTINUOUS
 10
39.5222821562
 20
50.9505839088
 11
39.5258380069
 21
50.9937389608
  0
LINE
  5
422
100
AcDbEntity
  8
RACCORDO
100
AcDbLine
 62
253
  6
CONTINUOUS
 10
39.7769732585
 20
54.0416042859
 11
39.7734174093
 21
53.9984492261
  0
LINE
  5
423
100
AcDbEntity
  8
RACCORDO
100
AcDbLine
 62
253
  6
CONTINUOUS
 10
39.8212584207
 20
51.0543467736
 11
39.8861992656
 21
51.8041244676
  0
LINE
  5
424
100
AcDbEntity
  8
RACCORDO
100
AcDbLine
 62
253
  6
CONTINUOUS
 10
39.4779969929
 20
53.9378414358
 11
39.4128666538
 21
53.1859496582
  0
LINE
  5
425
100
AcDbEntity
  8
RACCORDO
100
AcDbLine
 62
253
  6
CONTINUOUS
 10
39.5258379997
 20
53.9984492306
 11
39.4959146405
 21
53.6722174362
  0
LINE
  5
426
100
AcDbEntity
  8
RACCORDO
100
AcDbLine
 62
253
  6
CONTINUOUS
 10
39.7734174097
 20
50.9937389669
 11
39.8032970968
 21
51.31950586
  0
LINE
  5
427
100
AcDbEntity
  8
RACCORDO
100
AcDbLine
 62
253
  6
CONTINUOUS
 10
39.4128666538
 20
53.1859496582
 11
39.3959115972
 21
53.0010567451
  0
LINE
  5
428
100
AcDbEntity
  8
RACCORDO
100
AcDbLine
 62
253
  6
CONTINUOUS
 10
39.8861992656
 20
51.8041244676
 11
39.903343815
 21
51.9911314564
  0
LINE
  5
429
100
AcDbEntity
  8
RACCORDO
100
AcDbLine
 62
253
  6
CONTINUOUS
 10
39.4959146405
 20
53.6722174362
 11
39.4898232406
 21
53.6077476982
  0
LINE
  5
42A
100
AcDbEntity
  8
RACCORDO
100
AcDbLine
 62
253
  6
CONTINUOUS
 10
39.8032970968
 20
51.31950586
 11
39.8237726526
 21
51.5324370258
  0
LWPOLYLINE
  5
42B
100
AcDbEntity
  8
RACCORDO
100
AcDbPolyline
 62
253
  6
CONTINUOUS
 90
3
 70
0
 10
39.8237726526
 20
51.5324370258
 10
39.8367571648
 20
51.6609409097
 10
39.8391652302
 20
51.6840929701
  0
LWPOLYLINE
  5
42C
100
AcDbEntity
  8
RACCORDO
100
AcDbPolyline
 62
253
  6
CONTINUOUS
 90
22
 70
0
 10
41.1951378979
 20
52.3687485507
 10
41.1946178392
 20
52.3637888696
 10
41.1937619919
 20
52.358773689
 10
41.192570356
 20
52.353703009
 10
41.1910586006
 20
52.3485584749
 10
41.1892110567
 20
52.3433584414
 10
41.1869807171
 20
52.3381579717
 10
41.1843662374
 20
52.3329529188
 10
41.1813689621
 20
52.3277474296
 10
41.1779459182
 20
52.3226090086
 10
41.1741041582
 20
52.3175374449
 10
41.1698366297
 20
52.3125329492
 10
41.1650792023
 20
52.3076636585
 10
41.1598170936
 20
52.3029074967
 10
41.1540650861
 20
52.2982865397
 10
41.1478033976
 20
52.293935152
 10
41.1410048742
 20
52.2898413081
 10
41.1336966698
 20
52.2860170335
 10
41.1259404642
 20
52.2826327689
 10
41.1177568174
 20
52.279745328
 10
41.1091251695
 20
52.2772978973
 10
41.1000455204
 20
52.2752904766
  0
LINE
  5
42D
100
AcDbEntity
  8
RACCORDO
100
AcDbLine
 62
253
  6
CONTINUOUS
 10
41.5397346619
 20
-22.1003572677
 11
41.5197665747
 21
-22.1105084355
  0
LWPOLYLINE
  5
42E
100
AcDbEntity
  8
RACCORDO
100
AcDbPolyline
 62
7
  6
CONTINUOUS
 90
10
 70
0
 10
37.8286359298
 20
-21.173794004
 10
37.8501779094
 20
-21.1648511324
 10
37.8720117642
 20
-21.1569490281
 10
37.8940107427
 20
-21.1500876913
 10
37.9161279278
 20
-21.1442869393
 10
37.9381158544
 20
-21.1395269547
 10
37.9595515318
 20
-21.1357482852
 10
37.9802104627
 20
-21.1329311135
 10
38.0000431185
 20
-21.1310952569
 10
38.0189123263
 20
-21.1302407155
  0
LINE
  5
42F
100
AcDbEntity
  8
RACCORDO
100
AcDbLine
 62
253
  6
CONTINUOUS
 10
39.8212584188
 20
-26.0621585616
 11
39.987359488
 21
-27.0041645356
  0
LINE
  5
430
100
AcDbEntity
  8
RACCORDO
100
AcDbLine
 62
253
  6
CONTINUOUS
 10
40.1580395798
 20
-27.8908105868
 11
40.1493690699
 21
-27.8416376813
  0
LINE
  5
431
100
AcDbEntity
  8
RACCORDO
100
AcDbLine
 62
253
  6
CONTINUOUS
 10
39.8704313242
 20
-26.0534880515
 11
40.0365323934
 21
-26.9954940257
  0
LINE
  5
432
100
AcDbEntity
  8
RACCORDO
100
AcDbLine
 62
253
  6
CONTINUOUS
 10
41.1000455204
 20
-27.7247095234
 11
41.0913750105
 21
-27.675536618
  0
LINE
  5
433
100
AcDbEntity
  8
RACCORDO
100
AcDbLine
 62
7
  6
CONTINUOUS
 10
39.3832710466
 20
-27.9322721408
 11
39.3959115972
 21
-28.0088685435
  0
LINE
  5
434
100
AcDbEntity
  8
RACCORDO
100
AcDbLine
 62
7
  6
CONTINUOUS
 10
39.9159843656
 20
-27.075539658
 11
39.903343815
 21
-26.9989432546
  0
LINE
  5
435
100
AcDbEntity
  8
RACCORDO
100
AcDbLine
 62
253
  6
CONTINUOUS
 10
39.8643706731
 20
-26.9170020853
 11
39.8680872169
 21
-26.9471090332
  0
LINE
  5
436
100
AcDbEntity
  8
RACCORDO
100
AcDbLine
 62
253
  6
CONTINUOUS
 10
39.4368587199
 20
-28.1072453094
 11
39.431168197
 21
-28.0607027849
  0
LINE
  5
437
100
AcDbEntity
  8
RACCORDO
100
AcDbLine
 62
253
  6
CONTINUOUS
 10
39.8586117375
 20
-26.8685775662
 11
39.8643706731
 21
-26.9170020853
  0
LINE
  5
438
100
AcDbEntity
  8
RACCORDO
100
AcDbLine
 62
253
  6
CONTINUOUS
 10
39.4426849981
 20
-28.1568953642
 11
39.4368587199
 21
-28.1072453094
  0
LINE
  5
439
100
AcDbEntity
  8
RACCORDO
100
AcDbLine
 62
253
  6
CONTINUOUS
 10
39.4510126724
 20
-28.2311462878
 11
39.4426849981
 21
-28.1568953642
  0
LWPOLYLINE
  5
43A
100
AcDbEntity
  8
RACCORDO
100
AcDbPolyline
 62
253
  6
CONTINUOUS
 90
3
 70
0
 10
39.8482989295
 20
-26.7771828658
 10
39.8504457991
 20
-26.7966814538
 10
39.8586117375
 20
-26.8685775662
  0
LINE
  5
43B
100
AcDbEntity
  8
RACCORDO
100
AcDbLine
 62
253
  6
CONTINUOUS
 10
39.460115476
 20
51.6838484195
 11
39.4510126724
 21
51.7688537122
  0
LINE
  5
43C
100
AcDbEntity
  8
RACCORDO
100
AcDbLine
 62
253
  6
CONTINUOUS
 10
39.8317707252
 20
53.3798550968
 11
39.8415574601
 21
53.2854455422
  0
LINE
  5
43D
100
AcDbEntity
  8
RACCORDO
100
AcDbLine
 62
253
  6
CONTINUOUS
 10
39.4727841576
 20
51.5596122455
 11
39.460115476
 21
51.6838484195
  0
LINE
  5
43E
100
AcDbEntity
  8
RACCORDO
100
AcDbLine
 62
253
  6
CONTINUOUS
 10
39.8153293993
 20
53.5462534696
 11
39.8317707252
 21
53.3798550968
  0
LINE
  5
43F
100
AcDbEntity
  8
RACCORDO
100
AcDbLine
 62
253
  6
CONTINUOUS
 10
39.4898629861
 20
51.3840233113
 11
39.4727841576
 21
51.5596122455
  0
LINE
  5
440
100
AcDbEntity
  8
RACCORDO
100
AcDbLine
 62
253
  6
CONTINUOUS
 10
39.7905883335
 20
53.8095001708
 11
39.8153293993
 21
53.5462534696
  0
LINE
  5
441
100
AcDbEntity
  8
RACCORDO
100
AcDbLine
 62
253
  6
CONTINUOUS
 10
39.413042859
 20
51.8042727161
 11
39.3959115972
 21
51.9911314565
  0
LWPOLYLINE
  5
442
100
AcDbEntity
  8
RACCORDO
100
AcDbPolyline
 62
253
  6
CONTINUOUS
 90
3
 70
0
 10
39.5258380075
 20
50.9937389608
 10
39.5223019495
 20
51.0330926152
 10
39.4898629861
 20
51.3840233113
  0
LINE
  5
443
100
AcDbEntity
  8
RACCORDO
100
AcDbLine
 62
253
  6
CONTINUOUS
 10
39.773417408
 20
53.9984492324
 11
39.7905883335
 21
53.8095001708
  0
LINE
  5
444
100
AcDbEntity
  8
RACCORDO
100
AcDbLine
 62
253
  6
CONTINUOUS
 10
39.8863465937
 20
53.1864199706
 11
39.903343815
 21
53.0010567454
  0
LINE
  5
445
100
AcDbEntity
  8
RACCORDO
100
AcDbLine
 62
253
  6
CONTINUOUS
 10
39.4779969875
 20
51.0543467964
 11
39.413042859
 21
51.8042727161
  0
LINE
  5
446
100
AcDbEntity
  8
RACCORDO
100
AcDbLine
 62
253
  6
CONTINUOUS
 10
39.8212584188
 20
53.9378414384
 11
39.8863465937
 21
53.1864199706
  0
LINE
  5
447
100
AcDbEntity
  8
RACCORDO
100
AcDbLine
 62
253
  6
CONTINUOUS
 10
39.5222821519
 20
54.0416042816
 11
39.5258380018
 21
53.9984492308
  0
LINE
  5
448
100
AcDbEntity
  8
RACCORDO
100
AcDbLine
 62
253
  6
CONTINUOUS
 10
39.776973258
 20
50.9505839139
 11
39.7734174077
 21
50.9937389667
  0
LINE
  5
449
100
AcDbEntity
  8
RACCORDO
100
AcDbLine
 62
253
  6
CONTINUOUS
 10
36.6039287923
 20
50.9548889318
 11
36.6204860817
 21
50.7392162052
  0
LINE
  5
44A
100
AcDbEntity
  8
RACCORDO
100
AcDbLine
 62
253
  6
CONTINUOUS
 10
36.589546309
 20
51.1650881561
 11
36.6039287923
 21
50.9548889318
  0
LWPOLYLINE
  5
44B
100
AcDbEntity
  8
RACCORDO
100
AcDbPolyline
 62
7
  6
CONTINUOUS
 90
13
 70
0
 10
41.7688282775
 20
-24.0068449239
 10
41.770374771
 20
-24.0457561116
 10
41.7748269052
 20
-24.0840191877
 10
41.7821846802
 20
-24.1216341523
 10
41.7925290635
 20
-24.1588331796
 10
41.8057790875
 20
-24.1953840953
 10
41.8216918498
 20
-24.2305903765
 10
41.8403172492
 20
-24.2644128912
 10
41.8616053868
 20
-24.2968907714
 10
41.8851636641
 20
-24.32744489
 10
41.9108612147
 20
-24.3558822047
 10
41.9388289049
 20
-24.3823957579
 10
41.9690667348
 20
-24.4069855495
  0
LWPOLYLINE
  5
44C
100
AcDbEntity
  8
RACCORDO
100
AcDbPolyline
 62
7
  6
CONTINUOUS
 90
13
 70
0
 10
41.7688282775
 20
55.9931550761
 10
41.770374771
 20
55.9542438884
 10
41.7748269052
 20
55.9159808123
 10
41.7821846802
 20
55.8783658477
 10
41.7925290635
 20
55.8411668204
 10
41.8057790875
 20
55.8046159047
 10
41.8216918498
 20
55.7694096235
 10
41.8403172492
 20
55.7355871088
 10
41.8616053868
 20
55.7031092286
 10
41.8851636641
 20
55.67255511
 10
41.9108612147
 20
55.6441177953
 10
41.9388289049
 20
55.6176042421
 10
41.9690667348
 20
55.5930144505
  0
LWPOLYLINE
  5
44D
100
AcDbEntity
  8
RACCORDO
100
AcDbPolyline
 62
253
  6
CONTINUOUS
 90
22
 70
0
 10
37.8286359298
 20
69.2251327852
 10
37.8280673108
 20
69.2399760646
 10
37.8264490323
 20
69.2545764104
 10
37.8237810943
 20
69.2689338224
 10
37.8200393517
 20
69.2831186387
 10
37.8152479496
 20
69.2970605214
 10
37.809479323
 20
69.3105484564
 10
37.8027109278
 20
69.3235857608
 10
37.7949653081
 20
69.3361691176
 10
37.7863825308
 20
69.3480775626
 10
37.776978896
 20
69.3592772141
 10
37.7667381037
 20
69.3698019539
 10
37.7557513213
 20
69.3795324621
 10
37.7440148443
 20
69.3884808248
 10
37.7315323772
 20
69.3966349559
 10
37.7184062013
 20
69.4038392785
 10
37.7045840926
 20
69.4101051095
 10
37.6901182751
 20
69.4154211318
 10
37.6752677009
 20
69.4195978173
 10
37.6601186875
 20
69.4225719898
 10
37.6445849174
 20
69.4244068255
 10
37.6286663907
 20
69.4251023242
  0
LWPOLYLINE
  5
44E
100
AcDbEntity
  8
RACCORDO
100
AcDbPolyline
 62
253
  6
CONTINUOUS
 90
22
 70
0
 10
38.1285902383
 20
69.2251327852
 10
38.1272290592
 20
69.2619105874
 10
38.1231688171
 20
69.2984713409
 10
38.1164353653
 20
69.3346175926
 10
38.1070724264
 20
69.3701431878
 10
38.0951325455
 20
69.4048691198
 10
38.0806684566
 20
69.438641699
 10
38.063738326
 20
69.4713057253
 10
38.0444421403
 20
69.5026517258
 10
38.0229198863
 20
69.5324578738
 10
37.9993609351
 20
69.5604969982
 10
37.9738454468
 20
69.5867055698
 10
37.9463414861
 20
69.6110947465
 10
37.916963479
 20
69.6335080193
 10
37.8858541292
 20
69.6537844428
 10
37.8529846399
 20
69.671867741
 10
37.818405308
 20
69.6876192667
 10
37.7823664487
 20
69.7008169871
 10
37.7451508988
 20
69.7112765998
 10
37.7069977675
 20
69.7188681118
 10
37.6680925365
 20
69.723492548
 10
37.6286663907
 20
69.7250566328
  0
LWPOLYLINE
  5
44F
100
AcDbEntity
  8
RACCORDO
100
AcDbPolyline
 62
253
  6
CONTINUOUS
 90
16
 70
0
 10
41.4548185272
 20
-22.5344689592
 10
41.454341418
 20
-22.521185674
 10
41.453053631
 20
-22.5081460753
 10
41.4509551662
 20
-22.4953501633
 10
41.4480451833
 20
-22.482796213
 10
41.4443245227
 20
-22.4704859493
 10
41.4397957048
 20
-22.4584245467
 10
41.4344840964
 20
-22.4465939988
 10
41.4283643307
 20
-22.4350123119
 10
41.4213628287
 20
-22.4237386791
 10
41.4134504036
 20
-22.4127113374
 10
41.4046562422
 20
-22.4019920499
 10
41.3949943254
 20
-22.391825299
 10
41.3844693133
 20
-22.3822925792
 10
41.3730765458
 20
-22.3733123961
 10
41.3608160228
 20
-22.3648847497
  0
LWPOLYLINE
  5
450
100
AcDbEntity
  8
RACCORDO
100
AcDbPolyline
 62
253
  6
CONTINUOUS
 90
16
 70
0
 10
41.4548185272
 20
57.4655310408
 10
41.454341418
 20
57.478814326
 10
41.453053631
 20
57.4918539247
 10
41.4509551662
 20
57.5046498367
 10
41.4480451833
 20
57.517203787
 10
41.4443245227
 20
57.5295140507
 10
41.4397957048
 20
57.5415754533
 10
41.4344840964
 20
57.5534060012
 10
41.4283643307
 20
57.5649876881
 10
41.4213628287
 20
57.5762613209
 10
41.4134504036
 20
57.5872886626
 10
41.4046562422
 20
57.5980079501
 10
41.3949943254
 20
57.608174701
 10
41.3844693133
 20
57.6177074208
 10
41.3730765458
 20
57.6266876039
 10
41.3608160228
 20
57.6351152503
  0
LWPOLYLINE
  5
451
100
AcDbEntity
  8
RACCORDO
100
AcDbPolyline
 62
253
  6
CONTINUOUS
 90
16
 70
0
 10
41.7547728356
 20
-22.5344689593
 10
41.7536799922
 20
-22.5014791805
 10
41.7504398216
 20
-22.4688361739
 10
41.7451062934
 20
-22.4366764809
 10
41.7377761156
 20
-22.4052595007
 10
41.7285007258
 20
-22.3745744319
 10
41.7172033856
 20
-22.3443647976
 10
41.7038945305
 20
-22.314767589
 10
41.6885960607
 20
-22.2859253114
 10
41.6711208326
 20
-22.25765033
 10
41.6513661305
 20
-22.2300255341
 10
41.629390475
 20
-22.2033621829
 10
41.6052035411
 20
-22.1778646809
 10
41.5788340845
 20
-22.1537446368
 10
41.55033156
 20
-22.1312191863
 10
41.5197665745
 20
-22.1105084356
  0
LWPOLYLINE
  5
452
100
AcDbEntity
  8
RACCORDO
100
AcDbPolyline
 62
253
  6
CONTINUOUS
 90
16
 70
0
 10
41.7547728356
 20
57.4655310407
 10
41.7536799922
 20
57.4985208195
 10
41.7504398216
 20
57.5311638261
 10
41.7451062934
 20
57.5633235191
 10
41.7377761156
 20
57.5947404993
 10
41.7285007258
 20
57.6254255681
 10
41.7172033856
 20
57.6556352024
 10
41.7038945305
 20
57.685232411
 10
41.6885960607
 20
57.7140746886
 10
41.6711208326
 20
57.74234967
 10
41.6513661305
 20
57.7699744659
 10
41.629390475
 20
57.7966378171
 10
41.6052035411
 20
57.8221353191
 10
41.5788340845
 20
57.8462553632
 10
41.55033156
 20
57.8687808137
 10
41.5197665745
 20
57.8894915644
  0
LINE
  5
453
100
AcDbEntity
  8
RACCORDO
100
AcDbLine
 62
253
  6
CONTINUOUS
 10
41.4548185272
 20
-32.4733428396
 11
41.4548185272
 21
-30.9939261601
  0
LINE
  5
454
100
AcDbEntity
  8
RACCORDO
100
AcDbLine
 62
253
  6
CONTINUOUS
 10
41.4548185272
 20
-24.0138856387
 11
41.4548185272
 21
-22.5344689592
  0
LINE
  5
455
100
AcDbEntity
  8
RACCORDO
100
AcDbLine
 62
253
  6
CONTINUOUS
 10
41.4548185272
 20
47.5266571604
 11
41.4548185272
 21
49.0060738399
  0
LINE
  5
456
100
AcDbEntity
  8
RACCORDO
100
AcDbLine
 62
253
  6
CONTINUOUS
 10
41.4548185272
 20
55.9861143613
 11
41.4548185272
 21
57.4655310408
  0
LINE
  5
457
100
AcDbEntity
  8
RACCORDO
100
AcDbLine
 62
253
  6
CONTINUOUS
 10
41.7547728357
 20
-32.4733428396
 11
41.7547728357
 21
-30.9939261601
  0
LINE
  5
458
100
AcDbEntity
  8
RACCORDO
100
AcDbLine
 62
253
  6
CONTINUOUS
 10
41.7547728357
 20
-24.0138856387
 11
41.7547728357
 21
-22.5344689592
  0
LINE
  5
459
100
AcDbEntity
  8
RACCORDO
100
AcDbLine
 62
253
  6
CONTINUOUS
 10
41.7547728357
 20
47.5266571604
 11
41.7547728357
 21
49.0060738399
  0
LINE
  5
45A
100
AcDbEntity
  8
RACCORDO
100
AcDbLine
 62
253
  6
CONTINUOUS
 10
41.7547728357
 20
55.9861143613
 11
41.7547728357
 21
57.4655310408
  0
LINE
  5
45B
100
AcDbEntity
  8
RACCORDO
100
AcDbLine
 62
7
  6
CONTINUOUS
 10
41.7689951677
 20
-32.4812202006
 11
41.7688282775
 21
-31.0009668749
  0
LINE
  5
45C
100
AcDbEntity
  8
RACCORDO
100
AcDbLine
 62
7
  6
CONTINUOUS
 10
41.7689951677
 20
47.5187797994
 11
41.7688282775
 21
48.9990331251
  0
LINE
  5
45D
100
AcDbEntity
  8
RACCORDO
100
AcDbLine
 62
7
  6
CONTINUOUS
 10
41.7688282775
 20
55.9931550761
 11
41.7689951677
 21
57.4734084018
  0
LINE
  5
45E
100
AcDbEntity
  8
RACCORDO
100
AcDbLine
 62
7
  6
CONTINUOUS
 10
41.7688282775
 20
-24.0068449239
 11
41.7689951677
 21
-22.5265915982
  0
LWPOLYLINE
  5
45F
100
AcDbEntity
  8
RACCORDO
100
AcDbPolyline
 62
7
  6
CONTINUOUS
 90
19
 70
0
 10
41.7689951677
 20
47.5187797994
 10
41.7685084644
 20
47.4947778333
 10
41.766864374
 20
47.4703417236
 10
41.7639967245
 20
47.4455505194
 10
41.7598166975
 20
47.4204571448
 10
41.7542806284
 20
47.3951743103
 10
41.7473945571
 20
47.3698706337
 10
41.7391083814
 20
47.344680833
 10
41.7293597407
 20
47.3196318912
 10
41.7181332018
 20
47.2947410634
 10
41.7053781162
 20
47.2701298244
 10
41.6910253672
 20
47.2458692915
 10
41.6750047913
 20
47.2219430399
 10
41.6572241041
 20
47.198466898
 10
41.6376282107
 20
47.1755852977
 10
41.6161652152
 20
47.1533862052
 10
41.5927520153
 20
47.1320251902
 10
41.5672997961
 20
47.1116891246
 10
41.5397346619
 20
47.0925454688
  0
LWPOLYLINE
  5
460
100
AcDbEntity
  8
RACCORDO
100
AcDbPolyline
 62
7
  6
CONTINUOUS
 90
19
 70
0
 10
41.7689951677
 20
-32.4812202006
 10
41.7685084644
 20
-32.5052221667
 10
41.766864374
 20
-32.5296582764
 10
41.7639967245
 20
-32.5544494806
 10
41.7598166975
 20
-32.5795428552
 10
41.7542806284
 20
-32.6048256897
 10
41.7473945571
 20
-32.6301293663
 10
41.7391083814
 20
-32.655319167
 10
41.7293597407
 20
-32.6803681088
 10
41.7181332018
 20
-32.7052589366
 10
41.7053781162
 20
-32.7298701756
 10
41.6910253672
 20
-32.7541307085
 10
41.6750047913
 20
-32.7780569601
 10
41.6572241041
 20
-32.801533102
 10
41.6376282107
 20
-32.8244147023
 10
41.6161652152
 20
-32.8466137948
 10
41.5927520153
 20
-32.8679748098
 10
41.5672997961
 20
-32.8883108754
 10
41.5397346619
 20
-32.9074545312
  0
LWPOLYLINE
  5
461
100
AcDbEntity
  8
RACCORDO
100
AcDbPolyline
 62
253
  6
CONTINUOUS
 90
16
 70
0
 10
41.7547728366
 20
49.0060738394
 10
41.7557340116
 20
49.0371046838
 10
41.7585930904
 20
49.0678032953
 10
41.7632998625
 20
49.0980566291
 10
41.7697647412
 20
49.1276250479
 10
41.7779430141
 20
49.1565437772
 10
41.7879143935
 20
49.1851007625
 10
41.7997259874
 20
49.2132901606
 10
41.8133301764
 20
49.2408772056
 10
41.8287315445
 20
49.267780186
 10
41.8459584064
 20
49.2939426518
 10
41.8649410991
 20
49.3191623845
 10
41.8854997165
 20
49.343157557
 10
41.9075067813
 20
49.3657801209
 10
41.9309225143
 20
49.386989883
 10
41.9556575387
 20
49.4066976563
  0
LWPOLYLINE
  5
462
100
AcDbEntity
  8
RACCORDO
100
AcDbPolyline
 62
253
  6
CONTINUOUS
 90
16
 70
0
 10
41.7547728366
 20
-30.9939261606
 10
41.7557340116
 20
-30.9628953162
 10
41.7585930904
 20
-30.9321967047
 10
41.7632998625
 20
-30.9019433709
 10
41.7697647412
 20
-30.8723749521
 10
41.7779430141
 20
-30.8434562228
 10
41.7879143935
 20
-30.8148992375
 10
41.7997259874
 20
-30.7867098394
 10
41.8133301764
 20
-30.7591227944
 10
41.8287315445
 20
-30.732219814
 10
41.8459584064
 20
-30.7060573482
 10
41.8649410991
 20
-30.6808376155
 10
41.8854997165
 20
-30.656842443
 10
41.9075067813
 20
-30.6342198791
 10
41.9309225143
 20
-30.613010117
 10
41.9556575387
 20
-30.5933023437
  0
LWPOLYLINE
  5
463
100
AcDbEntity
  8
RACCORDO
100
AcDbPolyline
 62
253
  6
CONTINUOUS
 90
16
 70
0
 10
41.4548185272
 20
49.0060738399
 10
41.4565105484
 20
49.0560071705
 10
41.4610619647
 20
49.1050628204
 10
41.4684727762
 20
49.1532407897
 10
41.4787361585
 20
49.2005070673
 10
41.4918589359
 20
49.2468956643
 10
41.5078615809
 20
49.2925086132
 10
41.5267658393
 20
49.3375539842
 10
41.5485499653
 20
49.3818237071
 10
41.5731691943
 20
49.424795605
 10
41.6007603883
 20
49.4665643732
 10
41.6311866854
 20
49.5070353163
 10
41.6639927351
 20
49.5454021715
 10
41.6990267541
 20
49.5813961846
 10
41.7364405258
 20
49.6152861097
 10
41.7762340502
 20
49.647071947
  0
LWPOLYLINE
  5
464
100
AcDbEntity
  8
RACCORDO
100
AcDbPolyline
 62
253
  6
CONTINUOUS
 90
16
 70
0
 10
41.4548185272
 20
-30.9939261601
 10
41.4565105484
 20
-30.9439928295
 10
41.4610619647
 20
-30.8949371796
 10
41.4684727762
 20
-30.8467592103
 10
41.4787361585
 20
-30.7994929327
 10
41.4918589359
 20
-30.7531043357
 10
41.5078615809
 20
-30.7074913868
 10
41.5267658393
 20
-30.6624460158
 10
41.5485499653
 20
-30.6181762929
 10
41.5731691943
 20
-30.575204395
 10
41.6007603883
 20
-30.5334356268
 10
41.6311866854
 20
-30.4929646837
 10
41.6639927351
 20
-30.4545978285
 10
41.6990267541
 20
-30.4186038154
 10
41.7364405258
 20
-30.3847138903
 10
41.7762340502
 20
-30.352928053
  0
LINE
  5
465
100
AcDbEntity
  8
RACCORDO
100
AcDbLine
 62
253
  6
CONTINUOUS
 10
39.7769732585
 20
-25.9583957141
 11
39.7734174093
 21
-26.0015507739
  0
LINE
  5
466
100
AcDbEntity
  8
RACCORDO
100
AcDbLine
 62
253
  6
CONTINUOUS
 10
39.5222821562
 20
-29.0494160912
 11
39.5258380069
 21
-29.0062610392
  0
LINE
  5
467
100
AcDbEntity
  8
RACCORDO
100
AcDbLine
 62
253
  6
CONTINUOUS
 10
39.8212584207
 20
-28.9456532264
 11
39.8861992656
 21
-28.1958755324
  0
LINE
  5
468
100
AcDbEntity
  8
RACCORDO
100
AcDbLine
 62
253
  6
CONTINUOUS
 10
39.4779969929
 20
-26.0621585642
 11
39.4128666538
 21
-26.8140503418
  0
LINE
  5
469
100
AcDbEntity
  8
RACCORDO
100
AcDbLine
 62
253
  6
CONTINUOUS
 10
39.5258379997
 20
-26.0015507694
 11
39.4959146405
 21
-26.3277825638
  0
LINE
  5
46A
100
AcDbEntity
  8
RACCORDO
100
AcDbLine
 62
253
  6
CONTINUOUS
 10
39.7734174097
 20
-29.0062610331
 11
39.8032970968
 21
-28.68049414
  0
LINE
  5
46B
100
AcDbEntity
  8
RACCORDO
100
AcDbLine
 62
253
  6
CONTINUOUS
 10
39.4128666538
 20
-26.8140503418
 11
39.3959115972
 21
-26.9989432549
  0
LINE
  5
46C
100
AcDbEntity
  8
RACCORDO
100
AcDbLine
 62
253
  6
CONTINUOUS
 10
39.8861992656
 20
-28.1958755324
 11
39.903343815
 21
-28.0088685436
  0
LINE
  5
46D
100
AcDbEntity
  8
RACCORDO
100
AcDbLine
 62
253
  6
CONTINUOUS
 10
39.4959146405
 20
-26.3277825638
 11
39.4754166241
 21
-26.5409189729
  0
LINE
  5
46E
100
AcDbEntity
  8
RACCORDO
100
AcDbLine
 62
253
  6
CONTINUOUS
 10
39.8032970968
 20
-28.68049414
 11
39.8237726526
 21
-28.4675629742
  0
LINE
  5
46F
100
AcDbEntity
  8
RACCORDO
100
AcDbLine
 62
253
  6
CONTINUOUS
 10
39.4754166241
 20
-26.5409189729
 11
39.4624246363
 21
-26.6694631621
  0
LINE
  5
470
100
AcDbEntity
  8
RACCORDO
100
AcDbLine
 62
253
  6
CONTINUOUS
 10
39.8237726526
 20
-28.4675629742
 11
39.8367571648
 21
-28.3390590903
  0
LWPOLYLINE
  5
471
100
AcDbEntity
  8
RACCORDO
100
AcDbPolyline
 62
253
  6
CONTINUOUS
 90
22
 70
0
 10
38.1041175208
 20
-27.376560347
 10
38.1046375817
 20
-27.3716006669
 10
38.1054934303
 20
-27.3665854872
 10
38.1066850666
 20
-27.3615148079
 10
38.1081968213
 20
-27.3563702746
 10
38.1100443636
 20
-27.3511702417
 10
38.1122747014
 20
-27.3459697725
 10
38.1148891794
 20
-27.3407647198
 10
38.117886453
 20
-27.3355592309
 10
38.1213094949
 20
-27.3304208099
 10
38.1251512529
 20
-27.3253492462
 10
38.1294187793
 20
-27.3203447506
 10
38.1341762042
 20
-27.3154754599
 10
38.1394383102
 20
-27.3107192984
 10
38.1451903147
 20
-27.3060983419
 10
38.151452
 20
-27.3017469545
 10
38.1582505204
 20
-27.2976531109
 10
38.1655587216
 20
-27.2938288365
 10
38.1733149239
 20
-27.2904445723
 10
38.1814985675
 20
-27.2875571319
 10
38.1901302122
 20
-27.2851097015
 10
38.1992098581
 20
-27.2831022813
  0
LWPOLYLINE
  5
472
100
AcDbEntity
  8
RACCORDO
100
AcDbPolyline
 62
253
  6
CONTINUOUS
 90
22
 70
0
 10
41.1951378979
 20
-27.6312514493
 10
41.1946178392
 20
-27.6362111304
 10
41.1937619919
 20
-27.641226311
 10
41.192570356
 20
-27.646296991
 10
41.1910586006
 20
-27.6514415251
 10
41.1892110567
 20
-27.6566415586
 10
41.1869807171
 20
-27.6618420283
 10
41.1843662374
 20
-27.6670470812
 10
41.1813689621
 20
-27.6722525704
 10
41.1779459182
 20
-27.6773909914
 10
41.1741041582
 20
-27.6824625551
 10
41.1698366297
 20
-27.6874670508
 10
41.1650792023
 20
-27.6923363415
 10
41.1598170936
 20
-27.6970925033
 10
41.1540650861
 20
-27.7017134603
 10
41.1478033976
 20
-27.706064848
 10
41.1410048742
 20
-27.7101586919
 10
41.1336966698
 20
-27.7139829665
 10
41.1259404642
 20
-27.7173672311
 10
41.1177568174
 20
-27.720254672
 10
41.1091251695
 20
-27.7227021027
 10
41.1000455204
 20
-27.7247095234
  0
LINE
  5
473
100
AcDbEntity
  8
RACCORDO
100
AcDbLine
 62
253
  6
CONTINUOUS
 10
39.8367571648
 20
-28.3390590903
 11
39.8460565571
 21
-28.2511543808
  0
LINE
  5
474
100
AcDbEntity
  8
RACCORDO
100
AcDbLine
 62
253
  6
CONTINUOUS
 10
39.4624246363
 20
-26.6694631621
 11
39.4531219754
 21
-26.7573688129
  0
LINE
  5
475
100
AcDbEntity
  8
RACCORDO
100
AcDbLine
 62
253
  6
CONTINUOUS
 10
39.4531219754
 20
-26.7573688129
 11
39.4446226256
 21
-26.8339606257
  0
LINE
  5
476
100
AcDbEntity
  8
RACCORDO
100
AcDbLine
 62
253
  6
CONTINUOUS
 10
39.8460565571
 20
-28.2511543808
 11
39.8545538917
 21
-28.1745528054
  0
LINE
  5
477
100
AcDbEntity
  8
RACCORDO
100
AcDbLine
 62
253
  6
CONTINUOUS
 10
39.8545538917
 20
-28.1745528054
 11
39.8604618457
 21
-28.1234509752
  0
LINE
  5
478
100
AcDbEntity
  8
RACCORDO
100
AcDbLine
 62
253
  6
CONTINUOUS
 10
39.4446226256
 20
-26.8339606257
 11
39.4386817884
 21
-26.8852440004
  0
LWPOLYLINE
  5
479
100
AcDbEntity
  8
RACCORDO
100
AcDbPolyline
 62
253
  6
CONTINUOUS
 90
3
 70
0
 10
39.4386817884
 20
-26.8852440004
 10
39.4330162206
 20
-26.9322945337
 10
39.4311681965
 20
-26.9471090196
  0
LWPOLYLINE
  5
47A
100
AcDbEntity
  8
RACCORDO
100
AcDbPolyline
 62
253
  6
CONTINUOUS
 90
3
 70
0
 10
39.8604618457
 20
-28.1234509752
 10
39.8662030195
 20
-28.0759151695
 10
39.8680872138
 20
-28.0607028009
  0
LWPOLYLINE
  5
47B
100
AcDbEntity
  8
RACCORDO
100
AcDbPolyline
 62
253
  6
CONTINUOUS
 90
22
 70
0
 10
38.1472725303
 20
-27.3801161924
 10
38.1476625619
 20
-27.3776403296
 10
38.1482508049
 20
-27.3751164128
 10
38.1490438899
 20
-27.3725520512
 10
38.1500444133
 20
-27.3699569505
 10
38.1512621596
 20
-27.3673391258
 10
38.1527144699
 20
-27.3647050681
 10
38.1544069731
 20
-27.3620670717
 10
38.156344635
 20
-27.3594361361
 10
38.1585442613
 20
-27.3568188362
 10
38.1610056977
 20
-27.354234836
 10
38.1637368197
 20
-27.3516941407
 10
38.1667692554
 20
-27.349193578
 10
38.1701155071
 20
-27.3467492749
 10
38.173771306
 20
-27.3443884108
 10
38.1777448874
 20
-27.3421302395
 10
38.1820470953
 20
-27.3399973782
 10
38.1866655032
 20
-27.3380205977
 10
38.1915700749
 20
-27.3362326364
 10
38.1967442529
 20
-27.3346618922
 10
38.2021856135
 20
-27.3333337513
 10
38.2078803681
 20
-27.3322751867
  0
LWPOLYLINE
  5
47C
100
AcDbEntity
  8
RACCORDO
100
AcDbPolyline
 62
253
  6
CONTINUOUS
 90
22
 70
0
 10
41.1519829054
 20
-27.6276956033
 10
41.1515928764
 20
-27.6301714673
 10
41.1510046348
 20
-27.632695385
 10
41.1502115501
 20
-27.6352597474
 10
41.1492110258
 20
-27.6378548486
 10
41.1479932774
 20
-27.6404726736
 10
41.1465409649
 20
-27.6431067315
 10
41.1448484596
 20
-27.6457447281
 10
41.1429107954
 20
-27.6483756638
 10
41.1407111665
 20
-27.6509929639
 10
41.1382497273
 20
-27.6535769641
 10
41.1355186022
 20
-27.6561176596
 10
41.1324861631
 20
-27.6586182225
 10
41.1291399076
 20
-27.6610625259
 10
41.1254841046
 20
-27.6634233905
 10
41.1215105189
 20
-27.6656815622
 10
41.1172083065
 20
-27.6678144239
 10
41.1125898939
 20
-27.6697912048
 10
41.1076853176
 20
-27.6715791666
 10
41.1025111349
 20
-27.6731499113
 10
41.0970697696
 20
-27.6744780529
 10
41.0913750105
 20
-27.675536618
  0
LINE
  5
47D
100
AcDbEntity
  8
RACCORDO
100
AcDbLine
 62
7
  6
CONTINUOUS
 10
39.3959115972
 20
-26.9989432549
 11
39.3832710466
 21
-27.075539658
  0
LINE
  5
47E
100
AcDbEntity
  8
RACCORDO
100
AcDbLine
 62
7
  6
CONTINUOUS
 10
39.903343815
 20
-28.0088685436
 11
39.9159843656
 21
-27.9322721408
  0
LINE
  5
47F
100
AcDbEntity
  8
RACCORDO
100
AcDbLine
 62
253
  6
CONTINUOUS
 10
38.1992098618
 20
-27.7247095182
 11
38.2078803717
 21
-27.6755366127
  0
LINE
  5
480
100
AcDbEntity
  8
RACCORDO
100
AcDbLine
 62
253
  6
CONTINUOUS
 10
39.2627230188
 20
-26.9954940257
 11
39.4288240874
 21
-26.0534880551
  0
LINE
  5
481
100
AcDbEntity
  8
RACCORDO
100
AcDbLine
 62
253
  6
CONTINUOUS
 10
39.1412158324
 20
-27.8908105868
 11
39.1498863423
 21
-27.8416376814
  0
LINE
  5
482
100
AcDbEntity
  8
RACCORDO
100
AcDbLine
 62
253
  6
CONTINUOUS
 10
39.3118959242
 20
-27.0041645356
 11
39.4779969929
 21
-26.0621585642
  0
LINE
  5
483
100
AcDbEntity
  8
RACCORDO
100
AcDbLine
 62
253
  6
CONTINUOUS
 10
39.987359488
 20
-28.0036472632
 11
39.8212584207
 21
-28.9456532264
  0
LINE
  5
484
100
AcDbEntity
  8
RACCORDO
100
AcDbLine
 62
253
  6
CONTINUOUS
 10
40.1580395798
 20
-27.1170012121
 11
40.1493690699
 21
-27.1661741175
  0
LINE
  5
485
100
AcDbEntity
  8
RACCORDO
100
AcDbLine
 62
253
  6
CONTINUOUS
 10
40.0365323934
 20
-28.0123177732
 11
39.8704313263
 21
-28.9543237356
  0
LWPOLYLINE
  5
486
100
AcDbEntity
  8
RACCORDO
100
AcDbPolyline
 62
253
  6
CONTINUOUS
 90
19
 70
0
 10
39.4779969928
 20
-26.062158565
 10
39.479156894
 20
-26.0559949571
 10
39.4806361648
 20
-26.0501134424
 10
39.4824039034
 20
-26.0445323755
 10
39.4844274485
 20
-26.0392631351
 10
39.4866759686
 20
-26.0343199693
 10
39.4891232116
 20
-26.0297215
 10
39.4917467141
 20
-26.0254696305
 10
39.4945132078
 20
-26.0215731579
 10
39.4973804892
 20
-26.0180557915
 10
39.5003009854
 20
-26.0149357447
 10
39.5032657728
 20
-26.0121832179
 10
39.5062960012
 20
-26.0097516972
 10
39.5093605506
 20
-26.0076417369
 10
39.5124545155
 20
-26.0058472554
 10
39.5156515875
 20
-26.0043321553
 10
39.5189712564
 20
-26.0030980182
 10
39.5223714269
 20
-26.0021676444
 10
39.5258379974
 20
-26.0015507318
  0
LWPOLYLINE
  5
487
100
AcDbEntity
  8
RACCORDO
100
AcDbPolyline
 62
253
  6
CONTINUOUS
 90
19
 70
0
 10
39.8212584209
 20
-28.9456532256
 10
39.8200985194
 20
-28.9518168357
 10
39.8186192483
 20
-28.9576983526
 10
39.8168515096
 20
-28.9632794216
 10
39.8148279643
 20
-28.968548664
 10
39.8125794442
 20
-28.9734918318
 10
39.8101322011
 20
-28.9780903031
 10
39.8075086984
 20
-28.9823421747
 10
39.8047422043
 20
-28.9862386493
 10
39.8018749224
 20
-28.9897560176
 10
39.7989544256
 20
-28.9928760661
 10
39.7959896375
 20
-28.9956285945
 10
39.7929594085
 20
-28.9980601165
 10
39.7898948588
 20
-29.0001700778
 10
39.7868008938
 20
-29.0019645599
 10
39.7836038218
 20
-29.0034796602
 10
39.7802841529
 20
-29.0047137968
 10
39.7768839827
 20
-29.0056441697
 10
39.7734174125
 20
-29.006261081
  0
LWPOLYLINE
  5
488
100
AcDbEntity
  8
RACCORDO
100
AcDbPolyline
 62
7
  6
CONTINUOUS
 90
13
 70
0
 10
39.3832710466
 20
-27.075539658
 10
39.3787403739
 20
-27.0961388985
 10
39.372152064
 20
-27.115884802
 10
39.3636452052
 20
-27.1345903049
 10
39.3534104736
 20
-27.1520359362
 10
39.3415870592
 20
-27.1681399559
 10
39.3282072482
 20
-27.1829197875
 10
39.3134243714
 20
-27.1962218476
 10
39.2973798683
 20
-27.2079371255
 10
39.2800152697
 20
-27.2180771966
 10
39.2613933022
 20
-27.226513968
 10
39.2417471907
 20
-27.2330498851
 10
39.2212614647
 20
-27.2375492399
  0
LWPOLYLINE
  5
489
100
AcDbEntity
  8
RACCORDO
100
AcDbPolyline
 62
7
  6
CONTINUOUS
 90
13
 70
0
 10
39.9159843656
 20
-27.9322721408
 10
39.9205150382
 20
-27.9116729004
 10
39.9271033482
 20
-27.8919269969
 10
39.935610207
 20
-27.8732214939
 10
39.9458449386
 20
-27.8557758627
 10
39.957668353
 20
-27.8396718429
 10
39.971048164
 20
-27.8248920114
 10
39.9858310408
 20
-27.8115899513
 10
40.0018755439
 20
-27.7998746733
 10
40.0192401425
 20
-27.7897346022
 10
40.03786211
 20
-27.7812978308
 10
40.0575082215
 20
-27.7747619137
 10
40.0779939475
 20
-27.7702625589
  0
LWPOLYLINE
  5
48A
100
AcDbEntity
  8
RACCORDO
100
AcDbPolyline
 62
253
  6
CONTINUOUS
 90
19
 70
0
 10
39.4288240874
 20
-26.0534880551
 10
39.4310316226
 20
-26.0436543306
 10
39.433762882
 20
-26.0343284707
 10
39.4370178655
 20
-26.0255104752
 10
39.4408533679
 20
-26.017181805
 10
39.4452125945
 20
-26.0093609993
 10
39.4499251615
 20
-26.0021036757
 10
39.4549990965
 20
-25.9954166849
 10
39.4604263719
 20
-25.9892931762
 10
39.4660125211
 20
-25.983768216
 10
39.4717093095
 20
-25.9788820088
 10
39.4775649717
 20
-25.9745943501
 10
39.4835297443
 20
-25.9708196925
 10
39.4895584477
 20
-25.9675435184
 10
39.4956962615
 20
-25.9647803453
 10
39.5020289613
 20
-25.9624881783
 10
39.5085851389
 20
-25.960653019
 10
39.5153362024
 20
-25.9592888657
 10
39.5222821519
 20
-25.9583957184
  0
LWPOLYLINE
  5
48B
100
AcDbEntity
  8
RACCORDO
100
AcDbPolyline
 62
253
  6
CONTINUOUS
 90
10
 70
0
 10
36.6442302361
 20
-25.0894225141
 10
36.6354436286
 20
-25.101407428
 10
36.627627114
 20
-25.1140595138
 10
36.6208267381
 20
-25.1273042406
 10
36.6150825607
 20
-25.1410635861
 10
36.6104284197
 20
-25.1552564966
 10
36.6068917318
 20
-25.1697993644
 10
36.6044933311
 20
-25.1846065201
 10
36.603247346
 20
-25.1995907374
 10
36.6031611167
 20
-25.2146637472
  0
LWPOLYLINE
  5
48C
100
AcDbEntity
  8
RACCORDO
100
AcDbPolyline
 62
253
  6
CONTINUOUS
 90
10
 70
0
 10
36.4951046379
 20
-25.2634378068
 10
36.5102184909
 20
-25.2447458622
 10
36.5256615847
 20
-25.225908908
 10
36.5414376571
 20
-25.2069320344
 10
36.5575170103
 20
-25.1878590507
 10
36.5739363169
 20
-25.1686561905
 10
36.5908010106
 20
-25.1492144686
 10
36.608151125
 20
-25.1295037429
 10
36.6259588957
 20
-25.1095703609
 10
36.6442302361
 20
-25.0894225141
  0
LWPOLYLINE
  5
48D
100
AcDbEntity
  8
RACCORDO
100
AcDbPolyline
 62
253
  6
CONTINUOUS
 90
10
 70
0
 10
36.4556680273
 20
-25.3860625593
 10
36.4705909028
 20
-25.3676195201
 10
36.4858464262
 20
-25.3490552474
 10
36.5014345974
 20
-25.3303697411
 10
36.5173105319
 20
-25.3116017809
 10
36.5335191143
 20
-25.2927125872
 10
36.5501949985
 20
-25.2735858209
 10
36.5673830694
 20
-25.2541827023
 10
36.5850384421
 20
-25.234542011
 10
36.6031611167
 20
-25.2146637472
  0
LINE
  5
48E
100
AcDbEntity
  8
RACCORDO
100
AcDbLine
 62
7
  6
CONTINUOUS
 10
38.1496277061
 20
-21.1039058994
 11
38.1285902383
 21
-21.1249780575
  0
LWPOLYLINE
  5
48F
100
AcDbEntity
  8
RACCORDO
100
AcDbPolyline
 62
253
  6
CONTINUOUS
 90
39
 70
0
 10
36.6031611167
 20
-25.2146637472
 10
36.6036476882
 20
-25.2141782147
 10
36.6041463358
 20
-25.213828828
 10
36.6046570596
 20
-25.2136155871
 10
36.6051784809
 20
-25.2135239157
 10
36.6057119785
 20
-25.2135683901
 10
36.6062616879
 20
-25.2137927387
 10
36.6068298252
 20
-25.2141924872
 10
36.6074141744
 20
-25.2147721099
 10
36.6080122238
 20
-25.2155887582
 10
36.6086262901
 20
-25.216647428
 10
36.6092540566
 20
-25.2179431233
 10
36.6098860606
 20
-25.2195180081
 10
36.6105228921
 20
-25.2213823569
 10
36.6111639612
 20
-25.2235258952
 10
36.6117980358
 20
-25.2259599627
 10
36.6124247557
 20
-25.2286956272
 10
36.613044481
 20
-25.231721821
 10
36.6136470609
 20
-25.2350166804
 10
36.6142311826
 20
-25.238584642
 10
36.6147981587
 20
-25.2424212693
 10
36.6153417761
 20
-25.2464913884
 10
36.6158608527
 20
-25.250792641
 10
36.6163565705
 20
-25.2553273854
 10
36.6168262623
 20
-25.2600675239
 10
36.6172696326
 20
-25.2650130287
 10
36.6176869768
 20
-25.2701639274
 10
36.6180765139
 20
-25.2754922055
 10
36.61843795
 20
-25.2809943156
 10
36.618771579
 20
-25.286673805
 10
36.6190765015
 20
-25.2925133008
 10
36.6193523355
 20
-25.2984837891
 10
36.6195994631
 20
-25.3046142837
 10
36.6198181306
 20
-25.310974454
 10
36.6200101566
 20
-25.3175570562
 10
36.6201737226
 20
-25.324369334
 10
36.6203036191
 20
-25.3315026876
 10
36.6203981095
 20
-25.3389875837
 10
36.6204589304
 20
-25.3467935555
  0
LWPOLYLINE
  5
490
100
AcDbEntity
  8
RACCORDO
100
AcDbPolyline
 62
7
  6
CONTINUOUS
 90
13
 70
0
 10
37.3301886774
 20
-24.4069855495
 10
37.3604265073
 20
-24.3823957579
 10
37.3883941975
 20
-24.3558822047
 10
37.4140917481
 20
-24.32744489
 10
37.4376500254
 20
-24.2968907714
 10
37.458938163
 20
-24.2644128912
 10
37.4775635624
 20
-24.2305903765
 10
37.4934763247
 20
-24.1953840953
 10
37.5067263487
 20
-24.1588331796
 10
37.5170707319
 20
-24.1216341523
 10
37.524428507
 20
-24.0840191877
 10
37.5288806412
 20
-24.0457561116
 10
37.5304271347
 20
-24.0068449239
  0
LWPOLYLINE
  5
491
100
AcDbEntity
  8
RACCORDO
100
AcDbPolyline
 62
253
  6
CONTINUOUS
 90
10
 70
0
 10
36.8174476323
 20
-29.2607862149
 10
36.8321554831
 20
-29.2515136551
 10
36.8468752224
 20
-29.2424118259
 10
36.8614323799
 20
-29.2335012666
 10
36.8755933373
 20
-29.2247466989
 10
36.8892518696
 20
-29.2162135246
 10
36.9024241871
 20
-29.2080729029
 10
36.9150071303
 20
-29.2003887841
 10
36.9267877981
 20
-29.1931129832
 10
36.937624734
 20
-29.1862453359
  0
LWPOLYLINE
  5
492
100
AcDbEntity
  8
RACCORDO
100
AcDbPolyline
 62
253
  6
CONTINUOUS
 90
26
 70
0
 10
36.6442302361
 20
-25.0894225141
 10
36.6448826998
 20
-25.0890226734
 10
36.6456608736
 20
-25.088857172
 10
36.6465798501
 20
-25.0889382455
 10
36.6476581275
 20
-25.0892665587
 10
36.6489062833
 20
-25.0898649074
 10
36.6503356377
 20
-25.0907851364
 10
36.6519787178
 20
-25.0920464601
 10
36.6538527292
 20
-25.0936692479
 10
36.6559560118
 20
-25.0957148121
 10
36.6583222672
 20
-25.098212778
 10
36.6609726985
 20
-25.1011761375
 10
36.6638817297
 20
-25.1046365384
 10
36.667067158
 20
-25.1086168751
 10
36.6705495717
 20
-25.1131218508
 10
36.6742901074
 20
-25.1181412033
 10
36.6782905398
 20
-25.1236854403
 10
36.682562764
 20
-25.129750051
 10
36.6870624229
 20
-25.1362854295
 10
36.6917735634
 20
-25.1432815321
 10
36.6967006514
 20
-25.1507332673
 10
36.7018141157
 20
-25.1585860188
 10
36.7070914405
 20
-25.1668174734
 10
36.71252988
 20
-25.1754236654
 10
36.7181230828
 20
-25.1843727555
 10
36.7238553003
 20
-25.1936494983
  0
LWPOLYLINE
  5
493
100
AcDbEntity
  8
RACCORDO
100
AcDbPolyline
 62
7
  6
CONTINUOUS
 90
7
 70
0
 10
39.4311683927
 20
-26.9471088993
 10
39.4221907846
 20
-26.9524411142
 10
39.4143861268
 20
-26.9591626449
 10
39.4078109712
 20
-26.9672214672
 10
39.4025139962
 20
-26.9765681546
 10
39.3985362819
 20
-26.9871563693
 10
39.3959115816
 20
-26.9989433011
  0
LWPOLYLINE
  5
494
100
AcDbEntity
  8
RACCORDO
100
AcDbPolyline
 62
7
  6
CONTINUOUS
 90
7
 70
0
 10
39.8680869183
 20
-28.0607029821
 10
39.8770645722
 20
-28.0553707189
 10
39.8848692621
 20
-28.0486491555
 10
39.8914444367
 20
-28.0405903171
 10
39.8967414188
 20
-28.0312436305
 10
39.9007191296
 20
-28.0206554339
 10
39.9033438171
 20
-28.0088685375
  0
LINE
  5
495
100
AcDbEntity
  8
RACCORDO
100
AcDbLine
 62
253
  6
CONTINUOUS
 10
41.9556575376
 20
-24.4145094557
 11
41.9690667348
 21
-24.4069855495
  0
LINE
  5
496
100
AcDbEntity
  8
RACCORDO
100
AcDbLine
 62
253
  6
CONTINUOUS
 10
41.7689951677
 20
-22.5265915982
 11
41.7547728357
 21
-22.5344689592
  0
LINE
  5
497
100
AcDbEntity
  8
RACCORDO
100
AcDbLine
 62
253
  6
CONTINUOUS
 10
41.7547728357
 20
-24.0138856387
 11
41.7688282775
 21
-24.0068449239
  0
LINE
  5
498
100
AcDbEntity
  8
RACCORDO
100
AcDbLine
 62
253
  6
CONTINUOUS
 10
37.5444825765
 20
-30.9939261601
 11
37.5304271347
 21
-31.0009668749
  0
LWPOLYLINE
  5
499
100
AcDbEntity
  8
RACCORDO
100
AcDbPolyline
 62
7
  6
CONTINUOUS
 90
7
 70
0
 10
40.1545903499
 20
52.2423779915
 10
40.1664676426
 20
52.2450569937
 10
40.17710965
 20
52.249071076
 10
40.1864735301
 20
52.2543833778
 10
40.1945133857
 20
52.2609500586
 10
40.2011806847
 20
52.2687200513
 10
40.206424728
 20
52.2776348146
  0
LWPOLYLINE
  5
49A
100
AcDbEntity
  8
RACCORDO
100
AcDbPolyline
 62
7
  6
CONTINUOUS
 90
7
 70
0
 10
39.1446651387
 20
52.7498102356
 10
39.1327877742
 20
52.7471312443
 10
39.1221457234
 20
52.7431171707
 10
39.1127818283
 20
52.737804877
 10
39.1047419866
 20
52.7312382052
 10
39.0980747299
 20
52.7234682243
 10
39.0928307574
 20
52.7145534767
  0
LWPOLYLINE
  5
49B
100
AcDbEntity
  8
RACCORDO
100
AcDbPolyline
 62
253
  6
CONTINUOUS
 90
13
 70
0
 10
40.1493690699
 20
52.1583623186
 10
40.131594897
 20
52.1543781406
 10
40.113642001
 20
52.1485608509
 10
40.0957274852
 20
52.1407857175
 10
40.0779574734
 20
52.130862779
 10
40.0607696215
 20
52.1187785765
 10
40.0448310572
 20
52.1048447716
 10
40.0303498528
 20
52.089173439
 10
40.017533275
 20
52.0719131557
 10
40.0068095963
 20
52.053694456
 10
39.9982646688
 20
52.0349395209
 10
39.9917934056
 20
52.0157485308
 10
39.987359488
 20
51.9963527368
  0
LWPOLYLINE
  5
49C
100
AcDbEntity
  8
RACCORDO
100
AcDbPolyline
 62
253
  6
CONTINUOUS
 90
13
 70
0
 10
39.1498863423
 20
52.8338258825
 10
39.1676605152
 20
52.8378100605
 10
39.1856134112
 20
52.8436273503
 10
39.203527927
 20
52.8514024836
 10
39.2212979388
 20
52.8613254222
 10
39.2384857907
 20
52.8734096246
 10
39.254424355
 20
52.8873434296
 10
39.2689055594
 20
52.9030147622
 10
39.2817221372
 20
52.9202750454
 10
39.2924458159
 20
52.9384937452
 10
39.3009907434
 20
52.9572486803
 10
39.3074620066
 20
52.9764396703
 10
39.3118959242
 20
52.9958354644
  0
LWPOLYLINE
  5
49D
100
AcDbEntity
  8
RACCORDO
100
AcDbPolyline
 62
253
  6
CONTINUOUS
 90
13
 70
0
 10
40.1580395798
 20
52.1091894132
 10
40.1443627298
 20
52.1063279781
 10
40.1309137839
 20
52.1019217594
 10
40.117692742
 20
52.0959707573
 10
40.1044072742
 20
52.0883737258
 10
40.0913497104
 20
52.0792319109
 10
40.0793970406
 20
52.0688490502
 10
40.0686973495
 20
52.057082507
 10
40.0591025523
 20
52.0440749179
 10
40.0510453846
 20
52.0305579307
 10
40.0446700914
 20
52.0167754276
 10
40.0398324277
 20
52.0024835264
 10
40.0365323934
 20
51.9876822268
  0
LWPOLYLINE
  5
49E
100
AcDbEntity
  8
RACCORDO
100
AcDbPolyline
 62
253
  6
CONTINUOUS
 90
13
 70
0
 10
39.1412158324
 20
52.8829987879
 10
39.1548926824
 20
52.8858602231
 10
39.1683416283
 20
52.8902664417
 10
39.1815626702
 20
52.8962174438
 10
39.194848138
 20
52.9038144753
 10
39.2079057018
 20
52.9129562902
 10
39.2198583716
 20
52.923339151
 10
39.2305580627
 20
52.9351056942
 10
39.2401528599
 20
52.9481132832
 10
39.2482100276
 20
52.9616302705
 10
39.2545853208
 20
52.9754127735
 10
39.2594229845
 20
52.9897046748
 10
39.2627230188
 20
53.0045059743
  0
LINE
  5
49F
100
AcDbEntity
  8
RACCORDO
100
AcDbLine
 62
253
  6
CONTINUOUS
 10
39.4288240821
 20
51.0456762862
 11
39.4779969875
 21
51.0543467962
  0
LINE
  5
4A0
100
AcDbEntity
  8
RACCORDO
100
AcDbLine
 62
253
  6
CONTINUOUS
 10
41.1000455204
 20
52.2752904766
 11
40.1580395798
 21
52.1091894132
  0
LINE
  5
4A1
100
AcDbEntity
  8
RACCORDO
100
AcDbLine
 62
253
  6
CONTINUOUS
 10
39.2627230188
 20
51.9876822268
 11
39.3118959242
 21
51.9963527367
  0
LINE
  5
4A2
100
AcDbEntity
  8
RACCORDO
100
AcDbLine
 62
253
  6
CONTINUOUS
 10
41.0913750103
 20
52.3244633819
 11
40.1493690699
 21
52.1583623186
  0
LWPOLYLINE
  5
4A3
100
AcDbEntity
  8
RACCORDO
100
AcDbPolyline
 62
7
  6
CONTINUOUS
 90
22
 70
0
 10
-37.8504484463
 20
41.1960941006
 10
-37.8877286663
 20
41.1947026276
 10
-37.9248510216
 20
41.1905280526
 10
-37.961607122
 20
41.1835823633
 10
-37.9978370314
 20
41.1738785212
 10
-38.0332844957
 20
41.1614674817
 10
-38.0676105294
 20
41.1464735177
 10
-38.1005261444
 20
41.1290619207
 10
-38.1319722578
 20
41.1093043215
 10
-38.1619549421
 20
41.0871946203
 10
-38.1904014705
 20
41.0627336884
 10
-38.2170118817
 20
41.0361232772
 10
-38.2414728136
 20
41.0076767488
 10
-38.2635825148
 20
40.9776940644
 10
-38.2833401141
 20
40.9462479511
 10
-38.3007517111
 20
40.9133323361
 10
-38.3157456751
 20
40.8790063024
 10
-38.3281567145
 20
40.8435588381
 10
-38.3378605567
 20
40.8073289287
 10
-38.344806246
 20
40.7705728283
 10
-38.3489808209
 20
40.7334504729
 10
-38.3503722939
 20
40.696170253
  0
LINE
  5
4A4
100
AcDbEntity
  8
RACCORDO
100
AcDbLine
 62
253
  6
CONTINUOUS
 10
-38.3293348261
 20
40.6751327852
 11
-38.0293805176
 21
40.6751327852
  0
LINE
  5
4A5
100
AcDbEntity
  8
RACCORDO
100
AcDbLine
 62
253
  6
CONTINUOUS
 10
-37.8294109785
 20
40.8751023242
 11
-37.0293805176
 21
40.8751023242
  0
LINE
  5
4A6
100
AcDbEntity
  8
RACCORDO
100
AcDbLine
 62
253
  6
CONTINUOUS
 10
-37.8294109785
 20
41.1750566328
 11
-37.3293348261
 21
41.1750566328
  0
LINE
  5
4A7
100
AcDbEntity
  8
RACCORDO
100
AcDbLine
 62
7
  6
CONTINUOUS
 10
-37.8504484463
 20
41.1960941006
 11
-37.3503722939
 21
41.1960941006
  0
LINE
  5
4A8
100
AcDbEntity
  8
RACCORDO
100
AcDbLine
 62
253
  6
CONTINUOUS
 10
39.4467659777
 20
51.8072241809
 11
39.4387839566
 21
51.8766233507
  0
LINE
  5
4A9
100
AcDbEntity
  8
RACCORDO
100
AcDbLine
 62
253
  6
CONTINUOUS
 10
39.4510126724
 20
51.7688537122
 11
39.4467659777
 21
51.8072241809
  0
LINE
  5
4AA
100
AcDbEntity
  8
RACCORDO
100
AcDbLine
 62
253
  6
CONTINUOUS
 10
39.8415574601
 20
53.2854455422
 11
39.8482989295
 21
53.2228171342
  0
LINE
  5
4AB
100
AcDbEntity
  8
RACCORDO
100
AcDbLine
 62
253
  6
CONTINUOUS
 10
41.1000455422
 20
-27.2831022792
 11
41.0913750323
 21
-27.3322751847
  0
LWPOLYLINE
  5
4AC
100
AcDbEntity
  8
RACCORDO
100
AcDbPolyline
 62
253
  6
CONTINUOUS
 90
19
 70
0
 10
39.8704313263
 20
-28.9543237356
 10
39.868223791
 20
-28.9641574612
 10
39.8654925315
 20
-28.9734833224
 10
39.8622375479
 20
-28.9823013191
 10
39.8584020457
 20
-28.9906299906
 10
39.8540428193
 20
-28.9984507977
 10
39.8493302523
 20
-29.0057081227
 10
39.844256317
 20
-29.0123951153
 10
39.8388290411
 20
-29.0185186259
 10
39.8332428912
 20
-29.0240435879
 10
39.8275461017
 20
-29.0289297968
 10
39.8216904381
 20
-29.0332174572
 10
39.8157256644
 20
-29.0369921161
 10
39.8096969603
 20
-29.0402682912
 10
39.8035591461
 20
-29.0430314648
 10
39.7972264463
 20
-29.0453236316
 10
39.7906702691
 20
-29.0471587899
 10
39.7839192064
 20
-29.0485229414
 10
39.776973258
 20
-29.0494160861
  0
LINE
  5
4AD
100
AcDbEntity
  8
RACCORDO
100
AcDbLine
 62
253
  6
CONTINUOUS
 10
36.8174476323
 20
-29.6528911958
 11
36.8029045838
 21
-29.6788858669
  0
LINE
  5
4AE
100
AcDbEntity
  8
RACCORDO
100
AcDbLine
 62
253
  6
CONTINUOUS
 10
36.8029045838
 20
-29.6788858669
 11
36.7891084695
 21
-29.7032593734
  0
LINE
  5
4AF
100
AcDbEntity
  8
RACCORDO
100
AcDbLine
 62
253
  6
CONTINUOUS
 10
36.7891084695
 20
-29.7032593734
 11
36.7761181175
 21
-29.7259541935
  0
LINE
  5
4B0
100
AcDbEntity
  8
RACCORDO
100
AcDbLine
 62
253
  6
CONTINUOUS
 10
36.7761181175
 20
-29.7259541935
 11
36.7638789043
 21
-29.7470890865
  0
LINE
  5
4B1
100
AcDbEntity
  8
RACCORDO
100
AcDbLine
 62
253
  6
CONTINUOUS
 10
36.7638789043
 20
-29.7470890865
 11
36.7523872714
 21
-29.7666973845
  0
LINE
  5
4B2
100
AcDbEntity
  8
RACCORDO
100
AcDbLine
 62
253
  6
CONTINUOUS
 10
36.7523872714
 20
-29.7666973845
 11
36.7416422491
 21
-29.7847912586
  0
LINE
  5
4B3
100
AcDbEntity
  8
RACCORDO
100
AcDbLine
 62
253
  6
CONTINUOUS
 10
36.7416422491
 20
-29.7847912586
 11
36.7316323447
 21
-29.8014119312
  0
LINE
  5
4B4
100
AcDbEntity
  8
RACCORDO
100
AcDbLine
 62
253
  6
CONTINUOUS
 10
36.7316323447
 20
-29.8014119312
 11
36.7223887061
 21
-29.8165435922
  0
LWPOLYLINE
  5
4B5
100
AcDbEntity
  8
RACCORDO
100
AcDbPolyline
 62
253
  6
CONTINUOUS
 90
3
 70
0
 10
36.7223887061
 20
-29.8165435922
 10
36.7139002532
 20
-29.8302076138
 10
36.709945308
 20
-29.836497977
  0
LINE
  5
4B6
100
AcDbEntity
  8
RACCORDO
100
AcDbLine
 62
253
  6
CONTINUOUS
 10
41.3608160228
 20
-22.3648847497
 11
41.5197665748
 21
-22.1105084355
  0
LWPOLYLINE
  5
4B7
100
AcDbEntity
  8
RACCORDO
100
AcDbPolyline
 62
253
  6
CONTINUOUS
 90
26
 70
0
 10
36.709945308
 20
-29.836497977
 10
36.7025513955
 20
-29.8480835894
 10
36.6990980938
 20
-29.8534236362
 10
36.6957934472
 20
-29.858471636
 10
36.6925988217
 20
-29.8632994501
 10
36.6895186262
 20
-29.8679071834
 10
36.6865462449
 20
-29.8722945249
 10
36.6836377856
 20
-29.8765243549
 10
36.6807991187
 20
-29.880599569
 10
36.6780347579
 20
-29.8845076831
 10
36.6753107269
 20
-29.888279298
 10
36.6726375767
 20
-29.8919131416
 10
36.6700274872
 20
-29.8953912159
 10
36.6674591085
 20
-29.8987109313
 10
36.6649507607
 20
-29.9018625993
 10
36.6625175395
 20
-29.9048279979
 10
36.6601423974
 20
-29.9075842913
 10
36.6578512152
 20
-29.9101160741
 10
36.6556639235
 20
-29.9124007922
 10
36.653565008
 20
-29.9143963129
 10
36.6515862067
 20
-29.9160823975
 10
36.6497583038
 20
-29.9174279722
 10
36.6480744837
 20
-29.91836639
 10
36.6465592887
 20
-29.9188536722
 10
36.645264728
 20
-29.9188718175
 10
36.6442302361
 20
-29.9183892847
  0
LINE
  5
4B8
100
AcDbEntity
  8
RACCORDO
100
AcDbLine
 62
253
  6
CONTINUOUS
 10
37.523021362
 20
-30.352928053
 11
37.3435978755
 21
-30.5933023438
  0
LINE
  5
4B9
100
AcDbEntity
  8
RACCORDO
100
AcDbLine
 62
253
  6
CONTINUOUS
 10
41.7762340502
 20
-24.6548837459
 11
41.9556575372
 21
-24.4145094554
  0
LINE
  5
4BA
100
AcDbEntity
  8
RACCORDO
100
AcDbLine
 62
253
  6
CONTINUOUS
 10
39.2212614647
 20
-27.7702625589
 11
39.1498863423
 21
-27.8416376814
  0
LINE
  5
4BB
100
AcDbEntity
  8
RACCORDO
100
AcDbLine
 62
253
  6
CONTINUOUS
 10
39.9159843656
 20
-27.075539658
 11
39.987359488
 21
-27.0041645356
  0
LINE
  5
4BC
100
AcDbEntity
  8
RACCORDO
100
AcDbLine
 62
253
  6
CONTINUOUS
 10
39.3832710466
 20
-27.9322721408
 11
39.3118959242
 21
-28.0036472632
  0
LINE
  5
4BD
100
AcDbEntity
  8
RACCORDO
100
AcDbLine
 62
253
  6
CONTINUOUS
 10
40.0779939475
 20
-27.2375492399
 11
40.1493690699
 21
-27.1661741175
  0
LINE
  5
4BE
100
AcDbEntity
  8
RACCORDO
100
AcDbLine
 62
7
  6
CONTINUOUS
 10
34.1420259918
 20
-35.2615076137
 11
34.1375968214
 21
-35.2659367841
  0
LINE
  5
4BF
100
AcDbEntity
  8
RACCORDO
100
AcDbLine
 62
253
  6
CONTINUOUS
 10
37.5444825765
 20
-33.3627992416
 11
37.5304271347
 21
-33.3765882984
  0
LINE
  5
4C0
100
AcDbEntity
  8
RACCORDO
100
AcDbLine
 62
253
  6
CONTINUOUS
 10
37.3435978746
 20
-30.5933023432
 11
37.3301886774
 21
-30.6008262494
  0
LINE
  5
4C1
100
AcDbEntity
  8
RACCORDO
100
AcDbLine
 62
253
  6
CONTINUOUS
 10
38.2078803683
 20
52.6677248133
 11
39.1498863423
 21
52.8338258825
  0
LINE
  5
4C2
100
AcDbEntity
  8
RACCORDO
100
AcDbLine
 62
253
  6
CONTINUOUS
 10
40.0365323934
 20
53.0045059743
 11
39.987359488
 21
52.9958354644
  0
LINE
  5
4C3
100
AcDbEntity
  8
RACCORDO
100
AcDbLine
 62
253
  6
CONTINUOUS
 10
38.1992098581
 20
52.7168977187
 11
39.1412158324
 21
52.8829987879
  0
LINE
  5
4C4
100
AcDbEntity
  8
RACCORDO
100
AcDbLine
 62
253
  6
CONTINUOUS
 10
39.8704313242
 20
53.9465119485
 11
39.8212584188
 21
53.9378414386
  0
LINE
  5
4C5
100
AcDbEntity
  8
RACCORDO
100
AcDbLine
 62
7
  6
CONTINUOUS
 10
40.0779939475
 20
52.2297374411
 11
40.1545903502
 21
52.2423779916
  0
LINE
  5
4C6
100
AcDbEntity
  8
RACCORDO
100
AcDbLine
 62
7
  6
CONTINUOUS
 10
39.2212614647
 20
52.7624507601
 11
39.1446650613
 21
52.7498102094
  0
LINE
  5
4C7
100
AcDbEntity
  8
RACCORDO
100
AcDbLine
 62
253
  6
CONTINUOUS
 10
39.062723892
 20
52.7108370676
 11
39.0928308398
 21
52.7145536114
  0
LINE
  5
4C8
100
AcDbEntity
  8
RACCORDO
100
AcDbLine
 62
253
  6
CONTINUOUS
 10
40.252967116
 20
52.2833251144
 11
40.2064245915
 21
52.2776345914
  0
LINE
  5
4C9
100
AcDbEntity
  8
RACCORDO
100
AcDbLine
 62
253
  6
CONTINUOUS
 10
39.014299373
 20
52.705078132
 11
39.062723892
 21
52.7108370676
  0
LINE
  5
4CA
100
AcDbEntity
  8
RACCORDO
100
AcDbLine
 62
253
  6
CONTINUOUS
 10
40.3026171709
 20
52.2891513925
 11
40.252967116
 21
52.2833251144
  0
LINE
  5
4CB
100
AcDbEntity
  8
RACCORDO
100
AcDbLine
 62
253
  6
CONTINUOUS
 10
38.9424032606
 20
52.6969121936
 11
39.014299373
 21
52.705078132
  0
LINE
  5
4CC
100
AcDbEntity
  8
RACCORDO
100
AcDbLine
 62
253
  6
CONTINUOUS
 10
40.3768680944
 20
52.2974790669
 11
40.3026171709
 21
52.2891513925
  0
LINE
  5
4CD
100
AcDbEntity
  8
RACCORDO
100
AcDbLine
 62
253
  6
CONTINUOUS
 10
38.8602762646
 20
52.6880238546
 11
38.9424032606
 21
52.6969121936
  0
LINE
  5
4CE
100
AcDbEntity
  8
RACCORDO
100
AcDbLine
 62
253
  6
CONTINUOUS
 10
40.4618733871
 20
52.3065818705
 11
40.3768680944
 21
52.2974790669
  0
LINE
  5
4CF
100
AcDbEntity
  8
RACCORDO
100
AcDbLine
 62
253
  6
CONTINUOUS
 10
38.7658667102
 20
52.6782371197
 11
38.8602762646
 21
52.6880238546
  0
LINE
  5
4D0
100
AcDbEntity
  8
RACCORDO
100
AcDbLine
 62
253
  6
CONTINUOUS
 10
40.5861095612
 20
52.3192505521
 11
40.4618733871
 21
52.3065818705
  0
LINE
  5
4D1
100
AcDbEntity
  8
RACCORDO
100
AcDbLine
 62
253
  6
CONTINUOUS
 10
38.5994683376
 20
52.6617957939
 11
38.7658667102
 21
52.6782371197
  0
LINE
  5
4D2
100
AcDbEntity
  8
RACCORDO
100
AcDbLine
 62
253
  6
CONTINUOUS
 10
40.7616984954
 20
52.3363293806
 11
40.5861095612
 21
52.3192505521
  0
LINE
  5
4D3
100
AcDbEntity
  8
RACCORDO
100
AcDbLine
 62
253
  6
CONTINUOUS
 10
38.3362216367
 20
52.637054728
 11
38.5994683376
 21
52.6617957939
  0
LINE
  5
4D4
100
AcDbEntity
  8
RACCORDO
100
AcDbLine
 62
253
  6
CONTINUOUS
 10
40.3414490906
 20
52.2595092535
 11
40.1545903502
 21
52.2423779916
  0
LWPOLYLINE
  5
4D5
100
AcDbEntity
  8
RACCORDO
100
AcDbPolyline
 62
253
  6
CONTINUOUS
 90
3
 70
0
 10
41.1519828459
 20
52.372304402
 10
41.1126291914
 20
52.368768344
 10
40.7616984954
 20
52.3363293806
  0
LINE
  5
4D6
100
AcDbEntity
  8
RACCORDO
100
AcDbLine
 62
253
  6
CONTINUOUS
 10
38.1472725743
 20
52.6198838025
 11
38.3362216367
 21
52.637054728
  0
LINE
  5
4D7
100
AcDbEntity
  8
RACCORDO
100
AcDbLine
 62
253
  6
CONTINUOUS
 10
38.9593018361
 20
52.7328129882
 11
39.1446650613
 21
52.7498102094
  0
LINE
  5
4D8
100
AcDbEntity
  8
RACCORDO
100
AcDbLine
 62
253
  6
CONTINUOUS
 10
40.79804985
 20
52.2993838824
 11
40.3414490906
 21
52.2595092535
  0
LINE
  5
4D9
100
AcDbEntity
  8
RACCORDO
100
AcDbLine
 62
253
  6
CONTINUOUS
 10
38.5020272281
 20
52.6928749299
 11
38.9593018361
 21
52.7328129882
  0
LINE
  5
4DA
100
AcDbEntity
  8
RACCORDO
100
AcDbLine
 62
253
  6
CONTINUOUS
 10
41.0913750103
 20
52.3244633819
 11
40.79804985
 21
52.2993838824
  0
LINE
  5
4DB
100
AcDbEntity
  8
RACCORDO
100
AcDbLine
 62
253
  6
CONTINUOUS
 10
38.2078803683
 20
52.6677248133
 11
38.5020272281
 21
52.6928749299
  0
LINE
  5
4DC
100
AcDbEntity
  8
RACCORDO
100
AcDbLine
 62
253
  6
CONTINUOUS
 10
41.1951378928
 20
52.6234396525
 11
41.15198284
 21
52.6198838022
  0
LINE
  5
4DD
100
AcDbEntity
  8
RACCORDO
100
AcDbLine
 62
253
  6
CONTINUOUS
 10
38.1041175251
 20
52.3687485464
 11
38.1472725759
 21
52.3723043962
  0
LINE
  5
4DE
100
AcDbEntity
  8
RACCORDO
100
AcDbLine
 62
253
  6
CONTINUOUS
 10
37.844436885
 20
46.6372007584
 11
37.5444825765
 21
46.637200758
  0
LINE
  5
4DF
100
AcDbEntity
  8
RACCORDO
100
AcDbLine
 62
253
  6
CONTINUOUS
 10
41.4548185272
 20
47.5266571604
 11
41.7547728357
 21
47.5266571604
  0
LINE
  5
4E0
100
AcDbEntity
  8
RACCORDO
100
AcDbLine
 62
253
  6
CONTINUOUS
 10
37.844436885
 20
49.0060738399
 11
37.5444825765
 21
49.0060738399
  0
LINE
  5
4E1
100
AcDbEntity
  8
RACCORDO
100
AcDbLine
 62
253
  6
CONTINUOUS
 10
41.4548185272
 20
49.0060738399
 11
41.7547728357
 21
49.0060738399
  0
LWPOLYLINE
  5
4E2
100
AcDbEntity
  8
RACCORDO
100
AcDbPolyline
 62
7
  6
CONTINUOUS
 90
9
 70
0
 10
38.0189123263
 20
46.1224289166
 10
38.088352204
 20
46.1199565999
 10
38.0985475862
 20
46.1195304936
 10
38.1073584979
 20
46.1191149712
 10
38.1147074174
 20
46.1187124638
 10
38.120512903
 20
46.1183169419
 10
38.1247556171
 20
46.1179263954
 10
38.1274463365
 20
46.1175428343
 10
38.1285902383
 20
46.1171662587
  0
LWPOLYLINE
  5
4E3
100
AcDbEntity
  8
RACCORDO
100
AcDbPolyline
 62
7
  6
CONTINUOUS
 90
10
 70
0
 10
38.0189123263
 20
46.1224289166
 10
38.0002197502
 20
46.1232798077
 10
37.9805995802
 20
46.1250836827
 10
37.9601877314
 20
46.1278405416
 10
37.9391239865
 20
46.1314915753
 10
37.9175427373
 20
46.1360955929
 10
37.8955712992
 20
46.1418290219
 10
37.8733407704
 20
46.1487506716
 10
37.850985987
 20
46.1568017326
 10
37.8286359298
 20
46.1659822051
  0
LWPOLYLINE
  5
4E4
100
AcDbEntity
  8
RACCORDO
100
AcDbPolyline
 62
253
  6
CONTINUOUS
 90
13
 70
0
 10
39.3118959242
 20
51.9963527368
 10
39.3079117461
 20
52.0141269097
 10
39.3020944564
 20
52.0320798057
 10
39.294319323
 20
52.0499943214
 10
39.2843963845
 20
52.0677643332
 10
39.272312182
 20
52.0849521852
 10
39.2583783771
 20
52.1008907495
 10
39.2427070445
 20
52.1153719538
 10
39.2254467612
 20
52.1281885317
 10
39.2072280615
 20
52.1389122104
 10
39.1884731264
 20
52.1474571379
 10
39.1692821364
 20
52.1539284011
 10
39.1498863423
 20
52.1583623186
  0
LWPOLYLINE
  5
4E5
100
AcDbEntity
  8
RACCORDO
100
AcDbPolyline
 62
253
  6
CONTINUOUS
 90
13
 70
0
 10
39.987359488
 20
52.9958354644
 10
39.991343666
 20
52.9780612915
 10
39.9971609558
 20
52.9601083955
 10
40.0049360892
 20
52.9421938797
 10
40.0148590277
 20
52.9244238679
 10
40.0269432302
 20
52.907236016
 10
40.0408770351
 20
52.8912974517
 10
40.0565483677
 20
52.8768162473
 10
40.073808651
 20
52.8639996695
 10
40.0920273507
 20
52.8532759908
 10
40.1107822858
 20
52.8447310632
 10
40.1299732758
 20
52.8382598
 10
40.1493690699
 20
52.8338258825
  0
LWPOLYLINE
  5
4E6
100
AcDbEntity
  8
RACCORDO
100
AcDbPolyline
 62
7
  6
CONTINUOUS
 90
7
 70
0
 10
39.395911597
 20
51.9911314568
 10
39.398555544
 20
51.9793124911
 10
39.4025461469
 20
51.9687052067
 10
39.4078485544
 20
51.9593524258
 10
39.414420709
 20
51.9513003307
 10
39.4222130842
 20
51.9445980306
 10
39.4311684192
 20
51.939297079
  0
LWPOLYLINE
  5
4E7
100
AcDbEntity
  8
RACCORDO
100
AcDbPolyline
 62
7
  6
CONTINUOUS
 90
7
 70
0
 10
39.9033438413
 20
53.0010566675
 10
39.9006999036
 20
53.0128757081
 10
39.8967093083
 20
53.0234830378
 10
39.8914069084
 20
53.0328358343
 10
39.884834763
 20
53.0408879151
 10
39.8770424003
 20
53.0475901712
 10
39.8680870828
 20
53.052891049
  0
LWPOLYLINE
  5
4E8
100
AcDbEntity
  8
RACCORDO
100
AcDbPolyline
 62
253
  6
CONTINUOUS
 90
13
 70
0
 10
39.2627230188
 20
51.9876822268
 10
39.2598615836
 20
52.0013590768
 10
39.2554553649
 20
52.0148080228
 10
39.2495043628
 20
52.0280290647
 10
39.2419073314
 20
52.0413145325
 10
39.2327655165
 20
52.0543720962
 10
39.2223826557
 20
52.0663247661
 10
39.2106161125
 20
52.0770244572
 10
39.1976085235
 20
52.0866192543
 10
39.1840915362
 20
52.0946764221
 10
39.1703090332
 20
52.1010517152
 10
39.1560171319
 20
52.1058893789
 10
39.1412158324
 20
52.1091894132
  0
LWPOLYLINE
  5
4E9
100
AcDbEntity
  8
RACCORDO
100
AcDbPolyline
 62
253
  6
CONTINUOUS
 90
13
 70
0
 10
40.0365323934
 20
53.0045059743
 10
40.0393938286
 20
52.9908291243
 10
40.0438000473
 20
52.9773801784
 10
40.0497510494
 20
52.9641591365
 10
40.0573480808
 20
52.9508736687
 10
40.0664898957
 20
52.9378161049
 10
40.0768727565
 20
52.9258634351
 10
40.0886392997
 20
52.915163744
 10
40.1016468887
 20
52.9055689468
 10
40.115163876
 20
52.8975117791
 10
40.128946379
 20
52.8911364859
 10
40.1432382803
 20
52.8862988222
 10
40.1580395798
 20
52.8829987879
  0
LINE
  5
4EA
100
AcDbEntity
  8
RACCORDO
100
AcDbLine
 62
253
  6
CONTINUOUS
 10
38.1992098581
 20
52.7168977187
 11
38.2078803681
 21
52.6677248133
  0
LINE
  5
4EB
100
AcDbEntity
  8
RACCORDO
100
AcDbLine
 62
253
  6
CONTINUOUS
 10
39.4288240821
 20
51.0456762862
 11
39.2627230188
 21
51.9876822268
  0
LINE
  5
4EC
100
AcDbEntity
  8
RACCORDO
100
AcDbLine
 62
253
  6
CONTINUOUS
 10
39.1412158324
 20
52.8829987879
 11
39.1498863423
 21
52.8338258825
  0
LINE
  5
4ED
100
AcDbEntity
  8
RACCORDO
100
AcDbLine
 62
253
  6
CONTINUOUS
 10
39.4779969875
 20
51.0543467964
 11
39.3118959242
 21
51.9963527368
  0
LINE
  5
4EE
100
AcDbEntity
  8
RACCORDO
100
AcDbLine
 62
253
  6
CONTINUOUS
 10
39.8212584188
 20
53.9378414384
 11
39.987359488
 21
52.9958354644
  0
LINE
  5
4EF
100
AcDbEntity
  8
RACCORDO
100
AcDbLine
 62
253
  6
CONTINUOUS
 10
40.1580395798
 20
52.1091894132
 11
40.1493690699
 21
52.1583623187
  0
LINE
  5
4F0
100
AcDbEntity
  8
RACCORDO
100
AcDbLine
 62
253
  6
CONTINUOUS
 10
39.8704313242
 20
53.9465119485
 11
40.0365323934
 21
53.0045059743
  0
LINE
  5
4F1
100
AcDbEntity
  8
RACCORDO
100
AcDbLine
 62
253
  6
CONTINUOUS
 10
41.1000455204
 20
52.2752904766
 11
41.0913750105
 21
52.324463382
  0
LINE
  5
4F2
100
AcDbEntity
  8
RACCORDO
100
AcDbLine
 62
7
  6
CONTINUOUS
 10
39.3832710466
 20
52.0677278592
 11
39.3959115972
 21
51.9911314565
  0
LINE
  5
4F3
100
AcDbEntity
  8
RACCORDO
100
AcDbLine
 62
7
  6
CONTINUOUS
 10
39.9159843656
 20
52.924460342
 11
39.903343815
 21
53.0010567454
  0
LINE
  5
4F4
100
AcDbEntity
  8
RACCORDO
100
AcDbLine
 62
253
  6
CONTINUOUS
 10
39.8643706731
 20
53.0829979147
 11
39.8680872169
 21
53.0528909668
  0
LWPOLYLINE
  5
4F5
100
AcDbEntity
  8
RACCORDO
100
AcDbPolyline
 62
253
  6
CONTINUOUS
 90
3
 70
0
 10
39.4387839566
 20
51.8766233507
 10
39.4368587199
 20
51.8927546906
 10
39.431168197
 20
51.9392972151
  0
LINE
  5
4F6
100
AcDbEntity
  8
RACCORDO
100
AcDbLine
 62
253
  6
CONTINUOUS
 10
39.8586117375
 20
53.1314224338
 11
39.8643706731
 21
53.0829979147
  0
LWPOLYLINE
  5
4F7
100
AcDbEntity
  8
RACCORDO
100
AcDbPolyline
 62
253
  6
CONTINUOUS
 90
3
 70
0
 10
39.8482989295
 20
53.2228171342
 10
39.8504457991
 20
53.2033185462
 10
39.8586117375
 20
53.1314224338
  0
LWPOLYLINE
  5
4F8
100
AcDbEntity
  8
RACCORDO
100
AcDbPolyline
 62
253
  6
CONTINUOUS
 90
5
 70
0
 10
32.5870498935
 20
-44.6308597158
 10
32.5891918286
 20
-44.6287127835
 10
32.5913108131
 20
-44.6233748807
 10
32.5933841424
 20
-44.6149032022
 10
32.5952994916
 20
-44.6039058994
  0
LINE
  5
4F9
100
AcDbEntity
  8
RACCORDO
100
AcDbLine
 62
253
  6
CONTINUOUS
 10
38.0354296184
 20
-33.8626424874
 11
38.0189123263
 21
-33.8775710834
  0
LWPOLYLINE
  5
4FA
100
AcDbEntity
  8
RACCORDO
100
AcDbPolyline
 62
7
  6
CONTINUOUS
 90
13
 70
0
 10
41.9690667348
 20
-30.6008262494
 10
41.9388289049
 20
-30.625416041
 10
41.9108612147
 20
-30.6519295942
 10
41.8851636641
 20
-30.6803669089
 10
41.8616053868
 20
-30.7109210275
 10
41.8403172492
 20
-30.7433989077
 10
41.8216918498
 20
-30.7772214224
 10
41.8057790875
 20
-30.8124277036
 10
41.7925290635
 20
-30.8489786193
 10
41.7821846802
 20
-30.8861776466
 10
41.7748269052
 20
-30.9237926111
 10
41.770374771
 20
-30.9620556873
 10
41.7688282775
 20
-31.0009668749
  0
LWPOLYLINE
  5
4FB
100
AcDbEntity
  8
RACCORDO
100
AcDbPolyline
 62
253
  6
CONTINUOUS
 90
16
 70
0
 10
41.3608160228
 20
-32.6429270491
 10
41.3716262582
 20
-32.6356508842
 10
41.3818516314
 20
-32.6277901195
 10
41.3914921425
 20
-32.619344755
 10
41.4005558791
 20
-32.61032117
 10
41.4090347536
 20
-32.6007129852
 10
41.4169045029
 20
-32.5905010624
 10
41.4242013631
 20
-32.5796761269
 10
41.4308890983
 20
-32.5682474535
 10
41.4368347371
 20
-32.5562237286
 10
41.4420621071
 20
-32.5435433973
 10
41.4465473808
 20
-32.5302680145
 10
41.4500861049
 20
-32.5165909321
 10
41.4526101285
 20
-32.5025766009
 10
41.4541876026
 20
-32.48816057
 10
41.4548185272
 20
-32.4733428396
  0
LWPOLYLINE
  5
4FC
100
AcDbEntity
  8
RACCORDO
100
AcDbPolyline
 62
253
  6
CONTINUOUS
 90
16
 70
0
 10
41.5197665747
 20
-32.8973033633
 10
41.5466365092
 20
-32.8792748573
 10
41.5722300859
 20
-32.859590521
 10
41.596448833
 20
-32.838343171
 10
41.6191081068
 20
-32.8157301685
 10
41.6402294123
 20
-32.7917674526
 10
41.6599754271
 20
-32.7662315522
 10
41.678238409
 20
-32.7391472884
 10
41.6948542577
 20
-32.7106313237
 10
41.709800588
 20
-32.6805379826
 10
41.7229464198
 20
-32.6488319176
 10
41.7340566065
 20
-32.6157263617
 10
41.7429329921
 20
-32.5814582
 10
41.7494269498
 20
-32.5462126334
 10
41.7534151237
 20
-32.5101144939
 10
41.7547728355
 20
-32.4733428395
  0
LINE
  5
4FD
100
AcDbEntity
  8
RACCORDO
100
AcDbLine
 62
253
  6
CONTINUOUS
 10
36.8174476323
 20
50.3471088042
 11
36.6204860817
 21
50.3471088042
  0
LINE
  5
4FE
100
AcDbEntity
  8
RACCORDO
100
AcDbLine
 62
253
  6
CONTINUOUS
 10
36.8174476323
 20
50.7392153462
 11
36.6204860817
 21
50.7392153462
  0
LINE
  5
4FF
100
AcDbEntity
  8
RACCORDO
100
AcDbLine
 62
253
  6
CONTINUOUS
 10
36.6204860817
 20
54.2529674295
 11
36.8174476323
 21
54.2529674295
  0
LINE
  5
500
100
AcDbEntity
  8
RACCORDO
100
AcDbLine
 62
253
  6
CONTINUOUS
 10
36.8174476323
 20
54.6450793969
 11
36.6204860817
 21
54.6450793969
  0
LINE
  5
501
100
AcDbEntity
  8
RACCORDO
100
AcDbLine
 62
253
  6
CONTINUOUS
 10
41.1951378979
 20
52.3687485507
 11
41.1519828459
 21
52.3723044013
  0
LINE
  5
502
100
AcDbEntity
  8
RACCORDO
100
AcDbLine
 62
253
  6
CONTINUOUS
 10
38.1041175208
 20
52.623439653
 11
38.1472725806
 21
52.6198838038
  0
LINE
  5
503
100
AcDbEntity
  8
RACCORDO
100
AcDbLine
 62
253
  6
CONTINUOUS
 10
38.2078803709
 20
52.3244633874
 11
38.9597721486
 21
52.2593330483
  0
LINE
  5
504
100
AcDbEntity
  8
RACCORDO
100
AcDbLine
 62
253
  6
CONTINUOUS
 10
38.1472725761
 20
52.3723043942
 11
38.4735043689
 21
52.3423810352
  0
LINE
  5
505
100
AcDbEntity
  8
RACCORDO
100
AcDbLine
 62
253
  6
CONTINUOUS
 10
38.9597721486
 20
52.2593330483
 11
39.1446650616
 21
52.2423779917
  0
LINE
  5
506
100
AcDbEntity
  8
RACCORDO
100
AcDbLine
 62
253
  6
CONTINUOUS
 10
38.4735043689
 20
52.3423810352
 11
38.6584292257
 21
52.3246638191
  0
LWPOLYLINE
  5
507
100
AcDbEntity
  8
RACCORDO
100
AcDbPolyline
 62
253
  6
CONTINUOUS
 90
22
 70
0
 10
39.5222821562
 20
50.9505839088
 10
39.5173224751
 20
50.9511039675
 10
39.5123072946
 20
50.9519598148
 10
39.5072366145
 20
50.9531514506
 10
39.5020920805
 20
50.954663206
 10
39.4968920469
 20
50.95651075
 10
39.4916915772
 20
50.9587410895
 10
39.4864865243
 20
50.9613555693
 10
39.4812810352
 20
50.9643528446
 10
39.4761426141
 20
50.9677758884
 10
39.4710710504
 20
50.9716176484
 10
39.4660665548
 20
50.975885177
 10
39.461197264
 20
50.9806426043
 10
39.4564411022
 20
50.9859047131
 10
39.4518201452
 20
50.9916567206
 10
39.4474687576
 20
50.9979184091
 10
39.4433749137
 20
51.0047169325
 10
39.439550639
 20
51.0120251369
 10
39.4361663744
 20
51.0197813425
 10
39.4332789336
 20
51.0279649892
 10
39.4308315028
 20
51.0365966371
 10
39.4288240821
 20
51.0456762862
  0
LWPOLYLINE
  5
508
100
AcDbEntity
  8
RACCORDO
100
AcDbPolyline
 62
253
  6
CONTINUOUS
 90
11
 70
0
 10
-34.9393479349
 20
69.6350240502
 10
-34.9371337328
 20
69.6342618717
 10
-34.9323839527
 20
69.6335123328
 10
-34.9250985947
 20
69.6327754333
 10
-34.9152412017
 20
69.6320499313
 10
-34.9028482309
 20
69.6313370688
 10
-34.888029053
 20
69.6306405718
 10
-34.8707403457
 20
69.6299588906
 10
-34.8510254314
 20
69.6292935749
 10
-34.829123648
 20
69.6286529994
 10
-34.7787270257
 20
69.6274474328
  0
LWPOLYLINE
  5
509
100
AcDbEntity
  8
RACCORDO
100
AcDbPolyline
 62
253
  6
CONTINUOUS
 90
43
 70
0
 10
36.6204860816
 20
54.2529674295
 10
36.6222719653
 20
54.2488088776
 10
36.6245309285
 20
54.2446697327
 10
36.6272568583
 20
54.2405556889
 10
36.6304424228
 20
54.2364672536
 10
36.6340789401
 20
54.2324151652
 10
36.638155852
 20
54.2284202968
 10
36.6426631529
 20
54.2244870273
 10
36.6475867891
 20
54.2206214938
 10
36.6529063436
 20
54.2168466967
 10
36.6585938537
 20
54.2131746038
 10
36.6646425851
 20
54.2096019805
 10
36.6710662771
 20
54.2061291492
 10
36.6778653838
 20
54.2027540507
 10
36.6850126154
 20
54.1994882858
 10
36.6924825099
 20
54.1963527931
 10
36.7002575949
 20
54.1933522443
 10
36.7083196262
 20
54.190489622
 10
36.716638911
 20
54.1877822774
 10
36.7251917782
 20
54.18523493
 10
36.7339611996
 20
54.1828484826
 10
36.742926195
 20
54.180633767
 10
36.7520661345
 20
54.1785935927
 10
36.7613598675
 20
54.1767295326
 10
36.7707856151
 20
54.1750501324
 10
36.7803230399
 20
54.1735575687
 10
36.7899501202
 20
54.1722529077
 10
36.799642624
 20
54.1711425944
 10
36.8093799184
 20
54.1702283737
 10
36.8191400564
 20
54.1695106242
 10
36.8288969777
 20
54.168993245
 10
36.8386297321
 20
54.1686775208
 10
36.8483168947
 20
54.1685631784
 10
36.8579319862
 20
54.1686512457
 10
36.8674541258
 20
54.1689424827
 10
36.876862462
 20
54.1694360442
 10
36.8861310196
 20
54.1701300057
 10
36.8952393834
 20
54.1710245663
 10
36.9041673204
 20
54.1721183158
 10
36.912889766
 20
54.1734063528
 10
36.9213854685
 20
54.1748861508
 10
36.9296367571
 20
54.1765577525
 10
36.9376245515
 20
54.1784196953
  0
LWPOLYLINE
  5
50A
100
AcDbEntity
  8
RACCORDO
100
AcDbPolyline
 62
253
  6
CONTINUOUS
 90
22
 70
0
 10
38.0408157018
 20
58.5549247411
 10
38.0261966608
 20
58.5541104065
 10
38.0118280533
 20
58.5522786325
 10
37.9977098792
 20
58.5494294192
 10
37.9837747722
 20
58.5455387843
 10
37.9700900986
 20
58.54063071
 10
37.9568579575
 20
58.5347771431
 10
37.9440747568
 20
58.5279557778
 10
37.9317440885
 20
58.5201889198
 10
37.9200788283
 20
58.5116154334
 10
37.9091146109
 20
58.5022558677
 10
37.8988158016
 20
58.4920896735
 10
37.8892883719
 20
58.4811940671
 10
37.8805173679
 20
58.4695679148
 10
37.8725177435
 20
58.4572123502
 10
37.8654403317
 20
58.4442079904
 10
37.8592690068
 20
58.4304976677
 10
37.8540198944
 20
58.4161385498
 10
37.8498922051
 20
58.4013827564
 10
37.8469523421
 20
58.3863143274
 10
37.8451339021
 20
58.3708492228
 10
37.844436885
 20
58.3549874427
  0
LWPOLYLINE
  5
50B
100
AcDbEntity
  8
RACCORDO
100
AcDbPolyline
 62
253
  6
CONTINUOUS
 90
22
 70
0
 10
38.035429619
 20
58.8548306879
 10
37.9991980512
 20
58.8528566544
 10
37.9632192988
 20
58.8482624716
 10
37.9276822821
 20
58.8410754712
 10
37.892783709
 20
58.8313399161
 10
37.8586951066
 20
58.8191081786
 10
37.8255645673
 20
58.8044329054
 10
37.7935383628
 20
58.7873704734
 10
37.7628185644
 20
58.7680198319
 10
37.7336231511
 20
58.7465223391
 10
37.7061779769
 20
58.7230722501
 10
37.6805306109
 20
58.6977397511
 10
37.6566474261
 20
58.6704685148
 10
37.6346829537
 20
58.641367244
 10
37.6147940334
 20
58.6105692054
 10
37.5970216271
 20
58.5780089206
 10
37.581504946
 20
58.543713748
 10
37.5684793842
 20
58.5079360025
 10
37.5581391939
 20
58.4709577349
 10
37.5506224828
 20
58.4330137698
 10
37.5460360703
 20
58.3942813841
 10
37.5444825773
 20
58.3549874419
  0
LINE
  5
50C
100
AcDbEntity
  8
RACCORDO
100
AcDbLine
 62
7
  6
CONTINUOUS
 10
38.0985475862
 20
58.8726577076
 11
38.0768199856
 21
58.8717924799
  0
LINE
  5
50D
100
AcDbEntity
  8
RACCORDO
100
AcDbLine
 62
7
  6
CONTINUOUS
 10
38.0768199856
 20
58.8717924799
 11
38.0189123263
 21
58.8697592845
  0
LINE
  5
50E
100
AcDbEntity
  8
RACCORDO
100
AcDbLine
 62
253
  6
CONTINUOUS
 10
37.844436885
 20
55.9861143613
 11
37.5444825765
 21
55.9861143613
  0
LINE
  5
50F
100
AcDbEntity
  8
RACCORDO
100
AcDbLine
 62
253
  6
CONTINUOUS
 10
41.4548185272
 20
55.9861143613
 11
41.7547728357
 21
55.9861143613
  0
LINE
  5
510
100
AcDbEntity
  8
0
100
AcDbLine
 62
7
  6
CONTINUOUS
 10
-43.2003240111
 20
56.1960941006
 11
-37.9270481307
 21
56.1960941006
  0
LINE
  5
511
100
AcDbEntity
  8
RACCORDO
100
AcDbLine
 62
7
  6
CONTINUOUS
 10
-37.9270481307
 20
56.1960941006
 11
-37.0293805176
 21
56.1960941006
  0
LINE
  5
512
100
AcDbEntity
  8
RACCORDO
100
AcDbLine
 62
253
  6
CONTINUOUS
 10
41.4548185272
 20
57.4655310408
 11
41.7547728357
 21
57.4655310416
  0
LINE
  5
513
100
AcDbEntity
  8
RACCORDO
100
AcDbLine
 62
253
  6
CONTINUOUS
 10
37.844436885
 20
58.3549874427
 11
37.5444825765
 21
58.3549874427
  0
LINE
  5
514
100
AcDbEntity
  8
0
100
AcDbLine
 62
7
  6
CONTINUOUS
 10
-37.9270481307
 20
60.1960941006
 11
-43.2003240111
 21
60.1960941006
  0
LINE
  5
515
100
AcDbEntity
  8
DRAFT
100
AcDbLine
 62
7
  6
CONTINUOUS
 10
-35.8427705796
 20
60.2536958148
 11
-35.8003722939
 21
60.2536958148
  0
LINE
  5
516
100
AcDbEntity
  8
DRAFT
100
AcDbLine
 62
7
  6
CONTINUOUS
 10
34.0996277061
 20
60.2536958148
 11
34.1420259918
 21
60.2536958148
  0
LINE
  5
517
100
AcDbEntity
  8
RACCORDO
100
AcDbLine
 62
253
  6
CONTINUOUS
 10
41.0913750331
 20
52.6677248152
 11
40.3415973391
 21
52.7326656601
  0
LINE
  5
518
100
AcDbEntity
  8
RACCORDO
100
AcDbLine
 62
253
  6
CONTINUOUS
 10
41.1519828398
 20
52.6198838043
 11
40.8262159501
 21
52.6497634909
  0
LINE
  5
519
100
AcDbEntity
  8
RACCORDO
100
AcDbLine
 62
253
  6
CONTINUOUS
 10
40.3415973391
 20
52.7326656601
 11
40.1545903502
 21
52.7498102095
  0
LINE
  5
51A
100
AcDbEntity
  8
RACCORDO
100
AcDbLine
 62
253
  6
CONTINUOUS
 10
40.8262159501
 20
52.6497634909
 11
40.613284783
 21
52.6702390469
  0
LINE
  5
51B
100
AcDbEntity
  8
RACCORDO
100
AcDbLine
 62
253
  6
CONTINUOUS
 10
38.6584292257
 20
52.3246638191
 11
38.8151849681
 21
52.3088910308
  0
LINE
  5
51C
100
AcDbEntity
  8
RACCORDO
100
AcDbLine
 62
253
  6
CONTINUOUS
 10
40.613284783
 20
52.6702390469
 11
40.4847808983
 21
52.6832235592
  0
LWPOLYLINE
  5
51D
100
AcDbEntity
  8
RACCORDO
100
AcDbPolyline
 62
253
  6
CONTINUOUS
 90
22
 70
0
 10
39.7769732585
 20
54.0416042859
 10
39.7819329386
 20
54.041084225
 10
39.7869481183
 20
54.0402283764
 10
39.7920187976
 20
54.0390367401
 10
39.7971633309
 20
54.0375249854
 10
39.8023633638
 20
54.0356774431
 10
39.807563833
 20
54.0334471053
 10
39.8127688857
 20
54.0308326272
 10
39.8179743747
 20
54.0278353537
 10
39.8231127956
 20
54.0244123118
 10
39.8281843593
 20
54.0205705538
 10
39.8331888549
 20
54.0163030274
 10
39.8380581456
 20
54.0115456025
 10
39.8428143071
 20
54.0062834965
 10
39.8474352637
 20
54.000531492
 10
39.851786651
 20
53.9942698066
 10
39.8558804946
 20
53.9874712863
 10
39.859704769
 20
53.9801630851
 10
39.8630890332
 20
53.9724068828
 10
39.8659764737
 20
53.9642232392
 10
39.868423904
 20
53.9555915944
 10
39.8704313242
 20
53.9465119485
  0
LINE
  5
51E
100
AcDbEntity
  8
RACCORDO
100
AcDbLine
 62
253
  6
CONTINUOUS
 10
40.4847808983
 20
52.6832235592
 11
40.3968761884
 21
52.6925229515
  0
LINE
  5
51F
100
AcDbEntity
  8
RACCORDO
100
AcDbLine
 62
253
  6
CONTINUOUS
 10
38.8151849681
 20
52.3088910308
 11
38.9030906192
 21
52.2995883699
  0
LINE
  5
520
100
AcDbEntity
  8
RACCORDO
100
AcDbLine
 62
253
  6
CONTINUOUS
 10
38.9030906192
 20
52.2995883699
 11
38.9796824322
 21
52.2910890201
  0
LINE
  5
521
100
AcDbEntity
  8
RACCORDO
100
AcDbLine
 62
253
  6
CONTINUOUS
 10
40.3968761884
 20
52.6925229515
 11
40.3202746126
 21
52.7010202861
  0
LINE
  5
522
100
AcDbEntity
  8
RACCORDO
100
AcDbLine
 62
253
  6
CONTINUOUS
 10
40.3202746126
 20
52.7010202861
 11
40.2691727821
 21
52.7069282402
  0
LINE
  5
523
100
AcDbEntity
  8
RACCORDO
100
AcDbLine
 62
253
  6
CONTINUOUS
 10
38.9796824322
 20
52.2910890201
 11
39.0309658069
 21
52.2851481829
  0
LWPOLYLINE
  5
524
100
AcDbEntity
  8
RACCORDO
100
AcDbPolyline
 62
253
  6
CONTINUOUS
 90
3
 70
0
 10
39.0309658069
 20
52.2851481829
 10
39.0780163404
 20
52.2794826151
 10
39.0928308262
 20
52.277634591
  0
LWPOLYLINE
  5
525
100
AcDbEntity
  8
RACCORDO
100
AcDbPolyline
 62
253
  6
CONTINUOUS
 90
3
 70
0
 10
40.2691727821
 20
52.7069282402
 10
40.2216369762
 20
52.712669414
 10
40.2064246076
 20
52.7145536083
  0
LWPOLYLINE
  5
526
100
AcDbEntity
  8
RACCORDO
100
AcDbPolyline
 62
253
  6
CONTINUOUS
 90
22
 70
0
 10
39.5258380022
 20
50.9937389013
 10
39.5233621383
 20
50.9941289302
 10
39.5208382205
 20
50.9947171718
 10
39.5182738581
 20
50.9955102565
 10
39.5156787569
 20
50.9965107809
 10
39.5130609319
 20
50.9977285293
 10
39.510426874
 20
50.9991808418
 10
39.5077888774
 20
51.000873347
 10
39.5051579417
 20
51.0028110113
 10
39.5025406417
 20
51.0050106402
 10
39.4999566414
 20
51.0074720794
 10
39.4974159459
 20
51.0102032045
 10
39.494915383
 20
51.0132356436
 10
39.4924710796
 20
51.016581899
 10
39.4901102151
 20
51.0202377021
 10
39.4878520433
 20
51.0242112878
 10
39.4857191816
 20
51.0285135002
 10
39.4837424007
 20
51.0331319128
 10
39.481954439
 20
51.0380364891
 10
39.4803836942
 20
51.0432106718
 10
39.4790555527
 20
51.048652037
 10
39.4779969875
 20
51.0543467962
  0
LWPOLYLINE
  5
527
100
AcDbEntity
  8
RACCORDO
100
AcDbPolyline
 62
253
  6
CONTINUOUS
 90
22
 70
0
 10
39.7734174132
 20
53.9984492763
 10
39.7758932759
 20
53.9980592448
 10
39.7784171927
 20
53.9974710018
 10
39.7809815544
 20
53.9966779168
 10
39.7835766551
 20
53.9956773934
 10
39.7861944798
 20
53.994459647
 10
39.7888285375
 20
53.9930073367
 10
39.7914665338
 20
53.9913148336
 10
39.7940974694
 20
53.9893771717
 10
39.7967147694
 20
53.9871775454
 10
39.7992987695
 20
53.984716109
 10
39.8018394649
 20
53.9819849869
 10
39.8043400276
 20
53.9789525512
 10
39.8067843306
 20
53.9756062996
 10
39.8091451947
 20
53.9719505007
 10
39.8114033661
 20
53.9679769193
 10
39.8135362274
 20
53.9636747114
 10
39.8155130078
 20
53.9590563034
 10
39.8173009691
 20
53.9541517318
 10
39.8188717133
 20
53.9489775538
 10
39.8201998542
 20
53.9435361932
 10
39.8212584188
 20
53.9378414386
  0
LINE
  5
528
100
AcDbEntity
  8
RACCORDO
100
AcDbLine
 62
7
  6
CONTINUOUS
 10
39.1446650616
 20
52.2423779917
 11
39.2212614647
 21
52.2297374411
  0
LINE
  5
529
100
AcDbEntity
  8
RACCORDO
100
AcDbLine
 62
7
  6
CONTINUOUS
 10
40.1545903502
 20
52.7498102095
 11
40.0779939475
 21
52.7624507601
  0
LINE
  5
52A
100
AcDbEntity
  8
RACCORDO
100
AcDbLine
 62
253
  6
CONTINUOUS
 10
39.8704313263
 20
51.0456762644
 11
39.8212584209
 21
51.0543467744
  0
LINE
  5
52B
100
AcDbEntity
  8
RACCORDO
100
AcDbLine
 62
253
  6
CONTINUOUS
 10
39.1412158324
 20
52.1091894132
 11
38.1992098618
 21
52.2752904818
  0
LINE
  5
52C
100
AcDbEntity
  8
RACCORDO
100
AcDbLine
 62
253
  6
CONTINUOUS
 10
40.0365323934
 20
51.9876822268
 11
39.987359488
 21
51.9963527368
  0
LINE
  5
52D
100
AcDbEntity
  8
RACCORDO
100
AcDbLine
 62
253
  6
CONTINUOUS
 10
39.1498863423
 20
52.1583623186
 11
38.2078803709
 21
52.3244633874
  0
LINE
  5
52E
100
AcDbEntity
  8
RACCORDO
100
AcDbLine
 62
253
  6
CONTINUOUS
 10
40.1493690699
 20
52.8338258825
 11
41.0913750331
 21
52.6677248152
  0
LINE
  5
52F
100
AcDbEntity
  8
RACCORDO
100
AcDbLine
 62
253
  6
CONTINUOUS
 10
39.2627230188
 20
53.0045059743
 11
39.3118959242
 21
52.9958354644
  0
LINE
  5
530
100
AcDbEntity
  8
RACCORDO
100
AcDbLine
 62
253
  6
CONTINUOUS
 10
40.1580395798
 20
52.8829987879
 11
41.1000455422
 21
52.7168977208
  0
LINE
  5
531
100
AcDbEntity
  8
RACCORDO
100
AcDbLine
 62
253
  6
CONTINUOUS
 10
39.4288240874
 20
53.9465119449
 11
39.4779969928
 21
53.937841435
  0
LWPOLYLINE
  5
532
100
AcDbEntity
  8
RACCORDO
100
AcDbPolyline
 62
253
  6
CONTINUOUS
 90
19
 70
0
 10
38.2078803717
 20
52.3244633873
 10
38.2017167637
 20
52.3256232885
 10
38.195835249
 20
52.3271025593
 10
38.1902541821
 20
52.3288702979
 10
38.1849849417
 20
52.330893843
 10
38.180041776
 20
52.3331423631
 10
38.1754433067
 20
52.3355896061
 10
38.1711914371
 20
52.3382131085
 10
38.1672949645
 20
52.3409796023
 10
38.1637775981
 20
52.3438468837
 10
38.1606575514
 20
52.3467673799
 10
38.1579050245
 20
52.3497321673
 10
38.1554735039
 20
52.3527623957
 10
38.1533635435
 20
52.3558269451
 10
38.1515690621
 20
52.3589209099
 10
38.150053962
 20
52.3621179819
 10
38.1488198249
 20
52.3654376509
 10
38.1478894511
 20
52.3688378214
 10
38.1472725384
 20
52.3723043919
  0
LWPOLYLINE
  5
533
100
AcDbEntity
  8
RACCORDO
100
AcDbPolyline
 62
253
  6
CONTINUOUS
 90
19
 70
0
 10
41.0913750323
 20
52.6677248153
 10
41.0975386424
 20
52.6665649139
 10
41.1034201592
 20
52.6650856428
 10
41.1090012282
 20
52.6633179041
 10
41.1142704707
 20
52.6612943588
 10
41.1192136384
 20
52.6590458387
 10
41.1238121097
 20
52.6565985955
 10
41.1280639814
 20
52.6539750929
 10
41.131960456
 20
52.6512085987
 10
41.1354778243
 20
52.6483413169
 10
41.1385978728
 20
52.6454208201
 10
41.1413504012
 20
52.642456032
 10
41.1437819232
 20
52.639425803
 10
41.1458918844
 20
52.6363612532
 10
41.1476863666
 20
52.6332672882
 10
41.1492014668
 20
52.6300702162
 10
41.1504356035
 20
52.6267505474
 10
41.1513659764
 20
52.6233503771
 10
41.1519828877
 20
52.619883807
  0
LWPOLYLINE
  5
534
100
AcDbEntity
  8
RACCORDO
100
AcDbPolyline
 62
7
  6
CONTINUOUS
 90
13
 70
0
 10
39.2212614647
 20
52.2297374411
 10
39.2415530752
 20
52.2252928614
 10
39.261129797
 20
52.2188064298
 10
39.2797974677
 20
52.2103778369
 10
39.297356205
 20
52.2001394503
 10
39.3136640609
 20
52.1882139184
 10
39.3286233487
 20
52.1746919434
 10
39.3420757635
 20
52.1597268141
 10
39.3539050916
 20
52.1434678064
 10
39.36405753
 20
52.1259798813
 10
39.3724204677
 20
52.1073897306
 10
39.3788569418
 20
52.0879084036
 10
39.3832710466
 20
52.0677278592
  0
LWPOLYLINE
  5
535
100
AcDbEntity
  8
RACCORDO
100
AcDbPolyline
 62
7
  6
CONTINUOUS
 90
13
 70
0
 10
40.0779939475
 20
52.7624507601
 10
40.057702337
 20
52.7668953398
 10
40.0381256152
 20
52.7733817713
 10
40.0194579445
 20
52.7818103642
 10
40.0018992072
 20
52.7920487508
 10
39.9855913513
 20
52.8039742827
 10
39.9706320635
 20
52.8174962577
 10
39.9571796487
 20
52.8324613871
 10
39.9453503206
 20
52.8487203947
 10
39.9351978822
 20
52.8662083199
 10
39.9268349445
 20
52.8847984705
 10
39.9203984704
 20
52.9042797976
 10
39.9159843656
 20
52.924460342
  0
LWPOLYLINE
  5
536
100
AcDbEntity
  8
RACCORDO
100
AcDbPolyline
 62
253
  6
CONTINUOUS
 90
19
 70
0
 10
38.1992098618
 20
52.2752904818
 10
38.1893761373
 20
52.277498017
 10
38.1800502773
 20
52.2802292764
 10
38.1712322819
 20
52.28348426
 10
38.1629036117
 20
52.2873197624
 10
38.1550828059
 20
52.291678989
 10
38.1478254824
 20
52.2963915559
 10
38.1411384915
 20
52.3014654909
 10
38.1350149828
 20
52.3068927664
 10
38.1294900226
 20
52.3124789155
 10
38.1246038155
 20
52.318175704
 10
38.1203161568
 20
52.3240313661
 10
38.1165414992
 20
52.3299961387
 10
38.1132653251
 20
52.3360248421
 10
38.110502152
 20
52.342162656
 10
38.108209985
 20
52.3484953558
 10
38.1063748257
 20
52.3550515333
 10
38.1050106724
 20
52.3618025969
 10
38.1041175251
 20
52.3687485464
  0
LWPOLYLINE
  5
537
100
AcDbEntity
  8
RACCORDO
100
AcDbPolyline
 62
253
  6
CONTINUOUS
 90
19
 70
0
 10
41.1000455422
 20
52.7168977208
 10
41.1098792679
 20
52.7146901855
 10
41.119205129
 20
52.711958926
 10
41.1280231258
 20
52.7087039424
 10
41.1363517973
 20
52.7048684402
 10
41.1441726044
 20
52.7005092138
 10
41.1514299294
 20
52.6957966468
 10
41.158116922
 20
52.6907227115
 10
41.1642404326
 20
52.6852954356
 10
41.1697653946
 20
52.6797092857
 10
41.1746516035
 20
52.6740124961
 10
41.1789392639
 20
52.6681568326
 10
41.1827139228
 20
52.6621920589
 10
41.1859900979
 20
52.6561633548
 10
41.1887532715
 20
52.6500255406
 10
41.1910454383
 20
52.6436928408
 10
41.1928805966
 20
52.6371366636
 10
41.1942447481
 20
52.6303856008
 10
41.1951378928
 20
52.6234396525
  0
LWPOLYLINE
  5
538
100
AcDbEntity
  8
RACCORDO
100
AcDbPolyline
 62
253
  6
CONTINUOUS
 90
43
 70
0
 10
36.937624763
 20
50.8137561941
 10
36.9297051634
 20
50.815603358
 10
36.9215206047
 20
50.817264143
 10
36.9130891848
 20
50.8187369156
 10
36.904427982
 20
50.8200216855
 10
36.8955571261
 20
50.8211155912
 10
36.8864999381
 20
50.8220130601
 10
36.8772756152
 20
50.8227125087
 10
36.8679042404
 20
50.8232138117
 10
36.8584111402
 20
50.8235140991
 10
36.8488166724
 20
50.8236122771
 10
36.8391414335
 20
50.8235088285
 10
36.8294116774
 20
50.8232037835
 10
36.8196485675
 20
50.8226965849
 10
36.8098731606
 20
50.821988271
 10
36.8001119681
 20
50.8210818081
 10
36.7903865511
 20
50.8199771988
 10
36.7807184142
 20
50.8186760665
 10
36.7711342169
 20
50.8171843864
 10
36.7616559842
 20
50.8155028579
 10
36.7523050154
 20
50.8136336996
 10
36.7431068775
 20
50.8115857755
 10
36.7340831555
 20
50.8093604664
 10
36.7252550541
 20
50.8069607096
 10
36.7166472388
 20
50.8043983488
 10
36.7082770509
 20
50.8016742543
 10
36.7001684365
 20
50.7987933507
 10
36.6923541741
 20
50.7957745586
 10
36.6848528045
 20
50.7926211564
 10
36.6776811723
 20
50.7893378786
 10
36.6708658379
 20
50.7859470161
 10
36.6644335296
 20
50.7824603802
 10
36.6583831583
 20
50.7788760713
 10
36.652701442
 20
50.7751957467
 10
36.6473941063
 20
50.7714163561
 10
36.6424880028
 20
50.7675499951
 10
36.6380032455
 20
50.7636209396
 10
36.6339523837
 20
50.7596356422
 10
36.6303437441
 20
50.7555983379
 10
36.6271867171
 20
50.7515304675
 10
36.624488173
 20
50.7474429429
 10
36.6222532573
 20
50.7433360379
 10
36.6204860794
 20
50.7392153462
  0
LWPOLYLINE
  5
539
100
AcDbEntity
  8
RACCORDO
100
AcDbPolyline
 62
7
  6
CONTINUOUS
 90
16
 70
0
 10
37.8286359298
 20
46.1659822051
 10
37.7942505027
 20
46.182764072
 10
37.7615480308
 20
46.201889924
 10
37.7305285143
 20
46.2233597612
 10
37.7010439068
 20
46.2472724541
 10
37.6732422547
 20
46.2735291323
 10
37.647567696
 20
46.3018331837
 10
37.6239972433
 20
46.3322736346
 10
37.6025538842
 20
46.3647614589
 10
37.5837507198
 20
46.3987329654
 10
37.5676467426
 20
46.4343402667
 10
37.5541829602
 20
46.4714312503
 10
37.5436954959
 20
46.5089858884
 10
37.5362963908
 20
46.5466641716
 10
37.5318736037
 20
46.5848061094
 10
37.5304271347
 20
46.6234117016
  0
LINE
  5
53A
100
AcDbEntity
  8
RACCORDO
100
AcDbLine
 62
253
  6
CONTINUOUS
 10
41.5197665747
 20
47.1026966366
 11
41.5397346619
 21
47.0925454688
  0
LINE
  5
53B
100
AcDbEntity
  8
RACCORDO
100
AcDbLine
 62
7
  6
CONTINUOUS
 10
38.1496277061
 20
46.0960941006
 11
38.1285902383
 21
46.1171662587
  0
LWPOLYLINE
  5
53C
100
AcDbEntity
  8
RACCORDO
100
AcDbPolyline
 62
253
  6
CONTINUOUS
 90
10
 70
0
 10
36.6031611167
 20
50.2068519483
 10
36.5871637253
 20
50.2243483433
 10
36.571171473
 20
50.2420991663
 10
36.55518436
 20
50.2601044175
 10
36.5393394815
 20
50.2781873617
 10
36.5234997422
 20
50.296524734
 10
36.5072538557
 20
50.3156467396
 10
36.4904647267
 20
50.3357301133
 10
36.4732694506
 20
50.3565981203
 10
36.4556680273
 20
50.3782507604
  0
LWPOLYLINE
  5
53D
100
AcDbEntity
  8
RACCORDO
100
AcDbPolyline
 62
253
  6
CONTINUOUS
 90
10
 70
0
 10
36.6442302361
 20
50.0816107153
 10
36.6280034596
 20
50.0994866368
 10
36.6117793934
 20
50.1176044347
 10
36.5955611609
 20
50.135965583
 10
36.5794846856
 20
50.1544168261
 10
36.5634185299
 20
50.173112486
 10
36.5469733376
 20
50.1925235637
 10
36.5300314495
 20
50.2128172968
 10
36.5127374719
 20
50.2338480446
 10
36.4951046994
 20
50.2556259213
  0
LWPOLYLINE
  5
53E
100
AcDbEntity
  8
RACCORDO
100
AcDbPolyline
 62
253
  6
CONTINUOUS
 90
10
 70
0
 10
36.6442302361
 20
50.0816107153
 10
36.6354436283
 20
50.0935956293
 10
36.6276271136
 20
50.1062477152
 10
36.6208267376
 20
50.119492442
 10
36.6150825602
 20
50.1332517874
 10
36.6104284191
 20
50.1474446978
 10
36.6068917313
 20
50.1619875654
 10
36.6044933307
 20
50.176794721
 10
36.6032473458
 20
50.1917789384
 10
36.6031611167
 20
50.2068519483
  0
LWPOLYLINE
  5
53F
100
AcDbEntity
  8
RACCORDO
100
AcDbPolyline
 62
7
  6
CONTINUOUS
 90
10
 70
0
 10
36.4951046176
 20
50.2556260247
 10
36.4869738562
 20
50.267973302
 10
36.4797643624
 20
50.2806990627
 10
36.4734761363
 20
50.293803307
 10
36.4680878954
 20
50.3073647817
 10
36.4636209221
 20
50.3213047399
 10
36.4601390639
 20
50.335386941
 10
36.4576636033
 20
50.349532638
 10
36.4561732577
 20
50.3638205778
 10
36.4556680273
 20
50.3782507604
  0
LINE
  5
540
100
AcDbEntity
  8
RACCORDO
100
AcDbLine
 62
253
  6
CONTINUOUS
 10
41.3608160228
 20
47.3570729509
 11
41.5197665749
 21
47.1026966367
  0
LINE
  5
541
100
AcDbEntity
  8
RACCORDO
100
AcDbLine
 62
253
  6
CONTINUOUS
 10
36.7238553003
 20
54.8063505017
 11
36.7356988583
 21
54.7868818761
  0
LINE
  5
542
100
AcDbEntity
  8
RACCORDO
100
AcDbLine
 62
253
  6
CONTINUOUS
 10
36.7356988583
 20
54.7868818761
 11
36.7479759232
 21
54.7663416164
  0
LWPOLYLINE
  5
543
100
AcDbEntity
  8
RACCORDO
100
AcDbPolyline
 62
7
  6
CONTINUOUS
 90
7
 70
0
 10
39.0928307058
 20
52.2776347876
 10
39.0981289878
 20
52.2686813043
 10
39.1048296488
 20
52.2608899489
 10
39.1128811743
 20
52.2543180427
 10
39.1222344813
 20
52.2490151842
 10
39.1328434002
 20
52.2450235139
 10
39.1446651076
 20
52.2423779761
  0
LWPOLYLINE
  5
544
100
AcDbEntity
  8
RACCORDO
100
AcDbPolyline
 62
7
  6
CONTINUOUS
 90
7
 70
0
 10
40.206424789
 20
52.7145533121
 10
40.2011264604
 20
52.7235068402
 10
40.1944257678
 20
52.7312982271
 10
40.1863742265
 20
52.7378701523
 10
40.1770209199
 20
52.7431730182
 10
40.166412018
 20
52.7471646857
 10
40.1545903442
 20
52.7498102115
  0
LINE
  5
545
100
AcDbEntity
  8
RACCORDO
100
AcDbLine
 62
253
  6
CONTINUOUS
 10
36.7479759232
 20
54.7663416164
 11
36.7606262683
 21
54.7448642895
  0
LINE
  5
546
100
AcDbEntity
  8
RACCORDO
100
AcDbLine
 62
253
  6
CONTINUOUS
 10
36.7606262683
 20
54.7448642895
 11
36.7736628696
 21
54.7224028537
  0
LINE
  5
547
100
AcDbEntity
  8
RACCORDO
100
AcDbLine
 62
253
  6
CONTINUOUS
 10
36.7736628696
 20
54.7224028537
 11
36.7873371809
 21
54.6985625934
  0
LINE
  5
548
100
AcDbEntity
  8
RACCORDO
100
AcDbLine
 62
253
  6
CONTINUOUS
 10
36.7873371809
 20
54.6985625934
 11
36.8019288023
 21
54.6728061149
  0
LINE
  5
549
100
AcDbEntity
  8
RACCORDO
100
AcDbLine
 62
253
  6
CONTINUOUS
 10
36.8019288023
 20
54.6728061149
 11
36.8174476323
 21
54.6450793969
  0
LINE
  5
54A
100
AcDbEntity
  8
DRAFT
100
AcDbLine
 62
7
  6
CONTINUOUS
 10
-35.8427705796
 20
65.6384923863
 11
-35.8003722939
 21
65.6384923863
  0
LINE
  5
54B
100
AcDbEntity
  8
DRAFT
100
AcDbLine
 62
7
  6
CONTINUOUS
 10
34.0996277061
 20
65.6384923863
 11
34.1420259918
 21
65.6384923863
  0
LINE
  5
54C
100
AcDbEntity
  8
RACCORDO
100
AcDbLine
 62
253
  6
CONTINUOUS
 10
41.7688282775
 20
48.9990331251
 11
41.7547728357
 21
49.0060738399
  0
LINE
  5
54D
100
AcDbEntity
  8
RACCORDO
100
AcDbLine
 62
253
  6
CONTINUOUS
 10
37.5304271347
 20
55.9931550761
 11
37.5444825765
 21
55.9861143613
  0
LINE
  5
54E
100
AcDbEntity
  8
RACCORDO
100
AcDbLine
 62
253
  6
CONTINUOUS
 10
41.7547728357
 20
47.5266571604
 11
41.7689951677
 21
47.5187797994
  0
LINE
  5
54F
100
AcDbEntity
  8
RACCORDO
100
AcDbLine
 62
253
  6
CONTINUOUS
 10
41.9690667348
 20
49.3991737506
 11
41.9556575376
 21
49.4066976568
  0
LINE
  5
550
100
AcDbEntity
  8
RACCORDO
100
AcDbLine
 62
253
  6
CONTINUOUS
 10
37.3301886774
 20
55.5930144505
 11
37.3435978746
 21
55.5854905443
  0
LINE
  5
551
100
AcDbEntity
  8
RACCORDO
100
AcDbLine
 62
253
  6
CONTINUOUS
 10
36.8174476323
 20
54.2529653468
 11
36.9376249355
 21
54.1784180643
  0
LWPOLYLINE
  5
552
100
AcDbEntity
  8
RACCORDO
100
AcDbPolyline
 62
253
  6
CONTINUOUS
 90
16
 70
0
 10
37.3435978737
 20
49.4066976563
 10
37.367839898
 20
49.3874082685
 10
37.3907105188
 20
49.3667790319
 10
37.4121451775
 20
49.3449128356
 10
37.4320281475
 20
49.3219869996
 10
37.4503781066
 20
49.2980428263
 10
37.4673033644
 20
49.2729508183
 10
37.4827434842
 20
49.246762579
 10
37.4966055407
 20
49.219593641
 10
37.5088869555
 20
49.191373117
 10
37.5195246722
 20
49.1620956921
 10
37.5283876139
 20
49.1319448886
 10
37.5353691496
 20
49.1011371021
 10
37.5404066002
 20
49.069826204
 10
37.5434588304
 20
49.0380964593
 10
37.5444825754
 20
49.0060738393
  0
LWPOLYLINE
  5
553
100
AcDbEntity
  8
RACCORDO
100
AcDbPolyline
 62
253
  6
CONTINUOUS
 90
16
 70
0
 10
37.523021362
 20
49.647071947
 10
37.5619559442
 20
49.6159271803
 10
37.5985108418
 20
49.5829734372
 10
37.6326860546
 20
49.5482107179
 10
37.6644925756
 20
49.5116057485
 10
37.6939194119
 20
49.4731918029
 10
37.7209335849
 20
49.4330687018
 10
37.7456145692
 20
49.3912129804
 10
37.7678828901
 20
49.3476481035
 10
37.7874671458
 20
49.3025442862
 10
37.8044112251
 20
49.255731238
 10
37.8186712391
 20
49.2073792493
 10
37.8298441189
 20
49.1581694065
 10
37.8377955084
 20
49.1083287384
 10
37.8426597638
 20
49.0576302162
 10
37.844436885
 20
49.0060738399
  0
LINE
  5
554
100
AcDbEntity
  8
RACCORDO
100
AcDbLine
 62
253
  6
CONTINUOUS
 10
39.9159843656
 20
52.0677278592
 11
39.987359488
 21
51.9963527368
  0
LINE
  5
555
100
AcDbEntity
  8
RACCORDO
100
AcDbLine
 62
253
  6
CONTINUOUS
 10
39.2212614647
 20
52.7624507601
 11
39.1498863423
 21
52.8338258825
  0
LINE
  5
556
100
AcDbEntity
  8
RACCORDO
100
AcDbLine
 62
253
  6
CONTINUOUS
 10
40.0779939475
 20
52.2297374411
 11
40.1493690699
 21
52.1583623186
  0
LINE
  5
557
100
AcDbEntity
  8
RACCORDO
100
AcDbLine
 62
253
  6
CONTINUOUS
 10
39.3832710466
 20
52.924460342
 11
39.3118959242
 21
52.9958354644
  0
LINE
  5
558
100
AcDbEntity
  8
RACCORDO
100
AcDbLine
 62
7
  6
CONTINUOUS
 10
34.1420259918
 20
60.2536958148
 11
34.1375968214
 21
60.2581249853
  0
LINE
  5
559
100
AcDbEntity
  8
RACCORDO
100
AcDbLine
 62
253
  6
CONTINUOUS
 10
41.7762340502
 20
49.647071947
 11
41.9556575375
 21
49.4066976568
  0
LINE
  5
55A
100
AcDbEntity
  8
RACCORDO
100
AcDbLine
 62
253
  6
CONTINUOUS
 10
37.523021362
 20
55.3451162541
 11
37.3435978745
 21
55.5854905442
  0
LWPOLYLINE
  5
55B
100
AcDbEntity
  8
RACCORDO
100
AcDbPolyline
 62
7
  6
CONTINUOUS
 90
4
 70
0
 10
33.5678023903
 20
69.5960941006
 10
33.5664614999
 20
69.5981366794
 10
33.5533581527
 20
69.6152873658
 10
33.5389813721
 20
69.6315180226
  0
LWPOLYLINE
  5
55C
100
AcDbEntity
  8
RACCORDO
100
AcDbPolyline
 62
7
  6
CONTINUOUS
 90
12
 70
0
 10
-35.0293805176
 20
69.7250566328
 10
-35.0597890828
 20
69.7229583961
 10
-35.088690147
 20
69.7179285285
 10
-35.1160837104
 20
69.710251362
 10
-35.1420434347
 20
69.7002479714
 10
-35.166495658
 20
69.6882027883
 10
-35.1892193947
 20
69.6743047395
 10
-35.2101092471
 20
69.658864404
 10
-35.2292706127
 20
69.6420784516
 10
-35.246798699
 20
69.6238189643
 10
-35.262818281
 20
69.60405337
 10
-35.2682833065
 20
69.5960941006
  0
LWPOLYLINE
  5
55D
100
AcDbEntity
  8
RACCORDO
100
AcDbPolyline
 62
253
  6
CONTINUOUS
 90
3
 70
0
 10
-34.9393479349
 20
69.6350240502
 10
-34.970694862
 20
69.6333720398
 10
-35.0016986099
 20
69.6284531719
  0
LWPOLYLINE
  5
55E
100
AcDbEntity
  8
RACCORDO
100
AcDbPolyline
 62
253
  6
CONTINUOUS
 90
8
 70
0
 10
33.1660044493
 20
69.6298149698
 10
33.1841285969
 20
69.6305071708
 10
33.1997996711
 20
69.6312224871
 10
33.2130403394
 20
69.6319599126
 10
33.223569183
 20
69.6327097512
 10
33.2312923957
 20
69.633468771
 10
33.2363037838
 20
69.634240204
 10
33.2386033471
 20
69.6350240502
  0
LWPOLYLINE
  5
55F
100
AcDbEntity
  8
RACCORDO
100
AcDbPolyline
 62
7
  6
CONTINUOUS
 90
22
 70
0
 10
-37.8504484463
 20
69.7460941006
 10
-37.8877286663
 20
69.7447026276
 10
-37.9248510216
 20
69.7405280526
 10
-37.961607122
 20
69.7335823633
 10
-37.9978370314
 20
69.7238785212
 10
-38.0332844957
 20
69.7114674817
 10
-38.0676105294
 20
69.6964735177
 10
-38.1005261444
 20
69.6790619207
 10
-38.1319722578
 20
69.6593043215
 10
-38.1619549421
 20
69.6371946203
 10
-38.1904014705
 20
69.6127336884
 10
-38.2170118817
 20
69.5861232772
 10
-38.2414728136
 20
69.5576767488
 10
-38.2635825148
 20
69.5276940644
 10
-38.2833401141
 20
69.4962479511
 10
-38.3007517111
 20
69.4633323361
 10
-38.3157456751
 20
69.4290063024
 10
-38.3281567145
 20
69.3935588381
 10
-38.3378605567
 20
69.3573289287
 10
-38.344806246
 20
69.3205728283
 10
-38.3489808209
 20
69.2834504729
 10
-38.3503722939
 20
69.246170253
  0
LINE
  5
560
100
AcDbEntity
  8
RACCORDO
100
AcDbLine
 62
253
  6
CONTINUOUS
 10
33.1228143572
 20
69.6285035722
 11
33.1660044493
 21
69.6298149698
  0
LINE
  5
561
100
AcDbEntity
  8
RACCORDO
100
AcDbLine
 62
253
  6
CONTINUOUS
 10
33.0713962198
 20
69.6273099596
 11
33.1228143572
 21
69.6285035722
  0
LINE
  5
562
100
AcDbEntity
  8
RACCORDO
100
AcDbLine
 62
253
  6
CONTINUOUS
 10
32.9798004932
 20
69.6257499879
 11
33.0713962198
 21
69.6273099596
  0
LINE
  5
563
100
AcDbEntity
  8
RACCORDO
100
AcDbLine
 62
253
  6
CONTINUOUS
 10
32.8732840521
 20
69.6245052334
 11
32.9798004932
 21
69.6257499879
  0
LINE
  5
564
100
AcDbEntity
  8
RACCORDO
100
AcDbLine
 62
253
  6
CONTINUOUS
 10
32.7149534495
 20
69.6234123629
 11
32.8732840521
 21
69.6245052334
  0
LINE
  5
565
100
AcDbEntity
  8
RACCORDO
100
AcDbLine
 62
253
  6
CONTINUOUS
 10
23.5213746082
 20
69.613589242
 11
32.7149534495
 21
69.6234123629
  0
LINE
  5
566
100
AcDbEntity
  8
RACCORDO
100
AcDbLine
 62
253
  6
CONTINUOUS
 10
9.9544706587
 20
69.6049839237
 11
23.5213746082
 21
69.613589242
  0
LINE
  5
567
100
AcDbEntity
  8
RACCORDO
100
AcDbLine
 62
253
  6
CONTINUOUS
 10
-38.3293348261
 20
69.2251327852
 11
-38.0293805176
 21
69.2251327852
  0
LINE
  5
568
100
AcDbEntity
  8
RACCORDO
100
AcDbLine
 62
253
  6
CONTINUOUS
 10
37.8286359298
 20
69.2251327852
 11
38.1285902383
 21
69.2251327857
  0
LINE
  5
569
100
AcDbEntity
  8
RACCORDO
100
AcDbLine
 62
253
  6
CONTINUOUS
 10
-37.8294109785
 20
69.4251023242
 11
-35.8003722939
 21
69.4251023242
  0
LINE
  5
56A
100
AcDbEntity
  8
RACCORDO
100
AcDbLine
 62
253
  6
CONTINUOUS
 10
37.6286663907
 20
69.4251023242
 11
34.0996277061
 21
69.4251023242
  0
LINE
  5
56B
100
AcDbEntity
  8
0
100
AcDbLine
 62
7
  6
CONTINUOUS
 10
34.0996277061
 20
69.5960941006
 11
-35.8003722939
 21
69.5960941006
  0
LINE
  5
56C
100
AcDbEntity
  8
RACCORDO
100
AcDbLine
 62
253
  6
CONTINUOUS
 10
-3.4536121732
 20
69.602997856
 11
9.9544706587
 21
69.6049839237
  0
LINE
  5
56D
100
AcDbEntity
  8
RACCORDO
100
AcDbLine
 62
253
  6
CONTINUOUS
 10
-37.8294109785
 20
69.7250566328
 11
-35.0293805176
 21
69.7250566328
  0
LINE
  5
56E
100
AcDbEntity
  8
RACCORDO
100
AcDbLine
 62
253
  6
CONTINUOUS
 10
37.6286663907
 20
69.7250566328
 11
33.3286359298
 21
69.7250566328
  0
LINE
  5
56F
100
AcDbEntity
  8
RACCORDO
100
AcDbLine
 62
7
  6
CONTINUOUS
 10
-37.8504484463
 20
69.7460941006
 11
37.6497038585
 21
69.7460941006
  0
LINE
  5
570
100
AcDbEntity
  8
RACCORDO
100
AcDbLine
 62
253
  6
CONTINUOUS
 10
-16.5971165971
 20
69.6073241502
 11
-3.4536121732
 21
69.602997856
  0
LINE
  5
571
100
AcDbEntity
  8
RACCORDO
100
AcDbLine
 62
253
  6
CONTINUOUS
 10
-29.8244805645
 20
69.6180373153
 11
-16.5971165971
 21
69.6073241502
  0
LINE
  5
572
100
AcDbEntity
  8
RACCORDO
100
AcDbLine
 62
253
  6
CONTINUOUS
 10
-34.4617752127
 20
69.6236516897
 11
-29.8244805645
 21
69.6180373153
  0
LINE
  5
573
100
AcDbEntity
  8
RACCORDO
100
AcDbLine
 62
253
  6
CONTINUOUS
 10
-34.6193376229
 20
69.624975153
 11
-34.4617752127
 21
69.6236516897
  0
LINE
  5
574
100
AcDbEntity
  8
RACCORDO
100
AcDbLine
 62
253
  6
CONTINUOUS
 10
-34.7204947091
 20
69.6263606876
 11
-34.6193376229
 21
69.624975153
  0
LINE
  5
575
100
AcDbEntity
  8
RACCORDO
100
AcDbLine
 62
253
  6
CONTINUOUS
 10
-34.7787270257
 20
69.6274474328
 11
-34.7204947091
 21
69.6263606876
  0
LWPOLYLINE
  5
576
100
AcDbEntity
  8
RACCORDO
100
AcDbPolyline
 62
7
  6
CONTINUOUS
 90
22
 70
0
 10
37.6497038585
 20
69.7460941006
 10
37.6869840785
 20
69.7447026276
 10
37.7241064338
 20
69.7405280526
 10
37.7608625342
 20
69.7335823633
 10
37.7970924436
 20
69.7238785212
 10
37.8325399079
 20
69.7114674817
 10
37.8668659416
 20
69.6964735177
 10
37.8997815566
 20
69.6790619207
 10
37.93122767
 20
69.6593043215
 10
37.9612103543
 20
69.6371946203
 10
37.9896568827
 20
69.6127336884
 10
38.0162672939
 20
69.5861232772
 10
38.0407282258
 20
69.5576767488
 10
38.062837927
 20
69.5276940644
 10
38.0825955263
 20
69.4962479511
 10
38.1000071233
 20
69.4633323361
 10
38.1150010873
 20
69.4290063024
 10
38.1274121267
 20
69.3935588381
 10
38.1371159688
 20
69.3573289287
 10
38.1440616582
 20
69.3205728283
 10
38.1482362331
 20
69.2834504729
 10
38.1496277061
 20
69.246170253
  0
LWPOLYLINE
  5
577
100
AcDbEntity
  8
RACCORDO
100
AcDbPolyline
 62
253
  6
CONTINUOUS
 90
3
 70
0
 10
33.2386033471
 20
69.6350240502
 10
33.269951054
 20
69.6333719576
 10
33.300955442
 20
69.6284528697
  0
LWPOLYLINE
  5
578
100
AcDbEntity
  8
RACCORDO
100
AcDbPolyline
 62
7
  6
CONTINUOUS
 90
19
 70
0
 10
41.5397346619
 20
57.8996427323
 10
41.5672997961
 20
57.8804990765
 10
41.5927520153
 20
57.8601630109
 10
41.6161652152
 20
57.838801996
 10
41.6376282107
 20
57.8166029035
 10
41.6572241041
 20
57.7937213032
 10
41.6750047913
 20
57.7702451613
 10
41.6910253672
 20
57.7463189097
 10
41.7053781162
 20
57.7220583767
 10
41.7181332018
 20
57.6974471377
 10
41.7293597407
 20
57.67255631
 10
41.7391083814
 20
57.6475073681
 10
41.7473945571
 20
57.6223175675
 10
41.7542806284
 20
57.5970138908
 10
41.7598166975
 20
57.5717310563
 10
41.7639967245
 20
57.5466376818
 10
41.766864374
 20
57.5218464776
 10
41.7685084644
 20
57.4974103678
 10
41.7689951677
 20
57.4734084018
  0
LWPOLYLINE
  5
579
100
AcDbEntity
  8
RACCORDO
100
AcDbPolyline
 62
253
  6
CONTINUOUS
 90
16
 70
0
 10
41.9556575385
 20
55.5854905448
 10
41.9314155142
 20
55.6047799326
 10
41.9085448934
 20
55.6254091693
 10
41.8871102347
 20
55.6472753656
 10
41.8672272647
 20
55.6702012015
 10
41.8488773056
 20
55.6941453748
 10
41.8319520478
 20
55.7192373829
 10
41.816511928
 20
55.7454256222
 10
41.8026498714
 20
55.7725945601
 10
41.7903684567
 20
55.8008150841
 10
41.77973074
 20
55.830092509
 10
41.7708677983
 20
55.8602433125
 10
41.7638862626
 20
55.891051099
 10
41.758848812
 20
55.9223619972
 10
41.7557965818
 20
55.9540917418
 10
41.7547728368
 20
55.9861143618
  0
LWPOLYLINE
  5
57A
100
AcDbEntity
  8
RACCORDO
100
AcDbPolyline
 62
253
  6
CONTINUOUS
 90
16
 70
0
 10
41.7762340502
 20
55.3451162541
 10
41.737299468
 20
55.3762610209
 10
41.7007445704
 20
55.4092147639
 10
41.6665693576
 20
55.4439774833
 10
41.6347628366
 20
55.4805824526
 10
41.6053360003
 20
55.5189963982
 10
41.5783218273
 20
55.5591194994
 10
41.553640843
 20
55.6009752207
 10
41.5313725221
 20
55.6445400976
 10
41.5117882664
 20
55.689643915
 10
41.4948441871
 20
55.7364569632
 10
41.4805841731
 20
55.7848089518
 10
41.4694112933
 20
55.8340187946
 10
41.4614599038
 20
55.8838594627
 10
41.4565956484
 20
55.9345579849
 10
41.4548185272
 20
55.9861143613
  0
LINE
  5
57B
100
AcDbEntity
  8
RACCORDO
100
AcDbLine
 62
253
  6
CONTINUOUS
 10
38.0354296184
 20
58.8548306885
 11
38.0189123263
 21
58.8697592845
  0
LINE
  5
57C
100
AcDbEntity
  8
RACCORDO
100
AcDbLine
 62
253
  6
CONTINUOUS
 10
37.5444825765
 20
58.3549874427
 11
37.5304271347
 21
58.3687764995
  0
LWPOLYLINE
  5
57D
100
AcDbEntity
  8
RACCORDO
100
AcDbPolyline
 62
253
  6
CONTINUOUS
 90
5
 70
0
 10
32.5870498935
 20
69.6230479169
 10
32.5891917742
 20
69.6209010777
 10
32.5913107139
 20
69.6155633997
 10
32.593384009
 20
69.6070920382
 10
32.5952995081
 20
69.5960941006
  0
LWPOLYLINE
  5
57E
100
AcDbEntity
  8
RACCORDO
100
AcDbPolyline
 62
253
  6
CONTINUOUS
 90
4
 70
0
 10
-35.0016986099
 20
69.6284531719
 10
-35.0320196353
 20
69.6203212795
 10
-35.061325863
 20
69.6090653856
 10
-35.0867745254
 20
69.5960941006
  0
LWPOLYLINE
  5
57F
100
AcDbEntity
  8
RACCORDO
100
AcDbPolyline
 62
253
  6
CONTINUOUS
 90
4
 70
0
 10
33.300955442
 20
69.6284528697
 10
33.331276952
 20
69.6203206602
 10
33.360583504
 20
69.6090643927
 10
33.3860296733
 20
69.5960941006
  0
LWPOLYLINE
  5
580
100
AcDbEntity
  8
RACCORDO
100
AcDbPolyline
 62
7
  6
CONTINUOUS
 90
11
 70
0
 10
33.5389813721
 20
69.6315180226
 10
33.5233726224
 20
69.6468442067
 10
33.5065534362
 20
69.661128911
 10
33.4885022809
 20
69.6742709685
 10
33.4691960231
 20
69.6862723286
 10
33.4485646968
 20
69.6969863039
 10
33.426678268
 20
69.7062187964
 10
33.4037235005
 20
69.7138307874
 10
33.3797626489
 20
69.7196380897
 10
33.3547334587
 20
69.7234404106
 10
33.3286359298
 20
69.7250566328
  0
LWPOLYLINE
  5
581
100
AcDbEntity
  8
RACCORDO
100
AcDbPolyline
 62
253
  6
CONTINUOUS
 90
5
 70
0
 10
84.61909254
 20
-44.6308597158
 10
84.6499972668
 20
-44.6287128622
 10
84.6805148639
 20
-44.6233751496
 10
84.7103183453
 20
-44.614903739
 10
84.737797759
 20
-44.6039058994
  0
LINE
  5
582
100
AcDbEntity
  8
RACCORDO
100
AcDbLine
 62
7
  6
CONTINUOUS
 10
85.7750210012
 20
-44.6106829094
 11
77.569781399
 21
-44.7539058994
  0
LINE
  5
583
100
AcDbEntity
  8
RACCORDO
100
AcDbLine
 62
253
  6
CONTINUOUS
 10
78.7750171209
 20
-44.2329445841
 11
77.569781399
 21
-44.2539820518
  0
LINE
  5
584
100
AcDbEntity
  8
0
100
AcDbLine
 62
7
  6
CONTINUOUS
 10
79.3513085542
 20
-44.6039058994
 11
86.5697740224
 21
-44.6039058994
  0
LINE
  5
585
100
AcDbEntity
  8
RACCORDO
100
AcDbLine
 62
253
  6
CONTINUOUS
 10
79.069781399
 20
-44.2329445841
 11
78.7750171209
 21
-44.2329445845
  0
LINE
  5
586
100
AcDbEntity
  8
RACCORDO
100
AcDbLine
 62
7
  6
CONTINUOUS
 10
77.569781399
 20
-44.7539058994
 11
76.869781399
 21
-44.741687354
  0
LINE
  5
587
100
AcDbEntity
  8
DRAFT
100
AcDbLine
 62
7
  6
CONTINUOUS
 10
75.869781399
 20
-44.724232289
 11
76.869781399
 21
-44.741687354
  0
LINE
  5
588
100
AcDbEntity
  8
RACCORDO
100
AcDbLine
 62
253
  6
CONTINUOUS
 10
77.569781399
 20
-44.2539820518
 11
76.869781399
 21
-44.2417635064
  0
LINE
  5
589
100
AcDbEntity
  8
DRAFT
100
AcDbLine
 62
7
  6
CONTINUOUS
 10
76.869781399
 20
-40.4647171515
 11
78.369781399
 21
-40.2539058994
  0
LINE
  5
58A
100
AcDbEntity
  8
RACCORDO
100
AcDbLine
 62
7
  6
CONTINUOUS
 10
82.5763390831
 20
-40.61651611
 11
81.869781399
 21
-40.6288491202
  0
LINE
  5
58B
100
AcDbEntity
  8
RACCORDO
100
AcDbLine
 62
7
  6
CONTINUOUS
 10
81.3096221968
 20
-40.6386267355
 11
80.869781399
 21
-40.6463041852
  0
LINE
  5
58C
100
AcDbEntity
  8
0
100
AcDbLine
 62
7
  6
CONTINUOUS
 10
81.869781399
 20
-40.9539058994
 11
84.269781399
 21
-40.9539058994
  0
LINE
  5
58D
100
AcDbEntity
  8
DRAFT
100
AcDbLine
 62
7
  6
CONTINUOUS
 10
76.869781399
 20
-38.5430946474
 11
78.369781399
 21
-38.7539058994
  0
LINE
  5
58E
100
AcDbEntity
  8
0
100
AcDbLine
 62
7
  6
CONTINUOUS
 10
84.269781399
 20
-34.9539058994
 11
81.869781399
 21
-34.9539058994
  0
LINE
  5
58F
100
AcDbEntity
  8
RACCORDO
100
AcDbLine
 62
7
  6
CONTINUOUS
 10
82.5763390831
 20
-35.2912956889
 11
81.869781399
 21
-35.2789626786
  0
LINE
  5
590
100
AcDbEntity
  8
RACCORDO
100
AcDbLine
 62
7
  6
CONTINUOUS
 10
80.869781399
 20
-35.2615076137
 11
81.3096221968
 21
-35.2691850634
  0
LINE
  5
591
100
AcDbEntity
  8
0
100
AcDbLine
 62
7
  6
CONTINUOUS
 10
72.869781399
 20
-29.0039058994
 11
75.369781399
 21
-29.0039058994
  0
LINE
  5
592
100
AcDbEntity
  8
0
100
AcDbLine
 62
7
  6
CONTINUOUS
 10
72.869781399
 20
-28.7039058994
 11
75.369781399
 21
-28.7039058994
  0
LINE
  5
593
100
AcDbEntity
  8
0
100
AcDbLine
 62
7
  6
CONTINUOUS
 10
75.369781399
 20
-28.7039058994
 11
75.869781399
 21
-28.7039058994
  0
LINE
  5
594
100
AcDbEntity
  8
0
100
AcDbLine
 62
7
  6
CONTINUOUS
 10
72.869781399
 20
-26.3039058994
 11
75.369781399
 21
-26.3039058994
  0
LINE
  5
595
100
AcDbEntity
  8
0
100
AcDbLine
 62
7
  6
CONTINUOUS
 10
75.369781399
 20
-26.3039058994
 11
75.869781399
 21
-26.3039058994
  0
LINE
  5
596
100
AcDbEntity
  8
0
100
AcDbLine
 62
7
  6
CONTINUOUS
 10
72.869781399
 20
-26.0039058994
 11
75.369781399
 21
-26.0039058994
  0
LINE
  5
597
100
AcDbEntity
  8
0
100
AcDbLine
 62
7
  6
CONTINUOUS
 10
74.7197823574
 20
-25.8039058994
 11
80.4197722546
 21
-25.8039058994
  0
LINE
  5
598
100
AcDbEntity
  8
0
100
AcDbLine
 62
7
  6
CONTINUOUS
 10
80.4197722546
 20
-21.8039058994
 11
74.7197823574
 21
-21.8039058994
  0
LINE
  5
599
100
AcDbEntity
  8
RACCORDO
100
AcDbLine
 62
7
  6
CONTINUOUS
 10
79.069781399
 20
-13.977723302
 11
82.6658457868
 21
-13.9149537647
  0
LINE
  5
59A
100
AcDbEntity
  8
0
100
AcDbLine
 62
7
  6
CONTINUOUS
 10
79.3513085542
 20
-14.1539058994
 11
84.379781399
 21
-14.1539058994
  0
LINE
  5
59B
100
AcDbEntity
  8
0
100
AcDbLine
 62
7
  6
CONTINUOUS
 10
72.869781399
 20
-26.0053084506
 11
72.869781399
 21
-29.0025033483
  0
LINE
  5
59C
100
AcDbEntity
  8
0
100
AcDbLine
 62
7
  6
CONTINUOUS
 10
72.869781399
 20
50.9974966517
 11
72.869781399
 21
53.9946915494
  0
LWPOLYLINE
  5
59D
100
AcDbEntity
  8
0
100
AcDbPolyline
 62
7
  6
CONTINUOUS
 90
10
 70
0
 10
86.4879460696
 20
31.6960941006
 10
86.4868333517
 20
31.6937750968
 10
86.4857307504
 20
31.687086351
 10
86.4846386138
 20
31.676027863
 10
86.4835504638
 20
31.6604668117
 10
86.4824733733
 20
31.6405360183
 10
86.4814283891
 20
31.6166339468
 10
86.480419111
 20
31.588769962
 10
86.4794433256
 20
31.5569346991
 10
86.477629751
 20
31.4822885129
  0
LINE
  5
59E
100
AcDbEntity
  8
0
100
AcDbLine
 62
7
  6
CONTINUOUS
 10
79.3513085542
 20
-12.8539058994
 11
84.379781399
 21
-12.8539058994
  0
LINE
  5
59F
100
AcDbEntity
  8
RACCORDO
100
AcDbLine
 62
7
  6
CONTINUOUS
 10
79.069781399
 20
-13.0300884968
 11
82.6658457868
 21
-13.0928580342
  0
LINE
  5
5A0
100
AcDbEntity
  8
0
100
AcDbLine
 62
7
  6
CONTINUOUS
 10
74.719781399
 20
60.1960941006
 11
74.719781399
 21
56.1960941006
  0
LINE
  5
5A1
100
AcDbEntity
  8
0
100
AcDbLine
 62
7
  6
CONTINUOUS
 10
74.719781399
 20
-21.8039058994
 11
74.719781399
 21
-25.8039058994
  0
LINE
  5
5A2
100
AcDbEntity
  8
0
100
AcDbLine
 62
7
  6
CONTINUOUS
 10
75.369781399
 20
-26.0053084506
 11
75.369781399
 21
-29.0025033483
  0
LINE
  5
5A3
100
AcDbEntity
  8
0
100
AcDbLine
 62
7
  6
CONTINUOUS
 10
75.369781399
 20
50.9974966517
 11
75.369781399
 21
53.9946915494
  0
LINE
  5
5A4
100
AcDbEntity
  8
DRAFT
100
AcDbLine
 62
7
  6
CONTINUOUS
 10
75.869781399
 20
69.7164204902
 11
75.869781399
 21
60.1960941006
  0
LINE
  5
5A5
100
AcDbEntity
  8
DRAFT
100
AcDbLine
 62
7
  6
CONTINUOUS
 10
75.869781399
 20
56.1960941006
 11
75.869781399
 21
16.2635491655
  0
LINE
  5
5A6
100
AcDbEntity
  8
DRAFT
100
AcDbLine
 62
7
  6
CONTINUOUS
 10
75.869781399
 20
8.7286390356
 11
75.869781399
 21
-21.8039058994
  0
LINE
  5
5A7
100
AcDbEntity
  8
DRAFT
100
AcDbLine
 62
7
  6
CONTINUOUS
 10
75.869781399
 20
-25.8039058994
 11
75.869781399
 21
-44.724232289
  0
LINE
  5
5A8
100
AcDbEntity
  8
RACCORDO
100
AcDbLine
 62
7
  6
CONTINUOUS
 10
76.869781399
 20
-44.741687354
 11
76.869781399
 21
-40.4647171515
  0
LINE
  5
5A9
100
AcDbEntity
  8
DRAFT
100
AcDbLine
 62
7
  6
CONTINUOUS
 10
76.869781399
 20
-40.4647171515
 11
76.869781399
 21
-25.8039058994
  0
LINE
  5
5AA
100
AcDbEntity
  8
RACCORDO
100
AcDbLine
 62
7
  6
CONTINUOUS
 10
76.869781399
 20
-21.8039058994
 11
76.869781399
 21
41.1838755551
  0
LINE
  5
5AB
100
AcDbEntity
  8
DRAFT
100
AcDbLine
 62
7
  6
CONTINUOUS
 10
76.869781399
 20
41.1838755551
 11
76.869781399
 21
56.1960941006
  0
LINE
  5
5AC
100
AcDbEntity
  8
RACCORDO
100
AcDbLine
 62
7
  6
CONTINUOUS
 10
76.869781399
 20
60.1960941006
 11
76.869781399
 21
69.7338755551
  0
LINE
  5
5AD
100
AcDbEntity
  8
DRAFT
100
AcDbLine
 62
7
  6
CONTINUOUS
 10
77.569781399
 20
56.1960941006
 11
77.569781399
 21
43.3585267683
  0
LINE
  5
5AE
100
AcDbEntity
  8
DRAFT
100
AcDbLine
 62
7
  6
CONTINUOUS
 10
77.569781399
 20
41.6336614328
 11
77.569781399
 21
41.1960941006
  0
LINE
  5
5AF
100
AcDbEntity
  8
DRAFT
100
AcDbLine
 62
7
  6
CONTINUOUS
 10
77.569781399
 20
-25.8039058994
 11
77.569781399
 21
-38.6414732317
  0
LINE
  5
5B0
100
AcDbEntity
  8
RACCORDO
100
AcDbLine
 62
7
  6
CONTINUOUS
 10
77.569781399
 20
-40.3663385672
 11
77.569781399
 21
-44.7539058994
  0
LINE
  5
5B1
100
AcDbEntity
  8
RACCORDO
100
AcDbLine
 62
7
  6
CONTINUOUS
 10
77.569781399
 20
-21.8039058994
 11
77.569781399
 21
41.1960941006
  0
LINE
  5
5B2
100
AcDbEntity
  8
RACCORDO
100
AcDbLine
 62
7
  6
CONTINUOUS
 10
77.569781399
 20
60.1960941006
 11
77.569781399
 21
69.7460941006
  0
LINE
  5
5B3
100
AcDbEntity
  8
0
100
AcDbLine
 62
7
  6
CONTINUOUS
 10
77.769781399
 20
-40.3382304002
 11
77.769781399
 21
-38.6695813986
  0
LINE
  5
5B4
100
AcDbEntity
  8
0
100
AcDbLine
 62
7
  6
CONTINUOUS
 10
77.769781399
 20
41.6617695998
 11
77.769781399
 21
43.3304186014
  0
LINE
  5
5B5
100
AcDbEntity
  8
RACCORDO
100
AcDbLine
 62
7
  6
CONTINUOUS
 10
79.069781399
 20
-7.977723302
 11
82.6658457868
 21
-7.9149537647
  0
LINE
  5
5B6
100
AcDbEntity
  8
0
100
AcDbLine
 62
7
  6
CONTINUOUS
 10
79.3513085542
 20
-8.1539058994
 11
84.379781399
 21
-8.1539058994
  0
LINE
  5
5B7
100
AcDbEntity
  8
0
100
AcDbLine
 62
7
  6
CONTINUOUS
 10
79.3513085542
 20
-6.8539058994
 11
84.379781399
 21
-6.8539058994
  0
LINE
  5
5B8
100
AcDbEntity
  8
0
100
AcDbLine
 62
7
  6
CONTINUOUS
 10
86.5697810399
 20
-6.7039058994
 11
86.4879460696
 21
-6.7039058994
  0
LINE
  5
5B9
100
AcDbEntity
  8
RACCORDO
100
AcDbLine
 62
7
  6
CONTINUOUS
 10
79.069781399
 20
-7.0300884968
 11
82.6658457868
 21
-7.0928580342
  0
LWPOLYLINE
  5
5BA
100
AcDbEntity
  8
RACCORDO
100
AcDbPolyline
 62
253
  6
CONTINUOUS
 90
6
 70
0
 10
78.7766354145
 20
41.1360568929
 10
78.7763974548
 20
41.1496777496
 10
78.7761156554
 20
41.1605573658
 10
78.7757911197
 20
41.1685126833
 10
78.7754243771
 20
41.1733946942
 10
78.7750171209
 20
41.1750566328
  0
LWPOLYLINE
  5
5BB
100
AcDbEntity
  8
RACCORDO
100
AcDbPolyline
 62
253
  6
CONTINUOUS
 90
6
 70
0
 10
78.7766343824
 20
69.6861263777
 10
78.7763967755
 20
69.6997079009
 10
78.776115394
 20
69.7105654752
 10
78.7757911708
 20
69.7185128306
 10
78.77542455
 20
69.7233938465
 10
78.7750171209
 20
69.7250566328
  0
LINE
  5
5BC
100
AcDbEntity
  8
RACCORDO
100
AcDbLine
 62
253
  6
CONTINUOUS
 10
78.7769779215
 20
41.1016420041
 11
78.7766354145
 21
41.1360568929
  0
LINE
  5
5BD
100
AcDbEntity
  8
RACCORDO
100
AcDbLine
 62
253
  6
CONTINUOUS
 10
78.7769766611
 20
69.651824867
 11
78.7766343824
 21
69.6861263777
  0
LINE
  5
5BE
100
AcDbEntity
  8
RACCORDO
100
AcDbLine
 62
253
  6
CONTINUOUS
 10
78.7750171209
 20
-44.2329445841
 11
78.776750975
 21
-44.4464534978
  0
LINE
  5
5BF
100
AcDbEntity
  8
RACCORDO
100
AcDbLine
 62
253
  6
CONTINUOUS
 10
78.776750975
 20
-44.4464534978
 11
78.7771753719
 21
-44.568308797
  0
LINE
  5
5C0
100
AcDbEntity
  8
RACCORDO
100
AcDbLine
 62
253
  6
CONTINUOUS
 10
78.7771832801
 20
69.5849330433
 11
78.7769766611
 21
69.651824867
  0
LINE
  5
5C1
100
AcDbEntity
  8
RACCORDO
100
AcDbLine
 62
253
  6
CONTINUOUS
 10
78.7771833361
 20
41.0345949275
 11
78.7769779215
 21
41.1016420041
  0
LINE
  5
5C2
100
AcDbEntity
  8
DRAFT
100
AcDbLine
 62
253
  6
CONTINUOUS
 10
77.8852577466
 20
-40.322001258
 11
77.8852577466
 21
-38.6858105409
  0
LINE
  5
5C3
100
AcDbEntity
  8
DRAFT
100
AcDbLine
 62
253
  6
CONTINUOUS
 10
77.8852577466
 20
41.677998742
 11
77.8852577466
 21
43.3141894591
  0
LINE
  5
5C4
100
AcDbEntity
  8
DRAFT
100
AcDbLine
 62
7
  6
CONTINUOUS
 10
78.169781399
 20
-40.2820140664
 11
78.169781399
 21
-38.7257977325
  0
LINE
  5
5C5
100
AcDbEntity
  8
DRAFT
100
AcDbLine
 62
7
  6
CONTINUOUS
 10
78.169781399
 20
41.7179859336
 11
78.169781399
 21
43.2742022675
  0
LINE
  5
5C6
100
AcDbEntity
  8
DRAFT
100
AcDbLine
 62
7
  6
CONTINUOUS
 10
78.369781399
 20
43.2460941006
 11
78.369781399
 21
41.7460941006
  0
LINE
  5
5C7
100
AcDbEntity
  8
DRAFT
100
AcDbLine
 62
7
  6
CONTINUOUS
 10
78.369781399
 20
-38.7539058994
 11
78.369781399
 21
-40.2539058994
  0
LINE
  5
5C8
100
AcDbEntity
  8
RACCORDO
100
AcDbLine
 62
253
  6
CONTINUOUS
 10
78.7750171209
 20
56.1960941006
 11
78.7750171209
 21
41.1750566328
  0
LINE
  5
5C9
100
AcDbEntity
  8
RACCORDO
100
AcDbLine
 62
253
  6
CONTINUOUS
 10
78.7750171209
 20
-25.8039058994
 11
78.7750171209
 21
-44.2329445841
  0
LINE
  5
5CA
100
AcDbEntity
  8
RACCORDO
100
AcDbLine
 62
253
  6
CONTINUOUS
 10
78.7750171209
 20
-21.8039058994
 11
78.7750171209
 21
40.6751327852
  0
LINE
  5
5CB
100
AcDbEntity
  8
RACCORDO
100
AcDbLine
 62
253
  6
CONTINUOUS
 10
78.7750171209
 20
60.1960941006
 11
78.7750171209
 21
69.2251327852
  0
LINE
  5
5CC
100
AcDbEntity
  8
RACCORDO
100
AcDbLine
 62
7
  6
CONTINUOUS
 10
79.069781399
 20
-25.8039058994
 11
79.069781399
 21
-44.4329141231
  0
LINE
  5
5CD
100
AcDbEntity
  8
RACCORDO
100
AcDbLine
 62
7
  6
CONTINUOUS
 10
79.069781399
 20
-21.8039058994
 11
79.069781399
 21
56.1960941006
  0
LINE
  5
5CE
100
AcDbEntity
  8
RACCORDO
100
AcDbLine
 62
7
  6
CONTINUOUS
 10
79.069781399
 20
60.1960941006
 11
79.069781399
 21
69.4251023242
  0
LINE
  5
5CF
100
AcDbEntity
  8
0
100
AcDbLine
 62
7
  6
CONTINUOUS
 10
79.3594627429
 20
69.5960941006
 11
79.3594627429
 21
60.1960941006
  0
LINE
  5
5D0
100
AcDbEntity
  8
0
100
AcDbLine
 62
7
  6
CONTINUOUS
 10
79.3594627429
 20
56.1960941006
 11
79.3594627429
 21
39.1460941006
  0
LINE
  5
5D1
100
AcDbEntity
  8
0
100
AcDbLine
 62
7
  6
CONTINUOUS
 10
79.3594627429
 20
37.8460941006
 11
79.3594627429
 21
33.1460941006
  0
LINE
  5
5D2
100
AcDbEntity
  8
0
100
AcDbLine
 62
7
  6
CONTINUOUS
 10
79.3594627429
 20
31.8460941006
 11
79.3594627429
 21
-6.8539058994
  0
LINE
  5
5D3
100
AcDbEntity
  8
0
100
AcDbLine
 62
7
  6
CONTINUOUS
 10
79.3594627429
 20
-8.1539058994
 11
79.3594627429
 21
-12.8539058994
  0
LINE
  5
5D4
100
AcDbEntity
  8
0
100
AcDbLine
 62
7
  6
CONTINUOUS
 10
79.3594627429
 20
-14.1539058994
 11
79.3594627429
 21
-21.8039058994
  0
LINE
  5
5D5
100
AcDbEntity
  8
0
100
AcDbLine
 62
7
  6
CONTINUOUS
 10
79.3594627429
 20
-25.8039058994
 11
79.3594627429
 21
-44.6039058994
  0
LINE
  5
5D6
100
AcDbEntity
  8
0
100
AcDbLine
 62
7
  6
CONTINUOUS
 10
80.419781399
 20
60.1960941006
 11
80.419781399
 21
56.1960941006
  0
LINE
  5
5D7
100
AcDbEntity
  8
0
100
AcDbLine
 62
7
  6
CONTINUOUS
 10
80.419781399
 20
-21.8039058994
 11
80.419781399
 21
-25.8039058994
  0
LINE
  5
5D8
100
AcDbEntity
  8
0
100
AcDbLine
 62
7
  6
CONTINUOUS
 10
80.469781399
 20
69.5960941006
 11
80.469781399
 21
39.1460941006
  0
LINE
  5
5D9
100
AcDbEntity
  8
0
100
AcDbLine
 62
7
  6
CONTINUOUS
 10
80.469781399
 20
37.8460941006
 11
80.469781399
 21
33.1460941006
  0
LINE
  5
5DA
100
AcDbEntity
  8
0
100
AcDbLine
 62
7
  6
CONTINUOUS
 10
80.469781399
 20
31.8460941006
 11
80.469781399
 21
-6.8539058994
  0
LINE
  5
5DB
100
AcDbEntity
  8
0
100
AcDbLine
 62
7
  6
CONTINUOUS
 10
80.469781399
 20
-8.1539058994
 11
80.469781399
 21
-12.8539058994
  0
LINE
  5
5DC
100
AcDbEntity
  8
0
100
AcDbLine
 62
7
  6
CONTINUOUS
 10
80.469781399
 20
-14.1539058994
 11
80.469781399
 21
-44.6039058994
  0
LINE
  5
5DD
100
AcDbEntity
  8
DRAFT
100
AcDbLine
 62
7
  6
CONTINUOUS
 10
80.869781399
 20
65.6384923863
 11
80.869781399
 21
60.2536958148
  0
LINE
  5
5DE
100
AcDbEntity
  8
DRAFT
100
AcDbLine
 62
7
  6
CONTINUOUS
 10
80.869781399
 20
10.6884923863
 11
80.869781399
 21
5.3036958148
  0
LINE
  5
5DF
100
AcDbEntity
  8
DRAFT
100
AcDbLine
 62
7
  6
CONTINUOUS
 10
80.869781399
 20
-35.2615076137
 11
80.869781399
 21
-40.6463041852
  0
LINE
  5
5E0
100
AcDbEntity
  8
RACCORDO
100
AcDbLine
 62
253
  6
CONTINUOUS
 10
81.1235284046
 20
-40.6418750147
 11
81.1235284046
 21
-35.2659367841
  0
LINE
  5
5E1
100
AcDbEntity
  8
RACCORDO
100
AcDbLine
 62
253
  6
CONTINUOUS
 10
81.1235284046
 20
5.3081249853
 11
81.1235284046
 21
10.6840632159
  0
LINE
  5
5E2
100
AcDbEntity
  8
RACCORDO
100
AcDbLine
 62
253
  6
CONTINUOUS
 10
81.1235284046
 20
60.2581249853
 11
81.1235284046
 21
65.6340632159
  0
LINE
  5
5E3
100
AcDbEntity
  8
RACCORDO
100
AcDbLine
 62
253
  6
CONTINUOUS
 10
81.3096221968
 20
-40.6386267355
 11
81.3096221968
 21
-35.2691850634
  0
LINE
  5
5E4
100
AcDbEntity
  8
RACCORDO
100
AcDbLine
 62
253
  6
CONTINUOUS
 10
81.3096221968
 20
5.3113732645
 11
81.3096221968
 21
10.6808149366
  0
LINE
  5
5E5
100
AcDbEntity
  8
RACCORDO
100
AcDbLine
 62
253
  6
CONTINUOUS
 10
81.3096221968
 20
60.2613732645
 11
81.3096221968
 21
65.6308149366
  0
LINE
  5
5E6
100
AcDbEntity
  8
0
100
AcDbLine
 62
7
  6
CONTINUOUS
 10
81.869781399
 20
65.9460941006
 11
81.869781399
 21
59.9460941006
  0
LINE
  5
5E7
100
AcDbEntity
  8
0
100
AcDbLine
 62
7
  6
CONTINUOUS
 10
81.869781399
 20
15.4960941006
 11
81.869781399
 21
4.9960941006
  0
LINE
  5
5E8
100
AcDbEntity
  8
0
100
AcDbLine
 62
7
  6
CONTINUOUS
 10
81.869781399
 20
-34.9539058994
 11
81.869781399
 21
-40.9539058994
  0
LINE
  5
5E9
100
AcDbEntity
  8
RACCORDO
100
AcDbLine
 62
253
  6
CONTINUOUS
 10
78.7771753719
 20
-44.568308797
 11
78.7770772185
 21
-44.6413198181
  0
LINE
  5
5EA
100
AcDbEntity
  8
RACCORDO
100
AcDbLine
 62
253
  6
CONTINUOUS
 10
78.7769109682
 20
69.4701436954
 11
78.7771832801
 21
69.5849330433
  0
LINE
  5
5EB
100
AcDbEntity
  8
RACCORDO
100
AcDbLine
 62
253
  6
CONTINUOUS
 10
78.776909457
 20
40.9198163965
 11
78.7771833361
 21
41.0345949275
  0
LWPOLYLINE
  5
5EC
100
AcDbEntity
  8
RACCORDO
100
AcDbPolyline
 62
253
  6
CONTINUOUS
 90
8
 70
0
 10
78.7770772185
 20
-44.6413198181
 10
78.7768089977
 20
-44.6796795399
 10
78.7766121497
 20
-44.6954310656
 10
78.7763730174
 20
-44.7086287859
 10
78.7760922218
 20
-44.7190883987
 10
78.7757713012
 20
-44.7266799106
 10
78.7754121318
 20
-44.7313043468
 10
78.7750171209
 20
-44.7328684316
  0
LWPOLYLINE
  5
5ED
100
AcDbEntity
  8
RACCORDO
100
AcDbPolyline
 62
253
  6
CONTINUOUS
 90
3
 70
0
 10
78.7750171209
 20
69.2251327852
 10
78.7753886933
 20
69.2621366583
 10
78.7769109682
 20
69.4701436954
  0
LWPOLYLINE
  5
5EE
100
AcDbEntity
  8
RACCORDO
100
AcDbPolyline
 62
253
  6
CONTINUOUS
 90
3
 70
0
 10
78.7750171209
 20
40.6751327852
 10
78.7753869163
 20
40.7119655087
 10
78.776909457
 20
40.9198163965
  0
LINE
  5
5EF
100
AcDbEntity
  8
DRAFT
100
AcDbLine
 62
7
  6
CONTINUOUS
 10
82.5763390831
 20
65.6087043111
 11
82.5763390831
 21
60.28348389
  0
LINE
  5
5F0
100
AcDbEntity
  8
DRAFT
100
AcDbLine
 62
7
  6
CONTINUOUS
 10
82.5763390831
 20
10.6587043111
 11
82.5763390831
 21
5.33348389
  0
LINE
  5
5F1
100
AcDbEntity
  8
DRAFT
100
AcDbLine
 62
7
  6
CONTINUOUS
 10
82.5763390831
 20
-35.2912956889
 11
82.5763390831
 21
-40.61651611
  0
LINE
  5
5F2
100
AcDbEntity
  8
0
100
AcDbLine
 62
7
  6
CONTINUOUS
 10
83.1676169315
 20
-40.9539058994
 11
83.1676169315
 21
-34.9539058994
  0
LINE
  5
5F3
100
AcDbEntity
  8
0
100
AcDbLine
 62
7
  6
CONTINUOUS
 10
83.1676169315
 20
4.9960941006
 11
83.1676169315
 21
15.4960941006
  0
LINE
  5
5F4
100
AcDbEntity
  8
0
100
AcDbLine
 62
7
  6
CONTINUOUS
 10
83.1676169315
 20
59.9460941006
 11
83.1676169315
 21
65.9460941006
  0
LINE
  5
5F5
100
AcDbEntity
  8
0
100
AcDbLine
 62
7
  6
CONTINUOUS
 10
83.2779355877
 20
-14.1539058994
 11
83.2779355877
 21
-12.8539058994
  0
LINE
  5
5F6
100
AcDbEntity
  8
0
100
AcDbLine
 62
7
  6
CONTINUOUS
 10
83.2779355877
 20
-8.1539058994
 11
83.2779355877
 21
-6.8539058994
  0
LINE
  5
5F7
100
AcDbEntity
  8
0
100
AcDbLine
 62
7
  6
CONTINUOUS
 10
83.2779355877
 20
31.8460941006
 11
83.2779355877
 21
33.1460941006
  0
LINE
  5
5F8
100
AcDbEntity
  8
0
100
AcDbLine
 62
7
  6
CONTINUOUS
 10
83.2779355877
 20
37.8460941006
 11
83.2779355877
 21
39.1460941006
  0
LINE
  5
5F9
100
AcDbEntity
  8
0
100
AcDbLine
 62
7
  6
CONTINUOUS
 10
84.269781399
 20
-40.9539058994
 11
84.269781399
 21
-34.9539058994
  0
LINE
  5
5FA
100
AcDbEntity
  8
0
100
AcDbLine
 62
7
  6
CONTINUOUS
 10
84.269781399
 20
4.9960941006
 11
84.269781399
 21
15.4960941006
  0
LINE
  5
5FB
100
AcDbEntity
  8
0
100
AcDbLine
 62
7
  6
CONTINUOUS
 10
84.269781399
 20
59.9460941006
 11
84.269781399
 21
65.9460941006
  0
LINE
  5
5FC
100
AcDbEntity
  8
0
100
AcDbLine
 62
7
  6
CONTINUOUS
 10
84.379781399
 20
-14.1539058994
 11
84.379781399
 21
-12.8539058994
  0
LINE
  5
5FD
100
AcDbEntity
  8
0
100
AcDbLine
 62
7
  6
CONTINUOUS
 10
84.379781399
 20
-8.1539058994
 11
84.379781399
 21
-6.8539058994
  0
LINE
  5
5FE
100
AcDbEntity
  8
0
100
AcDbLine
 62
7
  6
CONTINUOUS
 10
84.379781399
 20
31.8460941006
 11
84.379781399
 21
33.1460941006
  0
LINE
  5
5FF
100
AcDbEntity
  8
0
100
AcDbLine
 62
7
  6
CONTINUOUS
 10
84.379781399
 20
37.8460941006
 11
84.379781399
 21
39.1460941006
  0
LINE
  5
600
100
AcDbEntity
  8
0
100
AcDbLine
 62
253
  6
CONTINUOUS
 10
85.769781399
 20
69.5960941006
 11
85.769781399
 21
-44.6039058994
  0
LINE
  5
601
100
AcDbEntity
  8
0
100
AcDbLine
 62
7
  6
CONTINUOUS
 10
86.469781399
 20
69.5960941006
 11
86.469781399
 21
-44.6039058994
  0
LINE
  5
602
100
AcDbEntity
  8
0
100
AcDbLine
 62
7
  6
CONTINUOUS
 10
86.569781399
 20
69.5960941006
 11
86.569781399
 21
31.6960941006
  0
LINE
  5
603
100
AcDbEntity
  8
0
100
AcDbLine
 62
7
  6
CONTINUOUS
 10
86.569781399
 20
-6.7039058994
 11
86.569781399
 21
-44.6039058994
  0
LINE
  5
604
100
AcDbEntity
  8
0
100
AcDbLine
 62
7
  6
CONTINUOUS
 10
86.472972001
 20
31.0738932711
 11
86.4725713472
 21
30.8960941006
  0
LINE
  5
605
100
AcDbEntity
  8
0
100
AcDbLine
 62
7
  6
CONTINUOUS
 10
86.4741415261
 20
31.2420056636
 11
86.472972001
 21
31.0738932711
  0
LINE
  5
606
100
AcDbEntity
  8
0
100
AcDbLine
 62
7
  6
CONTINUOUS
 10
86.4760238719
 20
31.3939549261
 11
86.4741415261
 21
31.2420056636
  0
LINE
  5
607
100
AcDbEntity
  8
0
100
AcDbLine
 62
7
  6
CONTINUOUS
 10
86.477629751
 20
31.4822885129
 11
86.4760238719
 21
31.3939549261
  0
LINE
  5
608
100
AcDbEntity
  8
RACCORDO
100
AcDbLine
 62
7
  6
CONTINUOUS
 10
82.5763390831
 20
5.33348389
 11
81.869781399
 21
5.3211508798
  0
LINE
  5
609
100
AcDbEntity
  8
RACCORDO
100
AcDbLine
 62
7
  6
CONTINUOUS
 10
81.3096221968
 20
5.3113732645
 11
80.869781399
 21
5.3036958148
  0
LINE
  5
60A
100
AcDbEntity
  8
0
100
AcDbLine
 62
7
  6
CONTINUOUS
 10
81.869781399
 20
4.9960941006
 11
84.269781399
 21
4.9960941006
  0
LINE
  5
60B
100
AcDbEntity
  8
DRAFT
100
AcDbLine
 62
7
  6
CONTINUOUS
 10
75.869781399
 20
8.7286390356
 11
76.869781399
 21
8.7460941006
  0
LINE
  5
60C
100
AcDbEntity
  8
RACCORDO
100
AcDbLine
 62
7
  6
CONTINUOUS
 10
82.5763390831
 20
10.6587043111
 11
81.869781399
 21
10.6710373214
  0
LINE
  5
60D
100
AcDbEntity
  8
RACCORDO
100
AcDbLine
 62
7
  6
CONTINUOUS
 10
80.869781399
 20
10.6884923863
 11
81.3096221968
 21
10.6808149366
  0
LWPOLYLINE
  5
60E
100
AcDbEntity
  8
RACCORDO
100
AcDbPolyline
 62
253
  6
CONTINUOUS
 90
6
 70
0
 10
83.9329803257
 20
-44.642835849
 10
83.9334986646
 20
-44.6411837564
 10
83.9339539852
 20
-44.6362646686
 10
83.9343413009
 20
-44.6281324591
 10
83.9346563698
 20
-44.6168761916
 10
83.934874137
 20
-44.6039058994
  0
LINE
  5
60F
100
AcDbEntity
  8
0
100
AcDbLine
 62
7
  6
CONTINUOUS
 10
84.269781399
 20
15.4960941006
 11
81.869781399
 21
15.4960941006
  0
LINE
  5
610
100
AcDbEntity
  8
DRAFT
100
AcDbLine
 62
7
  6
CONTINUOUS
 10
75.869781399
 20
16.2635491655
 11
76.869781399
 21
16.2460941006
  0
LWPOLYLINE
  5
611
100
AcDbEntity
  8
RACCORDO
100
AcDbPolyline
 62
253
  6
CONTINUOUS
 90
6
 70
0
 10
83.9329803257
 20
69.6350240502
 10
83.9334986508
 20
69.6333720398
 10
83.9339539627
 20
69.6284531719
 10
83.9343412743
 20
69.6203212795
 10
83.9346563431
 20
69.6090653856
 10
83.9348741358
 20
69.5960941006
  0
LINE
  5
612
100
AcDbEntity
  8
RACCORDO
100
AcDbLine
 62
7
  6
CONTINUOUS
 10
79.069781399
 20
32.022276698
 11
82.6658457868
 21
32.0850462353
  0
LINE
  5
613
100
AcDbEntity
  8
0
100
AcDbLine
 62
7
  6
CONTINUOUS
 10
86.5697810399
 20
31.6960941006
 11
86.4879460696
 21
31.6960941006
  0
LINE
  5
614
100
AcDbEntity
  8
0
100
AcDbLine
 62
7
  6
CONTINUOUS
 10
79.3513085542
 20
31.8460941006
 11
84.379781399
 21
31.8460941006
  0
LINE
  5
615
100
AcDbEntity
  8
0
100
AcDbLine
 62
7
  6
CONTINUOUS
 10
79.3513085542
 20
33.1460941006
 11
84.379781399
 21
33.1460941006
  0
LINE
  5
616
100
AcDbEntity
  8
RACCORDO
100
AcDbLine
 62
7
  6
CONTINUOUS
 10
79.069781399
 20
32.9699115032
 11
82.6658457868
 21
32.9071419658
  0
LINE
  5
617
100
AcDbEntity
  8
RACCORDO
100
AcDbLine
 62
7
  6
CONTINUOUS
 10
79.069781399
 20
38.022276698
 11
82.6658457868
 21
38.0850462353
  0
LINE
  5
618
100
AcDbEntity
  8
0
100
AcDbLine
 62
7
  6
CONTINUOUS
 10
79.3513085542
 20
37.8460941006
 11
84.379781399
 21
37.8460941006
  0
LINE
  5
619
100
AcDbEntity
  8
DRAFT
100
AcDbLine
 62
7
  6
CONTINUOUS
 10
76.869781399
 20
41.5352828485
 11
78.369781399
 21
41.7460941006
  0
LINE
  5
61A
100
AcDbEntity
  8
RACCORDO
100
AcDbLine
 62
253
  6
CONTINUOUS
 10
77.569781399
 20
40.696170253
 11
76.869781399
 21
40.6839517075
  0
LINE
  5
61B
100
AcDbEntity
  8
RACCORDO
100
AcDbLine
 62
7
  6
CONTINUOUS
 10
77.569781399
 20
41.1960941006
 11
76.869781399
 21
41.1838755551
  0
LINE
  5
61C
100
AcDbEntity
  8
0
100
AcDbLine
 62
7
  6
CONTINUOUS
 10
79.3513085542
 20
39.1460941006
 11
84.379781399
 21
39.1460941006
  0
LINE
  5
61D
100
AcDbEntity
  8
RACCORDO
100
AcDbLine
 62
253
  6
CONTINUOUS
 10
78.7750171209
 20
40.6751327852
 11
79.069781399
 21
40.6751327852
  0
LINE
  5
61E
100
AcDbEntity
  8
RACCORDO
100
AcDbLine
 62
7
  6
CONTINUOUS
 10
79.069781399
 20
38.9699115032
 11
82.6658457868
 21
38.9071419658
  0
LINE
  5
61F
100
AcDbEntity
  8
RACCORDO
100
AcDbLine
 62
253
  6
CONTINUOUS
 10
78.7750171209
 20
40.6751327852
 11
77.569781399
 21
40.696170253
  0
LINE
  5
620
100
AcDbEntity
  8
RACCORDO
100
AcDbLine
 62
7
  6
CONTINUOUS
 10
78.7750171209
 20
41.1750566328
 11
77.569781399
 21
41.1960941006
  0
LINE
  5
621
100
AcDbEntity
  8
DRAFT
100
AcDbLine
 62
7
  6
CONTINUOUS
 10
76.869781399
 20
43.4569053526
 11
78.369781399
 21
43.2460941006
  0
LINE
  5
622
100
AcDbEntity
  8
0
100
AcDbLine
 62
7
  6
CONTINUOUS
 10
72.869781399
 20
50.9960941006
 11
75.369781399
 21
50.9960941006
  0
LINE
  5
623
100
AcDbEntity
  8
0
100
AcDbLine
 62
7
  6
CONTINUOUS
 10
72.869781399
 20
51.2960941006
 11
75.369781399
 21
51.2960941006
  0
LINE
  5
624
100
AcDbEntity
  8
0
100
AcDbLine
 62
7
  6
CONTINUOUS
 10
75.369781399
 20
51.2960941006
 11
75.869781399
 21
51.2960941006
  0
LINE
  5
625
100
AcDbEntity
  8
0
100
AcDbLine
 62
7
  6
CONTINUOUS
 10
72.869781399
 20
53.6960941006
 11
75.369781399
 21
53.6960941006
  0
LINE
  5
626
100
AcDbEntity
  8
0
100
AcDbLine
 62
7
  6
CONTINUOUS
 10
75.369781399
 20
53.6960941006
 11
75.869781399
 21
53.6960941006
  0
LINE
  5
627
100
AcDbEntity
  8
0
100
AcDbLine
 62
7
  6
CONTINUOUS
 10
72.869781399
 20
53.9960941006
 11
75.369781399
 21
53.9960941006
  0
LINE
  5
628
100
AcDbEntity
  8
0
100
AcDbLine
 62
7
  6
CONTINUOUS
 10
74.7197823574
 20
56.1960941006
 11
80.4197722546
 21
56.1960941006
  0
LINE
  5
629
100
AcDbEntity
  8
RACCORDO
100
AcDbLine
 62
7
  6
CONTINUOUS
 10
82.5763390831
 20
60.28348389
 11
81.869781399
 21
60.2711508798
  0
LINE
  5
62A
100
AcDbEntity
  8
RACCORDO
100
AcDbLine
 62
7
  6
CONTINUOUS
 10
81.3096221968
 20
60.2613732645
 11
80.869781399
 21
60.2536958148
  0
LINE
  5
62B
100
AcDbEntity
  8
0
100
AcDbLine
 62
7
  6
CONTINUOUS
 10
81.869781399
 20
59.9460941006
 11
84.269781399
 21
59.9460941006
  0
LINE
  5
62C
100
AcDbEntity
  8
0
100
AcDbLine
 62
7
  6
CONTINUOUS
 10
80.4197722546
 20
60.1960941006
 11
74.7197823574
 21
60.1960941006
  0
LINE
  5
62D
100
AcDbEntity
  8
RACCORDO
100
AcDbLine
 62
253
  6
CONTINUOUS
 10
76.869781399
 20
69.2339517075
 11
77.569781399
 21
69.246170253
  0
LINE
  5
62E
100
AcDbEntity
  8
DRAFT
100
AcDbLine
 62
7
  6
CONTINUOUS
 10
75.869781399
 20
69.7164204902
 11
76.869781399
 21
69.7338755551
  0
LINE
  5
62F
100
AcDbEntity
  8
RACCORDO
100
AcDbLine
 62
7
  6
CONTINUOUS
 10
76.869781399
 20
69.7338755551
 11
77.569781399
 21
69.7460941006
  0
LINE
  5
630
100
AcDbEntity
  8
0
100
AcDbLine
 62
7
  6
CONTINUOUS
 10
84.269781399
 20
65.9460941006
 11
81.869781399
 21
65.9460941006
  0
LINE
  5
631
100
AcDbEntity
  8
RACCORDO
100
AcDbLine
 62
253
  6
CONTINUOUS
 10
78.7750171209
 20
69.2251327852
 11
79.069781399
 21
69.2251327852
  0
LINE
  5
632
100
AcDbEntity
  8
0
100
AcDbLine
 62
7
  6
CONTINUOUS
 10
79.3513085542
 20
69.5960941006
 11
86.5697740224
 21
69.5960941006
  0
LINE
  5
633
100
AcDbEntity
  8
RACCORDO
100
AcDbLine
 62
7
  6
CONTINUOUS
 10
82.5763390831
 20
65.6087043111
 11
81.869781399
 21
65.6210373214
  0
LINE
  5
634
100
AcDbEntity
  8
RACCORDO
100
AcDbLine
 62
7
  6
CONTINUOUS
 10
80.869781399
 20
65.6384923863
 11
81.3096221968
 21
65.6308149366
  0
LINE
  5
635
100
AcDbEntity
  8
RACCORDO
100
AcDbLine
 62
253
  6
CONTINUOUS
 10
77.569781399
 20
69.246170253
 11
78.7750171209
 21
69.2251327852
  0
LINE
  5
636
100
AcDbEntity
  8
RACCORDO
100
AcDbLine
 62
7
  6
CONTINUOUS
 10
77.569781399
 20
69.7460941006
 11
85.7750188494
 21
69.6028711481
  0
LWPOLYLINE
  5
637
100
AcDbEntity
  8
RACCORDO
100
AcDbPolyline
 62
253
  6
CONTINUOUS
 90
5
 70
0
 10
84.61909254
 20
69.6230479169
 10
84.6499979127
 20
69.6209009847
 10
84.6805160381
 20
69.6155630819
 10
84.7103199179
 20
69.6070914035
 10
84.7377974996
 20
69.5960941006
  0
ARC
  5
638
100
AcDbEntity
  8
ASSI
100
AcDbCircle
 62
7
  6
CONTINUOUS
 10
8.0496277061
 20
-5.9039058994
 40
0.8
100
AcDbArc
 50
270.6614306786
 51
360.0
  0
ARC
  5
639
100
AcDbEntity
  8
ASSI
100
AcDbCircle
 62
7
  6
CONTINUOUS
 10
-9.7503722939
 20
-5.9039058994
 40
0.8
100
AcDbArc
 50
180.0
 51
269.3385693214
  0
ARC
  5
63A
100
AcDbEntity
  8
ASSI
100
AcDbCircle
 62
7
  6
CONTINUOUS
 10
-9.7503722939
 20
30.8960941006
 40
0.8
100
AcDbArc
 50
90.6614306786
 51
180.0
  0
ARC
  5
63B
100
AcDbEntity
  8
ASSI
100
AcDbCircle
 62
7
  6
CONTINUOUS
 10
8.0496277061
 20
30.8960941006
 40
0.8
100
AcDbArc
 50
0.0
 51
89.3385693214
  0
ARC
  5
63C
100
AcDbEntity
  8
DRAFT
100
AcDbCircle
 62
7
  6
CONTINUOUS
 10
38.1496277061
 20
-27.5039058994
 40
6.4
100
AcDbArc
 50
270.0
 51
90.0
  0
ARC
  5
63D
100
AcDbEntity
  8
RACCORDO
100
AcDbCircle
 62
253
  6
CONTINUOUS
 10
38.1496277061
 20
-27.5039058994
 40
6.3789625322
100
AcDbArc
 50
302.1035555279
 51
57.8964444721
  0
ARC
  5
63E
100
AcDbEntity
  8
RACCORDO
100
AcDbCircle
 62
253
  6
CONTINUOUS
 10
38.1496277061
 20
-27.5039058994
 40
6.3597619608
100
AcDbArc
 50
58.0002285112
 51
91.02887815
  0
ARC
  5
63F
100
AcDbEntity
  8
RACCORDO
100
AcDbCircle
 62
253
  6
CONTINUOUS
 10
38.1496277061
 20
-27.5039058994
 40
6.3597619608
100
AcDbArc
 50
268.97112185
 51
301.9997714888
  0
ARC
  5
640
100
AcDbEntity
  8
RACCORDO
100
AcDbCircle
 62
253
  6
CONTINUOUS
 10
38.1496277061
 20
-27.5039058994
 40
6.0790082237
100
AcDbArc
 50
306.5383261613
 51
53.4616738387
  0
ARC
  5
641
100
AcDbEntity
  8
RACCORDO
100
AcDbCircle
 62
253
  6
CONTINUOUS
 10
38.1496277061
 20
-27.5039058994
 40
6.0598076523
100
AcDbArc
 50
58.0002285112
 51
91.02887815
  0
ARC
  5
642
100
AcDbEntity
  8
RACCORDO
100
AcDbCircle
 62
253
  6
CONTINUOUS
 10
38.1496277061
 20
-27.5039058994
 40
6.0598076523
100
AcDbArc
 50
268.97112185
 51
301.9997714888
  0
ARC
  5
643
100
AcDbEntity
  8
RACCORDO
100
AcDbCircle
 62
7
  6
CONTINUOUS
 10
39.6496277061
 20
-27.5039058994
 40
3.8692005714
100
AcDbArc
 50
306.831381785
 51
53.168618215
  0
ARC
  5
644
100
AcDbEntity
  8
RACCORDO
100
AcDbCircle
 62
7
  6
CONTINUOUS
 10
39.6496277061
 20
-27.5039058994
 40
3.8692005714
100
AcDbArc
 50
126.831381785
 51
144.6161122481
  0
ARC
  5
645
100
AcDbEntity
  8
RACCORDO
100
AcDbCircle
 62
7
  6
CONTINUOUS
 10
39.6496277061
 20
-27.5039058994
 40
3.8692005714
100
AcDbArc
 50
215.3838882049
 51
233.168618215
  0
ARC
  5
646
100
AcDbEntity
  8
RACCORDO
100
AcDbCircle
 62
253
  6
CONTINUOUS
 10
39.6496277061
 20
-27.5039058994
 40
3.8551451296
100
AcDbArc
 50
306.738902448
 51
53.2610975521
  0
ARC
  5
647
100
AcDbEntity
  8
RACCORDO
100
AcDbCircle
 62
253
  6
CONTINUOUS
 10
39.6496277061
 20
-27.5039058994
 40
3.8551451296
100
AcDbArc
 50
126.7389024479
 51
141.2222180585
  0
ARC
  5
648
100
AcDbEntity
  8
RACCORDO
100
AcDbCircle
 62
253
  6
CONTINUOUS
 10
39.6496277061
 20
-27.5039058994
 40
3.8551451296
100
AcDbArc
 50
218.7777819415
 51
233.2610975521
  0
ARC
  5
649
100
AcDbEntity
  8
RACCORDO
100
AcDbCircle
 62
253
  6
CONTINUOUS
 10
39.6496277061
 20
-27.5039058994
 40
3.5551908211
100
AcDbArc
 50
126.7389024479
 51
142.8097098504
  0
ARC
  5
64A
100
AcDbEntity
  8
RACCORDO
100
AcDbCircle
 62
253
  6
CONTINUOUS
 10
39.6496277061
 20
-27.5039058994
 40
3.5551908211
100
AcDbArc
 50
306.7389024479
 51
53.261097552
  0
ARC
  5
64B
100
AcDbEntity
  8
RACCORDO
100
AcDbCircle
 62
253
  6
CONTINUOUS
 10
39.6496277061
 20
-27.5039058994
 40
3.5551908211
100
AcDbArc
 50
217.1902901703
 51
233.2610975521
  0
ARC
  5
64C
100
AcDbEntity
  8
RACCORDO
100
AcDbCircle
 62
253
  6
CONTINUOUS
 10
39.6496277061
 20
-27.5039058994
 40
3.3328427125
100
AcDbArc
 50
211.812349017
 51
148.187650983
  0
ARC
  5
64D
100
AcDbEntity
  8
RACCORDO
100
AcDbCircle
 62
253
  6
CONTINUOUS
 10
39.6496277061
 20
-27.5039058994
 40
3.1914213562
100
AcDbArc
 50
211.8124717406
 51
148.1876481181
  0
CIRCLE
  5
64E
100
AcDbEntity
  8
0
100
AcDbCircle
 62
7
  6
CONTINUOUS
 10
39.6496277061
 20
-27.5039058994
 40
2.8
  0
ARC
  5
64F
100
AcDbEntity
  8
RACCORDO
100
AcDbCircle
 62
253
  6
CONTINUOUS
 10
39.6496277061
 20
-27.5039058994
 40
1.5507477288
100
AcDbArc
 50
85.2896348736
 51
94.7103652049
  0
ARC
  5
650
100
AcDbEntity
  8
RACCORDO
100
AcDbCircle
 62
253
  6
CONTINUOUS
 10
39.6496277061
 20
-27.5039058994
 40
1.5507477288
100
AcDbArc
 50
175.2896348736
 51
184.7103652049
  0
ARC
  5
651
100
AcDbEntity
  8
RACCORDO
100
AcDbCircle
 62
253
  6
CONTINUOUS
 10
39.6496277061
 20
-27.5039058994
 40
1.5507477288
100
AcDbArc
 50
265.2896349873
 51
274.710365103
  0
ARC
  5
652
100
AcDbEntity
  8
RACCORDO
100
AcDbCircle
 62
253
  6
CONTINUOUS
 10
39.6496277061
 20
-27.5039058994
 40
1.5507477288
100
AcDbArc
 50
355.2896349873
 51
4.710365103
  0
ARC
  5
653
100
AcDbEntity
  8
RACCORDO
100
AcDbCircle
 62
253
  6
CONTINUOUS
 10
39.6496277061
 20
-27.5039058994
 40
1.5074464586
100
AcDbArc
 50
355.2896350024
 51
4.7103652124
  0
ARC
  5
654
100
AcDbEntity
  8
RACCORDO
100
AcDbCircle
 62
253
  6
CONTINUOUS
 10
39.6496277061
 20
-27.5039058994
 40
1.5074464586
100
AcDbArc
 50
85.2896348497
 51
94.7103653245
  0
ARC
  5
655
100
AcDbEntity
  8
RACCORDO
100
AcDbCircle
 62
253
  6
CONTINUOUS
 10
39.6496277061
 20
-27.5039058994
 40
1.5074464586
100
AcDbArc
 50
175.2896348503
 51
184.7103653259
  0
ARC
  5
656
100
AcDbEntity
  8
RACCORDO
100
AcDbCircle
 62
253
  6
CONTINUOUS
 10
39.6496277061
 20
-27.5039058994
 40
1.5074464586
100
AcDbArc
 50
265.2896350024
 51
274.7103652093
  0
ARC
  5
657
100
AcDbEntity
  8
RACCORDO
100
AcDbCircle
 62
7
  6
CONTINUOUS
 10
39.6496277061
 20
-27.5039058994
 40
0.5981197846
100
AcDbArc
 50
338.5774177782
 51
21.4225815303
  0
ARC
  5
658
100
AcDbEntity
  8
RACCORDO
100
AcDbCircle
 62
7
  6
CONTINUOUS
 10
39.6496277061
 20
-27.5039058994
 40
0.5981197846
100
AcDbArc
 50
68.5774169549
 51
111.4225824591
  0
ARC
  5
659
100
AcDbEntity
  8
RACCORDO
100
AcDbCircle
 62
7
  6
CONTINUOUS
 10
39.6496277061
 20
-27.5039058994
 40
0.5981197846
100
AcDbArc
 50
158.5774169549
 51
201.4225824591
  0
ARC
  5
65A
100
AcDbEntity
  8
RACCORDO
100
AcDbCircle
 62
7
  6
CONTINUOUS
 10
39.6496277061
 20
-27.5039058994
 40
0.5981197846
100
AcDbArc
 50
248.5774177782
 51
291.4225815303
  0
ARC
  5
65B
100
AcDbEntity
  8
DRAFT
100
AcDbCircle
 62
7
  6
CONTINUOUS
 10
38.1496277061
 20
52.4960941006
 40
6.4
100
AcDbArc
 50
270.0
 51
90.0
  0
ARC
  5
65C
100
AcDbEntity
  8
RACCORDO
100
AcDbCircle
 62
253
  6
CONTINUOUS
 10
38.1496277061
 20
52.4960941006
 40
6.3789625322
100
AcDbArc
 50
302.1035555279
 51
57.8964444721
  0
ARC
  5
65D
100
AcDbEntity
  8
RACCORDO
100
AcDbCircle
 62
253
  6
CONTINUOUS
 10
38.1496277061
 20
52.4960941006
 40
6.3597619608
100
AcDbArc
 50
268.97112185
 51
301.9997714888
  0
ARC
  5
65E
100
AcDbEntity
  8
RACCORDO
100
AcDbCircle
 62
253
  6
CONTINUOUS
 10
38.1496277061
 20
52.4960941006
 40
6.3597619608
100
AcDbArc
 50
58.0002285112
 51
91.02887815
  0
ARC
  5
65F
100
AcDbEntity
  8
RACCORDO
100
AcDbCircle
 62
253
  6
CONTINUOUS
 10
38.1496277061
 20
52.4960941006
 40
6.0790082237
100
AcDbArc
 50
306.5383261613
 51
53.4616738387
  0
ARC
  5
660
100
AcDbEntity
  8
RACCORDO
100
AcDbCircle
 62
253
  6
CONTINUOUS
 10
38.1496277061
 20
52.4960941006
 40
6.0598076523
100
AcDbArc
 50
58.0002285112
 51
91.02887815
  0
ARC
  5
661
100
AcDbEntity
  8
RACCORDO
100
AcDbCircle
 62
253
  6
CONTINUOUS
 10
38.1496277061
 20
52.4960941006
 40
6.0598076523
100
AcDbArc
 50
268.97112185
 51
301.9997714888
  0
ARC
  5
662
100
AcDbEntity
  8
RACCORDO
100
AcDbCircle
 62
7
  6
CONTINUOUS
 10
39.6496277061
 20
52.4960941006
 40
3.8692005714
100
AcDbArc
 50
306.831381785
 51
53.168618215
  0
ARC
  5
663
100
AcDbEntity
  8
RACCORDO
100
AcDbCircle
 62
7
  6
CONTINUOUS
 10
39.6496277061
 20
52.4960941006
 40
3.8692005714
100
AcDbArc
 50
215.3838882837
 51
233.168618215
  0
ARC
  5
664
100
AcDbEntity
  8
RACCORDO
100
AcDbCircle
 62
7
  6
CONTINUOUS
 10
39.6496277061
 20
52.4960941006
 40
3.8692005714
100
AcDbArc
 50
126.831381785
 51
144.6161122382
  0
ARC
  5
665
100
AcDbEntity
  8
RACCORDO
100
AcDbCircle
 62
253
  6
CONTINUOUS
 10
39.6496277061
 20
52.4960941006
 40
3.8551451296
100
AcDbArc
 50
306.738902448
 51
53.2610975521
  0
ARC
  5
666
100
AcDbEntity
  8
RACCORDO
100
AcDbCircle
 62
253
  6
CONTINUOUS
 10
39.6496277061
 20
52.4960941006
 40
3.8551451296
100
AcDbArc
 50
218.7777819415
 51
233.2610975521
  0
ARC
  5
667
100
AcDbEntity
  8
RACCORDO
100
AcDbCircle
 62
253
  6
CONTINUOUS
 10
39.6496277061
 20
52.4960941006
 40
3.8551451296
100
AcDbArc
 50
126.7389024479
 51
141.2222180585
  0
ARC
  5
668
100
AcDbEntity
  8
RACCORDO
100
AcDbCircle
 62
253
  6
CONTINUOUS
 10
39.6496277061
 20
52.4960941006
 40
3.5551908211
100
AcDbArc
 50
126.7389024479
 51
142.8097098504
  0
ARC
  5
669
100
AcDbEntity
  8
RACCORDO
100
AcDbCircle
 62
253
  6
CONTINUOUS
 10
39.6496277061
 20
52.4960941006
 40
3.5551908211
100
AcDbArc
 50
306.738902448
 51
53.2610975521
  0
ARC
  5
66A
100
AcDbEntity
  8
RACCORDO
100
AcDbCircle
 62
253
  6
CONTINUOUS
 10
39.6496277061
 20
52.4960941006
 40
3.5551908211
100
AcDbArc
 50
217.1902901703
 51
233.2610975521
  0
ARC
  5
66B
100
AcDbEntity
  8
RACCORDO
100
AcDbCircle
 62
253
  6
CONTINUOUS
 10
39.6496277061
 20
52.4960941006
 40
3.3328427125
100
AcDbArc
 50
211.812349017
 51
148.187650983
  0
ARC
  5
66C
100
AcDbEntity
  8
RACCORDO
100
AcDbCircle
 62
253
  6
CONTINUOUS
 10
39.6496277061
 20
52.4960941006
 40
3.1914213562
100
AcDbArc
 50
211.8124564582
 51
148.1876259886
  0
CIRCLE
  5
66D
100
AcDbEntity
  8
0
100
AcDbCircle
 62
7
  6
CONTINUOUS
 10
39.6496277061
 20
52.4960941006
 40
2.8
  0
ARC
  5
66E
100
AcDbEntity
  8
RACCORDO
100
AcDbCircle
 62
253
  6
CONTINUOUS
 10
39.6496277061
 20
52.4960941006
 40
1.5507477288
100
AcDbArc
 50
85.2896348736
 51
94.7103652049
  0
ARC
  5
66F
100
AcDbEntity
  8
RACCORDO
100
AcDbCircle
 62
253
  6
CONTINUOUS
 10
39.6496277061
 20
52.4960941006
 40
1.5507477288
100
AcDbArc
 50
175.2896348736
 51
184.7103652049
  0
ARC
  5
670
100
AcDbEntity
  8
RACCORDO
100
AcDbCircle
 62
253
  6
CONTINUOUS
 10
39.6496277061
 20
52.4960941006
 40
1.5507477288
100
AcDbArc
 50
265.2896349873
 51
274.710365103
  0
ARC
  5
671
100
AcDbEntity
  8
RACCORDO
100
AcDbCircle
 62
253
  6
CONTINUOUS
 10
39.6496277061
 20
52.4960941006
 40
1.5507477288
100
AcDbArc
 50
355.2896349873
 51
4.710365103
  0
ARC
  5
672
100
AcDbEntity
  8
RACCORDO
100
AcDbCircle
 62
253
  6
CONTINUOUS
 10
39.6496277061
 20
52.4960941006
 40
1.5074464586
100
AcDbArc
 50
355.2896350024
 51
4.7103652124
  0
ARC
  5
673
100
AcDbEntity
  8
RACCORDO
100
AcDbCircle
 62
253
  6
CONTINUOUS
 10
39.6496277061
 20
52.4960941006
 40
1.5074464586
100
AcDbArc
 50
85.2896348497
 51
94.7103653245
  0
ARC
  5
674
100
AcDbEntity
  8
RACCORDO
100
AcDbCircle
 62
253
  6
CONTINUOUS
 10
39.6496277061
 20
52.4960941006
 40
1.5074464586
100
AcDbArc
 50
175.2896348503
 51
184.7103653259
  0
ARC
  5
675
100
AcDbEntity
  8
RACCORDO
100
AcDbCircle
 62
253
  6
CONTINUOUS
 10
39.6496277061
 20
52.4960941006
 40
1.5074464586
100
AcDbArc
 50
265.2896350024
 51
274.7103652093
  0
ARC
  5
676
100
AcDbEntity
  8
RACCORDO
100
AcDbCircle
 62
7
  6
CONTINUOUS
 10
39.6496277061
 20
52.4960941006
 40
0.5981197846
100
AcDbArc
 50
338.5774177782
 51
21.4225815303
  0
ARC
  5
677
100
AcDbEntity
  8
RACCORDO
100
AcDbCircle
 62
7
  6
CONTINUOUS
 10
39.6496277061
 20
52.4960941006
 40
0.5981197846
100
AcDbArc
 50
68.5774169549
 51
111.4225824591
  0
ARC
  5
678
100
AcDbEntity
  8
RACCORDO
100
AcDbCircle
 62
7
  6
CONTINUOUS
 10
39.6496277061
 20
52.4960941006
 40
0.5981197846
100
AcDbArc
 50
158.5774169549
 51
201.4225824591
  0
ARC
  5
679
100
AcDbEntity
  8
RACCORDO
100
AcDbCircle
 62
7
  6
CONTINUOUS
 10
39.6496277061
 20
52.4960941006
 40
0.5981197846
100
AcDbArc
 50
248.5774177782
 51
291.4225815303
  0
ARC
  5
67A
100
AcDbEntity
  8
RACCORDO
100
AcDbCircle
 62
7
  6
CONTINUOUS
 10
82.6586709196
 20
-7.5039058994
 40
0.4111104793
100
AcDbArc
 50
271.0
 51
89.0
  0
ARC
  5
67B
100
AcDbEntity
  8
RACCORDO
100
AcDbCircle
 62
7
  6
CONTINUOUS
 10
82.6586709196
 20
-13.5039058994
 40
0.4111104793
100
AcDbArc
 50
271.0
 51
89.0
  0
ARC
  5
67C
100
AcDbEntity
  8
RACCORDO
100
AcDbCircle
 62
7
  6
CONTINUOUS
 10
82.6586709196
 20
32.4960941006
 40
0.4111104793
100
AcDbArc
 50
271.0
 51
89.0
  0
ARC
  5
67D
100
AcDbEntity
  8
RACCORDO
100
AcDbCircle
 62
7
  6
CONTINUOUS
 10
82.6586709196
 20
38.4960941006
 40
0.4111104793
100
AcDbArc
 50
271.0
 51
89.0
  0
ARC
  5
67E
100
AcDbEntity
  8
RACCORDO
100
AcDbCircle
 62
7
  6
CONTINUOUS
 10
85.7697801167
 20
-44.310728691
 40
0.3
100
AcDbArc
 50
271.0
 51
275.9105339599
  0
ARC
  5
67F
100
AcDbEntity
  8
RACCORDO
100
AcDbCircle
 62
7
  6
CONTINUOUS
 10
85.7697801165
 20
69.3029168921
 40
0.3
100
AcDbArc
 50
77.9408320806
 51
89.0
  0
ARC
  5
680
100
AcDbEntity
  8
RACCORDO
100
AcDbCircle
 62
7
  6
CONTINUOUS
 10
78.769781399
 20
-44.4329141231
 40
0.3
100
AcDbArc
 50
271.0
 51
360.0
  0
ARC
  5
681
100
AcDbEntity
  8
RACCORDO
100
AcDbCircle
 62
7
  6
CONTINUOUS
 10
78.769781399
 20
40.8751023242
 40
0.3
100
AcDbArc
 50
0.0
 51
89.0
  0
ARC
  5
682
100
AcDbEntity
  8
RACCORDO
100
AcDbCircle
 62
7
  6
CONTINUOUS
 10
78.769781399
 20
69.4251023242
 40
0.3
100
AcDbArc
 50
0.0
 51
89.0
  0
ELLIPSE
  5
683
100
AcDbEntity
  8
RACCORDO
100
AcDbEllipse
 62
7
  6
CONTINUOUS
 10
-35.3384175616
 20
5.3079726688
 30
0.0
 11
0.5
 21
-0.0
 31
0.0
 40
0.0174550649
 41
2.7413519966
 42
3.1241393611
  0
ELLIPSE
  5
684
100
AcDbEntity
  8
RACCORDO
100
AcDbEllipse
 62
7
  6
CONTINUOUS
 10
33.6376729738
 20
5.3079726688
 30
0.0
 11
0.5
 21
0.0
 31
0.0
 40
0.0174550649
 41
0.0174532925
 42
0.400240657
  0
ELLIPSE
  5
685
100
AcDbEntity
  8
RACCORDO
100
AcDbEllipse
 62
7
  6
CONTINUOUS
 10
-35.3384175616
 20
10.6842155323
 30
0.0
 11
0.5
 21
-0.0
 31
0.0
 40
0.0174550649
 41
-3.1241393611
 42
-2.7413519966
  0
ELLIPSE
  5
686
100
AcDbEntity
  8
RACCORDO
100
AcDbEllipse
 62
7
  6
CONTINUOUS
 10
33.6376729738
 20
10.6842155323
 30
0.0
 11
0.5
 21
0.0
 31
0.0
 40
0.0174550649
 41
-0.400240657
 42
-0.0174532925
  0
ELLIPSE
  5
687
100
AcDbEntity
  8
RACCORDO
100
AcDbEllipse
 62
7
  6
CONTINUOUS
 10
-35.3384175616
 20
60.2579726688
 30
0.0
 11
0.5
 21
-0.0
 31
0.0
 40
0.0174550649
 41
2.7413519966
 42
3.1241393611
  0
ELLIPSE
  5
688
100
AcDbEntity
  8
RACCORDO
100
AcDbEllipse
 62
7
  6
CONTINUOUS
 10
33.6376729738
 20
60.2579726688
 30
0.0
 11
0.5
 21
0.0
 31
0.0
 40
0.0174550649
 41
0.0174532925
 42
0.400240657
  0
ELLIPSE
  5
689
100
AcDbEntity
  8
RACCORDO
100
AcDbEllipse
 62
7
  6
CONTINUOUS
 10
-35.3384175616
 20
65.6342155323
 30
0.0
 11
0.5
 21
0.0
 31
0.0
 40
0.0174550649
 41
-3.1241393611
 42
-2.7413519966
  0
ELLIPSE
  5
68A
100
AcDbEntity
  8
RACCORDO
100
AcDbEllipse
 62
7
  6
CONTINUOUS
 10
33.6376729738
 20
65.6342155323
 30
0.0
 11
0.5
 21
0.0
 31
0.0
 40
0.0174550649
 41
-0.400240657
 42
-0.0174532925
  0
ELLIPSE
  5
68B
100
AcDbEntity
  8
RACCORDO
100
AcDbEllipse
 62
7
  6
CONTINUOUS
 10
-35.3384175616
 20
-40.6420273312
 30
0.0
 11
0.5
 21
0.0
 31
0.0
 40
0.0174550649
 41
2.7413519966
 42
3.1241393611
  0
ELLIPSE
  5
68C
100
AcDbEntity
  8
RACCORDO
100
AcDbEllipse
 62
7
  6
CONTINUOUS
 10
33.6376729738
 20
-40.6420273312
 30
0.0
 11
0.5
 21
0.0
 31
0.0
 40
0.0174550649
 41
0.0174532925
 42
0.400240657
  0
ELLIPSE
  5
68D
100
AcDbEntity
  8
RACCORDO
100
AcDbEllipse
 62
7
  6
CONTINUOUS
 10
-35.3384175616
 20
-35.2657844677
 30
0.0
 11
0.5
 21
-0.0
 31
0.0
 40
0.0174550649
 41
-3.1241393611
 42
-2.7413519966
  0
ELLIPSE
  5
68E
100
AcDbEntity
  8
RACCORDO
100
AcDbEllipse
 62
7
  6
CONTINUOUS
 10
33.6376729738
 20
-35.2657844677
 30
0.0
 11
0.5
 21
0.0
 31
0.0
 40
0.0174550649
 41
-0.400240657
 42
-0.0174532925
  0
ENDSEC
  0
SECTION
  2
OBJECTS
  0
DICTIONARY
  5
C
100
AcDbDictionary
280
0
281
1
  3
ACAD_GROUP
350
D
  3
ACAD_MLINESTYLE
350
17
  3
ACAD_LAYOUT
350
1A
  3
ACAD_PLOTSETTINGS
350
19
  3
ACAD_PLOTSTYLENAME
350
E
  0
DICTIONARY
  5
D
102
{ACAD_REACTORS
330
C
102
}
100
AcDbDictionary
280
0
281
1
  0
ACDBDICTIONARYWDFLT
  5
E
102
{ACAD_REACTORS
330
C
102
}
100
AcDbDictionary
281
1
  3
Normal
350
F
100
AcDbDictionaryWithDefault
340
F
  0
DICTIONARY
  5
17
102
{ACAD_REACTORS
330
C
102
}
100
AcDbDictionary
280
0
281
1
  3
Standard
350
18
  0
DICTIONARY
  5
19
102
{ACAD_REACTORS
330
C
102
}
100
AcDbDictionary
281
1
  0
DICTIONARY
  5
1A
102
{ACAD_REACTORS
330
C
102
}
100
AcDbDictionary
281
1
  3
Model
350
68F
  3
Layout1
350
690
  0
ACDBPLACEHOLDER
  5
F
102
{ACAD_REACTORS
330
E
102
}
  0
MLINESTYLE
  5
18
102
{ACAD_REACTORS
330
17
102
}
100
AcDbMlineStyle
  2
STANDARD
 70
0
  3

 62
256
 51
90.0
 52
90.0
 71
2
 49
0.5
 62
256
  6
BYLAYER
 49
-0.5
 62
256
  6
BYLAYER
  0
LAYOUT
  5
68F
102
{ACAD_REACTORS
330
1A
102
}
100
AcDbPlotSettings
  1

  2
none_device
  4
ISO_A4_(297.00_x_210.00_MM)
  6

 40
0.0
 41
0.0
 42
0.0
 43
0.0
 44
297.0
 45
210.0
 46
0.0
 47
0.0
 48
0.0
 49
0.0
140
0.0
141
0.0
142
1.0
143
1.0
 70
1024
 72
1
 73
0
 74
0
  7

 75
0
147
1.0
148
0.0
149
0.0
100
AcDbLayout
  1
Model
 70
0
 71
0
 10
0.0
 20
0.0
 11
297.0
 21
210.0
 12
0.0
 22
0.0
 32
0.0
 14
0.0
 24
0.0
 34
0.0
 15
0.0
 25
0.0
 35
0.0
146
0.0
 13
0.0
 23
0.0
 33
0.0
 16
1.0
 26
0.0
 36
0.0
 17
0.0
 27
1.0
 37
0.0
 76
0
330
217
345
0
346
0
  0
LAYOUT
  5
690
102
{ACAD_REACTORS
330
1A
102
}
100
AcDbPlotSettings
  1

  2
none_device
  4
ISO_A4_(297.00_x_210.00_MM)
  6

 40
0.0
 41
0.0
 42
0.0
 43
0.0
 44
297.0
 45
210.0
 46
0.0
 47
0.0
 48
0.0
 49
0.0
140
0.0
141
0.0
142
1.0
143
1.0
 70
0
 72
1
 73
0
 74
0
  7

 75
0
147
1.0
148
0.0
149
0.0
100
AcDbLayout
  1
Layout1
 70
0
 71
1
 10
0.0
 20
0.0
 11
297.0
 21
210.0
 12
0.0
 22
0.0
 32
0.0
 14
0.0
 24
0.0
 34
0.0
 15
0.0
 25
0.0
 35
0.0
146
0.0
 13
0.0
 23
0.0
 33
0.0
 16
1.0
 26
0.0
 36
0.0
 17
0.0
 27
1.0
 37
0.0
 76
0
330
218
345
0
346
0
  0
ENDSEC
  0
EOF
