  0
SECTION
  2
HEADER
  9
$ACADVER
  1
AC1015
  9
$DWGCODEPAGE
  3
ANSI_1252
  9
$EXTMAX
 10
297.0
 20
210.0
 30
0.0
  9
$EXTMIN
 10
0.0
 20
0.0
 30
0.0
  9
$LIMMIN
 10
0.0
 20
0.0
  9
$LIMMAX
 10
297.0
 20
210.0
  9
$VIEWCTR
 10
148.5
 20
105.0
  9
$VIEWSIZE
 40
210.0
  9
$CLAYER
  8
0
  9
$LTSCALE
 40
16.335
  9
$CELTYPE
  6
BYLAYER
  9
$DIMSCALE
 40
1.0
  9
$DIMASZ
 40
3.0
  9
$DIMEXO
 40
0.5
  9
$DIMDLI
 40
11.286
  9
$DIMEXE
 40
1.5
  9
$DIMCEN
 40
2.673
  9
$DIMLFAC
 40
1.0
  9
$DIMBLK
  1
_FILLED
  9
$DIMALT
 70
0
  9
$DIMALTF
 40
0.0393700787
  9
$DIMTXT
 40
3.0
  9
$DIMTOL
 70
1
  9
$DIMLIM
 70
0
  9
$DIMTFAC
 40
1.0
  9
$DIMTP
 40
0.01
  9
$DIMTM
 40
0.01
  9
$DIMGAP
 40
0.625
  9
$DIMDSEP
 70
44
  9
$AUNITS
 70
0
  9
$PDMODE
 70
3
  9
$PDSIZE
 40
3.0
  9
$HANDSEED
  5
6AE
  9
$TILEMODE
 70
1
  9
$MEASUREMENT
 70
1
  9
$INSUNITS
 70
4
  0
ENDSEC
  0
SECTION
  2
CLASSES
  0
CLASS
  1
ACDBDICTIONARYWDFLT
  2
AcDbDictionaryWithDefault
  3
AutoCAD 2000
 90
0
280
0
281
0
  0
CLASS
  1
ACDBPLACEHOLDER
  2
AcDbPlaceHolder
  3
AutoCAD 2000
 90
0
280
0
281
0
  0
CLASS
  1
LAYOUT
  2
AcDbLayout
  3
AutoCAD 2000
 90
0
280
0
281
0
  0
ENDSEC
  0
SECTION
  2
TABLES
  0
TABLE
  2
VPORT
  5
8
100
AcDbSymbolTable
 70
2
  0
VPORT
  5
1F4
100
AcDbSymbolTableRecord
100
AcDbViewportTableRecord
  2
*ACTIVE
 70
0
 10
0.0
 20
0.0
 11
1.0
 21
1.0
 12
148.5
 22
105.0
 13
0.0
 23
0.0
 14
1.0
 24
1.0
 15
0.0
 25
0.0
 16
0.0
 26
0.0
 36
1.0
 17
0.0
 27
0.0
 37
0.0
 40
210.0
 41
1.4142857143
 42
50.0
 43
0.0
 44
0.0
 50
0.0
 51
0.0
 71
0
 72
100
 73
1
 74
1
 75
0
 76
0
 77
0
 78
0
  0
ENDTAB
  0
TABLE
  2
LTYPE
  5
5
100
AcDbSymbolTable
 70
6
  0
LTYPE
  5
14
100
AcDbSymbolTableRecord
100
AcDbLinetypeTableRecord
  2
BYBLOCK
 70
0
  3

 72
65
 73
0
 40
0.0
  0
LTYPE
  5
15
100
AcDbSymbolTableRecord
100
AcDbLinetypeTableRecord
  2
BYLAYER
 70
0
  3

 72
65
 73
0
 40
0.0
  0
LTYPE
  5
16
100
AcDbSymbolTableRecord
100
AcDbLinetypeTableRecord
  2
CONTINUOUS
 70
64
  3
Solid line
 72
65
 73
0
 40
0.0
  0
LTYPE
  5
1F5
100
AcDbSymbolTableRecord
100
AcDbLinetypeTableRecord
  2
CENTER
 70
64
  3
____ _ ____ _ ____ _ ____ _ ____ _ ____ _ ____
 72
65
 73
4
 40
0.6
 49
0.375
 74
0
 49
-0.075
 74
0
 49
0.075
 74
0
 49
-0.075
 74
0
  0
LTYPE
  5
1F6
100
AcDbSymbolTableRecord
100
AcDbLinetypeTableRecord
  2
HIDDEN
 70
64
  3
- - - - - - - - - - - - - - - - - - - -
 72
65
 73
2
 40
0.2
 49
0.1
 74
0
 49
-0.1
 74
0
  0
LTYPE
  5
1F7
100
AcDbSymbolTableRecord
100
AcDbLinetypeTableRecord
  2
PHANTOM
 70
64
  3
_____ _ _ _____ _ _ _____ _ _ _____
 72
65
 73
6
 40
0.8
 49
0.45
 74
0
 49
-0.05
 74
0
 49
0.1
 74
0
 49
-0.05
 74
0
 49
0.1
 74
0
 49
-0.05
 74
0
  0
LTYPE
  5
1F8
100
AcDbSymbolTableRecord
100
AcDbLinetypeTableRecord
  2
DOT
 70
64
  3
. . . . . . . . . . . . . . . . . . . .
 72
65
 73
2
 40
0.2
 49
0.1
 74
0
 49
-0.1
 74
0
  0
LTYPE
  5
1F9
100
AcDbSymbolTableRecord
100
AcDbLinetypeTableRecord
  2
DASHED
 70
64
  3
- - - - - - - - - - - - - - - - - - - -
 72
65
 73
2
 40
0.2
 49
0.1
 74
0
 49
-0.1
 74
0
  0
ENDTAB
  0
TABLE
  2
LAYER
  5
2
100
AcDbSymbolTable
 70
36
  0
LAYER
  5
10
100
AcDbSymbolTableRecord
100
AcDbLayerTableRecord
  2
0
 70
0
 62
7
  6
CONTINUOUS
370
-3
390
F
  0
LAYER
  5
1FA
100
AcDbSymbolTableRecord
100
AcDbLayerTableRecord
  2
DEFAULT_1
 70
0
 62
7
  6
CENTER
370
-3
390
F
  0
LAYER
  5
1FB
100
AcDbSymbolTableRecord
100
AcDbLayerTableRecord
  2
DEFAULT_2
 70
0
 62
7
  6
HIDDEN
370
-3
390
F
  0
LAYER
  5
1FC
100
AcDbSymbolTableRecord
100
AcDbLayerTableRecord
  2
DEFAULT_3
 70
0
 62
7
  6
PHANTOM
370
-3
390
F
  0
LAYER
  5
1FD
100
AcDbSymbolTableRecord
100
AcDbLayerTableRecord
  2
ASSI
 70
0
 62
7
  6
CONTINUOUS
370
-3
390
F
  0
LAYER
  5
1FE
100
AcDbSymbolTableRecord
100
AcDbLayerTableRecord
  2
COLOR1
 70
0
 62
7
  6
CONTINUOUS
370
-3
390
F
  0
LAYER
  5
1FF
100
AcDbSymbolTableRecord
100
AcDbLayerTableRecord
  2
COLOR15
 70
0
 62
7
  6
CONTINUOUS
370
-3
390
F
  0
LAYER
  5
200
100
AcDbSymbolTableRecord
100
AcDbLayerTableRecord
  2
COORDINATE
 70
0
 62
7
  6
CONTINUOUS
370
-3
390
F
  0
LAYER
  5
201
100
AcDbSymbolTableRecord
100
AcDbLayerTableRecord
  2
COPY_PUBLISH
 70
0
 62
7
  6
CONTINUOUS
370
-3
390
F
  0
LAYER
  5
202
100
AcDbSymbolTableRecord
100
AcDbLayerTableRecord
  2
COSMETICI
 70
0
 62
7
  6
CONTINUOUS
370
-3
390
F
  0
LAYER
  5
203
100
AcDbSymbolTableRecord
100
AcDbLayerTableRecord
  2
CURVE
 70
0
 62
7
  6
CONTINUOUS
370
-3
390
F
  0
LAYER
  5
204
100
AcDbSymbolTableRecord
100
AcDbLayerTableRecord
  2
DRAFT
 70
0
 62
7
  6
CONTINUOUS
370
-3
390
F
  0
LAYER
  5
205
100
AcDbSymbolTableRecord
100
AcDbLayerTableRecord
  2
IMPORT_IGES
 70
0
 62
7
  6
CONTINUOUS
370
-3
390
F
  0
LAYER
  5
206
100
AcDbSymbolTableRecord
100
AcDbLayerTableRecord
  2
INTF_11
 70
0
 62
7
  6
CONTINUOUS
370
-3
390
F
  0
LAYER
  5
207
100
AcDbSymbolTableRecord
100
AcDbLayerTableRecord
  2
INTF_7
 70
0
 62
7
  6
CONTINUOUS
370
-3
390
F
  0
LAYER
  5
208
100
AcDbSymbolTableRecord
100
AcDbLayerTableRecord
  2
INTF_RED
 70
0
 62
7
  6
CONTINUOUS
370
-3
390
F
  0
LAYER
  5
209
100
AcDbSymbolTableRecord
100
AcDbLayerTableRecord
  2
INTF_YELLOW
 70
0
 62
7
  6
CONTINUOUS
370
-3
390
F
  0
LAYER
  5
20A
100
AcDbSymbolTableRecord
100
AcDbLayerTableRecord
  2
NOTE
 70
0
 62
7
  6
CONTINUOUS
370
-3
390
F
  0
LAYER
  5
20B
100
AcDbSymbolTableRecord
100
AcDbLayerTableRecord
  2
PIANI
 70
0
 62
7
  6
CONTINUOUS
370
-3
390
F
  0
LAYER
  5
20C
100
AcDbSymbolTableRecord
100
AcDbLayerTableRecord
  2
PUNTI
 70
0
 62
7
  6
CONTINUOUS
370
-3
390
F
  0
LAYER
  5
20D
100
AcDbSymbolTableRecord
100
AcDbLayerTableRecord
  2
RACCORDO
 70
0
 62
7
  6
CONTINUOUS
370
-3
390
F
  0
LAYER
  5
20E
100
AcDbSymbolTableRecord
100
AcDbLayerTableRecord
  2
SIMBOLI
 70
0
 62
7
  6
CONTINUOUS
370
-3
390
F
  0
LAYER
  5
20F
100
AcDbSymbolTableRecord
100
AcDbLayerTableRecord
  2
SMUSSO
 70
0
 62
7
  6
CONTINUOUS
370
-3
390
F
  0
LAYER
  5
210
100
AcDbSymbolTableRecord
100
AcDbLayerTableRecord
  2
SNAPLINE
 70
0
 62
7
  6
CONTINUOUS
370
-3
390
F
  0
LAYER
  5
211
100
AcDbSymbolTableRecord
100
AcDbLayerTableRecord
  2
SUPERFICI
 70
0
 62
7
  6
CONTINUOUS
370
-3
390
F
  0
LAYER
  5
212
100
AcDbSymbolTableRecord
100
AcDbLayerTableRecord
  2
TRASH
 70
0
 62
7
  6
CONTINUOUS
370
-3
390
F
  0
LAYER
  5
213
100
AcDbSymbolTableRecord
100
AcDbLayerTableRecord
  2
WHITE
 70
0
 62
7
  6
CONTINUOUS
370
-3
390
F
  0
ENDTAB
  0
TABLE
  2
STYLE
  5
3
100
AcDbSymbolTable
 70
1
  0
STYLE
  5
11
100
AcDbSymbolTableRecord
100
AcDbTextStyleTableRecord
  2
STANDARD
 70
0
 40
0.0
 41
0.8
 50
0.0
 71
0
 42
0.2
  3
txt
  4

  0
STYLE
  5
214
100
AcDbSymbolTableRecord
100
AcDbTextStyleTableRecord
  2
TEXTSTYLE_1
 70
0
 40
0.0
 41
0.8
 50
0.0
 71
0
 42
0.2
  3
gdt
  4

  0
ENDTAB
  0
TABLE
  2
VIEW
  5
6
100
AcDbSymbolTable
 70
0
  0
ENDTAB
  0
TABLE
  2
UCS
  5
7
100
AcDbSymbolTable
 70
0
  0
ENDTAB
  0
TABLE
  2
APPID
  5
9
100
AcDbSymbolTable
 70
1
  0
APPID
  5
215
100
AcDbSymbolTableRecord
100
AcDbRegAppTableRecord
  2
ACAD
 70
0
  0
ENDTAB
  0
TABLE
  2
BLOCK_RECORD
  5
1
100
AcDbSymbolTable
 70
0
  0
BLOCK_RECORD
  5
216
100
AcDbSymbolTableRecord
100
AcDbBlockTableRecord
  2
*Model_Space
  0
BLOCK_RECORD
  5
217
100
AcDbSymbolTableRecord
100
AcDbBlockTableRecord
  2
*Paper_Space
  0
BLOCK_RECORD
  5
218
100
AcDbSymbolTableRecord
100
AcDbBlockTableRecord
  2
_FILLED
  0
BLOCK_RECORD
  5
219
100
AcDbSymbolTableRecord
100
AcDbBlockTableRecord
  2
*D0
  0
BLOCK_RECORD
  5
21A
100
AcDbSymbolTableRecord
100
AcDbBlockTableRecord
  2
*D1
  0
BLOCK_RECORD
  5
21B
100
AcDbSymbolTableRecord
100
AcDbBlockTableRecord
  2
*D2
  0
ENDTAB
  0
TABLE
  2
DIMSTYLE
  5
A
100
AcDbSymbolTable
 70
1
100
AcDbDimStyleTable
 71
0
  0
DIMSTYLE
105
21C
100
AcDbSymbolTableRecord
100
AcDbDimStyleTableRecord
  2
STANDARD
 70
0
  3

  4

 40
1.0
 41
3.0
 42
0.5
 43
0.38
 44
1.5
 45
0.0
 46
0.0
 47
0.01
 48
0.01
140
3.0
141
0.09
142
0.0
143
25.4
144
1.0
145
0.0
146
1.0
147
0.625
 71
1.0
 72
0.0
 73
0
 74
0
 75
0
 76
0
 77
1
 78
8
170
0
171
2
172
0
173
0
174
0
175
0
176
0
177
0
178
0
270
2
271
2
272
2
273
2
274
2
275
0
280
0
281
0
282
0
283
1
284
8
285
0
286
0
287
3
288
0
340
11
278
44
341
218
342
218
343
218
344
218
  0
DIMSTYLE
105
21D
100
AcDbSymbolTableRecord
100
AcDbDimStyleTableRecord
  2
DIMSTYLE_1
 70
0
  3

  4

 40
1.0
 41
3.0
 42
0.5
 43
0.38
 44
1.5
 45
0.0
 46
0.0
 47
0.0
 48
0.0
140
3.0
141
0.09
142
0.0
143
25.4
144
1.0
145
0.0
146
1.0
147
0.75
 71
0.0
 72
0.0
 73
0
 74
0
 75
0
 76
0
 77
1
 78
8
170
0
171
2
172
0
173
0
174
0
175
0
176
0
177
0
178
0
270
2
271
2
272
2
273
2
274
2
275
0
280
0
281
0
282
0
283
1
284
8
285
0
286
0
287
3
288
0
340
11
278
44
341
218
342
218
343
218
344
218
  0
ENDTAB
  0
ENDSEC
  0
SECTION
  2
BLOCKS
  0
BLOCK
  5
20
100
AcDbEntity
  8
0
100
AcDbBlockBegin
  2
*Model_Space
 70
0
 10
0.0
 20
0.0
 30
0.0
  3
*Model_Space
  1

  0
ENDBLK
  5
21
100
AcDbEntity
  8
0
100
AcDbBlockEnd
  0
BLOCK
  5
1C
100
AcDbEntity
  8
0
100
AcDbBlockBegin
  2
*Paper_Space
 70
0
 10
0.0
 20
0.0
 30
0.0
  3
*Paper_Space
  1

  0
ENDBLK
  5
1D
100
AcDbEntity
  8
0
100
AcDbBlockEnd
  0
BLOCK
  5
21E
100
AcDbEntity
  8
0
100
AcDbBlockBegin
  2
_FILLED
 70
64
 10
0.0
 20
0.0
  3
_FILLED
  1

  0
SOLID
  5
21F
100
AcDbEntity
  8
0
  6
BYBLOCK
 62
0
100
AcDbTrace
 10
0.0
 20
0.0
 11
-1.0
 21
0.3166666667
 12
-1.0
 22
-0.3166666667
 13
-1.0
 23
-0.3166666667
  0
ENDBLK
  5
220
100
AcDbEntity
  8
0
  6
BYBLOCK
 62
0
100
AcDbBlockEnd
  0
BLOCK
  5
221
100
AcDbEntity
  8
0
100
AcDbBlockBegin
 62
7
  6
CONTINUOUS
  2
*D0
 70
65
 10
0.0
 20
0.0
  3
*D0
  1

  0
MTEXT
  5
222
100
AcDbEntity
  8
0
100
AcDbMText
 62
7
  6
CONTINUOUS
  7
STANDARD
 71
2
 72
1
 10
14.8434877291
 20
64.197015659
 30
0.0
 11
1.0
 21
0.0
 31
0.0
 44
0.9
  1
87,75
 40
3.0
 41
16.3928571429
  0
LINE
  5
223
100
AcDbEntity
  8
0
100
AcDbLine
 62
7
  6
CONTINUOUS
 10
-29.0315122709
 20
39.697015659
 11
-29.0315122709
 21
61.947015659
  0
LINE
  5
224
100
AcDbEntity
  8
0
100
AcDbLine
 62
7
  6
CONTINUOUS
 10
58.7184877291
 20
35.697015659
 11
58.7184877291
 21
61.947015659
  0
LINE
  5
225
100
AcDbEntity
  8
0
100
AcDbLine
 62
7
  6
CONTINUOUS
 10
-29.0315122709
 20
60.447015659
 11
14.8434877291
 21
60.447015659
  0
LINE
  5
226
100
AcDbEntity
  8
0
100
AcDbLine
 62
7
  6
CONTINUOUS
 10
58.7184877291
 20
60.447015659
 11
14.8434877291
 21
60.447015659
  0
INSERT
  5
227
100
AcDbEntity
  8
0
100
AcDbBlockReference
 62
7
  6
CONTINUOUS
  2
_FILLED
 10
-29.0315122709
 20
60.447015659
 41
3.0
 42
3.0
 43
3.0
 50
180.0
  0
INSERT
  5
228
100
AcDbEntity
  8
0
100
AcDbBlockReference
 62
7
  6
CONTINUOUS
  2
_FILLED
 10
58.7184877291
 20
60.447015659
 41
3.0
 42
3.0
 43
3.0
  0
ENDBLK
  5
229
100
AcDbEntity
  8
0
  6
BYBLOCK
 62
0
100
AcDbBlockEnd
  0
BLOCK
  5
22A
100
AcDbEntity
  8
0
100
AcDbBlockBegin
 62
7
  6
CONTINUOUS
  2
*D1
 70
65
 10
0.0
 20
0.0
  3
*D1
  1

  0
MTEXT
  5
22B
100
AcDbEntity
  8
0
100
AcDbMText
 62
7
  6
CONTINUOUS
  7
STANDARD
 71
2
 72
1
 10
62.9535287728
 20
-4.802984341
 30
0.0
 11
0.0
 21
1.0
 31
0.0
 44
0.9
  1
114,5
 40
3.0
 41
14.4642857143
  0
LINE
  5
22C
100
AcDbEntity
  8
0
100
AcDbLine
 62
7
  6
CONTINUOUS
 10
52.3185638816
 20
52.447015659
 11
68.2035287728
 21
52.447015659
  0
LINE
  5
22D
100
AcDbEntity
  8
0
100
AcDbLine
 62
7
  6
CONTINUOUS
 10
52.3185638816
 20
-62.052984341
 11
68.2035287728
 21
-62.052984341
  0
LINE
  5
22E
100
AcDbEntity
  8
0
100
AcDbLine
 62
7
  6
CONTINUOUS
 10
66.7035287728
 20
52.447015659
 11
66.7035287728
 21
-4.802984341
  0
LINE
  5
22F
100
AcDbEntity
  8
0
100
AcDbLine
 62
7
  6
CONTINUOUS
 10
66.7035287728
 20
-62.052984341
 11
66.7035287728
 21
-4.802984341
  0
INSERT
  5
230
100
AcDbEntity
  8
0
100
AcDbBlockReference
 62
7
  6
CONTINUOUS
  2
_FILLED
 10
66.7035287728
 20
52.447015659
 41
3.0
 42
3.0
 43
3.0
 50
90.0
  0
INSERT
  5
231
100
AcDbEntity
  8
0
100
AcDbBlockReference
 62
7
  6
CONTINUOUS
  2
_FILLED
 10
66.7035287728
 20
-62.052984341
 41
3.0
 42
3.0
 43
3.0
 50
270.0
  0
ENDBLK
  5
232
100
AcDbEntity
  8
0
  6
BYBLOCK
 62
0
100
AcDbBlockEnd
  0
BLOCK
  5
233
100
AcDbEntity
  8
0
100
AcDbBlockBegin
 62
7
  6
CONTINUOUS
  2
*D2
 70
65
 10
0.0
 20
0.0
  3
*D2
  1

  0
MTEXT
  5
234
100
AcDbEntity
  8
0
100
AcDbMText
 62
7
  6
CONTINUOUS
  7
STANDARD
 71
2
 72
1
 10
-71.2184314268
 20
64.197015659
 30
0.0
 11
1.0
 21
0.0
 31
0.0
 44
0.9
  1
13,7
 40
3.0
 41
11.8928571429
  0
LINE
  5
235
100
AcDbEntity
  8
0
100
AcDbLine
 62
7
  6
CONTINUOUS
 10
-64.3684314268
 20
37.197015659
 11
-64.3684314268
 21
61.947015659
  0
LINE
  5
236
100
AcDbEntity
  8
0
100
AcDbLine
 62
7
  6
CONTINUOUS
 10
-78.0684314268
 20
52.797015659
 11
-78.0684314268
 21
61.947015659
  0
LINE
  5
237
100
AcDbEntity
  8
0
100
AcDbLine
 62
7
  6
CONTINUOUS
 10
-64.3684314268
 20
60.447015659
 11
-60.3684314268
 21
60.447015659
  0
LINE
  5
238
100
AcDbEntity
  8
0
100
AcDbLine
 62
7
  6
CONTINUOUS
 10
-60.3684314268
 20
60.447015659
 11
-71.2184314268
 21
60.447015659
  0
LINE
  5
239
100
AcDbEntity
  8
0
100
AcDbLine
 62
7
  6
CONTINUOUS
 10
-78.0684314268
 20
60.447015659
 11
-82.0684314268
 21
60.447015659
  0
LINE
  5
23A
100
AcDbEntity
  8
0
100
AcDbLine
 62
7
  6
CONTINUOUS
 10
-82.0684314268
 20
60.447015659
 11
-71.2184314268
 21
60.447015659
  0
INSERT
  5
23B
100
AcDbEntity
  8
0
100
AcDbBlockReference
 62
7
  6
CONTINUOUS
  2
_FILLED
 10
-64.3684314268
 20
60.447015659
 41
3.0
 42
3.0
 43
3.0
 50
180.0
  0
INSERT
  5
23C
100
AcDbEntity
  8
0
100
AcDbBlockReference
 62
7
  6
CONTINUOUS
  2
_FILLED
 10
-78.0684314268
 20
60.447015659
 41
3.0
 42
3.0
 43
3.0
  0
ENDBLK
  5
23D
100
AcDbEntity
  8
0
  6
BYBLOCK
 62
0
100
AcDbBlockEnd
  0
ENDSEC
  0
SECTION
  2
ENTITIES
  0
DIMENSION
  5
23E
100
AcDbEntity
  8
0
100
AcDbDimension
 62
7
  6
CONTINUOUS
  2
*D0
 10
58.7184877291
 20
60.447015659
 11
14.4149167643
 21
60.447015659
 70
160
 71
2
 42
87.75
  3
DIMSTYLE_1
100
AcDbAlignedDimension
 13
-29.0315122709
 23
39.197015659
 14
58.7184877291
 24
35.197015659
100
AcDbRotatedDimension
  0
DIMENSION
  5
23F
100
AcDbEntity
  8
0
100
AcDbDimension
 62
7
  6
CONTINUOUS
  2
*D1
 10
66.7035287728
 20
-62.052984341
 11
66.7035287728
 21
-5.2315570341
 70
160
 71
2
 42
114.5
  3
DIMSTYLE_1
100
AcDbAlignedDimension
 13
51.8185638816
 23
52.447015659
 14
51.8185638816
 24
-62.052984341
 50
270.0
100
AcDbRotatedDimension
  0
DIMENSION
  5
240
100
AcDbEntity
  8
0
100
AcDbDimension
 62
7
  6
CONTINUOUS
  2
*D2
 10
-78.0684314268
 20
60.447015659
 11
-71.6470013809
 21
60.447015659
 70
160
 71
2
 42
13.7
  3
DIMSTYLE_1
100
AcDbAlignedDimension
 13
-64.3684314268
 23
36.697015659
 14
-78.0684314268
 24
52.297015659
 50
180.0
100
AcDbRotatedDimension
  0
LWPOLYLINE
  5
241
100
AcDbEntity
  8
RACCORDO
100
AcDbPolyline
 62
253
  6
CONTINUOUS
 90
7
 70
0
 10
-20.9179677797
 20
52.297015659
 10
-20.8972307519
 20
52.3078145012
 10
-20.8730589567
 20
52.31783196
 10
-20.8481067099
 20
52.3257053155
 10
-20.8225637823
 20
52.3313746449
 10
-20.7966245378
 20
52.334796766
 10
-20.7704863148
 20
52.3359456091
  0
LWPOLYLINE
  5
242
100
AcDbEntity
  8
RACCORDO
100
AcDbPolyline
 62
253
  6
CONTINUOUS
 90
3
 70
0
 10
-21.0933434466
 20
52.297015659
 10
-21.0825484956
 20
52.3110820237
 10
-21.0648702103
 20
52.3303736414
  0
LWPOLYLINE
  5
243
100
AcDbEntity
  8
RACCORDO
100
AcDbPolyline
 62
253
  6
CONTINUOUS
 90
10
 70
0
 10
-21.0648702103
 20
52.3303736414
 10
-21.0455785887
 20
52.348051923
 10
-21.0248203951
 20
52.363982378
 10
-21.0027535523
 20
52.3780438119
 10
-20.9795459376
 20
52.3901292507
 10
-20.9553741066
 20
52.4001467529
 10
-20.9304219514
 20
52.408020109
 10
-20.9048793
 20
52.413689422
 10
-20.8789404717
 20
52.4171115624
 10
-20.8528028001
 20
52.4182604968
  0
LINE
  5
244
100
AcDbEntity
  8
DRAFT
100
AcDbLine
 62
7
  6
CONTINUOUS
 10
-21.6739105566
 20
42.9546173733
 11
-21.6677905494
 21
42.9607373805
  0
LWPOLYLINE
  5
245
100
AcDbEntity
  8
RACCORDO
100
AcDbPolyline
 62
253
  6
CONTINUOUS
 90
8
 70
0
 10
47.4897782584
 20
52.4182604968
 10
47.4916548115
 20
52.4188459206
 10
47.4959115069
 20
52.4194210935
 10
47.5025483445
 20
52.4199860156
 10
47.5116279718
 20
52.4205436317
 10
47.5230877414
 20
52.4210909969
 10
47.5367397105
 20
52.421619277
 10
47.5526190624
 20
52.4221281602
  0
LWPOLYLINE
  5
246
100
AcDbEntity
  8
RACCORDO
100
AcDbPolyline
 62
253
  6
CONTINUOUS
 90
7
 70
0
 10
-20.9179677797
 20
-61.902984341
 10
-20.8972307519
 20
-61.9137831833
 10
-20.8730589567
 20
-61.923800642
 10
-20.8481067099
 20
-61.9316739976
 10
-20.8225637823
 20
-61.9373433269
 10
-20.7966245378
 20
-61.940765448
 10
-20.7704863147
 20
-61.9419142911
  0
LWPOLYLINE
  5
247
100
AcDbEntity
  8
RACCORDO
100
AcDbPolyline
 62
253
  6
CONTINUOUS
 90
10
 70
0
 10
-21.0648705878
 20
-61.9363419459
 10
-21.0455789794
 20
-61.9540202771
 10
-21.0248207791
 20
-61.9699507911
 10
-21.0027539147
 20
-61.9840122847
 10
-20.9795462638
 20
-61.9960977805
 10
-20.9553743815
 20
-62.0061153348
 10
-20.9304221661
 20
-62.0139887334
 10
-20.9048794489
 20
-62.0196580777
 10
-20.8789405486
 20
-62.0230802377
 10
-20.8528028005
 20
-62.0242291788
  0
LWPOLYLINE
  5
248
100
AcDbEntity
  8
RACCORDO
100
AcDbPolyline
 62
253
  6
CONTINUOUS
 90
3
 70
0
 10
-21.0933434367
 20
-61.902984341
 10
-21.0825488408
 20
-61.9170502943
 10
-21.0648705878
 20
-61.9363419459
  0
LINE
  5
249
100
AcDbEntity
  8
RACCORDO
100
AcDbLine
 62
7
  6
CONTINUOUS
 10
-21.6053296735
 20
20.7231982564
 11
-21.5572294175
 21
20.7712985123
  0
LINE
  5
24A
100
AcDbEntity
  8
DRAFT
100
AcDbLine
 62
7
  6
CONTINUOUS
 10
-21.6677905494
 20
-52.5667060625
 11
-21.6739105566
 21
-52.5605860553
  0
LINE
  5
24B
100
AcDbEntity
  8
0
100
AcDbLine
 62
7
  6
CONTINUOUS
 10
-29.0315122709
 20
39.197015659
 11
-29.0315122709
 21
35.197015659
  0
LINE
  5
24C
100
AcDbEntity
  8
0
100
AcDbLine
 62
7
  6
CONTINUOUS
 10
-29.0315122709
 20
-42.802984341
 11
-29.0315122709
 21
-46.802984341
  0
LWPOLYLINE
  5
24D
100
AcDbEntity
  8
RACCORDO
100
AcDbPolyline
 62
253
  6
CONTINUOUS
 90
6
 70
0
 10
-20.1271591028
 20
52.297015659
 10
-20.1259457862
 20
52.3045075092
 10
-20.1242391198
 20
52.3126357235
 10
-20.1224929569
 20
52.3186157834
 10
-20.1207202972
 20
52.3224031206
 10
-20.1189343346
 20
52.3239695065
  0
LINE
  5
24E
100
AcDbEntity
  8
RACCORDO
100
AcDbLine
 62
7
  6
CONTINUOUS
 10
-21.6053296735
 20
14.7231982564
 11
-21.5572294175
 21
14.7712985123
  0
LWPOLYLINE
  5
24F
100
AcDbEntity
  8
RACCORDO
100
AcDbPolyline
 62
7
  6
CONTINUOUS
 90
7
 70
0
 10
52.2974502614
 20
41.5759435009
 10
52.2963942877
 20
41.5755843322
 10
52.2939330323
 20
41.5752190551
 10
52.290061313
 20
41.5748476694
 10
52.2847701311
 20
41.5744718426
 10
52.2780740657
 20
41.5740899072
 10
52.2700358334
 20
41.5736968617
  0
LWPOLYLINE
  5
250
100
AcDbEntity
  8
RACCORDO
100
AcDbPolyline
 62
253
  6
CONTINUOUS
 90
22
 70
0
 10
51.797532983
 20
-61.7319918255
 10
51.8125838204
 20
-61.7314129626
 10
51.8273967142
 20
-61.7297462655
 10
51.8419716644
 20
-61.7269917342
 10
51.8563907277
 20
-61.7231216984
 10
51.8705718474
 20
-61.7181638284
 10
51.8842688532
 20
-61.7122011358
 10
51.8974702142
 20
-61.7052170686
 10
51.9101874614
 20
-61.6972281787
 10
51.9222090172
 20
-61.6883671333
 10
51.9335232218
 20
-61.6786192747
 10
51.944141735
 20
-61.6679992606
 10
51.9538879586
 20
-61.6566837311
 10
51.9627472157
 20
-61.6446610225
 10
51.9707341832
 20
-61.6319427984
 10
51.9777162933
 20
-61.6187406898
 10
51.9836770119
 20
-61.6050422503
 10
51.9886328731
 20
-61.5908599262
 10
51.9925009108
 20
-61.5764426878
 10
51.9952534697
 20
-61.5618735251
 10
51.9969182052
 20
-61.547069448
 10
51.9974951172
 20
-61.5320304567
  0
LWPOLYLINE
  5
251
100
AcDbEntity
  8
RACCORDO
100
AcDbPolyline
 62
253
  6
CONTINUOUS
 90
22
 70
0
 10
51.7975264138
 20
-62.0319468732
 10
51.8348833423
 20
-62.0305425352
 10
51.8720309755
 20
-62.0263509261
 10
51.9087616701
 20
-62.0193955176
 10
51.9448701342
 20
-62.0097152432
 10
51.9801545124
 20
-61.9973642382
 10
52.0144175159
 20
-61.9824115408
 10
52.0474676069
 20
-61.9649407723
 10
52.0791200708
 20
-61.9450496288
 10
52.1091979823
 20
-61.9228492887
 10
52.1375331818
 20
-61.8984638879
 10
52.1639673204
 20
-61.8720297458
 10
52.1883527211
 20
-61.8436945381
 10
52.2105530669
 20
-61.8136166079
 10
52.2304442166
 20
-61.7819641191
 10
52.2479149827
 20
-61.7489140126
 10
52.2628676685
 20
-61.7146510132
 10
52.2752186593
 20
-61.6793666516
 10
52.2848989217
 20
-61.6432582081
 10
52.2918543216
 20
-61.6065275349
 10
52.2960459251
 20
-61.5693799264
 10
52.2974502614
 20
-61.5320230257
  0
LWPOLYLINE
  5
252
100
AcDbEntity
  8
RACCORDO
100
AcDbPolyline
 62
253
  6
CONTINUOUS
 90
9
 70
0
 10
-20.6808140561
 20
-61.9361414355
 10
-20.7009086893
 20
-61.9368136116
 10
-20.7185270325
 20
-61.9375033918
 10
-20.7336415519
 20
-61.9382112659
 10
-20.7462797814
 20
-61.9389367443
 10
-20.7562977404
 20
-61.9396706715
 10
-20.7636474354
 20
-61.9404099957
 10
-20.76837686
 20
-61.9411577687
 10
-20.7704860142
 20
-61.9419139905
  0
LINE
  5
253
100
AcDbEntity
  8
RACCORDO
100
AcDbLine
 62
253
  6
CONTINUOUS
 10
-20.6338477132
 20
-61.9348732154
 11
-20.6808140561
 21
-61.9361414355
  0
LINE
  5
254
100
AcDbEntity
  8
RACCORDO
100
AcDbLine
 62
253
  6
CONTINUOUS
 10
-20.9157618628
 20
-62.0281004237
 11
-20.9538504454
 21
-62.0290530196
  0
LINE
  5
255
100
AcDbEntity
  8
RACCORDO
100
AcDbLine
 62
253
  6
CONTINUOUS
 10
-20.5781650256
 20
-61.9337133202
 11
-20.6338477132
 21
-61.9348732154
  0
LINE
  5
256
100
AcDbEntity
  8
RACCORDO
100
AcDbLine
 62
253
  6
CONTINUOUS
 10
-20.9538504454
 20
-62.0290530196
 11
-20.9995790273
 21
-62.0298963913
  0
LINE
  5
257
100
AcDbEntity
  8
RACCORDO
100
AcDbLine
 62
253
  6
CONTINUOUS
 10
-20.4804069244
 20
-61.9322218289
 11
-20.5781650256
 21
-61.9337133202
  0
LINE
  5
258
100
AcDbEntity
  8
RACCORDO
100
AcDbLine
 62
253
  6
CONTINUOUS
 10
-20.9995790273
 20
-62.0298963913
 11
-21.0801429031
 21
-62.0309181388
  0
LINE
  5
259
100
AcDbEntity
  8
RACCORDO
100
AcDbLine
 62
253
  6
CONTINUOUS
 10
-20.3288742868
 20
-61.9307715238
 11
-20.4804069244
 21
-61.9322218289
  0
LINE
  5
25A
100
AcDbEntity
  8
RACCORDO
100
AcDbLine
 62
253
  6
CONTINUOUS
 10
-21.0801429031
 20
-62.0309181388
 11
-21.1716263947
 21
-62.0316056662
  0
LINE
  5
25B
100
AcDbEntity
  8
RACCORDO
100
AcDbLine
 62
253
  6
CONTINUOUS
 10
-20.1621025931
 20
-61.9300140102
 11
-20.3288742868
 21
-61.9307715238
  0
LINE
  5
25C
100
AcDbEntity
  8
RACCORDO
100
AcDbLine
 62
253
  6
CONTINUOUS
 10
-21.1716263947
 20
-62.0316056662
 11
-21.3027342629
 21
-62.0319468732
  0
LINE
  5
25D
100
AcDbEntity
  8
RACCORDO
100
AcDbLine
 62
253
  6
CONTINUOUS
 10
-1.8715846471
 20
-61.913928973
 11
-20.1621025931
 21
-61.9300140102
  0
LINE
  5
25E
100
AcDbEntity
  8
RACCORDO
100
AcDbLine
 62
7
  6
CONTINUOUS
 10
-23.6815884233
 20
-62.052984341
 11
51.8185638816
 21
-62.052984341
  0
LINE
  5
25F
100
AcDbEntity
  8
RACCORDO
100
AcDbLine
 62
253
  6
CONTINUOUS
 10
-23.6605509555
 20
-62.0319468732
 11
-21.3027342629
 21
-62.0319468732
  0
LINE
  5
260
100
AcDbEntity
  8
RACCORDO
100
AcDbLine
 62
253
  6
CONTINUOUS
 10
13.153147907
 20
-61.9097619245
 11
-1.8715846471
 21
-61.913928973
  0
LINE
  5
261
100
AcDbEntity
  8
0
100
AcDbLine
 62
7
  6
CONTINUOUS
 10
-21.6211418511
 20
-61.902984341
 11
48.2581173093
 21
-61.902984341
  0
LINE
  5
262
100
AcDbEntity
  8
RACCORDO
100
AcDbLine
 62
253
  6
CONTINUOUS
 10
-23.6605583865
 20
-61.7319917291
 11
-21.6211418511
 21
-61.7319924518
  0
LINE
  5
263
100
AcDbEntity
  8
RACCORDO
100
AcDbLine
 62
253
  6
CONTINUOUS
 10
48.2581173093
 20
-61.7319925037
 11
51.797532983
 21
-61.7319918255
  0
LINE
  5
264
100
AcDbEntity
  8
RACCORDO
100
AcDbLine
 62
253
  6
CONTINUOUS
 10
52.2974502614
 20
-61.5320230264
 11
51.9974951172
 21
-61.5320230257
  0
LINE
  5
265
100
AcDbEntity
  8
RACCORDO
100
AcDbLine
 62
253
  6
CONTINUOUS
 10
-24.1604748031
 20
-61.5320230266
 11
-23.8605197554
 21
-61.5320230257
  0
LINE
  5
266
100
AcDbEntity
  8
RACCORDO
100
AcDbLine
 62
253
  6
CONTINUOUS
 10
28.1051491016
 20
-61.9137028969
 11
13.153147907
 21
-61.9097619245
  0
LINE
  5
267
100
AcDbEntity
  8
RACCORDO
100
AcDbLine
 62
253
  6
CONTINUOUS
 10
43.0283593546
 20
-61.9256864222
 11
28.1051491016
 21
-61.9137028969
  0
LINE
  5
268
100
AcDbEntity
  8
RACCORDO
100
AcDbLine
 62
253
  6
CONTINUOUS
 10
51.7975264138
 20
-62.0319468732
 11
47.8405815604
 21
-62.0317539167
  0
LINE
  5
269
100
AcDbEntity
  8
RACCORDO
100
AcDbLine
 62
253
  6
CONTINUOUS
 10
46.9250013488
 20
-61.9305138135
 11
43.0283593546
 21
-61.9256864222
  0
LINE
  5
26A
100
AcDbEntity
  8
RACCORDO
100
AcDbLine
 62
253
  6
CONTINUOUS
 10
47.8405815604
 20
-62.0317539167
 11
47.746332974
 21
-62.0311846001
  0
LINE
  5
26B
100
AcDbEntity
  8
RACCORDO
100
AcDbLine
 62
253
  6
CONTINUOUS
 10
47.0815291609
 20
-61.9317990275
 11
46.9250013488
 21
-61.9305138135
  0
LINE
  5
26C
100
AcDbEntity
  8
RACCORDO
100
AcDbLine
 62
253
  6
CONTINUOUS
 10
47.746332974
 20
-62.0311846001
 11
47.6616645655
 21
-62.0302680014
  0
LINE
  5
26D
100
AcDbEntity
  8
RACCORDO
100
AcDbLine
 62
253
  6
CONTINUOUS
 10
47.1843680668
 20
-61.9331820595
 11
47.0815291609
 21
-61.9317990275
  0
LINE
  5
26E
100
AcDbEntity
  8
RACCORDO
100
AcDbLine
 62
253
  6
CONTINUOUS
 10
47.6616645655
 20
-62.0302680014
 11
47.6125533171
 21
-62.02948474
  0
LINE
  5
26F
100
AcDbEntity
  8
RACCORDO
100
AcDbLine
 62
253
  6
CONTINUOUS
 10
47.2439514617
 20
-61.9342771712
 11
47.1843680668
 21
-61.9331820595
  0
LWPOLYLINE
  5
270
100
AcDbEntity
  8
RACCORDO
100
AcDbPolyline
 62
253
  6
CONTINUOUS
 90
10
 70
0
 10
47.6125533171
 20
-62.02948474
 10
47.5706831918
 20
-62.0285864448
 10
47.5526098778
 20
-62.0280965626
 10
47.5367295492
 20
-62.027587604
 10
47.5230779006
 20
-62.0270592463
 10
47.5116192375
 20
-62.0265118122
 10
47.5025411797
 20
-62.0259541988
 10
47.4959062672
 20
-62.0253893716
 10
47.4916519601
 20
-62.0248143649
 10
47.4897782584
 20
-62.0242291788
  0
LWPOLYLINE
  5
271
100
AcDbEntity
  8
RACCORDO
100
AcDbPolyline
 62
253
  6
CONTINUOUS
 90
22
 70
0
 10
-23.8605197554
 20
-61.5320295949
 10
-23.8599408924
 20
-61.5470804323
 10
-23.8582741953
 20
-61.5618933261
 10
-23.8555196641
 20
-61.5764682763
 10
-23.8516496283
 20
-61.5908873396
 10
-23.8466917583
 20
-61.6050684592
 10
-23.8407290656
 20
-61.6187654651
 10
-23.8337449984
 20
-61.6319668261
 10
-23.8257561085
 20
-61.6446840733
 10
-23.8168950631
 20
-61.6567056291
 10
-23.8071472046
 20
-61.6680198337
 10
-23.7965271905
 20
-61.6786383469
 10
-23.785211661
 20
-61.6883845705
 10
-23.7731889524
 20
-61.6972438276
 10
-23.7604707283
 20
-61.7052307951
 10
-23.7472686197
 20
-61.7122129052
 10
-23.7335701801
 20
-61.7181736238
 10
-23.719387856
 20
-61.723129485
 10
-23.7049706176
 20
-61.7269975227
 10
-23.6904014549
 20
-61.7297500816
 10
-23.6755973779
 20
-61.7314148171
 10
-23.6605583865
 20
-61.7319917291
  0
LWPOLYLINE
  5
272
100
AcDbEntity
  8
RACCORDO
100
AcDbPolyline
 62
253
  6
CONTINUOUS
 90
22
 70
0
 10
-24.1604748031
 20
-61.5320230257
 10
-24.1590704651
 20
-61.5693799542
 10
-24.154878856
 20
-61.6065275874
 10
-24.1479234475
 20
-61.643258282
 10
-24.1382431731
 20
-61.6793667461
 10
-24.1258921681
 20
-61.7146511243
 10
-24.1109394706
 20
-61.7489141278
 10
-24.0934687022
 20
-61.7819642188
 10
-24.0735775587
 20
-61.8136166826
 10
-24.0513772186
 20
-61.8436945942
 10
-24.0269918178
 20
-61.8720297937
 10
-24.0005576756
 20
-61.8984639322
 10
-23.9722224679
 20
-61.922849333
 10
-23.9421445378
 20
-61.9450496787
 10
-23.910492049
 20
-61.9649408285
 10
-23.8774419425
 20
-61.9824115946
 10
-23.8431789431
 20
-61.9973642804
 10
-23.8078945814
 20
-62.0097152712
 10
-23.771786138
 20
-62.0193955336
 10
-23.7350554647
 20
-62.0263509335
 10
-23.6979078563
 20
-62.030542537
 10
-23.6605509555
 20
-62.0319468732
  0
LWPOLYLINE
  5
273
100
AcDbEntity
  8
RACCORDO
100
AcDbPolyline
 62
7
  6
CONTINUOUS
 90
22
 70
0
 10
-24.1815122709
 20
-61.5530604934
 10
-24.1801207979
 20
-61.5903407134
 10
-24.1759462229
 20
-61.6274630687
 10
-24.1690005336
 20
-61.6642191691
 10
-24.1592966915
 20
-61.7004490786
 10
-24.146885652
 20
-61.7358965428
 10
-24.131891688
 20
-61.7702225765
 10
-24.114480091
 20
-61.8031381915
 10
-24.0947224918
 20
-61.8345843049
 10
-24.0726127906
 20
-61.8645669892
 10
-24.0481518587
 20
-61.8930135176
 10
-24.0215414475
 20
-61.9196239288
 10
-23.9930949191
 20
-61.9440848607
 10
-23.9631122347
 20
-61.9661945619
 10
-23.9316661214
 20
-61.9859521612
 10
-23.8987505064
 20
-62.0033637582
 10
-23.8644244726
 20
-62.0183577222
 10
-23.8289770084
 20
-62.0307687616
 10
-23.792747099
 20
-62.0404726038
 10
-23.7559909986
 20
-62.0474182931
 10
-23.7188686432
 20
-62.051592868
 10
-23.6815884233
 20
-62.052984341
  0
LINE
  5
274
100
AcDbEntity
  8
RACCORDO
100
AcDbLine
 62
7
  6
CONTINUOUS
 10
-24.1815122709
 20
-61.5530604934
 11
-24.1815122709
 21
-46.802984341
  0
LINE
  5
275
100
AcDbEntity
  8
DRAFT
100
AcDbLine
 62
7
  6
CONTINUOUS
 10
-24.1815122709
 20
-42.802984341
 11
-24.1815122709
 21
35.197015659
  0
LINE
  5
276
100
AcDbEntity
  8
RACCORDO
100
AcDbLine
 62
7
  6
CONTINUOUS
 10
-24.1815122709
 20
39.197015659
 11
-24.1815122709
 21
51.9470918114
  0
LINE
  5
277
100
AcDbEntity
  8
RACCORDO
100
AcDbLine
 62
253
  6
CONTINUOUS
 10
-24.1604748031
 20
-61.5320230257
 11
-24.1604748031
 21
-46.802984341
  0
LINE
  5
278
100
AcDbEntity
  8
RACCORDO
100
AcDbLine
 62
253
  6
CONTINUOUS
 10
-24.1604748031
 20
-42.802984341
 11
-24.1604748031
 21
35.197015659
  0
LINE
  5
279
100
AcDbEntity
  8
RACCORDO
100
AcDbLine
 62
253
  6
CONTINUOUS
 10
-24.1604748031
 20
39.197015659
 11
-24.1604748031
 21
51.9260543436
  0
LINE
  5
27A
100
AcDbEntity
  8
RACCORDO
100
AcDbLine
 62
253
  6
CONTINUOUS
 10
-23.8605204945
 20
39.197015659
 11
-23.8605196589
 21
51.9260617747
  0
LINE
  5
27B
100
AcDbEntity
  8
RACCORDO
100
AcDbLine
 62
253
  6
CONTINUOUS
 10
-23.8605197554
 20
-61.5320295949
 11
-23.8605204945
 21
-46.802984341
  0
LINE
  5
27C
100
AcDbEntity
  8
RACCORDO
100
AcDbLine
 62
253
  6
CONTINUOUS
 10
-23.8605204945
 20
-42.802984341
 11
-23.8605204945
 21
35.197015659
  0
LINE
  5
27D
100
AcDbEntity
  8
0
100
AcDbLine
 62
7
  6
CONTINUOUS
 10
-23.7581881077
 20
39.197015659
 11
-23.7581881077
 21
35.197015659
  0
LINE
  5
27E
100
AcDbEntity
  8
0
100
AcDbLine
 62
7
  6
CONTINUOUS
 10
-23.7581881077
 20
-42.802984341
 11
-23.7581881077
 21
-46.802984341
  0
LINE
  5
27F
100
AcDbEntity
  8
RACCORDO
100
AcDbLine
 62
253
  6
CONTINUOUS
 10
-23.6605509562
 20
-62.0319468732
 11
-23.6605509555
 21
-61.7319917291
  0
LINE
  5
280
100
AcDbEntity
  8
RACCORDO
100
AcDbLine
 62
253
  6
CONTINUOUS
 10
-23.6605509565
 20
52.4259781912
 11
-23.6605509555
 21
52.1260231435
  0
LWPOLYLINE
  5
281
100
AcDbEntity
  8
RACCORDO
100
AcDbPolyline
 62
7
  6
CONTINUOUS
 90
22
 70
0
 10
-24.1815122709
 20
51.9470918114
 10
-24.1801207979
 20
51.9843720313
 10
-24.1759462229
 20
52.0214943867
 10
-24.1690005336
 20
52.0582504871
 10
-24.1592966915
 20
52.0944803965
 10
-24.146885652
 20
52.1299278608
 10
-24.131891688
 20
52.1642538945
 10
-24.114480091
 20
52.1971695095
 10
-24.0947224918
 20
52.2286156229
 10
-24.0726127906
 20
52.2585983072
 10
-24.0481518587
 20
52.2870448356
 10
-24.0215414475
 20
52.3136552468
 10
-23.9930949191
 20
52.3381161787
 10
-23.9631122347
 20
52.3602258799
 10
-23.9316661214
 20
52.3799834792
 10
-23.8987505064
 20
52.3973950762
 10
-23.8644244726
 20
52.4123890402
 10
-23.8289770084
 20
52.4248000796
 10
-23.792747099
 20
52.4345039217
 10
-23.7559909986
 20
52.4414496111
 10
-23.7188686432
 20
52.445624186
 10
-23.6815884233
 20
52.447015659
  0
LINE
  5
282
100
AcDbEntity
  8
DRAFT
100
AcDbLine
 62
7
  6
CONTINUOUS
 10
-21.5598443024
 20
-57.9348090352
 11
-21.6677905494
 21
-57.9392626195
  0
LINE
  5
283
100
AcDbEntity
  8
0
100
AcDbLine
 62
7
  6
CONTINUOUS
 10
48.235149545
 20
-58.227984341
 11
48.1968197607
 21
-58.227984341
  0
LINE
  5
284
100
AcDbEntity
  8
0
100
AcDbLine
 62
7
  6
CONTINUOUS
 10
-21.5981740867
 20
-58.227984341
 11
-21.5598443024
 21
-58.227984341
  0
LINE
  5
285
100
AcDbEntity
  8
DRAFT
100
AcDbLine
 62
7
  6
CONTINUOUS
 10
-21.6739105566
 20
-57.9453826267
 11
-21.5598443024
 21
-57.9453826267
  0
LINE
  5
286
100
AcDbEntity
  8
DRAFT
100
AcDbLine
 62
7
  6
CONTINUOUS
 10
48.1968197607
 20
-57.9453826267
 11
48.3108860149
 21
-57.9453826267
  0
LINE
  5
287
100
AcDbEntity
  8
DRAFT
100
AcDbLine
 62
7
  6
CONTINUOUS
 10
48.3047660077
 20
-57.9392626195
 11
48.1968197607
 21
-57.9348090352
  0
LWPOLYLINE
  5
288
100
AcDbEntity
  8
RACCORDO
100
AcDbPolyline
 62
253
  6
CONTINUOUS
 90
6
 70
0
 10
-20.1271591112
 20
-61.902984341
 10
-20.1259457889
 20
-61.9104762201
 10
-20.1242391222
 20
-61.9186044283
 10
-20.1224929597
 20
-61.9245844786
 10
-20.1207203014
 20
-61.9283718068
 10
-20.1189343409
 20
-61.9299381869
  0
LINE
  5
289
100
AcDbEntity
  8
DRAFT
100
AcDbLine
 62
7
  6
CONTINUOUS
 10
-21.6739105566
 20
-2.1105860553
 11
-21.6739105566
 21
-7.4953826267
  0
LINE
  5
28A
100
AcDbEntity
  8
DRAFT
100
AcDbLine
 62
7
  6
CONTINUOUS
 10
-21.6739105566
 20
-52.5605860553
 11
-21.6739105566
 21
-57.9453826267
  0
LINE
  5
28B
100
AcDbEntity
  8
DRAFT
100
AcDbLine
 62
7
  6
CONTINUOUS
 10
-21.6739105566
 20
42.9546173733
 11
-21.6739105566
 21
48.3394139447
  0
LINE
  5
28C
100
AcDbEntity
  8
DRAFT
100
AcDbLine
 62
7
  6
CONTINUOUS
 10
-21.6677905494
 20
-2.1167060625
 11
-21.6677905494
 21
-7.4892626195
  0
LINE
  5
28D
100
AcDbEntity
  8
DRAFT
100
AcDbLine
 62
7
  6
CONTINUOUS
 10
-21.6677905494
 20
-52.5667060625
 11
-21.6677905494
 21
-57.9392626195
  0
LINE
  5
28E
100
AcDbEntity
  8
DRAFT
100
AcDbLine
 62
7
  6
CONTINUOUS
 10
-21.6677905494
 20
42.9607373805
 11
-21.6677905494
 21
48.3332939375
  0
LINE
  5
28F
100
AcDbEntity
  8
0
100
AcDbLine
 62
7
  6
CONTINUOUS
 10
-21.6211418511
 20
52.297015659
 11
-21.6211418511
 21
48.3394139447
  0
LINE
  5
290
100
AcDbEntity
  8
0
100
AcDbLine
 62
7
  6
CONTINUOUS
 10
-21.6211418511
 20
42.9546173733
 11
-21.6211418511
 21
21.847015659
  0
LINE
  5
291
100
AcDbEntity
  8
0
100
AcDbLine
 62
7
  6
CONTINUOUS
 10
-21.6211418511
 20
20.547015659
 11
-21.6211418511
 21
15.847015659
  0
LINE
  5
292
100
AcDbEntity
  8
0
100
AcDbLine
 62
7
  6
CONTINUOUS
 10
-21.6211418511
 20
14.547015659
 11
-21.6211418511
 21
-2.1105860553
  0
LINE
  5
293
100
AcDbEntity
  8
0
100
AcDbLine
 62
7
  6
CONTINUOUS
 10
-21.6211418511
 20
-7.4953826267
 11
-21.6211418511
 21
-24.152984341
  0
LINE
  5
294
100
AcDbEntity
  8
0
100
AcDbLine
 62
7
  6
CONTINUOUS
 10
-21.6211418511
 20
-25.452984341
 11
-21.6211418511
 21
-30.152984341
  0
LINE
  5
295
100
AcDbEntity
  8
0
100
AcDbLine
 62
7
  6
CONTINUOUS
 10
-21.6211418511
 20
-31.452984341
 11
-21.6211418511
 21
-52.5605860553
  0
LINE
  5
296
100
AcDbEntity
  8
0
100
AcDbLine
 62
7
  6
CONTINUOUS
 10
-21.6211418511
 20
-57.9453826267
 11
-21.6211418511
 21
-61.902984341
  0
LINE
  5
297
100
AcDbEntity
  8
DRAFT
100
AcDbLine
 62
7
  6
CONTINUOUS
 10
-21.6053296735
 20
21.6708330616
 11
-21.6053296735
 21
20.7231982564
  0
LINE
  5
298
100
AcDbEntity
  8
DRAFT
100
AcDbLine
 62
7
  6
CONTINUOUS
 10
-21.6053296735
 20
15.6708330616
 11
-21.6053296735
 21
14.7231982564
  0
LINE
  5
299
100
AcDbEntity
  8
DRAFT
100
AcDbLine
 62
7
  6
CONTINUOUS
 10
-21.6053296735
 20
-24.3291669384
 11
-21.6053296735
 21
-25.2768017436
  0
LINE
  5
29A
100
AcDbEntity
  8
DRAFT
100
AcDbLine
 62
7
  6
CONTINUOUS
 10
-21.6053296735
 20
-30.3291669384
 11
-21.6053296735
 21
-31.2768017436
  0
LINE
  5
29B
100
AcDbEntity
  8
0
100
AcDbLine
 62
7
  6
CONTINUOUS
 10
-21.5981740867
 20
48.622015659
 11
-21.5981740867
 21
48.3394139447
  0
LINE
  5
29C
100
AcDbEntity
  8
0
100
AcDbLine
 62
7
  6
CONTINUOUS
 10
-21.5981740867
 20
42.9546173733
 11
-21.5981740867
 21
42.672015659
  0
LINE
  5
29D
100
AcDbEntity
  8
0
100
AcDbLine
 62
7
  6
CONTINUOUS
 10
-21.5981740867
 20
-1.832984341
 11
-21.5981740867
 21
-2.1105860553
  0
LINE
  5
29E
100
AcDbEntity
  8
0
100
AcDbLine
 62
7
  6
CONTINUOUS
 10
-21.5981740867
 20
-7.4953826267
 11
-21.5981740867
 21
-7.772984341
  0
LINE
  5
29F
100
AcDbEntity
  8
0
100
AcDbLine
 62
7
  6
CONTINUOUS
 10
-21.5981740867
 20
-52.277984341
 11
-21.5981740867
 21
-52.5605860553
  0
LINE
  5
2A0
100
AcDbEntity
  8
0
100
AcDbLine
 62
7
  6
CONTINUOUS
 10
-21.5981740867
 20
-57.9453826267
 11
-21.5981740867
 21
-58.227984341
  0
LINE
  5
2A1
100
AcDbEntity
  8
0
100
AcDbLine
 62
7
  6
CONTINUOUS
 10
-21.5598443024
 20
-58.227984341
 11
-21.5598443024
 21
-52.277984341
  0
LINE
  5
2A2
100
AcDbEntity
  8
0
100
AcDbLine
 62
7
  6
CONTINUOUS
 10
-21.5598443024
 20
-7.772984341
 11
-21.5598443024
 21
-1.832984341
  0
LINE
  5
2A3
100
AcDbEntity
  8
0
100
AcDbLine
 62
7
  6
CONTINUOUS
 10
-21.5598443024
 20
42.672015659
 11
-21.5598443024
 21
48.622015659
  0
LINE
  5
2A4
100
AcDbEntity
  8
0
100
AcDbLine
 62
7
  6
CONTINUOUS
 10
-21.5572294175
 20
-31.452984341
 11
-21.5572294175
 21
-30.152984341
  0
LINE
  5
2A5
100
AcDbEntity
  8
0
100
AcDbLine
 62
7
  6
CONTINUOUS
 10
-21.5572294175
 20
-25.452984341
 11
-21.5572294175
 21
-24.152984341
  0
LINE
  5
2A6
100
AcDbEntity
  8
0
100
AcDbLine
 62
7
  6
CONTINUOUS
 10
-21.5572294175
 20
14.547015659
 11
-21.5572294175
 21
15.847015659
  0
LINE
  5
2A7
100
AcDbEntity
  8
0
100
AcDbLine
 62
7
  6
CONTINUOUS
 10
-21.5572294175
 20
20.547015659
 11
-21.5572294175
 21
21.847015659
  0
LINE
  5
2A8
100
AcDbEntity
  8
0
100
AcDbLine
 62
253
  6
CONTINUOUS
 10
-21.5314457757
 20
52.297015659
 11
-21.5314457757
 21
-61.902984341
  0
LINE
  5
2A9
100
AcDbEntity
  8
RACCORDO
100
AcDbLine
 62
253
  6
CONTINUOUS
 10
-21.3027342627
 20
-61.902984341
 11
-21.3027342629
 21
-62.0319468732
  0
LINE
  5
2AA
100
AcDbEntity
  8
RACCORDO
100
AcDbLine
 62
253
  6
CONTINUOUS
 10
-21.3027342632
 20
52.297015659
 11
-21.3027342632
 21
52.4259781912
  0
LINE
  5
2AB
100
AcDbEntity
  8
0
100
AcDbLine
 62
253
  6
CONTINUOUS
 10
-21.0669611873
 20
52.297015659
 11
-21.0669611873
 21
-61.902984341
  0
LINE
  5
2AC
100
AcDbEntity
  8
DRAFT
100
AcDbLine
 62
7
  6
CONTINUOUS
 10
-21.6677905494
 20
-7.4892626195
 11
-21.6739105566
 21
-7.4953826267
  0
LWPOLYLINE
  5
2AD
100
AcDbEntity
  8
RACCORDO
100
AcDbPolyline
 62
7
  6
CONTINUOUS
 90
13
 70
0
 10
51.9974959528
 20
41.5038076875
 10
52.0191627792
 20
41.5155704045
 10
52.0410394622
 20
41.5261554359
 10
52.0630004386
 20
41.5355627816
 10
52.0848876582
 20
41.5437522613
 10
52.1065815283
 20
41.5507640552
 10
52.1279955458
 20
41.5567187049
 10
52.149111824
 20
41.5615838572
 10
52.1695900974
 20
41.5653918652
 10
52.188900001
 20
41.5683603296
 10
52.2068154703
 20
41.5705617841
 10
52.2233504236
 20
41.571923695
 10
52.250156061
 20
41.5728741056
  0
LINE
  5
2AE
100
AcDbEntity
  8
RACCORDO
100
AcDbLine
 62
253
  6
CONTINUOUS
 10
55.6617477443
 20
40.6296738903
 11
55.6417676173
 21
40.6194120833
  0
LWPOLYLINE
  5
2AF
100
AcDbEntity
  8
RACCORDO
100
AcDbPolyline
 62
7
  6
CONTINUOUS
 90
7
 70
0
 10
54.3234503729
 20
-45.0567004501
 10
54.3353276657
 20
-45.0540214479
 10
54.345969673
 20
-45.0500073656
 10
54.3553335532
 20
-45.0446950638
 10
54.3633734087
 20
-45.038128383
 10
54.3700407078
 20
-45.0303583903
 10
54.3752847511
 20
-45.021443627
  0
LWPOLYLINE
  5
2B0
100
AcDbEntity
  8
RACCORDO
100
AcDbPolyline
 62
7
  6
CONTINUOUS
 90
7
 70
0
 10
53.3135251617
 20
-44.549268206
 10
53.3016477972
 20
-44.5519471973
 10
53.2910057465
 20
-44.5559612709
 10
53.2816418514
 20
-44.5612735646
 10
53.2736020096
 20
-44.5678402363
 10
53.2669347529
 20
-44.5756102173
 10
53.2616907805
 20
-44.5845249649
  0
LWPOLYLINE
  5
2B1
100
AcDbEntity
  8
RACCORDO
100
AcDbPolyline
 62
253
  6
CONTINUOUS
 90
13
 70
0
 10
54.3182290929
 20
-45.1407161229
 10
54.30045492
 20
-45.144700301
 10
54.282502024
 20
-45.1505175907
 10
54.2645875083
 20
-45.1582927241
 10
54.2468174965
 20
-45.1682156626
 10
54.2296296445
 20
-45.1802998651
 10
54.2136910802
 20
-45.19423367
 10
54.1992098759
 20
-45.2099050026
 10
54.186393298
 20
-45.2271652859
 10
54.1756696193
 20
-45.2453839856
 10
54.1671246918
 20
-45.2641389207
 10
54.1606534286
 20
-45.2833299108
 10
54.1562195111
 20
-45.3027257048
  0
LWPOLYLINE
  5
2B2
100
AcDbEntity
  8
RACCORDO
100
AcDbPolyline
 62
253
  6
CONTINUOUS
 90
13
 70
0
 10
53.3187463653
 20
-44.4652525591
 10
53.3365205382
 20
-44.4612683811
 10
53.3544734343
 20
-44.4554510913
 10
53.37238795
 20
-44.4476759579
 10
53.3901579618
 20
-44.4377530194
 10
53.4073458137
 20
-44.4256688169
 10
53.423284378
 20
-44.411735012
 10
53.4377655824
 20
-44.3960636794
 10
53.4505821602
 20
-44.3788033961
 10
53.4613058389
 20
-44.3605846964
 10
53.4698507665
 20
-44.3418297613
 10
53.4763220297
 20
-44.3226387713
 10
53.4807559472
 20
-44.3032429772
  0
LWPOLYLINE
  5
2B3
100
AcDbEntity
  8
RACCORDO
100
AcDbPolyline
 62
253
  6
CONTINUOUS
 90
13
 70
0
 10
54.3268996029
 20
-45.1898890283
 10
54.3132227529
 20
-45.1927504635
 10
54.2997738069
 20
-45.1971566822
 10
54.286552765
 20
-45.2031076843
 10
54.2732672972
 20
-45.2107047157
 10
54.2602097335
 20
-45.2198465307
 10
54.2482570636
 20
-45.2302293914
 10
54.2375573725
 20
-45.2419959346
 10
54.2279625754
 20
-45.2550035236
 10
54.2199054076
 20
-45.2685205109
 10
54.2135301145
 20
-45.2823030139
 10
54.2086924508
 20
-45.2965949152
 10
54.2053924165
 20
-45.3113962147
  0
LWPOLYLINE
  5
2B4
100
AcDbEntity
  8
RACCORDO
100
AcDbPolyline
 62
253
  6
CONTINUOUS
 90
13
 70
0
 10
53.3100758554
 20
-44.4160796537
 10
53.3237527054
 20
-44.4132182185
 10
53.3372016513
 20
-44.4088119998
 10
53.3504226932
 20
-44.4028609977
 10
53.363708161
 20
-44.3952639663
 10
53.3767657248
 20
-44.3861221514
 10
53.3887183946
 20
-44.3757392906
 10
53.3994180857
 20
-44.3639727474
 10
53.4090128829
 20
-44.3509651584
 10
53.4170700506
 20
-44.3374481711
 10
53.4234453438
 20
-44.3236656681
 10
53.4282830075
 20
-44.3093737668
 10
53.4315830418
 20
-44.2945724673
  0
LINE
  5
2B5
100
AcDbEntity
  8
RACCORDO
100
AcDbLine
 62
253
  6
CONTINUOUS
 10
53.5976841051
 20
-46.2534021554
 11
53.6468570105
 21
-46.2447316454
  0
LINE
  5
2B6
100
AcDbEntity
  8
RACCORDO
100
AcDbLine
 62
253
  6
CONTINUOUS
 10
55.2689055435
 20
-45.023787965
 11
54.3268996029
 21
-45.1898890283
  0
LINE
  5
2B7
100
AcDbEntity
  8
RACCORDO
100
AcDbLine
 62
253
  6
CONTINUOUS
 10
53.4315830418
 20
-45.3113962147
 11
53.4807559472
 21
-45.3027257048
  0
LINE
  5
2B8
100
AcDbEntity
  8
RACCORDO
100
AcDbLine
 62
253
  6
CONTINUOUS
 10
55.2602350333
 20
-44.9746150597
 11
54.3182290929
 21
-45.1407161229
  0
LINE
  5
2B9
100
AcDbEntity
  8
RACCORDO
100
AcDbLine
 62
253
  6
CONTINUOUS
 10
52.3767403913
 20
-44.6313536283
 11
53.3187463653
 21
-44.4652525591
  0
LINE
  5
2BA
100
AcDbEntity
  8
RACCORDO
100
AcDbLine
 62
253
  6
CONTINUOUS
 10
54.2053924165
 20
-44.2945724673
 11
54.1562195111
 21
-44.3032429772
  0
LINE
  5
2BB
100
AcDbEntity
  8
RACCORDO
100
AcDbLine
 62
253
  6
CONTINUOUS
 10
52.3680698812
 20
-44.5821807229
 11
53.3100758554
 21
-44.4160796537
  0
LINE
  5
2BC
100
AcDbEntity
  8
RACCORDO
100
AcDbLine
 62
253
  6
CONTINUOUS
 10
54.0392913472
 20
-43.352566493
 11
53.9901184418
 21
-43.361237003
  0
LINE
  5
2BD
100
AcDbEntity
  8
RACCORDO
100
AcDbLine
 62
7
  6
CONTINUOUS
 10
54.2468539705
 20
-45.0693410005
 11
54.3234503732
 21
-45.0567004499
  0
LINE
  5
2BE
100
AcDbEntity
  8
RACCORDO
100
AcDbLine
 62
7
  6
CONTINUOUS
 10
53.3901214877
 20
-44.5366276815
 11
53.3135250843
 21
-44.5492682321
  0
LINE
  5
2BF
100
AcDbEntity
  8
RACCORDO
100
AcDbLine
 62
253
  6
CONTINUOUS
 10
53.2468583243
 20
-44.5863752853
 11
53.2616908629
 21
-44.5845248302
  0
LINE
  5
2C0
100
AcDbEntity
  8
RACCORDO
100
AcDbLine
 62
253
  6
CONTINUOUS
 10
54.4218271391
 20
-45.0157533272
 11
54.3752846146
 21
-45.0214438501
  0
LINE
  5
2C1
100
AcDbEntity
  8
RACCORDO
100
AcDbLine
 62
253
  6
CONTINUOUS
 10
54.4714771939
 20
-45.009927049
 11
54.4218271391
 21
-45.0157533272
  0
LWPOLYLINE
  5
2C2
100
AcDbEntity
  8
RACCORDO
100
AcDbPolyline
 62
253
  6
CONTINUOUS
 90
3
 70
0
 10
54.5658773139
 20
-44.9993982692
 10
54.5457281175
 20
-45.0015993747
 10
54.4714771939
 20
-45.009927049
  0
LINE
  5
2C3
100
AcDbEntity
  8
DRAFT
100
AcDbLine
 62
7
  6
CONTINUOUS
 10
48.3047660077
 20
-52.5667060625
 11
48.1968197607
 21
-52.5711596468
  0
LINE
  5
2C4
100
AcDbEntity
  8
DRAFT
100
AcDbLine
 62
7
  6
CONTINUOUS
 10
-21.6739105566
 20
-52.5605860553
 11
-21.5598443024
 21
-52.5605860553
  0
LINE
  5
2C5
100
AcDbEntity
  8
DRAFT
100
AcDbLine
 62
7
  6
CONTINUOUS
 10
48.1968197607
 20
-52.5605860553
 11
48.3108860149
 21
-52.5605860553
  0
LINE
  5
2C6
100
AcDbEntity
  8
0
100
AcDbLine
 62
7
  6
CONTINUOUS
 10
-21.5598443024
 20
-52.277984341
 11
-21.5981740867
 21
-52.277984341
  0
LINE
  5
2C7
100
AcDbEntity
  8
0
100
AcDbLine
 62
7
  6
CONTINUOUS
 10
48.1968197607
 20
-52.277984341
 11
48.235149545
 21
-52.277984341
  0
LINE
  5
2C8
100
AcDbEntity
  8
RACCORDO
100
AcDbLine
 62
253
  6
CONTINUOUS
 10
51.7609334248
 20
-50.6625390555
 11
52.060888701
 21
-50.6625390548
  0
LINE
  5
2C9
100
AcDbEntity
  8
RACCORDO
100
AcDbLine
 62
253
  6
CONTINUOUS
 10
55.8804573464
 20
-49.7991407062
 11
55.5805024231
 21
-49.7991407054
  0
LINE
  5
2CA
100
AcDbEntity
  8
RACCORDO
100
AcDbLine
 62
7
  6
CONTINUOUS
 10
52.2233265349
 20
-51.1778889015
 11
52.250156061
 21
-51.1788427877
  0
LINE
  5
2CB
100
AcDbEntity
  8
DRAFT
100
AcDbLine
 62
7
  6
CONTINUOUS
 10
-21.5598443024
 20
-52.5711596468
 11
-21.6677905494
 21
-52.5667060625
  0
LWPOLYLINE
  5
2CC
100
AcDbEntity
  8
RACCORDO
100
AcDbPolyline
 62
7
  6
CONTINUOUS
 90
8
 70
0
 10
52.250156061
 20
-51.1788427877
 10
52.2700358334
 20
-51.1796655437
 10
52.2780740657
 20
-51.1800585893
 10
52.2847701311
 20
-51.1804405246
 10
52.290061313
 20
-51.1808163514
 10
52.2939330323
 20
-51.1811877371
 10
52.2963942877
 20
-51.1815530142
 10
52.2974502614
 20
-51.1819121829
  0
LINE
  5
2CD
100
AcDbEntity
  8
RACCORDO
100
AcDbLine
 62
7
  6
CONTINUOUS
 10
-21.6053296735
 20
-30.3291669384
 11
-21.5572294175
 21
-30.3772671943
  0
LINE
  5
2CE
100
AcDbEntity
  8
RACCORDO
100
AcDbLine
 62
253
  6
CONTINUOUS
 10
56.0832013774
 20
38.2605688721
 11
56.0965977471
 21
38.2681382997
  0
LINE
  5
2CF
100
AcDbEntity
  8
RACCORDO
100
AcDbLine
 62
253
  6
CONTINUOUS
 10
55.8946641609
 20
40.2011213585
 11
55.8804573464
 21
40.1931720276
  0
LINE
  5
2D0
100
AcDbEntity
  8
RACCORDO
100
AcDbLine
 62
253
  6
CONTINUOUS
 10
51.7609334248
 20
31.72819781
 11
51.7468779829
 21
31.7211052207
  0
LINE
  5
2D1
100
AcDbEntity
  8
RACCORDO
100
AcDbLine
 62
253
  6
CONTINUOUS
 10
55.8804573464
 20
38.6625738596
 11
55.8945127882
 21
38.6696552356
  0
LINE
  5
2D2
100
AcDbEntity
  8
RACCORDO
100
AcDbLine
 62
253
  6
CONTINUOUS
 10
53.1997357786
 20
-44.5920489561
 11
53.2468583243
 21
-44.5863752853
  0
LINE
  5
2D3
100
AcDbEntity
  8
RACCORDO
100
AcDbLine
 62
253
  6
CONTINUOUS
 10
53.1301282095
 20
-44.6000657262
 11
53.1997357786
 21
-44.5920489561
  0
LINE
  5
2D4
100
AcDbEntity
  8
RACCORDO
100
AcDbLine
 62
253
  6
CONTINUOUS
 10
53.0507533532
 20
-44.6087565915
 11
53.1301282095
 21
-44.6000657262
  0
LINE
  5
2D5
100
AcDbEntity
  8
RACCORDO
100
AcDbLine
 62
253
  6
CONTINUOUS
 10
54.6539071656
 20
-44.9900862247
 11
54.5658773139
 21
-44.9993982692
  0
LINE
  5
2D6
100
AcDbEntity
  8
RACCORDO
100
AcDbLine
 62
253
  6
CONTINUOUS
 10
52.9347267332
 20
-44.6208413218
 11
53.0507533532
 21
-44.6087565915
  0
LINE
  5
2D7
100
AcDbEntity
  8
RACCORDO
100
AcDbLine
 62
253
  6
CONTINUOUS
 10
54.8104801254
 20
-44.9743368058
 11
54.6539071656
 21
-44.9900862247
  0
LINE
  5
2D8
100
AcDbEntity
  8
RACCORDO
100
AcDbLine
 62
253
  6
CONTINUOUS
 10
52.7683283606
 20
-44.6372826477
 11
52.9347267332
 21
-44.6208413218
  0
LINE
  5
2D9
100
AcDbEntity
  8
RACCORDO
100
AcDbLine
 62
253
  6
CONTINUOUS
 10
55.0280540482
 20
-44.9535621775
 11
54.8104801254
 21
-44.9743368058
  0
LINE
  5
2DA
100
AcDbEntity
  8
RACCORDO
100
AcDbLine
 62
253
  6
CONTINUOUS
 10
52.5050816598
 20
-44.6620237136
 11
52.7683283606
 21
-44.6372826477
  0
LINE
  5
2DB
100
AcDbEntity
  8
RACCORDO
100
AcDbLine
 62
253
  6
CONTINUOUS
 10
54.5103091136
 20
-45.0395691881
 11
54.3234503732
 21
-45.0567004499
  0
LINE
  5
2DC
100
AcDbEntity
  8
RACCORDO
100
AcDbLine
 62
253
  6
CONTINUOUS
 10
55.3208428689
 20
-44.9267740396
 11
55.0280540482
 21
-44.9535621775
  0
LINE
  5
2DD
100
AcDbEntity
  8
RACCORDO
100
AcDbLine
 62
253
  6
CONTINUOUS
 10
52.3161325974
 20
-44.6791946391
 11
52.5050816598
 21
-44.6620237136
  0
LINE
  5
2DE
100
AcDbEntity
  8
RACCORDO
100
AcDbLine
 62
253
  6
CONTINUOUS
 10
53.1281618591
 20
-44.5662654534
 11
53.3135250843
 21
-44.5492682321
  0
LINE
  5
2DF
100
AcDbEntity
  8
RACCORDO
100
AcDbLine
 62
253
  6
CONTINUOUS
 10
55.2602350333
 20
-44.9746150597
 11
54.5103091136
 21
-45.0395691881
  0
LINE
  5
2E0
100
AcDbEntity
  8
RACCORDO
100
AcDbLine
 62
253
  6
CONTINUOUS
 10
52.3767403913
 20
-44.6313536283
 11
53.1281618591
 21
-44.5662654534
  0
LINE
  5
2E1
100
AcDbEntity
  8
RACCORDO
100
AcDbLine
 62
253
  6
CONTINUOUS
 10
55.3639979158
 20
-44.6756387891
 11
55.320842863
 21
-44.6791946394
  0
LINE
  5
2E2
100
AcDbEntity
  8
RACCORDO
100
AcDbLine
 62
253
  6
CONTINUOUS
 10
52.2729775481
 20
-44.9303298952
 11
52.3161325989
 21
-44.9267740453
  0
LINE
  5
2E3
100
AcDbEntity
  8
RACCORDO
100
AcDbLine
 62
253
  6
CONTINUOUS
 10
51.7609334248
 20
-48.2718021894
 11
52.0608807533
 21
-48.2718021896
  0
LINE
  5
2E4
100
AcDbEntity
  8
RACCORDO
100
AcDbLine
 62
253
  6
CONTINUOUS
 10
55.8804573464
 20
-48.2685425411
 11
55.5805030378
 21
-48.2685425413
  0
LINE
  5
2E5
100
AcDbEntity
  8
DRAFT
100
AcDbLine
 62
7
  6
CONTINUOUS
 10
-29.0314790746
 20
-46.802984341
 11
-23.7581881077
 21
-46.802984341
  0
LWPOLYLINE
  5
2E6
100
AcDbEntity
  8
RACCORDO
100
AcDbPolyline
 62
7
  6
CONTINUOUS
 90
12
 70
0
 10
52.2233265349
 20
-51.1778889015
 10
52.2067733309
 20
-51.1765247335
 10
52.1888479573
 20
-51.1743222403
 10
52.1695516977
 20
-51.1713581144
 10
52.1491011157
 20
-51.1675556633
 10
52.1279853915
 20
-51.1626848091
 10
52.1064988364
 20
-51.156697996
 10
52.0846967102
 20
-51.1496427799
 10
52.0627515738
 20
-51.1414317502
 10
52.0408164287
 20
-51.1320357701
 10
52.0190227332
 20
-51.1214839766
 10
51.9974959528
 20
-51.1097763695
  0
LWPOLYLINE
  5
2E7
100
AcDbEntity
  8
RACCORDO
100
AcDbPolyline
 62
253
  6
CONTINUOUS
 90
11
 70
0
 10
47.4074614725
 20
-61.9419139905
 10
47.4053523183
 20
-61.9411577687
 10
47.4006228937
 20
-61.9404099957
 10
47.3932731987
 20
-61.9396706715
 10
47.3832552397
 20
-61.9389367443
 10
47.3706170103
 20
-61.9382112659
 10
47.3555024909
 20
-61.9375033918
 10
47.3378841477
 20
-61.9368136116
 10
47.3177895145
 20
-61.9361414355
 10
47.2954451733
 20
-61.9354945498
 10
47.2439514617
 20
-61.9342771712
  0
LINE
  5
2E8
100
AcDbEntity
  8
RACCORDO
100
AcDbLine
 62
7
  6
CONTINUOUS
 10
-21.6053296735
 20
-24.3291669384
 11
-21.5572294175
 21
-24.3772671943
  0
LINE
  5
2E9
100
AcDbEntity
  8
RACCORDO
100
AcDbLine
 62
253
  6
CONTINUOUS
 10
47.4074614725
 20
52.3359453085
 11
47.4897782584
 21
52.4182604968
  0
LINE
  5
2EA
100
AcDbEntity
  8
RACCORDO
100
AcDbLine
 62
253
  6
CONTINUOUS
 10
51.7975264138
 20
52.4259781912
 11
51.8185638816
 21
52.447015659
  0
LINE
  5
2EB
100
AcDbEntity
  8
DRAFT
100
AcDbLine
 62
7
  6
CONTINUOUS
 10
48.3047660077
 20
48.3332939375
 11
48.3108860149
 21
48.3394139447
  0
LINE
  5
2EC
100
AcDbEntity
  8
RACCORDO
100
AcDbLine
 62
253
  6
CONTINUOUS
 10
52.2974502614
 20
51.9260543436
 11
52.3184877291
 21
51.9470918114
  0
LWPOLYLINE
  5
2ED
100
AcDbEntity
  8
RACCORDO
100
AcDbPolyline
 62
7
  6
CONTINUOUS
 90
7
 70
0
 10
53.6000284157
 20
35.7538126591
 10
53.5910508077
 20
35.7484804442
 10
53.5832461498
 20
35.7417589135
 10
53.5766709943
 20
35.7337000912
 10
53.5713740193
 20
35.7243534038
 10
53.5673963049
 20
35.7137651892
 10
53.5647716047
 20
35.7019782573
  0
LWPOLYLINE
  5
2EE
100
AcDbEntity
  8
RACCORDO
100
AcDbPolyline
 62
7
  6
CONTINUOUS
 90
7
 70
0
 10
54.0369469413
 20
34.6402185763
 10
54.0459245952
 20
34.6455508395
 10
54.0537292851
 20
34.6522724029
 10
54.0603044597
 20
34.6603312413
 10
54.0656014418
 20
34.6696779279
 10
54.0695791527
 20
34.6802661245
 10
54.0722038401
 20
34.6920530209
  0
LINE
  5
2EF
100
AcDbEntity
  8
RACCORDO
100
AcDbLine
 62
253
  6
CONTINUOUS
 10
51.5576772172
 20
32.130580917
 11
51.5442825123
 21
32.1230003434
  0
LWPOLYLINE
  5
2F0
100
AcDbEntity
  8
RACCORDO
100
AcDbPolyline
 62
253
  6
CONTINUOUS
 90
22
 70
0
 10
52.2588724474
 20
-38.7434719742
 10
52.2438948722
 20
-38.7441958513
 10
52.2291692302
 20
-38.7459918407
 10
52.2146955213
 20
-38.7488599424
 10
52.2003957335
 20
-38.7528281379
 10
52.1863478788
 20
-38.7578684457
 10
52.1727859935
 20
-38.7638969217
 10
52.1597193742
 20
-38.7709295162
 10
52.1471387242
 20
-38.7789502789
 10
52.1352501902
 20
-38.7878274145
 10
52.124065188
 20
-38.7975750115
 10
52.1135723018
 20
-38.8081789815
 10
52.1039434307
 20
-38.8194652639
 10
52.0951929037
 20
-38.8314451035
 10
52.0873063918
 20
-38.8441072556
 10
52.0804128081
 20
-38.857243925
 10
52.0745281612
 20
-38.87086701
 10
52.0696364425
 20
-38.8849646122
 10
52.0658185391
 20
-38.8992932415
 10
52.0631014133
 20
-38.9137717345
 10
52.0614581028
 20
-38.9284812546
 10
52.0608886075
 20
-38.9434218018
  0
LWPOLYLINE
  5
2F1
100
AcDbEntity
  8
RACCORDO
100
AcDbPolyline
 62
253
  6
CONTINUOUS
 90
22
 70
0
 10
52.2559406345
 20
-38.4435324071
 10
52.2188197836
 20
-38.4452824511
 10
52.1819444401
 20
-38.4497873722
 10
52.1455109286
 20
-38.4570135741
 10
52.1097152047
 20
-38.4669266288
 10
52.0747513552
 20
-38.4794740164
 10
52.0408108625
 20
-38.4945777411
 10
52.0080850931
 20
-38.5121579603
 10
51.9767591246
 20
-38.5321248868
 10
51.9470000862
 20
-38.5543600388
 10
51.9189721364
 20
-38.5787397992
 10
51.8928359029
 20
-38.6051369711
 10
51.8687300577
 20
-38.6334017569
 10
51.8467851298
 20
-38.6633755377
 10
51.8271302236
 20
-38.6948985978
 10
51.8098714136
 20
-38.727795712
 10
51.7950971055
 20
-38.7618794666
 10
51.78289503
 20
-38.7969620643
 10
51.7733357968
 20
-38.8328533332
 10
51.7664640522
 20
-38.8693592947
 10
51.7623222764
 20
-38.9062855566
 10
51.7609411579
 20
-38.9434296262
  0
LINE
  5
2F2
100
AcDbEntity
  8
RACCORDO
100
AcDbLine
 62
7
  6
CONTINUOUS
 10
52.2700358334
 20
-38.4263031383
 11
52.250156061
 21
-38.4271258944
  0
LINE
  5
2F3
100
AcDbEntity
  8
DRAFT
100
AcDbLine
 62
7
  6
CONTINUOUS
 10
-23.7581881077
 20
-42.802984341
 11
-29.031479036
 21
-42.802984341
  0
LINE
  5
2F4
100
AcDbEntity
  8
RACCORDO
100
AcDbLine
 62
253
  6
CONTINUOUS
 10
55.8804573464
 20
-41.3374261409
 11
55.5805099735
 21
-41.3374261408
  0
LINE
  5
2F5
100
AcDbEntity
  8
RACCORDO
100
AcDbLine
 62
253
  6
CONTINUOUS
 10
51.7609334248
 20
-41.3341664926
 11
52.0608877333
 21
-41.3341664924
  0
LINE
  5
2F6
100
AcDbEntity
  8
RACCORDO
100
AcDbLine
 62
253
  6
CONTINUOUS
 10
55.8804573464
 20
-39.8068279758
 11
55.5805024214
 21
-39.8068279766
  0
LINE
  5
2F7
100
AcDbEntity
  8
RACCORDO
100
AcDbLine
 62
253
  6
CONTINUOUS
 10
51.7609334248
 20
-38.9434296262
 11
52.0608886075
 21
-38.9434296272
  0
LINE
  5
2F8
100
AcDbEntity
  8
RACCORDO
100
AcDbLine
 62
253
  6
CONTINUOUS
 10
52.2729775438
 20
-44.6756387886
 11
52.3161326036
 21
-44.6791946378
  0
LINE
  5
2F9
100
AcDbEntity
  8
RACCORDO
100
AcDbLine
 62
253
  6
CONTINUOUS
 10
55.3639979209
 20
-44.9303298909
 11
55.3208428689
 21
-44.9267740403
  0
LINE
  5
2FA
100
AcDbEntity
  8
RACCORDO
100
AcDbLine
 62
253
  6
CONTINUOUS
 10
52.3767403939
 20
-44.9746150542
 11
52.7368551934
 21
-45.0054428553
  0
LINE
  5
2FB
100
AcDbEntity
  8
RACCORDO
100
AcDbLine
 62
253
  6
CONTINUOUS
 10
55.2602350561
 20
-44.6313536264
 11
54.9015496298
 21
-44.6006490436
  0
LINE
  5
2FC
100
AcDbEntity
  8
RACCORDO
100
AcDbLine
 62
253
  6
CONTINUOUS
 10
54.9015496298
 20
-44.6006490436
 11
54.453602788
 21
-44.5612886667
  0
LINE
  5
2FD
100
AcDbEntity
  8
RACCORDO
100
AcDbLine
 62
253
  6
CONTINUOUS
 10
52.7368551934
 20
-45.0054428553
 11
53.1855149312
 21
-45.0448743241
  0
LINE
  5
2FE
100
AcDbEntity
  8
RACCORDO
100
AcDbLine
 62
253
  6
CONTINUOUS
 10
52.3161325991
 20
-44.9267740474
 11
52.6423643919
 21
-44.9566974064
  0
LINE
  5
2FF
100
AcDbEntity
  8
RACCORDO
100
AcDbLine
 62
253
  6
CONTINUOUS
 10
55.3208428628
 20
-44.6791946373
 11
54.9950759731
 21
-44.6493149506
  0
LINE
  5
300
100
AcDbEntity
  8
RACCORDO
100
AcDbLine
 62
253
  6
CONTINUOUS
 10
53.1855149312
 20
-45.0448743241
 11
53.3135250846
 21
-45.0567004499
  0
LINE
  5
301
100
AcDbEntity
  8
RACCORDO
100
AcDbLine
 62
253
  6
CONTINUOUS
 10
54.453602788
 20
-44.5612886667
 11
54.3234503733
 21
-44.5492682321
  0
LINE
  5
302
100
AcDbEntity
  8
RACCORDO
100
AcDbLine
 62
253
  6
CONTINUOUS
 10
52.6423643919
 20
-44.9566974064
 11
52.8555008016
 21
-44.9771954229
  0
LINE
  5
303
100
AcDbEntity
  8
RACCORDO
100
AcDbLine
 62
253
  6
CONTINUOUS
 10
54.9950759731
 20
-44.6493149506
 11
54.782144806
 21
-44.6288393947
  0
LINE
  5
304
100
AcDbEntity
  8
RACCORDO
100
AcDbLine
 62
253
  6
CONTINUOUS
 10
52.8555008016
 20
-44.9771954229
 11
52.9840449911
 21
-44.9901874108
  0
LINE
  5
305
100
AcDbEntity
  8
RACCORDO
100
AcDbLine
 62
253
  6
CONTINUOUS
 10
54.782144806
 20
-44.6288393947
 11
54.6536409214
 21
-44.6158548824
  0
LWPOLYLINE
  5
306
100
AcDbEntity
  8
RACCORDO
100
AcDbPolyline
 62
253
  6
CONTINUOUS
 90
22
 70
0
 10
53.6911421793
 20
-46.3484945328
 10
53.6861824982
 20
-46.3479744741
 10
53.6811673176
 20
-46.3471186268
 10
53.6760966375
 20
-46.3459269909
 10
53.6709521035
 20
-46.3444152355
 10
53.66575207
 20
-46.3425676916
 10
53.6605516003
 20
-46.3403373521
 10
53.6553465473
 20
-46.3377228723
 10
53.6501410582
 20
-46.334725597
 10
53.6450026372
 20
-46.3313025532
 10
53.6399310734
 20
-46.3274607932
 10
53.6349265778
 20
-46.3231932646
 10
53.630057287
 20
-46.3184358373
 10
53.6253011252
 20
-46.3131737285
 10
53.6206801683
 20
-46.307421721
 10
53.6163287806
 20
-46.3011600325
 10
53.6122349367
 20
-46.2943615091
 10
53.608410662
 20
-46.2870533047
 10
53.6050263975
 20
-46.2792970991
 10
53.6021389566
 20
-46.2711134524
 10
53.5996915258
 20
-46.2624818044
 10
53.5976841051
 20
-46.2534021554
  0
LWPOLYLINE
  5
307
100
AcDbEntity
  8
RACCORDO
100
AcDbPolyline
 62
253
  6
CONTINUOUS
 90
22
 70
0
 10
53.9458332816
 20
-43.2574741557
 10
53.9507929617
 20
-43.2579942166
 10
53.9558081414
 20
-43.2588500652
 10
53.9608788207
 20
-43.2600417015
 10
53.966023354
 20
-43.2615534562
 10
53.9712233868
 20
-43.2634009985
 10
53.9764238561
 20
-43.2656313363
 10
53.9816289087
 20
-43.2682458144
 10
53.9868343977
 20
-43.2712430879
 10
53.9919728186
 20
-43.2746661298
 10
53.9970443823
 20
-43.2785078878
 10
54.0020488779
 20
-43.2827754142
 10
54.0069181686
 20
-43.2875328391
 10
54.0116743301
 20
-43.2927949451
 10
54.0162952867
 20
-43.2985469496
 10
54.020646674
 20
-43.304808635
 10
54.0247405176
 20
-43.3116071553
 10
54.028564792
 20
-43.3189153565
 10
54.0319490562
 20
-43.3266715588
 10
54.0348364967
 20
-43.3348552024
 10
54.037283927
 20
-43.3434868472
 10
54.0392913472
 20
-43.352566493
  0
LINE
  5
308
100
AcDbEntity
  8
RACCORDO
100
AcDbLine
 62
253
  6
CONTINUOUS
 10
54.6536409214
 20
-44.6158548824
 11
54.5657362114
 21
-44.6065554901
  0
LINE
  5
309
100
AcDbEntity
  8
RACCORDO
100
AcDbLine
 62
253
  6
CONTINUOUS
 10
52.9840449911
 20
-44.9901874108
 11
53.0719506422
 21
-44.9994900717
  0
LINE
  5
30A
100
AcDbEntity
  8
RACCORDO
100
AcDbLine
 62
253
  6
CONTINUOUS
 10
53.0719506422
 20
-44.9994900717
 11
53.1485424552
 21
-45.0079894215
  0
LINE
  5
30B
100
AcDbEntity
  8
RACCORDO
100
AcDbLine
 62
253
  6
CONTINUOUS
 10
54.5657362114
 20
-44.6065554901
 11
54.4891346356
 21
-44.5980581555
  0
LINE
  5
30C
100
AcDbEntity
  8
RACCORDO
100
AcDbLine
 62
253
  6
CONTINUOUS
 10
54.4891346356
 20
-44.5980581555
 11
54.4380328052
 21
-44.5921502014
  0
LINE
  5
30D
100
AcDbEntity
  8
RACCORDO
100
AcDbLine
 62
253
  6
CONTINUOUS
 10
53.1485424552
 20
-45.0079894215
 11
53.19982583
 21
-45.0139302587
  0
LWPOLYLINE
  5
30E
100
AcDbEntity
  8
RACCORDO
100
AcDbPolyline
 62
253
  6
CONTINUOUS
 90
3
 70
0
 10
53.19982583
 20
-45.0139302587
 10
53.2468763634
 20
-45.0195958265
 10
53.2616908493
 20
-45.0214438506
  0
LWPOLYLINE
  5
30F
100
AcDbEntity
  8
RACCORDO
100
AcDbPolyline
 62
253
  6
CONTINUOUS
 90
3
 70
0
 10
54.4380328052
 20
-44.5921502014
 10
54.3904969993
 20
-44.5864090276
 10
54.3752846306
 20
-44.5845248333
  0
LWPOLYLINE
  5
310
100
AcDbEntity
  8
RACCORDO
100
AcDbPolyline
 62
253
  6
CONTINUOUS
 90
22
 70
0
 10
53.6946980253
 20
-46.3053395403
 10
53.6922221613
 20
-46.3049495114
 10
53.6896982436
 20
-46.3043612697
 10
53.6871338811
 20
-46.3035681851
 10
53.6845387799
 20
-46.3025676607
 10
53.681920955
 20
-46.3013499123
 10
53.679286897
 20
-46.2998975998
 10
53.6766489005
 20
-46.2982050945
 10
53.6740179648
 20
-46.2962674303
 10
53.6714006647
 20
-46.2940678014
 10
53.6688166645
 20
-46.2916063622
 10
53.666275969
 20
-46.2888752371
 10
53.663775406
 20
-46.285842798
 10
53.6613311026
 20
-46.2824965425
 10
53.6589702381
 20
-46.2788407395
 10
53.6567120664
 20
-46.2748671538
 10
53.6545792047
 20
-46.2705649414
 10
53.6526024238
 20
-46.2659465288
 10
53.650814462
 20
-46.2610419525
 10
53.6492437172
 20
-46.2558677698
 10
53.6479155757
 20
-46.2504264045
 10
53.6468570105
 20
-46.2447316454
  0
LINE
  5
311
100
AcDbEntity
  8
RACCORDO
100
AcDbLine
 62
7
  6
CONTINUOUS
 10
53.3135250846
 20
-45.0567004499
 11
53.3901214877
 21
-45.0693410005
  0
LINE
  5
312
100
AcDbEntity
  8
RACCORDO
100
AcDbLine
 62
253
  6
CONTINUOUS
 10
54.0392913493
 20
-46.2534021771
 11
53.9901184439
 21
-46.2447316672
  0
LINE
  5
313
100
AcDbEntity
  8
RACCORDO
100
AcDbLine
 62
7
  6
CONTINUOUS
 10
-21.6053296735
 20
-25.2768017436
 11
-21.5572294175
 21
-25.2287014877
  0
LWPOLYLINE
  5
314
100
AcDbEntity
  8
RACCORDO
100
AcDbPolyline
 62
7
  6
CONTINUOUS
 90
13
 70
0
 10
51.5442825123
 20
38.2710309746
 10
51.5748524683
 20
38.2956070363
 10
51.6031325489
 20
38.3221416816
 10
51.6291227542
 20
38.3506349105
 10
51.6529572516
 20
38.3812828502
 10
51.6745018737
 20
38.4138893735
 10
51.693354118
 20
38.4478660992
 10
51.7094629527
 20
38.4832538576
 10
51.7228794095
 20
38.5200118183
 10
51.7333540817
 20
38.5574291099
 10
51.7408038335
 20
38.5952687749
 10
51.7453118006
 20
38.6337677707
 10
51.7468779829
 20
38.6729260972
  0
LWPOLYLINE
  5
315
100
AcDbEntity
  8
RACCORDO
100
AcDbPolyline
 62
253
  6
CONTINUOUS
 90
13
 70
0
 10
51.5576707382
 20
38.2634591893
 10
51.5881023307
 20
38.2877872588
 10
51.6165478
 20
38.314411035
 10
51.6428344008
 20
38.3431688646
 10
51.666802498
 20
38.3738861371
 10
51.6883065278
 20
38.4063763344
 10
51.7072158844
 20
38.440442161
 10
51.7234157276
 20
38.4758767663
 10
51.7368076656
 20
38.5124649779
 10
51.7473103526
 20
38.5499845922
 10
51.7548599984
 20
38.5882077645
 10
51.7594107495
 20
38.6269023943
 10
51.7609349599
 20
38.6658335079
  0
LWPOLYLINE
  5
316
100
AcDbEntity
  8
RACCORDO
100
AcDbPolyline
 62
253
  6
CONTINUOUS
 90
16
 70
0
 10
55.4850412164
 20
30.030374009
 10
55.496465722
 20
30.0379374442
 10
55.5072611981
 20
30.0461770867
 10
55.5174276449
 20
30.0550929368
 10
55.5270074968
 20
30.0647335199
 10
55.5359583193
 20
30.0750503104
 10
55.5441528086
 20
30.0858977317
 10
55.5515790241
 20
30.0972818873
 10
55.5582489065
 20
30.1091966737
 10
55.5640709738
 20
30.1214782039
 10
55.5690337642
 20
30.1341343653
 10
55.5731487395
 20
30.1471572704
 10
55.5763588027
 20
30.1603593702
 10
55.5786449216
 20
30.173678148
 10
55.5800261284
 20
30.1871761204
 10
55.5805024231
 20
30.2008532874
  0
LWPOLYLINE
  5
317
100
AcDbEntity
  8
RACCORDO
100
AcDbPolyline
 62
253
  6
CONTINUOUS
 90
16
 70
0
 10
55.6417658244
 20
29.7746221837
 10
55.6701603338
 20
29.7933824293
 10
55.6972012367
 20
29.8140280355
 10
55.7227718434
 20
29.8364591512
 10
55.7467573072
 20
29.8605750615
 10
55.7690463222
 20
29.8862703943
 10
55.789540637
 20
29.9134221847
 10
55.8081449486
 20
29.941903304
 10
55.824765606
 20
29.9715856359
 10
55.8393282313
 20
30.0023300543
 10
55.8517705657
 20
30.0339903847
 10
55.8620306988
 20
30.0664203395
 10
55.8700586779
 20
30.0994723899
 10
55.8758234316
 20
30.1329968927
 10
55.8792955397
 20
30.1668439654
 10
55.880451897
 20
30.2008592938
  0
LWPOLYLINE
  5
318
100
AcDbEntity
  8
RACCORDO
100
AcDbPolyline
 62
253
  6
CONTINUOUS
 90
22
 70
0
 10
53.9422774362
 20
-43.3006291653
 10
53.944753299
 20
-43.3010191968
 10
53.9472772157
 20
-43.3016074398
 10
53.9498415774
 20
-43.3024005248
 10
53.9524366781
 20
-43.3034010482
 10
53.9550545028
 20
-43.3046187945
 10
53.9576885605
 20
-43.3060711049
 10
53.9603265569
 20
-43.307763608
 10
53.9629574925
 20
-43.3097012699
 10
53.9655747924
 20
-43.3119008962
 10
53.9681587925
 20
-43.3143623326
 10
53.9706994879
 20
-43.3170934547
 10
53.9732000506
 20
-43.3201258904
 10
53.9756443536
 20
-43.323472142
 10
53.9780052178
 20
-43.3271279409
 10
53.9802633891
 20
-43.3311015223
 10
53.9823962504
 20
-43.3354037302
 10
53.9843730309
 20
-43.3400221382
 10
53.9861609921
 20
-43.3449267098
 10
53.9877317363
 20
-43.3501008878
 10
53.9890598773
 20
-43.3555422484
 10
53.9901184418
 20
-43.361237003
  0
LINE
  5
319
100
AcDbEntity
  8
RACCORDO
100
AcDbLine
 62
7
  6
CONTINUOUS
 10
54.3234503733
 20
-44.5492682321
 11
54.2468539705
 21
-44.5366276815
  0
LINE
  5
31A
100
AcDbEntity
  8
RACCORDO
100
AcDbLine
 62
253
  6
CONTINUOUS
 10
53.3100758554
 20
-45.1898890283
 11
52.3680698848
 21
-45.0237879597
  0
LINE
  5
31B
100
AcDbEntity
  8
RACCORDO
100
AcDbLine
 62
253
  6
CONTINUOUS
 10
54.2053924165
 20
-45.3113962147
 11
54.1562195111
 21
-45.3027257048
  0
LINE
  5
31C
100
AcDbEntity
  8
RACCORDO
100
AcDbLine
 62
253
  6
CONTINUOUS
 10
53.3187463653
 20
-45.1407161229
 11
52.3767403939
 21
-44.9746150542
  0
LINE
  5
31D
100
AcDbEntity
  8
RACCORDO
100
AcDbLine
 62
253
  6
CONTINUOUS
 10
54.3182290929
 20
-44.4652525591
 11
55.2602350561
 21
-44.6313536264
  0
LINE
  5
31E
100
AcDbEntity
  8
RACCORDO
100
AcDbLine
 62
253
  6
CONTINUOUS
 10
53.4315830418
 20
-44.2945724673
 11
53.4807559472
 21
-44.3032429772
  0
LINE
  5
31F
100
AcDbEntity
  8
RACCORDO
100
AcDbLine
 62
253
  6
CONTINUOUS
 10
54.3268996029
 20
-44.4160796537
 11
55.2689055653
 21
-44.5821807208
  0
LINE
  5
320
100
AcDbEntity
  8
RACCORDO
100
AcDbLine
 62
253
  6
CONTINUOUS
 10
53.5976841104
 20
-43.3525664967
 11
53.6468570158
 21
-43.3612370066
  0
LWPOLYLINE
  5
321
100
AcDbEntity
  8
RACCORDO
100
AcDbPolyline
 62
253
  6
CONTINUOUS
 90
19
 70
0
 10
52.3767403947
 20
-44.9746150543
 10
52.3705767868
 20
-44.9734551531
 10
52.3646952721
 20
-44.9719758823
 10
52.3591142052
 20
-44.9702081437
 10
52.3538449648
 20
-44.9681845986
 10
52.348901799
 20
-44.9659360785
 10
52.3443033297
 20
-44.9634888355
 10
52.3400514602
 20
-44.9608653331
 10
52.3361549876
 20
-44.9580988393
 10
52.3326376212
 20
-44.9552315579
 10
52.3295175744
 20
-44.9523110617
 10
52.3267650476
 20
-44.9493462743
 10
52.3243335269
 20
-44.9463160459
 10
52.3222235666
 20
-44.9432514965
 10
52.3204290851
 20
-44.9401575316
 10
52.318913985
 20
-44.9369604596
 10
52.3176798479
 20
-44.9336407907
 10
52.3167494741
 20
-44.9302406202
 10
52.3161325615
 20
-44.9267740497
  0
LWPOLYLINE
  5
322
100
AcDbEntity
  8
RACCORDO
100
AcDbPolyline
 62
253
  6
CONTINUOUS
 90
19
 70
0
 10
55.2602350553
 20
-44.6313536262
 10
55.2663986654
 20
-44.6325135277
 10
55.2722801823
 20
-44.6339927988
 10
55.2778612513
 20
-44.6357605375
 10
55.2831304937
 20
-44.6377840828
 10
55.2880736615
 20
-44.6400326029
 10
55.2926721328
 20
-44.6424798461
 10
55.2969240044
 20
-44.6451033487
 10
55.300820479
 20
-44.6478698429
 10
55.3043378473
 20
-44.6507371247
 10
55.3074578958
 20
-44.6536576215
 10
55.3102104243
 20
-44.6566224096
 10
55.3126419462
 20
-44.6596526386
 10
55.3147519075
 20
-44.6627171883
 10
55.3165463896
 20
-44.6658111533
 10
55.3180614899
 20
-44.6690082253
 10
55.3192956265
 20
-44.6723278942
 10
55.3202259994
 20
-44.6757280644
 10
55.3208429107
 20
-44.6791946346
  0
LWPOLYLINE
  5
323
100
AcDbEntity
  8
RACCORDO
100
AcDbPolyline
 62
7
  6
CONTINUOUS
 90
13
 70
0
 10
53.3901214877
 20
-45.0693410005
 10
53.4104130982
 20
-45.0737855802
 10
53.4299898201
 20
-45.0802720118
 10
53.4486574908
 20
-45.0887006046
 10
53.466216228
 20
-45.0989389912
 10
53.4825240839
 20
-45.1108645232
 10
53.4974833717
 20
-45.1243864982
 10
53.5109357866
 20
-45.1393516275
 10
53.5227651146
 20
-45.1556106352
 10
53.532917553
 20
-45.1730985603
 10
53.5412804908
 20
-45.191688711
 10
53.5477169649
 20
-45.211170038
 10
53.5521310696
 20
-45.2313505824
  0
LWPOLYLINE
  5
324
100
AcDbEntity
  8
RACCORDO
100
AcDbPolyline
 62
7
  6
CONTINUOUS
 90
13
 70
0
 10
54.2468539705
 20
-44.5366276815
 10
54.22656236
 20
-44.5321831018
 10
54.2069856382
 20
-44.5256966703
 10
54.1883179675
 20
-44.5172680774
 10
54.1707592303
 20
-44.5070296908
 10
54.1544513744
 20
-44.4951041589
 10
54.1394920866
 20
-44.4815821838
 10
54.1260396717
 20
-44.4666170545
 10
54.1142103436
 20
-44.4503580468
 10
54.1040579053
 20
-44.4328701217
 10
54.0956949675
 20
-44.4142799711
 10
54.0892584934
 20
-44.394798644
 10
54.0848443887
 20
-44.3746180996
  0
LWPOLYLINE
  5
325
100
AcDbEntity
  8
RACCORDO
100
AcDbPolyline
 62
253
  6
CONTINUOUS
 90
19
 70
0
 10
52.3680698848
 20
-45.0237879597
 10
52.3582361603
 20
-45.0215804245
 10
52.3489103004
 20
-45.0188491652
 10
52.3400923049
 20
-45.0155941816
 10
52.3317636347
 20
-45.0117586792
 10
52.323942829
 20
-45.0073994526
 10
52.3166855054
 20
-45.0026868857
 10
52.3099985146
 20
-44.9976129506
 10
52.3038750059
 20
-44.9921856752
 10
52.2983500457
 20
-44.9865995261
 10
52.2934638385
 20
-44.9809027376
 10
52.2891761798
 20
-44.9750470754
 10
52.2854015222
 20
-44.9690823028
 10
52.2821253481
 20
-44.9630535994
 10
52.2793621751
 20
-44.9569157856
 10
52.277070008
 20
-44.9505830858
 10
52.2752348487
 20
-44.9440269082
 10
52.2738706954
 20
-44.9372758447
 10
52.2729775481
 20
-44.9303298952
  0
LWPOLYLINE
  5
326
100
AcDbEntity
  8
RACCORDO
100
AcDbPolyline
 62
253
  6
CONTINUOUS
 90
19
 70
0
 10
55.2689055653
 20
-44.5821807208
 10
55.2787392909
 20
-44.5843882561
 10
55.2880651521
 20
-44.5871195156
 10
55.2968831488
 20
-44.5903744992
 10
55.3052118203
 20
-44.5942100014
 10
55.3130326274
 20
-44.5985692278
 10
55.3202899524
 20
-44.6032817948
 10
55.326976945
 20
-44.6083557301
 10
55.3331004556
 20
-44.613783006
 10
55.3386254176
 20
-44.6193691559
 10
55.3435116265
 20
-44.6250659455
 10
55.3477992869
 20
-44.630921609
 10
55.3515739459
 20
-44.6368863827
 10
55.3548501209
 20
-44.6429150868
 10
55.3576132945
 20
-44.649052901
 10
55.3599054613
 20
-44.6553856008
 10
55.3617406196
 20
-44.661941778
 10
55.3631047711
 20
-44.6686928407
 10
55.3639979158
 20
-44.6756387891
  0
LINE
  5
327
100
AcDbEntity
  8
RACCORDO
100
AcDbLine
 62
7
  6
CONTINUOUS
 10
52.3184877291
 20
41.597015659
 11
52.2974502614
 21
41.5759435009
  0
LINE
  5
328
100
AcDbEntity
  8
RACCORDO
100
AcDbLine
 62
7
  6
CONTINUOUS
 10
-21.6053296735
 20
-31.2768017436
 11
-21.5572294175
 21
-31.2287014877
  0
LWPOLYLINE
  5
329
100
AcDbEntity
  8
RACCORDO
100
AcDbPolyline
 62
7
  6
CONTINUOUS
 90
13
 70
0
 10
56.0965977471
 20
32.1258930183
 10
56.0660996291
 20
32.1013136744
 10
56.0378871543
 20
32.0747833515
 10
56.0119603225
 20
32.0463020498
 10
55.9881857101
 20
32.0156743638
 10
55.9666967408
 20
31.9830956988
 10
55.9478936862
 20
31.9491522709
 10
55.9318272786
 20
31.9138034863
 10
55.9184467858
 20
31.8770899388
 10
55.9080002828
 20
31.839719625
 10
55.9005704614
 20
31.8019285437
 10
55.8960746299
 20
31.7634806962
 10
55.8945127882
 20
31.7243760824
  0
LINE
  5
32A
100
AcDbEntity
  8
0
100
AcDbLine
 62
7
  6
CONTINUOUS
 10
48.2581173093
 20
-31.452984341
 11
48.1942048758
 21
-31.452984341
  0
LINE
  5
32B
100
AcDbEntity
  8
0
100
AcDbLine
 62
7
  6
CONTINUOUS
 10
-21.6211418511
 20
-31.452984341
 11
-21.5572294175
 21
-31.452984341
  0
LINE
  5
32C
100
AcDbEntity
  8
RACCORDO
100
AcDbLine
 62
7
  6
CONTINUOUS
 10
-21.5572294175
 20
-31.2768017436
 11
-21.6053296735
 21
-31.2768017436
  0
LINE
  5
32D
100
AcDbEntity
  8
RACCORDO
100
AcDbLine
 62
7
  6
CONTINUOUS
 10
48.1942048758
 20
-31.2768017436
 11
48.2423051317
 21
-31.2768017436
  0
LINE
  5
32E
100
AcDbEntity
  8
RACCORDO
100
AcDbLine
 62
7
  6
CONTINUOUS
 10
-21.5572294175
 20
-30.3291669384
 11
-21.6053296735
 21
-30.3291669384
  0
LINE
  5
32F
100
AcDbEntity
  8
RACCORDO
100
AcDbLine
 62
7
  6
CONTINUOUS
 10
48.1942048758
 20
-30.3291669384
 11
48.2423051317
 21
-30.3291669384
  0
LINE
  5
330
100
AcDbEntity
  8
0
100
AcDbLine
 62
7
  6
CONTINUOUS
 10
-21.5572294175
 20
-30.152984341
 11
-21.6211418511
 21
-30.152984341
  0
LINE
  5
331
100
AcDbEntity
  8
0
100
AcDbLine
 62
7
  6
CONTINUOUS
 10
48.1942048758
 20
-30.152984341
 11
48.2581173093
 21
-30.152984341
  0
LINE
  5
332
100
AcDbEntity
  8
RACCORDO
100
AcDbLine
 62
253
  6
CONTINUOUS
 10
55.641767642
 20
-50.2253807502
 11
55.6617477443
 21
-50.2356425723
  0
LINE
  5
333
100
AcDbEntity
  8
DRAFT
100
AcDbLine
 62
7
  6
CONTINUOUS
 10
-21.6677905494
 20
-2.1167060625
 11
-21.6739105566
 21
-2.1105860553
  0
LINE
  5
334
100
AcDbEntity
  8
RACCORDO
100
AcDbLine
 62
253
  6
CONTINUOUS
 10
53.3901214877
 20
34.9306589995
 11
53.3187463653
 21
34.8592838771
  0
LINE
  5
335
100
AcDbEntity
  8
RACCORDO
100
AcDbLine
 62
253
  6
CONTINUOUS
 10
54.0848443887
 20
35.6253819004
 11
54.1562195111
 21
35.6967570228
  0
LINE
  5
336
100
AcDbEntity
  8
RACCORDO
100
AcDbLine
 62
253
  6
CONTINUOUS
 10
53.5521310696
 20
34.7686494176
 11
53.4807559472
 21
34.6972742952
  0
LINE
  5
337
100
AcDbEntity
  8
RACCORDO
100
AcDbLine
 62
253
  6
CONTINUOUS
 10
54.2468539705
 20
35.4633723185
 11
54.3182290929
 21
35.5347474409
  0
LINE
  5
338
100
AcDbEntity
  8
RACCORDO
100
AcDbLine
 62
253
  6
CONTINUOUS
 10
51.7609334248
 20
29.3374609198
 11
51.7468779829
 21
29.3235595531
  0
LINE
  5
339
100
AcDbEntity
  8
RACCORDO
100
AcDbLine
 62
253
  6
CONTINUOUS
 10
52.2559406062
 20
28.8375612755
 11
52.238406938
 21
28.8215852557
  0
LINE
  5
33A
100
AcDbEntity
  8
0
100
AcDbLine
 62
7
  6
CONTINUOUS
 10
48.2581173093
 20
-25.452984341
 11
48.1942048758
 21
-25.452984341
  0
LINE
  5
33B
100
AcDbEntity
  8
0
100
AcDbLine
 62
7
  6
CONTINUOUS
 10
-21.6211418511
 20
-25.452984341
 11
-21.5572294175
 21
-25.452984341
  0
LINE
  5
33C
100
AcDbEntity
  8
RACCORDO
100
AcDbLine
 62
7
  6
CONTINUOUS
 10
-21.5572294175
 20
-25.2768017436
 11
-21.6053296735
 21
-25.2768017436
  0
LINE
  5
33D
100
AcDbEntity
  8
RACCORDO
100
AcDbLine
 62
7
  6
CONTINUOUS
 10
48.1942048758
 20
-25.2768017436
 11
48.2423051317
 21
-25.2768017436
  0
LINE
  5
33E
100
AcDbEntity
  8
RACCORDO
100
AcDbLine
 62
7
  6
CONTINUOUS
 10
-21.5572294175
 20
-24.3291669384
 11
-21.6053296735
 21
-24.3291669384
  0
LINE
  5
33F
100
AcDbEntity
  8
RACCORDO
100
AcDbLine
 62
7
  6
CONTINUOUS
 10
48.1942048758
 20
-24.3291669384
 11
48.2423051317
 21
-24.3291669384
  0
LINE
  5
340
100
AcDbEntity
  8
0
100
AcDbLine
 62
7
  6
CONTINUOUS
 10
-21.5572294175
 20
-24.152984341
 11
-21.6211418511
 21
-24.152984341
  0
LINE
  5
341
100
AcDbEntity
  8
0
100
AcDbLine
 62
7
  6
CONTINUOUS
 10
48.1942048758
 20
-24.152984341
 11
48.2581173093
 21
-24.152984341
  0
LINE
  5
342
100
AcDbEntity
  8
RACCORDO
100
AcDbLine
 62
253
  6
CONTINUOUS
 10
55.8945127882
 20
-48.2756239176
 11
55.8804573464
 21
-48.2685425416
  0
LINE
  5
343
100
AcDbEntity
  8
RACCORDO
100
AcDbLine
 62
253
  6
CONTINUOUS
 10
51.7468779829
 20
-41.3270739028
 11
51.7609334248
 21
-41.3341664921
  0
LINE
  5
344
100
AcDbEntity
  8
RACCORDO
100
AcDbLine
 62
253
  6
CONTINUOUS
 10
55.8804573464
 20
-49.7991407056
 11
55.8946641609
 21
-49.8070900405
  0
LINE
  5
345
100
AcDbEntity
  8
RACCORDO
100
AcDbLine
 62
253
  6
CONTINUOUS
 10
56.0965977471
 20
-47.8741069817
 11
56.0832013774
 21
-47.8665375541
  0
LWPOLYLINE
  5
346
100
AcDbEntity
  8
RACCORDO
100
AcDbPolyline
 62
7
  6
CONTINUOUS
 90
16
 70
0
 10
51.9974959528
 20
-51.1097763695
 10
51.9681753039
 20
-51.0915448547
 10
51.9403562501
 20
-51.0714668194
 10
51.9140387913
 20
-51.0495422636
 10
51.8891094592
 20
-51.0256973654
 10
51.8656817221
 20
-51.0000059467
 10
51.8440959853
 20
-50.9726894737
 10
51.82432433
 20
-50.9436331118
 10
51.806394675
 20
-50.9129516957
 10
51.7907311811
 20
-50.8812111948
 10
51.7774126405
 20
-50.8483491142
 10
51.766360261
 20
-50.8144279489
 10
51.7577618271
 20
-50.780201154
 10
51.7516799335
 20
-50.7459198812
 10
51.7480519855
 20
-50.7113329788
 10
51.7468779829
 20
-50.6764404469
  0
LINE
  5
347
100
AcDbEntity
  8
RACCORDO
100
AcDbLine
 62
253
  6
CONTINUOUS
 10
47.4897782584
 20
-62.0242291788
 11
47.4074614725
 21
-61.9419139905
  0
LINE
  5
348
100
AcDbEntity
  8
RACCORDO
100
AcDbLine
 62
253
  6
CONTINUOUS
 10
51.8185638816
 20
-62.052984341
 11
51.7975264138
 21
-62.0319468732
  0
LINE
  5
349
100
AcDbEntity
  8
DRAFT
100
AcDbLine
 62
7
  6
CONTINUOUS
 10
48.3108860149
 20
-57.9453826267
 11
48.3047660077
 21
-57.9392626195
  0
LINE
  5
34A
100
AcDbEntity
  8
RACCORDO
100
AcDbLine
 62
253
  6
CONTINUOUS
 10
52.3184877291
 20
-61.5530604934
 11
52.2974502614
 21
-61.5320230257
  0
LINE
  5
34B
100
AcDbEntity
  8
RACCORDO
100
AcDbLine
 62
253
  6
CONTINUOUS
 10
56.083201377
 20
38.2605688723
 11
55.9048934872
 21
38.0193658798
  0
LINE
  5
34C
100
AcDbEntity
  8
RACCORDO
100
AcDbLine
 62
7
  6
CONTINUOUS
 10
48.2423051317
 20
21.6708330616
 11
48.1942048758
 21
21.6227328057
  0
LINE
  5
34D
100
AcDbEntity
  8
RACCORDO
100
AcDbLine
 62
7
  6
CONTINUOUS
 10
48.2423051317
 20
15.6708330616
 11
48.1942048758
 21
15.6227328057
  0
LINE
  5
34E
100
AcDbEntity
  8
RACCORDO
100
AcDbLine
 62
253
  6
CONTINUOUS
 10
51.5442825123
 20
-41.7289690254
 11
51.5576772172
 21
-41.736549599
  0
LWPOLYLINE
  5
34F
100
AcDbEntity
  8
RACCORDO
100
AcDbPolyline
 62
253
  6
CONTINUOUS
 90
16
 70
0
 10
51.5576754321
 20
-47.869421505
 10
51.582194407
 20
-47.8886998347
 10
51.6054531292
 20
-47.9094658407
 10
51.6273673465
 20
-47.9316356649
 10
51.6478564058
 20
-47.9551265357
 10
51.6668386417
 20
-47.9798498796
 10
51.6842403191
 20
-48.0057012743
 10
51.6999906099
 20
-48.0325692225
 10
51.7140305174
 20
-48.0603590757
 10
51.7263168282
 20
-48.088983149
 10
51.7368071763
 20
-48.1183404475
 10
51.7454502763
 20
-48.1483063435
 10
51.7522051829
 20
-48.178753027
 10
51.7570491928
 20
-48.2095600916
 10
51.7599627304
 20
-48.240616135
 10
51.7609292891
 20
-48.2718021894
  0
LWPOLYLINE
  5
350
100
AcDbEntity
  8
RACCORDO
100
AcDbPolyline
 62
253
  6
CONTINUOUS
 90
16
 70
0
 10
51.735519664
 20
-47.6278545013
 10
51.775010976
 20
-47.6589684975
 10
51.8122161925
 20
-47.6921847262
 10
51.8471353134
 20
-47.7275031875
 10
51.8798841261
 20
-47.7650787072
 10
51.9103468432
 20
-47.8047564594
 10
51.9381761022
 20
-47.8460719665
 10
51.9633380965
 20
-47.8890312896
 10
51.9858666327
 20
-47.9336283676
 10
52.0055157684
 20
-47.9793805401
 10
52.0222616907
 20
-48.0263290491
 10
52.0361282126
 20
-48.0744326525
 10
52.0469408301
 20
-48.1230849639
 10
52.0546413754
 20
-48.1720838544
 10
52.0592880164
 20
-48.2216314528
 10
52.0608807531
 20
-48.2717277592
  0
LINE
  5
351
100
AcDbEntity
  8
RACCORDO
100
AcDbLine
 62
7
  6
CONTINUOUS
 10
-21.6053296735
 20
15.6708330616
 11
-21.5572294175
 21
15.6227328057
  0
LINE
  5
352
100
AcDbEntity
  8
RACCORDO
100
AcDbLine
 62
253
  6
CONTINUOUS
 10
51.774479055
 20
38.687348626
 11
51.8095368697
 21
38.748879263
  0
LWPOLYLINE
  5
353
100
AcDbEntity
  8
RACCORDO
100
AcDbPolyline
 62
253
  6
CONTINUOUS
 90
16
 70
0
 10
51.8095368697
 20
38.748879263
 10
51.830991306
 20
38.7856567379
 10
51.8433916724
 20
38.8065757622
 10
51.856770589
 20
38.8286147756
 10
51.8711101392
 20
38.8518551287
 10
51.886368313
 20
38.876215471
 10
51.9023129996
 20
38.9009294035
 10
51.9188469556
 20
38.9259534317
 10
51.9359261398
 20
38.9513310502
 10
51.9533581536
 20
38.9764263439
 10
51.9710145279
 20
39.0011314974
 10
51.9888616588
 20
39.0255543261
 10
52.0068424774
 20
39.0493823615
 10
52.0248903188
 20
39.0725114475
 10
52.0429280989
 20
39.0950457401
 10
52.0608877333
 20
39.1169852395
  0
LINE
  5
354
100
AcDbEntity
  8
RACCORDO
100
AcDbLine
 62
253
  6
CONTINUOUS
 10
55.6417676278
 20
40.6194120769
 11
55.4850269502
 21
40.3636677187
  0
LINE
  5
355
100
AcDbEntity
  8
DRAFT
100
AcDbLine
 62
7
  6
CONTINUOUS
 10
-21.6677905494
 20
-57.9392626195
 11
-21.6739105566
 21
-57.9453826267
  0
LINE
  5
356
100
AcDbEntity
  8
RACCORDO
100
AcDbLine
 62
253
  6
CONTINUOUS
 10
-24.1815122709
 20
-61.5530604934
 11
-24.1604748031
 21
-61.5320230257
  0
LINE
  5
357
100
AcDbEntity
  8
RACCORDO
100
AcDbLine
 62
253
  6
CONTINUOUS
 10
-23.6815884233
 20
-62.052984341
 11
-23.6605509555
 21
-62.0319468732
  0
LWPOLYLINE
  5
358
100
AcDbEntity
  8
RACCORDO
100
AcDbPolyline
 62
7
  6
CONTINUOUS
 90
19
 70
0
 10
55.6617477443
 20
-39.3703261097
 10
55.6897426606
 20
-39.3894250917
 10
55.7155937766
 20
-39.4097575255
 10
55.7393755599
 20
-39.4311506522
 10
55.7611778497
 20
-39.4534116171
 10
55.7810846599
 20
-39.4763798159
 10
55.7991481841
 20
-39.4999645595
 10
55.8154236969
 20
-39.524016835
 10
55.8300052218
 20
-39.5484173179
 10
55.8429648437
 20
-39.5731836738
 10
55.8543731402
 20
-39.598243356
 10
55.8642807472
 20
-39.6234708268
 10
55.8727024147
 20
-39.6488475038
 10
55.8797015107
 20
-39.6743454894
 10
55.8853290418
 20
-39.6998259258
 10
55.8895784131
 20
-39.725114023
 10
55.8924941017
 20
-39.7500930412
 10
55.8941668515
 20
-39.7747084718
 10
55.8946641609
 20
-39.7988786415
  0
LWPOLYLINE
  5
359
100
AcDbEntity
  8
RACCORDO
100
AcDbPolyline
 62
253
  6
CONTINUOUS
 90
16
 70
0
 10
56.0832031513
 20
-41.7394287275
 10
56.0587411299
 20
-41.720146364
 10
56.0355377599
 20
-41.6993819093
 10
56.0136768389
 20
-41.677218979
 10
55.9932386226
 20
-41.6537401187
 10
55.9743043173
 20
-41.6290336118
 10
55.9569472
 20
-41.603203449
 10
55.9412377132
 20
-41.5763606888
 10
55.9272345701
 20
-41.5485996651
 10
55.9149807591
 20
-41.5200077454
 10
55.9045184191
 20
-41.4906855464
 10
55.8958985536
 20
-41.4607572058
 10
55.8891618944
 20
-41.4303500122
 10
55.8843310203
 20
-41.3995838801
 10
55.8814253953
 20
-41.3685697674
 10
55.8804614555
 20
-41.3374261409
  0
LWPOLYLINE
  5
35A
100
AcDbEntity
  8
RACCORDO
100
AcDbPolyline
 62
253
  6
CONTINUOUS
 90
16
 70
0
 10
55.9051140835
 20
-41.9808315331
 10
55.8656869301
 20
-41.9496836183
 10
55.8285489858
 20
-41.9164486612
 10
55.7937002507
 20
-41.8811266618
 10
55.7610279535
 20
-41.8435657115
 10
55.7306448654
 20
-41.8039177189
 10
55.7028893001
 20
-41.76263841
 10
55.6777924832
 20
-41.7197194107
 10
55.6553231891
 20
-41.6751690951
 10
55.6357260543
 20
-41.629468312
 10
55.6190247685
 20
-41.5825760588
 10
55.6051956422
 20
-41.534533338
 10
55.5944122428
 20
-41.4859440062
 10
55.5867324262
 20
-41.437009349
 10
55.5820983366
 20
-41.3875280809
 10
55.5805099739
 20
-41.3375002017
  0
LWPOLYLINE
  5
35B
100
AcDbEntity
  8
RACCORDO
100
AcDbPolyline
 62
7
  6
CONTINUOUS
 90
28
 70
0
 10
50.766512834
 20
-47.0832771812
 10
50.7696409588
 20
-47.0860725312
 10
50.7727426764
 20
-47.0870916373
 10
50.7758179867
 20
-47.0863344994
 10
50.7788827697
 20
-47.0837842995
 10
50.7819211455
 20
-47.0794578557
 10
50.7848854737
 20
-47.0734056221
 10
50.7877681241
 20
-47.0656190098
 10
50.7905767269
 20
-47.0561066077
 10
50.793286533
 20
-47.0449446364
 10
50.7959061113
 20
-47.0320315594
 10
50.7984268929
 20
-47.0174689133
 10
50.800798421
 20
-47.0016375286
 10
50.8030008526
 20
-46.9846416088
 10
50.8050540308
 20
-46.9663769504
 10
50.8069670277
 20
-46.946911773
 10
50.8087437642
 20
-46.9262623665
 10
50.8103803195
 20
-46.904412441
 10
50.8118740031
 20
-46.8813813459
 10
50.8132275458
 20
-46.8571520749
 10
50.8144382169
 20
-46.8317416343
 10
50.8154951335
 20
-46.8052203929
 10
50.8163983087
 20
-46.7775443594
 10
50.8171477295
 20
-46.748757525
 10
50.8177324742
 20
-46.719062232
 10
50.818148902
 20
-46.688525928
 10
50.8184006537
 20
-46.6570811654
 10
50.8184877291
 20
-46.6247279442
  0
LINE
  5
35C
100
AcDbEntity
  8
RACCORDO
100
AcDbLine
 62
7
  6
CONTINUOUS
 10
-21.6053296735
 20
21.6708330616
 11
-21.5572294175
 21
21.6227328057
  0
LINE
  5
35D
100
AcDbEntity
  8
RACCORDO
100
AcDbLine
 62
7
  6
CONTINUOUS
 10
52.3184877291
 20
-51.202984341
 11
52.2974502614
 21
-51.1819121829
  0
LINE
  5
35E
100
AcDbEntity
  8
RACCORDO
100
AcDbLine
 62
253
  6
CONTINUOUS
 10
-20.7704860142
 20
-61.9419139905
 11
-20.8528028006
 21
-62.0242291789
  0
LINE
  5
35F
100
AcDbEntity
  8
DRAFT
100
AcDbLine
 62
7
  6
CONTINUOUS
 10
-21.5598443024
 20
-7.4848090352
 11
-21.6677905494
 21
-7.4892626195
  0
LINE
  5
360
100
AcDbEntity
  8
0
100
AcDbLine
 62
7
  6
CONTINUOUS
 10
48.235149545
 20
-7.772984341
 11
48.1968197607
 21
-7.772984341
  0
LINE
  5
361
100
AcDbEntity
  8
0
100
AcDbLine
 62
7
  6
CONTINUOUS
 10
-21.5981740867
 20
-7.772984341
 11
-21.5598443024
 21
-7.772984341
  0
LINE
  5
362
100
AcDbEntity
  8
DRAFT
100
AcDbLine
 62
7
  6
CONTINUOUS
 10
-21.6739105566
 20
-7.4953826267
 11
-21.5598443024
 21
-7.4953826267
  0
LINE
  5
363
100
AcDbEntity
  8
DRAFT
100
AcDbLine
 62
7
  6
CONTINUOUS
 10
48.1968197607
 20
-7.4953826267
 11
48.3108860149
 21
-7.4953826267
  0
LINE
  5
364
100
AcDbEntity
  8
DRAFT
100
AcDbLine
 62
7
  6
CONTINUOUS
 10
48.3047660077
 20
-7.4892626195
 11
48.1968197607
 21
-7.4848090352
  0
LINE
  5
365
100
AcDbEntity
  8
RACCORDO
100
AcDbLine
 62
253
  6
CONTINUOUS
 10
52.255940605
 20
-38.4435299576
 11
52.238406938
 21
-38.4275539377
  0
LINE
  5
366
100
AcDbEntity
  8
RACCORDO
100
AcDbLine
 62
253
  6
CONTINUOUS
 10
51.7609334248
 20
-38.9434296019
 11
51.7468779829
 21
-38.9295282351
  0
LINE
  5
367
100
AcDbEntity
  8
RACCORDO
100
AcDbLine
 62
253
  6
CONTINUOUS
 10
53.3901214877
 20
-44.5366276815
 11
53.3187463653
 21
-44.4652525591
  0
LINE
  5
368
100
AcDbEntity
  8
RACCORDO
100
AcDbLine
 62
253
  6
CONTINUOUS
 10
54.0848443887
 20
-45.2313505824
 11
54.1562195111
 21
-45.3027257048
  0
LINE
  5
369
100
AcDbEntity
  8
RACCORDO
100
AcDbLine
 62
253
  6
CONTINUOUS
 10
53.5521310696
 20
-44.3746180996
 11
53.4807559472
 21
-44.3032429772
  0
LINE
  5
36A
100
AcDbEntity
  8
RACCORDO
100
AcDbLine
 62
253
  6
CONTINUOUS
 10
54.2468539705
 20
-45.0693410005
 11
54.3182290929
 21
-45.1407161229
  0
LINE
  5
36B
100
AcDbEntity
  8
RACCORDO
100
AcDbLine
 62
7
  6
CONTINUOUS
 10
52.0608877333
 20
39.1169852395
 11
52.024233993
 21
39.0115911702
  0
LWPOLYLINE
  5
36C
100
AcDbEntity
  8
RACCORDO
100
AcDbPolyline
 62
7
  6
CONTINUOUS
 90
18
 70
0
 10
52.024233993
 20
39.0115911702
 10
51.9721117447
 20
38.8636829098
 10
51.9549630559
 20
38.8171531235
 10
51.9376060403
 20
38.7720335379
 10
51.9200821196
 20
38.7283304058
 10
51.9020122753
 20
38.6861164317
 10
51.8833880051
 20
38.6454250151
 10
51.8642178112
 20
38.6062227564
 10
51.8441481822
 20
38.5684821611
 10
51.8231609291
 20
38.5321867078
 10
51.8012742408
 20
38.497352918
 10
51.7781891722
 20
38.4640028617
 10
51.753851464
 20
38.4320757858
 10
51.7283153755
 20
38.4016324435
 10
51.7014447387
 20
38.3728771643
 10
51.6731941644
 20
38.3458780582
 10
51.6436090419
 20
38.3205670153
 10
51.6126893712
 20
38.2969440355
  0
LINE
  5
36D
100
AcDbEntity
  8
DRAFT
100
AcDbLine
 62
7
  6
CONTINUOUS
 10
48.3108860149
 20
-2.1105860553
 11
48.3047660077
 21
-2.1167060625
  0
LINE
  5
36E
100
AcDbEntity
  8
DRAFT
100
AcDbLine
 62
7
  6
CONTINUOUS
 10
48.3047660077
 20
-2.1167060625
 11
48.1968197607
 21
-2.1211596468
  0
LINE
  5
36F
100
AcDbEntity
  8
DRAFT
100
AcDbLine
 62
7
  6
CONTINUOUS
 10
-21.6739105566
 20
-2.1105860553
 11
-21.5598443024
 21
-2.1105860553
  0
LINE
  5
370
100
AcDbEntity
  8
DRAFT
100
AcDbLine
 62
7
  6
CONTINUOUS
 10
48.1968197607
 20
-2.1105860553
 11
48.3108860149
 21
-2.1105860553
  0
LINE
  5
371
100
AcDbEntity
  8
0
100
AcDbLine
 62
7
  6
CONTINUOUS
 10
-21.5598443024
 20
-1.832984341
 11
-21.5981740867
 21
-1.832984341
  0
LINE
  5
372
100
AcDbEntity
  8
0
100
AcDbLine
 62
7
  6
CONTINUOUS
 10
48.1968197607
 20
-1.832984341
 11
48.235149545
 21
-1.832984341
  0
LINE
  5
373
100
AcDbEntity
  8
DRAFT
100
AcDbLine
 62
7
  6
CONTINUOUS
 10
-21.5598443024
 20
-2.1211596468
 11
-21.6677905494
 21
-2.1167060625
  0
LINE
  5
374
100
AcDbEntity
  8
RACCORDO
100
AcDbLine
 62
7
  6
CONTINUOUS
 10
48.2423051317
 20
-31.2768017436
 11
48.1942048758
 21
-31.2287014877
  0
LINE
  5
375
100
AcDbEntity
  8
RACCORDO
100
AcDbLine
 62
253
  6
CONTINUOUS
 10
56.083201377
 20
-47.8665375544
 11
55.9048934871
 21
-47.6253345618
  0
LINE
  5
376
100
AcDbEntity
  8
RACCORDO
100
AcDbLine
 62
253
  6
CONTINUOUS
 10
51.5576772175
 20
-41.7365495987
 11
51.7356778014
 21
-41.977979463
  0
LINE
  5
377
100
AcDbEntity
  8
RACCORDO
100
AcDbLine
 62
7
  6
CONTINUOUS
 10
48.2423051317
 20
-25.2768017436
 11
48.1942048758
 21
-25.2287014877
  0
LINE
  5
378
100
AcDbEntity
  8
DRAFT
100
AcDbLine
 62
7
  6
CONTINUOUS
 10
-21.6739105566
 20
48.3394139447
 11
-21.6677905494
 21
48.3332939375
  0
LINE
  5
379
100
AcDbEntity
  8
RACCORDO
100
AcDbLine
 62
253
  6
CONTINUOUS
 10
-24.1815122709
 20
51.9470918114
 11
-24.1604748031
 21
51.9260543436
  0
LINE
  5
37A
100
AcDbEntity
  8
RACCORDO
100
AcDbLine
 62
253
  6
CONTINUOUS
 10
-23.6815884233
 20
52.447015659
 11
-23.6605509555
 21
52.4259781912
  0
LINE
  5
37B
100
AcDbEntity
  8
RACCORDO
100
AcDbLine
 62
253
  6
CONTINUOUS
 10
55.6417676278
 20
-50.2253807589
 11
55.4850269475
 21
-49.9696363963
  0
LWPOLYLINE
  5
37C
100
AcDbEntity
  8
RACCORDO
100
AcDbPolyline
 62
7
  6
CONTINUOUS
 90
7
 70
0
 10
53.2616907288
 20
-45.021443654
 10
53.2669890108
 20
-45.0303971373
 10
53.2736896718
 20
-45.0381884926
 10
53.2817411973
 20
-45.0447603988
 10
53.2910945043
 20
-45.0500632573
 10
53.3017034232
 20
-45.0540549277
 10
53.3135251306
 20
-45.0567004654
  0
LWPOLYLINE
  5
37D
100
AcDbEntity
  8
RACCORDO
100
AcDbPolyline
 62
7
  6
CONTINUOUS
 90
7
 70
0
 10
54.3752848121
 20
-44.5845251295
 10
54.3699864835
 20
-44.5755716014
 10
54.3632857908
 20
-44.5677802145
 10
54.3552342495
 20
-44.5612082893
 10
54.345880943
 20
-44.5559054234
 10
54.335272041
 20
-44.5519137559
 10
54.3234503672
 20
-44.54926823
  0
LINE
  5
37E
100
AcDbEntity
  8
RACCORDO
100
AcDbLine
 62
253
  6
CONTINUOUS
 10
52.3680698848
 20
34.9762120403
 11
52.3767403947
 21
35.0253849457
  0
LWPOLYLINE
  5
37F
100
AcDbEntity
  8
RACCORDO
100
AcDbPolyline
 62
7
  6
CONTINUOUS
 90
13
 70
0
 10
53.5521310696
 20
35.6253819004
 10
53.547600397
 20
35.6047826599
 10
53.541012087
 20
35.5850367564
 10
53.5325052282
 20
35.5663312535
 10
53.5222704967
 20
35.5488856223
 10
53.5104470823
 20
35.5327816025
 10
53.4970672712
 20
35.5180017709
 10
53.4822843944
 20
35.5046997108
 10
53.4662398913
 20
35.4929844329
 10
53.4488752927
 20
35.4828443618
 10
53.4302533253
 20
35.4744075904
 10
53.4106072137
 20
35.4678716733
 10
53.3901214877
 20
35.4633723185
  0
LWPOLYLINE
  5
380
100
AcDbEntity
  8
RACCORDO
100
AcDbPolyline
 62
7
  6
CONTINUOUS
 90
13
 70
0
 10
54.0848443887
 20
34.7686494176
 10
54.0893750613
 20
34.789248658
 10
54.0959633713
 20
34.8089945615
 10
54.10447023
 20
34.8277000645
 10
54.1147049616
 20
34.8451456957
 10
54.126528376
 20
34.8612497155
 10
54.139908187
 20
34.8760295471
 10
54.1546910638
 20
34.8893316071
 10
54.1707355669
 20
34.9010468851
 10
54.1881001656
 20
34.9111869562
 10
54.206722133
 20
34.9196237276
 10
54.2263682445
 20
34.9261596447
 10
54.2468539705
 20
34.9306589995
  0
LWPOLYLINE
  5
381
100
AcDbEntity
  8
RACCORDO
100
AcDbPolyline
 62
253
  6
CONTINUOUS
 90
19
 70
0
 10
53.5976841104
 20
36.6474335033
 10
53.5998916456
 20
36.6572672278
 10
53.602622905
 20
36.6665930877
 10
53.6058778886
 20
36.6754110832
 10
53.6097133909
 20
36.6837397534
 10
53.6140726175
 20
36.6915605591
 10
53.6187851845
 20
36.6988178827
 10
53.6238591195
 20
36.7055048736
 10
53.6292863949
 20
36.7116283822
 10
53.6348725441
 20
36.7171533424
 10
53.6405693325
 20
36.7220395496
 10
53.6464249947
 20
36.7263272083
 10
53.6523897673
 20
36.7301018659
 10
53.6584184707
 20
36.73337804
 10
53.6645562845
 20
36.7361412131
 10
53.6708889843
 20
36.7384333801
 10
53.6774451619
 20
36.7402685394
 10
53.6841962254
 20
36.7416326927
 10
53.6911421749
 20
36.74252584
  0
LWPOLYLINE
  5
382
100
AcDbEntity
  8
RACCORDO
100
AcDbPolyline
 62
253
  6
CONTINUOUS
 90
19
 70
0
 10
54.0392913493
 20
33.7465978229
 10
54.037083814
 20
33.7367640972
 10
54.0343525546
 20
33.727438236
 10
54.031097571
 20
33.7186202393
 10
54.0272620687
 20
33.7102915678
 10
54.0229028423
 20
33.7024707607
 10
54.0181902753
 20
33.6952134357
 10
54.01311634
 20
33.6885264431
 10
54.0076890641
 20
33.6824029325
 10
54.0021029143
 20
33.6768779705
 10
53.9964061247
 20
33.6719917616
 10
53.9905504611
 20
33.6677041012
 10
53.9845856874
 20
33.6639294423
 10
53.9785569834
 20
33.6606532672
 10
53.9724191692
 20
33.6578900936
 10
53.9660864694
 20
33.6555979268
 10
53.9595302922
 20
33.6537627685
 10
53.9527792294
 20
33.652398617
 10
53.945833281
 20
33.6515054723
  0
LINE
  5
383
100
AcDbEntity
  8
RACCORDO
100
AcDbLine
 62
253
  6
CONTINUOUS
 10
-20.8528028001
 20
52.4182604968
 11
-20.7704860142
 21
52.3359453085
  0
LINE
  5
384
100
AcDbEntity
  8
0
100
AcDbLine
 62
253
  6
CONTINUOUS
 10
47.7039366455
 20
-61.902984341
 11
47.7039366455
 21
52.297015659
  0
LINE
  5
385
100
AcDbEntity
  8
RACCORDO
100
AcDbLine
 62
253
  6
CONTINUOUS
 10
47.9397097215
 20
-61.902984341
 11
47.9397097215
 21
-62.0319468732
  0
LINE
  5
386
100
AcDbEntity
  8
RACCORDO
100
AcDbLine
 62
253
  6
CONTINUOUS
 10
47.9397097215
 20
52.297015659
 11
47.9397097215
 21
52.4259781912
  0
LINE
  5
387
100
AcDbEntity
  8
0
100
AcDbLine
 62
253
  6
CONTINUOUS
 10
48.1684212339
 20
-61.902984341
 11
48.1684212339
 21
52.297015659
  0
LINE
  5
388
100
AcDbEntity
  8
0
100
AcDbLine
 62
7
  6
CONTINUOUS
 10
48.1942048758
 20
-31.452984341
 11
48.1942048758
 21
-30.152984341
  0
LINE
  5
389
100
AcDbEntity
  8
0
100
AcDbLine
 62
7
  6
CONTINUOUS
 10
48.1942048758
 20
-25.452984341
 11
48.1942048758
 21
-24.152984341
  0
LINE
  5
38A
100
AcDbEntity
  8
0
100
AcDbLine
 62
7
  6
CONTINUOUS
 10
48.1942048758
 20
14.547015659
 11
48.1942048758
 21
15.847015659
  0
LINE
  5
38B
100
AcDbEntity
  8
0
100
AcDbLine
 62
7
  6
CONTINUOUS
 10
48.1942048758
 20
20.547015659
 11
48.1942048758
 21
21.847015659
  0
LINE
  5
38C
100
AcDbEntity
  8
0
100
AcDbLine
 62
7
  6
CONTINUOUS
 10
48.1968197607
 20
-58.227984341
 11
48.1968197607
 21
-52.277984341
  0
LINE
  5
38D
100
AcDbEntity
  8
0
100
AcDbLine
 62
7
  6
CONTINUOUS
 10
48.1968197607
 20
-7.772984341
 11
48.1968197607
 21
-1.832984341
  0
LINE
  5
38E
100
AcDbEntity
  8
0
100
AcDbLine
 62
7
  6
CONTINUOUS
 10
48.1968197607
 20
42.672015659
 11
48.1968197607
 21
48.622015659
  0
LINE
  5
38F
100
AcDbEntity
  8
0
100
AcDbLine
 62
7
  6
CONTINUOUS
 10
48.235149545
 20
48.622015659
 11
48.235149545
 21
48.3394139447
  0
LINE
  5
390
100
AcDbEntity
  8
0
100
AcDbLine
 62
7
  6
CONTINUOUS
 10
48.235149545
 20
42.9546173733
 11
48.235149545
 21
42.672015659
  0
LINE
  5
391
100
AcDbEntity
  8
0
100
AcDbLine
 62
7
  6
CONTINUOUS
 10
48.235149545
 20
-1.832984341
 11
48.235149545
 21
-2.1105860553
  0
LINE
  5
392
100
AcDbEntity
  8
0
100
AcDbLine
 62
7
  6
CONTINUOUS
 10
48.235149545
 20
-7.4953826267
 11
48.235149545
 21
-7.772984341
  0
LINE
  5
393
100
AcDbEntity
  8
0
100
AcDbLine
 62
7
  6
CONTINUOUS
 10
48.235149545
 20
-52.277984341
 11
48.235149545
 21
-52.5605860553
  0
LINE
  5
394
100
AcDbEntity
  8
0
100
AcDbLine
 62
7
  6
CONTINUOUS
 10
48.235149545
 20
-57.9453826267
 11
48.235149545
 21
-58.227984341
  0
LINE
  5
395
100
AcDbEntity
  8
DRAFT
100
AcDbLine
 62
7
  6
CONTINUOUS
 10
48.2423051317
 20
-31.2768017436
 11
48.2423051317
 21
-30.3291669384
  0
LINE
  5
396
100
AcDbEntity
  8
DRAFT
100
AcDbLine
 62
7
  6
CONTINUOUS
 10
48.2423051317
 20
-25.2768017436
 11
48.2423051317
 21
-24.3291669384
  0
LINE
  5
397
100
AcDbEntity
  8
DRAFT
100
AcDbLine
 62
7
  6
CONTINUOUS
 10
48.2423051317
 20
14.7231982564
 11
48.2423051317
 21
15.6708330616
  0
LINE
  5
398
100
AcDbEntity
  8
DRAFT
100
AcDbLine
 62
7
  6
CONTINUOUS
 10
48.2423051317
 20
20.7231982564
 11
48.2423051317
 21
21.6708330616
  0
LINE
  5
399
100
AcDbEntity
  8
0
100
AcDbLine
 62
7
  6
CONTINUOUS
 10
48.2581173093
 20
-61.902984341
 11
48.2581173093
 21
-57.9453826267
  0
LINE
  5
39A
100
AcDbEntity
  8
0
100
AcDbLine
 62
7
  6
CONTINUOUS
 10
48.2581173093
 20
-52.5605860553
 11
48.2581173093
 21
-31.452984341
  0
LINE
  5
39B
100
AcDbEntity
  8
0
100
AcDbLine
 62
7
  6
CONTINUOUS
 10
48.2581173093
 20
-30.152984341
 11
48.2581173093
 21
-25.452984341
  0
LINE
  5
39C
100
AcDbEntity
  8
0
100
AcDbLine
 62
7
  6
CONTINUOUS
 10
48.2581173093
 20
-24.152984341
 11
48.2581173093
 21
-7.4953826267
  0
LINE
  5
39D
100
AcDbEntity
  8
0
100
AcDbLine
 62
7
  6
CONTINUOUS
 10
48.2581173093
 20
-2.1105860553
 11
48.2581173093
 21
14.547015659
  0
LINE
  5
39E
100
AcDbEntity
  8
0
100
AcDbLine
 62
7
  6
CONTINUOUS
 10
48.2581173093
 20
15.847015659
 11
48.2581173093
 21
20.547015659
  0
LINE
  5
39F
100
AcDbEntity
  8
0
100
AcDbLine
 62
7
  6
CONTINUOUS
 10
48.2581173093
 20
21.847015659
 11
48.2581173093
 21
42.9546173733
  0
LINE
  5
3A0
100
AcDbEntity
  8
0
100
AcDbLine
 62
7
  6
CONTINUOUS
 10
48.2581173093
 20
48.3394139447
 11
48.2581173093
 21
52.297015659
  0
LINE
  5
3A1
100
AcDbEntity
  8
DRAFT
100
AcDbLine
 62
7
  6
CONTINUOUS
 10
48.3047660077
 20
-2.1167060625
 11
48.3047660077
 21
-7.4892626195
  0
LINE
  5
3A2
100
AcDbEntity
  8
DRAFT
100
AcDbLine
 62
7
  6
CONTINUOUS
 10
48.3047660077
 20
-52.5667060625
 11
48.3047660077
 21
-57.9392626195
  0
LINE
  5
3A3
100
AcDbEntity
  8
DRAFT
100
AcDbLine
 62
7
  6
CONTINUOUS
 10
48.3047660077
 20
42.9607373805
 11
48.3047660077
 21
48.3332939375
  0
LINE
  5
3A4
100
AcDbEntity
  8
DRAFT
100
AcDbLine
 62
7
  6
CONTINUOUS
 10
48.3108860149
 20
-2.1105860553
 11
48.3108860149
 21
-7.4953826267
  0
LINE
  5
3A5
100
AcDbEntity
  8
DRAFT
100
AcDbLine
 62
7
  6
CONTINUOUS
 10
48.3108860149
 20
-52.5605860553
 11
48.3108860149
 21
-57.9453826267
  0
LINE
  5
3A6
100
AcDbEntity
  8
DRAFT
100
AcDbLine
 62
7
  6
CONTINUOUS
 10
48.3108860149
 20
42.9546173733
 11
48.3108860149
 21
48.3394139447
  0
LWPOLYLINE
  5
3A7
100
AcDbEntity
  8
RACCORDO
100
AcDbPolyline
 62
7
  6
CONTINUOUS
 90
10
 70
0
 10
50.8102656864
 20
36.3013399291
 10
50.8024629335
 20
36.1371596226
 10
50.7974373891
 20
36.0181059955
 10
50.7930821006
 20
35.8996140014
 10
50.7893975152
 20
35.7818110718
 10
50.7863831857
 20
35.6645697753
 10
50.7840377706
 20
35.5475078179
 10
50.782360823
 20
35.4304977683
 10
50.7813527898
 20
35.3136670577
 10
50.7810136711
 20
35.1970156862
  0
LINE
  5
3A8
100
AcDbEntity
  8
RACCORDO
100
AcDbLine
 62
253
  6
CONTINUOUS
 10
53.6586832636
 20
36.3086692566
 11
53.6415518237
 21
36.1325758836
  0
LINE
  5
3A9
100
AcDbEntity
  8
RACCORDO
100
AcDbLine
 62
253
  6
CONTINUOUS
 10
53.6415518237
 20
36.1325758836
 11
53.6288755632
 21
36.0083035257
  0
LWPOLYLINE
  5
3AA
100
AcDbEntity
  8
RACCORDO
100
AcDbPolyline
 62
253
  6
CONTINUOUS
 90
22
 70
0
 10
52.2729775438
 20
35.3243612114
 10
52.2734976047
 20
35.3293208915
 10
52.2743534533
 20
35.3343360712
 10
52.2755450896
 20
35.3394067505
 10
52.2770568443
 20
35.3445512838
 10
52.2789043866
 20
35.3497513167
 10
52.2811347244
 20
35.3549517859
 10
52.2837492025
 20
35.3601568386
 10
52.286746476
 20
35.3653623276
 10
52.2901695179
 20
35.3705007485
 10
52.2940112759
 20
35.3755723122
 10
52.2982788023
 20
35.3805768078
 10
52.3030362272
 20
35.3854460985
 10
52.3082983332
 20
35.39020226
 10
52.3140503377
 20
35.3948232166
 10
52.3203120231
 20
35.3991746039
 10
52.3271105434
 20
35.4032684475
 10
52.3344187446
 20
35.4070927219
 10
52.3421749469
 20
35.4104769861
 10
52.3503585905
 20
35.4133644266
 10
52.3589902353
 20
35.4158118569
 10
52.3680698812
 20
35.4178192771
  0
LINE
  5
3AB
100
AcDbEntity
  8
RACCORDO
100
AcDbLine
 62
253
  6
CONTINUOUS
 10
53.6288755632
 20
36.0083035257
 11
53.6197847931
 21
35.9234493844
  0
LINE
  5
3AC
100
AcDbEntity
  8
RACCORDO
100
AcDbLine
 62
253
  6
CONTINUOUS
 10
54.0080252532
 20
34.3850145285
 11
54.0171132987
 21
34.4698742177
  0
LINE
  5
3AD
100
AcDbEntity
  8
RACCORDO
100
AcDbLine
 62
253
  6
CONTINUOUS
 10
53.6197847931
 20
35.9234493844
 11
53.61146572
 21
35.8493159166
  0
LINE
  5
3AE
100
AcDbEntity
  8
RACCORDO
100
AcDbLine
 62
253
  6
CONTINUOUS
 10
54.0171132987
 20
34.4698742177
 11
54.0254273626
 21
34.5439997427
  0
LINE
  5
3AF
100
AcDbEntity
  8
RACCORDO
100
AcDbLine
 62
253
  6
CONTINUOUS
 10
53.61146572
 20
35.8493159166
 11
53.6056253045
 21
35.7995747157
  0
LINE
  5
3B0
100
AcDbEntity
  8
RACCORDO
100
AcDbLine
 62
253
  6
CONTINUOUS
 10
54.0254273626
 20
34.5439997427
 11
54.0312469678
 21
34.5935949849
  0
LWPOLYLINE
  5
3B1
100
AcDbEntity
  8
RACCORDO
100
AcDbPolyline
 62
253
  6
CONTINUOUS
 90
3
 70
0
 10
53.6056253045
 20
35.7995747157
 10
53.6018762437
 20
35.7686270247
 10
53.6000282195
 20
35.7538125388
  0
LINE
  5
3B2
100
AcDbEntity
  8
RACCORDO
100
AcDbLine
 62
253
  6
CONTINUOUS
 10
54.0312469678
 20
34.5935949849
 11
54.0369472368
 21
34.6402187575
  0
LWPOLYLINE
  5
3B3
100
AcDbEntity
  8
RACCORDO
100
AcDbPolyline
 62
253
  6
CONTINUOUS
 90
22
 70
0
 10
52.3161325534
 20
35.3208053661
 10
52.3165225849
 20
35.3232812288
 10
52.3171108279
 20
35.3258051456
 10
52.3179039129
 20
35.3283695073
 10
52.3189044363
 20
35.330964608
 10
52.3201221827
 20
35.3335824326
 10
52.321574493
 20
35.3362164903
 10
52.3232669961
 20
35.3388544867
 10
52.325204658
 20
35.3414854223
 10
52.3274042843
 20
35.3441027223
 10
52.3298657207
 20
35.3466867224
 10
52.3325968428
 20
35.3492274177
 10
52.3356292785
 20
35.3517279805
 10
52.3389755301
 20
35.3541722835
 10
52.342631329
 20
35.3565331476
 10
52.3466049104
 20
35.3587913189
 10
52.3509071183
 20
35.3609241802
 10
52.3555255263
 20
35.3629009607
 10
52.3604300979
 20
35.364688922
 10
52.3656042759
 20
35.3662596662
 10
52.3710456365
 20
35.3675878071
 10
52.3767403911
 20
35.3686463717
  0
LWPOLYLINE
  5
3B4
100
AcDbEntity
  8
RACCORDO
100
AcDbPolyline
 62
253
  6
CONTINUOUS
 90
22
 70
0
 10
55.3208429284
 20
35.0732259551
 10
55.3204528995
 20
35.0707500912
 10
55.3198646579
 20
35.0682261734
 10
55.3190715732
 20
35.065661811
 10
55.3180710488
 20
35.0630667098
 10
55.3168533004
 20
35.0604488848
 10
55.3154009879
 20
35.0578148269
 10
55.3137084827
 20
35.0551768303
 10
55.3117708184
 20
35.0525458946
 10
55.3095711895
 20
35.0499285946
 10
55.3071097503
 20
35.0473445943
 10
55.3043786252
 20
35.0448038988
 10
55.3013461861
 20
35.0423033359
 10
55.2979999307
 20
35.0398590325
 10
55.2943441276
 20
35.037498168
 10
55.2903705419
 20
35.0352399962
 10
55.2860683295
 20
35.0331071345
 10
55.2814499169
 20
35.0311303536
 10
55.2765453406
 20
35.0293423918
 10
55.2713711579
 20
35.0277716471
 10
55.2659297927
 20
35.0264435056
 10
55.2602350335
 20
35.0253849404
  0
LINE
  5
3B5
100
AcDbEntity
  8
RACCORDO
100
AcDbLine
 62
7
  6
CONTINUOUS
 10
53.5647716202
 20
35.7019783035
 11
53.5521310696
 21
35.6253819004
  0
LINE
  5
3B6
100
AcDbEntity
  8
RACCORDO
100
AcDbLine
 62
7
  6
CONTINUOUS
 10
54.0722038381
 20
34.6920530148
 11
54.0848443887
 21
34.7686494176
  0
LINE
  5
3B7
100
AcDbEntity
  8
RACCORDO
100
AcDbLine
 62
253
  6
CONTINUOUS
 10
53.4315830418
 20
35.7054275327
 11
53.5976841104
 21
36.6474335033
  0
LINE
  5
3B8
100
AcDbEntity
  8
RACCORDO
100
AcDbLine
 62
253
  6
CONTINUOUS
 10
53.3100758554
 20
34.8101109717
 11
53.3187463653
 21
34.8592838771
  0
LINE
  5
3B9
100
AcDbEntity
  8
RACCORDO
100
AcDbLine
 62
253
  6
CONTINUOUS
 10
53.4807559472
 20
35.6967570228
 11
53.646857016
 21
36.6387629942
  0
LINE
  5
3BA
100
AcDbEntity
  8
RACCORDO
100
AcDbLine
 62
253
  6
CONTINUOUS
 10
54.1562195111
 20
34.6972742952
 11
53.9901184438
 21
33.755268332
  0
LINE
  5
3BB
100
AcDbEntity
  8
RACCORDO
100
AcDbLine
 62
253
  6
CONTINUOUS
 10
54.3268996029
 20
35.5839203463
 11
54.3182290929
 21
35.5347474409
  0
LINE
  5
3BC
100
AcDbEntity
  8
RACCORDO
100
AcDbLine
 62
253
  6
CONTINUOUS
 10
54.2053924165
 20
34.6886037853
 11
54.0392913493
 21
33.7465978229
  0
LINE
  5
3BD
100
AcDbEntity
  8
RACCORDO
100
AcDbLine
 62
253
  6
CONTINUOUS
 10
55.2689055653
 20
35.4178192792
 11
55.2602350553
 21
35.3686463738
  0
LWPOLYLINE
  5
3BE
100
AcDbEntity
  8
RACCORDO
100
AcDbPolyline
 62
253
  6
CONTINUOUS
 90
19
 70
0
 10
53.6468570158
 20
36.6387629934
 10
53.648016917
 20
36.6449266013
 10
53.6494961879
 20
36.6508081161
 10
53.6512639264
 20
36.6563891829
 10
53.6532874716
 20
36.6616584233
 10
53.6555359916
 20
36.6666015891
 10
53.6579832346
 20
36.6712000584
 10
53.6606067371
 20
36.675451928
 10
53.6633732309
 20
36.6793484005
 10
53.6662405123
 20
36.682865767
 10
53.6691610084
 20
36.6859858137
 10
53.6721257959
 20
36.6887383405
 10
53.6751560243
 20
36.6911698612
 10
53.6782205737
 20
36.6932798215
 10
53.6813145385
 20
36.695074303
 10
53.6845116105
 20
36.6965894031
 10
53.6878312794
 20
36.6978235402
 10
53.6912314499
 20
36.698753914
 10
53.6946980205
 20
36.6993708267
  0
LWPOLYLINE
  5
3BF
100
AcDbEntity
  8
RACCORDO
100
AcDbPolyline
 62
253
  6
CONTINUOUS
 90
19
 70
0
 10
53.9901184439
 20
33.7552683328
 10
53.9889585424
 20
33.7491047227
 10
53.9874792713
 20
33.7432232058
 10
53.9857115326
 20
33.7376421368
 10
53.9836879874
 20
33.7323728944
 10
53.9814394672
 20
33.7274297267
 10
53.9789922241
 20
33.7228312553
 10
53.9763687214
 20
33.7185793837
 10
53.9736022273
 20
33.7146829091
 10
53.9707349455
 20
33.7111655408
 10
53.9678144487
 20
33.7080454923
 10
53.9648496605
 20
33.7052929639
 10
53.9618194315
 20
33.7028614419
 10
53.9587548818
 20
33.7007514807
 10
53.9556609168
 20
33.6989569985
 10
53.9524638448
 20
33.6974418983
 10
53.949144176
 20
33.6962077616
 10
53.9457440057
 20
33.6952773887
 10
53.9422774355
 20
33.6946604774
  0
LINE
  5
3C0
100
AcDbEntity
  8
RACCORDO
100
AcDbLine
 62
7
  6
CONTINUOUS
 10
48.2423051317
 20
-24.3291669384
 11
48.1942048758
 21
-24.3772671943
  0
LINE
  5
3C1
100
AcDbEntity
  8
RACCORDO
100
AcDbLine
 62
7
  6
CONTINUOUS
 10
48.2423051317
 20
-30.3291669384
 11
48.1942048758
 21
-30.3772671943
  0
LWPOLYLINE
  5
3C2
100
AcDbEntity
  8
RACCORDO
100
AcDbPolyline
 62
7
  6
CONTINUOUS
 90
7
 70
0
 10
52.2974502614
 20
-38.4240564991
 10
52.2963942877
 20
-38.4244156678
 10
52.2939330323
 20
-38.4247809449
 10
52.290061313
 20
-38.4251523306
 10
52.2847701311
 20
-38.4255281574
 10
52.2780740657
 20
-38.4259100928
 10
52.2700358334
 20
-38.4263031383
  0
LWPOLYLINE
  5
3C3
100
AcDbEntity
  8
RACCORDO
100
AcDbPolyline
 62
253
  6
CONTINUOUS
 90
8
 70
0
 10
-20.8528028006
 20
-62.0242291789
 10
-20.8546787248
 20
-62.0248150503
 10
-20.8589412381
 20
-62.0253907153
 10
-20.8655903405
 20
-62.0259561739
 10
-20.8746909536
 20
-62.0265144472
 10
-20.8861781559
 20
-62.0270625141
 10
-20.8998571826
 20
-62.0275913111
 10
-20.9157618628
 20
-62.0281004237
  0
LINE
  5
3C4
100
AcDbEntity
  8
0
100
AcDbLine
 62
7
  6
CONTINUOUS
 10
48.2581173093
 20
14.547015659
 11
48.1942048758
 21
14.547015659
  0
LINE
  5
3C5
100
AcDbEntity
  8
0
100
AcDbLine
 62
7
  6
CONTINUOUS
 10
-21.6211418511
 20
14.547015659
 11
-21.5572294175
 21
14.547015659
  0
LINE
  5
3C6
100
AcDbEntity
  8
RACCORDO
100
AcDbLine
 62
7
  6
CONTINUOUS
 10
-21.5572294175
 20
14.7231982564
 11
-21.6053296735
 21
14.7231982564
  0
LINE
  5
3C7
100
AcDbEntity
  8
RACCORDO
100
AcDbLine
 62
7
  6
CONTINUOUS
 10
48.1942048758
 20
14.7231982564
 11
48.2423051317
 21
14.7231982564
  0
LINE
  5
3C8
100
AcDbEntity
  8
RACCORDO
100
AcDbLine
 62
7
  6
CONTINUOUS
 10
-21.5572294175
 20
15.6708330616
 11
-21.6053296735
 21
15.6708330616
  0
LINE
  5
3C9
100
AcDbEntity
  8
RACCORDO
100
AcDbLine
 62
7
  6
CONTINUOUS
 10
48.1942048758
 20
15.6708330616
 11
48.2423051317
 21
15.6708330616
  0
LINE
  5
3CA
100
AcDbEntity
  8
0
100
AcDbLine
 62
7
  6
CONTINUOUS
 10
-21.5572294175
 20
15.847015659
 11
-21.6211418511
 21
15.847015659
  0
LINE
  5
3CB
100
AcDbEntity
  8
0
100
AcDbLine
 62
7
  6
CONTINUOUS
 10
48.1942048758
 20
15.847015659
 11
48.2581173093
 21
15.847015659
  0
LINE
  5
3CC
100
AcDbEntity
  8
DRAFT
100
AcDbLine
 62
7
  6
CONTINUOUS
 10
48.3108860149
 20
-7.4953826267
 11
48.3047660077
 21
-7.4892626195
  0
LWPOLYLINE
  5
3CD
100
AcDbEntity
  8
RACCORDO
100
AcDbPolyline
 62
253
  6
CONTINUOUS
 90
13
 70
0
 10
53.4807559472
 20
-45.3027257048
 10
53.4767717692
 20
-45.2849515319
 10
53.4709544794
 20
-45.2669986359
 10
53.4631793461
 20
-45.2490841202
 10
53.4532564075
 20
-45.2313141084
 10
53.4411722051
 20
-45.2141262564
 10
53.4272384001
 20
-45.1981876921
 10
53.4115670675
 20
-45.1837064877
 10
53.3943067843
 20
-45.1708899099
 10
53.3760880845
 20
-45.1601662312
 10
53.3573331494
 20
-45.1516213037
 10
53.3381421594
 20
-45.1451500405
 10
53.3187463653
 20
-45.1407161229
  0
LWPOLYLINE
  5
3CE
100
AcDbEntity
  8
RACCORDO
100
AcDbPolyline
 62
253
  6
CONTINUOUS
 90
13
 70
0
 10
54.1562195111
 20
-44.3032429772
 10
54.1602036891
 20
-44.3210171501
 10
54.1660209788
 20
-44.3389700461
 10
54.1737961122
 20
-44.3568845619
 10
54.1837190507
 20
-44.3746545737
 10
54.1958032532
 20
-44.3918424256
 10
54.2097370581
 20
-44.4077809899
 10
54.2254083907
 20
-44.4222621943
 10
54.242668674
 20
-44.4350787721
 10
54.2608873737
 20
-44.4458024508
 10
54.2796423088
 20
-44.4543473784
 10
54.2988332989
 20
-44.4608186415
 10
54.3182290929
 20
-44.4652525591
  0
LWPOLYLINE
  5
3CF
100
AcDbEntity
  8
RACCORDO
100
AcDbPolyline
 62
7
  6
CONTINUOUS
 90
7
 70
0
 10
53.5647716201
 20
-45.3079469848
 10
53.567415567
 20
-45.3197659505
 10
53.5714061699
 20
-45.3303732349
 10
53.5767085774
 20
-45.3397260158
 10
53.583280732
 20
-45.3477781108
 10
53.5910731072
 20
-45.354480411
 10
53.6000284423
 20
-45.3597813626
  0
LWPOLYLINE
  5
3D0
100
AcDbEntity
  8
RACCORDO
100
AcDbPolyline
 62
7
  6
CONTINUOUS
 90
7
 70
0
 10
54.0722038643
 20
-44.2980217741
 10
54.0695599267
 20
-44.2862027335
 10
54.0655693313
 20
-44.2755954038
 10
54.0602669314
 20
-44.2662426073
 10
54.0536947861
 20
-44.2581905265
 10
54.0459024234
 20
-44.2514882704
 10
54.0369471058
 20
-44.2461873925
  0
LWPOLYLINE
  5
3D1
100
AcDbEntity
  8
RACCORDO
100
AcDbPolyline
 62
253
  6
CONTINUOUS
 90
13
 70
0
 10
53.4315830418
 20
-45.3113962147
 10
53.4287216066
 20
-45.2977193648
 10
53.424315388
 20
-45.2842704188
 10
53.4183643859
 20
-45.2710493769
 10
53.4107673544
 20
-45.2577639091
 10
53.4016255395
 20
-45.2447063453
 10
53.3912426787
 20
-45.2327536755
 10
53.3794761355
 20
-45.2220539844
 10
53.3664685465
 20
-45.2124591872
 10
53.3529515592
 20
-45.2044020195
 10
53.3391690562
 20
-45.1980267264
 10
53.3248771549
 20
-45.1931890626
 10
53.3100758554
 20
-45.1898890283
  0
LWPOLYLINE
  5
3D2
100
AcDbEntity
  8
RACCORDO
100
AcDbPolyline
 62
253
  6
CONTINUOUS
 90
13
 70
0
 10
54.2053924165
 20
-44.2945724673
 10
54.2082538516
 20
-44.3082493173
 10
54.2126600703
 20
-44.3216982632
 10
54.2186110724
 20
-44.3349193051
 10
54.2262081039
 20
-44.3482047729
 10
54.2353499188
 20
-44.3612623367
 10
54.2457327795
 20
-44.3732150065
 10
54.2574993227
 20
-44.3839146976
 10
54.2705069118
 20
-44.3935094948
 10
54.284023899
 20
-44.4015666625
 10
54.2978064021
 20
-44.4079419557
 10
54.3120983033
 20
-44.4127796194
 10
54.3268996029
 20
-44.4160796537
  0
LINE
  5
3D3
100
AcDbEntity
  8
RACCORDO
100
AcDbLine
 62
253
  6
CONTINUOUS
 10
52.3680698812
 20
-44.5821807229
 11
52.3767403911
 21
-44.6313536283
  0
LINE
  5
3D4
100
AcDbEntity
  8
RACCORDO
100
AcDbLine
 62
253
  6
CONTINUOUS
 10
53.5976841051
 20
-46.2534021554
 11
53.4315830418
 21
-45.3113962147
  0
LINE
  5
3D5
100
AcDbEntity
  8
RACCORDO
100
AcDbLine
 62
253
  6
CONTINUOUS
 10
53.3100758554
 20
-44.4160796537
 11
53.3187463653
 21
-44.4652525591
  0
LINE
  5
3D6
100
AcDbEntity
  8
RACCORDO
100
AcDbLine
 62
253
  6
CONTINUOUS
 10
53.6468570105
 20
-46.2447316452
 11
53.4807559472
 21
-45.3027257048
  0
LINE
  5
3D7
100
AcDbEntity
  8
RACCORDO
100
AcDbLine
 62
253
  6
CONTINUOUS
 10
53.628975499
 20
-45.615230022
 11
53.6198726954
 21
-45.5302247293
  0
LINE
  5
3D8
100
AcDbEntity
  8
RACCORDO
100
AcDbLine
 62
253
  6
CONTINUOUS
 10
54.008056231
 20
-43.9912766973
 11
54.0171589526
 21
-44.0762613074
  0
LINE
  5
3D9
100
AcDbEntity
  8
RACCORDO
100
AcDbLine
 62
253
  6
CONTINUOUS
 10
53.6416441807
 20
-45.7394661961
 11
53.628975499
 21
-45.615230022
  0
LINE
  5
3DA
100
AcDbEntity
  8
RACCORDO
100
AcDbLine
 62
253
  6
CONTINUOUS
 10
53.9953802652
 20
-43.8669943144
 11
54.008056231
 21
-43.9912766973
  0
LINE
  5
3DB
100
AcDbEntity
  8
RACCORDO
100
AcDbLine
 62
253
  6
CONTINUOUS
 10
53.6587230091
 20
-45.9150551303
 11
53.6416441807
 21
-45.7394661961
  0
LINE
  5
3DC
100
AcDbEntity
  8
RACCORDO
100
AcDbLine
 62
253
  6
CONTINUOUS
 10
53.9782892289
 20
-43.6912991658
 11
53.9953802652
 21
-43.8669943144
  0
LINE
  5
3DD
100
AcDbEntity
  8
RACCORDO
100
AcDbLine
 62
253
  6
CONTINUOUS
 10
53.581902882
 20
-45.4948057255
 11
53.5647716202
 21
-45.3079469851
  0
LWPOLYLINE
  5
3DE
100
AcDbEntity
  8
RACCORDO
100
AcDbPolyline
 62
253
  6
CONTINUOUS
 90
3
 70
0
 10
53.6946980306
 20
-46.3053394808
 10
53.6911619725
 20
-46.2659858264
 10
53.6587230091
 20
-45.9150551303
  0
LWPOLYLINE
  5
3DF
100
AcDbEntity
  8
RACCORDO
100
AcDbPolyline
 62
253
  6
CONTINUOUS
 90
3
 70
0
 10
53.9422774311
 20
-43.3006292092
 10
53.945813895
 20
-43.3399936861
 10
53.9782892289
 20
-43.6912991658
  0
LINE
  5
3E0
100
AcDbEntity
  8
RACCORDO
100
AcDbLine
 62
253
  6
CONTINUOUS
 10
54.0552066167
 20
-44.112658471
 11
54.072203838
 21
-44.2980216962
  0
LINE
  5
3E1
100
AcDbEntity
  8
RACCORDO
100
AcDbLine
 62
253
  6
CONTINUOUS
 10
53.6468570105
 20
-46.2447316452
 11
53.581902882
 21
-45.4948057255
  0
LINE
  5
3E2
100
AcDbEntity
  8
RACCORDO
100
AcDbLine
 62
253
  6
CONTINUOUS
 10
53.9901184418
 20
-43.3612370032
 11
54.0552066167
 21
-44.112658471
  0
LINE
  5
3E3
100
AcDbEntity
  8
RACCORDO
100
AcDbLine
 62
253
  6
CONTINUOUS
 10
53.945833281
 20
-46.3484945277
 11
53.9422774307
 21
-46.3053394749
  0
LINE
  5
3E4
100
AcDbEntity
  8
RACCORDO
100
AcDbLine
 62
253
  6
CONTINUOUS
 10
53.6911421749
 20
-43.25747416
 11
53.6946980248
 21
-43.3006292108
  0
LWPOLYLINE
  5
3E5
100
AcDbEntity
  8
RACCORDO
100
AcDbPolyline
 62
7
  6
CONTINUOUS
 90
13
 70
0
 10
51.7468779829
 20
-48.2788947793
 10
51.7453118006
 20
-48.2397364527
 10
51.7408038335
 20
-48.201237457
 10
51.7333540817
 20
-48.1633977919
 10
51.7228794095
 20
-48.1259805004
 10
51.7094629527
 20
-48.0892225396
 10
51.693354118
 20
-48.0538347812
 10
51.6745018737
 20
-48.0198580555
 10
51.6529572516
 20
-47.9872515322
 10
51.6291227542
 20
-47.9566035926
 10
51.6031325489
 20
-47.9281103636
 10
51.5748524683
 20
-47.9015757183
 10
51.5442825123
 20
-47.8769996566
  0
LWPOLYLINE
  5
3E6
100
AcDbEntity
  8
RACCORDO
100
AcDbPolyline
 62
7
  6
CONTINUOUS
 90
13
 70
0
 10
51.7468779829
 20
31.7211052207
 10
51.7453118006
 20
31.7602635473
 10
51.7408038335
 20
31.798762543
 10
51.7333540817
 20
31.8366022081
 10
51.7228794095
 20
31.8740194996
 10
51.7094629527
 20
31.9107774604
 10
51.693354118
 20
31.9461652188
 10
51.6745018737
 20
31.9801419445
 10
51.6529572516
 20
32.0127484678
 10
51.6291227542
 20
32.0433964074
 10
51.6031325489
 20
32.0718896364
 10
51.5748524683
 20
32.0984242817
 10
51.5442825123
 20
32.1230003434
  0
LWPOLYLINE
  5
3E7
100
AcDbEntity
  8
RACCORDO
100
AcDbPolyline
 62
253
  6
CONTINUOUS
 90
22
 70
0
 10
52.060888701
 20
-50.6625477227
 10
52.0614560374
 20
-50.6774750164
 10
52.0630971404
 20
-50.6921746325
 10
52.06581201
 20
-50.706646571
 10
52.0696275537
 20
-50.7209729843
 10
52.0745168639
 20
-50.7350717199
 10
52.0803992184
 20
-50.7486963205
 10
52.0872906237
 20
-50.7618339379
 10
52.0951750732
 20
-50.7744974203
 10
52.1039238244
 20
-50.7864788548
 10
52.1135512315
 20
-50.7977670024
 10
52.1240429403
 20
-50.8083731021
 10
52.1352271448
 20
-50.818122958
 10
52.1471152731
 20
-50.8270025156
 10
52.1596958971
 20
-50.8350258293
 10
52.1727629275
 20
-50.8420608668
 10
52.1863251322
 20
-50.8480916208
 10
52.2003737433
 20
-50.8531340985
 10
52.2146763672
 20
-50.8571042894
 10
52.2291555395
 20
-50.85997419
 10
52.2438887246
 20
-50.8617718039
 10
52.2588759225
 20
-50.8624971309
  0
LWPOLYLINE
  5
3E8
100
AcDbEntity
  8
RACCORDO
100
AcDbPolyline
 62
253
  6
CONTINUOUS
 90
22
 70
0
 10
52.060888701
 20
29.337452277
 10
52.0614560374
 20
29.3225249834
 10
52.0630971404
 20
29.3078253674
 10
52.06581201
 20
29.293353429
 10
52.0696275537
 20
29.2790270158
 10
52.0745168639
 20
29.2649282802
 10
52.0803992184
 20
29.2513036795
 10
52.0872906237
 20
29.2381660621
 10
52.0951750732
 20
29.2255025797
 10
52.1039238244
 20
29.2135211452
 10
52.1135512315
 20
29.2022329976
 10
52.1240429403
 20
29.1916268979
 10
52.1352271448
 20
29.181877042
 10
52.1471152731
 20
29.1729974844
 10
52.1596958971
 20
29.1649741707
 10
52.1727629275
 20
29.1579391332
 10
52.1863251322
 20
29.1519083792
 10
52.2003737433
 20
29.1468659015
 10
52.2146763672
 20
29.1428957106
 10
52.2291555395
 20
29.14002581
 10
52.2438887246
 20
29.1382281961
 10
52.2588759225
 20
29.1375028691
  0
LWPOLYLINE
  5
3E9
100
AcDbEntity
  8
RACCORDO
100
AcDbPolyline
 62
253
  6
CONTINUOUS
 90
22
 70
0
 10
51.7609419346
 20
-50.6625390555
 10
51.7623234782
 20
-50.6996833581
 10
51.7664641229
 20
-50.7366123896
 10
51.7733368103
 20
-50.7731196273
 10
51.782896631
 20
-50.8090111306
 10
51.7950976741
 20
-50.844093323
 10
51.8098728654
 20
-50.8781760521
 10
51.8271327539
 20
-50.9110725931
 10
51.8467868059
 20
-50.9425964461
 10
51.8687319981
 20
-50.9725700088
 10
51.8928389034
 20
-51.0008340261
 10
51.9189749006
 20
-51.0272316332
 10
51.9470025987
 20
-51.0516114018
 10
51.9767623599
 20
-51.0738454303
 10
52.0080883878
 20
-51.0938123105
 10
52.0408135112
 20
-51.1113932743
 10
52.0747546137
 20
-51.1264957838
 10
52.1097193946
 20
-51.1390423941
 10
52.1455154709
 20
-51.1489564666
 10
52.1819486058
 20
-51.1561819395
 10
52.2188224838
 20
-51.1606861235
 10
52.2559406217
 20
-51.1624376131
  0
LWPOLYLINE
  5
3EA
100
AcDbEntity
  8
RACCORDO
100
AcDbPolyline
 62
253
  6
CONTINUOUS
 90
22
 70
0
 10
51.7609419346
 20
29.3374609445
 10
51.7623234782
 20
29.3003166419
 10
51.7664641229
 20
29.2633876104
 10
51.7733368103
 20
29.2268803727
 10
51.782896631
 20
29.1909888694
 10
51.7950976741
 20
29.155906677
 10
51.8098728654
 20
29.1218239479
 10
51.8271327539
 20
29.0889274069
 10
51.8467868059
 20
29.0574035539
 10
51.8687319981
 20
29.0274299912
 10
51.8928389034
 20
28.9991659739
 10
51.9189749006
 20
28.9727683668
 10
51.9470025987
 20
28.9483885982
 10
51.9767623599
 20
28.9261545697
 10
52.0080883878
 20
28.9061876895
 10
52.0408135112
 20
28.8886067257
 10
52.0747546137
 20
28.8735042162
 10
52.1097193946
 20
28.8609576059
 10
52.1455154709
 20
28.8510435334
 10
52.1819486058
 20
28.8438180605
 10
52.2188224838
 20
28.8393138765
 10
52.2559406217
 20
28.8375623869
  0
LINE
  5
3EB
100
AcDbEntity
  8
RACCORDO
100
AcDbLine
 62
253
  6
CONTINUOUS
 10
52.2559406104
 20
-38.4435299575
 11
52.2588906105
 21
-38.7434700348
  0
LINE
  5
3EC
100
AcDbEntity
  8
RACCORDO
100
AcDbLine
 62
253
  6
CONTINUOUS
 10
52.2559406104
 20
41.5564700425
 11
52.2588906105
 21
41.2565299652
  0
LWPOLYLINE
  5
3ED
100
AcDbEntity
  8
RACCORDO
100
AcDbPolyline
 62
7
  6
CONTINUOUS
 90
9
 70
0
 10
50.8183434761
 20
-46.2135693509
 10
50.8179412618
 20
-46.1715304461
 10
50.8172810864
 20
-46.1287080263
 10
50.8163534727
 20
-46.0848271332
 10
50.8151678977
 20
-46.0401627251
 10
50.8137527932
 20
-45.9955396767
 10
50.8121176363
 20
-45.9512329463
 10
50.8102529498
 20
-45.9069675757
 10
50.8024739805
 20
-45.7434242319
  0
LWPOLYLINE
  5
3EE
100
AcDbEntity
  8
RACCORDO
100
AcDbPolyline
 62
7
  6
CONTINUOUS
 90
9
 70
0
 10
50.8183434761
 20
33.7864306491
 10
50.8179412618
 20
33.8284695539
 10
50.8172810864
 20
33.8712919737
 10
50.8163534727
 20
33.9151728668
 10
50.8151678977
 20
33.9598372749
 10
50.8137527932
 20
34.0044603233
 10
50.8121176363
 20
34.0487670537
 10
50.8102529498
 20
34.0930324243
 10
50.8024739805
 20
34.2565757681
  0
LWPOLYLINE
  5
3EF
100
AcDbEntity
  8
RACCORDO
100
AcDbPolyline
 62
7
  6
CONTINUOUS
 90
27
 70
0
 10
50.8184012575
 20
-42.9489922729
 10
50.8181511272
 20
-42.9176451649
 10
50.8177373382
 20
-42.8871994139
 10
50.8171563676
 20
-42.8575890956
 10
50.8164117383
 20
-42.8288801342
 10
50.8155140194
 20
-42.8012703026
 10
50.8144633067
 20
-42.774802696
 10
50.8132595044
 20
-42.7494342192
 10
50.8119128944
 20
-42.7252333587
 10
50.8104261746
 20
-42.7022156601
 10
50.8087966471
 20
-42.6803655778
 10
50.8070265006
 20
-42.6597049615
 10
50.8051187706
 20
-42.6402133384
 10
50.8030704216
 20
-42.6219111814
 10
50.8008745355
 20
-42.6048817587
 10
50.7985133182
 20
-42.5890324685
 10
50.7960045637
 20
-42.5744559126
 10
50.7933947368
 20
-42.5615131645
 10
50.7906935373
 20
-42.5502960953
 10
50.7878912654
 20
-42.5407128339
 10
50.785005286
 20
-42.5328488403
 10
50.7820211449
 20
-42.5267047832
 10
50.7789532963
 20
-42.5222799939
 10
50.7758624682
 20
-42.5196579257
 10
50.772768903
 20
-42.5188663963
 10
50.7696523583
 20
-42.519877588
 10
50.766512834
 20
-42.5226915008
  0
LWPOLYLINE
  5
3F0
100
AcDbEntity
  8
RACCORDO
100
AcDbPolyline
 62
7
  6
CONTINUOUS
 90
9
 70
0
 10
50.7810136711
 20
-44.8029843138
 10
50.781355343
 20
-44.9198529558
 10
50.7823663528
 20
-45.0368564545
 10
50.7840467006
 20
-45.1539948096
 10
50.7863973547
 20
-45.2711537015
 10
50.7894173468
 20
-45.3884474499
 10
50.7931037713
 20
-45.5062190145
 10
50.7974556597
 20
-45.6245827151
 10
50.8024739805
 20
-45.7434242319
  0
LWPOLYLINE
  5
3F1
100
AcDbEntity
  8
RACCORDO
100
AcDbPolyline
 62
7
  6
CONTINUOUS
 90
9
 70
0
 10
50.7810136711
 20
35.1970156862
 10
50.781355343
 20
35.0801470442
 10
50.7823663528
 20
34.9631435455
 10
50.7840467006
 20
34.8460051904
 10
50.7863973547
 20
34.7288462985
 10
50.7894173468
 20
34.6115525501
 10
50.7931037713
 20
34.4937809855
 10
50.7974556597
 20
34.3754172849
 10
50.8024739805
 20
34.2565757681
  0
LINE
  5
3F2
100
AcDbEntity
  8
DRAFT
100
AcDbLine
 62
7
  6
CONTINUOUS
 10
50.6245280504
 20
37.2994430891
 11
50.6245280504
 21
33.0945882289
  0
LINE
  5
3F3
100
AcDbEntity
  8
DRAFT
100
AcDbLine
 62
7
  6
CONTINUOUS
 10
50.6245280504
 20
-42.7005569109
 11
50.6245280504
 21
-46.9054117711
  0
LINE
  5
3F4
100
AcDbEntity
  8
RACCORDO
100
AcDbLine
 62
7
  6
CONTINUOUS
 10
50.8184877291
 20
-46.6247279442
 11
50.8183434761
 21
-46.2135693509
  0
LINE
  5
3F5
100
AcDbEntity
  8
RACCORDO
100
AcDbLine
 62
7
  6
CONTINUOUS
 10
50.8184877291
 20
-43.3511439413
 11
50.8184012575
 21
-42.9489922729
  0
LINE
  5
3F6
100
AcDbEntity
  8
RACCORDO
100
AcDbLine
 62
7
  6
CONTINUOUS
 10
50.8184877291
 20
32.8571205263
 11
50.8183434761
 21
33.7864306491
  0
LINE
  5
3F7
100
AcDbEntity
  8
RACCORDO
100
AcDbLine
 62
7
  6
CONTINUOUS
 10
51.7468779829
 20
41.0704717649
 11
51.7468779829
 21
38.6729260972
  0
LINE
  5
3F8
100
AcDbEntity
  8
RACCORDO
100
AcDbLine
 62
7
  6
CONTINUOUS
 10
51.7468779829
 20
31.7211052207
 11
51.7468779829
 21
29.3235595531
  0
LINE
  5
3F9
100
AcDbEntity
  8
RACCORDO
100
AcDbLine
 62
7
  6
CONTINUOUS
 10
51.7468779829
 20
-38.9295282351
 11
51.7468779829
 21
-41.3270739028
  0
LINE
  5
3FA
100
AcDbEntity
  8
RACCORDO
100
AcDbLine
 62
7
  6
CONTINUOUS
 10
51.7468779829
 20
-48.2788947793
 11
51.7468779829
 21
-50.6764404469
  0
LINE
  5
3FB
100
AcDbEntity
  8
RACCORDO
100
AcDbLine
 62
253
  6
CONTINUOUS
 10
51.7609334248
 20
41.0565703981
 11
51.7609334248
 21
38.6658335079
  0
LINE
  5
3FC
100
AcDbEntity
  8
RACCORDO
100
AcDbLine
 62
253
  6
CONTINUOUS
 10
51.7609334248
 20
31.72819781
 11
51.7609334248
 21
29.3374609198
  0
LINE
  5
3FD
100
AcDbEntity
  8
RACCORDO
100
AcDbLine
 62
253
  6
CONTINUOUS
 10
51.7609334248
 20
-38.9434296019
 11
51.7609334248
 21
-41.3341664921
  0
LINE
  5
3FE
100
AcDbEntity
  8
RACCORDO
100
AcDbLine
 62
253
  6
CONTINUOUS
 10
51.7609334248
 20
-48.27180219
 11
51.7609334248
 21
-50.6625390802
  0
LINE
  5
3FF
100
AcDbEntity
  8
RACCORDO
100
AcDbLine
 62
253
  6
CONTINUOUS
 10
51.7975264147
 20
52.4259781912
 11
51.7975264138
 21
52.1260231435
  0
LINE
  5
400
100
AcDbEntity
  8
RACCORDO
100
AcDbLine
 62
253
  6
CONTINUOUS
 10
51.7975264147
 20
-62.0319468732
 11
51.7975264138
 21
-61.7319918255
  0
LINE
  5
401
100
AcDbEntity
  8
RACCORDO
100
AcDbLine
 62
253
  6
CONTINUOUS
 10
51.9974959528
 20
-38.4961923125
 11
51.9974959528
 21
28.8902236305
  0
LINE
  5
402
100
AcDbEntity
  8
RACCORDO
100
AcDbLine
 62
253
  6
CONTINUOUS
 10
51.9974951172
 20
-61.5320304567
 11
51.9974959528
 21
-51.1097763695
  0
LINE
  5
403
100
AcDbEntity
  8
RACCORDO
100
AcDbLine
 62
253
  6
CONTINUOUS
 10
51.9974959528
 20
41.5038076875
 11
51.9974951172
 21
51.9260617746
  0
LINE
  5
404
100
AcDbEntity
  8
RACCORDO
100
AcDbLine
 62
253
  6
CONTINUOUS
 10
52.0608807531
 20
-48.2717277592
 11
52.060888701
 21
-50.6625477227
  0
LINE
  5
405
100
AcDbEntity
  8
RACCORDO
100
AcDbLine
 62
253
  6
CONTINUOUS
 10
52.0608886075
 20
41.0565781981
 11
52.0608877333
 21
39.1169852395
  0
LINE
  5
406
100
AcDbEntity
  8
RACCORDO
100
AcDbLine
 62
253
  6
CONTINUOUS
 10
52.0608886075
 20
-38.9434218018
 11
52.0608877333
 21
-41.3341664917
  0
LINE
  5
407
100
AcDbEntity
  8
RACCORDO
100
AcDbLine
 62
253
  6
CONTINUOUS
 10
52.0608877333
 20
31.2770460785
 11
52.060888701
 21
29.337452277
  0
LINE
  5
408
100
AcDbEntity
  8
RACCORDO
100
AcDbLine
 62
253
  6
CONTINUOUS
 10
52.2974502614
 20
-61.5320230257
 11
52.2974502614
 21
-51.1819121829
  0
LINE
  5
409
100
AcDbEntity
  8
RACCORDO
100
AcDbLine
 62
253
  6
CONTINUOUS
 10
52.2974502614
 20
-38.4240564991
 11
52.2974502614
 21
28.8180878171
  0
LINE
  5
40A
100
AcDbEntity
  8
RACCORDO
100
AcDbLine
 62
253
  6
CONTINUOUS
 10
52.2974502614
 20
41.5759435009
 11
52.2974502614
 21
51.9260543436
  0
LINE
  5
40B
100
AcDbEntity
  8
RACCORDO
100
AcDbLine
 62
7
  6
CONTINUOUS
 10
52.3184877291
 20
51.9470918114
 11
52.3184877291
 21
41.597015659
  0
LINE
  5
40C
100
AcDbEntity
  8
DRAFT
100
AcDbLine
 62
7
  6
CONTINUOUS
 10
52.3184877291
 20
28.797015659
 11
52.3184877291
 21
-38.402984341
  0
LINE
  5
40D
100
AcDbEntity
  8
RACCORDO
100
AcDbLine
 62
7
  6
CONTINUOUS
 10
52.3184877291
 20
-51.202984341
 11
52.3184877291
 21
-61.5530604934
  0
LINE
  5
40E
100
AcDbEntity
  8
RACCORDO
100
AcDbLine
 62
253
  6
CONTINUOUS
 10
52.2559406108
 20
28.8375612755
 11
52.258890609
 21
29.137501203
  0
LINE
  5
40F
100
AcDbEntity
  8
RACCORDO
100
AcDbLine
 62
253
  6
CONTINUOUS
 10
52.2559406108
 20
-51.1624387245
 11
52.258890609
 21
-50.862498797
  0
LWPOLYLINE
  5
410
100
AcDbEntity
  8
RACCORDO
100
AcDbPolyline
 62
253
  6
CONTINUOUS
 90
16
 70
0
 10
51.7609295049
 20
-41.3341664926
 10
51.7599650175
 20
-41.3653164306
 10
51.7570569685
 20
-41.3963454094
 10
51.7522204055
 20
-41.4271345921
 10
51.7454725628
 20
-41.4575747415
 10
51.7368348938
 20
-41.4875423591
 10
51.7263497864
 20
-41.516901957
 10
51.7140699873
 20
-41.5455252765
 10
51.7000363676
 20
-41.5733153101
 10
51.6842899067
 20
-41.6001882761
 10
51.6668873026
 20
-41.6260510664
 10
51.6478999378
 20
-41.6507889987
 10
51.6274034234
 20
-41.674294312
 10
51.6054800462
 20
-41.696477468
 10
51.5822093035
 20
-41.717256392
 10
51.5576753088
 20
-41.7365470098
  0
LWPOLYLINE
  5
411
100
AcDbEntity
  8
RACCORDO
100
AcDbPolyline
 62
253
  6
CONTINUOUS
 90
16
 70
0
 10
52.0608877333
 20
-41.3341664917
 10
52.0592988259
 20
-41.3842436454
 10
52.0546572902
 20
-41.4337764154
 10
52.0469631262
 20
-41.4827648017
 10
52.0361586575
 20
-41.5314119397
 10
52.0223015606
 20
-41.5795146941
 10
52.0055648645
 20
-41.6264636588
 10
51.9859260047
 20
-41.6722148666
 10
51.9634075458
 20
-41.7168122848
 10
51.9382502098
 20
-41.7597784088
 10
51.9104126038
 20
-41.8011156798
 10
51.8799361209
 20
-41.8408216566
 10
51.8471856628
 20
-41.8784115118
 10
51.8122828636
 20
-41.913723636
 10
51.7751060892
 20
-41.9469196386
 10
51.7356553398
 20
-41.9779995195
  0
LWPOLYLINE
  5
412
100
AcDbEntity
  8
RACCORDO
100
AcDbPolyline
 62
7
  6
CONTINUOUS
 90
16
 70
0
 10
51.7468779829
 20
41.0704717649
 10
51.7480623864
 20
41.1054246885
 10
51.7516993264
 20
41.1400539529
 10
51.7577888029
 20
41.174359558
 10
51.7663964303
 20
41.2085906927
 10
51.7774565943
 20
41.2424981681
 10
51.7907724512
 20
41.2753344176
 10
51.8064150705
 20
41.3070304004
 10
51.8243133828
 20
41.3376551574
 10
51.8440573367
 20
41.3666682449
 10
51.8656200067
 20
41.3939640755
 10
51.8890283183
 20
41.4196482365
 10
51.9139529962
 20
41.4434970464
 10
51.9402842821
 20
41.4654359446
 10
51.9681319343
 20
41.4855394917
 10
51.9974959528
 20
41.5038076875
  0
LWPOLYLINE
  5
413
100
AcDbEntity
  8
RACCORDO
100
AcDbPolyline
 62
7
  6
CONTINUOUS
 90
16
 70
0
 10
51.7468779829
 20
-38.9295282351
 10
51.7480623864
 20
-38.8945753115
 10
51.7516993264
 20
-38.8599460471
 10
51.7577888029
 20
-38.825640442
 10
51.7663964303
 20
-38.7914093073
 10
51.7774565943
 20
-38.7575018319
 10
51.7907724512
 20
-38.7246655824
 10
51.8064150705
 20
-38.6929695996
 10
51.8243133828
 20
-38.6623448426
 10
51.8440573367
 20
-38.6333317551
 10
51.8656200067
 20
-38.6060359245
 10
51.8890283183
 20
-38.5803517635
 10
51.9139529962
 20
-38.5565029536
 10
51.9402842821
 20
-38.5345640554
 10
51.9681319343
 20
-38.5144605083
 10
51.9974959528
 20
-38.4961923125
  0
LWPOLYLINE
  5
414
100
AcDbEntity
  8
RACCORDO
100
AcDbPolyline
 62
7
  6
CONTINUOUS
 90
9
 70
0
 10
50.8102656864
 20
36.3013399291
 10
50.8121387256
 20
36.3458487589
 10
50.8137778514
 20
36.3903013724
 10
50.8151909412
 20
36.4349563047
 10
50.8163701176
 20
36.4795550207
 10
50.8172917478
 20
36.5233219147
 10
50.8179479544
 20
36.5659984514
 10
50.8183466148
 20
36.607843166
 10
50.8184877291
 20
37.5369107917
  0
LWPOLYLINE
  5
415
100
AcDbEntity
  8
RACCORDO
100
AcDbPolyline
 62
7
  6
CONTINUOUS
 90
9
 70
0
 10
50.8102656864
 20
-43.6986600709
 10
50.8121387256
 20
-43.6541512411
 10
50.8137778514
 20
-43.6096986276
 10
50.8151909412
 20
-43.5650436953
 10
50.8163701176
 20
-43.5204449793
 10
50.8172917478
 20
-43.4766780853
 10
50.8179479544
 20
-43.4340015486
 10
50.8183466148
 20
-43.392156834
 10
50.8184877291
 20
-43.3511439413
  0
LWPOLYLINE
  5
416
100
AcDbEntity
  8
RACCORDO
100
AcDbPolyline
 62
7
  6
CONTINUOUS
 90
10
 70
0
 10
50.8102656864
 20
-43.6986600709
 10
50.8024629335
 20
-43.8628403774
 10
50.7974373891
 20
-43.9818940045
 10
50.7930821006
 20
-44.1003859986
 10
50.7893975152
 20
-44.2181889282
 10
50.7863831857
 20
-44.3354302247
 10
50.7840377706
 20
-44.4524921821
 10
50.782360823
 20
-44.5695022317
 10
50.7813527898
 20
-44.6863329423
 10
50.7810136711
 20
-44.8029843138
  0
LINE
  5
417
100
AcDbEntity
  8
RACCORDO
100
AcDbLine
 62
253
  6
CONTINUOUS
 10
53.6911421793
 20
33.6515054672
 11
53.6946980299
 21
33.6946605192
  0
LINE
  5
418
100
AcDbEntity
  8
RACCORDO
100
AcDbLine
 62
253
  6
CONTINUOUS
 10
53.9458332816
 20
36.7425258443
 11
53.9422774323
 21
36.6993707845
  0
LINE
  5
419
100
AcDbEntity
  8
RACCORDO
100
AcDbLine
 62
253
  6
CONTINUOUS
 10
53.9901184438
 20
33.755268332
 11
54.0550592886
 21
34.5050460261
  0
LINE
  5
41A
100
AcDbEntity
  8
RACCORDO
100
AcDbLine
 62
253
  6
CONTINUOUS
 10
53.646857016
 20
36.6387629942
 11
53.5817266769
 21
35.8868712166
  0
LINE
  5
41B
100
AcDbEntity
  8
RACCORDO
100
AcDbLine
 62
253
  6
CONTINUOUS
 10
53.6946980228
 20
36.699370789
 11
53.6647746636
 21
36.3731389947
  0
LINE
  5
41C
100
AcDbEntity
  8
RACCORDO
100
AcDbLine
 62
253
  6
CONTINUOUS
 10
53.9422774328
 20
33.6946605253
 11
53.9721571198
 21
34.0204274184
  0
LINE
  5
41D
100
AcDbEntity
  8
RACCORDO
100
AcDbLine
 62
253
  6
CONTINUOUS
 10
53.5817266769
 20
35.8868712166
 11
53.5647716202
 21
35.7019783035
  0
LINE
  5
41E
100
AcDbEntity
  8
RACCORDO
100
AcDbLine
 62
253
  6
CONTINUOUS
 10
54.0550592886
 20
34.5050460261
 11
54.0722038381
 21
34.6920530148
  0
LINE
  5
41F
100
AcDbEntity
  8
RACCORDO
100
AcDbLine
 62
253
  6
CONTINUOUS
 10
53.6647746636
 20
36.3731389947
 11
53.6586832636
 21
36.3086692566
  0
LINE
  5
420
100
AcDbEntity
  8
RACCORDO
100
AcDbLine
 62
253
  6
CONTINUOUS
 10
53.9721571198
 20
34.0204274184
 11
53.9926326756
 21
34.2333585843
  0
LWPOLYLINE
  5
421
100
AcDbEntity
  8
RACCORDO
100
AcDbPolyline
 62
253
  6
CONTINUOUS
 90
3
 70
0
 10
53.9926326756
 20
34.2333585843
 10
54.0056171879
 20
34.3618624681
 10
54.0080252532
 20
34.3850145285
  0
LWPOLYLINE
  5
422
100
AcDbEntity
  8
RACCORDO
100
AcDbPolyline
 62
253
  6
CONTINUOUS
 90
22
 70
0
 10
55.3639979209
 20
35.0696701091
 10
55.3634778622
 20
35.064710428
 10
55.3626220149
 20
35.0596952475
 10
55.3614303791
 20
35.0546245674
 10
55.3599186237
 20
35.0494800333
 10
55.3580710797
 20
35.0442799998
 10
55.3558407402
 20
35.0390795301
 10
55.3532262604
 20
35.0338744772
 10
55.3502289851
 20
35.0286689881
 10
55.3468059413
 20
35.023530567
 10
55.3429641813
 20
35.0184590033
 10
55.3386966527
 20
35.0134545077
 10
55.3339392254
 20
35.0085852169
 10
55.3286771166
 20
35.0038290551
 10
55.3229251091
 20
34.9992080981
 10
55.3166634206
 20
34.9948567105
 10
55.3098648972
 20
34.9907628665
 10
55.3025566928
 20
34.9869385919
 10
55.2948004873
 20
34.9835543273
 10
55.2866168405
 20
34.9806668865
 10
55.2779851926
 20
34.9782194557
 10
55.2689055435
 20
34.976212035
  0
LWPOLYLINE
  5
423
100
AcDbEntity
  8
RACCORDO
100
AcDbPolyline
 62
253
  6
CONTINUOUS
 90
6
 70
0
 10
46.7641345602
 20
-61.902984341
 10
46.7629212442
 20
-61.9104761877
 10
46.7612145779
 20
-61.9186044029
 10
46.7594684148
 20
-61.9245844639
 10
46.757695755
 20
-61.9283718021
 10
46.7559097922
 20
-61.9299381887
  0
LWPOLYLINE
  5
424
100
AcDbEntity
  8
RACCORDO
100
AcDbPolyline
 62
7
  6
CONTINUOUS
 90
13
 70
0
 10
51.9974959528
 20
-38.4961923125
 10
52.0191627874
 20
-38.4844295923
 10
52.0410394752
 20
-38.473844559
 10
52.0630004528
 20
-38.4644372127
 10
52.0848876681
 20
-38.4562477345
 10
52.1065815307
 20
-38.4492359432
 10
52.1279955444
 20
-38.4432812954
 10
52.1491118259
 20
-38.4384161431
 10
52.1695901052
 20
-38.4346081341
 10
52.1889000115
 20
-38.431639669
 10
52.2068154791
 20
-38.4294382147
 10
52.2233504287
 20
-38.4280763042
 10
52.250156061
 20
-38.4271258944
  0
LINE
  5
425
100
AcDbEntity
  8
RACCORDO
100
AcDbLine
 62
253
  6
CONTINUOUS
 10
55.6617477443
 20
-39.3703261097
 11
55.6417676173
 21
-39.3805879167
  0
LINE
  5
426
100
AcDbEntity
  8
0
100
AcDbLine
 62
7
  6
CONTINUOUS
 10
48.2581173093
 20
20.547015659
 11
48.1942048758
 21
20.547015659
  0
LINE
  5
427
100
AcDbEntity
  8
0
100
AcDbLine
 62
7
  6
CONTINUOUS
 10
-21.6211418511
 20
20.547015659
 11
-21.5572294175
 21
20.547015659
  0
LINE
  5
428
100
AcDbEntity
  8
RACCORDO
100
AcDbLine
 62
7
  6
CONTINUOUS
 10
-21.5572294175
 20
20.7231982564
 11
-21.6053296735
 21
20.7231982564
  0
LINE
  5
429
100
AcDbEntity
  8
RACCORDO
100
AcDbLine
 62
7
  6
CONTINUOUS
 10
48.1942048758
 20
20.7231982564
 11
48.2423051317
 21
20.7231982564
  0
LINE
  5
42A
100
AcDbEntity
  8
RACCORDO
100
AcDbLine
 62
7
  6
CONTINUOUS
 10
-21.5572294175
 20
21.6708330616
 11
-21.6053296735
 21
21.6708330616
  0
LINE
  5
42B
100
AcDbEntity
  8
RACCORDO
100
AcDbLine
 62
7
  6
CONTINUOUS
 10
48.1942048758
 20
21.6708330616
 11
48.2423051317
 21
21.6708330616
  0
LINE
  5
42C
100
AcDbEntity
  8
0
100
AcDbLine
 62
7
  6
CONTINUOUS
 10
-21.5572294175
 20
21.847015659
 11
-21.6211418511
 21
21.847015659
  0
LINE
  5
42D
100
AcDbEntity
  8
0
100
AcDbLine
 62
7
  6
CONTINUOUS
 10
48.1942048758
 20
21.847015659
 11
48.2581173093
 21
21.847015659
  0
LINE
  5
42E
100
AcDbEntity
  8
RACCORDO
100
AcDbLine
 62
253
  6
CONTINUOUS
 10
53.9901184418
 20
-43.3612370032
 11
54.1562195111
 21
-44.3032429772
  0
LINE
  5
42F
100
AcDbEntity
  8
RACCORDO
100
AcDbLine
 62
253
  6
CONTINUOUS
 10
54.3268996029
 20
-45.1898890283
 11
54.318229093
 21
-45.1407161229
  0
LINE
  5
430
100
AcDbEntity
  8
RACCORDO
100
AcDbLine
 62
253
  6
CONTINUOUS
 10
54.0392913472
 20
-43.352566493
 11
54.2053924165
 21
-44.2945724673
  0
LINE
  5
431
100
AcDbEntity
  8
RACCORDO
100
AcDbLine
 62
253
  6
CONTINUOUS
 10
55.2689055435
 20
-45.023787965
 11
55.2602350335
 21
-44.9746150596
  0
LINE
  5
432
100
AcDbEntity
  8
RACCORDO
100
AcDbLine
 62
7
  6
CONTINUOUS
 10
53.5521310696
 20
-45.2313505824
 11
53.5647716202
 21
-45.3079469851
  0
LINE
  5
433
100
AcDbEntity
  8
RACCORDO
100
AcDbLine
 62
7
  6
CONTINUOUS
 10
54.0848443887
 20
-44.3746180996
 11
54.072203838
 21
-44.2980216962
  0
LINE
  5
434
100
AcDbEntity
  8
RACCORDO
100
AcDbLine
 62
253
  6
CONTINUOUS
 10
54.0332306961
 20
-44.2160805269
 11
54.03694724
 21
-44.2461874747
  0
LINE
  5
435
100
AcDbEntity
  8
RACCORDO
100
AcDbLine
 62
253
  6
CONTINUOUS
 10
53.6057187429
 20
-45.406323751
 11
53.60002822
 21
-45.3597812264
  0
LINE
  5
436
100
AcDbEntity
  8
RACCORDO
100
AcDbLine
 62
253
  6
CONTINUOUS
 10
54.0274717605
 20
-44.1676560078
 11
54.0332306961
 21
-44.2160805269
  0
LINE
  5
437
100
AcDbEntity
  8
RACCORDO
100
AcDbLine
 62
253
  6
CONTINUOUS
 10
53.6115450211
 20
-45.4559738058
 11
53.6057187429
 21
-45.406323751
  0
LINE
  5
438
100
AcDbEntity
  8
RACCORDO
100
AcDbLine
 62
253
  6
CONTINUOUS
 10
53.6198726954
 20
-45.5302247293
 11
53.6115450211
 21
-45.4559738058
  0
LWPOLYLINE
  5
439
100
AcDbEntity
  8
RACCORDO
100
AcDbPolyline
 62
253
  6
CONTINUOUS
 90
3
 70
0
 10
54.0171589526
 20
-44.0762613074
 10
54.0193058222
 20
-44.0957598954
 10
54.0274717605
 20
-44.1676560078
  0
LINE
  5
43A
100
AcDbEntity
  8
RACCORDO
100
AcDbLine
 62
253
  6
CONTINUOUS
 10
53.628975499
 20
34.384769978
 11
53.6198726954
 21
34.4697752707
  0
LINE
  5
43B
100
AcDbEntity
  8
RACCORDO
100
AcDbLine
 62
253
  6
CONTINUOUS
 10
54.0006307483
 20
36.0807766552
 11
54.0104174831
 21
35.9863671007
  0
LINE
  5
43C
100
AcDbEntity
  8
RACCORDO
100
AcDbLine
 62
253
  6
CONTINUOUS
 10
53.6416441807
 20
34.2605338039
 11
53.628975499
 21
34.384769978
  0
LINE
  5
43D
100
AcDbEntity
  8
RACCORDO
100
AcDbLine
 62
253
  6
CONTINUOUS
 10
53.9841894224
 20
36.247175028
 11
54.0006307483
 21
36.0807766552
  0
LINE
  5
43E
100
AcDbEntity
  8
RACCORDO
100
AcDbLine
 62
253
  6
CONTINUOUS
 10
53.6587230091
 20
34.0849448697
 11
53.6416441807
 21
34.2605338039
  0
LINE
  5
43F
100
AcDbEntity
  8
RACCORDO
100
AcDbLine
 62
253
  6
CONTINUOUS
 10
53.9594483565
 20
36.5104217292
 11
53.9841894224
 21
36.247175028
  0
LINE
  5
440
100
AcDbEntity
  8
RACCORDO
100
AcDbLine
 62
253
  6
CONTINUOUS
 10
53.581902882
 20
34.5051942745
 11
53.5647716202
 21
34.6920530149
  0
LWPOLYLINE
  5
441
100
AcDbEntity
  8
RACCORDO
100
AcDbPolyline
 62
253
  6
CONTINUOUS
 90
3
 70
0
 10
53.6946980306
 20
33.6946605192
 10
53.6911619725
 20
33.7340141736
 10
53.6587230091
 20
34.0849448697
  0
LINE
  5
442
100
AcDbEntity
  8
RACCORDO
100
AcDbLine
 62
253
  6
CONTINUOUS
 10
53.9422774311
 20
36.6993707908
 11
53.9594483565
 21
36.5104217292
  0
LINE
  5
443
100
AcDbEntity
  8
RACCORDO
100
AcDbLine
 62
253
  6
CONTINUOUS
 10
54.0552066167
 20
35.887341529
 11
54.072203838
 21
35.7019783038
  0
LINE
  5
444
100
AcDbEntity
  8
RACCORDO
100
AcDbLine
 62
253
  6
CONTINUOUS
 10
53.6468570105
 20
33.7552683548
 11
53.581902882
 21
34.5051942745
  0
LINE
  5
445
100
AcDbEntity
  8
RACCORDO
100
AcDbLine
 62
253
  6
CONTINUOUS
 10
53.9901184418
 20
36.6387629968
 11
54.0552066167
 21
35.887341529
  0
LINE
  5
446
100
AcDbEntity
  8
RACCORDO
100
AcDbLine
 62
253
  6
CONTINUOUS
 10
53.6911421749
 20
36.74252584
 11
53.6946980248
 21
36.6993707892
  0
LINE
  5
447
100
AcDbEntity
  8
RACCORDO
100
AcDbLine
 62
253
  6
CONTINUOUS
 10
53.945833281
 20
33.6515054723
 11
53.9422774307
 21
33.6946605251
  0
LWPOLYLINE
  5
448
100
AcDbEntity
  8
RACCORDO
100
AcDbPolyline
 62
7
  6
CONTINUOUS
 90
13
 70
0
 10
55.8945127882
 20
-41.3303447644
 10
55.8960746299
 20
-41.3694493782
 10
55.9005704614
 20
-41.4078972258
 10
55.9080002828
 20
-41.445688307
 10
55.9184467858
 20
-41.4830586208
 10
55.9318272786
 20
-41.5197721684
 10
55.9478936862
 20
-41.5551209529
 10
55.9666967408
 20
-41.5890643808
 10
55.9881857101
 20
-41.6216430458
 10
56.0119603225
 20
-41.6522707318
 10
56.0378871543
 20
-41.6807520336
 10
56.0660996291
 20
-41.7072823564
 10
56.0965977471
 20
-41.7318617003
  0
LWPOLYLINE
  5
449
100
AcDbEntity
  8
RACCORDO
100
AcDbPolyline
 62
7
  6
CONTINUOUS
 90
13
 70
0
 10
55.8945127882
 20
38.6696552356
 10
55.8960746299
 20
38.6305506218
 10
55.9005704614
 20
38.5921027742
 10
55.9080002828
 20
38.554311693
 10
55.9184467858
 20
38.5169413792
 10
55.9318272786
 20
38.4802278316
 10
55.9478936862
 20
38.4448790471
 10
55.9666967408
 20
38.4109356192
 10
55.9881857101
 20
38.3783569542
 10
56.0119603225
 20
38.3477292682
 10
56.0378871543
 20
38.3192479664
 10
56.0660996291
 20
38.2927176436
 10
56.0965977471
 20
38.2681382997
  0
LWPOLYLINE
  5
44A
100
AcDbEntity
  8
RACCORDO
100
AcDbPolyline
 62
253
  6
CONTINUOUS
 90
22
 70
0
 10
51.9974951172
 20
51.9260617746
 10
51.9969182052
 20
51.941100766
 10
51.9952534697
 20
51.955904843
 10
51.9925009108
 20
51.9704740057
 10
51.9886328731
 20
51.9848912442
 10
51.9836770119
 20
51.9990735683
 10
51.9777162933
 20
52.0127720078
 10
51.9707341832
 20
52.0259741164
 10
51.9627472157
 20
52.0386923405
 10
51.9538879586
 20
52.0507150491
 10
51.944141735
 20
52.0620305786
 10
51.9335232218
 20
52.0726505927
 10
51.9222090172
 20
52.0823984512
 10
51.9101874614
 20
52.0912594966
 10
51.8974702142
 20
52.0992483865
 10
51.8842688532
 20
52.1062324538
 10
51.8705718474
 20
52.1121951464
 10
51.8563907277
 20
52.1171530164
 10
51.8419716644
 20
52.1210230522
 10
51.8273967142
 20
52.1237775834
 10
51.8125838204
 20
52.1254442805
 10
51.797532983
 20
52.1260231435
  0
LWPOLYLINE
  5
44B
100
AcDbEntity
  8
RACCORDO
100
AcDbPolyline
 62
253
  6
CONTINUOUS
 90
22
 70
0
 10
52.2974502614
 20
51.9260543436
 10
52.2960459251
 20
51.9634112444
 10
52.2918543216
 20
52.0005588528
 10
52.2848989217
 20
52.0372895261
 10
52.2752186593
 20
52.0733979696
 10
52.2628676685
 20
52.1086823312
 10
52.2479149827
 20
52.1429453306
 10
52.2304442166
 20
52.1759954371
 10
52.2105530669
 20
52.2076479259
 10
52.1883527211
 20
52.237725856
 10
52.1639673204
 20
52.2660610637
 10
52.1375331818
 20
52.2924952059
 10
52.1091979823
 20
52.3168806067
 10
52.0791200708
 20
52.3390809468
 10
52.0474676069
 20
52.3589720903
 10
52.0144175159
 20
52.3764428587
 10
51.9801545124
 20
52.3913955562
 10
51.9448701342
 20
52.4037465612
 10
51.9087616701
 20
52.4134268356
 10
51.8720309755
 20
52.4203822441
 10
51.8348833423
 20
52.4245738532
 10
51.7975264138
 20
52.4259781912
  0
LWPOLYLINE
  5
44C
100
AcDbEntity
  8
RACCORDO
100
AcDbPolyline
 62
7
  6
CONTINUOUS
 90
22
 70
0
 10
52.3184877291
 20
51.9470918114
 10
52.3170962561
 20
51.9843720313
 10
52.3129216812
 20
52.0214943867
 10
52.3059759919
 20
52.0582504871
 10
52.2962721497
 20
52.0944803965
 10
52.2838611103
 20
52.1299278608
 10
52.2688671463
 20
52.1642538945
 10
52.2514555493
 20
52.1971695095
 10
52.23169795
 20
52.2286156229
 10
52.2095882488
 20
52.2585983072
 10
52.185127317
 20
52.2870448356
 10
52.1585169057
 20
52.3136552468
 10
52.1300703774
 20
52.3381161787
 10
52.100087693
 20
52.3602258799
 10
52.0686415797
 20
52.3799834792
 10
52.0357259646
 20
52.3973950762
 10
52.0013999309
 20
52.4123890402
 10
51.9659524667
 20
52.4248000796
 10
51.9297225572
 20
52.4345039217
 10
51.8929664568
 20
52.4414496111
 10
51.8558441015
 20
52.445624186
 10
51.8185638816
 20
52.447015659
  0
LWPOLYLINE
  5
44D
100
AcDbEntity
  8
RACCORDO
100
AcDbPolyline
 62
253
  6
CONTINUOUS
 90
16
 70
0
 10
55.5805024214
 20
-39.8068219528
 10
55.5800261483
 20
-39.7931449725
 10
55.5786449728
 20
-39.779647156
 10
55.5763588949
 20
-39.7663285032
 10
55.5731488837
 20
-39.7531264919
 10
55.5690339702
 20
-39.7401036445
 10
55.5640712469
 20
-39.7274475274
 10
55.558249255
 20
-39.7151660355
 10
55.5515794533
 20
-39.703251274
 10
55.5441533111
 20
-39.6918671255
 10
55.5359589097
 20
-39.681019704
 10
55.5270081677
 20
-39.6707028955
 10
55.5174283104
 20
-39.6610622402
 10
55.5072617462
 20
-39.6521462515
 10
55.4964660667
 20
-39.6439064159
 10
55.4850412718
 20
-39.6363427335
  0
LWPOLYLINE
  5
44E
100
AcDbEntity
  8
RACCORDO
100
AcDbPolyline
 62
253
  6
CONTINUOUS
 90
16
 70
0
 10
55.5805024214
 20
40.1931780472
 10
55.5800261483
 20
40.2068550275
 10
55.5786449728
 20
40.220352844
 10
55.5763588949
 20
40.2336714968
 10
55.5731488837
 20
40.2468735081
 10
55.5690339702
 20
40.2598963555
 10
55.5640712469
 20
40.2725524726
 10
55.558249255
 20
40.2848339645
 10
55.5515794533
 20
40.296748726
 10
55.5441533111
 20
40.3081328745
 10
55.5359589097
 20
40.318980296
 10
55.5270081677
 20
40.3292971045
 10
55.5174283104
 20
40.3389377598
 10
55.5072617462
 20
40.3478537485
 10
55.4964660667
 20
40.3560935841
 10
55.4850412718
 20
40.3636572665
  0
LWPOLYLINE
  5
44F
100
AcDbEntity
  8
RACCORDO
100
AcDbPolyline
 62
253
  6
CONTINUOUS
 90
16
 70
0
 10
55.880451881
 20
-39.8068279758
 10
55.8792955327
 20
-39.7728126168
 10
55.8758234261
 20
-39.7389655114
 10
55.8700586578
 20
-39.7054409922
 10
55.8620306738
 20
-39.6723889375
 10
55.8517705478
 20
-39.6399589883
 10
55.8393281918
 20
-39.6082986695
 10
55.8247655497
 20
-39.5775542526
 10
55.8081449115
 20
-39.5478719009
 10
55.7895405839
 20
-39.5193907828
 10
55.76904623
 20
-39.4922390004
 10
55.7467572015
 20
-39.466543646
 10
55.7227717396
 20
-39.4424277253
 10
55.6972011341
 20
-39.4199966475
 10
55.6701602807
 20
-39.3993510725
 10
55.641765848
 20
-39.380590827
  0
LWPOLYLINE
  5
450
100
AcDbEntity
  8
RACCORDO
100
AcDbPolyline
 62
253
  6
CONTINUOUS
 90
16
 70
0
 10
55.880451881
 20
40.1931720242
 10
55.8792955327
 20
40.2271873832
 10
55.8758234261
 20
40.2610344886
 10
55.8700586578
 20
40.2945590078
 10
55.8620306738
 20
40.3276110625
 10
55.8517705478
 20
40.3600410117
 10
55.8393281918
 20
40.3917013305
 10
55.8247655497
 20
40.4224457474
 10
55.8081449115
 20
40.4521280991
 10
55.7895405839
 20
40.4806092172
 10
55.76904623
 20
40.5077609996
 10
55.7467572015
 20
40.533456354
 10
55.7227717396
 20
40.5575722747
 10
55.6972011341
 20
40.5800033525
 10
55.6701602807
 20
40.6006489275
 10
55.641765848
 20
40.619409173
  0
LINE
  5
451
100
AcDbEntity
  8
RACCORDO
100
AcDbLine
 62
253
  6
CONTINUOUS
 10
55.5805099739
 20
-41.3375002017
 11
55.5805024214
 21
-39.8068219528
  0
LINE
  5
452
100
AcDbEntity
  8
RACCORDO
100
AcDbLine
 62
253
  6
CONTINUOUS
 10
55.5805024231
 20
30.2008532874
 11
55.5805030378
 21
31.731457458
  0
LINE
  5
453
100
AcDbEntity
  8
RACCORDO
100
AcDbLine
 62
253
  6
CONTINUOUS
 10
55.5805024231
 20
-49.7991467126
 11
55.5805030378
 21
-48.268542542
  0
LINE
  5
454
100
AcDbEntity
  8
RACCORDO
100
AcDbLine
 62
253
  6
CONTINUOUS
 10
55.580509968
 20
38.662499861
 11
55.5805024214
 21
40.1931780472
  0
LINE
  5
455
100
AcDbEntity
  8
RACCORDO
100
AcDbLine
 62
253
  6
CONTINUOUS
 10
55.8804573464
 20
-49.7991407056
 11
55.8804573464
 21
-48.2685425416
  0
LINE
  5
456
100
AcDbEntity
  8
RACCORDO
100
AcDbLine
 62
253
  6
CONTINUOUS
 10
55.8804573464
 20
-41.3374261404
 11
55.8804573464
 21
-39.8068279724
  0
LINE
  5
457
100
AcDbEntity
  8
RACCORDO
100
AcDbLine
 62
253
  6
CONTINUOUS
 10
55.8804573464
 20
30.2008592944
 11
55.8804573464
 21
31.7314574584
  0
LINE
  5
458
100
AcDbEntity
  8
RACCORDO
100
AcDbLine
 62
253
  6
CONTINUOUS
 10
55.8804573464
 20
38.6625738596
 11
55.8804573464
 21
40.1931720276
  0
LINE
  5
459
100
AcDbEntity
  8
RACCORDO
100
AcDbLine
 62
7
  6
CONTINUOUS
 10
55.8946641609
 20
-49.8070900405
 11
55.8945127882
 21
-48.2756239176
  0
LINE
  5
45A
100
AcDbEntity
  8
RACCORDO
100
AcDbLine
 62
7
  6
CONTINUOUS
 10
55.8946641609
 20
30.1929099595
 11
55.8945127882
 21
31.7243760824
  0
LINE
  5
45B
100
AcDbEntity
  8
RACCORDO
100
AcDbLine
 62
7
  6
CONTINUOUS
 10
55.8945127882
 20
38.6696552356
 11
55.8946641609
 21
40.2011213585
  0
LINE
  5
45C
100
AcDbEntity
  8
RACCORDO
100
AcDbLine
 62
7
  6
CONTINUOUS
 10
55.8945127882
 20
-41.3303447644
 11
55.8946641609
 21
-39.7988786415
  0
LWPOLYLINE
  5
45D
100
AcDbEntity
  8
RACCORDO
100
AcDbPolyline
 62
7
  6
CONTINUOUS
 90
19
 70
0
 10
55.8946641609
 20
30.1929099595
 10
55.8941668515
 20
30.1687397898
 10
55.8924941017
 20
30.1441243591
 10
55.8895784131
 20
30.119145341
 10
55.8853290418
 20
30.0938572438
 10
55.8797015107
 20
30.0683768074
 10
55.8727024147
 20
30.0428788218
 10
55.8642807472
 20
30.0175021448
 10
55.8543731402
 20
29.992274674
 10
55.8429648437
 20
29.9672149917
 10
55.8300052218
 20
29.9424486359
 10
55.8154236969
 20
29.9180481529
 10
55.7991481841
 20
29.8939958774
 10
55.7810846599
 20
29.8704111339
 10
55.7611778497
 20
29.8474429351
 10
55.7393755599
 20
29.8251819702
 10
55.7155937766
 20
29.8037888434
 10
55.6897426606
 20
29.7834564097
 10
55.6617477443
 20
29.7643574277
  0
LWPOLYLINE
  5
45E
100
AcDbEntity
  8
RACCORDO
100
AcDbPolyline
 62
7
  6
CONTINUOUS
 90
19
 70
0
 10
55.8946641609
 20
-49.8070900405
 10
55.8941668515
 20
-49.8312602102
 10
55.8924941017
 20
-49.8558756409
 10
55.8895784131
 20
-49.880854659
 10
55.8853290418
 20
-49.9061427562
 10
55.8797015107
 20
-49.9316231926
 10
55.8727024147
 20
-49.9571211782
 10
55.8642807472
 20
-49.9824978552
 10
55.8543731402
 20
-50.007725326
 10
55.8429648437
 20
-50.0327850083
 10
55.8300052218
 20
-50.0575513641
 10
55.8154236969
 20
-50.0819518471
 10
55.7991481841
 20
-50.1060041226
 10
55.7810846599
 20
-50.1295888661
 10
55.7611778497
 20
-50.1525570649
 10
55.7393755599
 20
-50.1748180298
 10
55.7155937766
 20
-50.1962111566
 10
55.6897426606
 20
-50.2165435903
 10
55.6617477443
 20
-50.2356425723
  0
LWPOLYLINE
  5
45F
100
AcDbEntity
  8
RACCORDO
100
AcDbPolyline
 62
253
  6
CONTINUOUS
 90
16
 70
0
 10
55.8804612377
 20
31.7314574589
 10
55.8814231368
 20
31.7625653973
 10
55.884323346
 20
31.7935527367
 10
55.8891468583
 20
31.8243011464
 10
55.8958765176
 20
31.8547017884
 10
55.9044909772
 20
31.884631712
 10
55.91494809
 20
31.9139560964
 10
55.9271954252
 20
31.9425472216
 10
55.9411923264
 20
31.970308401
 10
55.9568980222
 20
31.9971561531
 10
55.9742561062
 20
32.0229977003
 10
55.9931955781
 20
32.0477187845
 10
56.0136412389
 20
32.0712120255
 10
56.0355112333
 20
32.0933881685
 10
56.058726467
 20
32.1141653932
 10
56.0832032748
 20
32.1334598783
  0
LWPOLYLINE
  5
460
100
AcDbEntity
  8
RACCORDO
100
AcDbPolyline
 62
253
  6
CONTINUOUS
 90
16
 70
0
 10
55.8804612411
 20
-48.2685425411
 10
55.8814231313
 20
-48.2374347221
 10
55.8843233211
 20
-48.2064474529
 10
55.8891468172
 20
-48.1756990721
 10
55.8958764703
 20
-48.1452983983
 10
55.9044909377
 20
-48.115368403
 10
55.9149480657
 20
-48.0860439647
 10
55.9271954057
 20
-48.0574528234
 10
55.9411923024
 20
-48.0296916401
 10
55.956897996
 20
-48.0028438861
 10
55.9742560813
 20
-47.9770023354
 10
55.9931955529
 20
-47.9522812467
 10
56.0136412153
 20
-47.9287879994
 10
56.0355112153
 20
-47.9066118489
 10
56.0587264563
 20
-47.8858346157
 10
56.0832032739
 20
-47.8665401205
  0
LWPOLYLINE
  5
461
100
AcDbEntity
  8
RACCORDO
100
AcDbPolyline
 62
253
  6
CONTINUOUS
 90
16
 70
0
 10
55.5805030378
 20
31.731457458
 10
55.5820876873
 20
31.7814668452
 10
55.5867167759
 20
31.8309337396
 10
55.5943903035
 20
31.8798581413
 10
55.6051656309
 20
31.9284422644
 10
55.6189853973
 20
31.9764838947
 10
55.6356775205
 20
32.02337639
 10
55.6552644495
 20
32.0690761092
 10
55.6777237353
 20
32.1136266935
 10
55.7028159485
 20
32.1565524236
 10
55.7305812745
 20
32.1978548968
 10
55.7609795277
 20
32.2375325158
 10
55.7936507223
 20
32.2751047695
 10
55.8284748629
 20
32.3104114876
 10
55.8655719447
 20
32.3436128403
 10
55.9049419679
 20
32.3747088277
  0
LWPOLYLINE
  5
462
100
AcDbEntity
  8
RACCORDO
100
AcDbPolyline
 62
253
  6
CONTINUOUS
 90
16
 70
0
 10
55.5805030378
 20
-48.268542542
 10
55.5820876294
 20
-48.2185335112
 10
55.5867166726
 20
-48.1690668574
 10
55.5943901676
 20
-48.1201425805
 10
55.6051654789
 20
-48.0715584209
 10
55.6189852419
 20
-48.0235166382
 10
55.6356773625
 20
-47.9766240115
 10
55.6552642848
 20
-47.9309242337
 10
55.6777235648
 20
-47.8863736119
 10
55.7028157767
 20
-47.8434478461
 10
55.7305811006
 20
-47.8021453383
 10
55.7609793564
 20
-47.7624676866
 10
55.7936505775
 20
-47.7248953859
 10
55.828474775
 20
-47.6895886012
 10
55.8655719378
 20
-47.6563871674
 10
55.9049420658
 20
-47.6252910846
  0
LWPOLYLINE
  5
463
100
AcDbEntity
  8
RACCORDO
100
AcDbPolyline
 62
7
  6
CONTINUOUS
 90
22
 70
0
 10
52.3184877291
 20
-61.5530604934
 10
52.3170962561
 20
-61.5903407134
 10
52.3129216812
 20
-61.6274630687
 10
52.3059759919
 20
-61.6642191691
 10
52.2962721497
 20
-61.7004490786
 10
52.2838611103
 20
-61.7358965428
 10
52.2688671463
 20
-61.7702225765
 10
52.2514555493
 20
-61.8031381915
 10
52.23169795
 20
-61.8345843049
 10
52.2095882488
 20
-61.8645669892
 10
52.185127317
 20
-61.8930135176
 10
52.1585169057
 20
-61.9196239288
 10
52.1300703774
 20
-61.9440848607
 10
52.100087693
 20
-61.9661945619
 10
52.0686415797
 20
-61.9859521612
 10
52.0357259646
 20
-62.0033637582
 10
52.0013999309
 20
-62.0183577222
 10
51.9659524667
 20
-62.0307687616
 10
51.9297225572
 20
-62.0404726038
 10
51.8929664568
 20
-62.0474182931
 10
51.8558441015
 20
-62.051592868
 10
51.8185638816
 20
-62.052984341
  0
LINE
  5
464
100
AcDbEntity
  8
RACCORDO
100
AcDbLine
 62
253
  6
CONTINUOUS
 10
53.6911421793
 20
-46.3484945328
 11
53.6946980299
 21
-46.3053394808
  0
LINE
  5
465
100
AcDbEntity
  8
RACCORDO
100
AcDbLine
 62
253
  6
CONTINUOUS
 10
53.9458332816
 20
-43.2574741557
 11
53.9422774323
 21
-43.3006292155
  0
LINE
  5
466
100
AcDbEntity
  8
RACCORDO
100
AcDbLine
 62
253
  6
CONTINUOUS
 10
53.9901184438
 20
-46.244731668
 11
54.0550592886
 21
-45.4949539739
  0
LINE
  5
467
100
AcDbEntity
  8
RACCORDO
100
AcDbLine
 62
253
  6
CONTINUOUS
 10
53.646857016
 20
-43.3612370058
 11
53.5817266769
 21
-44.1131287834
  0
LINE
  5
468
100
AcDbEntity
  8
RACCORDO
100
AcDbLine
 62
253
  6
CONTINUOUS
 10
53.6946980228
 20
-43.300629211
 11
53.6647746636
 21
-43.6268610053
  0
LINE
  5
469
100
AcDbEntity
  8
RACCORDO
100
AcDbLine
 62
253
  6
CONTINUOUS
 10
53.9422774328
 20
-46.3053394747
 11
53.9721571198
 21
-45.9795725816
  0
LINE
  5
46A
100
AcDbEntity
  8
RACCORDO
100
AcDbLine
 62
253
  6
CONTINUOUS
 10
53.5817266769
 20
-44.1131287834
 11
53.5647716202
 21
-44.2980216965
  0
LINE
  5
46B
100
AcDbEntity
  8
RACCORDO
100
AcDbLine
 62
253
  6
CONTINUOUS
 10
54.0550592886
 20
-45.4949539739
 11
54.0722038381
 21
-45.3079469852
  0
LINE
  5
46C
100
AcDbEntity
  8
RACCORDO
100
AcDbLine
 62
253
  6
CONTINUOUS
 10
53.6647746636
 20
-43.6268610053
 11
53.6442766471
 21
-43.8399974145
  0
LINE
  5
46D
100
AcDbEntity
  8
RACCORDO
100
AcDbLine
 62
253
  6
CONTINUOUS
 10
53.9721571198
 20
-45.9795725816
 11
53.9926326756
 21
-45.7666414157
  0
LINE
  5
46E
100
AcDbEntity
  8
RACCORDO
100
AcDbLine
 62
253
  6
CONTINUOUS
 10
53.6442766471
 20
-43.8399974145
 11
53.6312846593
 21
-43.9685416036
  0
LINE
  5
46F
100
AcDbEntity
  8
RACCORDO
100
AcDbLine
 62
253
  6
CONTINUOUS
 10
53.9926326756
 20
-45.7666414157
 11
54.0056171879
 21
-45.6381375319
  0
LWPOLYLINE
  5
470
100
AcDbEntity
  8
RACCORDO
100
AcDbPolyline
 62
253
  6
CONTINUOUS
 90
22
 70
0
 10
52.2729775438
 20
-44.6756387886
 10
52.2734976047
 20
-44.6706791085
 10
52.2743534533
 20
-44.6656639288
 10
52.2755450896
 20
-44.6605932495
 10
52.2770568443
 20
-44.6554487162
 10
52.2789043866
 20
-44.6502486833
 10
52.2811347244
 20
-44.6450482141
 10
52.2837492025
 20
-44.6398431614
 10
52.286746476
 20
-44.6346376724
 10
52.2901695179
 20
-44.6294992515
 10
52.2940112759
 20
-44.6244276878
 10
52.2982788023
 20
-44.6194231922
 10
52.3030362272
 20
-44.6145539015
 10
52.3082983332
 20
-44.60979774
 10
52.3140503377
 20
-44.6051767834
 10
52.3203120231
 20
-44.6008253961
 10
52.3271105434
 20
-44.5967315525
 10
52.3344187446
 20
-44.5929072781
 10
52.3421749469
 20
-44.5895230139
 10
52.3503585905
 20
-44.5866355734
 10
52.3589902353
 20
-44.5841881431
 10
52.3680698812
 20
-44.5821807229
  0
LWPOLYLINE
  5
471
100
AcDbEntity
  8
RACCORDO
100
AcDbPolyline
 62
253
  6
CONTINUOUS
 90
22
 70
0
 10
55.3639979209
 20
-44.9303298909
 10
55.3634778622
 20
-44.935289572
 10
55.3626220149
 20
-44.9403047525
 10
55.3614303791
 20
-44.9453754326
 10
55.3599186237
 20
-44.9505199667
 10
55.3580710797
 20
-44.9557200002
 10
55.3558407402
 20
-44.9609204699
 10
55.3532262604
 20
-44.9661255228
 10
55.3502289851
 20
-44.9713310119
 10
55.3468059413
 20
-44.976469433
 10
55.3429641813
 20
-44.9815409967
 10
55.3386966527
 20
-44.9865454923
 10
55.3339392254
 20
-44.9914147831
 10
55.3286771166
 20
-44.9961709449
 10
55.3229251091
 20
-45.0007919019
 10
55.3166634206
 20
-45.0051432895
 10
55.3098648972
 20
-45.0092371335
 10
55.3025566928
 20
-45.0130614081
 10
55.2948004873
 20
-45.0164456727
 10
55.2866168405
 20
-45.0193331135
 10
55.2779851926
 20
-45.0217805443
 10
55.2689055435
 20
-45.023787965
  0
LINE
  5
472
100
AcDbEntity
  8
RACCORDO
100
AcDbLine
 62
253
  6
CONTINUOUS
 10
54.0056171879
 20
-45.6381375319
 11
54.0149165802
 21
-45.5502328224
  0
LINE
  5
473
100
AcDbEntity
  8
RACCORDO
100
AcDbLine
 62
253
  6
CONTINUOUS
 10
53.6312846593
 20
-43.9685416036
 11
53.6219819984
 21
-44.0564472545
  0
LINE
  5
474
100
AcDbEntity
  8
RACCORDO
100
AcDbLine
 62
253
  6
CONTINUOUS
 10
53.6219819984
 20
-44.0564472545
 11
53.6134826487
 21
-44.1330390673
  0
LINE
  5
475
100
AcDbEntity
  8
RACCORDO
100
AcDbLine
 62
253
  6
CONTINUOUS
 10
54.0149165802
 20
-45.5502328224
 11
54.0234139147
 21
-45.473631247
  0
LINE
  5
476
100
AcDbEntity
  8
RACCORDO
100
AcDbLine
 62
253
  6
CONTINUOUS
 10
54.0234139147
 20
-45.473631247
 11
54.0293218688
 21
-45.4225294168
  0
LINE
  5
477
100
AcDbEntity
  8
RACCORDO
100
AcDbLine
 62
253
  6
CONTINUOUS
 10
53.6134826487
 20
-44.1330390673
 11
53.6075418114
 21
-44.184322442
  0
LWPOLYLINE
  5
478
100
AcDbEntity
  8
RACCORDO
100
AcDbPolyline
 62
253
  6
CONTINUOUS
 90
3
 70
0
 10
53.6075418114
 20
-44.184322442
 10
53.6018762437
 20
-44.2313729753
 10
53.6000282195
 20
-44.2461874612
  0
LWPOLYLINE
  5
479
100
AcDbEntity
  8
RACCORDO
100
AcDbPolyline
 62
253
  6
CONTINUOUS
 90
3
 70
0
 10
54.0293218688
 20
-45.4225294168
 10
54.0350630426
 20
-45.3749936111
 10
54.0369472368
 20
-45.3597812425
  0
LWPOLYLINE
  5
47A
100
AcDbEntity
  8
RACCORDO
100
AcDbPolyline
 62
253
  6
CONTINUOUS
 90
22
 70
0
 10
52.3161325534
 20
-44.6791946339
 10
52.3165225849
 20
-44.6767187712
 10
52.3171108279
 20
-44.6741948544
 10
52.3179039129
 20
-44.6716304927
 10
52.3189044363
 20
-44.669035392
 10
52.3201221827
 20
-44.6664175674
 10
52.321574493
 20
-44.6637835097
 10
52.3232669961
 20
-44.6611455133
 10
52.325204658
 20
-44.6585145777
 10
52.3274042843
 20
-44.6558972777
 10
52.3298657207
 20
-44.6533132776
 10
52.3325968428
 20
-44.6507725823
 10
52.3356292785
 20
-44.6482720195
 10
52.3389755301
 20
-44.6458277165
 10
52.342631329
 20
-44.6434668524
 10
52.3466049104
 20
-44.6412086811
 10
52.3509071183
 20
-44.6390758198
 10
52.3555255263
 20
-44.6370990393
 10
52.3604300979
 20
-44.635311078
 10
52.3656042759
 20
-44.6337403338
 10
52.3710456365
 20
-44.6324121929
 10
52.3767403911
 20
-44.6313536283
  0
LWPOLYLINE
  5
47B
100
AcDbEntity
  8
RACCORDO
100
AcDbPolyline
 62
253
  6
CONTINUOUS
 90
22
 70
0
 10
55.3208429284
 20
-44.9267740449
 10
55.3204528995
 20
-44.9292499088
 10
55.3198646579
 20
-44.9317738266
 10
55.3190715732
 20
-44.934338189
 10
55.3180710488
 20
-44.9369332902
 10
55.3168533004
 20
-44.9395511152
 10
55.3154009879
 20
-44.9421851731
 10
55.3137084827
 20
-44.9448231697
 10
55.3117708184
 20
-44.9474541054
 10
55.3095711895
 20
-44.9500714054
 10
55.3071097503
 20
-44.9526554057
 10
55.3043786252
 20
-44.9551961012
 10
55.3013461861
 20
-44.9576966641
 10
55.2979999307
 20
-44.9601409675
 10
55.2943441276
 20
-44.962501832
 10
55.2903705419
 20
-44.9647600038
 10
55.2860683295
 20
-44.9668928655
 10
55.2814499169
 20
-44.9688696464
 10
55.2765453406
 20
-44.9706576082
 10
55.2713711579
 20
-44.9722283529
 10
55.2659297927
 20
-44.9735564944
 10
55.2602350335
 20
-44.9746150596
  0
LINE
  5
47C
100
AcDbEntity
  8
RACCORDO
100
AcDbLine
 62
7
  6
CONTINUOUS
 10
53.5647716202
 20
-44.2980216965
 11
53.5521310696
 21
-44.3746180996
  0
LINE
  5
47D
100
AcDbEntity
  8
RACCORDO
100
AcDbLine
 62
7
  6
CONTINUOUS
 10
54.0722038381
 20
-45.3079469852
 11
54.0848443887
 21
-45.2313505824
  0
LINE
  5
47E
100
AcDbEntity
  8
RACCORDO
100
AcDbLine
 62
253
  6
CONTINUOUS
 10
52.3680698848
 20
-45.0237879597
 11
52.3767403947
 21
-44.9746150543
  0
LINE
  5
47F
100
AcDbEntity
  8
RACCORDO
100
AcDbLine
 62
253
  6
CONTINUOUS
 10
53.4315830418
 20
-44.2945724673
 11
53.5976841104
 21
-43.3525664967
  0
LINE
  5
480
100
AcDbEntity
  8
RACCORDO
100
AcDbLine
 62
253
  6
CONTINUOUS
 10
53.3100758554
 20
-45.1898890283
 11
53.3187463653
 21
-45.1407161229
  0
LINE
  5
481
100
AcDbEntity
  8
RACCORDO
100
AcDbLine
 62
253
  6
CONTINUOUS
 10
53.4807559472
 20
-44.3032429772
 11
53.646857016
 21
-43.3612370058
  0
LINE
  5
482
100
AcDbEntity
  8
RACCORDO
100
AcDbLine
 62
253
  6
CONTINUOUS
 10
54.1562195111
 20
-45.3027257048
 11
53.9901184438
 21
-46.244731668
  0
LINE
  5
483
100
AcDbEntity
  8
RACCORDO
100
AcDbLine
 62
253
  6
CONTINUOUS
 10
54.3268996029
 20
-44.4160796537
 11
54.3182290929
 21
-44.4652525591
  0
LINE
  5
484
100
AcDbEntity
  8
RACCORDO
100
AcDbLine
 62
253
  6
CONTINUOUS
 10
54.2053924165
 20
-45.3113962147
 11
54.0392913493
 21
-46.2534021771
  0
LWPOLYLINE
  5
485
100
AcDbEntity
  8
RACCORDO
100
AcDbPolyline
 62
253
  6
CONTINUOUS
 90
19
 70
0
 10
53.6468570158
 20
-43.3612370066
 10
53.648016917
 20
-43.3550733987
 10
53.6494961879
 20
-43.3491918839
 10
53.6512639264
 20
-43.3436108171
 10
53.6532874716
 20
-43.3383415767
 10
53.6555359916
 20
-43.3333984109
 10
53.6579832346
 20
-43.3287999416
 10
53.6606067371
 20
-43.324548072
 10
53.6633732309
 20
-43.3206515995
 10
53.6662405123
 20
-43.317134233
 10
53.6691610084
 20
-43.3140141863
 10
53.6721257959
 20
-43.3112616595
 10
53.6751560243
 20
-43.3088301388
 10
53.6782205737
 20
-43.3067201785
 10
53.6813145385
 20
-43.304925697
 10
53.6845116105
 20
-43.3034105969
 10
53.6878312794
 20
-43.3021764598
 10
53.6912314499
 20
-43.301246086
 10
53.6946980205
 20
-43.3006291733
  0
LWPOLYLINE
  5
486
100
AcDbEntity
  8
RACCORDO
100
AcDbPolyline
 62
253
  6
CONTINUOUS
 90
19
 70
0
 10
53.9901184439
 20
-46.2447316672
 10
53.9889585424
 20
-46.2508952773
 10
53.9874792713
 20
-46.2567767942
 10
53.9857115326
 20
-46.2623578632
 10
53.9836879874
 20
-46.2676271056
 10
53.9814394672
 20
-46.2725702733
 10
53.9789922241
 20
-46.2771687447
 10
53.9763687214
 20
-46.2814206163
 10
53.9736022273
 20
-46.2853170909
 10
53.9707349455
 20
-46.2888344592
 10
53.9678144487
 20
-46.2919545077
 10
53.9648496605
 20
-46.2947070361
 10
53.9618194315
 20
-46.2971385581
 10
53.9587548818
 20
-46.2992485193
 10
53.9556609168
 20
-46.3010430015
 10
53.9524638448
 20
-46.3025581017
 10
53.949144176
 20
-46.3037922384
 10
53.9457440057
 20
-46.3047226113
 10
53.9422774355
 20
-46.3053395226
  0
LWPOLYLINE
  5
487
100
AcDbEntity
  8
RACCORDO
100
AcDbPolyline
 62
7
  6
CONTINUOUS
 90
13
 70
0
 10
53.5521310696
 20
-44.3746180996
 10
53.547600397
 20
-44.3952173401
 10
53.541012087
 20
-44.4149632436
 10
53.5325052282
 20
-44.4336687465
 10
53.5222704967
 20
-44.4511143777
 10
53.5104470823
 20
-44.4672183975
 10
53.4970672712
 20
-44.4819982291
 10
53.4822843944
 20
-44.4953002892
 10
53.4662398913
 20
-44.5070155671
 10
53.4488752927
 20
-44.5171556382
 10
53.4302533253
 20
-44.5255924096
 10
53.4106072137
 20
-44.5321283267
 10
53.3901214877
 20
-44.5366276815
  0
LWPOLYLINE
  5
488
100
AcDbEntity
  8
RACCORDO
100
AcDbPolyline
 62
7
  6
CONTINUOUS
 90
13
 70
0
 10
54.0848443887
 20
-45.2313505824
 10
54.0893750613
 20
-45.210751342
 10
54.0959633713
 20
-45.1910054385
 10
54.10447023
 20
-45.1722999355
 10
54.1147049616
 20
-45.1548543043
 10
54.126528376
 20
-45.1387502845
 10
54.139908187
 20
-45.1239704529
 10
54.1546910638
 20
-45.1106683929
 10
54.1707355669
 20
-45.0989531149
 10
54.1881001656
 20
-45.0888130438
 10
54.206722133
 20
-45.0803762724
 10
54.2263682445
 20
-45.0738403553
 10
54.2468539705
 20
-45.0693410005
  0
LWPOLYLINE
  5
489
100
AcDbEntity
  8
RACCORDO
100
AcDbPolyline
 62
253
  6
CONTINUOUS
 90
19
 70
0
 10
53.5976841104
 20
-43.3525664967
 10
53.5998916456
 20
-43.3427327722
 10
53.602622905
 20
-43.3334069123
 10
53.6058778886
 20
-43.3245889168
 10
53.6097133909
 20
-43.3162602466
 10
53.6140726175
 20
-43.3084394409
 10
53.6187851845
 20
-43.3011821173
 10
53.6238591195
 20
-43.2944951264
 10
53.6292863949
 20
-43.2883716178
 10
53.6348725441
 20
-43.2828466576
 10
53.6405693325
 20
-43.2779604504
 10
53.6464249947
 20
-43.2736727917
 10
53.6523897673
 20
-43.2698981341
 10
53.6584184707
 20
-43.26662196
 10
53.6645562845
 20
-43.2638587869
 10
53.6708889843
 20
-43.2615666199
 10
53.6774451619
 20
-43.2597314606
 10
53.6841962254
 20
-43.2583673073
 10
53.6911421749
 20
-43.25747416
  0
LINE
  5
48A
100
AcDbEntity
  8
RACCORDO
100
AcDbLine
 62
7
  6
CONTINUOUS
 10
52.3184877291
 20
-38.402984341
 11
52.2974502614
 21
-38.4240564991
  0
LWPOLYLINE
  5
48B
100
AcDbEntity
  8
RACCORDO
100
AcDbPolyline
 62
7
  6
CONTINUOUS
 90
13
 70
0
 10
51.5442825123
 20
-41.7289690254
 10
51.5748524683
 20
-41.7043929637
 10
51.6031325489
 20
-41.6778583184
 10
51.6291227542
 20
-41.6493650895
 10
51.6529572516
 20
-41.6187171498
 10
51.6745018737
 20
-41.5861106265
 10
51.693354118
 20
-41.5521339008
 10
51.7094629527
 20
-41.5167461425
 10
51.7228794095
 20
-41.4799881817
 10
51.7333540817
 20
-41.4425708901
 10
51.7408038335
 20
-41.4047312251
 10
51.7453118006
 20
-41.3662322293
 10
51.7468779829
 20
-41.3270739028
  0
LWPOLYLINE
  5
48C
100
AcDbEntity
  8
RACCORDO
100
AcDbPolyline
 62
7
  6
CONTINUOUS
 90
7
 70
0
 10
53.6000284157
 20
-44.2461873409
 10
53.5910508077
 20
-44.2515195558
 10
53.5832461498
 20
-44.2582410865
 10
53.5766709943
 20
-44.2662999088
 10
53.5713740193
 20
-44.2756465962
 10
53.5673963049
 20
-44.2862348108
 10
53.5647716047
 20
-44.2980217427
  0
LWPOLYLINE
  5
48D
100
AcDbEntity
  8
RACCORDO
100
AcDbPolyline
 62
7
  6
CONTINUOUS
 90
7
 70
0
 10
54.0369469413
 20
-45.3597814237
 10
54.0459245952
 20
-45.3544491605
 10
54.0537292851
 20
-45.3477275971
 10
54.0603044597
 20
-45.3396687587
 10
54.0656014418
 20
-45.3303220721
 10
54.0695791527
 20
-45.3197338755
 10
54.0722038401
 20
-45.3079469791
  0
LINE
  5
48E
100
AcDbEntity
  8
RACCORDO
100
AcDbLine
 62
253
  6
CONTINUOUS
 10
56.0832013774
 20
-41.7394311279
 11
56.0965977471
 21
-41.7318617003
  0
LINE
  5
48F
100
AcDbEntity
  8
RACCORDO
100
AcDbLine
 62
253
  6
CONTINUOUS
 10
55.8946641609
 20
-39.7988786415
 11
55.8804573464
 21
-39.8068279724
  0
LINE
  5
490
100
AcDbEntity
  8
RACCORDO
100
AcDbLine
 62
253
  6
CONTINUOUS
 10
55.8804573464
 20
-41.3374261404
 11
55.8945127882
 21
-41.3303447644
  0
LWPOLYLINE
  5
491
100
AcDbEntity
  8
RACCORDO
100
AcDbPolyline
 62
253
  6
CONTINUOUS
 90
7
 70
0
 10
51.7609334248
 20
38.6658335079
 10
51.7614641303
 20
38.6659722264
 10
51.7626261705
 20
38.6674897987
 10
51.7644647174
 20
38.6703862248
 10
51.76701864
 20
38.6745798141
 10
51.7703343927
 20
38.6801522573
 10
51.774479055
 20
38.687348626
  0
LWPOLYLINE
  5
492
100
AcDbEntity
  8
RACCORDO
100
AcDbPolyline
 62
7
  6
CONTINUOUS
 90
7
 70
0
 10
54.3234503729
 20
34.9432995499
 10
54.3353276657
 20
34.9459785521
 10
54.345969673
 20
34.9499926344
 10
54.3553335532
 20
34.9553049362
 10
54.3633734087
 20
34.961871617
 10
54.3700407078
 20
34.9696416097
 10
54.3752847511
 20
34.978556373
  0
LWPOLYLINE
  5
493
100
AcDbEntity
  8
RACCORDO
100
AcDbPolyline
 62
7
  6
CONTINUOUS
 90
7
 70
0
 10
53.3135251617
 20
35.450731794
 10
53.3016477972
 20
35.4480528027
 10
53.2910057465
 20
35.4440387291
 10
53.2816418514
 20
35.4387264354
 10
53.2736020096
 20
35.4321597637
 10
53.2669347529
 20
35.4243897827
 10
53.2616907805
 20
35.4154750351
  0
LWPOLYLINE
  5
494
100
AcDbEntity
  8
RACCORDO
100
AcDbPolyline
 62
253
  6
CONTINUOUS
 90
13
 70
0
 10
54.3182290929
 20
34.8592838771
 10
54.30045492
 20
34.855299699
 10
54.282502024
 20
34.8494824093
 10
54.2645875083
 20
34.8417072759
 10
54.2468174965
 20
34.8317843374
 10
54.2296296445
 20
34.8197001349
 10
54.2136910802
 20
34.80576633
 10
54.1992098759
 20
34.7900949974
 10
54.186393298
 20
34.7728347141
 10
54.1756696193
 20
34.7546160144
 10
54.1671246918
 20
34.7358610793
 10
54.1606534286
 20
34.7166700892
 10
54.1562195111
 20
34.6972742952
  0
LWPOLYLINE
  5
495
100
AcDbEntity
  8
RACCORDO
100
AcDbPolyline
 62
253
  6
CONTINUOUS
 90
13
 70
0
 10
53.3187463653
 20
35.5347474409
 10
53.3365205382
 20
35.5387316189
 10
53.3544734343
 20
35.5445489087
 10
53.37238795
 20
35.5523240421
 10
53.3901579618
 20
35.5622469806
 10
53.4073458137
 20
35.5743311831
 10
53.423284378
 20
35.588264988
 10
53.4377655824
 20
35.6039363206
 10
53.4505821602
 20
35.6211966039
 10
53.4613058389
 20
35.6394153036
 10
53.4698507665
 20
35.6581702387
 10
53.4763220297
 20
35.6773612287
 10
53.4807559472
 20
35.6967570228
  0
LWPOLYLINE
  5
496
100
AcDbEntity
  8
RACCORDO
100
AcDbPolyline
 62
253
  6
CONTINUOUS
 90
13
 70
0
 10
54.3268996029
 20
34.8101109717
 10
54.3132227529
 20
34.8072495365
 10
54.2997738069
 20
34.8028433178
 10
54.286552765
 20
34.7968923157
 10
54.2732672972
 20
34.7892952843
 10
54.2602097335
 20
34.7801534693
 10
54.2482570636
 20
34.7697706086
 10
54.2375573725
 20
34.7580040654
 10
54.2279625754
 20
34.7449964764
 10
54.2199054076
 20
34.7314794891
 10
54.2135301145
 20
34.7176969861
 10
54.2086924508
 20
34.7034050848
 10
54.2053924165
 20
34.6886037853
  0
LWPOLYLINE
  5
497
100
AcDbEntity
  8
RACCORDO
100
AcDbPolyline
 62
253
  6
CONTINUOUS
 90
13
 70
0
 10
53.3100758554
 20
35.5839203463
 10
53.3237527054
 20
35.5867817815
 10
53.3372016513
 20
35.5911880002
 10
53.3504226932
 20
35.5971390023
 10
53.363708161
 20
35.6047360337
 10
53.3767657248
 20
35.6138778486
 10
53.3887183946
 20
35.6242607094
 10
53.3994180857
 20
35.6360272526
 10
53.4090128829
 20
35.6490348416
 10
53.4170700506
 20
35.6625518289
 10
53.4234453438
 20
35.6763343319
 10
53.4282830075
 20
35.6906262332
 10
53.4315830418
 20
35.7054275327
  0
LINE
  5
498
100
AcDbEntity
  8
RACCORDO
100
AcDbLine
 62
253
  6
CONTINUOUS
 10
53.5976841051
 20
33.7465978446
 11
53.6468570105
 21
33.7552683546
  0
LINE
  5
499
100
AcDbEntity
  8
RACCORDO
100
AcDbLine
 62
253
  6
CONTINUOUS
 10
55.2689055435
 20
34.976212035
 11
54.3268996029
 21
34.8101109717
  0
LINE
  5
49A
100
AcDbEntity
  8
RACCORDO
100
AcDbLine
 62
253
  6
CONTINUOUS
 10
53.4315830418
 20
34.6886037853
 11
53.4807559472
 21
34.6972742952
  0
LINE
  5
49B
100
AcDbEntity
  8
RACCORDO
100
AcDbLine
 62
253
  6
CONTINUOUS
 10
55.2602350333
 20
35.0253849403
 11
54.3182290929
 21
34.8592838771
  0
LWPOLYLINE
  5
49C
100
AcDbEntity
  8
RACCORDO
100
AcDbPolyline
 62
253
  6
CONTINUOUS
 90
6
 70
0
 10
46.764134569
 20
52.297015659
 10
46.7629212471
 20
52.3045075364
 10
46.7612145803
 20
52.312635745
 10
46.7594684179
 20
52.3186157958
 10
46.7576957594
 20
52.3224031245
 10
46.7559097988
 20
52.323969505
  0
LINE
  5
49D
100
AcDbEntity
  8
RACCORDO
100
AcDbLine
 62
253
  6
CONTINUOUS
 10
53.6156260008
 20
34.5081457393
 11
53.6076439797
 21
34.5775449091
  0
LINE
  5
49E
100
AcDbEntity
  8
RACCORDO
100
AcDbLine
 62
253
  6
CONTINUOUS
 10
53.6198726954
 20
34.4697752707
 11
53.6156260008
 21
34.5081457393
  0
LINE
  5
49F
100
AcDbEntity
  8
RACCORDO
100
AcDbLine
 62
253
  6
CONTINUOUS
 10
54.0104174831
 20
35.9863671007
 11
54.0171589526
 21
35.9237386926
  0
LINE
  5
4A0
100
AcDbEntity
  8
RACCORDO
100
AcDbLine
 62
253
  6
CONTINUOUS
 10
55.2689055653
 20
-44.5821807208
 11
55.2602350553
 21
-44.6313536262
  0
LWPOLYLINE
  5
4A1
100
AcDbEntity
  8
RACCORDO
100
AcDbPolyline
 62
253
  6
CONTINUOUS
 90
19
 70
0
 10
54.0392913493
 20
-46.2534021771
 10
54.037083814
 20
-46.2632359028
 10
54.0343525546
 20
-46.272561764
 10
54.031097571
 20
-46.2813797607
 10
54.0272620687
 20
-46.2897084322
 10
54.0229028423
 20
-46.2975292393
 10
54.0181902753
 20
-46.3047865643
 10
54.01311634
 20
-46.3114735569
 10
54.0076890641
 20
-46.3175970675
 10
54.0021029143
 20
-46.3231220295
 10
53.9964061247
 20
-46.3280082384
 10
53.9905504611
 20
-46.3322958988
 10
53.9845856874
 20
-46.3360705577
 10
53.9785569834
 20
-46.3393467328
 10
53.9724191692
 20
-46.3421099064
 10
53.9660864694
 20
-46.3444020732
 10
53.9595302922
 20
-46.3462372315
 10
53.9527792294
 20
-46.347601383
 10
53.945833281
 20
-46.3484945277
  0
LINE
  5
4A2
100
AcDbEntity
  8
RACCORDO
100
AcDbLine
 62
253
  6
CONTINUOUS
 10
55.6417676278
 20
-39.3805879231
 11
55.4850269502
 21
-39.6363322813
  0
LINE
  5
4A3
100
AcDbEntity
  8
RACCORDO
100
AcDbLine
 62
253
  6
CONTINUOUS
 10
51.5576772175
 20
-47.8694190833
 11
51.7356778014
 21
-47.627989219
  0
LINE
  5
4A4
100
AcDbEntity
  8
RACCORDO
100
AcDbLine
 62
253
  6
CONTINUOUS
 10
56.083201377
 20
-41.7394311277
 11
55.9048934872
 21
-41.9806341202
  0
LINE
  5
4A5
100
AcDbEntity
  8
RACCORDO
100
AcDbLine
 62
253
  6
CONTINUOUS
 10
53.3901214877
 20
-45.0693410005
 11
53.3187463653
 21
-45.1407161229
  0
LINE
  5
4A6
100
AcDbEntity
  8
RACCORDO
100
AcDbLine
 62
253
  6
CONTINUOUS
 10
54.0848443887
 20
-44.3746180996
 11
54.1562195111
 21
-44.3032429772
  0
LINE
  5
4A7
100
AcDbEntity
  8
RACCORDO
100
AcDbLine
 62
253
  6
CONTINUOUS
 10
53.5521310696
 20
-45.2313505824
 11
53.4807559472
 21
-45.3027257048
  0
LINE
  5
4A8
100
AcDbEntity
  8
RACCORDO
100
AcDbLine
 62
253
  6
CONTINUOUS
 10
54.2468539705
 20
-44.5366276815
 11
54.3182290929
 21
-44.4652525591
  0
LINE
  5
4A9
100
AcDbEntity
  8
DRAFT
100
AcDbLine
 62
7
  6
CONTINUOUS
 10
48.3108860149
 20
-52.5605860553
 11
48.3047660077
 21
-52.5667060625
  0
LINE
  5
4AA
100
AcDbEntity
  8
RACCORDO
100
AcDbLine
 62
253
  6
CONTINUOUS
 10
51.7609334248
 20
-50.6625390802
 11
51.7468779829
 21
-50.6764404469
  0
LWPOLYLINE
  5
4AB
100
AcDbEntity
  8
RACCORDO
100
AcDbPolyline
 62
7
  6
CONTINUOUS
 90
13
 70
0
 10
56.0965977471
 20
-47.8741069817
 10
56.0660996291
 20
-47.8986863256
 10
56.0378871543
 20
-47.9252166485
 10
56.0119603225
 20
-47.9536979502
 10
55.9881857101
 20
-47.9843256362
 10
55.9666967408
 20
-48.0169043012
 10
55.9478936862
 20
-48.0508477291
 10
55.9318272786
 20
-48.0861965137
 10
55.9184467858
 20
-48.1229100612
 10
55.9080002828
 20
-48.160280375
 10
55.9005704614
 20
-48.1980714563
 10
55.8960746299
 20
-48.2365193038
 10
55.8945127882
 20
-48.2756239176
  0
LWPOLYLINE
  5
4AC
100
AcDbEntity
  8
RACCORDO
100
AcDbPolyline
 62
253
  6
CONTINUOUS
 90
16
 70
0
 10
55.4850412164
 20
-49.969625991
 10
55.496465722
 20
-49.9620625558
 10
55.5072611981
 20
-49.9538229133
 10
55.5174276449
 20
-49.9449070632
 10
55.5270074968
 20
-49.9352664801
 10
55.5359583193
 20
-49.9249496896
 10
55.5441528086
 20
-49.9141022683
 10
55.5515790241
 20
-49.9027181127
 10
55.5582489065
 20
-49.8908033263
 10
55.5640709738
 20
-49.8785217961
 10
55.5690337642
 20
-49.8658656347
 10
55.5731487395
 20
-49.8528427296
 10
55.5763588027
 20
-49.8396406298
 10
55.5786449216
 20
-49.826321852
 10
55.5800261284
 20
-49.8128238796
 10
55.5805024231
 20
-49.7991467126
  0
LINE
  5
4AD
100
AcDbEntity
  8
RACCORDO
100
AcDbLine
 62
253
  6
CONTINUOUS
 10
51.5576772172
 20
-47.869419083
 11
51.5442825123
 21
-47.8769996566
  0
LINE
  5
4AE
100
AcDbEntity
  8
RACCORDO
100
AcDbLine
 62
253
  6
CONTINUOUS
 10
51.7609334248
 20
-48.27180219
 11
51.7468779829
 21
-48.2788947793
  0
LINE
  5
4AF
100
AcDbEntity
  8
RACCORDO
100
AcDbLine
 62
253
  6
CONTINUOUS
 10
52.3767403913
 20
35.3686463717
 11
53.3187463653
 21
35.5347474409
  0
LINE
  5
4B0
100
AcDbEntity
  8
RACCORDO
100
AcDbLine
 62
253
  6
CONTINUOUS
 10
54.2053924165
 20
35.7054275327
 11
54.1562195111
 21
35.6967570228
  0
LINE
  5
4B1
100
AcDbEntity
  8
RACCORDO
100
AcDbLine
 62
253
  6
CONTINUOUS
 10
52.3680698812
 20
35.4178192771
 11
53.3100758554
 21
35.5839203463
  0
LINE
  5
4B2
100
AcDbEntity
  8
RACCORDO
100
AcDbLine
 62
253
  6
CONTINUOUS
 10
54.0392913472
 20
36.647433507
 11
53.9901184418
 21
36.638762997
  0
LINE
  5
4B3
100
AcDbEntity
  8
RACCORDO
100
AcDbLine
 62
7
  6
CONTINUOUS
 10
54.2468539705
 20
34.9306589995
 11
54.3234503732
 21
34.9432995501
  0
LINE
  5
4B4
100
AcDbEntity
  8
RACCORDO
100
AcDbLine
 62
7
  6
CONTINUOUS
 10
53.3901214877
 20
35.4633723185
 11
53.3135250843
 21
35.4507317679
  0
LINE
  5
4B5
100
AcDbEntity
  8
RACCORDO
100
AcDbLine
 62
253
  6
CONTINUOUS
 10
53.231583915
 20
35.411758626
 11
53.2616908629
 21
35.4154751698
  0
LINE
  5
4B6
100
AcDbEntity
  8
RACCORDO
100
AcDbLine
 62
253
  6
CONTINUOUS
 10
54.4218271391
 20
34.9842466728
 11
54.3752846146
 21
34.9785561499
  0
LINE
  5
4B7
100
AcDbEntity
  8
RACCORDO
100
AcDbLine
 62
253
  6
CONTINUOUS
 10
53.183159396
 20
35.4059996904
 11
53.231583915
 21
35.411758626
  0
LINE
  5
4B8
100
AcDbEntity
  8
RACCORDO
100
AcDbLine
 62
253
  6
CONTINUOUS
 10
54.4714771939
 20
34.990072951
 11
54.4218271391
 21
34.9842466728
  0
LINE
  5
4B9
100
AcDbEntity
  8
RACCORDO
100
AcDbLine
 62
253
  6
CONTINUOUS
 10
53.1112632836
 20
35.397833752
 11
53.183159396
 21
35.4059996904
  0
LINE
  5
4BA
100
AcDbEntity
  8
RACCORDO
100
AcDbLine
 62
253
  6
CONTINUOUS
 10
54.5457281175
 20
34.9984006253
 11
54.4714771939
 21
34.990072951
  0
LINE
  5
4BB
100
AcDbEntity
  8
RACCORDO
100
AcDbLine
 62
253
  6
CONTINUOUS
 10
53.0291362877
 20
35.388945413
 11
53.1112632836
 21
35.397833752
  0
LINE
  5
4BC
100
AcDbEntity
  8
RACCORDO
100
AcDbLine
 62
253
  6
CONTINUOUS
 10
54.6307334102
 20
35.0075034289
 11
54.5457281175
 21
34.9984006253
  0
LINE
  5
4BD
100
AcDbEntity
  8
RACCORDO
100
AcDbLine
 62
253
  6
CONTINUOUS
 10
52.9347267332
 20
35.3791586782
 11
53.0291362877
 21
35.388945413
  0
LINE
  5
4BE
100
AcDbEntity
  8
RACCORDO
100
AcDbLine
 62
253
  6
CONTINUOUS
 10
54.7549695842
 20
35.0201721105
 11
54.6307334102
 21
35.0075034289
  0
LINE
  5
4BF
100
AcDbEntity
  8
RACCORDO
100
AcDbLine
 62
253
  6
CONTINUOUS
 10
52.7683283606
 20
35.3627173523
 11
52.9347267332
 21
35.3791586782
  0
LINE
  5
4C0
100
AcDbEntity
  8
RACCORDO
100
AcDbLine
 62
253
  6
CONTINUOUS
 10
54.9305585184
 20
35.037250939
 11
54.7549695842
 21
35.0201721105
  0
LINE
  5
4C1
100
AcDbEntity
  8
RACCORDO
100
AcDbLine
 62
253
  6
CONTINUOUS
 10
52.5050816598
 20
35.3379762864
 11
52.7683283606
 21
35.3627173523
  0
LINE
  5
4C2
100
AcDbEntity
  8
RACCORDO
100
AcDbLine
 62
253
  6
CONTINUOUS
 10
54.5103091136
 20
34.9604308119
 11
54.3234503732
 21
34.9432995501
  0
LWPOLYLINE
  5
4C3
100
AcDbEntity
  8
RACCORDO
100
AcDbPolyline
 62
253
  6
CONTINUOUS
 90
3
 70
0
 10
55.3208428689
 20
35.0732259604
 10
55.2814892145
 20
35.0696899024
 10
54.9305585184
 20
35.037250939
  0
LINE
  5
4C4
100
AcDbEntity
  8
RACCORDO
100
AcDbLine
 62
253
  6
CONTINUOUS
 10
52.3161325974
 20
35.3208053609
 11
52.5050816598
 21
35.3379762864
  0
LINE
  5
4C5
100
AcDbEntity
  8
RACCORDO
100
AcDbLine
 62
253
  6
CONTINUOUS
 10
53.1281618591
 20
35.4337345466
 11
53.3135250843
 21
35.4507317679
  0
LINE
  5
4C6
100
AcDbEntity
  8
RACCORDO
100
AcDbLine
 62
253
  6
CONTINUOUS
 10
54.966909873
 20
35.0003054408
 11
54.5103091136
 21
34.9604308119
  0
LINE
  5
4C7
100
AcDbEntity
  8
RACCORDO
100
AcDbLine
 62
253
  6
CONTINUOUS
 10
52.6708872511
 20
35.3937964883
 11
53.1281618591
 21
35.4337345466
  0
LINE
  5
4C8
100
AcDbEntity
  8
RACCORDO
100
AcDbLine
 62
253
  6
CONTINUOUS
 10
55.2602350333
 20
35.0253849403
 11
54.966909873
 21
35.0003054408
  0
LINE
  5
4C9
100
AcDbEntity
  8
RACCORDO
100
AcDbLine
 62
253
  6
CONTINUOUS
 10
52.3767403913
 20
35.3686463717
 11
52.6708872511
 21
35.3937964883
  0
LINE
  5
4CA
100
AcDbEntity
  8
RACCORDO
100
AcDbLine
 62
253
  6
CONTINUOUS
 10
55.3639979158
 20
35.3243612109
 11
55.320842863
 21
35.3208053606
  0
LINE
  5
4CB
100
AcDbEntity
  8
RACCORDO
100
AcDbLine
 62
253
  6
CONTINUOUS
 10
52.2729775481
 20
35.0696701048
 11
52.3161325989
 21
35.0732259547
  0
LINE
  5
4CC
100
AcDbEntity
  8
RACCORDO
100
AcDbLine
 62
253
  6
CONTINUOUS
 10
51.7609334248
 20
29.3374609445
 11
52.060888701
 21
29.3374609452
  0
LINE
  5
4CD
100
AcDbEntity
  8
RACCORDO
100
AcDbLine
 62
253
  6
CONTINUOUS
 10
55.8804573464
 20
30.2008592938
 11
55.5805024231
 21
30.2008592946
  0
LINE
  5
4CE
100
AcDbEntity
  8
RACCORDO
100
AcDbLine
 62
253
  6
CONTINUOUS
 10
55.8804573464
 20
31.7314574589
 11
55.5805030378
 21
31.7314574587
  0
LINE
  5
4CF
100
AcDbEntity
  8
RACCORDO
100
AcDbLine
 62
7
  6
CONTINUOUS
 10
52.2233265321
 20
28.8221110988
 11
52.250156061
 21
28.8211572123
  0
LWPOLYLINE
  5
4D0
100
AcDbEntity
  8
RACCORDO
100
AcDbPolyline
 62
7
  6
CONTINUOUS
 90
8
 70
0
 10
52.250156061
 20
28.8211572123
 10
52.2700358334
 20
28.8203344563
 10
52.2780740657
 20
28.8199414107
 10
52.2847701311
 20
28.8195594754
 10
52.290061313
 20
28.8191836486
 10
52.2939330323
 20
28.8188122629
 10
52.2963942877
 20
28.8184469858
 10
52.2974502614
 20
28.8180878171
  0
LWPOLYLINE
  5
4D1
100
AcDbEntity
  8
RACCORDO
100
AcDbPolyline
 62
7
  6
CONTINUOUS
 90
12
 70
0
 10
52.2233265321
 20
28.8221110988
 10
52.2067733258
 20
28.8234752671
 10
52.1888479503
 20
28.8256777606
 10
52.1695516898
 20
28.8286418869
 10
52.1491011078
 20
28.8324443385
 10
52.1279853847
 20
28.8373151926
 10
52.1064988334
 20
28.8433020045
 10
52.0846967123
 20
28.850357219
 10
52.0627515792
 20
28.8585682477
 10
52.0408164343
 20
28.8679642278
 10
52.0190227371
 20
28.878516022
 10
51.9974959528
 20
28.8902236305
  0
LINE
  5
4D2
100
AcDbEntity
  8
RACCORDO
100
AcDbLine
 62
7
  6
CONTINUOUS
 10
48.2423051317
 20
14.7231982564
 11
48.1942048758
 21
14.7712985123
  0
LWPOLYLINE
  5
4D3
100
AcDbEntity
  8
RACCORDO
100
AcDbPolyline
 62
253
  6
CONTINUOUS
 90
13
 70
0
 10
53.4807559472
 20
34.6972742952
 10
53.4767717692
 20
34.7150484681
 10
53.4709544794
 20
34.7330013641
 10
53.4631793461
 20
34.7509158798
 10
53.4532564075
 20
34.7686858916
 10
53.4411722051
 20
34.7858737436
 10
53.4272384001
 20
34.8018123079
 10
53.4115670675
 20
34.8162935123
 10
53.3943067843
 20
34.8291100901
 10
53.3760880845
 20
34.8398337688
 10
53.3573331494
 20
34.8483786963
 10
53.3381421594
 20
34.8548499595
 10
53.3187463653
 20
34.8592838771
  0
LWPOLYLINE
  5
4D4
100
AcDbEntity
  8
RACCORDO
100
AcDbPolyline
 62
253
  6
CONTINUOUS
 90
13
 70
0
 10
54.1562195111
 20
35.6967570228
 10
54.1602036891
 20
35.6789828499
 10
54.1660209788
 20
35.6610299539
 10
54.1737961122
 20
35.6431154381
 10
54.1837190507
 20
35.6253454263
 10
54.1958032532
 20
35.6081575744
 10
54.2097370581
 20
35.5922190101
 10
54.2254083907
 20
35.5777378057
 10
54.242668674
 20
35.5649212279
 10
54.2608873737
 20
35.5541975492
 10
54.2796423088
 20
35.5456526216
 10
54.2988332989
 20
35.5391813585
 10
54.3182290929
 20
35.5347474409
  0
LWPOLYLINE
  5
4D5
100
AcDbEntity
  8
RACCORDO
100
AcDbPolyline
 62
7
  6
CONTINUOUS
 90
7
 70
0
 10
53.5647716201
 20
34.6920530152
 10
53.567415567
 20
34.6802340495
 10
53.5714061699
 20
34.6696267651
 10
53.5767085774
 20
34.6602739842
 10
53.583280732
 20
34.6522218892
 10
53.5910731072
 20
34.645519589
 10
53.6000284423
 20
34.6402186374
  0
LWPOLYLINE
  5
4D6
100
AcDbEntity
  8
RACCORDO
100
AcDbPolyline
 62
7
  6
CONTINUOUS
 90
7
 70
0
 10
54.0722038643
 20
35.7019782259
 10
54.0695599267
 20
35.7137972665
 10
54.0655693313
 20
35.7244045962
 10
54.0602669314
 20
35.7337573927
 10
54.0536947861
 20
35.7418094735
 10
54.0459024234
 20
35.7485117296
 10
54.0369471058
 20
35.7538126075
  0
LWPOLYLINE
  5
4D7
100
AcDbEntity
  8
RACCORDO
100
AcDbPolyline
 62
253
  6
CONTINUOUS
 90
13
 70
0
 10
53.4315830418
 20
34.6886037853
 10
53.4287216066
 20
34.7022806352
 10
53.424315388
 20
34.7157295812
 10
53.4183643859
 20
34.7289506231
 10
53.4107673544
 20
34.7422360909
 10
53.4016255395
 20
34.7552936547
 10
53.3912426787
 20
34.7672463245
 10
53.3794761355
 20
34.7779460156
 10
53.3664685465
 20
34.7875408128
 10
53.3529515592
 20
34.7955979805
 10
53.3391690562
 20
34.8019732736
 10
53.3248771549
 20
34.8068109374
 10
53.3100758554
 20
34.8101109717
  0
LWPOLYLINE
  5
4D8
100
AcDbEntity
  8
RACCORDO
100
AcDbPolyline
 62
253
  6
CONTINUOUS
 90
13
 70
0
 10
54.2053924165
 20
35.7054275327
 10
54.2082538516
 20
35.6917506827
 10
54.2126600703
 20
35.6783017368
 10
54.2186110724
 20
35.6650806949
 10
54.2262081039
 20
35.6517952271
 10
54.2353499188
 20
35.6387376633
 10
54.2457327795
 20
35.6267849935
 10
54.2574993227
 20
35.6160853024
 10
54.2705069118
 20
35.6064905052
 10
54.284023899
 20
35.5984333375
 10
54.2978064021
 20
35.5920580443
 10
54.3120983033
 20
35.5872203806
 10
54.3268996029
 20
35.5839203463
  0
LINE
  5
4D9
100
AcDbEntity
  8
RACCORDO
100
AcDbLine
 62
253
  6
CONTINUOUS
 10
52.3680698812
 20
35.4178192771
 11
52.3767403911
 21
35.3686463717
  0
LINE
  5
4DA
100
AcDbEntity
  8
RACCORDO
100
AcDbLine
 62
253
  6
CONTINUOUS
 10
53.5976841051
 20
33.7465978446
 11
53.4315830418
 21
34.6886037853
  0
LINE
  5
4DB
100
AcDbEntity
  8
RACCORDO
100
AcDbLine
 62
253
  6
CONTINUOUS
 10
53.3100758554
 20
35.5839203463
 11
53.3187463653
 21
35.5347474409
  0
LINE
  5
4DC
100
AcDbEntity
  8
RACCORDO
100
AcDbLine
 62
253
  6
CONTINUOUS
 10
53.6468570105
 20
33.7552683548
 11
53.4807559472
 21
34.6972742952
  0
LINE
  5
4DD
100
AcDbEntity
  8
RACCORDO
100
AcDbLine
 62
253
  6
CONTINUOUS
 10
53.9901184418
 20
36.6387629968
 11
54.1562195111
 21
35.6967570228
  0
LINE
  5
4DE
100
AcDbEntity
  8
RACCORDO
100
AcDbLine
 62
253
  6
CONTINUOUS
 10
54.3268996029
 20
34.8101109717
 11
54.318229093
 21
34.8592838771
  0
LINE
  5
4DF
100
AcDbEntity
  8
RACCORDO
100
AcDbLine
 62
253
  6
CONTINUOUS
 10
54.0392913472
 20
36.647433507
 11
54.2053924165
 21
35.7054275327
  0
LINE
  5
4E0
100
AcDbEntity
  8
RACCORDO
100
AcDbLine
 62
253
  6
CONTINUOUS
 10
55.2689055435
 20
34.976212035
 11
55.2602350335
 21
35.0253849404
  0
LINE
  5
4E1
100
AcDbEntity
  8
RACCORDO
100
AcDbLine
 62
7
  6
CONTINUOUS
 10
53.5521310696
 20
34.7686494176
 11
53.5647716202
 21
34.6920530149
  0
LINE
  5
4E2
100
AcDbEntity
  8
RACCORDO
100
AcDbLine
 62
7
  6
CONTINUOUS
 10
54.0848443887
 20
35.6253819004
 11
54.072203838
 21
35.7019783038
  0
LINE
  5
4E3
100
AcDbEntity
  8
RACCORDO
100
AcDbLine
 62
253
  6
CONTINUOUS
 10
54.0332306961
 20
35.7839194731
 11
54.03694724
 21
35.7538125253
  0
LWPOLYLINE
  5
4E4
100
AcDbEntity
  8
RACCORDO
100
AcDbPolyline
 62
253
  6
CONTINUOUS
 90
3
 70
0
 10
53.6076439797
 20
34.5775449091
 10
53.6057187429
 20
34.593676249
 10
53.60002822
 20
34.6402187736
  0
LINE
  5
4E5
100
AcDbEntity
  8
RACCORDO
100
AcDbLine
 62
253
  6
CONTINUOUS
 10
54.0274717605
 20
35.8323439922
 11
54.0332306961
 21
35.7839194731
  0
LWPOLYLINE
  5
4E6
100
AcDbEntity
  8
RACCORDO
100
AcDbPolyline
 62
253
  6
CONTINUOUS
 90
3
 70
0
 10
54.0171589526
 20
35.9237386926
 10
54.0193058222
 20
35.9042401046
 10
54.0274717605
 20
35.8323439922
  0
LWPOLYLINE
  5
4E7
100
AcDbEntity
  8
RACCORDO
100
AcDbPolyline
 62
253
  6
CONTINUOUS
 90
3
 70
0
 10
47.7303189049
 20
-61.902984341
 10
47.7195239538
 20
-61.9170507057
 10
47.7018456685
 20
-61.9363423234
  0
LWPOLYLINE
  5
4E8
100
AcDbEntity
  8
RACCORDO
100
AcDbPolyline
 62
253
  6
CONTINUOUS
 90
10
 70
0
 10
47.7018456685
 20
-61.9363423234
 10
47.6825540469
 20
-61.9540206051
 10
47.6617958534
 20
-61.96995106
 10
47.6397290106
 20
-61.9840124939
 10
47.6165213959
 20
-61.9960979327
 10
47.5923495648
 20
-62.0061154349
 10
47.5673974096
 20
-62.013988791
 10
47.5418547582
 20
-62.019658104
 10
47.51591593
 20
-62.0230802445
 10
47.4897782584
 20
-62.0242291788
  0
LINE
  5
4E9
100
AcDbEntity
  8
RACCORDO
100
AcDbLine
 62
253
  6
CONTINUOUS
 10
52.2559406062
 20
-51.1624387245
 11
52.238406938
 21
-51.1784147443
  0
LWPOLYLINE
  5
4EA
100
AcDbEntity
  8
RACCORDO
100
AcDbPolyline
 62
253
  6
CONTINUOUS
 90
16
 70
0
 10
55.6417658244
 20
-50.2253778163
 10
55.6701603338
 20
-50.2066175707
 10
55.6972012367
 20
-50.1859719645
 10
55.7227718434
 20
-50.1635408488
 10
55.7467573072
 20
-50.1394249385
 10
55.7690463222
 20
-50.1137296057
 10
55.789540637
 20
-50.0865778153
 10
55.8081449486
 20
-50.058096696
 10
55.824765606
 20
-50.0284143641
 10
55.8393282313
 20
-49.9976699457
 10
55.8517705657
 20
-49.9660096153
 10
55.8620306988
 20
-49.9335796605
 10
55.8700586779
 20
-49.9005276101
 10
55.8758234316
 20
-49.8670031073
 10
55.8792955397
 20
-49.8331560346
 10
55.880451897
 20
-49.7991407062
  0
LWPOLYLINE
  5
4EB
100
AcDbEntity
  8
RACCORDO
100
AcDbPolyline
 62
253
  6
CONTINUOUS
 90
7
 70
0
 10
47.554943238
 20
-61.902984341
 10
47.5342062102
 20
-61.9137831833
 10
47.510034415
 20
-61.923800642
 10
47.4850821682
 20
-61.9316739976
 10
47.4595392406
 20
-61.9373433269
 10
47.4335999961
 20
-61.940765448
 10
47.407461773
 20
-61.9419142911
  0
LWPOLYLINE
  5
4EC
100
AcDbEntity
  8
RACCORDO
100
AcDbPolyline
 62
253
  6
CONTINUOUS
 90
9
 70
0
 10
51.5576772172
 20
38.263450401
 10
51.5586108672
 20
38.2634675988
 10
51.5607790824
 20
38.2643833828
 10
51.5641829508
 20
38.2661951356
 10
51.5687531169
 20
38.2688457069
 10
51.5745641347
 20
38.2723828005
 10
51.581835298
 20
38.2769576063
 10
51.5906448268
 20
38.2826123328
 10
51.6126970801
 20
38.2969506345
  0
LINE
  5
4ED
100
AcDbEntity
  8
DRAFT
100
AcDbLine
 62
7
  6
CONTINUOUS
 10
-29.031479036
 20
35.197015659
 11
-23.7581881077
 21
35.197015659
  0
LINE
  5
4EE
100
AcDbEntity
  8
RACCORDO
100
AcDbLine
 62
253
  6
CONTINUOUS
 10
52.2729775438
 20
35.3243612114
 11
52.3161326036
 21
35.3208053622
  0
LINE
  5
4EF
100
AcDbEntity
  8
RACCORDO
100
AcDbLine
 62
253
  6
CONTINUOUS
 10
55.3639979209
 20
35.0696701091
 11
55.3208428689
 21
35.0732259597
  0
LINE
  5
4F0
100
AcDbEntity
  8
RACCORDO
100
AcDbLine
 62
253
  6
CONTINUOUS
 10
52.3767403939
 20
35.0253849458
 11
53.1286321717
 21
34.9602546067
  0
LINE
  5
4F1
100
AcDbEntity
  8
RACCORDO
100
AcDbLine
 62
253
  6
CONTINUOUS
 10
52.3161325991
 20
35.0732259526
 11
52.6423643919
 21
35.0433025936
  0
LINE
  5
4F2
100
AcDbEntity
  8
RACCORDO
100
AcDbLine
 62
253
  6
CONTINUOUS
 10
53.1286321717
 20
34.9602546067
 11
53.3135250846
 21
34.9432995501
  0
LINE
  5
4F3
100
AcDbEntity
  8
RACCORDO
100
AcDbLine
 62
253
  6
CONTINUOUS
 10
52.6423643919
 20
35.0433025936
 11
52.8272892488
 21
35.0255853775
  0
LWPOLYLINE
  5
4F4
100
AcDbEntity
  8
RACCORDO
100
AcDbPolyline
 62
253
  6
CONTINUOUS
 90
22
 70
0
 10
53.6911421793
 20
33.6515054672
 10
53.6861824982
 20
33.6520255259
 10
53.6811673176
 20
33.6528813732
 10
53.6760966375
 20
33.6540730091
 10
53.6709521035
 20
33.6555847645
 10
53.66575207
 20
33.6574323084
 10
53.6605516003
 20
33.6596626479
 10
53.6553465473
 20
33.6622771277
 10
53.6501410582
 20
33.665274403
 10
53.6450026372
 20
33.6686974468
 10
53.6399310734
 20
33.6725392068
 10
53.6349265778
 20
33.6768067354
 10
53.630057287
 20
33.6815641627
 10
53.6253011252
 20
33.6868262715
 10
53.6206801683
 20
33.692578279
 10
53.6163287806
 20
33.6988399675
 10
53.6122349367
 20
33.7056384909
 10
53.608410662
 20
33.7129466953
 10
53.6050263975
 20
33.7207029009
 10
53.6021389566
 20
33.7288865476
 10
53.5996915258
 20
33.7375181956
 10
53.5976841051
 20
33.7465978446
  0
LWPOLYLINE
  5
4F5
100
AcDbEntity
  8
RACCORDO
100
AcDbPolyline
 62
253
  6
CONTINUOUS
 90
11
 70
0
 10
-20.7704860142
 20
52.3359453085
 10
-20.7683768601
 20
52.3351890867
 10
-20.7636474355
 20
52.3344413137
 10
-20.7562977404
 20
52.3337019895
 10
-20.7462797814
 20
52.3329680623
 10
-20.733641552
 20
52.3322425839
 10
-20.7185270326
 20
52.3315347097
 10
-20.7009086894
 20
52.3308449295
 10
-20.6808140562
 20
52.3301727535
 10
-20.658469715
 20
52.3295258678
 10
-20.6069760035
 20
52.3283084892
  0
LINE
  5
4F6
100
AcDbEntity
  8
RACCORDO
100
AcDbLine
 62
7
  6
CONTINUOUS
 10
48.2423051317
 20
20.7231982564
 11
48.1942048758
 21
20.7712985123
  0
LWPOLYLINE
  5
4F7
100
AcDbEntity
  8
RACCORDO
100
AcDbPolyline
 62
7
  6
CONTINUOUS
 90
3
 70
0
 10
51.9719796099
 20
31.5307134603
 10
52.0423460435
 20
31.3305632933
 10
52.0608877333
 20
31.2770460785
  0
LWPOLYLINE
  5
4F8
100
AcDbEntity
  8
RACCORDO
100
AcDbPolyline
 62
253
  6
CONTINUOUS
 90
22
 70
0
 10
52.2588724474
 20
41.2565280258
 10
52.2438948722
 20
41.2558041487
 10
52.2291692302
 20
41.2540081593
 10
52.2146955213
 20
41.2511400576
 10
52.2003957335
 20
41.2471718621
 10
52.1863478788
 20
41.2421315543
 10
52.1727859935
 20
41.2361030783
 10
52.1597193742
 20
41.2290704838
 10
52.1471387242
 20
41.2210497211
 10
52.1352501902
 20
41.2121725855
 10
52.124065188
 20
41.2024249885
 10
52.1135723018
 20
41.1918210185
 10
52.1039434307
 20
41.1805347361
 10
52.0951929037
 20
41.1685548965
 10
52.0873063918
 20
41.1558927444
 10
52.0804128081
 20
41.142756075
 10
52.0745281612
 20
41.12913299
 10
52.0696364425
 20
41.1150353878
 10
52.0658185391
 20
41.1007067585
 10
52.0631014133
 20
41.0862282655
 10
52.0614581028
 20
41.0715187454
 10
52.0608886075
 20
41.0565781981
  0
LWPOLYLINE
  5
4F9
100
AcDbEntity
  8
RACCORDO
100
AcDbPolyline
 62
253
  6
CONTINUOUS
 90
22
 70
0
 10
52.2559406345
 20
41.5564675929
 10
52.2188197836
 20
41.5547175489
 10
52.1819444401
 20
41.5502126278
 10
52.1455109286
 20
41.5429864259
 10
52.1097152047
 20
41.5330733712
 10
52.0747513552
 20
41.5205259836
 10
52.0408108625
 20
41.5054222589
 10
52.0080850931
 20
41.4878420397
 10
51.9767591246
 20
41.4678751132
 10
51.9470000862
 20
41.4456399612
 10
51.9189721364
 20
41.4212602008
 10
51.8928359029
 20
41.3948630289
 10
51.8687300577
 20
41.3665982431
 10
51.8467851298
 20
41.3366244623
 10
51.8271302236
 20
41.3051014022
 10
51.8098714136
 20
41.272204288
 10
51.7950971055
 20
41.2381205334
 10
51.78289503
 20
41.2030379357
 10
51.7733357968
 20
41.1671466668
 10
51.7664640522
 20
41.1306407053
 10
51.7623222764
 20
41.0937144434
 10
51.7609411579
 20
41.0565703738
  0
LINE
  5
4FA
100
AcDbEntity
  8
RACCORDO
100
AcDbLine
 62
7
  6
CONTINUOUS
 10
52.2700358334
 20
41.5736968617
 11
52.250156061
 21
41.5728741056
  0
LINE
  5
4FB
100
AcDbEntity
  8
RACCORDO
100
AcDbLine
 62
253
  6
CONTINUOUS
 10
55.8804573464
 20
38.6625738591
 11
55.5805099677
 21
38.6625738592
  0
LINE
  5
4FC
100
AcDbEntity
  8
DRAFT
100
AcDbLine
 62
7
  6
CONTINUOUS
 10
-23.7581881077
 20
39.197015659
 11
-29.031479036
 21
39.197015659
  0
LINE
  5
4FD
100
AcDbEntity
  8
RACCORDO
100
AcDbLine
 62
253
  6
CONTINUOUS
 10
55.8804573464
 20
40.1931720242
 11
55.5805024214
 21
40.1931720234
  0
LINE
  5
4FE
100
AcDbEntity
  8
RACCORDO
100
AcDbLine
 62
253
  6
CONTINUOUS
 10
51.7609334248
 20
41.0565703738
 11
52.0608886075
 21
41.0565703728
  0
LINE
  5
4FF
100
AcDbEntity
  8
0
100
AcDbLine
 62
7
  6
CONTINUOUS
 10
48.235149545
 20
42.672015659
 11
48.1968197607
 21
42.672015659
  0
LINE
  5
500
100
AcDbEntity
  8
0
100
AcDbLine
 62
7
  6
CONTINUOUS
 10
-21.5981740867
 20
42.672015659
 11
-21.5598443024
 21
42.672015659
  0
LINE
  5
501
100
AcDbEntity
  8
DRAFT
100
AcDbLine
 62
7
  6
CONTINUOUS
 10
48.3108860149
 20
42.9546173733
 11
48.1968197607
 21
42.9546173733
  0
LINE
  5
502
100
AcDbEntity
  8
DRAFT
100
AcDbLine
 62
7
  6
CONTINUOUS
 10
-21.5598443024
 20
42.9546173733
 11
-21.6739105566
 21
42.9546173733
  0
LINE
  5
503
100
AcDbEntity
  8
RACCORDO
100
AcDbLine
 62
253
  6
CONTINUOUS
 10
55.2602350561
 20
35.3686463736
 11
54.5104573622
 21
35.4335872185
  0
LINE
  5
504
100
AcDbEntity
  8
RACCORDO
100
AcDbLine
 62
253
  6
CONTINUOUS
 10
55.3208428628
 20
35.3208053627
 11
54.9950759731
 21
35.3506850494
  0
LINE
  5
505
100
AcDbEntity
  8
RACCORDO
100
AcDbLine
 62
253
  6
CONTINUOUS
 10
54.5104573622
 20
35.4335872185
 11
54.3234503733
 21
35.4507317679
  0
LINE
  5
506
100
AcDbEntity
  8
RACCORDO
100
AcDbLine
 62
253
  6
CONTINUOUS
 10
54.9950759731
 20
35.3506850494
 11
54.782144806
 21
35.3711606053
  0
LINE
  5
507
100
AcDbEntity
  8
RACCORDO
100
AcDbLine
 62
253
  6
CONTINUOUS
 10
52.8272892488
 20
35.0255853775
 11
52.9840449911
 21
35.0098125892
  0
LINE
  5
508
100
AcDbEntity
  8
RACCORDO
100
AcDbLine
 62
253
  6
CONTINUOUS
 10
54.782144806
 20
35.3711606053
 11
54.6536409214
 21
35.3841451176
  0
LWPOLYLINE
  5
509
100
AcDbEntity
  8
RACCORDO
100
AcDbPolyline
 62
253
  6
CONTINUOUS
 90
22
 70
0
 10
53.9458332816
 20
36.7425258443
 10
53.9507929617
 20
36.7420057834
 10
53.9558081414
 20
36.7411499348
 10
53.9608788207
 20
36.7399582985
 10
53.966023354
 20
36.7384465438
 10
53.9712233868
 20
36.7365990015
 10
53.9764238561
 20
36.7343686637
 10
53.9816289087
 20
36.7317541856
 10
53.9868343977
 20
36.7287569121
 10
53.9919728186
 20
36.7253338702
 10
53.9970443823
 20
36.7214921122
 10
54.0020488779
 20
36.7172245858
 10
54.0069181686
 20
36.7124671609
 10
54.0116743301
 20
36.7072050549
 10
54.0162952867
 20
36.7014530504
 10
54.020646674
 20
36.695191365
 10
54.0247405176
 20
36.6883928447
 10
54.028564792
 20
36.6810846435
 10
54.0319490562
 20
36.6733284412
 10
54.0348364967
 20
36.6651447976
 10
54.037283927
 20
36.6565131528
 10
54.0392913472
 20
36.647433507
  0
LINE
  5
50A
100
AcDbEntity
  8
RACCORDO
100
AcDbLine
 62
253
  6
CONTINUOUS
 10
54.6536409214
 20
35.3841451176
 11
54.5657362114
 21
35.3934445099
  0
LINE
  5
50B
100
AcDbEntity
  8
RACCORDO
100
AcDbLine
 62
253
  6
CONTINUOUS
 10
52.9840449911
 20
35.0098125892
 11
53.0719506422
 21
35.0005099283
  0
LINE
  5
50C
100
AcDbEntity
  8
RACCORDO
100
AcDbLine
 62
253
  6
CONTINUOUS
 10
53.0719506422
 20
35.0005099283
 11
53.1485424552
 21
34.9920105785
  0
LINE
  5
50D
100
AcDbEntity
  8
RACCORDO
100
AcDbLine
 62
253
  6
CONTINUOUS
 10
54.5657362114
 20
35.3934445099
 11
54.4891346356
 21
35.4019418445
  0
LINE
  5
50E
100
AcDbEntity
  8
RACCORDO
100
AcDbLine
 62
253
  6
CONTINUOUS
 10
54.4891346356
 20
35.4019418445
 11
54.4380328052
 21
35.4078497986
  0
LINE
  5
50F
100
AcDbEntity
  8
RACCORDO
100
AcDbLine
 62
253
  6
CONTINUOUS
 10
53.1485424552
 20
34.9920105785
 11
53.19982583
 21
34.9860697413
  0
LWPOLYLINE
  5
510
100
AcDbEntity
  8
RACCORDO
100
AcDbPolyline
 62
253
  6
CONTINUOUS
 90
3
 70
0
 10
53.19982583
 20
34.9860697413
 10
53.2468763634
 20
34.9804041735
 10
53.2616908493
 20
34.9785561494
  0
LWPOLYLINE
  5
511
100
AcDbEntity
  8
RACCORDO
100
AcDbPolyline
 62
253
  6
CONTINUOUS
 90
3
 70
0
 10
54.4380328052
 20
35.4078497986
 10
54.3904969993
 20
35.4135909724
 10
54.3752846306
 20
35.4154751667
  0
LWPOLYLINE
  5
512
100
AcDbEntity
  8
RACCORDO
100
AcDbPolyline
 62
253
  6
CONTINUOUS
 90
22
 70
0
 10
53.6946980253
 20
33.6946604597
 10
53.6922221613
 20
33.6950504886
 10
53.6896982436
 20
33.6956387303
 10
53.6871338811
 20
33.6964318149
 10
53.6845387799
 20
33.6974323393
 10
53.681920955
 20
33.6986500877
 10
53.679286897
 20
33.7001024002
 10
53.6766489005
 20
33.7017949055
 10
53.6740179648
 20
33.7037325697
 10
53.6714006647
 20
33.7059321986
 10
53.6688166645
 20
33.7083936378
 10
53.666275969
 20
33.7111247629
 10
53.663775406
 20
33.714157202
 10
53.6613311026
 20
33.7175034575
 10
53.6589702381
 20
33.7211592605
 10
53.6567120664
 20
33.7251328462
 10
53.6545792047
 20
33.7294350586
 10
53.6526024238
 20
33.7340534712
 10
53.650814462
 20
33.7389580475
 10
53.6492437172
 20
33.7441322302
 10
53.6479155757
 20
33.7495735955
 10
53.6468570105
 20
33.7552683546
  0
LWPOLYLINE
  5
513
100
AcDbEntity
  8
RACCORDO
100
AcDbPolyline
 62
253
  6
CONTINUOUS
 90
22
 70
0
 10
53.9422774362
 20
36.6993708347
 10
53.944753299
 20
36.6989808032
 10
53.9472772157
 20
36.6983925602
 10
53.9498415774
 20
36.6975994752
 10
53.9524366781
 20
36.6965989518
 10
53.9550545028
 20
36.6953812055
 10
53.9576885605
 20
36.6939288951
 10
53.9603265569
 20
36.692236392
 10
53.9629574925
 20
36.6902987301
 10
53.9655747924
 20
36.6880991038
 10
53.9681587925
 20
36.6856376674
 10
53.9706994879
 20
36.6829065453
 10
53.9732000506
 20
36.6798741096
 10
53.9756443536
 20
36.676527858
 10
53.9780052178
 20
36.6728720591
 10
53.9802633891
 20
36.6688984777
 10
53.9823962504
 20
36.6645962698
 10
53.9843730309
 20
36.6599778618
 10
53.9861609921
 20
36.6550732902
 10
53.9877317363
 20
36.6498991122
 10
53.9890598773
 20
36.6444577516
 10
53.9901184418
 20
36.638762997
  0
LINE
  5
514
100
AcDbEntity
  8
RACCORDO
100
AcDbLine
 62
7
  6
CONTINUOUS
 10
53.3135250846
 20
34.9432995501
 11
53.3901214877
 21
34.9306589995
  0
LINE
  5
515
100
AcDbEntity
  8
RACCORDO
100
AcDbLine
 62
7
  6
CONTINUOUS
 10
54.3234503733
 20
35.4507317679
 11
54.2468539705
 21
35.4633723185
  0
LINE
  5
516
100
AcDbEntity
  8
RACCORDO
100
AcDbLine
 62
253
  6
CONTINUOUS
 10
54.0392913493
 20
33.7465978229
 11
53.9901184439
 21
33.7552683328
  0
LINE
  5
517
100
AcDbEntity
  8
RACCORDO
100
AcDbLine
 62
253
  6
CONTINUOUS
 10
53.3100758554
 20
34.8101109717
 11
52.3680698848
 21
34.9762120403
  0
LINE
  5
518
100
AcDbEntity
  8
RACCORDO
100
AcDbLine
 62
253
  6
CONTINUOUS
 10
54.2053924165
 20
34.6886037853
 11
54.1562195111
 21
34.6972742952
  0
LINE
  5
519
100
AcDbEntity
  8
RACCORDO
100
AcDbLine
 62
253
  6
CONTINUOUS
 10
53.3187463653
 20
34.8592838771
 11
52.3767403939
 21
35.0253849458
  0
LINE
  5
51A
100
AcDbEntity
  8
RACCORDO
100
AcDbLine
 62
253
  6
CONTINUOUS
 10
54.3182290929
 20
35.5347474409
 11
55.2602350561
 21
35.3686463736
  0
LINE
  5
51B
100
AcDbEntity
  8
RACCORDO
100
AcDbLine
 62
253
  6
CONTINUOUS
 10
53.4315830418
 20
35.7054275327
 11
53.4807559472
 21
35.6967570228
  0
LINE
  5
51C
100
AcDbEntity
  8
RACCORDO
100
AcDbLine
 62
253
  6
CONTINUOUS
 10
54.3268996029
 20
35.5839203463
 11
55.2689055653
 21
35.4178192792
  0
LINE
  5
51D
100
AcDbEntity
  8
RACCORDO
100
AcDbLine
 62
253
  6
CONTINUOUS
 10
53.5976841104
 20
36.6474335033
 11
53.6468570158
 21
36.6387629934
  0
LWPOLYLINE
  5
51E
100
AcDbEntity
  8
RACCORDO
100
AcDbPolyline
 62
253
  6
CONTINUOUS
 90
19
 70
0
 10
52.3767403947
 20
35.0253849457
 10
52.3705767868
 20
35.0265448469
 10
52.3646952721
 20
35.0280241177
 10
52.3591142052
 20
35.0297918563
 10
52.3538449648
 20
35.0318154014
 10
52.348901799
 20
35.0340639215
 10
52.3443033297
 20
35.0365111645
 10
52.3400514602
 20
35.0391346669
 10
52.3361549876
 20
35.0419011607
 10
52.3326376212
 20
35.0447684421
 10
52.3295175744
 20
35.0476889383
 10
52.3267650476
 20
35.0506537257
 10
52.3243335269
 20
35.0536839541
 10
52.3222235666
 20
35.0567485035
 10
52.3204290851
 20
35.0598424684
 10
52.318913985
 20
35.0630395404
 10
52.3176798479
 20
35.0663592093
 10
52.3167494741
 20
35.0697593798
 10
52.3161325615
 20
35.0732259503
  0
LWPOLYLINE
  5
51F
100
AcDbEntity
  8
RACCORDO
100
AcDbPolyline
 62
253
  6
CONTINUOUS
 90
19
 70
0
 10
55.2602350553
 20
35.3686463738
 10
55.2663986654
 20
35.3674864723
 10
55.2722801823
 20
35.3660072012
 10
55.2778612513
 20
35.3642394625
 10
55.2831304937
 20
35.3622159172
 10
55.2880736615
 20
35.3599673971
 10
55.2926721328
 20
35.3575201539
 10
55.2969240044
 20
35.3548966513
 10
55.300820479
 20
35.3521301571
 10
55.3043378473
 20
35.3492628753
 10
55.3074578958
 20
35.3463423785
 10
55.3102104243
 20
35.3433775904
 10
55.3126419462
 20
35.3403473614
 10
55.3147519075
 20
35.3372828117
 10
55.3165463896
 20
35.3341888467
 10
55.3180614899
 20
35.3309917747
 10
55.3192956265
 20
35.3276721058
 10
55.3202259994
 20
35.3242719356
 10
55.3208429107
 20
35.3208053654
  0
LWPOLYLINE
  5
520
100
AcDbEntity
  8
RACCORDO
100
AcDbPolyline
 62
7
  6
CONTINUOUS
 90
13
 70
0
 10
53.3901214877
 20
34.9306589995
 10
53.4104130982
 20
34.9262144198
 10
53.4299898201
 20
34.9197279882
 10
53.4486574908
 20
34.9112993954
 10
53.466216228
 20
34.9010610088
 10
53.4825240839
 20
34.8891354768
 10
53.4974833717
 20
34.8756135018
 10
53.5109357866
 20
34.8606483725
 10
53.5227651146
 20
34.8443893648
 10
53.532917553
 20
34.8269014397
 10
53.5412804908
 20
34.808311289
 10
53.5477169649
 20
34.788829962
 10
53.5521310696
 20
34.7686494176
  0
LWPOLYLINE
  5
521
100
AcDbEntity
  8
RACCORDO
100
AcDbPolyline
 62
7
  6
CONTINUOUS
 90
13
 70
0
 10
54.2468539705
 20
35.4633723185
 10
54.22656236
 20
35.4678168982
 10
54.2069856382
 20
35.4743033297
 10
54.1883179675
 20
35.4827319226
 10
54.1707592303
 20
35.4929703092
 10
54.1544513744
 20
35.5048958411
 10
54.1394920866
 20
35.5184178162
 10
54.1260396717
 20
35.5333829455
 10
54.1142103436
 20
35.5496419532
 10
54.1040579053
 20
35.5671298783
 10
54.0956949675
 20
35.5857200289
 10
54.0892584934
 20
35.605201356
 10
54.0848443887
 20
35.6253819004
  0
LWPOLYLINE
  5
522
100
AcDbEntity
  8
RACCORDO
100
AcDbPolyline
 62
253
  6
CONTINUOUS
 90
19
 70
0
 10
52.3680698848
 20
34.9762120403
 10
52.3582361603
 20
34.9784195755
 10
52.3489103004
 20
34.9811508348
 10
52.3400923049
 20
34.9844058184
 10
52.3317636347
 20
34.9882413208
 10
52.323942829
 20
34.9926005474
 10
52.3166855054
 20
34.9973131143
 10
52.3099985146
 20
35.0023870494
 10
52.3038750059
 20
35.0078143248
 10
52.2983500457
 20
35.0134004739
 10
52.2934638385
 20
35.0190972624
 10
52.2891761798
 20
35.0249529246
 10
52.2854015222
 20
35.0309176972
 10
52.2821253481
 20
35.0369464006
 10
52.2793621751
 20
35.0430842144
 10
52.277070008
 20
35.0494169142
 10
52.2752348487
 20
35.0559730918
 10
52.2738706954
 20
35.0627241553
 10
52.2729775481
 20
35.0696701048
  0
LWPOLYLINE
  5
523
100
AcDbEntity
  8
RACCORDO
100
AcDbPolyline
 62
253
  6
CONTINUOUS
 90
19
 70
0
 10
55.2689055653
 20
35.4178192792
 10
55.2787392909
 20
35.4156117439
 10
55.2880651521
 20
35.4128804844
 10
55.2968831488
 20
35.4096255008
 10
55.3052118203
 20
35.4057899986
 10
55.3130326274
 20
35.4014307722
 10
55.3202899524
 20
35.3967182052
 10
55.326976945
 20
35.3916442699
 10
55.3331004556
 20
35.386216994
 10
55.3386254176
 20
35.3806308441
 10
55.3435116265
 20
35.3749340545
 10
55.3477992869
 20
35.369078391
 10
55.3515739459
 20
35.3631136173
 10
55.3548501209
 20
35.3570849132
 10
55.3576132945
 20
35.350947099
 10
55.3599054613
 20
35.3446143992
 10
55.3617406196
 20
35.338058222
 10
55.3631047711
 20
35.3313071593
 10
55.3639979158
 20
35.3243612109
  0
LINE
  5
524
100
AcDbEntity
  8
RACCORDO
100
AcDbLine
 62
253
  6
CONTINUOUS
 10
55.641767642
 20
29.7746192498
 11
55.6617477443
 21
29.7643574277
  0
LWPOLYLINE
  5
525
100
AcDbEntity
  8
RACCORDO
100
AcDbPolyline
 62
7
  6
CONTINUOUS
 90
16
 70
0
 10
51.9974959528
 20
28.8902236305
 10
51.9681753039
 20
28.9084551453
 10
51.9403562501
 20
28.9285331806
 10
51.9140387913
 20
28.9504577364
 10
51.8891094592
 20
28.9743026346
 10
51.8656817221
 20
28.9999940533
 10
51.8440959853
 20
29.0273105263
 10
51.82432433
 20
29.0563668882
 10
51.806394675
 20
29.0870483043
 10
51.7907311811
 20
29.1187888052
 10
51.7774126405
 20
29.1516508858
 10
51.766360261
 20
29.1855720511
 10
51.7577618271
 20
29.219798846
 10
51.7516799335
 20
29.2540801188
 10
51.7480519855
 20
29.2886670212
 10
51.7468779829
 20
29.3235595531
  0
LINE
  5
526
100
AcDbEntity
  8
RACCORDO
100
AcDbLine
 62
7
  6
CONTINUOUS
 10
52.3184877291
 20
28.797015659
 11
52.2974502614
 21
28.8180878171
  0
LWPOLYLINE
  5
527
100
AcDbEntity
  8
RACCORDO
100
AcDbPolyline
 62
253
  6
CONTINUOUS
 90
15
 70
0
 10
52.0608877333
 20
31.2770460785
 10
52.0413884666
 20
31.3009318941
 10
52.0218376657
 20
31.3254424504
 10
52.0023217572
 20
31.3505777474
 10
51.9828758571
 20
31.3765593759
 10
51.9636478046
 20
31.4031657453
 10
51.9448868067
 20
31.4297320828
 10
51.9266448799
 20
31.4563233142
 10
51.9090322961
 20
31.4828745138
 10
51.8923456622
 20
31.5085261326
 10
51.8766481235
 20
31.5331898252
 10
51.861946609
 20
31.5569539371
 10
51.8483925538
 20
31.5792239551
 10
51.8360166279
 20
31.599849842
 10
51.8247552321
 20
31.618981635
  0
LINE
  5
528
100
AcDbEntity
  8
RACCORDO
100
AcDbLine
 62
253
  6
CONTINUOUS
 10
55.6417676278
 20
29.7746192411
 11
55.4850269475
 21
30.0303636037
  0
LWPOLYLINE
  5
529
100
AcDbEntity
  8
RACCORDO
100
AcDbPolyline
 62
253
  6
CONTINUOUS
 90
6
 70
0
 10
51.7700983863
 20
31.7142811546
 10
51.7669712147
 20
31.7195636868
 10
51.7645002124
 20
31.7235826554
 10
51.7626699453
 20
31.7263846039
 10
51.7614846337
 20
31.7279229888
 10
51.7609334248
 20
31.72819781
  0
LWPOLYLINE
  5
52A
100
AcDbEntity
  8
RACCORDO
100
AcDbPolyline
 62
7
  6
CONTINUOUS
 90
7
 70
0
 10
53.2616907288
 20
34.978556346
 10
53.2669890108
 20
34.9696028627
 10
53.2736896718
 20
34.9618115074
 10
53.2817411973
 20
34.9552396012
 10
53.2910945043
 20
34.9499367427
 10
53.3017034232
 20
34.9459450723
 10
53.3135251306
 20
34.9432995346
  0
LWPOLYLINE
  5
52B
100
AcDbEntity
  8
RACCORDO
100
AcDbPolyline
 62
7
  6
CONTINUOUS
 90
7
 70
0
 10
54.3752848121
 20
35.4154748705
 10
54.3699864835
 20
35.4244283986
 10
54.3632857908
 20
35.4322197855
 10
54.3552342495
 20
35.4387917107
 10
54.345880943
 20
35.4440945766
 10
54.335272041
 20
35.4480862441
 10
54.3234503672
 20
35.45073177
  0
LINE
  5
52C
100
AcDbEntity
  8
RACCORDO
100
AcDbLine
 62
253
  6
CONTINUOUS
 10
51.8247552321
 20
31.618981635
 11
51.8054819463
 21
31.6522498272
  0
LINE
  5
52D
100
AcDbEntity
  8
RACCORDO
100
AcDbLine
 62
253
  6
CONTINUOUS
 10
51.7785656368
 20
31.6995066235
 11
51.7700983863
 21
31.7142811546
  0
LINE
  5
52E
100
AcDbEntity
  8
RACCORDO
100
AcDbLine
 62
253
  6
CONTINUOUS
 10
51.8054819463
 20
31.6522498272
 11
51.7785656368
 21
31.6995066235
  0
LINE
  5
52F
100
AcDbEntity
  8
DRAFT
100
AcDbLine
 62
7
  6
CONTINUOUS
 10
-21.6677905494
 20
42.9607373805
 11
-21.5598443024
 21
42.9651909648
  0
LINE
  5
530
100
AcDbEntity
  8
DRAFT
100
AcDbLine
 62
7
  6
CONTINUOUS
 10
48.1968197607
 20
48.3288403532
 11
48.3047660077
 21
48.3332939375
  0
LINE
  5
531
100
AcDbEntity
  8
DRAFT
100
AcDbLine
 62
7
  6
CONTINUOUS
 10
48.3108860149
 20
48.3394139447
 11
48.1968197607
 21
48.3394139447
  0
LINE
  5
532
100
AcDbEntity
  8
DRAFT
100
AcDbLine
 62
7
  6
CONTINUOUS
 10
-21.5598443024
 20
48.3394139447
 11
-21.6739105566
 21
48.3394139447
  0
LINE
  5
533
100
AcDbEntity
  8
0
100
AcDbLine
 62
7
  6
CONTINUOUS
 10
-21.5598443024
 20
48.622015659
 11
-21.5981740867
 21
48.622015659
  0
LINE
  5
534
100
AcDbEntity
  8
0
100
AcDbLine
 62
7
  6
CONTINUOUS
 10
48.1968197607
 20
48.622015659
 11
48.235149545
 21
48.622015659
  0
LINE
  5
535
100
AcDbEntity
  8
DRAFT
100
AcDbLine
 62
7
  6
CONTINUOUS
 10
48.1968197607
 20
42.9651909648
 11
48.3047660077
 21
42.9607373805
  0
LINE
  5
536
100
AcDbEntity
  8
DRAFT
100
AcDbLine
 62
7
  6
CONTINUOUS
 10
-21.6677905494
 20
48.3332939375
 11
-21.5598443024
 21
48.3288403532
  0
LINE
  5
537
100
AcDbEntity
  8
RACCORDO
100
AcDbLine
 62
253
  6
CONTINUOUS
 10
55.8945127882
 20
31.7243760824
 11
55.8804573464
 21
31.7314574584
  0
LINE
  5
538
100
AcDbEntity
  8
RACCORDO
100
AcDbLine
 62
253
  6
CONTINUOUS
 10
51.7468779829
 20
38.6729260972
 11
51.7609334248
 21
38.6658335079
  0
LINE
  5
539
100
AcDbEntity
  8
RACCORDO
100
AcDbLine
 62
253
  6
CONTINUOUS
 10
55.8804573464
 20
30.2008592944
 11
55.8946641609
 21
30.1929099595
  0
LINE
  5
53A
100
AcDbEntity
  8
RACCORDO
100
AcDbLine
 62
253
  6
CONTINUOUS
 10
56.0965977471
 20
32.1258930183
 11
56.0832013774
 21
32.1334624459
  0
LINE
  5
53B
100
AcDbEntity
  8
RACCORDO
100
AcDbLine
 62
253
  6
CONTINUOUS
 10
51.5442825123
 20
38.2710309746
 11
51.5576772172
 21
38.263450401
  0
LWPOLYLINE
  5
53C
100
AcDbEntity
  8
RACCORDO
100
AcDbPolyline
 62
253
  6
CONTINUOUS
 90
8
 70
0
 10
51.5912191749
 20
32.1110518081
 10
51.5825381414
 20
32.1166268521
 10
51.5752638814
 20
32.1212140882
 10
51.5693454085
 20
32.1248352839
 10
51.5646436438
 20
32.1275778632
 10
51.5611105929
 20
32.1294680474
 10
51.5587888456
 20
32.1304699815
 10
51.5576772172
 20
32.130580917
  0
LINE
  5
53D
100
AcDbEntity
  8
RACCORDO
100
AcDbLine
 62
253
  6
CONTINUOUS
 10
51.6126970885
 20
32.0970806781
 11
51.5912191749
 21
32.1110518081
  0
LWPOLYLINE
  5
53E
100
AcDbEntity
  8
RACCORDO
100
AcDbPolyline
 62
7
  6
CONTINUOUS
 90
17
 70
0
 10
51.6126936011
 20
32.0970836622
 10
51.6435161985
 20
32.0735475712
 10
51.6730237095
 20
32.0483149665
 10
51.7012161342
 20
32.0213858481
 10
51.7280500842
 20
31.9926947047
 10
51.7535689478
 20
31.9623070477
 10
51.7779028901
 20
31.9304194109
 10
51.8009991985
 20
31.8970887606
 10
51.8229105856
 20
31.8622581307
 10
51.8439253539
 20
31.8259531562
 10
51.8640260344
 20
31.788181456
 10
51.883230096
 20
31.7489354113
 10
51.9018782481
 20
31.7082178008
 10
51.919953458
 20
31.6660147099
 10
51.9374727584
 20
31.6223400533
 10
51.9548279557
 20
31.5772383537
 10
51.9719796099
 20
31.5307134603
  0
LWPOLYLINE
  5
53F
100
AcDbEntity
  8
RACCORDO
100
AcDbPolyline
 62
253
  6
CONTINUOUS
 90
13
 70
0
 10
51.5576772171
 20
32.130580917
 10
51.5881083033
 20
32.106251576
 10
51.6165531568
 20
32.0796265895
 10
51.6428390529
 20
32.0508676318
 10
51.6668063763
 20
32.020149335
 10
51.6883095911
 20
31.987658229
 10
51.7072181237
 20
31.9535916086
 10
51.7234171565
 20
31.9181563357
 10
51.7368083245
 20
31.8815675829
 10
51.7473103128
 20
31.844047527
 10
51.7548593506
 20
31.8058240001
 10
51.759409598
 20
31.7671291058
 10
51.7609334248
 20
31.72819781
  0
LINE
  5
540
100
AcDbEntity
  8
RACCORDO
100
AcDbLine
 62
253
  6
CONTINUOUS
 10
54.0848443887
 20
34.7686494176
 11
54.1562195111
 21
34.6972742952
  0
LINE
  5
541
100
AcDbEntity
  8
RACCORDO
100
AcDbLine
 62
253
  6
CONTINUOUS
 10
53.3901214877
 20
35.4633723185
 11
53.3187463653
 21
35.5347474409
  0
LINE
  5
542
100
AcDbEntity
  8
RACCORDO
100
AcDbLine
 62
253
  6
CONTINUOUS
 10
54.2468539705
 20
34.9306589995
 11
54.3182290929
 21
34.8592838771
  0
LINE
  5
543
100
AcDbEntity
  8
RACCORDO
100
AcDbLine
 62
253
  6
CONTINUOUS
 10
53.5521310696
 20
35.6253819004
 11
53.4807559472
 21
35.6967570228
  0
LINE
  5
544
100
AcDbEntity
  8
DRAFT
100
AcDbLine
 62
7
  6
CONTINUOUS
 10
48.3047660077
 20
42.9607373805
 11
48.3108860149
 21
42.9546173733
  0
LINE
  5
545
100
AcDbEntity
  8
RACCORDO
100
AcDbLine
 62
253
  6
CONTINUOUS
 10
56.083201377
 20
32.1334624456
 11
55.9048934871
 21
32.3746654382
  0
LWPOLYLINE
  5
546
100
AcDbEntity
  8
RACCORDO
100
AcDbPolyline
 62
253
  6
CONTINUOUS
 90
22
 70
0
 10
-23.6605575247
 20
52.1260231435
 10
-23.6756083621
 20
52.1254442805
 10
-23.6904212559
 20
52.1237775834
 10
-23.7049962061
 20
52.1210230522
 10
-23.7194152694
 20
52.1171530164
 10
-23.7335963891
 20
52.1121951464
 10
-23.7472933949
 20
52.1062324538
 10
-23.760494756
 20
52.0992483865
 10
-23.7732120032
 20
52.0912594966
 10
-23.785233559
 20
52.0823984512
 10
-23.7965477636
 20
52.0726505927
 10
-23.8071662767
 20
52.0620305786
 10
-23.8169125003
 20
52.0507150491
 10
-23.8257717575
 20
52.0386923405
 10
-23.833758725
 20
52.0259741164
 10
-23.840740835
 20
52.0127720078
 10
-23.8467015537
 20
51.9990735683
 10
-23.8516574148
 20
51.9848912442
 10
-23.8555254525
 20
51.9704740057
 10
-23.8582780114
 20
51.955904843
 10
-23.8599427469
 20
51.941100766
 10
-23.8605196589
 20
51.9260617747
  0
LWPOLYLINE
  5
547
100
AcDbEntity
  8
RACCORDO
100
AcDbPolyline
 62
253
  6
CONTINUOUS
 90
22
 70
0
 10
-23.6605509555
 20
52.4259781912
 10
-23.6979078841
 20
52.4245738532
 10
-23.7350555173
 20
52.4203822441
 10
-23.7717862119
 20
52.4134268356
 10
-23.8078946759
 20
52.4037465612
 10
-23.8431790542
 20
52.3913955562
 10
-23.8774420576
 20
52.3764428587
 10
-23.9104921487
 20
52.3589720903
 10
-23.9421446125
 20
52.3390809468
 10
-23.9722225241
 20
52.3168806067
 10
-24.0005577236
 20
52.2924952059
 10
-24.0269918621
 20
52.2660610637
 10
-24.0513772628
 20
52.237725856
 10
-24.0735776086
 20
52.2076479259
 10
-24.0934687583
 20
52.1759954371
 10
-24.1109395245
 20
52.1429453306
 10
-24.1258922102
 20
52.1086823312
 10
-24.1382432011
 20
52.0733979696
 10
-24.1479234635
 20
52.0372895261
 10
-24.1548788633
 20
52.0005588528
 10
-24.1590704669
 20
51.9634112444
 10
-24.1604748031
 20
51.9260543436
  0
LWPOLYLINE
  5
548
100
AcDbEntity
  8
RACCORDO
100
AcDbPolyline
 62
253
  6
CONTINUOUS
 90
9
 70
0
 10
47.3177895144
 20
52.3301727535
 10
47.3378841476
 20
52.3308449295
 10
47.3555024908
 20
52.3315347097
 10
47.3706170102
 20
52.3322425839
 10
47.3832552396
 20
52.3329680623
 10
47.3932731986
 20
52.3337019895
 10
47.4006228937
 20
52.3344413137
 10
47.4053523183
 20
52.3351890867
 10
47.4074614725
 20
52.3359453085
  0
LINE
  5
549
100
AcDbEntity
  8
RACCORDO
100
AcDbLine
 62
253
  6
CONTINUOUS
 10
47.2708231714
 20
52.3289045333
 11
47.3177895144
 21
52.3301727535
  0
LINE
  5
54A
100
AcDbEntity
  8
RACCORDO
100
AcDbLine
 62
253
  6
CONTINUOUS
 10
47.5526190624
 20
52.4221281602
 11
47.5906608724
 21
52.4230807712
  0
LINE
  5
54B
100
AcDbEntity
  8
RACCORDO
100
AcDbLine
 62
253
  6
CONTINUOUS
 10
47.2151404839
 20
52.3277446381
 11
47.2708231714
 21
52.3289045333
  0
LINE
  5
54C
100
AcDbEntity
  8
RACCORDO
100
AcDbLine
 62
253
  6
CONTINUOUS
 10
47.5906608724
 20
52.4230807712
 11
47.6363549994
 21
52.4239245541
  0
LINE
  5
54D
100
AcDbEntity
  8
RACCORDO
100
AcDbLine
 62
253
  6
CONTINUOUS
 10
47.1173823827
 20
52.3262531469
 11
47.2151404839
 21
52.3277446381
  0
LINE
  5
54E
100
AcDbEntity
  8
RACCORDO
100
AcDbLine
 62
253
  6
CONTINUOUS
 10
47.6363549994
 20
52.4239245541
 11
47.7169079189
 21
52.4249474278
  0
LINE
  5
54F
100
AcDbEntity
  8
RACCORDO
100
AcDbLine
 62
253
  6
CONTINUOUS
 10
46.9658497978
 20
52.3248028419
 11
47.1173823827
 21
52.3262531469
  0
LINE
  5
550
100
AcDbEntity
  8
RACCORDO
100
AcDbLine
 62
253
  6
CONTINUOUS
 10
47.7169079189
 20
52.4249474278
 11
47.8084787656
 21
52.4256363459
  0
LINE
  5
551
100
AcDbEntity
  8
RACCORDO
100
AcDbLine
 62
253
  6
CONTINUOUS
 10
46.7990772607
 20
52.3240453259
 11
46.9658497978
 21
52.3248028419
  0
LINE
  5
552
100
AcDbEntity
  8
RACCORDO
100
AcDbLine
 62
253
  6
CONTINUOUS
 10
38.036141152
 20
52.3147880545
 11
46.7990772607
 21
52.3240453259
  0
LINE
  5
553
100
AcDbEntity
  8
RACCORDO
100
AcDbLine
 62
253
  6
CONTINUOUS
 10
47.8084787656
 20
52.4256363459
 11
47.9397097212
 21
52.4259781912
  0
LINE
  5
554
100
AcDbEntity
  8
RACCORDO
100
AcDbLine
 62
253
  6
CONTINUOUS
 10
24.6287086184
 20
52.3061119576
 11
38.036141152
 21
52.3147880545
  0
LINE
  5
555
100
AcDbEntity
  8
RACCORDO
100
AcDbLine
 62
253
  6
CONTINUOUS
 10
52.2974502614
 20
51.9260543444
 11
51.9974951172
 21
51.9260543436
  0
LINE
  5
556
100
AcDbEntity
  8
RACCORDO
100
AcDbLine
 62
253
  6
CONTINUOUS
 10
-24.1604748031
 20
51.9260543444
 11
-23.8605196589
 21
51.9260543436
  0
LINE
  5
557
100
AcDbEntity
  8
RACCORDO
100
AcDbLine
 62
253
  6
CONTINUOUS
 10
51.797532983
 20
52.1260231435
 11
48.2581173093
 21
52.1260238217
  0
LINE
  5
558
100
AcDbEntity
  8
RACCORDO
100
AcDbLine
 62
253
  6
CONTINUOUS
 10
-21.6211418511
 20
52.1260237828
 11
-23.6605575247
 21
52.1260231435
  0
LINE
  5
559
100
AcDbEntity
  8
0
100
AcDbLine
 62
7
  6
CONTINUOUS
 10
-21.6211418511
 20
52.297015659
 11
48.2581173093
 21
52.297015659
  0
LINE
  5
55A
100
AcDbEntity
  8
RACCORDO
100
AcDbLine
 62
253
  6
CONTINUOUS
 10
11.1559314234
 20
52.30387662
 11
24.6287086184
 21
52.3061119576
  0
LINE
  5
55B
100
AcDbEntity
  8
RACCORDO
100
AcDbLine
 62
253
  6
CONTINUOUS
 10
51.7975264138
 20
52.4259781912
 11
47.9397097212
 21
52.4259781912
  0
LINE
  5
55C
100
AcDbEntity
  8
RACCORDO
100
AcDbLine
 62
7
  6
CONTINUOUS
 10
-23.6815884233
 20
52.447015659
 11
51.8185638816
 21
52.447015659
  0
LINE
  5
55D
100
AcDbEntity
  8
RACCORDO
100
AcDbLine
 62
253
  6
CONTINUOUS
 10
-2.2615844231
 20
52.3081685669
 11
11.1559314234
 21
52.30387662
  0
LINE
  5
55E
100
AcDbEntity
  8
RACCORDO
100
AcDbLine
 62
253
  6
CONTINUOUS
 10
-15.6575213317
 20
52.3189398681
 11
-2.2615844231
 21
52.3081685669
  0
LINE
  5
55F
100
AcDbEntity
  8
RACCORDO
100
AcDbLine
 62
253
  6
CONTINUOUS
 10
-23.6605509555
 20
52.4259781912
 11
-21.2036061021
 21
52.4257852346
  0
LINE
  5
560
100
AcDbEntity
  8
RACCORDO
100
AcDbLine
 62
253
  6
CONTINUOUS
 10
-20.2880260002
 20
52.3245451318
 11
-15.6575213317
 21
52.3189398681
  0
LINE
  5
561
100
AcDbEntity
  8
RACCORDO
100
AcDbLine
 62
253
  6
CONTINUOUS
 10
-21.2036061021
 20
52.4257852346
 11
-21.1093575157
 21
52.4252159181
  0
LINE
  5
562
100
AcDbEntity
  8
RACCORDO
100
AcDbLine
 62
253
  6
CONTINUOUS
 10
-20.4445537027
 20
52.3258303455
 11
-20.2880260002
 21
52.3245451318
  0
LINE
  5
563
100
AcDbEntity
  8
RACCORDO
100
AcDbLine
 62
253
  6
CONTINUOUS
 10
-21.1093575157
 20
52.4252159181
 11
-21.0246891072
 21
52.4242993194
  0
LINE
  5
564
100
AcDbEntity
  8
RACCORDO
100
AcDbLine
 62
253
  6
CONTINUOUS
 10
-20.5473926086
 20
52.3272133774
 11
-20.4445537027
 21
52.3258303455
  0
LINE
  5
565
100
AcDbEntity
  8
RACCORDO
100
AcDbLine
 62
253
  6
CONTINUOUS
 10
-21.0246891072
 20
52.4242993194
 11
-20.9755778589
 21
52.423516058
  0
LINE
  5
566
100
AcDbEntity
  8
RACCORDO
100
AcDbLine
 62
253
  6
CONTINUOUS
 10
-20.6069760035
 20
52.3283084892
 11
-20.5473926086
 21
52.3272133774
  0
LWPOLYLINE
  5
567
100
AcDbEntity
  8
RACCORDO
100
AcDbPolyline
 62
253
  6
CONTINUOUS
 90
10
 70
0
 10
-20.9755778589
 20
52.423516058
 10
-20.9337077335
 20
52.4226177628
 10
-20.9156344195
 20
52.4221278805
 10
-20.899754091
 20
52.421618922
 10
-20.8861024424
 20
52.4210905643
 10
-20.8746437792
 20
52.4205431302
 10
-20.8655657215
 20
52.4199855168
 10
-20.858930809
 20
52.4194206895
 10
-20.8546765019
 20
52.4188456829
 10
-20.8528028001
 20
52.4182604968
  0
LWPOLYLINE
  5
568
100
AcDbEntity
  8
RACCORDO
100
AcDbPolyline
 62
7
  6
CONTINUOUS
 90
19
 70
0
 10
55.6617477443
 20
40.6296738903
 10
55.6897426606
 20
40.6105749083
 10
55.7155937766
 20
40.5902424745
 10
55.7393755599
 20
40.5688493478
 10
55.7611778497
 20
40.5465883829
 10
55.7810846599
 20
40.5236201841
 10
55.7991481841
 20
40.5000354405
 10
55.8154236969
 20
40.475983165
 10
55.8300052218
 20
40.4515826821
 10
55.8429648437
 20
40.4268163262
 10
55.8543731402
 20
40.401756644
 10
55.8642807472
 20
40.3765291732
 10
55.8727024147
 20
40.3511524962
 10
55.8797015107
 20
40.3256545106
 10
55.8853290418
 20
40.3001740742
 10
55.8895784131
 20
40.274885977
 10
55.8924941017
 20
40.2499069588
 10
55.8941668515
 20
40.2252915282
 10
55.8946641609
 20
40.2011213585
  0
LWPOLYLINE
  5
569
100
AcDbEntity
  8
RACCORDO
100
AcDbPolyline
 62
253
  6
CONTINUOUS
 90
16
 70
0
 10
56.0832031522
 20
38.2605712736
 10
56.0587411514
 20
38.279853618
 10
56.0355377914
 20
38.3006180604
 10
56.0136768717
 20
38.3227809861
 10
55.9932386429
 20
38.3462598559
 10
55.97430432
 20
38.3709663836
 10
55.956947195
 20
38.3967965615
 10
55.9412377114
 20
38.4236393172
 10
55.9272345732
 20
38.4514003248
 10
55.9149807691
 20
38.4799922304
 10
55.9045184338
 20
38.5093144159
 10
55.8958985667
 20
38.539242742
 10
55.889161905
 20
38.5696499307
 10
55.8843310276
 20
38.6004160707
 10
55.8814253951
 20
38.6314301995
 10
55.8804614522
 20
38.6625738591
  0
LWPOLYLINE
  5
56A
100
AcDbEntity
  8
RACCORDO
100
AcDbPolyline
 62
253
  6
CONTINUOUS
 90
16
 70
0
 10
55.9051141978
 20
38.0191683647
 10
55.8656870669
 20
38.0503162527
 10
55.8285491364
 20
38.0835511883
 10
55.7937004063
 20
38.1188731713
 10
55.7610281006
 20
38.1564341172
 10
55.7306449954
 20
38.1960821106
 10
55.7028894186
 20
38.2373614054
 10
55.6777926049
 20
38.2802803628
 10
55.6553233196
 20
38.3248306216
 10
55.635726187
 20
38.3705313512
 10
55.619024892
 20
38.4174235379
 10
55.6051957496
 20
38.4654661954
 10
55.5944123291
 20
38.5140555353
 10
55.5867324869
 20
38.5629902948
 10
55.5820983665
 20
38.6124717367
 10
55.580509968
 20
38.662499861
  0
LINE
  5
56B
100
AcDbEntity
  8
RACCORDO
100
AcDbLine
 62
253
  6
CONTINUOUS
 10
52.255940605
 20
41.5564700424
 11
52.238406938
 21
41.5724460623
  0
LINE
  5
56C
100
AcDbEntity
  8
RACCORDO
100
AcDbLine
 62
253
  6
CONTINUOUS
 10
51.7609334248
 20
41.0565703981
 11
51.7468779829
 21
41.0704717649
  0
LWPOLYLINE
  5
56D
100
AcDbEntity
  8
RACCORDO
100
AcDbPolyline
 62
253
  6
CONTINUOUS
 90
3
 70
0
 10
47.7303189049
 20
52.297015659
 10
47.7195239536
 20
52.311082024
 10
47.7018456682
 20
52.3303736417
  0
LWPOLYLINE
  5
56E
100
AcDbEntity
  8
RACCORDO
100
AcDbPolyline
 62
253
  6
CONTINUOUS
 90
7
 70
0
 10
47.554943238
 20
52.297015659
 10
47.5342062101
 20
52.3078145012
 10
47.5100344149
 20
52.31783196
 10
47.4850821682
 20
52.3257053155
 10
47.4595392405
 20
52.3313746449
 10
47.4335999961
 20
52.334796766
 10
47.407461773
 20
52.3359456091
  0
LWPOLYLINE
  5
56F
100
AcDbEntity
  8
RACCORDO
100
AcDbPolyline
 62
253
  6
CONTINUOUS
 90
10
 70
0
 10
47.7018456682
 20
52.3303736417
 10
47.6825540465
 20
52.3480519234
 10
47.6617958527
 20
52.3639823784
 10
47.6397290097
 20
52.3780438124
 10
47.6165213948
 20
52.3901292511
 10
47.5923495636
 20
52.4001467533
 10
47.5673974085
 20
52.4080201093
 10
47.5418547573
 20
52.4136894221
 10
47.5159159294
 20
52.4171115625
 10
47.4897782584
 20
52.4182604968
  0
LWPOLYLINE
  5
570
100
AcDbEntity
  8
RACCORDO
100
AcDbPolyline
 62
253
  6
CONTINUOUS
 90
6
 70
0
 10
-76.2360871773
 20
52.297015659
 10
-76.2186900408
 20
52.3045075364
 10
-76.1941770464
 20
52.312635745
 10
-76.1690559922
 20
52.3186157958
 10
-76.1435138967
 20
52.3224031245
 10
-76.1177408684
 20
52.323969505
  0
LWPOLYLINE
  5
571
100
AcDbEntity
  8
RACCORDO
100
AcDbPolyline
 62
7
  6
CONTINUOUS
 90
19
 70
0
 10
-70.2736671487
 20
40.6296738903
 10
-70.2988801023
 20
40.6105749083
 10
-70.3232947009
 20
40.5902424745
 10
-70.3467665157
 20
40.5688493478
 10
-70.3691187291
 20
40.5465883829
 10
-70.3903160054
 20
40.5236201841
 10
-70.4104460098
 20
40.5000354405
 10
-70.4294339757
 20
40.475983165
 10
-70.4472262278
 20
40.4515826821
 10
-70.4639262032
 20
40.4268163262
 10
-70.4794957079
 20
40.401756644
 10
-70.4938687433
 20
40.3765291732
 10
-70.5070800092
 20
40.3511524962
 10
-70.5191103696
 20
40.3256545106
 10
-70.52988473
 20
40.3001740742
 10
-70.5393533261
 20
40.274885977
 10
-70.5474922447
 20
40.2499069588
 10
-70.5542958014
 20
40.2252915282
 10
-70.5597592905
 20
40.2011213585
  0
LWPOLYLINE
  5
572
100
AcDbEntity
  8
RACCORDO
100
AcDbPolyline
 62
253
  6
CONTINUOUS
 90
7
 70
0
 10
-70.7007566278
 20
-61.7242748691
 10
-70.7032693079
 20
-61.7244941211
 10
-70.7057816816
 20
-61.7246256724
 10
-70.7082930165
 20
-61.724669523
 10
-70.7108025867
 20
-61.7246256728
 10
-70.7133096737
 20
-61.7244941219
 10
-70.7158135658
 20
-61.7242748703
  0
LINE
  5
573
100
AcDbEntity
  8
DRAFT
100
AcDbLine
 62
7
  6
CONTINUOUS
 10
-66.1684314268
 20
-62.0023646527
 11
-67.3684314268
 21
-62.0233107306
  0
LINE
  5
574
100
AcDbEntity
  8
RACCORDO
100
AcDbLine
 62
7
  6
CONTINUOUS
 10
-67.3684314268
 20
-62.0233107306
 11
-69.0684314268
 21
-62.052984341
  0
LINE
  5
575
100
AcDbEntity
  8
RACCORDO
100
AcDbLine
 62
253
  6
CONTINUOUS
 10
-67.3684314268
 20
-61.5233868831
 11
-69.0684314268
 21
-61.5530604934
  0
LINE
  5
576
100
AcDbEntity
  8
0
100
AcDbLine
 62
7
  6
CONTINUOUS
 10
-78.0684240502
 20
-61.902984341
 11
-70.849958582
 21
-61.902984341
  0
LINE
  5
577
100
AcDbEntity
  8
RACCORDO
100
AcDbLine
 62
253
  6
CONTINUOUS
 10
-70.2736671487
 20
-61.5320230264
 11
-70.5684314268
 21
-61.5320230257
  0
LINE
  5
578
100
AcDbEntity
  8
ASSI
100
AcDbLine
 62
7
  6
CONTINUOUS
 10
-65.4884314268
 20
-61.002984341
 11
-66.1684314268
 21
-61.002984341
  0
LINE
  5
579
100
AcDbEntity
  8
RACCORDO
100
AcDbLine
 62
7
  6
CONTINUOUS
 10
-69.0684314268
 20
-62.052984341
 11
-77.2736751573
 21
-61.9097612789
  0
LINE
  5
57A
100
AcDbEntity
  8
RACCORDO
100
AcDbLine
 62
253
  6
CONTINUOUS
 10
-70.7158135658
 20
-61.7242748703
 11
-75.4316303535
 21
-61.641959982
  0
LINE
  5
57B
100
AcDbEntity
  8
RACCORDO
100
AcDbLine
 62
253
  6
CONTINUOUS
 10
-69.0684314268
 20
-61.5530604934
 11
-70.2736671487
 21
-61.5320230257
  0
LINE
  5
57C
100
AcDbEntity
  8
RACCORDO
100
AcDbLine
 62
253
  6
CONTINUOUS
 10
-70.5698630735
 20
-61.7319167348
 11
-70.6607746621
 21
-61.7272137211
  0
LWPOLYLINE
  5
57D
100
AcDbEntity
  8
RACCORDO
100
AcDbPolyline
 62
253
  6
CONTINUOUS
 90
5
 70
0
 10
-70.6607746621
 20
-61.7272137211
 10
-70.670484628
 20
-61.7266472593
 10
-70.6804159872
 20
-61.7259553572
 10
-70.6905228196
 20
-61.7251645605
 10
-70.7007566278
 20
-61.7242748691
  0
LWPOLYLINE
  5
57E
100
AcDbEntity
  8
RACCORDO
100
AcDbPolyline
 62
253
  6
CONTINUOUS
 90
6
 70
0
 10
-76.2360870508
 20
-61.902984341
 10
-76.2186899994
 20
-61.9104761877
 10
-76.1941770112
 20
-61.9186044029
 10
-76.1690559483
 20
-61.9245844639
 10
-76.1435138324
 20
-61.9283718021
 10
-76.1177407723
 20
-61.9299381887
  0
LINE
  5
57F
100
AcDbEntity
  8
0
100
AcDbLine
 62
7
  6
CONTINUOUS
 10
-72.2662669593
 20
-58.227984341
 11
-74.6162669593
 21
-58.227984341
  0
LINE
  5
580
100
AcDbEntity
  8
DRAFT
100
AcDbLine
 62
7
  6
CONTINUOUS
 10
-72.3684314268
 20
-57.9453826267
 11
-74.0749891109
 21
-57.9155945516
  0
LINE
  5
581
100
AcDbEntity
  8
DRAFT
100
AcDbLine
 62
7
  6
CONTINUOUS
 10
-72.3684314268
 20
-52.5605860553
 11
-74.0749891109
 21
-52.5903741305
  0
LINE
  5
582
100
AcDbEntity
  8
DRAFT
100
AcDbLine
 62
7
  6
CONTINUOUS
 10
-67.3684314268
 20
-51.1733107306
 11
-69.0684314268
 21
-51.202984341
  0
LINE
  5
583
100
AcDbEntity
  8
0
100
AcDbLine
 62
7
  6
CONTINUOUS
 10
-74.6162669593
 20
-52.277984341
 11
-72.2662669593
 21
-52.277984341
  0
LINE
  5
584
100
AcDbEntity
  8
RACCORDO
100
AcDbLine
 62
253
  6
CONTINUOUS
 10
-71.3736671487
 20
-49.7991407062
 11
-71.6684314268
 21
-49.7991407054
  0
LINE
  5
585
100
AcDbEntity
  8
RACCORDO
100
AcDbLine
 62
253
  6
CONTINUOUS
 10
-71.3736671487
 20
-50.2253807502
 11
-70.2736671487
 21
-50.2356425723
  0
LINE
  5
586
100
AcDbEntity
  8
RACCORDO
100
AcDbLine
 62
253
  6
CONTINUOUS
 10
-71.3736671487
 20
-49.7991407056
 11
-70.5597592905
 21
-49.8070900405
  0
LINE
  5
587
100
AcDbEntity
  8
DRAFT
100
AcDbLine
 62
7
  6
CONTINUOUS
 10
-69.0684314268
 20
-51.202984341
 11
-71.3736671487
 21
-51.1627463018
  0
LWPOLYLINE
  5
588
100
AcDbEntity
  8
RACCORDO
100
AcDbPolyline
 62
253
  6
CONTINUOUS
 90
19
 70
0
 10
-71.3736671487
 20
-50.2253807589
 10
-71.3995007141
 20
-50.224044311
 10
-71.4251030446
 20
-50.2208144201
 10
-71.4502835933
 20
-50.215715125
 10
-71.4748549526
 20
-50.2087843774
 10
-71.4986342489
 20
-50.2000737597
 10
-71.5214445032
 20
-50.1896481013
 10
-71.5431159514
 20
-50.1775849943
 10
-71.5634872999
 20
-50.16397422
 10
-71.5824069279
 20
-50.1489170825
 10
-71.5997340293
 20
-50.1325256438
 10
-71.6153396445
 20
-50.1149219016
 10
-71.6291076194
 20
-50.0962368893
 10
-71.6409354833
 20
-50.0766096895
 10
-71.6507352255
 20
-50.0561863665
 10
-71.6584339286
 20
-50.0351188909
 10
-71.6639742948
 20
-50.0135640455
 10
-71.6673150829
 20
-49.9916822623
 10
-71.6684314268
 20
-49.9696363963
  0
LINE
  5
589
100
AcDbEntity
  8
RACCORDO
100
AcDbLine
 62
253
  6
CONTINUOUS
 10
-71.3736671487
 20
-48.2685425411
 11
-71.6684314268
 21
-48.2685425413
  0
LINE
  5
58A
100
AcDbEntity
  8
0
100
AcDbLine
 62
7
  6
CONTINUOUS
 10
-64.3684314268
 20
-46.302984341
 11
-66.8684314268
 21
-46.302984341
  0
LINE
  5
58B
100
AcDbEntity
  8
0
100
AcDbLine
 62
7
  6
CONTINUOUS
 10
-64.3684314268
 20
-46.002984341
 11
-66.8684314268
 21
-46.002984341
  0
LINE
  5
58C
100
AcDbEntity
  8
0
100
AcDbLine
 62
7
  6
CONTINUOUS
 10
-66.8684314268
 20
-46.002984341
 11
-67.3684314268
 21
-46.002984341
  0
LINE
  5
58D
100
AcDbEntity
  8
RACCORDO
100
AcDbLine
 62
253
  6
CONTINUOUS
 10
-70.5684314268
 20
-48.2756239176
 11
-71.3736671487
 21
-48.2685425416
  0
LINE
  5
58E
100
AcDbEntity
  8
RACCORDO
100
AcDbLine
 62
253
  6
CONTINUOUS
 10
-70.5684314268
 20
-47.8741069817
 11
-71.3736671487
 21
-47.8665375541
  0
LWPOLYLINE
  5
58F
100
AcDbEntity
  8
RACCORDO
100
AcDbPolyline
 62
253
  6
CONTINUOUS
 90
19
 70
0
 10
-71.3736671487
 20
-47.8665375544
 10
-71.3995003175
 20
-47.8652771259
 10
-71.4251022894
 20
-47.862230962
 10
-71.4502825244
 20
-47.8574217275
 10
-71.474853614
 20
-47.8508852106
 10
-71.4986326955
 20
-47.8426700519
 10
-71.5214428117
 20
-47.8328373775
 10
-71.5431141962
 20
-47.8214603559
 10
-71.5634855514
 20
-47.8086236521
 10
-71.5824052649
 20
-47.7944227875
 10
-71.5997325226
 20
-47.7789634358
 10
-71.6153383448
 20
-47.7623606511
 10
-71.6291065608
 20
-47.7447380076
 10
-71.6409346915
 20
-47.7262266561
 10
-71.6507346921
 20
-47.7069643687
 10
-71.658433606
 20
-47.6870945307
 10
-71.6639741284
 20
-47.666765035
 10
-71.6673150245
 20
-47.6461271784
 10
-71.6684314268
 20
-47.6253345618
  0
LWPOLYLINE
  5
590
100
AcDbEntity
  8
RACCORDO
100
AcDbPolyline
 62
253
  6
CONTINUOUS
 90
19
 70
0
 10
-71.3736671487
 20
-41.7394311277
 10
-71.3995003406
 20
-41.740691558
 10
-71.4251023329
 20
-41.7437377267
 10
-71.4502825857
 20
-41.7485469685
 10
-71.4748536901
 20
-41.7550834947
 10
-71.4986327832
 20
-41.7632986641
 10
-71.521442906
 20
-41.7731313495
 10
-71.5431142925
 20
-41.7845083816
 10
-71.5634856454
 20
-41.7973450946
 10
-71.5824053523
 20
-41.811545966
 10
-71.5997325993
 20
-41.8270053209
 10
-71.6153384085
 20
-41.8436081051
 10
-71.6291066107
 20
-41.8612307449
 10
-71.6409347277
 20
-41.8797420893
 10
-71.6507347157
 20
-41.8990043662
 10
-71.6584336194
 20
-41.9188741921
 10
-71.6639741345
 20
-41.9392036752
 10
-71.6673150261
 20
-41.959841518
 10
-71.6684314268
 20
-41.9806341202
  0
LINE
  5
591
100
AcDbEntity
  8
RACCORDO
100
AcDbLine
 62
253
  6
CONTINUOUS
 10
-70.5597592905
 20
-39.7988786415
 11
-71.3736671487
 21
-39.8068279724
  0
LINE
  5
592
100
AcDbEntity
  8
RACCORDO
100
AcDbLine
 62
253
  6
CONTINUOUS
 10
-71.3736671487
 20
-41.7394311279
 11
-70.5684314268
 21
-41.7318617003
  0
LINE
  5
593
100
AcDbEntity
  8
RACCORDO
100
AcDbLine
 62
253
  6
CONTINUOUS
 10
-71.3736671487
 20
-41.3374261404
 11
-70.5684314268
 21
-41.3303447644
  0
LINE
  5
594
100
AcDbEntity
  8
0
100
AcDbLine
 62
7
  6
CONTINUOUS
 10
-64.3684314268
 20
-43.602984341
 11
-66.8684314268
 21
-43.602984341
  0
LINE
  5
595
100
AcDbEntity
  8
0
100
AcDbLine
 62
7
  6
CONTINUOUS
 10
-66.8684314268
 20
-43.602984341
 11
-67.3684314268
 21
-43.602984341
  0
LINE
  5
596
100
AcDbEntity
  8
0
100
AcDbLine
 62
7
  6
CONTINUOUS
 10
-64.3684314268
 20
-43.302984341
 11
-66.8684314268
 21
-43.302984341
  0
LINE
  5
597
100
AcDbEntity
  8
RACCORDO
100
AcDbLine
 62
253
  6
CONTINUOUS
 10
-71.3736671487
 20
-41.3374261409
 11
-71.6684314267
 21
-41.3374261408
  0
LINE
  5
598
100
AcDbEntity
  8
RACCORDO
100
AcDbLine
 62
253
  6
CONTINUOUS
 10
-71.3736671487
 20
-39.8068279758
 11
-71.6684314268
 21
-39.8068279766
  0
LWPOLYLINE
  5
599
100
AcDbEntity
  8
RACCORDO
100
AcDbPolyline
 62
253
  6
CONTINUOUS
 90
19
 70
0
 10
-71.3736671487
 20
-39.3805879231
 10
-71.3995007133
 20
-39.381924371
 10
-71.425103043
 20
-39.3851542617
 10
-71.4502835911
 20
-39.3902535565
 10
-71.4748549498
 20
-39.3971843038
 10
-71.4986342454
 20
-39.4058949209
 10
-71.5214444993
 20
-39.4163205787
 10
-71.543115947
 20
-39.4283836851
 10
-71.5634872952
 20
-39.4419944586
 10
-71.5824069231
 20
-39.4570515953
 10
-71.5997340245
 20
-39.4734430333
 10
-71.6153396399
 20
-39.4910467748
 10
-71.6291076153
 20
-39.5097317867
 10
-71.6409354801
 20
-39.5293589866
 10
-71.6507352232
 20
-39.54978231
 10
-71.658433927
 20
-39.5708497861
 10
-71.6639742938
 20
-39.5924046318
 10
-71.6673150825
 20
-39.6142864153
 10
-71.6684314268
 20
-39.6363322813
  0
LINE
  5
59A
100
AcDbEntity
  8
DRAFT
100
AcDbLine
 62
7
  6
CONTINUOUS
 10
-69.0684314268
 20
-38.402984341
 11
-71.3736671487
 21
-38.4432223802
  0
LINE
  5
59B
100
AcDbEntity
  8
RACCORDO
100
AcDbLine
 62
253
  6
CONTINUOUS
 10
-70.2736671487
 20
-39.3703261097
 11
-71.3736671487
 21
-39.3805879167
  0
LINE
  5
59C
100
AcDbEntity
  8
DRAFT
100
AcDbLine
 62
7
  6
CONTINUOUS
 10
-67.3684314268
 20
-38.4326579514
 11
-69.0684314268
 21
-38.402984341
  0
LINE
  5
59D
100
AcDbEntity
  8
0
100
AcDbLine
 62
7
  6
CONTINUOUS
 10
-70.849958582
 20
-31.452984341
 11
-74.7765856154
 21
-31.452984341
  0
LINE
  5
59E
100
AcDbEntity
  8
RACCORDO
100
AcDbLine
 62
7
  6
CONTINUOUS
 10
-70.5684314268
 20
-31.2768017436
 11
-74.3719219081
 21
-31.2104115703
  0
LINE
  5
59F
100
AcDbEntity
  8
RACCORDO
100
AcDbLine
 62
7
  6
CONTINUOUS
 10
-70.5684314268
 20
-30.3291669384
 11
-74.3719219081
 21
-30.3955571117
  0
LINE
  5
5A0
100
AcDbEntity
  8
0
100
AcDbLine
 62
7
  6
CONTINUOUS
 10
-70.849958582
 20
-30.152984341
 11
-74.7765856154
 21
-30.152984341
  0
LINE
  5
5A1
100
AcDbEntity
  8
0
100
AcDbLine
 62
7
  6
CONTINUOUS
 10
-78.0684314268
 20
52.297015659
 11
-78.0684314268
 21
-61.902984341
  0
LINE
  5
5A2
100
AcDbEntity
  8
RACCORDO
100
AcDbLine
 62
7
  6
CONTINUOUS
 10
-70.5684314268
 20
-24.3291669384
 11
-74.3719219081
 21
-24.3955571117
  0
LINE
  5
5A3
100
AcDbEntity
  8
0
100
AcDbLine
 62
7
  6
CONTINUOUS
 10
-70.849958582
 20
-25.452984341
 11
-74.7765856154
 21
-25.452984341
  0
LINE
  5
5A4
100
AcDbEntity
  8
0
100
AcDbLine
 62
7
  6
CONTINUOUS
 10
-70.849958582
 20
-24.152984341
 11
-74.7765856154
 21
-24.152984341
  0
LINE
  5
5A5
100
AcDbEntity
  8
RACCORDO
100
AcDbLine
 62
7
  6
CONTINUOUS
 10
-70.5684314268
 20
-25.2768017436
 11
-74.3719219081
 21
-25.2104115703
  0
LWPOLYLINE
  5
5A6
100
AcDbEntity
  8
RACCORDO
100
AcDbPolyline
 62
253
  6
CONTINUOUS
 90
6
 70
0
 10
-70.2736671487
 20
-62.0319468732
 10
-70.2740416297
 20
-62.0305425352
 10
-70.274387113
 20
-62.0263509261
 10
-70.2747003838
 20
-62.0193955176
 10
-70.2749776556
 20
-62.0097152432
 10
-70.2752172327
 20
-61.9973642382
  0
LWPOLYLINE
  5
5A7
100
AcDbEntity
  8
RACCORDO
100
AcDbPolyline
 62
7
  6
CONTINUOUS
 90
19
 70
0
 10
-70.5597592905
 20
-49.8070900405
 10
-70.5542958014
 20
-49.8312602102
 10
-70.5474922447
 20
-49.8558756409
 10
-70.5393533261
 20
-49.880854659
 10
-70.52988473
 20
-49.9061427562
 10
-70.5191103696
 20
-49.9316231926
 10
-70.5070800092
 20
-49.9571211782
 10
-70.4938687433
 20
-49.9824978552
 10
-70.4794957079
 20
-50.007725326
 10
-70.4639262032
 20
-50.0327850083
 10
-70.4472262278
 20
-50.0575513641
 10
-70.4294339757
 20
-50.0819518471
 10
-70.4104460098
 20
-50.1060041226
 10
-70.3903160054
 20
-50.1295888661
 10
-70.3691187291
 20
-50.1525570649
 10
-70.3467665157
 20
-50.1748180298
 10
-70.3232947009
 20
-50.1962111566
 10
-70.2988801023
 20
-50.2165435903
 10
-70.2736671487
 20
-50.2356425723
  0
LWPOLYLINE
  5
5A8
100
AcDbEntity
  8
RACCORDO
100
AcDbPolyline
 62
253
  6
CONTINUOUS
 90
7
 70
0
 10
-75.4335250989
 20
-61.902984341
 10
-75.4333516273
 20
-61.9137831833
 10
-75.4331045625
 20
-61.923800642
 10
-75.4328064494
 20
-61.9316739976
 10
-75.4324595546
 20
-61.9373433269
 10
-75.4320665168
 20
-61.940765448
 10
-75.4316303256
 20
-61.9419142911
  0
LINE
  5
5A9
100
AcDbEntity
  8
0
100
AcDbLine
 62
253
  6
CONTINUOUS
 10
-76.8479689258
 20
-61.902984341
 11
-76.8479689258
 21
52.297015659
  0
LINE
  5
5AA
100
AcDbEntity
  8
0
100
AcDbLine
 62
253
  6
CONTINUOUS
 10
-76.3573813233
 20
-61.902984341
 11
-76.3573813233
 21
52.297015659
  0
LINE
  5
5AB
100
AcDbEntity
  8
0
100
AcDbLine
 62
7
  6
CONTINUOUS
 10
-74.7765856154
 20
-31.452984341
 11
-74.7765856154
 21
-30.152984341
  0
LINE
  5
5AC
100
AcDbEntity
  8
0
100
AcDbLine
 62
7
  6
CONTINUOUS
 10
-74.7765856154
 20
-25.452984341
 11
-74.7765856154
 21
-24.152984341
  0
LINE
  5
5AD
100
AcDbEntity
  8
0
100
AcDbLine
 62
7
  6
CONTINUOUS
 10
-74.7765856154
 20
14.547015659
 11
-74.7765856154
 21
15.847015659
  0
LINE
  5
5AE
100
AcDbEntity
  8
0
100
AcDbLine
 62
7
  6
CONTINUOUS
 10
-74.7765856154
 20
20.547015659
 11
-74.7765856154
 21
21.847015659
  0
LINE
  5
5AF
100
AcDbEntity
  8
0
100
AcDbLine
 62
7
  6
CONTINUOUS
 10
-74.6162669593
 20
-58.227984341
 11
-74.6162669593
 21
-52.277984341
  0
LINE
  5
5B0
100
AcDbEntity
  8
0
100
AcDbLine
 62
7
  6
CONTINUOUS
 10
-74.6162669593
 20
-7.772984341
 11
-74.6162669593
 21
-1.832984341
  0
LINE
  5
5B1
100
AcDbEntity
  8
0
100
AcDbLine
 62
7
  6
CONTINUOUS
 10
-74.6162669593
 20
42.672015659
 11
-74.6162669593
 21
48.622015659
  0
LINE
  5
5B2
100
AcDbEntity
  8
RACCORDO
100
AcDbLine
 62
7
  6
CONTINUOUS
 10
-74.5684314268
 20
-31.0104420313
 11
-74.5684314268
 21
-30.5955266507
  0
LINE
  5
5B3
100
AcDbEntity
  8
RACCORDO
100
AcDbLine
 62
7
  6
CONTINUOUS
 10
-74.5684314268
 20
-25.0104420313
 11
-74.5684314268
 21
-24.5955266507
  0
LINE
  5
5B4
100
AcDbEntity
  8
RACCORDO
100
AcDbLine
 62
7
  6
CONTINUOUS
 10
-74.5684314268
 20
14.9895579687
 11
-74.5684314268
 21
15.4044733493
  0
LINE
  5
5B5
100
AcDbEntity
  8
RACCORDO
100
AcDbLine
 62
7
  6
CONTINUOUS
 10
-74.5684314268
 20
20.9895579687
 11
-74.5684314268
 21
21.4044733493
  0
LINE
  5
5B6
100
AcDbEntity
  8
DRAFT
100
AcDbLine
 62
7
  6
CONTINUOUS
 10
-74.0749891109
 20
-2.1403741305
 11
-74.0749891109
 21
-7.4655945516
  0
LINE
  5
5B7
100
AcDbEntity
  8
DRAFT
100
AcDbLine
 62
7
  6
CONTINUOUS
 10
-74.0749891109
 20
-52.5903741305
 11
-74.0749891109
 21
-57.9155945516
  0
LINE
  5
5B8
100
AcDbEntity
  8
DRAFT
100
AcDbLine
 62
7
  6
CONTINUOUS
 10
-74.0749891109
 20
42.9844054484
 11
-74.0749891109
 21
48.3096258695
  0
LWPOLYLINE
  5
5B9
100
AcDbEntity
  8
RACCORDO
100
AcDbPolyline
 62
253
  6
CONTINUOUS
 90
7
 70
0
 10
-75.4335250989
 20
52.297015659
 10
-75.4333516273
 20
52.3078145012
 10
-75.4331045625
 20
52.31783196
 10
-75.4328064494
 20
52.3257053155
 10
-75.4324595546
 20
52.3313746449
 10
-75.4320665168
 20
52.334796766
 10
-75.4316303256
 20
52.3359456091
  0
LWPOLYLINE
  5
5BA
100
AcDbEntity
  8
RACCORDO
100
AcDbPolyline
 62
7
  6
CONTINUOUS
 90
7
 70
0
 10
-70.5597592905
 20
-49.8070900405
 10
-70.5623700286
 20
-49.792975951
 10
-70.5645146139
 20
-49.7786292394
 10
-70.5661930463
 20
-49.7640499056
 10
-70.567405326
 20
-49.7492379497
 10
-70.5681514528
 20
-49.7341933716
 10
-70.5684314268
 20
-49.7189161714
  0
LWPOLYLINE
  5
5BB
100
AcDbEntity
  8
RACCORDO
100
AcDbPolyline
 62
253
  6
CONTINUOUS
 90
8
 70
0
 10
-70.717868716
 20
-61.96995106
 10
-70.7177289811
 20
-61.9840124939
 10
-70.7175348428
 20
-61.9960979327
 10
-70.717287778
 20
-62.0061154349
 10
-70.7169896665
 20
-62.013988791
 10
-70.7166427761
 20
-62.019658104
 10
-70.7162497458
 20
-62.0230802445
 10
-70.7158135658
 20
-62.0242291788
  0
LINE
  5
5BC
100
AcDbEntity
  8
RACCORDO
100
AcDbLine
 62
253
  6
CONTINUOUS
 10
-70.2752172327
 20
-61.9973642382
 11
-70.2755830731
 21
-61.9649407723
  0
LINE
  5
5BD
100
AcDbEntity
  8
RACCORDO
100
AcDbLine
 62
253
  6
CONTINUOUS
 10
-71.3736670885
 20
-50.2253778163
 11
-71.3741527275
 21
-50.1635408488
  0
LINE
  5
5BE
100
AcDbEntity
  8
RACCORDO
100
AcDbLine
 62
253
  6
CONTINUOUS
 10
-71.3736670885
 20
29.7746221837
 11
-71.3741527275
 21
29.8364591512
  0
LINE
  5
5BF
100
AcDbEntity
  8
RACCORDO
100
AcDbLine
 62
253
  6
CONTINUOUS
 10
-70.2736671487
 20
51.9260543436
 11
-70.275419586
 21
52.1429453306
  0
LINE
  5
5C0
100
AcDbEntity
  8
RACCORDO
100
AcDbLine
 62
253
  6
CONTINUOUS
 10
-71.3736672008
 20
-41.7394287275
 11
-71.3741564449
 21
-41.6537401187
  0
LINE
  5
5C1
100
AcDbEntity
  8
RACCORDO
100
AcDbLine
 62
253
  6
CONTINUOUS
 10
-71.3736672008
 20
38.2605712736
 11
-71.3741564448
 21
38.3462598559
  0
LINE
  5
5C2
100
AcDbEntity
  8
RACCORDO
100
AcDbLine
 62
253
  6
CONTINUOUS
 10
-70.2755830731
 20
-61.9649407723
 11
-70.2757883309
 21
-61.9228492887
  0
LINE
  5
5C3
100
AcDbEntity
  8
RACCORDO
100
AcDbLine
 62
253
  6
CONTINUOUS
 10
-71.3736670533
 20
-39.8068279758
 11
-71.3744007132
 21
-39.6082986695
  0
LINE
  5
5C4
100
AcDbEntity
  8
RACCORDO
100
AcDbLine
 62
253
  6
CONTINUOUS
 10
-71.3736670533
 20
40.1931720242
 11
-71.3744007132
 21
40.3917013305
  0
LINE
  5
5C5
100
AcDbEntity
  8
RACCORDO
100
AcDbLine
 62
253
  6
CONTINUOUS
 10
-70.7179811454
 20
-61.9363423234
 11
-70.717868716
 21
-61.96995106
  0
LINE
  5
5C6
100
AcDbEntity
  8
RACCORDO
100
AcDbLine
 62
253
  6
CONTINUOUS
 10
-70.275419586
 20
52.1429453306
 11
-70.2758299578
 21
52.2660610637
  0
LINE
  5
5C7
100
AcDbEntity
  8
RACCORDO
100
AcDbLine
 62
253
  6
CONTINUOUS
 10
-71.3741527275
 20
-50.1635408488
 11
-71.3744282385
 21
-50.058096696
  0
LINE
  5
5C8
100
AcDbEntity
  8
RACCORDO
100
AcDbLine
 62
253
  6
CONTINUOUS
 10
-71.3741527275
 20
29.8364591512
 11
-71.3744282385
 21
29.941903304
  0
LINE
  5
5C9
100
AcDbEntity
  8
RACCORDO
100
AcDbLine
 62
253
  6
CONTINUOUS
 10
-71.3736672167
 20
-48.2685425411
 11
-71.3742922414
 21
-48.0574528234
  0
LINE
  5
5CA
100
AcDbEntity
  8
RACCORDO
100
AcDbLine
 62
253
  6
CONTINUOUS
 10
-71.3736672166
 20
31.7314574589
 11
-71.3742922414
 21
31.9425472216
  0
LINE
  5
5CB
100
AcDbEntity
  8
DRAFT
100
AcDbLine
 62
7
  6
CONTINUOUS
 10
-72.7190464048
 20
-2.1167060625
 11
-72.7190464048
 21
-7.4892626195
  0
LINE
  5
5CC
100
AcDbEntity
  8
DRAFT
100
AcDbLine
 62
7
  6
CONTINUOUS
 10
-72.7190464048
 20
-52.5667060625
 11
-72.7190464048
 21
-57.9392626195
  0
LINE
  5
5CD
100
AcDbEntity
  8
DRAFT
100
AcDbLine
 62
7
  6
CONTINUOUS
 10
-72.7190464048
 20
42.9607373805
 11
-72.7190464048
 21
48.3332939375
  0
LINE
  5
5CE
100
AcDbEntity
  8
DRAFT
100
AcDbLine
 62
7
  6
CONTINUOUS
 10
-72.3684314268
 20
-2.1105860553
 11
-72.3684314268
 21
-7.4953826267
  0
LINE
  5
5CF
100
AcDbEntity
  8
DRAFT
100
AcDbLine
 62
7
  6
CONTINUOUS
 10
-72.3684314268
 20
-52.5605860553
 11
-72.3684314268
 21
-57.9453826267
  0
LINE
  5
5D0
100
AcDbEntity
  8
DRAFT
100
AcDbLine
 62
7
  6
CONTINUOUS
 10
-72.3684314268
 20
42.9546173733
 11
-72.3684314268
 21
48.3394139447
  0
LINE
  5
5D1
100
AcDbEntity
  8
0
100
AcDbLine
 62
7
  6
CONTINUOUS
 10
-72.2662669593
 20
48.622015659
 11
-72.2662669593
 21
42.672015659
  0
LINE
  5
5D2
100
AcDbEntity
  8
0
100
AcDbLine
 62
7
  6
CONTINUOUS
 10
-72.2662669593
 20
-1.832984341
 11
-72.2662669593
 21
-7.772984341
  0
LINE
  5
5D3
100
AcDbEntity
  8
0
100
AcDbLine
 62
7
  6
CONTINUOUS
 10
-72.2662669593
 20
-52.277984341
 11
-72.2662669593
 21
-58.227984341
  0
LINE
  5
5D4
100
AcDbEntity
  8
RACCORDO
100
AcDbLine
 62
7
  6
CONTINUOUS
 10
-71.6684314268
 20
-38.7432213912
 11
-71.6684314268
 21
-50.862912934
  0
LINE
  5
5D5
100
AcDbEntity
  8
RACCORDO
100
AcDbLine
 62
7
  6
CONTINUOUS
 10
-71.6684314268
 20
29.137087066
 11
-71.6684314268
 21
41.2567786088
  0
LINE
  5
5D6
100
AcDbEntity
  8
RACCORDO
100
AcDbLine
 62
253
  6
CONTINUOUS
 10
-71.3736671487
 20
38.2605688721
 11
-71.3736671487
 21
32.1334624459
  0
LINE
  5
5D7
100
AcDbEntity
  8
RACCORDO
100
AcDbLine
 62
253
  6
CONTINUOUS
 10
-71.3736671487
 20
-51.1627463018
 11
-71.3736671487
 21
-50.2253807502
  0
LINE
  5
5D8
100
AcDbEntity
  8
RACCORDO
100
AcDbLine
 62
253
  6
CONTINUOUS
 10
-71.3736671487
 20
-49.7991407056
 11
-71.3736671487
 21
-48.2685425416
  0
LINE
  5
5D9
100
AcDbEntity
  8
RACCORDO
100
AcDbLine
 62
253
  6
CONTINUOUS
 10
-71.3736671487
 20
-41.3374261404
 11
-71.3736671487
 21
-39.8068279724
  0
LINE
  5
5DA
100
AcDbEntity
  8
RACCORDO
100
AcDbLine
 62
253
  6
CONTINUOUS
 10
-71.3736671487
 20
-39.3805879167
 11
-71.3736671487
 21
-38.4432223802
  0
LINE
  5
5DB
100
AcDbEntity
  8
RACCORDO
100
AcDbLine
 62
253
  6
CONTINUOUS
 10
-71.3736671487
 20
-41.7394311279
 11
-71.3736671487
 21
-47.8665375541
  0
LINE
  5
5DC
100
AcDbEntity
  8
RACCORDO
100
AcDbLine
 62
253
  6
CONTINUOUS
 10
-71.3736671487
 20
28.8372536982
 11
-71.3736671487
 21
29.7746192498
  0
LINE
  5
5DD
100
AcDbEntity
  8
RACCORDO
100
AcDbLine
 62
253
  6
CONTINUOUS
 10
-71.3736671487
 20
30.2008592944
 11
-71.3736671487
 21
31.7314574584
  0
LINE
  5
5DE
100
AcDbEntity
  8
RACCORDO
100
AcDbLine
 62
253
  6
CONTINUOUS
 10
-71.3736671487
 20
38.6625738596
 11
-71.3736671487
 21
40.1931720276
  0
LINE
  5
5DF
100
AcDbEntity
  8
RACCORDO
100
AcDbLine
 62
253
  6
CONTINUOUS
 10
-71.3736671487
 20
40.6194120833
 11
-71.3736671487
 21
41.5567776198
  0
LINE
  5
5E0
100
AcDbEntity
  8
0
100
AcDbLine
 62
7
  6
CONTINUOUS
 10
-70.8581127706
 20
-61.902984341
 11
-70.8581127706
 21
-51.171745337
  0
LINE
  5
5E1
100
AcDbEntity
  8
0
100
AcDbLine
 62
7
  6
CONTINUOUS
 10
-70.8581127706
 20
-38.4342233451
 11
-70.8581127706
 21
-31.452984341
  0
LINE
  5
5E2
100
AcDbEntity
  8
0
100
AcDbLine
 62
7
  6
CONTINUOUS
 10
-70.8581127706
 20
-30.152984341
 11
-70.8581127706
 21
-25.452984341
  0
LINE
  5
5E3
100
AcDbEntity
  8
0
100
AcDbLine
 62
7
  6
CONTINUOUS
 10
-70.8581127706
 20
-24.152984341
 11
-70.8581127706
 21
14.547015659
  0
LINE
  5
5E4
100
AcDbEntity
  8
0
100
AcDbLine
 62
7
  6
CONTINUOUS
 10
-70.8581127706
 20
15.847015659
 11
-70.8581127706
 21
20.547015659
  0
LINE
  5
5E5
100
AcDbEntity
  8
0
100
AcDbLine
 62
7
  6
CONTINUOUS
 10
-70.8581127706
 20
21.847015659
 11
-70.8581127706
 21
28.828254663
  0
LINE
  5
5E6
100
AcDbEntity
  8
0
100
AcDbLine
 62
7
  6
CONTINUOUS
 10
-70.8581127706
 20
41.5657766549
 11
-70.8581127706
 21
52.297015659
  0
LINE
  5
5E7
100
AcDbEntity
  8
RACCORDO
100
AcDbLine
 62
253
  6
CONTINUOUS
 10
-70.7158135658
 20
-61.7242748703
 11
-70.7158135658
 21
-51.1742291788
  0
LINE
  5
5E8
100
AcDbEntity
  8
RACCORDO
100
AcDbLine
 62
253
  6
CONTINUOUS
 10
-70.7158135658
 20
-38.4317395032
 11
-70.7158135658
 21
-31.2742291788
  0
LINE
  5
5E9
100
AcDbEntity
  8
RACCORDO
100
AcDbLine
 62
253
  6
CONTINUOUS
 10
-70.7158135658
 20
-30.3317395032
 11
-70.7158135658
 21
-25.2742291788
  0
LINE
  5
5EA
100
AcDbEntity
  8
RACCORDO
100
AcDbLine
 62
253
  6
CONTINUOUS
 10
-70.7158135658
 20
-24.3317395032
 11
-70.7158135658
 21
14.7257708212
  0
LINE
  5
5EB
100
AcDbEntity
  8
RACCORDO
100
AcDbLine
 62
253
  6
CONTINUOUS
 10
-70.7158135658
 20
15.6682604968
 11
-70.7158135658
 21
20.7257708212
  0
LINE
  5
5EC
100
AcDbEntity
  8
RACCORDO
100
AcDbLine
 62
253
  6
CONTINUOUS
 10
-70.7158135658
 20
21.6682604968
 11
-70.7158135658
 21
28.8257708212
  0
LINE
  5
5ED
100
AcDbEntity
  8
RACCORDO
100
AcDbLine
 62
7
  6
CONTINUOUS
 10
-70.5684314268
 20
-61.7319918255
 11
-70.5684314268
 21
-51.1768017436
  0
LINE
  5
5EE
100
AcDbEntity
  8
RACCORDO
100
AcDbLine
 62
7
  6
CONTINUOUS
 10
-70.5684314268
 20
-49.7189161714
 11
-70.5684314268
 21
-39.8870525107
  0
LINE
  5
5EF
100
AcDbEntity
  8
RACCORDO
100
AcDbLine
 62
7
  6
CONTINUOUS
 10
-70.5684314268
 20
-38.4291669384
 11
-70.5684314268
 21
28.8231982564
  0
LINE
  5
5F0
100
AcDbEntity
  8
RACCORDO
100
AcDbLine
 62
7
  6
CONTINUOUS
 10
-70.5684314268
 20
30.2810838286
 11
-70.5684314268
 21
40.1129474893
  0
LINE
  5
5F1
100
AcDbEntity
  8
RACCORDO
100
AcDbLine
 62
7
  6
CONTINUOUS
 10
-70.5684314268
 20
41.5708330616
 11
-70.5684314268
 21
52.1260231435
  0
LINE
  5
5F2
100
AcDbEntity
  8
RACCORDO
100
AcDbLine
 62
253
  6
CONTINUOUS
 10
-70.2736671487
 20
40.6296738903
 11
-70.2736671487
 21
29.7643574277
  0
LINE
  5
5F3
100
AcDbEntity
  8
RACCORDO
100
AcDbLine
 62
253
  6
CONTINUOUS
 10
-70.2736671487
 20
-61.5320230257
 11
-70.2736671487
 21
-51.1819121829
  0
LINE
  5
5F4
100
AcDbEntity
  8
RACCORDO
100
AcDbLine
 62
253
  6
CONTINUOUS
 10
-70.2736671487
 20
-39.3703261097
 11
-70.2736671487
 21
-50.2356425723
  0
LINE
  5
5F5
100
AcDbEntity
  8
RACCORDO
100
AcDbLine
 62
253
  6
CONTINUOUS
 10
-70.2736671487
 20
-38.4240564991
 11
-70.2736671487
 21
28.8180878171
  0
LINE
  5
5F6
100
AcDbEntity
  8
RACCORDO
100
AcDbLine
 62
253
  6
CONTINUOUS
 10
-70.2736671487
 20
41.5759435009
 11
-70.2736671487
 21
51.9260543436
  0
LINE
  5
5F7
100
AcDbEntity
  8
RACCORDO
100
AcDbLine
 62
7
  6
CONTINUOUS
 10
-69.0684314268
 20
-51.202984341
 11
-69.0684314268
 21
-62.052984341
  0
LINE
  5
5F8
100
AcDbEntity
  8
DRAFT
100
AcDbLine
 62
7
  6
CONTINUOUS
 10
-69.0684314268
 20
-51.202984341
 11
-69.0684314268
 21
41.597015659
  0
LINE
  5
5F9
100
AcDbEntity
  8
RACCORDO
100
AcDbLine
 62
7
  6
CONTINUOUS
 10
-69.0684314268
 20
41.597015659
 11
-69.0684314268
 21
52.447015659
  0
LINE
  5
5FA
100
AcDbEntity
  8
DRAFT
100
AcDbLine
 62
7
  6
CONTINUOUS
 10
-68.3684314268
 20
-1.0407657956
 11
-68.3684314268
 21
-8.5652028865
  0
LINE
  5
5FB
100
AcDbEntity
  8
RACCORDO
100
AcDbLine
 62
253
  6
CONTINUOUS
 10
-71.3741564448
 20
38.3462598559
 11
-71.3742243202
 21
38.5093144159
  0
LINE
  5
5FC
100
AcDbEntity
  8
RACCORDO
100
AcDbLine
 62
253
  6
CONTINUOUS
 10
-71.3741564449
 20
-41.6537401187
 11
-71.3742243201
 21
-41.4906855464
  0
LINE
  5
5FD
100
AcDbEntity
  8
RACCORDO
100
AcDbLine
 62
253
  6
CONTINUOUS
 10
-70.2757883309
 20
-61.9228492887
 11
-70.2757883476
 21
-61.8436945381
  0
LINE
  5
5FE
100
AcDbEntity
  8
RACCORDO
100
AcDbLine
 62
253
  6
CONTINUOUS
 10
-71.3744007132
 20
40.3917013305
 11
-71.3742621655
 21
40.533456354
  0
LINE
  5
5FF
100
AcDbEntity
  8
RACCORDO
100
AcDbLine
 62
253
  6
CONTINUOUS
 10
-71.3744007132
 20
-39.6082986695
 11
-71.3742621655
 21
-39.466543646
  0
LINE
  5
600
100
AcDbEntity
  8
RACCORDO
100
AcDbLine
 62
253
  6
CONTINUOUS
 10
-70.2758299578
 20
52.2660610637
 11
-70.2757059339
 21
52.3390809468
  0
LINE
  5
601
100
AcDbEntity
  8
RACCORDO
100
AcDbLine
 62
253
  6
CONTINUOUS
 10
-71.3742922414
 20
31.9425472216
 11
-71.3740666365
 21
32.0712120255
  0
LINE
  5
602
100
AcDbEntity
  8
RACCORDO
100
AcDbLine
 62
253
  6
CONTINUOUS
 10
-71.3742922414
 20
-48.0574528234
 11
-71.3740666366
 21
-47.9287879994
  0
LINE
  5
603
100
AcDbEntity
  8
RACCORDO
100
AcDbLine
 62
253
  6
CONTINUOUS
 10
-71.3744282385
 20
29.941903304
 11
-71.374017298
 21
30.1329968927
  0
LINE
  5
604
100
AcDbEntity
  8
RACCORDO
100
AcDbLine
 62
253
  6
CONTINUOUS
 10
-71.3744282385
 20
-50.058096696
 11
-71.374017298
 21
-49.8670031073
  0
LINE
  5
605
100
AcDbEntity
  8
RACCORDO
100
AcDbLine
 62
253
  6
CONTINUOUS
 10
-70.7178687163
 20
-61.8962925156
 11
-70.7179811454
 21
-61.9363423234
  0
LINE
  5
606
100
AcDbEntity
  8
RACCORDO
100
AcDbLine
 62
253
  6
CONTINUOUS
 10
-71.3742243202
 20
38.5093144159
 11
-71.3736672204
 21
38.6625738591
  0
LINE
  5
607
100
AcDbEntity
  8
RACCORDO
100
AcDbLine
 62
253
  6
CONTINUOUS
 10
-71.3742243201
 20
-41.4906855464
 11
-71.3736672204
 21
-41.3374261409
  0
LINE
  5
608
100
AcDbEntity
  8
RACCORDO
100
AcDbLine
 62
253
  6
CONTINUOUS
 10
-71.374017298
 20
30.1329968927
 11
-71.3736670536
 21
30.2008592938
  0
LINE
  5
609
100
AcDbEntity
  8
RACCORDO
100
AcDbLine
 62
253
  6
CONTINUOUS
 10
-71.374017298
 20
-49.8670031073
 11
-71.3736670536
 21
-49.7991407062
  0
LINE
  5
60A
100
AcDbEntity
  8
RACCORDO
100
AcDbLine
 62
253
  6
CONTINUOUS
 10
-70.2757883476
 20
-61.8436945381
 11
-70.2749777075
 21
-61.6793666516
  0
LWPOLYLINE
  5
60B
100
AcDbEntity
  8
RACCORDO
100
AcDbPolyline
 62
253
  6
CONTINUOUS
 90
3
 70
0
 10
-71.3742621655
 20
40.533456354
 10
-71.3738553788
 20
40.6006489275
 10
-71.3736670892
 20
40.619409173
  0
LWPOLYLINE
  5
60C
100
AcDbEntity
  8
RACCORDO
100
AcDbPolyline
 62
253
  6
CONTINUOUS
 90
3
 70
0
 10
-71.3742621655
 20
-39.466543646
 10
-71.3738553788
 20
-39.3993510725
 10
-71.3736670892
 20
-39.380590827
  0
LINE
  5
60D
100
AcDbEntity
  8
RACCORDO
100
AcDbLine
 62
253
  6
CONTINUOUS
 10
-71.3740666365
 20
32.0712120255
 11
-71.3736672044
 21
32.1334598783
  0
LINE
  5
60E
100
AcDbEntity
  8
RACCORDO
100
AcDbLine
 62
253
  6
CONTINUOUS
 10
-71.3740666366
 20
-47.9287879994
 11
-71.3736672044
 21
-47.8665401205
  0
LWPOLYLINE
  5
60F
100
AcDbEntity
  8
RACCORDO
100
AcDbPolyline
 62
253
  6
CONTINUOUS
 90
8
 70
0
 10
-70.2757059339
 20
52.3390809468
 10
-70.2754195246
 20
52.3764428587
 10
-70.2752172327
 20
52.3913955562
 10
-70.2749776556
 20
52.4037465612
 10
-70.2747003838
 20
52.4134268356
 10
-70.274387113
 20
52.4203822441
 10
-70.2740416297
 20
52.4245738532
 10
-70.2736671487
 20
52.4259781912
  0
LINE
  5
610
100
AcDbEntity
  8
RACCORDO
100
AcDbLine
 62
253
  6
CONTINUOUS
 10
-70.2749777075
 20
-61.6793666516
 11
-70.2736671487
 21
-61.5320230257
  0
LINE
  5
611
100
AcDbEntity
  8
RACCORDO
100
AcDbLine
 62
253
  6
CONTINUOUS
 10
-70.7172877786
 20
-61.8268462248
 11
-70.7178687163
 21
-61.8962925156
  0
LWPOLYLINE
  5
612
100
AcDbEntity
  8
RACCORDO
100
AcDbPolyline
 62
253
  6
CONTINUOUS
 90
3
 70
0
 10
-70.7158135658
 20
-61.7242748703
 10
-70.7162497461
 20
-61.750412559
 10
-70.7172877786
 20
-61.8268462248
  0
LWPOLYLINE
  5
613
100
AcDbEntity
  8
RACCORDO
100
AcDbPolyline
 62
7
  6
CONTINUOUS
 90
7
 70
0
 10
-70.5684314268
 20
40.1129474893
 10
-70.5681514528
 20
40.1282246896
 10
-70.567405326
 20
40.1432692676
 10
-70.5661930463
 20
40.1580812236
 10
-70.5645146139
 20
40.1726605573
 10
-70.5623700286
 20
40.187007269
 10
-70.5597592905
 20
40.2011213585
  0
LWPOLYLINE
  5
614
100
AcDbEntity
  8
RACCORDO
100
AcDbPolyline
 62
7
  6
CONTINUOUS
 90
7
 70
0
 10
-70.5684314268
 20
-39.8870525107
 10
-70.5681514528
 20
-39.8717753104
 10
-70.567405326
 20
-39.8567307324
 10
-70.5661930463
 20
-39.8419187764
 10
-70.5645146139
 20
-39.8273394427
 10
-70.5623700286
 20
-39.812992731
 10
-70.5597592905
 20
-39.7988786415
  0
LINE
  5
615
100
AcDbEntity
  8
RACCORDO
100
AcDbLine
 62
7
  6
CONTINUOUS
 10
-67.3684314268
 20
52.4173420486
 11
-67.3684314268
 21
41.5672729369
  0
LINE
  5
616
100
AcDbEntity
  8
RACCORDO
100
AcDbLine
 62
7
  6
CONTINUOUS
 10
-67.3684314268
 20
-51.173241619
 11
-67.3684314268
 21
-62.0233107306
  0
LINE
  5
617
100
AcDbEntity
  8
DRAFT
100
AcDbLine
 62
7
  6
CONTINUOUS
 10
-67.3684314268
 20
-51.1732983554
 11
-67.3684314268
 21
41.5673296734
  0
LINE
  5
618
100
AcDbEntity
  8
0
100
AcDbLine
 62
7
  6
CONTINUOUS
 10
-66.8684314268
 20
-43.3043868922
 11
-66.8684314268
 21
-46.3015817899
  0
LINE
  5
619
100
AcDbEntity
  8
0
100
AcDbLine
 62
7
  6
CONTINUOUS
 10
-66.8684314268
 20
33.6984182101
 11
-66.8684314268
 21
36.6956131078
  0
LINE
  5
61A
100
AcDbEntity
  8
DRAFT
100
AcDbLine
 62
7
  6
CONTINUOUS
 10
-66.1684314268
 20
52.3963959707
 11
-66.1684314268
 21
36.697015659
  0
LINE
  5
61B
100
AcDbEntity
  8
DRAFT
100
AcDbLine
 62
7
  6
CONTINUOUS
 10
-66.1684314268
 20
33.697015659
 11
-66.1684314268
 21
-43.302984341
  0
LINE
  5
61C
100
AcDbEntity
  8
DRAFT
100
AcDbLine
 62
7
  6
CONTINUOUS
 10
-66.1684314268
 20
-46.302984341
 11
-66.1684314268
 21
-62.0023646527
  0
LINE
  5
61D
100
AcDbEntity
  8
ASSI
100
AcDbLine
 62
7
  6
CONTINUOUS
 10
-65.4884314268
 20
-61.002984341
 11
-65.4884314268
 21
-46.302984341
  0
LINE
  5
61E
100
AcDbEntity
  8
ASSI
100
AcDbLine
 62
7
  6
CONTINUOUS
 10
-65.4884314268
 20
-43.302984341
 11
-65.4884314268
 21
33.697015659
  0
LINE
  5
61F
100
AcDbEntity
  8
ASSI
100
AcDbLine
 62
7
  6
CONTINUOUS
 10
-65.4884314268
 20
36.697015659
 11
-65.4884314268
 21
51.397015659
  0
LINE
  5
620
100
AcDbEntity
  8
0
100
AcDbLine
 62
7
  6
CONTINUOUS
 10
-64.3684314268
 20
-43.3043868922
 11
-64.3684314268
 21
-46.3015817899
  0
LINE
  5
621
100
AcDbEntity
  8
0
100
AcDbLine
 62
7
  6
CONTINUOUS
 10
-64.3684314268
 20
33.6984182101
 11
-64.3684314268
 21
36.6956131078
  0
LINE
  5
622
100
AcDbEntity
  8
0
100
AcDbLine
 62
7
  6
CONTINUOUS
 10
-72.2662669593
 20
-7.772984341
 11
-74.6162669593
 21
-7.772984341
  0
LINE
  5
623
100
AcDbEntity
  8
DRAFT
100
AcDbLine
 62
7
  6
CONTINUOUS
 10
-67.3684314268
 20
-8.5826579514
 11
-68.3684314268
 21
-8.5652028865
  0
LINE
  5
624
100
AcDbEntity
  8
DRAFT
100
AcDbLine
 62
7
  6
CONTINUOUS
 10
-72.3684314268
 20
-7.4953826267
 11
-74.0749891109
 21
-7.4655945516
  0
LWPOLYLINE
  5
625
100
AcDbEntity
  8
RACCORDO
100
AcDbPolyline
 62
7
  6
CONTINUOUS
 90
19
 70
0
 10
-70.5597592905
 20
30.1929099595
 10
-70.5542958014
 20
30.1687397898
 10
-70.5474922447
 20
30.1441243591
 10
-70.5393533261
 20
30.119145341
 10
-70.52988473
 20
30.0938572438
 10
-70.5191103696
 20
30.0683768074
 10
-70.5070800092
 20
30.0428788218
 10
-70.4938687433
 20
30.0175021448
 10
-70.4794957079
 20
29.992274674
 10
-70.4639262032
 20
29.9672149917
 10
-70.4472262278
 20
29.9424486359
 10
-70.4294339757
 20
29.9180481529
 10
-70.4104460098
 20
29.8939958774
 10
-70.3903160054
 20
29.8704111339
 10
-70.3691187291
 20
29.8474429351
 10
-70.3467665157
 20
29.8251819702
 10
-70.3232947009
 20
29.8037888434
 10
-70.2988801023
 20
29.7834564097
 10
-70.2736671487
 20
29.7643574277
  0
LWPOLYLINE
  5
626
100
AcDbEntity
  8
RACCORDO
100
AcDbPolyline
 62
7
  6
CONTINUOUS
 90
7
 70
0
 10
-70.5597592905
 20
30.1929099595
 10
-70.5623700286
 20
30.207024049
 10
-70.5645146139
 20
30.2213707606
 10
-70.5661930463
 20
30.2359500944
 10
-70.567405326
 20
30.2507620503
 10
-70.5681514528
 20
30.2658066284
 10
-70.5684314268
 20
30.2810838286
  0
LINE
  5
627
100
AcDbEntity
  8
DRAFT
100
AcDbLine
 62
7
  6
CONTINUOUS
 10
-72.3684314268
 20
-2.1105860553
 11
-74.0749891109
 21
-2.1403741305
  0
LINE
  5
628
100
AcDbEntity
  8
DRAFT
100
AcDbLine
 62
7
  6
CONTINUOUS
 10
-67.3684314268
 20
-1.0233107306
 11
-68.3684314268
 21
-1.0407657956
  0
LINE
  5
629
100
AcDbEntity
  8
0
100
AcDbLine
 62
7
  6
CONTINUOUS
 10
-74.6162669593
 20
-1.832984341
 11
-72.2662669593
 21
-1.832984341
  0
LWPOLYLINE
  5
62A
100
AcDbEntity
  8
RACCORDO
100
AcDbPolyline
 62
7
  6
CONTINUOUS
 90
19
 70
0
 10
-70.2736671487
 20
-39.3703261097
 10
-70.2988801023
 20
-39.3894250917
 10
-70.3232947009
 20
-39.4097575255
 10
-70.3467665157
 20
-39.4311506522
 10
-70.3691187291
 20
-39.4534116171
 10
-70.3903160054
 20
-39.4763798159
 10
-70.4104460098
 20
-39.4999645595
 10
-70.4294339757
 20
-39.524016835
 10
-70.4472262278
 20
-39.5484173179
 10
-70.4639262032
 20
-39.5731836738
 10
-70.4794957079
 20
-39.598243356
 10
-70.4938687433
 20
-39.6234708268
 10
-70.5070800092
 20
-39.6488475038
 10
-70.5191103696
 20
-39.6743454894
 10
-70.52988473
 20
-39.6998259258
 10
-70.5393533261
 20
-39.725114023
 10
-70.5474922447
 20
-39.7500930412
 10
-70.5542958014
 20
-39.7747084718
 10
-70.5597592905
 20
-39.7988786415
  0
LINE
  5
62B
100
AcDbEntity
  8
RACCORDO
100
AcDbLine
 62
7
  6
CONTINUOUS
 10
-70.5684314268
 20
15.6708330616
 11
-74.3719219081
 21
15.6044428883
  0
LINE
  5
62C
100
AcDbEntity
  8
0
100
AcDbLine
 62
7
  6
CONTINUOUS
 10
-70.849958582
 20
14.547015659
 11
-74.7765856154
 21
14.547015659
  0
LINE
  5
62D
100
AcDbEntity
  8
0
100
AcDbLine
 62
7
  6
CONTINUOUS
 10
-70.849958582
 20
15.847015659
 11
-74.7765856154
 21
15.847015659
  0
LINE
  5
62E
100
AcDbEntity
  8
RACCORDO
100
AcDbLine
 62
7
  6
CONTINUOUS
 10
-70.5684314268
 20
14.7231982564
 11
-74.3719219081
 21
14.7895884297
  0
LINE
  5
62F
100
AcDbEntity
  8
0
100
AcDbLine
 62
7
  6
CONTINUOUS
 10
-70.849958582
 20
20.547015659
 11
-74.7765856154
 21
20.547015659
  0
LINE
  5
630
100
AcDbEntity
  8
RACCORDO
100
AcDbLine
 62
7
  6
CONTINUOUS
 10
-70.5684314268
 20
20.7231982564
 11
-74.3719219081
 21
20.7895884297
  0
LINE
  5
631
100
AcDbEntity
  8
RACCORDO
100
AcDbLine
 62
7
  6
CONTINUOUS
 10
-70.5684314268
 20
21.6708330616
 11
-74.3719219081
 21
21.6044428883
  0
LINE
  5
632
100
AcDbEntity
  8
0
100
AcDbLine
 62
7
  6
CONTINUOUS
 10
-70.849958582
 20
21.847015659
 11
-74.7765856154
 21
21.847015659
  0
LINE
  5
633
100
AcDbEntity
  8
DRAFT
100
AcDbLine
 62
7
  6
CONTINUOUS
 10
-67.3684314268
 20
28.8266892694
 11
-69.0684314268
 21
28.797015659
  0
LINE
  5
634
100
AcDbEntity
  8
RACCORDO
100
AcDbLine
 62
253
  6
CONTINUOUS
 10
-71.3736671487
 20
30.2008592938
 11
-71.6684314268
 21
30.2008592946
  0
LINE
  5
635
100
AcDbEntity
  8
RACCORDO
100
AcDbLine
 62
253
  6
CONTINUOUS
 10
-71.3736671487
 20
29.7746192498
 11
-70.2736671487
 21
29.7643574277
  0
LINE
  5
636
100
AcDbEntity
  8
RACCORDO
100
AcDbLine
 62
253
  6
CONTINUOUS
 10
-71.3736671487
 20
30.2008592944
 11
-70.5597592905
 21
30.1929099595
  0
LINE
  5
637
100
AcDbEntity
  8
DRAFT
100
AcDbLine
 62
7
  6
CONTINUOUS
 10
-69.0684314268
 20
28.797015659
 11
-71.3736671487
 21
28.8372536982
  0
LWPOLYLINE
  5
638
100
AcDbEntity
  8
RACCORDO
100
AcDbPolyline
 62
253
  6
CONTINUOUS
 90
19
 70
0
 10
-71.3736671487
 20
29.7746192411
 10
-71.3995007141
 20
29.775955689
 10
-71.4251030446
 20
29.7791855799
 10
-71.4502835933
 20
29.784284875
 10
-71.4748549526
 20
29.7912156226
 10
-71.4986342489
 20
29.7999262403
 10
-71.5214445032
 20
29.8103518987
 10
-71.5431159514
 20
29.8224150057
 10
-71.5634872999
 20
29.83602578
 10
-71.5824069279
 20
29.8510829175
 10
-71.5997340293
 20
29.8674743562
 10
-71.6153396445
 20
29.8850780984
 10
-71.6291076194
 20
29.9037631107
 10
-71.6409354833
 20
29.9233903105
 10
-71.6507352255
 20
29.9438136335
 10
-71.6584339286
 20
29.9648811091
 10
-71.6639742948
 20
29.9864359545
 10
-71.6673150829
 20
30.0083177377
 10
-71.6684314268
 20
30.0303636037
  0
LINE
  5
639
100
AcDbEntity
  8
RACCORDO
100
AcDbLine
 62
253
  6
CONTINUOUS
 10
-71.3736671487
 20
31.7314574589
 11
-71.6684314268
 21
31.7314574587
  0
LINE
  5
63A
100
AcDbEntity
  8
0
100
AcDbLine
 62
7
  6
CONTINUOUS
 10
-64.3684314268
 20
33.697015659
 11
-66.8684314268
 21
33.697015659
  0
LINE
  5
63B
100
AcDbEntity
  8
0
100
AcDbLine
 62
7
  6
CONTINUOUS
 10
-64.3684314268
 20
33.997015659
 11
-66.8684314268
 21
33.997015659
  0
LINE
  5
63C
100
AcDbEntity
  8
0
100
AcDbLine
 62
7
  6
CONTINUOUS
 10
-66.8684314268
 20
33.997015659
 11
-67.3684314268
 21
33.997015659
  0
LINE
  5
63D
100
AcDbEntity
  8
RACCORDO
100
AcDbLine
 62
253
  6
CONTINUOUS
 10
-70.5684314268
 20
31.7243760824
 11
-71.3736671487
 21
31.7314574584
  0
LINE
  5
63E
100
AcDbEntity
  8
RACCORDO
100
AcDbLine
 62
253
  6
CONTINUOUS
 10
-70.5684314268
 20
32.1258930183
 11
-71.3736671487
 21
32.1334624459
  0
LWPOLYLINE
  5
63F
100
AcDbEntity
  8
RACCORDO
100
AcDbPolyline
 62
253
  6
CONTINUOUS
 90
19
 70
0
 10
-71.3736671487
 20
32.1334624456
 10
-71.3995003174
 20
32.134722874
 10
-71.4251022891
 20
32.1377690379
 10
-71.450282524
 20
32.1425782724
 10
-71.4748536134
 20
32.1491147893
 10
-71.4986326949
 20
32.1573299479
 10
-71.521442811
 20
32.1671626221
 10
-71.5431141956
 20
32.1785396437
 10
-71.5634855507
 20
32.1913763474
 10
-71.5824052643
 20
32.205577212
 10
-71.599732522
 20
32.2210365637
 10
-71.6153383444
 20
32.2376393484
 10
-71.6291065604
 20
32.2552619919
 10
-71.6409346912
 20
32.2737733435
 10
-71.6507346919
 20
32.2930356309
 10
-71.6584336059
 20
32.312905469
 10
-71.6639741284
 20
32.3332349648
 10
-71.6673150245
 20
32.3538728215
 10
-71.6684314268
 20
32.3746654382
  0
LWPOLYLINE
  5
640
100
AcDbEntity
  8
RACCORDO
100
AcDbPolyline
 62
253
  6
CONTINUOUS
 90
19
 70
0
 10
-71.3736671487
 20
38.2605688723
 10
-71.3995003404
 20
38.259308442
 10
-71.4251023327
 20
38.2562622733
 10
-71.4502825853
 20
38.2514530315
 10
-71.4748536896
 20
38.2449165055
 10
-71.4986327826
 20
38.2367013361
 10
-71.5214429054
 20
38.2268686508
 10
-71.5431142918
 20
38.2154916188
 10
-71.5634856447
 20
38.2026549058
 10
-71.5824053517
 20
38.1884540345
 10
-71.5997325988
 20
38.1729946796
 10
-71.615338408
 20
38.1563918954
 10
-71.6291066104
 20
38.1387692556
 10
-71.6409347275
 20
38.1202579112
 10
-71.6507347156
 20
38.1009956342
 10
-71.6584336193
 20
38.0811258081
 10
-71.6639741344
 20
38.060796325
 10
-71.6673150261
 20
38.0401584821
 10
-71.6684314268
 20
38.0193658798
  0
LINE
  5
641
100
AcDbEntity
  8
RACCORDO
100
AcDbLine
 62
253
  6
CONTINUOUS
 10
-71.3736671487
 20
38.2605688721
 11
-70.5684314268
 21
38.2681382997
  0
LINE
  5
642
100
AcDbEntity
  8
RACCORDO
100
AcDbLine
 62
253
  6
CONTINUOUS
 10
-71.3736671487
 20
38.6625738596
 11
-70.5684314268
 21
38.6696552356
  0
LINE
  5
643
100
AcDbEntity
  8
0
100
AcDbLine
 62
7
  6
CONTINUOUS
 10
-64.3684314268
 20
36.397015659
 11
-66.8684314268
 21
36.397015659
  0
LINE
  5
644
100
AcDbEntity
  8
0
100
AcDbLine
 62
7
  6
CONTINUOUS
 10
-66.8684314268
 20
36.397015659
 11
-67.3684314268
 21
36.397015659
  0
LINE
  5
645
100
AcDbEntity
  8
0
100
AcDbLine
 62
7
  6
CONTINUOUS
 10
-64.3684314268
 20
36.697015659
 11
-66.8684314268
 21
36.697015659
  0
LINE
  5
646
100
AcDbEntity
  8
RACCORDO
100
AcDbLine
 62
253
  6
CONTINUOUS
 10
-71.3736671487
 20
38.6625738591
 11
-71.6684314267
 21
38.6625738592
  0
LWPOLYLINE
  5
647
100
AcDbEntity
  8
RACCORDO
100
AcDbPolyline
 62
253
  6
CONTINUOUS
 90
19
 70
0
 10
-71.3736671487
 20
40.6194120769
 10
-71.3995007133
 20
40.618075629
 10
-71.425103043
 20
40.6148457383
 10
-71.4502835911
 20
40.6097464435
 10
-71.4748549498
 20
40.6028156962
 10
-71.4986342454
 20
40.5941050791
 10
-71.5214444993
 20
40.5836794213
 10
-71.543115947
 20
40.5716163149
 10
-71.5634872952
 20
40.5580055414
 10
-71.5824069231
 20
40.5429484047
 10
-71.5997340245
 20
40.5265569667
 10
-71.6153396399
 20
40.5089532252
 10
-71.6291076153
 20
40.4902682133
 10
-71.6409354801
 20
40.4706410134
 10
-71.6507352232
 20
40.45021769
 10
-71.658433927
 20
40.4291502139
 10
-71.6639742938
 20
40.4075953682
 10
-71.6673150825
 20
40.3857135847
 10
-71.6684314268
 20
40.3636677187
  0
LINE
  5
648
100
AcDbEntity
  8
DRAFT
100
AcDbLine
 62
7
  6
CONTINUOUS
 10
-69.0684314268
 20
41.597015659
 11
-71.3736671487
 21
41.5567776198
  0
LINE
  5
649
100
AcDbEntity
  8
RACCORDO
100
AcDbLine
 62
253
  6
CONTINUOUS
 10
-70.5597592905
 20
40.2011213585
 11
-71.3736671487
 21
40.1931720276
  0
LINE
  5
64A
100
AcDbEntity
  8
RACCORDO
100
AcDbLine
 62
253
  6
CONTINUOUS
 10
-70.2736671487
 20
40.6296738903
 11
-71.3736671487
 21
40.6194120833
  0
LINE
  5
64B
100
AcDbEntity
  8
RACCORDO
100
AcDbLine
 62
253
  6
CONTINUOUS
 10
-71.3736671487
 20
40.1931720242
 11
-71.6684314268
 21
40.1931720234
  0
LINE
  5
64C
100
AcDbEntity
  8
0
100
AcDbLine
 62
7
  6
CONTINUOUS
 10
-72.2662669593
 20
42.672015659
 11
-74.6162669593
 21
42.672015659
  0
LINE
  5
64D
100
AcDbEntity
  8
DRAFT
100
AcDbLine
 62
7
  6
CONTINUOUS
 10
-67.3684314268
 20
41.5673420486
 11
-69.0684314268
 21
41.597015659
  0
LINE
  5
64E
100
AcDbEntity
  8
DRAFT
100
AcDbLine
 62
7
  6
CONTINUOUS
 10
-74.0749891109
 20
42.9844054484
 11
-72.3684314268
 21
42.9546173733
  0
LWPOLYLINE
  5
64F
100
AcDbEntity
  8
RACCORDO
100
AcDbPolyline
 62
253
  6
CONTINUOUS
 90
5
 70
0
 10
-70.7005474539
 20
52.1183061871
 10
-70.6903228879
 20
52.119200263
 10
-70.6802269198
 20
52.1199941561
 10
-70.6703078818
 20
52.1206878667
 10
-70.6606117555
 20
52.121254419
  0
LWPOLYLINE
  5
650
100
AcDbEntity
  8
RACCORDO
100
AcDbPolyline
 62
253
  6
CONTINUOUS
 90
7
 70
0
 10
-70.7158135658
 20
52.1183061882
 10
-70.7132745577
 20
52.1185284983
 10
-70.710732416
 20
52.1186618843
 10
-70.7081878823
 20
52.1187063461
 10
-70.7056417054
 20
52.1186618839
 10
-70.7030946416
 20
52.1185284975
 10
-70.7005474539
 20
52.1183061871
  0
LINE
  5
651
100
AcDbEntity
  8
RACCORDO
100
AcDbLine
 62
253
  6
CONTINUOUS
 10
-70.6606117555
 20
52.121254419
 11
-70.5698593483
 21
52.1259482817
  0
LINE
  5
652
100
AcDbEntity
  8
DRAFT
100
AcDbLine
 62
7
  6
CONTINUOUS
 10
-74.0749891109
 20
48.3096258695
 11
-72.3684314268
 21
48.3394139447
  0
LINE
  5
653
100
AcDbEntity
  8
RACCORDO
100
AcDbLine
 62
253
  6
CONTINUOUS
 10
-70.2736671487
 20
51.9260543436
 11
-69.0684314268
 21
51.9470918114
  0
LINE
  5
654
100
AcDbEntity
  8
RACCORDO
100
AcDbLine
 62
7
  6
CONTINUOUS
 10
-77.2737450321
 20
52.3037913773
 11
-69.0684314268
 21
52.447015659
  0
LINE
  5
655
100
AcDbEntity
  8
0
100
AcDbLine
 62
7
  6
CONTINUOUS
 10
-74.6162669593
 20
48.622015659
 11
-72.2662669593
 21
48.622015659
  0
LINE
  5
656
100
AcDbEntity
  8
ASSI
100
AcDbLine
 62
7
  6
CONTINUOUS
 10
-65.4884314268
 20
51.397015659
 11
-66.1684314268
 21
51.397015659
  0
LINE
  5
657
100
AcDbEntity
  8
RACCORDO
100
AcDbLine
 62
253
  6
CONTINUOUS
 10
-70.2736671487
 20
51.9260543444
 11
-70.5684314268
 21
51.9260543436
  0
LINE
  5
658
100
AcDbEntity
  8
0
100
AcDbLine
 62
7
  6
CONTINUOUS
 10
-78.0684240502
 20
52.297015659
 11
-70.849958582
 21
52.297015659
  0
LINE
  5
659
100
AcDbEntity
  8
RACCORDO
100
AcDbLine
 62
253
  6
CONTINUOUS
 10
-69.0684314268
 20
51.9470918114
 11
-67.3684314268
 21
51.917418201
  0
LINE
  5
65A
100
AcDbEntity
  8
RACCORDO
100
AcDbLine
 62
7
  6
CONTINUOUS
 10
-69.0684314268
 20
52.447015659
 11
-67.3684314268
 21
52.4173420486
  0
LINE
  5
65B
100
AcDbEntity
  8
DRAFT
100
AcDbLine
 62
7
  6
CONTINUOUS
 10
-66.1684314268
 20
52.3963959707
 11
-67.3684314268
 21
52.4173420486
  0
ARC
  5
65C
100
AcDbEntity
  8
DRAFT
100
AcDbCircle
 62
7
  6
CONTINUOUS
 10
52.3184877291
 20
-44.802984341
 40
6.4
100
AcDbArc
 50
270.0
 51
90.0
  0
ARC
  5
65D
100
AcDbEntity
  8
RACCORDO
100
AcDbCircle
 62
253
  6
CONTINUOUS
 10
52.3184877291
 20
-44.802984341
 40
6.3789625322
100
AcDbArc
 50
301.6081579613
 51
58.3918420387
  0
ARC
  5
65E
100
AcDbEntity
  8
RACCORDO
100
AcDbCircle
 62
253
  6
CONTINUOUS
 10
52.3184877291
 20
-44.802984341
 40
6.3597619608
100
AcDbArc
 50
58.496688603
 51
90.5635028526
  0
ARC
  5
65F
100
AcDbEntity
  8
RACCORDO
100
AcDbCircle
 62
253
  6
CONTINUOUS
 10
52.3184877291
 20
-44.802984341
 40
6.3597619608
100
AcDbArc
 50
269.436497158
 51
301.5033116578
  0
ARC
  5
660
100
AcDbEntity
  8
RACCORDO
100
AcDbCircle
 62
253
  6
CONTINUOUS
 10
52.3184877291
 20
-44.802984341
 40
6.0790082237
100
AcDbArc
 50
306.0334859317
 51
53.9665140683
  0
ARC
  5
661
100
AcDbEntity
  8
RACCORDO
100
AcDbCircle
 62
253
  6
CONTINUOUS
 10
52.3184877291
 20
-44.802984341
 40
6.0598076523
100
AcDbArc
 50
269.4363581909
 51
301.5034779396
  0
ARC
  5
662
100
AcDbEntity
  8
RACCORDO
100
AcDbCircle
 62
253
  6
CONTINUOUS
 10
52.3184877291
 20
-44.802984341
 40
6.0598076523
100
AcDbArc
 50
58.4965214038
 51
90.5636747039
  0
ARC
  5
663
100
AcDbEntity
  8
DRAFT
100
AcDbCircle
 62
7
  6
CONTINUOUS
 10
52.3184877291
 20
35.197015659
 40
6.4
100
AcDbArc
 50
270.0
 51
90.0
  0
ARC
  5
664
100
AcDbEntity
  8
RACCORDO
100
AcDbCircle
 62
253
  6
CONTINUOUS
 10
52.3184877291
 20
35.197015659
 40
6.3789625322
100
AcDbArc
 50
301.6081579613
 51
58.3918420387
  0
ARC
  5
665
100
AcDbEntity
  8
RACCORDO
100
AcDbCircle
 62
253
  6
CONTINUOUS
 10
52.3184877291
 20
35.197015659
 40
6.3597619608
100
AcDbArc
 50
58.496688603
 51
90.5635028526
  0
ARC
  5
666
100
AcDbEntity
  8
RACCORDO
100
AcDbCircle
 62
253
  6
CONTINUOUS
 10
52.3184877291
 20
35.197015659
 40
6.3597619608
100
AcDbArc
 50
269.436497158
 51
301.5033116578
  0
ARC
  5
667
100
AcDbEntity
  8
RACCORDO
100
AcDbCircle
 62
253
  6
CONTINUOUS
 10
52.3184877291
 20
35.197015659
 40
6.0790082237
100
AcDbArc
 50
306.0334859317
 51
53.9665140683
  0
ARC
  5
668
100
AcDbEntity
  8
RACCORDO
100
AcDbCircle
 62
253
  6
CONTINUOUS
 10
52.3184877291
 20
35.197015659
 40
6.0598076523
100
AcDbArc
 50
269.4363581909
 51
301.5034779396
  0
ARC
  5
669
100
AcDbEntity
  8
RACCORDO
100
AcDbCircle
 62
253
  6
CONTINUOUS
 10
52.3184877291
 20
35.197015659
 40
6.0598076523
100
AcDbArc
 50
58.4965214038
 51
90.5636747039
  0
ARC
  5
66A
100
AcDbEntity
  8
RACCORDO
100
AcDbCircle
 62
7
  6
CONTINUOUS
 10
53.8184877291
 20
-44.802984341
 40
3.8238174026
100
AcDbArc
 50
213.35495473
 51
233.505377588
  0
ARC
  5
66B
100
AcDbEntity
  8
RACCORDO
100
AcDbCircle
 62
7
  6
CONTINUOUS
 10
53.8184877291
 20
-44.802984341
 40
3.8238174026
100
AcDbArc
 50
126.494622412
 51
146.64504527
  0
ARC
  5
66C
100
AcDbEntity
  8
RACCORDO
100
AcDbCircle
 62
7
  6
CONTINUOUS
 10
53.8184877291
 20
-44.802984341
 40
3.8238174026
100
AcDbArc
 50
306.5674372458
 51
53.4325627542
  0
ARC
  5
66D
100
AcDbEntity
  8
RACCORDO
100
AcDbCircle
 62
253
  6
CONTINUOUS
 10
53.8184877291
 20
-44.802984341
 40
3.8097619608
100
AcDbArc
 50
216.7653651344
 51
233.5995177281
  0
ARC
  5
66E
100
AcDbEntity
  8
RACCORDO
100
AcDbCircle
 62
253
  6
CONTINUOUS
 10
53.8184877291
 20
-44.802984341
 40
3.8097619608
100
AcDbArc
 50
126.4004822719
 51
143.2346348656
  0
ARC
  5
66F
100
AcDbEntity
  8
RACCORDO
100
AcDbCircle
 62
253
  6
CONTINUOUS
 10
53.8184877291
 20
-44.802984341
 40
3.8097619608
100
AcDbArc
 50
306.4734459402
 51
53.5265540598
  0
ARC
  5
670
100
AcDbEntity
  8
RACCORDO
100
AcDbCircle
 62
253
  6
CONTINUOUS
 10
53.8184877291
 20
-44.802984341
 40
3.5098076523
100
AcDbArc
 50
306.4745055369
 51
53.5217425379
  0
ARC
  5
671
100
AcDbEntity
  8
RACCORDO
100
AcDbCircle
 62
253
  6
CONTINUOUS
 10
53.8184877291
 20
-44.802984341
 40
3.5098076523
100
AcDbArc
 50
126.4009716939
 51
148.7318723647
  0
ARC
  5
672
100
AcDbEntity
  8
RACCORDO
100
AcDbCircle
 62
253
  6
CONTINUOUS
 10
53.8184877291
 20
-44.802984341
 40
3.5098076523
100
AcDbArc
 50
211.2681276353
 51
233.5961348302
  0
ARC
  5
673
100
AcDbEntity
  8
RACCORDO
100
AcDbCircle
 62
253
  6
CONTINUOUS
 10
53.8184877291
 20
-44.802984341
 40
3.3328427125
100
AcDbArc
 50
205.8245124532
 51
154.1754875468
  0
ARC
  5
674
100
AcDbEntity
  8
RACCORDO
100
AcDbCircle
 62
253
  6
CONTINUOUS
 10
53.8184877291
 20
-44.802984341
 40
3.1914213562
100
AcDbArc
 50
199.3941585315
 51
160.6058414685
  0
CIRCLE
  5
675
100
AcDbEntity
  8
0
100
AcDbCircle
 62
7
  6
CONTINUOUS
 10
53.8184877291
 20
-44.802984341
 40
2.8
  0
ARC
  5
676
100
AcDbEntity
  8
RACCORDO
100
AcDbCircle
 62
253
  6
CONTINUOUS
 10
53.8184877291
 20
-44.802984341
 40
1.5507477288
100
AcDbArc
 50
85.2896348736
 51
94.7103652049
  0
ARC
  5
677
100
AcDbEntity
  8
RACCORDO
100
AcDbCircle
 62
253
  6
CONTINUOUS
 10
53.8184877291
 20
-44.802984341
 40
1.5507477288
100
AcDbArc
 50
175.2896348736
 51
184.7103652049
  0
ARC
  5
678
100
AcDbEntity
  8
RACCORDO
100
AcDbCircle
 62
253
  6
CONTINUOUS
 10
53.8184877291
 20
-44.802984341
 40
1.5507477288
100
AcDbArc
 50
265.2896349873
 51
274.710365103
  0
ARC
  5
679
100
AcDbEntity
  8
RACCORDO
100
AcDbCircle
 62
253
  6
CONTINUOUS
 10
53.8184877291
 20
-44.802984341
 40
1.5507477288
100
AcDbArc
 50
355.2896349873
 51
4.710365103
  0
ARC
  5
67A
100
AcDbEntity
  8
RACCORDO
100
AcDbCircle
 62
253
  6
CONTINUOUS
 10
53.8184877291
 20
-44.802984341
 40
1.5074464586
100
AcDbArc
 50
355.2896350024
 51
4.7103652124
  0
ARC
  5
67B
100
AcDbEntity
  8
RACCORDO
100
AcDbCircle
 62
253
  6
CONTINUOUS
 10
53.8184877291
 20
-44.802984341
 40
1.5074464586
100
AcDbArc
 50
85.2896348497
 51
94.7103653245
  0
ARC
  5
67C
100
AcDbEntity
  8
RACCORDO
100
AcDbCircle
 62
253
  6
CONTINUOUS
 10
53.8184877291
 20
-44.802984341
 40
1.5074464586
100
AcDbArc
 50
175.2896348503
 51
184.7103653259
  0
ARC
  5
67D
100
AcDbEntity
  8
RACCORDO
100
AcDbCircle
 62
253
  6
CONTINUOUS
 10
53.8184877291
 20
-44.802984341
 40
1.5074464586
100
AcDbArc
 50
265.2896350024
 51
274.7103652093
  0
ARC
  5
67E
100
AcDbEntity
  8
RACCORDO
100
AcDbCircle
 62
7
  6
CONTINUOUS
 10
53.8184877291
 20
-44.802984341
 40
0.5981197846
100
AcDbArc
 50
338.5774177782
 51
21.4225815303
  0
ARC
  5
67F
100
AcDbEntity
  8
RACCORDO
100
AcDbCircle
 62
7
  6
CONTINUOUS
 10
53.8184877291
 20
-44.802984341
 40
0.5981197846
100
AcDbArc
 50
68.5774169549
 51
111.4225824591
  0
ARC
  5
680
100
AcDbEntity
  8
RACCORDO
100
AcDbCircle
 62
7
  6
CONTINUOUS
 10
53.8184877291
 20
-44.802984341
 40
0.5981197846
100
AcDbArc
 50
158.5774169549
 51
201.4225824591
  0
ARC
  5
681
100
AcDbEntity
  8
RACCORDO
100
AcDbCircle
 62
7
  6
CONTINUOUS
 10
53.8184877291
 20
-44.802984341
 40
0.5981197846
100
AcDbArc
 50
248.5774177782
 51
291.4225815303
  0
ARC
  5
682
100
AcDbEntity
  8
RACCORDO
100
AcDbCircle
 62
7
  6
CONTINUOUS
 10
53.8184877291
 20
35.197015659
 40
3.8238174026
100
AcDbArc
 50
306.5674372458
 51
53.4325627542
  0
ARC
  5
683
100
AcDbEntity
  8
RACCORDO
100
AcDbCircle
 62
7
  6
CONTINUOUS
 10
53.8184877291
 20
35.197015659
 40
3.8238174026
100
AcDbArc
 50
126.494622412
 51
146.64504527
  0
ARC
  5
684
100
AcDbEntity
  8
RACCORDO
100
AcDbCircle
 62
7
  6
CONTINUOUS
 10
53.8184877291
 20
35.197015659
 40
3.8238174026
100
AcDbArc
 50
213.35495473
 51
233.505377588
  0
ARC
  5
685
100
AcDbEntity
  8
RACCORDO
100
AcDbCircle
 62
253
  6
CONTINUOUS
 10
53.8184877291
 20
35.197015659
 40
3.8097619608
100
AcDbArc
 50
306.4734459402
 51
53.5265540598
  0
ARC
  5
686
100
AcDbEntity
  8
RACCORDO
100
AcDbCircle
 62
7
  6
CONTINUOUS
 10
53.8184877291
 20
35.197015659
 40
3.8046168312
100
AcDbArc
 50
125.4342967461
 51
142.0470143694
  0
ARC
  5
687
100
AcDbEntity
  8
RACCORDO
100
AcDbCircle
 62
7
  6
CONTINUOUS
 10
53.8184877291
 20
35.197015659
 40
3.8046168312
100
AcDbArc
 50
217.9529856306
 51
234.5657867648
  0
ARC
  5
688
100
AcDbEntity
  8
RACCORDO
100
AcDbCircle
 62
253
  6
CONTINUOUS
 10
53.8184877291
 20
35.197015659
 40
3.5098076523
100
AcDbArc
 50
306.474503401
 51
53.5217400457
  0
ARC
  5
689
100
AcDbEntity
  8
RACCORDO
100
AcDbCircle
 62
253
  6
CONTINUOUS
 10
53.8184877291
 20
35.197015659
 40
3.3328427125
100
AcDbArc
 50
205.8245124532
 51
154.1754875468
  0
ARC
  5
68A
100
AcDbEntity
  8
RACCORDO
100
AcDbCircle
 62
253
  6
CONTINUOUS
 10
53.8184877291
 20
35.197015659
 40
3.1914213562
100
AcDbArc
 50
199.3941585315
 51
160.6058414685
  0
CIRCLE
  5
68B
100
AcDbEntity
  8
0
100
AcDbCircle
 62
7
  6
CONTINUOUS
 10
53.8184877291
 20
35.197015659
 40
2.8
  0
ARC
  5
68C
100
AcDbEntity
  8
RACCORDO
100
AcDbCircle
 62
253
  6
CONTINUOUS
 10
53.8184877291
 20
35.197015659
 40
1.5507477288
100
AcDbArc
 50
85.2896348736
 51
94.7103652049
  0
ARC
  5
68D
100
AcDbEntity
  8
RACCORDO
100
AcDbCircle
 62
253
  6
CONTINUOUS
 10
53.8184877291
 20
35.197015659
 40
1.5507477288
100
AcDbArc
 50
175.2896348736
 51
184.7103652049
  0
ARC
  5
68E
100
AcDbEntity
  8
RACCORDO
100
AcDbCircle
 62
253
  6
CONTINUOUS
 10
53.8184877291
 20
35.197015659
 40
1.5507477288
100
AcDbArc
 50
265.2896349873
 51
274.710365103
  0
ARC
  5
68F
100
AcDbEntity
  8
RACCORDO
100
AcDbCircle
 62
253
  6
CONTINUOUS
 10
53.8184877291
 20
35.197015659
 40
1.5507477288
100
AcDbArc
 50
355.2896349873
 51
4.710365103
  0
ARC
  5
690
100
AcDbEntity
  8
RACCORDO
100
AcDbCircle
 62
253
  6
CONTINUOUS
 10
53.8184877291
 20
35.197015659
 40
1.5074464586
100
AcDbArc
 50
355.2896350024
 51
4.7103652124
  0
ARC
  5
691
100
AcDbEntity
  8
RACCORDO
100
AcDbCircle
 62
253
  6
CONTINUOUS
 10
53.8184877291
 20
35.197015659
 40
1.5074464586
100
AcDbArc
 50
85.2896348497
 51
94.7103653245
  0
ARC
  5
692
100
AcDbEntity
  8
RACCORDO
100
AcDbCircle
 62
253
  6
CONTINUOUS
 10
53.8184877291
 20
35.197015659
 40
1.5074464586
100
AcDbArc
 50
175.2896348503
 51
184.7103653259
  0
ARC
  5
693
100
AcDbEntity
  8
RACCORDO
100
AcDbCircle
 62
253
  6
CONTINUOUS
 10
53.8184877291
 20
35.197015659
 40
1.5074464586
100
AcDbArc
 50
265.2896350024
 51
274.7103652093
  0
ARC
  5
694
100
AcDbEntity
  8
RACCORDO
100
AcDbCircle
 62
7
  6
CONTINUOUS
 10
53.8184877291
 20
35.197015659
 40
0.5981197846
100
AcDbArc
 50
338.5774177782
 51
21.4225815303
  0
ARC
  5
695
100
AcDbEntity
  8
RACCORDO
100
AcDbCircle
 62
7
  6
CONTINUOUS
 10
53.8184877291
 20
35.197015659
 40
0.5981197846
100
AcDbArc
 50
68.5774169549
 51
111.4225824591
  0
ARC
  5
696
100
AcDbEntity
  8
RACCORDO
100
AcDbCircle
 62
7
  6
CONTINUOUS
 10
53.8184877291
 20
35.197015659
 40
0.5981197846
100
AcDbArc
 50
158.5774169549
 51
201.4225824591
  0
ARC
  5
697
100
AcDbEntity
  8
RACCORDO
100
AcDbCircle
 62
7
  6
CONTINUOUS
 10
53.8184877291
 20
35.197015659
 40
0.5981197846
100
AcDbArc
 50
248.5774177782
 51
291.4225815303
  0
ARC
  5
698
100
AcDbEntity
  8
RACCORDO
100
AcDbCircle
 62
7
  6
CONTINUOUS
 10
-71.3684314268
 20
29.1372080067
 40
0.3
100
AcDbArc
 50
180.0
 51
269.0
  0
ARC
  5
699
100
AcDbEntity
  8
RACCORDO
100
AcDbCircle
 62
7
  6
CONTINUOUS
 10
-71.3684314268
 20
41.2568233112
 40
0.3
100
AcDbArc
 50
91.0
 51
180.0
  0
ARC
  5
69A
100
AcDbEntity
  8
RACCORDO
100
AcDbCircle
 62
7
  6
CONTINUOUS
 10
-71.3684314268
 20
-50.8627919933
 40
0.3
100
AcDbArc
 50
180.0
 51
269.0
  0
ARC
  5
69B
100
AcDbEntity
  8
RACCORDO
100
AcDbCircle
 62
7
  6
CONTINUOUS
 10
-71.3684314268
 20
-38.7431766888
 40
0.3
100
AcDbArc
 50
91.0
 51
180.0
  0
ARC
  5
69C
100
AcDbEntity
  8
RACCORDO
100
AcDbCircle
 62
7
  6
CONTINUOUS
 10
-77.2684306459
 20
52.0038384418
 40
0.3
100
AcDbArc
 50
91.0
 51
102.0591606449
  0
ARC
  5
69D
100
AcDbEntity
  8
RACCORDO
100
AcDbCircle
 62
7
  6
CONTINUOUS
 10
-77.26843067
 20
-61.6098071234
 40
0.3
100
AcDbArc
 50
257.9408397048
 51
269.0
  0
ARC
  5
69E
100
AcDbEntity
  8
RACCORDO
100
AcDbCircle
 62
7
  6
CONTINUOUS
 10
-70.2684314268
 20
52.1260238827
 40
0.3
100
AcDbArc
 50
91.0
 51
180.0001411658
  0
ARC
  5
69F
100
AcDbEntity
  8
RACCORDO
100
AcDbCircle
 62
7
  6
CONTINUOUS
 10
-70.2684314268
 20
-61.7319925647
 40
0.3
100
AcDbArc
 50
180.0
 51
269.0
  0
ARC
  5
6A0
100
AcDbEntity
  8
RACCORDO
100
AcDbCircle
 62
7
  6
CONTINUOUS
 10
-74.3684314268
 20
-31.0104420313
 40
0.2
100
AcDbArc
 50
180.0
 51
269.0
  0
ARC
  5
6A1
100
AcDbEntity
  8
RACCORDO
100
AcDbCircle
 62
7
  6
CONTINUOUS
 10
-74.3684314268
 20
-30.5955266507
 40
0.2
100
AcDbArc
 50
91.0
 51
180.0
  0
ARC
  5
6A2
100
AcDbEntity
  8
RACCORDO
100
AcDbCircle
 62
7
  6
CONTINUOUS
 10
-74.3684314268
 20
-25.0104420313
 40
0.2
100
AcDbArc
 50
180.0
 51
269.0
  0
ARC
  5
6A3
100
AcDbEntity
  8
RACCORDO
100
AcDbCircle
 62
7
  6
CONTINUOUS
 10
-74.3684314268
 20
-24.5955266507
 40
0.2
100
AcDbArc
 50
91.0
 51
180.0
  0
ARC
  5
6A4
100
AcDbEntity
  8
RACCORDO
100
AcDbCircle
 62
7
  6
CONTINUOUS
 10
-74.3684314268
 20
14.9895579687
 40
0.2
100
AcDbArc
 50
180.0
 51
269.0
  0
ARC
  5
6A5
100
AcDbEntity
  8
RACCORDO
100
AcDbCircle
 62
7
  6
CONTINUOUS
 10
-74.3684314268
 20
15.4044733493
 40
0.2
100
AcDbArc
 50
91.0
 51
180.0
  0
ARC
  5
6A6
100
AcDbEntity
  8
RACCORDO
100
AcDbCircle
 62
7
  6
CONTINUOUS
 10
-74.3684314268
 20
20.9895579687
 40
0.2
100
AcDbArc
 50
180.0
 51
269.0
  0
ARC
  5
6A7
100
AcDbEntity
  8
RACCORDO
100
AcDbCircle
 62
7
  6
CONTINUOUS
 10
-74.3684314268
 20
21.4044733493
 40
0.2
100
AcDbArc
 50
91.0
 51
180.0
  0
ELLIPSE
  5
6A8
100
AcDbEntity
  8
RACCORDO
100
AcDbEllipse
 62
7
  6
CONTINUOUS
 10
53.4678210765
 20
-44.802984341
 30
0.0
 11
3.542352455
 21
0.0
 31
0.0
 40
0.9950881703
 41
-2.5025325856
 42
-2.4380801652
  0
ELLIPSE
  5
6A9
100
AcDbEntity
  8
RACCORDO
100
AcDbEllipse
 62
7
  6
CONTINUOUS
 10
53.4678210765
 20
-44.802984341
 30
0.0
 11
3.542352455
 21
0.0
 31
0.0
 40
0.9950881703
 41
2.4380801652
 42
2.5025325856
  0
ELLIPSE
  5
6AA
100
AcDbEntity
  8
DRAFT
100
AcDbEllipse
 62
7
  6
CONTINUOUS
 10
53.4678210765
 20
35.197015659
 30
0.0
 11
3.542352455
 21
0.0
 31
0.0
 40
0.9950881703
 41
2.4156925725
 42
2.5025325856
  0
ELLIPSE
  5
6AB
100
AcDbEntity
  8
DRAFT
100
AcDbEllipse
 62
7
  6
CONTINUOUS
 10
53.4678210765
 20
35.197015659
 30
0.0
 11
3.542352455
 21
-0.0
 31
0.0
 40
0.9950881703
 41
-2.5025325856
 42
-2.4156925725
  0
ENDSEC
  0
SECTION
  2
OBJECTS
  0
DICTIONARY
  5
C
100
AcDbDictionary
280
0
281
1
  3
ACAD_GROUP
350
D
  3
ACAD_MLINESTYLE
350
17
  3
ACAD_LAYOUT
350
1A
  3
ACAD_PLOTSETTINGS
350
19
  3
ACAD_PLOTSTYLENAME
350
E
  0
DICTIONARY
  5
D
102
{ACAD_REACTORS
330
C
102
}
100
AcDbDictionary
280
0
281
1
  0
ACDBDICTIONARYWDFLT
  5
E
102
{ACAD_REACTORS
330
C
102
}
100
AcDbDictionary
281
1
  3
Normal
350
F
100
AcDbDictionaryWithDefault
340
F
  0
DICTIONARY
  5
17
102
{ACAD_REACTORS
330
C
102
}
100
AcDbDictionary
280
0
281
1
  3
Standard
350
18
  0
DICTIONARY
  5
19
102
{ACAD_REACTORS
330
C
102
}
100
AcDbDictionary
281
1
  0
DICTIONARY
  5
1A
102
{ACAD_REACTORS
330
C
102
}
100
AcDbDictionary
281
1
  3
Model
350
6AC
  3
Layout1
350
6AD
  0
ACDBPLACEHOLDER
  5
F
102
{ACAD_REACTORS
330
E
102
}
  0
MLINESTYLE
  5
18
102
{ACAD_REACTORS
330
17
102
}
100
AcDbMlineStyle
  2
STANDARD
 70
0
  3

 62
256
 51
90.0
 52
90.0
 71
2
 49
0.5
 62
256
  6
BYLAYER
 49
-0.5
 62
256
  6
BYLAYER
  0
LAYOUT
  5
6AC
102
{ACAD_REACTORS
330
1A
102
}
100
AcDbPlotSettings
  1

  2
none_device
  4
ISO_A4_(297.00_x_210.00_MM)
  6

 40
0.0
 41
0.0
 42
0.0
 43
0.0
 44
297.0
 45
210.0
 46
0.0
 47
0.0
 48
0.0
 49
0.0
140
0.0
141
0.0
142
1.0
143
1.0
 70
1024
 72
1
 73
0
 74
0
  7

 75
0
147
1.0
148
0.0
149
0.0
100
AcDbLayout
  1
Model
 70
0
 71
0
 10
0.0
 20
0.0
 11
297.0
 21
210.0
 12
0.0
 22
0.0
 32
0.0
 14
0.0
 24
0.0
 34
0.0
 15
0.0
 25
0.0
 35
0.0
146
0.0
 13
0.0
 23
0.0
 33
0.0
 16
1.0
 26
0.0
 36
0.0
 17
0.0
 27
1.0
 37
0.0
 76
0
330
216
345
0
346
0
  0
LAYOUT
  5
6AD
102
{ACAD_REACTORS
330
1A
102
}
100
AcDbPlotSettings
  1

  2
none_device
  4
ISO_A4_(297.00_x_210.00_MM)
  6

 40
0.0
 41
0.0
 42
0.0
 43
0.0
 44
297.0
 45
210.0
 46
0.0
 47
0.0
 48
0.0
 49
0.0
140
0.0
141
0.0
142
1.0
143
1.0
 70
0
 72
1
 73
0
 74
0
  7

 75
0
147
1.0
148
0.0
149
0.0
100
AcDbLayout
  1
Layout1
 70
0
 71
1
 10
0.0
 20
0.0
 11
297.0
 21
210.0
 12
0.0
 22
0.0
 32
0.0
 14
0.0
 24
0.0
 34
0.0
 15
0.0
 25
0.0
 35
0.0
146
0.0
 13
0.0
 23
0.0
 33
0.0
 16
1.0
 26
0.0
 36
0.0
 17
0.0
 27
1.0
 37
0.0
 76
0
330
217
345
0
346
0
  0
ENDSEC
  0
EOF
