  0
SECTION
  2
HEADER
  9
$ACADVER
  1
AC1015
  9
$DWGCODEPAGE
  3
ANSI_1252
  9
$EXTMAX
 10
297.0
 20
210.0
 30
0.0
  9
$EXTMIN
 10
0.0
 20
0.0
 30
0.0
  9
$LIMMIN
 10
0.0
 20
0.0
  9
$LIMMAX
 10
297.0
 20
210.0
  9
$VIEWCTR
 10
148.5
 20
105.0
  9
$VIEWSIZE
 40
210.0
  9
$CLAYER
  8
0
  9
$LTSCALE
 40
16.335
  9
$CELTYPE
  6
BYLAYER
  9
$DIMSCALE
 40
1.0
  9
$DIMASZ
 40
3.0
  9
$DIMEXO
 40
0.5
  9
$DIMDLI
 40
11.286
  9
$DIMEXE
 40
1.5
  9
$DIMCEN
 40
2.673
  9
$DIMLFAC
 40
1.0
  9
$DIMBLK
  1
_FILLED
  9
$DIMALT
 70
0
  9
$DIMALTF
 40
0.0393700787
  9
$DIMTXT
 40
3.0
  9
$DIMTOL
 70
1
  9
$DIMLIM
 70
0
  9
$DIMTFAC
 40
1.0
  9
$DIMTP
 40
0.01
  9
$DIMTM
 40
0.01
  9
$DIMGAP
 40
0.625
  9
$DIMDSEP
 70
44
  9
$AUNITS
 70
0
  9
$PDMODE
 70
3
  9
$PDSIZE
 40
3.0
  9
$HANDSEED
  5
474
  9
$TILEMODE
 70
1
  9
$MEASUREMENT
 70
1
  9
$INSUNITS
 70
4
  0
ENDSEC
  0
SECTION
  2
CLASSES
  0
CLASS
  1
ACDBDICTIONARYWDFLT
  2
AcDbDictionaryWithDefault
  3
AutoCAD 2000
 90
0
280
0
281
0
  0
CLASS
  1
ACDBPLACEHOLDER
  2
AcDbPlaceHolder
  3
AutoCAD 2000
 90
0
280
0
281
0
  0
CLASS
  1
LAYOUT
  2
AcDbLayout
  3
AutoCAD 2000
 90
0
280
0
281
0
  0
ENDSEC
  0
SECTION
  2
TABLES
  0
TABLE
  2
VPORT
  5
8
100
AcDbSymbolTable
 70
2
  0
VPORT
  5
1F4
100
AcDbSymbolTableRecord
100
AcDbViewportTableRecord
  2
*ACTIVE
 70
0
 10
0.0
 20
0.0
 11
1.0
 21
1.0
 12
148.5
 22
105.0
 13
0.0
 23
0.0
 14
1.0
 24
1.0
 15
0.0
 25
0.0
 16
0.0
 26
0.0
 36
1.0
 17
0.0
 27
0.0
 37
0.0
 40
210.0
 41
1.4142857143
 42
50.0
 43
0.0
 44
0.0
 50
0.0
 51
0.0
 71
0
 72
100
 73
1
 74
1
 75
0
 76
0
 77
0
 78
0
  0
ENDTAB
  0
TABLE
  2
LTYPE
  5
5
100
AcDbSymbolTable
 70
6
  0
LTYPE
  5
14
100
AcDbSymbolTableRecord
100
AcDbLinetypeTableRecord
  2
BYBLOCK
 70
0
  3

 72
65
 73
0
 40
0.0
  0
LTYPE
  5
15
100
AcDbSymbolTableRecord
100
AcDbLinetypeTableRecord
  2
BYLAYER
 70
0
  3

 72
65
 73
0
 40
0.0
  0
LTYPE
  5
16
100
AcDbSymbolTableRecord
100
AcDbLinetypeTableRecord
  2
CONTINUOUS
 70
64
  3
Solid line
 72
65
 73
0
 40
0.0
  0
LTYPE
  5
1F5
100
AcDbSymbolTableRecord
100
AcDbLinetypeTableRecord
  2
CENTER
 70
64
  3
____ _ ____ _ ____ _ ____ _ ____ _ ____ _ ____
 72
65
 73
4
 40
0.6
 49
0.375
 74
0
 49
-0.075
 74
0
 49
0.075
 74
0
 49
-0.075
 74
0
  0
LTYPE
  5
1F6
100
AcDbSymbolTableRecord
100
AcDbLinetypeTableRecord
  2
HIDDEN
 70
64
  3
- - - - - - - - - - - - - - - - - - - -
 72
65
 73
2
 40
0.2
 49
0.1
 74
0
 49
-0.1
 74
0
  0
LTYPE
  5
1F7
100
AcDbSymbolTableRecord
100
AcDbLinetypeTableRecord
  2
PHANTOM
 70
64
  3
_____ _ _ _____ _ _ _____ _ _ _____
 72
65
 73
6
 40
0.8
 49
0.45
 74
0
 49
-0.05
 74
0
 49
0.1
 74
0
 49
-0.05
 74
0
 49
0.1
 74
0
 49
-0.05
 74
0
  0
LTYPE
  5
1F8
100
AcDbSymbolTableRecord
100
AcDbLinetypeTableRecord
  2
DOT
 70
64
  3
. . . . . . . . . . . . . . . . . . . .
 72
65
 73
2
 40
0.2
 49
0.1
 74
0
 49
-0.1
 74
0
  0
LTYPE
  5
1F9
100
AcDbSymbolTableRecord
100
AcDbLinetypeTableRecord
  2
DASHED
 70
64
  3
- - - - - - - - - - - - - - - - - - - -
 72
65
 73
2
 40
0.2
 49
0.1
 74
0
 49
-0.1
 74
0
  0
ENDTAB
  0
TABLE
  2
LAYER
  5
2
100
AcDbSymbolTable
 70
36
  0
LAYER
  5
10
100
AcDbSymbolTableRecord
100
AcDbLayerTableRecord
  2
0
 70
0
 62
7
  6
CONTINUOUS
370
-3
390
F
  0
LAYER
  5
1FA
100
AcDbSymbolTableRecord
100
AcDbLayerTableRecord
  2
DEFAULT_1
 70
0
 62
7
  6
CENTER
370
-3
390
F
  0
LAYER
  5
1FB
100
AcDbSymbolTableRecord
100
AcDbLayerTableRecord
  2
DEFAULT_2
 70
0
 62
7
  6
HIDDEN
370
-3
390
F
  0
LAYER
  5
1FC
100
AcDbSymbolTableRecord
100
AcDbLayerTableRecord
  2
DEFAULT_3
 70
0
 62
7
  6
PHANTOM
370
-3
390
F
  0
LAYER
  5
1FD
100
AcDbSymbolTableRecord
100
AcDbLayerTableRecord
  2
ASSI
 70
0
 62
7
  6
CONTINUOUS
370
-3
390
F
  0
LAYER
  5
1FE
100
AcDbSymbolTableRecord
100
AcDbLayerTableRecord
  2
COLOR1
 70
0
 62
7
  6
CONTINUOUS
370
-3
390
F
  0
LAYER
  5
1FF
100
AcDbSymbolTableRecord
100
AcDbLayerTableRecord
  2
COLOR15
 70
0
 62
7
  6
CONTINUOUS
370
-3
390
F
  0
LAYER
  5
200
100
AcDbSymbolTableRecord
100
AcDbLayerTableRecord
  2
COLOR16
 70
0
 62
7
  6
CONTINUOUS
370
-3
390
F
  0
LAYER
  5
201
100
AcDbSymbolTableRecord
100
AcDbLayerTableRecord
  2
COLOR5
 70
0
 62
7
  6
CONTINUOUS
370
-3
390
F
  0
LAYER
  5
202
100
AcDbSymbolTableRecord
100
AcDbLayerTableRecord
  2
COLOR7
 70
0
 62
7
  6
CONTINUOUS
370
-3
390
F
  0
LAYER
  5
203
100
AcDbSymbolTableRecord
100
AcDbLayerTableRecord
  2
COORDINATE
 70
0
 62
7
  6
CONTINUOUS
370
-3
390
F
  0
LAYER
  5
204
100
AcDbSymbolTableRecord
100
AcDbLayerTableRecord
  2
COPY_PUBLISH
 70
0
 62
7
  6
CONTINUOUS
370
-3
390
F
  0
LAYER
  5
205
100
AcDbSymbolTableRecord
100
AcDbLayerTableRecord
  2
CORNICE_BASE
 70
0
 62
7
  6
CONTINUOUS
370
-3
390
F
  0
LAYER
  5
206
100
AcDbSymbolTableRecord
100
AcDbLayerTableRecord
  2
COSMETICI
 70
0
 62
7
  6
CONTINUOUS
370
-3
390
F
  0
LAYER
  5
207
100
AcDbSymbolTableRecord
100
AcDbLayerTableRecord
  2
CURVE
 70
0
 62
7
  6
CONTINUOUS
370
-3
390
F
  0
LAYER
  5
208
100
AcDbSymbolTableRecord
100
AcDbLayerTableRecord
  2
DRAFT
 70
0
 62
7
  6
CONTINUOUS
370
-3
390
F
  0
LAYER
  5
209
100
AcDbSymbolTableRecord
100
AcDbLayerTableRecord
  2
ELVOX
 70
0
 62
7
  6
CONTINUOUS
370
-3
390
F
  0
LAYER
  5
20A
100
AcDbSymbolTableRecord
100
AcDbLayerTableRecord
  2
IMPORT_IGES
 70
0
 62
7
  6
CONTINUOUS
370
-3
390
F
  0
LAYER
  5
20B
100
AcDbSymbolTableRecord
100
AcDbLayerTableRecord
  2
INTF_1
 70
0
 62
7
  6
CONTINUOUS
370
-3
390
F
  0
LAYER
  5
20C
100
AcDbSymbolTableRecord
100
AcDbLayerTableRecord
  2
INTF_11
 70
0
 62
7
  6
CONTINUOUS
370
-3
390
F
  0
LAYER
  5
20D
100
AcDbSymbolTableRecord
100
AcDbLayerTableRecord
  2
INTF_7
 70
0
 62
7
  6
CONTINUOUS
370
-3
390
F
  0
LAYER
  5
20E
100
AcDbSymbolTableRecord
100
AcDbLayerTableRecord
  2
INTF_RED
 70
0
 62
7
  6
CONTINUOUS
370
-3
390
F
  0
LAYER
  5
20F
100
AcDbSymbolTableRecord
100
AcDbLayerTableRecord
  2
INTF_YELLOW
 70
0
 62
7
  6
CONTINUOUS
370
-3
390
F
  0
LAYER
  5
210
100
AcDbSymbolTableRecord
100
AcDbLayerTableRecord
  2
NOTE
 70
0
 62
7
  6
CONTINUOUS
370
-3
390
F
  0
LAYER
  5
211
100
AcDbSymbolTableRecord
100
AcDbLayerTableRecord
  2
PIANI
 70
0
 62
7
  6
CONTINUOUS
370
-3
390
F
  0
LAYER
  5
212
100
AcDbSymbolTableRecord
100
AcDbLayerTableRecord
  2
PUNTI
 70
0
 62
7
  6
CONTINUOUS
370
-3
390
F
  0
LAYER
  5
213
100
AcDbSymbolTableRecord
100
AcDbLayerTableRecord
  2
RACCORDO
 70
0
 62
7
  6
CONTINUOUS
370
-3
390
F
  0
LAYER
  5
214
100
AcDbSymbolTableRecord
100
AcDbLayerTableRecord
  2
RIFERIMENTO_GEOMETRIA
 70
0
 62
7
  6
CONTINUOUS
370
-3
390
F
  0
LAYER
  5
215
100
AcDbSymbolTableRecord
100
AcDbLayerTableRecord
  2
SIMBOLI
 70
0
 62
7
  6
CONTINUOUS
370
-3
390
F
  0
LAYER
  5
216
100
AcDbSymbolTableRecord
100
AcDbLayerTableRecord
  2
SMUSSO
 70
0
 62
7
  6
CONTINUOUS
370
-3
390
F
  0
LAYER
  5
217
100
AcDbSymbolTableRecord
100
AcDbLayerTableRecord
  2
SNAPLINE
 70
0
 62
7
  6
CONTINUOUS
370
-3
390
F
  0
LAYER
  5
218
100
AcDbSymbolTableRecord
100
AcDbLayerTableRecord
  2
SUPERFICI
 70
0
 62
7
  6
CONTINUOUS
370
-3
390
F
  0
LAYER
  5
219
100
AcDbSymbolTableRecord
100
AcDbLayerTableRecord
  2
TRASH
 70
0
 62
7
  6
CONTINUOUS
370
-3
390
F
  0
ENDTAB
  0
TABLE
  2
STYLE
  5
3
100
AcDbSymbolTable
 70
1
  0
STYLE
  5
11
100
AcDbSymbolTableRecord
100
AcDbTextStyleTableRecord
  2
STANDARD
 70
0
 40
0.0
 41
0.8
 50
0.0
 71
0
 42
0.2
  3
txt
  4

  0
STYLE
  5
21A
100
AcDbSymbolTableRecord
100
AcDbTextStyleTableRecord
  2
TEXTSTYLE_1
 70
0
 40
0.0
 41
0.8
 50
0.0
 71
0
 42
0.2
  3
gdt
  4

  0
ENDTAB
  0
TABLE
  2
VIEW
  5
6
100
AcDbSymbolTable
 70
0
  0
ENDTAB
  0
TABLE
  2
UCS
  5
7
100
AcDbSymbolTable
 70
0
  0
ENDTAB
  0
TABLE
  2
APPID
  5
9
100
AcDbSymbolTable
 70
1
  0
APPID
  5
21B
100
AcDbSymbolTableRecord
100
AcDbRegAppTableRecord
  2
ACAD
 70
0
  0
ENDTAB
  0
TABLE
  2
BLOCK_RECORD
  5
1
100
AcDbSymbolTable
 70
0
  0
BLOCK_RECORD
  5
21C
100
AcDbSymbolTableRecord
100
AcDbBlockTableRecord
  2
*Model_Space
  0
BLOCK_RECORD
  5
21D
100
AcDbSymbolTableRecord
100
AcDbBlockTableRecord
  2
*Paper_Space
  0
BLOCK_RECORD
  5
21E
100
AcDbSymbolTableRecord
100
AcDbBlockTableRecord
  2
_FILLED
  0
BLOCK_RECORD
  5
21F
100
AcDbSymbolTableRecord
100
AcDbBlockTableRecord
  2
*D0
  0
BLOCK_RECORD
  5
220
100
AcDbSymbolTableRecord
100
AcDbBlockTableRecord
  2
*D1
  0
BLOCK_RECORD
  5
221
100
AcDbSymbolTableRecord
100
AcDbBlockTableRecord
  2
*D2
  0
ENDTAB
  0
TABLE
  2
DIMSTYLE
  5
A
100
AcDbSymbolTable
 70
1
100
AcDbDimStyleTable
 71
0
  0
DIMSTYLE
105
222
100
AcDbSymbolTableRecord
100
AcDbDimStyleTableRecord
  2
STANDARD
 70
0
  3

  4

 40
1.0
 41
3.0
 42
0.5
 43
0.38
 44
1.5
 45
0.0
 46
0.0
 47
0.01
 48
0.01
140
3.0
141
0.09
142
0.0
143
25.4
144
1.0
145
0.0
146
1.0
147
0.625
 71
1.0
 72
0.0
 73
0
 74
0
 75
0
 76
0
 77
1
 78
8
170
0
171
2
172
0
173
0
174
0
175
0
176
0
177
0
178
0
270
2
271
2
272
2
273
2
274
2
275
0
280
0
281
0
282
0
283
1
284
8
285
0
286
0
287
3
288
0
340
11
278
44
341
21E
342
21E
343
21E
344
21E
  0
DIMSTYLE
105
223
100
AcDbSymbolTableRecord
100
AcDbDimStyleTableRecord
  2
DIMSTYLE_1
 70
0
  3

  4

 40
1.0
 41
3.0
 42
0.5
 43
0.38
 44
1.5
 45
0.0
 46
0.0
 47
0.0
 48
0.0
140
3.0
141
0.09
142
0.0
143
25.4
144
1.0
145
0.0
146
1.0
147
0.75
 71
0.0
 72
0.0
 73
0
 74
0
 75
0
 76
0
 77
1
 78
8
170
0
171
2
172
0
173
0
174
0
175
0
176
0
177
0
178
0
270
2
271
2
272
2
273
2
274
2
275
0
280
0
281
0
282
0
283
1
284
8
285
0
286
0
287
3
288
0
340
11
278
44
341
21E
342
21E
343
21E
344
21E
  0
ENDTAB
  0
ENDSEC
  0
SECTION
  2
BLOCKS
  0
BLOCK
  5
20
100
AcDbEntity
  8
0
100
AcDbBlockBegin
  2
*Model_Space
 70
0
 10
0.0
 20
0.0
 30
0.0
  3
*Model_Space
  1

  0
ENDBLK
  5
21
100
AcDbEntity
  8
0
100
AcDbBlockEnd
  0
BLOCK
  5
1C
100
AcDbEntity
  8
0
100
AcDbBlockBegin
  2
*Paper_Space
 70
0
 10
0.0
 20
0.0
 30
0.0
  3
*Paper_Space
  1

  0
ENDBLK
  5
1D
100
AcDbEntity
  8
0
100
AcDbBlockEnd
  0
BLOCK
  5
224
100
AcDbEntity
  8
0
100
AcDbBlockBegin
  2
_FILLED
 70
64
 10
0.0
 20
0.0
  3
_FILLED
  1

  0
SOLID
  5
225
100
AcDbEntity
  8
0
  6
BYBLOCK
 62
0
100
AcDbTrace
 10
0.0
 20
0.0
 11
-1.0
 21
0.3166666667
 12
-1.0
 22
-0.3166666667
 13
-1.0
 23
-0.3166666667
  0
ENDBLK
  5
226
100
AcDbEntity
  8
0
  6
BYBLOCK
 62
0
100
AcDbBlockEnd
  0
BLOCK
  5
227
100
AcDbEntity
  8
0
100
AcDbBlockBegin
 62
7
  6
CONTINUOUS
  2
*D0
 70
65
 10
0.0
 20
0.0
  3
*D0
  1

  0
MTEXT
  5
228
100
AcDbEntity
  8
0
100
AcDbMText
 62
7
  6
CONTINUOUS
  7
STANDARD
 71
2
 72
1
 10
51.6952992324
 20
-12.4079181877
 30
0.0
 11
0.0
 21
1.0
 31
0.0
 44
0.9
  1
161
 40
3.0
 41
8.6785714286
  0
LINE
  5
229
100
AcDbEntity
  8
0
100
AcDbLine
 62
7
  6
CONTINUOUS
 10
27.6258568432
 20
68.0920818123
 11
56.9452992324
 21
68.0920818123
  0
LINE
  5
22A
100
AcDbEntity
  8
0
100
AcDbLine
 62
7
  6
CONTINUOUS
 10
27.6258568432
 20
-92.9079181877
 11
56.9452992324
 21
-92.9079181877
  0
LINE
  5
22B
100
AcDbEntity
  8
0
100
AcDbLine
 62
7
  6
CONTINUOUS
 10
55.4452992324
 20
68.0920818123
 11
55.4452992324
 21
-12.4079181877
  0
LINE
  5
22C
100
AcDbEntity
  8
0
100
AcDbLine
 62
7
  6
CONTINUOUS
 10
55.4452992324
 20
-92.9079181877
 11
55.4452992324
 21
-12.4079181877
  0
INSERT
  5
22D
100
AcDbEntity
  8
0
100
AcDbBlockReference
 62
7
  6
CONTINUOUS
  2
_FILLED
 10
55.4452992324
 20
68.0920818123
 41
3.0
 42
3.0
 43
3.0
 50
90.0
  0
INSERT
  5
22E
100
AcDbEntity
  8
0
100
AcDbBlockReference
 62
7
  6
CONTINUOUS
  2
_FILLED
 10
55.4452992324
 20
-92.9079181877
 41
3.0
 42
3.0
 43
3.0
 50
270.0
  0
ENDBLK
  5
22F
100
AcDbEntity
  8
0
  6
BYBLOCK
 62
0
100
AcDbBlockEnd
  0
BLOCK
  5
230
100
AcDbEntity
  8
0
100
AcDbBlockBegin
 62
7
  6
CONTINUOUS
  2
*D1
 70
65
 10
0.0
 20
0.0
  3
*D1
  1

  0
MTEXT
  5
231
100
AcDbEntity
  8
0
100
AcDbMText
 62
7
  6
CONTINUOUS
  7
STANDARD
 71
2
 72
1
 10
-7.4741431568
 20
89.212071366
 30
0.0
 11
1.0
 21
0.0
 31
0.0
 44
0.9
  1
99,5
 40
3.0
 41
12.8571428571
  0
LINE
  5
232
100
AcDbEntity
  8
0
100
AcDbLine
 62
7
  6
CONTINUOUS
 10
-57.2241431568
 20
60.5920818123
 11
-57.2241431568
 21
86.962071366
  0
LINE
  5
233
100
AcDbEntity
  8
0
100
AcDbLine
 62
7
  6
CONTINUOUS
 10
42.2758568432
 20
60.5920818123
 11
42.2758568432
 21
86.962071366
  0
LINE
  5
234
100
AcDbEntity
  8
0
100
AcDbLine
 62
7
  6
CONTINUOUS
 10
-57.2241431568
 20
85.462071366
 11
-7.4741431568
 21
85.462071366
  0
LINE
  5
235
100
AcDbEntity
  8
0
100
AcDbLine
 62
7
  6
CONTINUOUS
 10
42.2758568432
 20
85.462071366
 11
-7.4741431568
 21
85.462071366
  0
INSERT
  5
236
100
AcDbEntity
  8
0
100
AcDbBlockReference
 62
7
  6
CONTINUOUS
  2
_FILLED
 10
-57.2241431568
 20
85.462071366
 41
3.0
 42
3.0
 43
3.0
 50
180.0
  0
INSERT
  5
237
100
AcDbEntity
  8
0
100
AcDbBlockReference
 62
7
  6
CONTINUOUS
  2
_FILLED
 10
42.2758568432
 20
85.462071366
 41
3.0
 42
3.0
 43
3.0
 50
0.0
  0
ENDBLK
  5
238
100
AcDbEntity
  8
0
  6
BYBLOCK
 62
0
100
AcDbBlockEnd
  0
BLOCK
  5
239
100
AcDbEntity
  8
0
100
AcDbBlockBegin
 62
7
  6
CONTINUOUS
  2
*D2
 70
65
 10
0.0
 20
0.0
  3
*D2
  1

  0
MTEXT
  5
23A
100
AcDbEntity
  8
0
100
AcDbMText
 62
7
  6
CONTINUOUS
  7
STANDARD
 71
2
 72
1
 10
-161.4535841837
 20
88.56295473
 30
0.0
 11
1.0
 21
0.0
 31
0.0
 44
0.9
  1
40,7
 40
3.0
 41
13.1785714286
  0
LINE
  5
23B
100
AcDbEntity
  8
0
100
AcDbLine
 62
7
  6
CONTINUOUS
 10
-181.8035841837
 20
68.5920818123
 11
-181.8035841837
 21
86.31295473
  0
LINE
  5
23C
100
AcDbEntity
  8
0
100
AcDbLine
 62
7
  6
CONTINUOUS
 10
-141.1035841837
 20
56.3420818123
 11
-141.1035841837
 21
86.31295473
  0
LINE
  5
23D
100
AcDbEntity
  8
0
100
AcDbLine
 62
7
  6
CONTINUOUS
 10
-181.8035841837
 20
84.81295473
 11
-161.4535841837
 21
84.81295473
  0
LINE
  5
23E
100
AcDbEntity
  8
0
100
AcDbLine
 62
7
  6
CONTINUOUS
 10
-141.1035841837
 20
84.81295473
 11
-161.4535841837
 21
84.81295473
  0
INSERT
  5
23F
100
AcDbEntity
  8
0
100
AcDbBlockReference
 62
7
  6
CONTINUOUS
  2
_FILLED
 10
-181.8035841837
 20
84.81295473
 41
3.0
 42
3.0
 43
3.0
 50
180.0
  0
INSERT
  5
240
100
AcDbEntity
  8
0
100
AcDbBlockReference
 62
7
  6
CONTINUOUS
  2
_FILLED
 10
-141.1035841837
 20
84.81295473
 41
3.0
 42
3.0
 43
3.0
  0
ENDBLK
  5
241
100
AcDbEntity
  8
0
  6
BYBLOCK
 62
0
100
AcDbBlockEnd
  0
ENDSEC
  0
SECTION
  2
ENTITIES
  0
DIMENSION
  5
242
100
AcDbEntity
  8
0
100
AcDbDimension
 62
7
  6
CONTINUOUS
  2
*D0
 10
55.4452992324
 20
-92.9079181877
 11
55.4452992324
 21
-12.8364903649
 70
160
 71
2
 42
161.0
  3
DIMSTYLE_1
100
AcDbAlignedDimension
 13
27.1258568432
 23
68.0920818123
 14
27.1258568432
 24
-92.9079181877
 50
270.0
100
AcDbRotatedDimension
  0
DIMENSION
  5
243
100
AcDbEntity
  8
0
100
AcDbDimension
 62
7
  6
CONTINUOUS
  2
*D1
 10
42.2758568432
 20
85.462071366
 11
-7.9027143044
 21
85.462071366
 70
160
 71
2
 42
99.5
  3
DIMSTYLE_1
100
AcDbAlignedDimension
 13
-57.2241431568
 23
60.0920818123
 14
42.2758568432
 24
60.0920818123
100
AcDbRotatedDimension
  0
DIMENSION
  5
244
100
AcDbEntity
  8
0
100
AcDbDimension
 62
7
  6
CONTINUOUS
  2
*D2
 10
-141.1035841837
 20
84.81295473
 11
-161.8821576233
 21
84.81295473
 70
160
 71
2
 42
40.7
  3
DIMSTYLE_1
100
AcDbAlignedDimension
 13
-181.8035841837
 23
68.0920818123
 14
-141.1035841837
 24
55.8420818123
100
AcDbRotatedDimension
  0
LINE
  5
245
100
AcDbEntity
  8
0
100
AcDbLine
 62
7
  6
CONTINUOUS
 10
34.2758568432
 20
-92.9079181877
 11
-49.2241431568
 21
-92.9079181877
  0
LINE
  5
246
100
AcDbEntity
  8
ASSI
100
AcDbLine
 62
7
  6
CONTINUOUS
 10
34.2758568432
 20
-92.9079181877
 11
-49.2241431568
 21
-92.9079181877
  0
LINE
  5
247
100
AcDbEntity
  8
0
100
AcDbLine
 62
7
  6
CONTINUOUS
 10
27.9258568432
 20
-70.1579181877
 11
-42.8741431568
 21
-70.1579181877
  0
LINE
  5
248
100
AcDbEntity
  8
ASSI
100
AcDbLine
 62
7
  6
CONTINUOUS
 10
27.9258568432
 20
-70.1579181877
 11
-42.8741431568
 21
-70.1579181877
  0
LINE
  5
249
100
AcDbEntity
  8
RACCORDO
100
AcDbLine
 62
253
  6
CONTINUOUS
 10
-42.8741431568
 20
-70.0148392824
 11
27.9258568432
 21
-70.0148392824
  0
LINE
  5
24A
100
AcDbEntity
  8
RACCORDO
100
AcDbLine
 62
253
  6
CONTINUOUS
 10
26.0692251276
 20
-66.5009970929
 11
-41.0175114413
 21
-66.5009970929
  0
LINE
  5
24B
100
AcDbEntity
  8
RACCORDO
100
AcDbLine
 62
253
  6
CONTINUOUS
 10
26.0692251276
 20
-66.1010580149
 11
-41.0175114413
 21
-66.1010580149
  0
LINE
  5
24C
100
AcDbEntity
  8
RACCORDO
100
AcDbLine
 62
7
  6
CONTINUOUS
 10
25.9635915215
 20
-65.9953787173
 11
-40.9118778352
 21
-65.9953787173
  0
LWPOLYLINE
  5
24D
100
AcDbEntity
  8
RACCORDO
100
AcDbPolyline
 62
253
  6
CONTINUOUS
 90
27
 70
0
 10
-41.0175114413
 20
-66.5009970929
 10
-41.1145802892
 20
-66.4986676607
 10
-41.2115702249
 20
-66.4911978735
 10
-41.3084812486
 20
-66.4785877313
 10
-41.4057259056
 20
-66.4608213496
 10
-41.5028916504
 20
-66.437914613
 10
-41.5987408467
 20
-66.4099151748
 10
-41.6932328817
 20
-66.3767089368
 10
-41.7864083681
 20
-66.3384099972
 10
-41.8771515082
 20
-66.2954083047
 10
-41.9653794317
 20
-66.247628318
 10
-42.051175009
 20
-66.1951455784
 10
-42.1336710527
 20
-66.1385766585
 10
-42.21270843
 20
-66.0779862115
 10
-42.2884462737
 20
-66.0133095841
 10
-42.360494795
 20
-65.9449693892
 10
-42.4288566779
 20
-65.8729794496
 10
-42.4935292384
 20
-65.7973259424
 10
-42.5541146362
 20
-65.7183900123
 10
-42.6106772299
 20
-65.6360274083
 10
-42.6631526608
 20
-65.5503823815
 10
-42.710950012
 20
-65.4622688298
 10
-42.7540075401
 20
-65.3715932709
 10
-42.7923869885
 20
-65.2784491872
 10
-42.8256826711
 20
-65.1839309237
 10
-42.8537839607
 20
-65.0879908836
 10
-42.8741431568
 20
-65.0019156262
  0
LWPOLYLINE
  5
24E
100
AcDbEntity
  8
RACCORDO
100
AcDbPolyline
 62
253
  6
CONTINUOUS
 90
31
 70
0
 10
-41.0175114413
 20
-66.1010580149
 10
-41.0940026044
 20
-66.0991132542
 10
-41.1707988846
 20
-66.0932192396
 10
-41.2476919465
 20
-66.0833136008
 10
-41.3245541716
 20
-66.0693265559
 10
-41.4010738099
 20
-66.051227117
 10
-41.4767663323
 20
-66.0290693428
 10
-41.551414404
 20
-66.0028773027
 10
-41.6247954078
 20
-65.9726888605
 10
-41.6964428494
 20
-65.9386783942
 10
-41.7661307282
 20
-65.9009624867
 10
-41.8336972143
 20
-65.8596383941
 10
-41.8988122387
 20
-65.8149313375
 10
-41.9612154152
 20
-65.7670735436
 10
-42.0208628348
 20
-65.7161540855
 10
-42.0777574589
 20
-65.662193914
 10
-42.1317423701
 20
-65.6053448936
 10
-42.1826744902
 20
-65.5457608626
 10
-42.2305431584
 20
-65.4834311256
 10
-42.2752555325
 20
-65.4184087637
 10
-42.3165874207
 20
-65.3509467424
 10
-42.3543345428
 20
-65.2813375011
 10
-42.3883997676
 20
-65.20973036
 10
-42.418656655
 20
-65.1363582363
 10
-42.4449291061
 20
-65.0616757143
 10
-42.4671741727
 20
-64.9858984202
 10
-42.4853592264
 20
-64.909247782
 10
-42.4994224911
 20
-64.8322137194
 10
-42.5093890468
 20
-64.7551104212
 10
-42.5153235617
 20
-64.6780646921
 10
-42.517282984
 20
-64.6012864721
  0
LINE
  5
24F
100
AcDbEntity
  8
RACCORDO
100
AcDbLine
 62
253
  6
CONTINUOUS
 10
-40.9118778352
 20
-65.9954244087
 11
-40.9884870784
 21
-65.993472022
  0
LWPOLYLINE
  5
250
100
AcDbEntity
  8
RACCORDO
100
AcDbPolyline
 62
7
  6
CONTINUOUS
 90
30
 70
0
 10
-40.9118778349
 20
-65.9953736654
 10
-41.0022185002
 20
-65.9926512835
 10
-41.0852408054
 20
-65.9853285086
 10
-41.1677209431
 20
-65.9734013847
 10
-41.2494106535
 20
-65.9569127414
 10
-41.3300706292
 20
-65.9359093673
 10
-41.4094566604
 20
-65.9104474693
 10
-41.4873229619
 20
-65.8806109148
 10
-41.5634271462
 20
-65.8464872372
 10
-41.6375319244
 20
-65.8081705712
 10
-41.7094063506
 20
-65.765785502
 10
-41.7788179181
 20
-65.7194666382
 10
-41.8455467786
 20
-65.6693509767
 10
-41.9093911471
 20
-65.6155978918
 10
-41.970147096
 20
-65.5583780574
 10
-42.0276217367
 20
-65.4978631276
 10
-42.0816426314
 20
-65.4342452948
 10
-42.1320382095
 20
-65.367727726
 10
-42.1786482763
 20
-65.2985115565
 10
-42.2213349467
 20
-65.2268160798
 10
-42.2599625978
 20
-65.1528731876
 10
-42.2944057069
 20
-65.0769132953
 10
-42.324569173
 20
-64.9991733248
 10
-42.3503643795
 20
-64.9198952837
 10
-42.3717064493
 20
-64.8393245716
 10
-42.3885381977
 20
-64.7577052075
 10
-42.4008117698
 20
-64.6752764106
 10
-42.4084833254
 20
-64.5922863736
 10
-42.4115387493
 20
-64.5090168163
 10
-42.4115990084
 20
-64.4956528657
  0
LWPOLYLINE
  5
251
100
AcDbEntity
  8
RACCORDO
100
AcDbPolyline
 62
253
  6
CONTINUOUS
 90
14
 70
0
 10
-40.9884870784
 20
-65.993472022
 10
-41.065387883
 20
-65.9875595021
 10
-41.1423712055
 20
-65.9776264199
 10
-41.2193100708
 20
-65.9636047211
 10
-41.2958912174
 20
-65.9454656134
 10
-41.3716266235
 20
-65.9232664496
 10
-41.4462967205
 20
-65.8970349136
 10
-41.5196821065
 20
-65.8668107722
 10
-41.5913212685
 20
-65.8327689838
 10
-41.6609844746
 20
-65.7950305488
 10
-41.7285156824
 20
-65.7536922603
 10
-41.793602426
 20
-65.7089690528
 10
-41.8559874616
 20
-65.6610890698
 10
-41.9156220936
 20
-65.6101429434
  0
LINE
  5
252
100
AcDbEntity
  8
RACCORDO
100
AcDbLine
 62
253
  6
CONTINUOUS
 10
-41.970147096
 20
-65.5583780574
 11
-41.9725125536
 21
-65.5561464822
  0
LINE
  5
253
100
AcDbEntity
  8
RACCORDO
100
AcDbLine
 62
253
  6
CONTINUOUS
 10
-42.0265036113
 20
-65.4992464275
 11
-42.0276217367
 21
-65.4978631276
  0
LWPOLYLINE
  5
254
100
AcDbEntity
  8
RACCORDO
100
AcDbPolyline
 62
253
  6
CONTINUOUS
 90
14
 70
0
 10
-42.0774467118
 20
-65.4395986822
 10
-42.1253239204
 20
-65.3771986608
 10
-42.1700453727
 20
-65.3120932439
 10
-42.211381345
 20
-65.2445411661
 10
-42.2491126951
 20
-65.1748625168
 10
-42.2831426153
 20
-65.1032159167
 10
-42.3133521492
 20
-65.0298296645
 10
-42.3395667575
 20
-64.9551675584
 10
-42.3617476965
 20
-64.8794504596
 10
-42.3798690406
 20
-64.8028970481
 10
-42.3938750504
 20
-64.7259939519
 10
-42.4037956825
 20
-64.6490538244
 10
-42.4096999637
 20
-64.5722038916
 10
-42.4116493779
 20
-64.495652866
  0
LINE
  5
255
100
AcDbEntity
  8
DRAFT
100
AcDbLine
 62
7
  6
CONTINUOUS
 10
-57.2657767766
 20
-80.9899569928
 11
-57.2241431568
 21
-82.1821878723
  0
LINE
  5
256
100
AcDbEntity
  8
0
100
AcDbLine
 62
7
  6
CONTINUOUS
 10
-57.2241431568
 20
-84.9079181877
 11
-57.2241431568
 21
60.0920818123
  0
LINE
  5
257
100
AcDbEntity
  8
ASSI
100
AcDbLine
 62
7
  6
CONTINUOUS
 10
-57.2241431568
 20
-84.9079181877
 11
-57.2241431568
 21
60.0920818123
  0
LINE
  5
258
100
AcDbEntity
  8
0
100
AcDbLine
 62
253
  6
CONTINUOUS
 10
-56.9572366128
 20
-86.9571291583
 11
-56.9572366128
 21
62.1412927829
  0
LINE
  5
259
100
AcDbEntity
  8
ASSI
100
AcDbLine
 62
253
  6
CONTINUOUS
 10
-56.9572366128
 20
-86.9571291583
 11
-56.9572366128
 21
62.1412927829
  0
LINE
  5
25A
100
AcDbEntity
  8
DRAFT
100
AcDbLine
 62
7
  6
CONTINUOUS
 10
-57.2241431568
 20
57.366351497
 11
-57.2657767766
 21
56.1741206175
  0
LINE
  5
25B
100
AcDbEntity
  8
RACCORDO
100
AcDbLine
 62
253
  6
CONTINUOUS
 10
-42.3992218026
 20
33.1224667018
 11
-42.3982716149
 21
33.1323503577
  0
LINE
  5
25C
100
AcDbEntity
  8
RACCORDO
100
AcDbLine
 62
253
  6
CONTINUOUS
 10
-42.3982716149
 20
33.1323503577
 11
-42.3973089977
 21
33.1388583362
  0
LINE
  5
25D
100
AcDbEntity
  8
RACCORDO
100
AcDbLine
 62
253
  6
CONTINUOUS
 10
-42.3973089977
 20
33.1388583362
 11
-42.0956213128
 21
34.6509840407
  0
LINE
  5
25E
100
AcDbEntity
  8
RACCORDO
100
AcDbLine
 62
7
  6
CONTINUOUS
 10
-42.4005538546
 20
33.0927305583
 11
-42.1013769007
 21
34.592271921
  0
LWPOLYLINE
  5
25F
100
AcDbEntity
  8
RACCORDO
100
AcDbPolyline
 62
253
  6
CONTINUOUS
 90
27
 70
0
 10
-42.8741431568
 20
40.1860792772
 10
-42.8537839591
 20
40.2721545071
 10
-42.8256826639
 20
40.3680945461
 10
-42.7923869829
 20
40.4626128104
 10
-42.7540075392
 20
40.5557568958
 10
-42.7109500145
 20
40.6464324557
 10
-42.663152663
 20
40.7345460071
 10
-42.6106772304
 20
40.8201910331
 10
-42.5541146355
 20
40.9025536365
 10
-42.4935292378
 20
40.9814895666
 10
-42.4288566777
 20
41.0571430742
 10
-42.3604947952
 20
41.1291330141
 10
-42.2884462739
 20
41.197473209
 10
-42.2127084301
 20
41.2621498363
 10
-42.1336710527
 20
41.3227402832
 10
-42.0511750088
 20
41.3793092025
 10
-41.9653794312
 20
41.4317919414
 10
-41.8771515075
 20
41.4795719282
 10
-41.7864083682
 20
41.5225736228
 10
-41.6932328828
 20
41.5608725654
 10
-41.5987408483
 20
41.5940788043
 10
-41.5028916512
 20
41.6220782386
 10
-41.405725905
 20
41.6449849691
 10
-41.3084812472
 20
41.6627513472
 10
-41.2115702236
 20
41.6753614898
 10
-41.1145802883
 20
41.6828312799
 10
-41.0175114413
 20
41.6851607176
  0
LINE
  5
260
100
AcDbEntity
  8
ELVOX
100
AcDbLine
 62
253
  6
CONTINUOUS
 10
-1.3550166799
 20
58.5605205038
 11
-1.8854745622
 21
57.8806341227
  0
LINE
  5
261
100
AcDbEntity
  8
RACCORDO
100
AcDbLine
 62
253
  6
CONTINUOUS
 10
-42.8741431568
 20
-64.6012864721
 11
-42.517282984
 21
-64.6012864721
  0
LINE
  5
262
100
AcDbEntity
  8
RACCORDO
100
AcDbLine
 62
253
  6
CONTINUOUS
 10
27.9258568432
 20
-64.6012864721
 11
27.5689966703
 21
-64.6012864718
  0
LINE
  5
263
100
AcDbEntity
  8
RACCORDO
100
AcDbLine
 62
253
  6
CONTINUOUS
 10
-42.4116493779
 20
-64.495652866
 11
-42.4116036865
 21
-64.495652866
  0
LINE
  5
264
100
AcDbEntity
  8
RACCORDO
100
AcDbLine
 62
253
  6
CONTINUOUS
 10
27.4633630642
 20
-64.495652866
 11
27.4633173728
 21
-64.495652866
  0
LINE
  5
265
100
AcDbEntity
  8
0
100
AcDbLine
 62
7
  6
CONTINUOUS
 10
-43.0741431568
 20
68.0920818123
 11
-43.0741431568
 21
-92.9079181877
  0
LINE
  5
266
100
AcDbEntity
  8
ASSI
100
AcDbLine
 62
7
  6
CONTINUOUS
 10
-43.0741431568
 20
68.0920818123
 11
-43.0741431568
 21
-92.9079181877
  0
LINE
  5
267
100
AcDbEntity
  8
0
100
AcDbLine
 62
7
  6
CONTINUOUS
 10
-42.8741431568
 20
45.3420818123
 11
-42.8741431568
 21
-70.1579181877
  0
LINE
  5
268
100
AcDbEntity
  8
ASSI
100
AcDbLine
 62
7
  6
CONTINUOUS
 10
-42.8741431568
 20
45.3420818123
 11
-42.8741431568
 21
-70.1579181877
  0
LINE
  5
269
100
AcDbEntity
  8
RACCORDO
100
AcDbLine
 62
253
  6
CONTINUOUS
 10
-42.517282984
 20
-64.6012864721
 11
-42.517282984
 21
39.7854500968
  0
LINE
  5
26A
100
AcDbEntity
  8
RACCORDO
100
AcDbLine
 62
7
  6
CONTINUOUS
 10
-42.0956213128
 20
39.3640739809
 11
-42.0956213128
 21
34.6498389185
  0
LINE
  5
26B
100
AcDbEntity
  8
0
100
AcDbLine
 62
7
  6
CONTINUOUS
 10
-42.0741431568
 20
68.0920818123
 11
-42.0741431568
 21
45.3420818123
  0
LINE
  5
26C
100
AcDbEntity
  8
ASSI
100
AcDbLine
 62
7
  6
CONTINUOUS
 10
-42.0741431568
 20
68.0920818123
 11
-42.0741431568
 21
45.3420818123
  0
LINE
  5
26D
100
AcDbEntity
  8
0
100
AcDbLine
 62
7
  6
CONTINUOUS
 10
-42.0741431568
 20
-70.1579181877
 11
-42.0741431568
 21
-92.9079181877
  0
LINE
  5
26E
100
AcDbEntity
  8
ASSI
100
AcDbLine
 62
7
  6
CONTINUOUS
 10
-42.0741431568
 20
-70.1579181877
 11
-42.0741431568
 21
-92.9079181877
  0
LINE
  5
26F
100
AcDbEntity
  8
RACCORDO
100
AcDbLine
 62
253
  6
CONTINUOUS
 10
-41.0175114413
 20
41.6851607176
 11
-41.0175114413
 21
41.2852216395
  0
LINE
  5
270
100
AcDbEntity
  8
RACCORDO
100
AcDbLine
 62
253
  6
CONTINUOUS
 10
-41.0175114413
 20
-66.5009970929
 11
-41.017511441
 21
-66.1010580149
  0
LINE
  5
271
100
AcDbEntity
  8
RACCORDO
100
AcDbLine
 62
253
  6
CONTINUOUS
 10
-40.9118778352
 20
-65.9954244087
 11
-40.9118778352
 21
-65.9953787173
  0
LINE
  5
272
100
AcDbEntity
  8
RACCORDO
100
AcDbLine
 62
7
  6
CONTINUOUS
 10
-42.4116036865
 20
-64.495652866
 11
-42.4113118613
 21
32.4146030286
  0
LINE
  5
273
100
AcDbEntity
  8
RACCORDO
100
AcDbLine
 62
253
  6
CONTINUOUS
 10
-42.4113881874
 20
32.4057125053
 11
-42.4113118613
 21
32.4146030286
  0
LINE
  5
274
100
AcDbEntity
  8
RACCORDO
100
AcDbLine
 62
253
  6
CONTINUOUS
 10
-42.4108123504
 20
32.5238696419
 11
-42.4106857216
 21
32.5450028679
  0
LWPOLYLINE
  5
275
100
AcDbEntity
  8
RACCORDO
100
AcDbPolyline
 62
253
  6
CONTINUOUS
 90
3
 70
0
 10
-42.4105498087
 20
32.5658630262
 10
-42.410594558
 20
32.5664955128
 10
-42.4104047526
 20
32.5864393305
  0
LINE
  5
276
100
AcDbEntity
  8
RACCORDO
100
AcDbLine
 62
7
  6
CONTINUOUS
 10
-42.4113118613
 20
32.4146030286
 11
-42.4104047526
 21
32.5864393305
  0
LINE
  5
277
100
AcDbEntity
  8
RACCORDO
100
AcDbLine
 62
253
  6
CONTINUOUS
 10
-42.410250974
 20
32.6067161371
 11
-42.4102139382
 21
32.6180049619
  0
LINE
  5
278
100
AcDbEntity
  8
RACCORDO
100
AcDbLine
 62
253
  6
CONTINUOUS
 10
-42.4100890811
 20
32.6266844315
 11
-42.4099199164
 21
32.6463332547
  0
LINE
  5
279
100
AcDbEntity
  8
RACCORDO
100
AcDbLine
 62
253
  6
CONTINUOUS
 10
-42.4097442629
 20
32.6656450921
 11
-42.4097764352
 21
32.6683443263
  0
LINE
  5
27A
100
AcDbEntity
  8
RACCORDO
100
AcDbLine
 62
7
  6
CONTINUOUS
 10
-42.4104047526
 20
32.5864393305
 11
-42.4089721841
 21
32.7393450805
  0
LINE
  5
27B
100
AcDbEntity
  8
RACCORDO
100
AcDbLine
 62
7
  6
CONTINUOUS
 10
-42.4089721841
 20
32.7393450805
 11
-42.4073893412
 21
32.8534130885
  0
LINE
  5
27C
100
AcDbEntity
  8
RACCORDO
100
AcDbLine
 62
253
  6
CONTINUOUS
 10
-42.4075338288
 20
32.8495766114
 11
-42.4073893412
 21
32.8534130885
  0
LINE
  5
27D
100
AcDbEntity
  8
RACCORDO
100
AcDbLine
 62
253
  6
CONTINUOUS
 10
-42.4068943608
 20
32.8822460419
 11
-42.4068599726
 21
32.8892801119
  0
LINE
  5
27E
100
AcDbEntity
  8
RACCORDO
100
AcDbLine
 62
7
  6
CONTINUOUS
 10
-42.4073893412
 20
32.8534130885
 11
-42.4058617666
 21
32.9347230161
  0
LINE
  5
27F
100
AcDbEntity
  8
RACCORDO
100
AcDbLine
 62
253
  6
CONTINUOUS
 10
-42.4061426223
 20
32.9266438078
 11
-42.4058617666
 21
32.9347230161
  0
LINE
  5
280
100
AcDbEntity
  8
RACCORDO
100
AcDbLine
 62
253
  6
CONTINUOUS
 10
-42.4055980248
 20
32.9467409741
 11
-42.4053872303
 21
32.9613472226
  0
LINE
  5
281
100
AcDbEntity
  8
RACCORDO
100
AcDbLine
 62
7
  6
CONTINUOUS
 10
-42.4058617666
 20
32.9347230161
 11
-42.4047957289
 21
32.9800999202
  0
LWPOLYLINE
  5
282
100
AcDbEntity
  8
RACCORDO
100
AcDbPolyline
 62
253
  6
CONTINUOUS
 90
31
 70
0
 10
-42.517282984
 20
39.7854500968
 10
-42.5153235617
 20
39.8622283168
 10
-42.5093890468
 20
39.9392740459
 10
-42.4994224911
 20
40.0163773441
 10
-42.4853592264
 20
40.0934114066
 10
-42.4671741727
 20
40.1700620448
 10
-42.4449291061
 20
40.245839339
 10
-42.418656655
 20
40.3205218609
 10
-42.3883997676
 20
40.3938939846
 10
-42.3543345428
 20
40.4655011258
 10
-42.3165874207
 20
40.5351103671
 10
-42.2752555325
 20
40.6025723884
 10
-42.2305431584
 20
40.6675947503
 10
-42.1826744902
 20
40.7299244873
 10
-42.1317423701
 20
40.7895085183
 10
-42.0777574589
 20
40.8463575387
 10
-42.0208628348
 20
40.9003177102
 10
-41.9612154152
 20
40.9512371683
 10
-41.8988122387
 20
40.9990949621
 10
-41.8336972143
 20
41.0438020188
 10
-41.7661307282
 20
41.0851261113
 10
-41.6964428494
 20
41.1228420188
 10
-41.6247954078
 20
41.1568524852
 10
-41.551414404
 20
41.1870409273
 10
-41.4767663323
 20
41.2132329675
 10
-41.4010738099
 20
41.2353907417
 10
-41.3245541716
 20
41.2534901806
 10
-41.2476919465
 20
41.2674772255
 10
-41.1707988846
 20
41.2773828642
 10
-41.0940026044
 20
41.2832768788
 10
-41.0175114413
 20
41.2852216395
  0
LWPOLYLINE
  5
283
100
AcDbEntity
  8
RACCORDO
100
AcDbPolyline
 62
7
  6
CONTINUOUS
 90
28
 70
0
 10
-42.0956213128
 20
39.3637884256
 10
-42.0930925163
 20
39.4509775494
 10
-42.0854968906
 20
39.5379040769
 10
-42.0728542499
 20
39.6242735416
 10
-42.0551912281
 20
39.7098367107
 10
-42.0325670832
 20
39.7942574206
 10
-42.0050989097
 20
39.8771203653
 10
-41.9729453302
 20
39.9580372071
 10
-41.93619562
 20
40.036860102
 10
-41.8948716281
 20
40.1135349423
 10
-41.8489966263
 20
40.1879374374
 10
-41.7987845153
 20
40.2596473239
 10
-41.7445713438
 20
40.3281873175
 10
-41.6866972786
 20
40.3931978981
 10
-41.6252592426
 20
40.4546359341
 10
-41.560248662
 20
40.5125099993
 10
-41.4917086684
 20
40.5667231708
 10
-41.4199987819
 20
40.6169352818
 10
-41.3455962868
 20
40.6628102836
 10
-41.2689214465
 20
40.7041342755
 10
-41.1900985516
 20
40.7408839857
 10
-41.1091817098
 20
40.7730375652
 10
-41.0263187651
 20
40.8005057387
 10
-40.9418980552
 20
40.8231298836
 10
-40.8563348861
 20
40.8407929054
 10
-40.7699654214
 20
40.8534355461
 10
-40.6830388939
 20
40.8610311718
 10
-40.5958497701
 20
40.8635599683
  0
LINE
  5
284
100
AcDbEntity
  8
RACCORDO
100
AcDbLine
 62
7
  6
CONTINUOUS
 10
-42.4047957289
 20
32.9800999202
 11
-42.4037101136
 21
33.0183648881
  0
LINE
  5
285
100
AcDbEntity
  8
RACCORDO
100
AcDbLine
 62
253
  6
CONTINUOUS
 10
-42.4029046853
 20
33.0424091577
 11
-42.4028982568
 21
33.0491753046
  0
LINE
  5
286
100
AcDbEntity
  8
RACCORDO
100
AcDbLine
 62
7
  6
CONTINUOUS
 10
-42.4037101136
 20
33.0183648881
 11
-42.4029046853
 21
33.0424091577
  0
LINE
  5
287
100
AcDbEntity
  8
RACCORDO
100
AcDbLine
 62
253
  6
CONTINUOUS
 10
-42.4021231929
 20
33.0623679528
 11
-42.4020079992
 21
33.0723701827
  0
LINE
  5
288
100
AcDbEntity
  8
RACCORDO
100
AcDbLine
 62
7
  6
CONTINUOUS
 10
-42.4029046853
 20
33.0424091577
 11
-42.4021231929
 21
33.0623679528
  0
LWPOLYLINE
  5
289
100
AcDbEntity
  8
RACCORDO
100
AcDbPolyline
 62
253
  6
CONTINUOUS
 90
3
 70
0
 10
-42.3973089977
 20
33.1388583362
 10
-42.3984128211
 20
33.1127859208
 10
-42.4017954813
 20
33.0869123164
  0
LWPOLYLINE
  5
28A
100
AcDbEntity
  8
RACCORDO
100
AcDbPolyline
 62
253
  6
CONTINUOUS
 90
4
 70
0
 10
-42.4013844514
 20
33.0782593816
 10
-42.4010899947
 20
33.0924766143
 10
-42.4001595606
 20
33.1092073686
 10
-42.3992218026
 20
33.1224667018
  0
LWPOLYLINE
  5
28B
100
AcDbEntity
  8
RACCORDO
100
AcDbPolyline
 62
7
  6
CONTINUOUS
 90
4
 70
0
 10
-42.0956213128
 20
34.6498389185
 10
-42.0968054489
 20
34.6239961832
 10
-42.1002374773
 20
34.5983042065
 10
-42.1013767213
 20
34.5922712671
  0
LINE
  5
28C
100
AcDbEntity
  8
RACCORDO
100
AcDbLine
 62
7
  6
CONTINUOUS
 10
-42.4021231929
 20
33.0623679528
 11
-42.4016243412
 21
33.0734093474
  0
LINE
  5
28D
100
AcDbEntity
  8
RACCORDO
100
AcDbLine
 62
7
  6
CONTINUOUS
 10
-42.4016243412
 20
33.0734093474
 11
-42.4011527362
 21
33.0826636559
  0
LWPOLYLINE
  5
28E
100
AcDbEntity
  8
RACCORDO
100
AcDbPolyline
 62
7
  6
CONTINUOUS
 90
5
 70
0
 10
-42.4011527362
 20
33.0826636559
 10
-42.4007288188
 20
33.0899998511
 10
-42.4005397714
 20
33.0929503575
 10
-42.4003760084
 20
33.0953260444
 10
-42.4002852412
 20
33.096562009
  0
LINE
  5
28F
100
AcDbEntity
  8
ELVOX
100
AcDbLine
 62
253
  6
CONTINUOUS
 10
-1.4026259668
 20
57.1238778578
 11
-0.518527441
 21
58.5605205038
  0
LINE
  5
290
100
AcDbEntity
  8
ELVOX
100
AcDbLine
 62
253
  6
CONTINUOUS
 10
-7.7896809527
 20
55.724814491
 11
-6.4795126849
 21
57.8476742093
  0
LINE
  5
291
100
AcDbEntity
  8
ELVOX
100
AcDbLine
 62
253
  6
CONTINUOUS
 10
-6.9105493907
 20
58.5605205038
 11
-7.7735160222
 21
57.1675388476
  0
LINE
  5
292
100
AcDbEntity
  8
ELVOX
100
AcDbLine
 62
253
  6
CONTINUOUS
 10
-2.3329301423
 20
57.1006717541
 11
-3.2185082456
 21
55.706808687
  0
LINE
  5
293
100
AcDbEntity
  8
ELVOX
100
AcDbLine
 62
253
  6
CONTINUOUS
 10
-2.338041373
 20
55.706808687
 11
-1.8517113261
 21
56.3714909437
  0
LINE
  5
294
100
AcDbEntity
  8
DRAFT
100
AcDbLine
 62
7
  6
CONTINUOUS
 10
42.3174904629
 20
56.1741206175
 11
42.2758568432
 21
56.1310077422
  0
LINE
  5
295
100
AcDbEntity
  8
RACCORDO
100
AcDbLine
 62
253
  6
CONTINUOUS
 10
25.6475634564
 20
40.8635599683
 11
26.0692251276
 21
41.2852216395
  0
LINE
  5
296
100
AcDbEntity
  8
RACCORDO
100
AcDbLine
 62
253
  6
CONTINUOUS
 10
27.1473349992
 20
39.3637884256
 11
27.5689966703
 21
39.7854500968
  0
LINE
  5
297
100
AcDbEntity
  8
RACCORDO
100
AcDbLine
 62
253
  6
CONTINUOUS
 10
26.0692251276
 20
-66.1010580149
 11
25.9635915215
 21
-65.9954244087
  0
LINE
  5
298
100
AcDbEntity
  8
RACCORDO
100
AcDbLine
 62
253
  6
CONTINUOUS
 10
27.5689966703
 20
-64.6012864721
 11
27.4633630642
 21
-64.495652866
  0
LINE
  5
299
100
AcDbEntity
  8
DRAFT
100
AcDbLine
 62
7
  6
CONTINUOUS
 10
42.3174904629
 20
-80.9899569928
 11
42.2758568432
 21
-80.9468441175
  0
LINE
  5
29A
100
AcDbEntity
  8
ELVOX
100
AcDbLine
 62
253
  6
CONTINUOUS
 10
-14.4297587214
 20
58.5768333603
 11
-14.4297587214
 21
55.7056274405
  0
LINE
  5
29B
100
AcDbEntity
  8
ELVOX
100
AcDbLine
 62
253
  6
CONTINUOUS
 10
-13.5443563391
 20
56.4056274405
 11
-13.5443563391
 21
56.7693679889
  0
LINE
  5
29C
100
AcDbEntity
  8
ELVOX
100
AcDbLine
 62
253
  6
CONTINUOUS
 10
-13.5443563391
 20
57.515575671
 11
-13.5443563391
 21
57.8807558041
  0
LINE
  5
29D
100
AcDbEntity
  8
ELVOX
100
AcDbLine
 62
253
  6
CONTINUOUS
 10
-12.4832797722
 20
56.7693679889
 11
-12.4832797722
 21
57.515575671
  0
LINE
  5
29E
100
AcDbEntity
  8
ELVOX
100
AcDbLine
 62
253
  6
CONTINUOUS
 10
-11.6702372377
 20
57.8807558041
 11
-11.6702372377
 21
58.5768333603
  0
LINE
  5
29F
100
AcDbEntity
  8
ELVOX
100
AcDbLine
 62
253
  6
CONTINUOUS
 10
-11.3557000199
 20
58.5768333603
 11
-11.3557000199
 21
57.8807558041
  0
LINE
  5
2A0
100
AcDbEntity
  8
ELVOX
100
AcDbLine
 62
253
  6
CONTINUOUS
 10
-11.3391892467
 20
55.7056274405
 11
-11.3391892467
 21
56.4056274405
  0
LINE
  5
2A1
100
AcDbEntity
  8
ELVOX
100
AcDbLine
 62
253
  6
CONTINUOUS
 10
-11.0070563568
 20
57.515575671
 11
-11.0070563568
 21
55.7056274405
  0
LINE
  5
2A2
100
AcDbEntity
  8
ELVOX
100
AcDbLine
 62
253
  6
CONTINUOUS
 10
-10.1616299247
 20
56.4056274405
 11
-10.1616299247
 21
57.515575671
  0
LINE
  5
2A3
100
AcDbEntity
  8
ELVOX
100
AcDbLine
 62
253
  6
CONTINUOUS
 10
-8.5193529069
 20
55.7056274405
 11
-8.5193529069
 21
56.4056274405
  0
LINE
  5
2A4
100
AcDbEntity
  8
ELVOX
100
AcDbLine
 62
253
  6
CONTINUOUS
 10
-6.463696102
 20
57.4810103235
 11
-6.463696102
 21
55.7103456367
  0
LINE
  5
2A5
100
AcDbEntity
  8
ELVOX
100
AcDbLine
 62
253
  6
CONTINUOUS
 10
-5.5856982691
 20
56.5957351764
 11
-5.5834425343
 21
56.8362028413
  0
LINE
  5
2A6
100
AcDbEntity
  8
ASSI
100
AcDbLine
 62
7
  6
CONTINUOUS
 10
26.2445952858
 20
-15.4079181877
 11
26.2258869028
 21
-15.4079181877
  0
LINE
  5
2A7
100
AcDbEntity
  8
DRAFT
100
AcDbLine
 62
7
  6
CONTINUOUS
 10
27.5520910273
 20
-15.4079181877
 11
26.2445952858
 21
-15.4079181877
  0
LINE
  5
2A8
100
AcDbEntity
  8
ELVOX
100
AcDbLine
 62
253
  6
CONTINUOUS
 10
-5.5834425343
 20
56.3552675116
 11
-5.5856982691
 21
56.5957351764
  0
LINE
  5
2A9
100
AcDbEntity
  8
ELVOX
100
AcDbLine
 62
253
  6
CONTINUOUS
 10
-4.4730882594
 20
56.8362028413
 11
-4.4730882594
 21
56.3552675116
  0
LINE
  5
2AA
100
AcDbEntity
  8
ELVOX
100
AcDbLine
 62
253
  6
CONTINUOUS
 10
-3.5924901822
 20
55.7103456367
 11
-3.5924901822
 21
57.4831920396
  0
LINE
  5
2AB
100
AcDbEntity
  8
DRAFT
100
AcDbLine
 62
7
  6
CONTINUOUS
 10
-57.2657767766
 20
-80.9899569928
 11
-57.2241431568
 21
-80.9468441175
  0
LINE
  5
2AC
100
AcDbEntity
  8
RACCORDO
100
AcDbLine
 62
253
  6
CONTINUOUS
 10
-42.517282984
 20
-64.6012864721
 11
-42.4116493779
 21
-64.495652866
  0
LINE
  5
2AD
100
AcDbEntity
  8
RACCORDO
100
AcDbLine
 62
253
  6
CONTINUOUS
 10
-41.0175114413
 20
-66.1010580149
 11
-40.9118778352
 21
-65.9954244087
  0
LINE
  5
2AE
100
AcDbEntity
  8
DRAFT
100
AcDbLine
 62
7
  6
CONTINUOUS
 10
27.5520910273
 20
-9.4079181877
 11
26.2445952858
 21
-9.4079181877
  0
LINE
  5
2AF
100
AcDbEntity
  8
ASSI
100
AcDbLine
 62
7
  6
CONTINUOUS
 10
26.2445952858
 20
-9.4079181877
 11
26.2258869028
 21
-9.4079181877
  0
LINE
  5
2B0
100
AcDbEntity
  8
RACCORDO
100
AcDbLine
 62
253
  6
CONTINUOUS
 10
-42.0956213128
 20
39.3637884256
 11
-42.517282984
 21
39.7854500968
  0
LINE
  5
2B1
100
AcDbEntity
  8
RACCORDO
100
AcDbLine
 62
253
  6
CONTINUOUS
 10
-40.5958497701
 20
40.8635599683
 11
-41.0175114413
 21
41.2852216395
  0
LINE
  5
2B2
100
AcDbEntity
  8
DRAFT
100
AcDbLine
 62
7
  6
CONTINUOUS
 10
-57.2657767766
 20
56.1741206175
 11
-57.2241431568
 21
56.1310077422
  0
LINE
  5
2B3
100
AcDbEntity
  8
RACCORDO
100
AcDbLine
 62
253
  6
CONTINUOUS
 10
27.4633630642
 20
32.1621691118
 11
27.4633173729
 21
32.1635566767
  0
LINE
  5
2B4
100
AcDbEntity
  8
RACCORDO
100
AcDbLine
 62
7
  6
CONTINUOUS
 10
27.4537181332
 20
32.767961784
 11
27.4551236273
 21
32.7240748219
  0
LINE
  5
2B5
100
AcDbEntity
  8
RACCORDO
100
AcDbLine
 62
7
  6
CONTINUOUS
 10
27.4551236273
 20
32.7240748219
 11
27.456501347
 21
32.6686243003
  0
LINE
  5
2B6
100
AcDbEntity
  8
RACCORDO
100
AcDbLine
 62
7
  6
CONTINUOUS
 10
27.5016728172
 20
-4.2579181877
 11
27.4633630642
 21
-2.5431804036
  0
LINE
  5
2B7
100
AcDbEntity
  8
RACCORDO
100
AcDbLine
 62
7
  6
CONTINUOUS
 10
27.456501347
 20
32.6686243003
 11
27.4584956514
 21
32.563290972
  0
LINE
  5
2B8
100
AcDbEntity
  8
RACCORDO
100
AcDbLine
 62
7
  6
CONTINUOUS
 10
27.4584956514
 20
32.563290972
 11
27.4609793324
 21
32.3823814638
  0
LINE
  5
2B9
100
AcDbEntity
  8
RACCORDO
100
AcDbLine
 62
7
  6
CONTINUOUS
 10
27.4609793324
 20
32.3823814638
 11
27.4633630642
 21
32.1621691118
  0
LINE
  5
2BA
100
AcDbEntity
  8
RACCORDO
100
AcDbLine
 62
7
  6
CONTINUOUS
 10
27.4633630642
 20
-22.2726559717
 11
27.4633951694
 21
-22.2767460643
  0
LINE
  5
2BB
100
AcDbEntity
  8
RACCORDO
100
AcDbLine
 62
7
  6
CONTINUOUS
 10
27.4632859912
 20
32.169673986
 11
27.4633176943
 21
32.163540585
  0
LINE
  5
2BC
100
AcDbEntity
  8
RACCORDO
100
AcDbLine
 62
253
  6
CONTINUOUS
 10
25.9635915215
 20
-65.9954244087
 11
25.9635915215
 21
-65.9953787173
  0
LINE
  5
2BD
100
AcDbEntity
  8
RACCORDO
100
AcDbLine
 62
253
  6
CONTINUOUS
 10
26.0692251276
 20
41.6851607176
 11
26.0692251273
 21
41.2852216395
  0
LINE
  5
2BE
100
AcDbEntity
  8
RACCORDO
100
AcDbLine
 62
253
  6
CONTINUOUS
 10
26.0692251276
 20
-66.5009970929
 11
26.0692251276
 21
-66.1010580149
  0
LINE
  5
2BF
100
AcDbEntity
  8
ASSI
100
AcDbLine
 62
7
  6
CONTINUOUS
 10
26.2258568432
 20
-9.4079181877
 11
26.2258568432
 21
-15.4079181877
  0
LINE
  5
2C0
100
AcDbEntity
  8
ASSI
100
AcDbLine
 62
253
  6
CONTINUOUS
 10
26.2445952858
 20
-9.4079181877
 11
26.2445952858
 21
-15.4079181877
  0
LINE
  5
2C1
100
AcDbEntity
  8
0
100
AcDbLine
 62
7
  6
CONTINUOUS
 10
27.1258568432
 20
68.0920818123
 11
27.1258568432
 21
45.3420818123
  0
LINE
  5
2C2
100
AcDbEntity
  8
ASSI
100
AcDbLine
 62
7
  6
CONTINUOUS
 10
27.1258568432
 20
68.0920818123
 11
27.1258568432
 21
45.3420818123
  0
LINE
  5
2C3
100
AcDbEntity
  8
0
100
AcDbLine
 62
7
  6
CONTINUOUS
 10
27.1258568432
 20
-70.1579181877
 11
27.1258568432
 21
-92.9079181877
  0
LINE
  5
2C4
100
AcDbEntity
  8
ASSI
100
AcDbLine
 62
7
  6
CONTINUOUS
 10
27.1258568432
 20
-70.1579181877
 11
27.1258568432
 21
-92.9079181877
  0
LINE
  5
2C5
100
AcDbEntity
  8
RACCORDO
100
AcDbLine
 62
7
  6
CONTINUOUS
 10
27.1473349992
 20
39.3637884256
 11
27.1473349992
 21
34.3493800231
  0
LINE
  5
2C6
100
AcDbEntity
  8
RACCORDO
100
AcDbLine
 62
7
  6
CONTINUOUS
 10
27.4633173728
 20
-22.276746566
 11
27.4633173728
 21
-64.495652866
  0
LINE
  5
2C7
100
AcDbEntity
  8
RACCORDO
100
AcDbLine
 62
7
  6
CONTINUOUS
 10
27.4633173728
 20
-2.5390898094
 11
27.4633173728
 21
32.1635466767
  0
LINE
  5
2C8
100
AcDbEntity
  8
RACCORDO
100
AcDbLine
 62
253
  6
CONTINUOUS
 10
27.4633630642
 20
-22.2726559717
 11
27.4633173728
 21
-22.276746566
  0
LINE
  5
2C9
100
AcDbEntity
  8
RACCORDO
100
AcDbLine
 62
253
  6
CONTINUOUS
 10
27.4633630642
 20
-2.5431804036
 11
27.4633173728
 21
-2.5390898094
  0
LINE
  5
2CA
100
AcDbEntity
  8
DRAFT
100
AcDbLine
 62
7
  6
CONTINUOUS
 10
27.5016728172
 20
-20.5579181877
 11
27.5016728172
 21
-15.4079181877
  0
LINE
  5
2CB
100
AcDbEntity
  8
DRAFT
100
AcDbLine
 62
7
  6
CONTINUOUS
 10
27.5016728172
 20
-9.4079181877
 11
27.5016728172
 21
-4.2579181877
  0
LINE
  5
2CC
100
AcDbEntity
  8
DRAFT
100
AcDbLine
 62
7
  6
CONTINUOUS
 10
27.5520910273
 20
-15.4079181877
 11
27.5520910273
 21
-9.4079181877
  0
LINE
  5
2CD
100
AcDbEntity
  8
RACCORDO
100
AcDbLine
 62
253
  6
CONTINUOUS
 10
27.5689966703
 20
39.7854500968
 11
27.5689966703
 21
-64.6012864721
  0
LINE
  5
2CE
100
AcDbEntity
  8
0
100
AcDbLine
 62
7
  6
CONTINUOUS
 10
27.9258568432
 20
45.3420818123
 11
27.9258568432
 21
-70.1579181877
  0
LINE
  5
2CF
100
AcDbEntity
  8
ASSI
100
AcDbLine
 62
7
  6
CONTINUOUS
 10
27.9258568432
 20
45.3420818123
 11
27.9258568432
 21
-70.1579181877
  0
LINE
  5
2D0
100
AcDbEntity
  8
0
100
AcDbLine
 62
7
  6
CONTINUOUS
 10
28.1258568432
 20
68.0920818123
 11
28.1258568432
 21
-92.9079181877
  0
LINE
  5
2D1
100
AcDbEntity
  8
ASSI
100
AcDbLine
 62
7
  6
CONTINUOUS
 10
28.1258568432
 20
68.0920818123
 11
28.1258568432
 21
-92.9079181877
  0
LINE
  5
2D2
100
AcDbEntity
  8
RACCORDO
100
AcDbLine
 62
7
  6
CONTINUOUS
 10
27.4633951708
 20
-2.5390903111
 11
27.4633630642
 21
-2.5431804036
  0
LINE
  5
2D3
100
AcDbEntity
  8
RACCORDO
100
AcDbLine
 62
7
  6
CONTINUOUS
 10
27.4633630642
 20
-22.2726559717
 11
27.5016728172
 21
-20.5579181877
  0
LINE
  5
2D4
100
AcDbEntity
  8
RACCORDO
100
AcDbLine
 62
253
  6
CONTINUOUS
 10
27.4633630642
 20
-64.495652866
 11
27.4614106775
 21
-64.5722621092
  0
LWPOLYLINE
  5
2D5
100
AcDbEntity
  8
RACCORDO
100
AcDbPolyline
 62
253
  6
CONTINUOUS
 90
31
 70
0
 10
27.5689966703
 20
-64.6012864721
 10
27.5670519097
 20
-64.6777776353
 10
27.5611578951
 20
-64.7545739155
 10
27.5512522563
 20
-64.8314669774
 10
27.5372652114
 20
-64.9083292024
 10
27.5191657725
 20
-64.9848488407
 10
27.4970079983
 20
-65.0605413631
 10
27.4708159582
 20
-65.1351894348
 10
27.440627516
 20
-65.2085704386
 10
27.4066170497
 20
-65.2802178802
 10
27.3689011422
 20
-65.349905759
 10
27.3275770496
 20
-65.4174722452
 10
27.282869993
 20
-65.4825872695
 10
27.2350121991
 20
-65.5449904461
 10
27.184092741
 20
-65.6046378656
 10
27.1301325695
 20
-65.6615324897
 10
27.0732835491
 20
-65.7155174009
 10
27.0136995181
 20
-65.766449521
 10
26.9513697811
 20
-65.8143181892
 10
26.8863474192
 20
-65.8590305633
 10
26.8188853979
 20
-65.9003624515
 10
26.7492761566
 20
-65.9381095736
 10
26.6776690154
 20
-65.9721747984
 10
26.6042968918
 20
-66.0024316858
 10
26.5296143698
 20
-66.0287041369
 10
26.4538370757
 20
-66.0509492035
 10
26.3771864375
 20
-66.0691342572
 10
26.3001523749
 20
-66.0831975219
 10
26.2230490767
 20
-66.0931640776
 10
26.1460033476
 20
-66.0990985925
 10
26.0692251276
 20
-66.1010580149
  0
LWPOLYLINE
  5
2D6
100
AcDbEntity
  8
RACCORDO
100
AcDbPolyline
 62
7
  6
CONTINUOUS
 90
30
 70
0
 10
27.4633123209
 20
-64.4956528657
 10
27.460589939
 20
-64.5859935311
 10
27.4532671641
 20
-64.6690158363
 10
27.4413400402
 20
-64.7514959739
 10
27.4248513969
 20
-64.8331856843
 10
27.4038480228
 20
-64.91384566
 10
27.3783861248
 20
-64.9932316913
 10
27.3485495703
 20
-65.0710979927
 10
27.3144258927
 20
-65.1472021771
 10
27.2761092267
 20
-65.2213069552
 10
27.2337241575
 20
-65.2931813814
 10
27.1874052937
 20
-65.3625929489
 10
27.1372896322
 20
-65.4293218094
 10
27.0835365473
 20
-65.4931661779
 10
27.0263167129
 20
-65.5539221268
 10
26.9658017831
 20
-65.6113967675
 10
26.9021839503
 20
-65.6654176622
 10
26.8356663814
 20
-65.7158132403
 10
26.7664502119
 20
-65.7624233071
 10
26.6947547353
 20
-65.8051099776
 10
26.6208118431
 20
-65.8437376286
 10
26.5448519508
 20
-65.8781807377
 10
26.4671119803
 20
-65.9083442039
 10
26.3878339392
 20
-65.9341394103
 10
26.3072632271
 20
-65.9554814802
 10
26.225643863
 20
-65.9723132285
 10
26.1432150661
 20
-65.9845868007
 10
26.0602250291
 20
-65.9922583562
 10
25.9769554718
 20
-65.9953137802
 10
25.9635915212
 20
-65.9953740392
  0
LWPOLYLINE
  5
2D7
100
AcDbEntity
  8
RACCORDO
100
AcDbPolyline
 62
253
  6
CONTINUOUS
 90
14
 70
0
 10
27.4614106775
 20
-64.5722621092
 10
27.4554981576
 20
-64.6491629139
 10
27.4455650754
 20
-64.7261462364
 10
27.4315433766
 20
-64.8030851017
 10
27.4134042689
 20
-64.8796662483
 10
27.3912051051
 20
-64.9554016543
 10
27.3649735691
 20
-65.0300717513
 10
27.3347494277
 20
-65.1034571374
 10
27.3007076393
 20
-65.1750962993
 10
27.2629692043
 20
-65.2447595055
 10
27.2216309158
 20
-65.3122907132
 10
27.1769077083
 20
-65.3773774568
 10
27.1290277253
 20
-65.4397624924
 10
27.0780815989
 20
-65.4993971245
  0
LINE
  5
2D8
100
AcDbEntity
  8
ELVOX
100
AcDbLine
 62
253
  6
CONTINUOUS
 10
-0.5185276109
 20
55.706808687
 11
-1.4026259668
 21
57.1238778578
  0
LINE
  5
2D9
100
AcDbEntity
  8
ELVOX
100
AcDbLine
 62
253
  6
CONTINUOUS
 10
-3.2186700315
 20
58.5605205038
 11
-2.3329301423
 21
57.1006717541
  0
LINE
  5
2DA
100
AcDbEntity
  8
ELVOX
100
AcDbLine
 62
253
  6
CONTINUOUS
 10
-3.4716655719
 20
58.3858474029
 11
-3.57688965
 21
58.5605205038
  0
LINE
  5
2DB
100
AcDbEntity
  8
ELVOX
100
AcDbLine
 62
253
  6
CONTINUOUS
 10
-7.7735160222
 20
57.1675388476
 11
-8.5854163759
 21
58.5768333603
  0
LINE
  5
2DC
100
AcDbEntity
  8
ELVOX
100
AcDbLine
 62
253
  6
CONTINUOUS
 10
-3.3701115315
 20
58.2085932254
 11
-3.4716655719
 21
58.3858474029
  0
LINE
  5
2DD
100
AcDbEntity
  8
ELVOX
100
AcDbLine
 62
253
  6
CONTINUOUS
 10
-9.0171691227
 20
57.8807558041
 11
-7.7896809527
 21
55.724814491
  0
LINE
  5
2DE
100
AcDbEntity
  8
ELVOX
100
AcDbLine
 62
253
  6
CONTINUOUS
 10
-3.2724656088
 20
58.029156397
 11
-3.3701115315
 21
58.2085932254
  0
LINE
  5
2DF
100
AcDbEntity
  8
ELVOX
100
AcDbLine
 62
253
  6
CONTINUOUS
 10
-3.1788004436
 20
57.8476742093
 11
-3.2724656088
 21
58.029156397
  0
LWPOLYLINE
  5
2E0
100
AcDbEntity
  8
RACCORDO
100
AcDbPolyline
 62
7
  6
CONTINUOUS
 90
7
 70
0
 10
27.4494610921
 20
32.8350569202
 10
27.4501682332
 20
32.8303901758
 10
27.4508763206
 20
32.8231171201
 10
27.4515853543
 20
32.8132377531
 10
27.4522969236
 20
32.8008038864
 10
27.4530094392
 20
32.7857637083
 10
27.4537181332
 20
32.767961784
  0
LINE
  5
2E1
100
AcDbEntity
  8
DRAFT
100
AcDbLine
 62
7
  6
CONTINUOUS
 10
42.3174904629
 20
56.1741206175
 11
42.2758568432
 21
57.366351497
  0
LINE
  5
2E2
100
AcDbEntity
  8
0
100
AcDbLine
 62
253
  6
CONTINUOUS
 10
42.0089502991
 20
-86.9571291583
 11
42.0089502991
 21
62.1412927829
  0
LINE
  5
2E3
100
AcDbEntity
  8
ASSI
100
AcDbLine
 62
253
  6
CONTINUOUS
 10
42.0089502991
 20
-86.9571291583
 11
42.0089502991
 21
62.1412927829
  0
LINE
  5
2E4
100
AcDbEntity
  8
0
100
AcDbLine
 62
7
  6
CONTINUOUS
 10
42.2758568432
 20
-84.9079181877
 11
42.2758568432
 21
60.0920818123
  0
LINE
  5
2E5
100
AcDbEntity
  8
ASSI
100
AcDbLine
 62
7
  6
CONTINUOUS
 10
42.2758568432
 20
-84.9079181877
 11
42.2758568432
 21
60.0920818123
  0
LINE
  5
2E6
100
AcDbEntity
  8
DRAFT
100
AcDbLine
 62
7
  6
CONTINUOUS
 10
42.2758568432
 20
-82.1821878723
 11
42.3174904629
 21
-80.9899569928
  0
LWPOLYLINE
  5
2E7
100
AcDbEntity
  8
RACCORDO
100
AcDbPolyline
 62
253
  6
CONTINUOUS
 90
27
 70
0
 10
27.9258568432
 20
-65.0018155624
 10
27.9058532685
 20
-65.0866666812
 10
27.8778538303
 20
-65.1825158776
 10
27.8446475923
 20
-65.2770079125
 10
27.8063486527
 20
-65.3701833989
 10
27.7633469602
 20
-65.460926539
 10
27.7155669735
 20
-65.5491544626
 10
27.6630842339
 20
-65.6349500398
 10
27.606515314
 20
-65.7174460835
 10
27.545924867
 20
-65.7964834608
 10
27.4812482396
 20
-65.8722213045
 10
27.4129080447
 20
-65.9442698258
 10
27.340918105
 20
-66.0126317087
 10
27.2652645979
 20
-66.0773042693
 10
27.1863286678
 20
-66.137889667
 10
27.1039660638
 20
-66.1944522607
 10
27.018321037
 20
-66.2469276916
 10
26.9302074853
 20
-66.2947250428
 10
26.8395319264
 20
-66.3377825709
 10
26.7463878427
 20
-66.3761620194
 10
26.6518695792
 20
-66.4094577019
 10
26.5559295391
 20
-66.4375589916
 10
26.4586153193
 20
-66.4605765153
 10
26.3611640547
 20
-66.4784364679
 10
26.2639881237
 20
-66.4911142475
 10
26.166675148
 20
-66.4986344558
 10
26.0692251276
 20
-66.5009970929
  0
LINE
  5
2E8
100
AcDbEntity
  8
RACCORDO
100
AcDbLine
 62
253
  6
CONTINUOUS
 10
-42.4116493779
 20
32.2422831079
 11
-42.4116036865
 21
32.2422831079
  0
LINE
  5
2E9
100
AcDbEntity
  8
RACCORDO
100
AcDbLine
 62
7
  6
CONTINUOUS
 10
27.1473349992
 20
34.3493800231
 11
4.6368701872
 21
34.3493800231
  0
LINE
  5
2EA
100
AcDbEntity
  8
RACCORDO
100
AcDbLine
 62
253
  6
CONTINUOUS
 10
-42.8741431568
 20
39.7854500967
 11
-42.517282984
 21
39.7854500966
  0
LINE
  5
2EB
100
AcDbEntity
  8
RACCORDO
100
AcDbLine
 62
253
  6
CONTINUOUS
 10
27.9258568432
 20
39.7854500968
 11
27.5689966703
 21
39.7854500968
  0
LINE
  5
2EC
100
AcDbEntity
  8
RACCORDO
100
AcDbLine
 62
7
  6
CONTINUOUS
 10
25.6475634564
 20
40.8635599683
 11
-40.5961353254
 21
40.8635599683
  0
LINE
  5
2ED
100
AcDbEntity
  8
RACCORDO
100
AcDbLine
 62
253
  6
CONTINUOUS
 10
-41.0175114413
 20
41.2852216395
 11
26.0692251276
 21
41.2852216395
  0
LINE
  5
2EE
100
AcDbEntity
  8
RACCORDO
100
AcDbLine
 62
253
  6
CONTINUOUS
 10
-41.0175114413
 20
41.6851607176
 11
26.0692251276
 21
41.6851607176
  0
LWPOLYLINE
  5
2EF
100
AcDbEntity
  8
RACCORDO
100
AcDbPolyline
 62
253
  6
CONTINUOUS
 90
27
 70
0
 10
26.0692251276
 20
41.6851607176
 10
26.1662939755
 20
41.6828312854
 10
26.2632839113
 20
41.6753614982
 10
26.3601949349
 20
41.662751356
 10
26.4574395919
 20
41.6449849743
 10
26.5546053367
 20
41.6220782377
 10
26.650454533
 20
41.5940787995
 10
26.744946568
 20
41.5608725614
 10
26.8381220544
 20
41.5225736218
 10
26.9288651945
 20
41.4795719294
 10
27.0170931181
 20
41.4317919427
 10
27.1028886953
 20
41.3793092031
 10
27.185384739
 20
41.3227402831
 10
27.2644221163
 20
41.2621498361
 10
27.34015996
 20
41.1974732088
 10
27.4122084813
 20
41.1291330139
 10
27.4805703642
 20
41.0571430742
 10
27.5452429248
 20
40.981489567
 10
27.6058283225
 20
40.902553637
 10
27.6623909162
 20
40.820191033
 10
27.7148663471
 20
40.7345460062
 10
27.7626636983
 20
40.6464324545
 10
27.8057212264
 20
40.5557568956
 10
27.8441006749
 20
40.4626128119
 10
27.8773963574
 20
40.3680945484
 10
27.9054976471
 20
40.2721545083
 10
27.9258568432
 20
40.1860792509
  0
LWPOLYLINE
  5
2F0
100
AcDbEntity
  8
RACCORDO
100
AcDbPolyline
 62
253
  6
CONTINUOUS
 90
31
 70
0
 10
26.0692251276
 20
41.2852216395
 10
26.1457162908
 20
41.2832768788
 10
26.222512571
 20
41.2773828642
 10
26.2994056329
 20
41.2674772255
 10
26.3762678579
 20
41.2534901806
 10
26.4527874962
 20
41.2353907417
 10
26.5284800186
 20
41.2132329675
 10
26.6031280903
 20
41.1870409273
 10
26.6765090941
 20
41.1568524852
 10
26.7481565357
 20
41.1228420188
 10
26.8178444145
 20
41.0851261113
 10
26.8854109007
 20
41.0438020188
 10
26.950525925
 20
40.9990949621
 10
27.0129291016
 20
40.9512371683
 10
27.0725765211
 20
40.9003177102
 10
27.1294711452
 20
40.8463575387
 10
27.1834560564
 20
40.7895085183
 10
27.2343881765
 20
40.7299244873
 10
27.2822568447
 20
40.6675947503
 10
27.3269692188
 20
40.6025723884
 10
27.368301107
 20
40.5351103671
 10
27.4060482291
 20
40.4655011258
 10
27.4401134539
 20
40.3938939846
 10
27.4703703413
 20
40.3205218609
 10
27.4966427924
 20
40.245839339
 10
27.518887859
 20
40.1700620448
 10
27.5370729127
 20
40.0934114066
 10
27.5511361774
 20
40.0163773441
 10
27.5611027331
 20
39.9392740459
 10
27.567037248
 20
39.8622283168
 10
27.5689966703
 20
39.7854500968
  0
LINE
  5
2F1
100
AcDbEntity
  8
RACCORDO
100
AcDbLine
 62
7
  6
CONTINUOUS
 10
4.3828436987
 20
34.417579746
 11
-6.7819215509
 21
40.8635599683
  0
LINE
  5
2F2
100
AcDbEntity
  8
ELVOX
100
AcDbLine
 62
253
  6
CONTINUOUS
 10
-1.8854745622
 20
57.8806341227
 11
-2.3494495313
 21
58.5605205038
  0
LINE
  5
2F3
100
AcDbEntity
  8
ELVOX
100
AcDbLine
 62
253
  6
CONTINUOUS
 10
-1.8517113261
 20
56.3714909437
 11
-1.3988100374
 21
55.706808687
  0
LINE
  5
2F4
100
AcDbEntity
  8
RACCORDO
100
AcDbLine
 62
7
  6
CONTINUOUS
 10
27.1473349992
 20
34.3493800231
 11
27.4494610919
 21
32.8350569202
  0
LINE
  5
2F5
100
AcDbEntity
  8
RACCORDO
100
AcDbLine
 62
253
  6
CONTINUOUS
 10
27.0263167129
 20
-65.5539221268
 11
27.0240851377
 21
-65.5562875844
  0
LINE
  5
2F6
100
AcDbEntity
  8
RACCORDO
100
AcDbLine
 62
253
  6
CONTINUOUS
 10
26.967185083
 20
-65.6102786421
 11
26.9658017831
 21
-65.6113967675
  0
LWPOLYLINE
  5
2F7
100
AcDbEntity
  8
RACCORDO
100
AcDbPolyline
 62
253
  6
CONTINUOUS
 90
14
 70
0
 10
26.9075373377
 20
-65.6612217426
 10
26.8451373163
 20
-65.7090989512
 10
26.7800318994
 20
-65.7538204036
 10
26.7124798216
 20
-65.7951563758
 10
26.6428011723
 20
-65.8328877259
 10
26.5711545722
 20
-65.8669176461
 10
26.49776832
 20
-65.89712718
 10
26.4231062139
 20
-65.9233417883
 10
26.3473891151
 20
-65.9455227274
 10
26.2708357036
 20
-65.9636440715
 10
26.1939326074
 20
-65.9776500812
 10
26.1169924799
 20
-65.9875707133
 10
26.0401425471
 20
-65.9934749945
 10
25.9635915215
 20
-65.9954244087
  0
LINE
  5
2F8
100
AcDbEntity
  8
RACCORDO
100
AcDbLine
 62
253
  6
CONTINUOUS
 10
-42.8741431568
 20
45.1455423597
 11
27.9258568432
 21
45.1455423597
  0
LINE
  5
2F9
100
AcDbEntity
  8
0
100
AcDbLine
 62
7
  6
CONTINUOUS
 10
27.9258568432
 20
45.3420818123
 11
-42.8741431568
 21
45.3420818123
  0
LINE
  5
2FA
100
AcDbEntity
  8
ASSI
100
AcDbLine
 62
7
  6
CONTINUOUS
 10
27.9258568432
 20
45.3420818123
 11
-42.8741431568
 21
45.3420818123
  0
LINE
  5
2FB
100
AcDbEntity
  8
ELVOX
100
AcDbLine
 62
253
  6
CONTINUOUS
 10
-14.4297587214
 20
55.7056274405
 11
-11.3391893253
 21
55.7056274405
  0
LINE
  5
2FC
100
AcDbEntity
  8
ELVOX
100
AcDbLine
 62
253
  6
CONTINUOUS
 10
-11.0070563568
 20
55.7056274405
 11
-8.5193530021
 21
55.7056274405
  0
LINE
  5
2FD
100
AcDbEntity
  8
ELVOX
100
AcDbLine
 62
253
  6
CONTINUOUS
 10
-3.2185082456
 20
55.706808687
 11
-2.3380413566
 21
55.706808687
  0
LINE
  5
2FE
100
AcDbEntity
  8
ELVOX
100
AcDbLine
 62
253
  6
CONTINUOUS
 10
-1.3988100374
 20
55.706808687
 11
-0.518527611
 21
55.706808687
  0
LINE
  5
2FF
100
AcDbEntity
  8
ELVOX
100
AcDbLine
 62
253
  6
CONTINUOUS
 10
-6.463696102
 20
55.7103456367
 11
-3.592490106
 21
55.7103456367
  0
LINE
  5
300
100
AcDbEntity
  8
ELVOX
100
AcDbLine
 62
253
  6
CONTINUOUS
 10
-4.4730882594
 20
56.3552675116
 11
-5.5834424813
 21
56.3552675116
  0
LINE
  5
301
100
AcDbEntity
  8
ELVOX
100
AcDbLine
 62
253
  6
CONTINUOUS
 10
-8.5193529069
 20
56.4056274405
 11
-10.1616298821
 21
56.4056274405
  0
LINE
  5
302
100
AcDbEntity
  8
ELVOX
100
AcDbLine
 62
253
  6
CONTINUOUS
 10
-11.3391892467
 20
56.4056274405
 11
-13.5443562435
 21
56.4056274405
  0
LINE
  5
303
100
AcDbEntity
  8
ELVOX
100
AcDbLine
 62
253
  6
CONTINUOUS
 10
-13.5443563391
 20
56.7693679889
 11
-12.4832798127
 21
56.7693679889
  0
LINE
  5
304
100
AcDbEntity
  8
ELVOX
100
AcDbLine
 62
253
  6
CONTINUOUS
 10
-5.5834425343
 20
56.8362028413
 11
-4.4730883125
 21
56.8362028413
  0
LINE
  5
305
100
AcDbEntity
  8
ELVOX
100
AcDbLine
 62
253
  6
CONTINUOUS
 10
-3.5924901822
 20
57.4821011888
 11
-6.4636961782
 21
57.4821011888
  0
LINE
  5
306
100
AcDbEntity
  8
ELVOX
100
AcDbLine
 62
253
  6
CONTINUOUS
 10
-10.1616299247
 20
57.515575671
 11
-11.0070563606
 21
57.515575671
  0
LINE
  5
307
100
AcDbEntity
  8
ELVOX
100
AcDbLine
 62
253
  6
CONTINUOUS
 10
-12.4832797722
 20
57.515575671
 11
-13.5443562986
 21
57.515575671
  0
LINE
  5
308
100
AcDbEntity
  8
ELVOX
100
AcDbLine
 62
253
  6
CONTINUOUS
 10
-6.4795126849
 20
57.8476742093
 11
-3.1788003578
 21
57.8476742093
  0
LINE
  5
309
100
AcDbEntity
  8
ELVOX
100
AcDbLine
 62
253
  6
CONTINUOUS
 10
-13.5443563391
 20
57.8807558041
 11
-11.6702372463
 21
57.8807558041
  0
LINE
  5
30A
100
AcDbEntity
  8
ELVOX
100
AcDbLine
 62
253
  6
CONTINUOUS
 10
-11.3557000199
 20
57.8807558041
 11
-9.017169164
 21
57.8807558041
  0
LINE
  5
30B
100
AcDbEntity
  8
ELVOX
100
AcDbLine
 62
253
  6
CONTINUOUS
 10
-0.518527441
 20
58.5605205038
 11
-1.3550167045
 21
58.5605205038
  0
LINE
  5
30C
100
AcDbEntity
  8
ELVOX
100
AcDbLine
 62
253
  6
CONTINUOUS
 10
-2.3494495313
 20
58.5605205038
 11
-3.2186700482
 21
58.5605205038
  0
LINE
  5
30D
100
AcDbEntity
  8
ELVOX
100
AcDbLine
 62
253
  6
CONTINUOUS
 10
-3.57688965
 20
58.5605205038
 11
-6.9105493444
 21
58.5605205038
  0
LINE
  5
30E
100
AcDbEntity
  8
ELVOX
100
AcDbLine
 62
253
  6
CONTINUOUS
 10
-8.5854163759
 20
58.5768333603
 11
-11.3557000667
 21
58.5768333603
  0
LINE
  5
30F
100
AcDbEntity
  8
ELVOX
100
AcDbLine
 62
253
  6
CONTINUOUS
 10
-11.6702372377
 20
58.5768333603
 11
-14.4297587297
 21
58.5768333603
  0
LINE
  5
310
100
AcDbEntity
  8
0
100
AcDbLine
 62
7
  6
CONTINUOUS
 10
34.2758568432
 20
68.0920818123
 11
-49.2241431568
 21
68.0920818123
  0
LINE
  5
311
100
AcDbEntity
  8
ASSI
100
AcDbLine
 62
7
  6
CONTINUOUS
 10
34.2758568432
 20
68.0920818123
 11
-49.2241431568
 21
68.0920818123
  0
LWPOLYLINE
  5
312
100
AcDbEntity
  8
0
100
AcDbPolyline
 62
7
  6
CONTINUOUS
 90
37
 70
0
 10
-177.3745450834
 20
-92.9079181877
 10
-177.2955721553
 20
-92.9031207356
 10
-177.2140670372
 20
-92.8883776895
 10
-177.1300228658
 20
-92.8636890494
 10
-177.0433256888
 20
-92.829085046
 10
-176.9540705303
 20
-92.7845354486
 10
-176.8625906579
 20
-92.7299495651
 10
-176.7688850373
 20
-92.66527039
 10
-176.6729941809
 20
-92.5905549287
 10
-176.5753708484
 20
-92.505883506
 10
-176.4760444708
 20
-92.4111731061
 10
-176.3750858016
 20
-92.3065067447
 10
-176.2730739473
 20
-92.1922137938
 10
-176.1700775303
 20
-92.0681901026
 10
-176.0661921935
 20
-91.9345398218
 10
-175.9621052801
 20
-91.7919047758
 10
-175.8579314561
 20
-91.6401750033
 10
-175.7537805889
 20
-91.4794604655
 10
-175.6503973902
 20
-91.3107328702
 10
-175.5479426987
 20
-91.1339002954
 10
-175.446527227
 20
-90.949054663
 10
-175.3468743197
 20
-90.7574434462
 10
-175.2491801238
 20
-90.559016458
 10
-175.1535451701
 20
-90.3538238853
 10
-175.0605864512
 20
-90.1432637621
 10
-174.9705139432
 20
-89.9273396651
 10
-174.8834135056
 20
-89.7060480176
 10
-174.7997343384
 20
-89.4807761223
 10
-174.7196734723
 20
-89.2515702489
 10
-174.6433052824
 20
-89.0183841278
 10
-174.5708974157
 20
-88.7824662533
 10
-174.5026184526
 20
-88.5439048317
 10
-174.4385308786
 20
-88.3026116567
 10
-174.3787349531
 20
-88.0595706034
 10
-174.3233248804
 20
-87.8151096299
 10
-174.2723889474
 20
-87.5689007781
 10
-174.2260067524
 20
-87.3209440479
  0
LWPOLYLINE
  5
313
100
AcDbEntity
  8
ASSI
100
AcDbPolyline
 62
7
  6
CONTINUOUS
 90
37
 70
0
 10
-177.3745450834
 20
-92.9079181877
 10
-177.2955721553
 20
-92.9031207356
 10
-177.2140670372
 20
-92.8883776895
 10
-177.1300228658
 20
-92.8636890494
 10
-177.0433256888
 20
-92.829085046
 10
-176.9540705303
 20
-92.7845354486
 10
-176.8625906579
 20
-92.7299495651
 10
-176.7688850373
 20
-92.66527039
 10
-176.6729941809
 20
-92.5905549287
 10
-176.5753708484
 20
-92.505883506
 10
-176.4760444708
 20
-92.4111731061
 10
-176.3750858016
 20
-92.3065067447
 10
-176.2730739473
 20
-92.1922137938
 10
-176.1700775303
 20
-92.0681901026
 10
-176.0661921935
 20
-91.9345398218
 10
-175.9621052801
 20
-91.7919047758
 10
-175.8579314561
 20
-91.6401750033
 10
-175.7537805889
 20
-91.4794604655
 10
-175.6503973902
 20
-91.3107328702
 10
-175.5479426987
 20
-91.1339002954
 10
-175.446527227
 20
-90.949054663
 10
-175.3468743197
 20
-90.7574434462
 10
-175.2491801238
 20
-90.559016458
 10
-175.1535451701
 20
-90.3538238853
 10
-175.0605864512
 20
-90.1432637621
 10
-174.9705139432
 20
-89.9273396651
 10
-174.8834135056
 20
-89.7060480176
 10
-174.7997343384
 20
-89.4807761223
 10
-174.7196734723
 20
-89.2515702489
 10
-174.6433052824
 20
-89.0183841278
 10
-174.5708974157
 20
-88.7824662533
 10
-174.5026184526
 20
-88.5439048317
 10
-174.4385308786
 20
-88.3026116567
 10
-174.3787349531
 20
-88.0595706034
 10
-174.3233248804
 20
-87.8151096299
 10
-174.2723889474
 20
-87.5689007781
 10
-174.2260067524
 20
-87.3209440479
  0
LWPOLYLINE
  5
314
100
AcDbEntity
  8
RACCORDO
100
AcDbPolyline
 62
253
  6
CONTINUOUS
 90
46
 70
0
 10
-175.8162509678
 20
-92.6680565687
 10
-175.7388884276
 20
-92.6646448231
 10
-175.6592613956
 20
-92.6517022922
 10
-175.577369872
 20
-92.6291684424
 10
-175.4930920376
 20
-92.5969924465
 10
-175.4065497115
 20
-92.5551373361
 10
-175.3181083507
 20
-92.5035905762
 10
-175.2277172371
 20
-92.4423435337
 10
-175.1354270887
 20
-92.3714097867
 10
-175.0417555162
 20
-92.2908559731
 10
-174.9466590209
 20
-92.2007324255
 10
-174.8501811016
 20
-92.1011069914
 10
-174.7529698649
 20
-91.9921296888
 10
-174.6549831584
 20
-91.8739019066
 10
-174.5562631346
 20
-91.7465562144
 10
-174.4575843578
 20
-91.6103548513
 10
-174.3588828224
 20
-91.4654064717
 10
-174.260222534
 20
-91.3119548807
 10
-174.1625700733
 20
-91.1505670619
 10
-174.0659476142
 20
-90.9815440243
 10
-173.9703329828
 20
-90.8051220739
 10
-173.8766262382
 20
-90.6218798534
 10
-173.7848500991
 20
-90.4321365263
 10
-173.6949818468
 20
-90.2362166493
 10
-173.6078533845
 20
-90.0347862341
 10
-173.5235149788
 20
-89.8282234447
 10
-173.4419163631
 20
-89.6168714743
 10
-173.3637386405
 20
-89.4014036153
 10
-173.2890807682
 20
-89.1823585401
 10
-173.217843789
 20
-88.959956324
 10
-173.150411935
 20
-88.7344008607
 10
-173.0868251492
 20
-88.5060718546
 10
-173.0270434885
 20
-88.2752867489
 10
-172.9713313553
 20
-88.0421255198
 10
-172.919701269
 20
-87.8067897446
 10
-172.8721407101
 20
-87.5697117049
 10
-172.8288765234
 20
-87.3313011552
 10
-172.7899582233
 20
-87.0918368725
 10
-172.7553362952
 20
-86.8516470879
 10
-172.7250890398
 20
-86.6112140825
 10
-172.6992724772
 20
-86.3708441419
 10
-172.6778305872
 20
-86.1307996101
 10
-172.6606736098
 20
-85.8914903121
 10
-172.647771625
 20
-85.6532248689
 10
-172.6391545527
 20
-85.4162082246
 10
-172.6348223931
 20
-85.1806811518
  0
LWPOLYLINE
  5
315
100
AcDbEntity
  8
RACCORDO
100
AcDbPolyline
 62
253
  6
CONTINUOUS
 90
46
 70
0
 10
-176.099051333
 20
-92.3707202208
 10
-176.021003504
 20
-92.367580825
 10
-175.9406742566
 20
-92.3551813871
 10
-175.8580560489
 20
-92.333521907
 10
-175.7730233029
 20
-92.3026193328
 10
-175.6856809389
 20
-92.2624567165
 10
-175.5963946847
 20
-92.2129832142
 10
-175.5051741333
 20
-92.1541408612
 10
-175.4120497032
 20
-92.0859876222
 10
-175.3174748911
 20
-92.0086465465
 10
-175.2214925939
 20
-91.9220542499
 10
-175.1241574342
 20
-91.8262741166
 10
-175.025998802
 20
-91.7216193496
 10
-174.9270867396
 20
-91.6080154258
 10
-174.8275034063
 20
-91.4855368683
 10
-174.7278540401
 20
-91.354720449
 10
-174.6282102194
 20
-91.2154207897
 10
-174.5287011222
 20
-91.0677832686
 10
-174.4300776039
 20
-90.9127807932
 10
-174.3325159345
 20
-90.7503641231
 10
-174.2360910386
 20
-90.5805824987
 10
-174.1414524805
 20
-90.4045565487
 10
-174.0487730282
 20
-90.2222283113
 10
-173.9581508434
 20
-90.0336557482
 10
-173.8701565158
 20
-89.8401333728
 10
-173.7849787204
 20
-89.6416414612
 10
-173.702699629
 20
-89.4381997373
 10
-173.6237477079
 20
-89.2311618861
 10
-173.5483386221
 20
-89.0206817325
 10
-173.4765076234
 20
-88.8066054516
 10
-173.4084133195
 20
-88.589825254
 10
-173.3441841246
 20
-88.3703988355
 10
-173.2839012981
 20
-88.1482685004
 10
-173.2276433516
 20
-87.9241533716
 10
-173.1754894752
 20
-87.6979621163
 10
-173.127527701
 20
-87.4697860672
 10
-173.0838396651
 20
-87.2406183458
 10
-173.0445220515
 20
-87.010446847
 10
-173.0096056703
 20
-86.7792836758
 10
-172.9790627173
 20
-86.5481582684
 10
-172.9529754285
 20
-86.317096247
 10
-172.9313478811
 20
-86.0860719893
 10
-172.9140232601
 20
-85.8560380646
 10
-172.9009642977
 20
-85.6273119961
 10
-172.8922547658
 20
-85.3995762606
 10
-172.8879093073
 20
-85.1728308581
  0
LWPOLYLINE
  5
316
100
AcDbEntity
  8
RACCORDO
100
AcDbPolyline
 62
253
  6
CONTINUOUS
 90
64
 70
0
 10
-176.1480704562
 20
-92.1999485731
 10
-176.1035074791
 20
-92.1989380651
 10
-176.0565250301
 20
-92.1935508216
 10
-176.0070367839
 20
-92.1837868428
 10
-175.9551255992
 20
-92.1702141597
 10
-175.9005338786
 20
-92.1522647412
 10
-175.8426313699
 20
-92.1282344943
 10
-175.7810456651
 20
-92.0981978393
 10
-175.7158784748
 20
-92.0620803558
 10
-175.6471843544
 20
-92.0179546896
 10
-175.5744439901
 20
-91.9654350684
 10
-175.497892323
 20
-91.9049072644
 10
-175.4188004079
 20
-91.8356012399
 10
-175.3370954135
 20
-91.7571052706
 10
-175.2527292948
 20
-91.6698310808
 10
-175.1671775991
 20
-91.5742438043
 10
-175.0805634025
 20
-91.4700229559
 10
-174.9928191402
 20
-91.3574890208
 10
-174.9052906956
 20
-91.2380685896
 10
-174.8182297357
 20
-91.1115965786
 10
-174.7315743461
 20
-90.9782380715
 10
-174.6463089824
 20
-90.8399149091
 10
-174.5628721614
 20
-90.6970165332
 10
-174.4810835502
 20
-90.549153502
 10
-174.401034342
 20
-90.3970793311
 10
-174.322839781
 20
-90.2408197198
 10
-174.2466052802
 20
-90.0803489688
 10
-174.172399033
 20
-89.9163434959
 10
-174.1001919339
 20
-89.7484617768
 10
-174.0302036955
 20
-89.5770453357
 10
-173.9628795756
 20
-89.4037951634
 10
-173.8983745905
 20
-89.2285851869
 10
-173.8367229508
 20
-89.0515414791
 10
-173.778197332
 20
-88.8747432486
 10
-173.7229761319
 20
-88.6982572141
 10
-173.6710491457
 20
-88.5220166569
 10
-173.6224016443
 20
-88.3479006298
 10
-173.5771792221
 20
-88.1759904056
 10
-173.5353691701
 20
-88.0062047116
 10
-173.4967053664
 20
-87.8401787821
 10
-173.4613092366
 20
-87.6781775373
 10
-173.4291540952
 20
-87.519936057
 10
-173.3997341437
 20
-87.3662948149
 10
-173.3731032047
 20
-87.2175577843
 10
-173.3492672714
 20
-87.0734209918
 10
-173.3276326308
 20
-86.933812991
 10
-173.3081882446
 20
-86.7988387727
 10
-173.2909795057
 20
-86.6683933461
 10
-173.2754858654
 20
-86.5420902919
 10
-173.2616794761
 20
-86.4199802738
 10
-173.2496071254
 20
-86.3020126282
 10
-173.2388533371
 20
-86.1876489455
 10
-173.2293882102
 20
-86.0769245592
 10
-173.2212517722
 20
-85.9698041358
 10
-173.2141296149
 20
-85.8656432653
 10
-173.2079945198
 20
-85.7644665842
 10
-173.202878951
 20
-85.666249456
 10
-173.1985560126
 20
-85.5702735612
 10
-173.1950002874
 20
-85.4765734083
 10
-173.1922397817
 20
-85.3851144889
 10
-173.190126742
 20
-85.2950749583
 10
-173.188612227
 20
-85.2061808683
 10
-173.1877463184
 20
-85.1187061671
 10
-173.1883277996
 20
-80.9138938547
  0
LINE
  5
317
100
AcDbEntity
  8
RACCORDO
100
AcDbLine
 62
253
  6
CONTINUOUS
 10
-176.2799966954
 20
-92.199969964
 11
-176.1480704562
 21
-92.1999485731
  0
LINE
  5
318
100
AcDbEntity
  8
0
100
AcDbLine
 62
7
  6
CONTINUOUS
 10
-177.3745447487
 20
-92.9079181877
 11
-181.803576621
 21
-92.9079181877
  0
LINE
  5
319
100
AcDbEntity
  8
ASSI
100
AcDbLine
 62
7
  6
CONTINUOUS
 10
-177.3745447487
 20
-92.9079181877
 11
-181.803576621
 21
-92.9079181877
  0
LINE
  5
31A
100
AcDbEntity
  8
RACCORDO
100
AcDbLine
 62
253
  6
CONTINUOUS
 10
-176.4314763238
 20
-92.3649682004
 11
-176.099051333
 21
-92.3707202208
  0
LINE
  5
31B
100
AcDbEntity
  8
RACCORDO
100
AcDbLine
 62
7
  6
CONTINUOUS
 10
-167.8035841837
 20
-92.8079181877
 11
-176.751509137
 21
-92.6517315766
  0
LINE
  5
31C
100
AcDbEntity
  8
RACCORDO
100
AcDbLine
 62
7
  6
CONTINUOUS
 10
-172.5891534581
 20
-80.9086649394
 11
-174.1938839025
 21
-80.9226692098
  0
LINE
  5
31D
100
AcDbEntity
  8
0
100
AcDbLine
 62
7
  6
CONTINUOUS
 10
-167.8035841837
 20
-88.1079181877
 11
-164.7485841837
 21
-88.1079181877
  0
LINE
  5
31E
100
AcDbEntity
  8
0
100
AcDbLine
 62
253
  6
CONTINUOUS
 10
-174.4438839025
 20
-84.9079181877
 11
-176.0033164597
 21
-84.9079181877
  0
LINE
  5
31F
100
AcDbEntity
  8
ASSI
100
AcDbLine
 62
253
  6
CONTINUOUS
 10
-174.4438839025
 20
-84.9079181877
 11
-176.0033164597
 21
-84.9079181877
  0
LINE
  5
320
100
AcDbEntity
  8
RACCORDO
100
AcDbLine
 62
7
  6
CONTINUOUS
 10
-167.8035841837
 20
-80.9079181877
 11
-172.5923659116
 21
-80.9079181877
  0
LINE
  5
321
100
AcDbEntity
  8
ASSI
100
AcDbLine
 62
7
  6
CONTINUOUS
 10
-167.8035841837
 20
-80.9079181877
 11
-172.5923659116
 21
-80.9079181877
  0
LINE
  5
322
100
AcDbEntity
  8
RACCORDO
100
AcDbLine
 62
7
  6
CONTINUOUS
 10
-173.0908704433
 20
-80.9079181877
 11
-173.2020773368
 21
-80.9079181877
  0
LINE
  5
323
100
AcDbEntity
  8
0
100
AcDbLine
 62
7
  6
CONTINUOUS
 10
-173.2020773368
 20
-80.9079181877
 11
-174.1938839025
 21
-80.9079181877
  0
LINE
  5
324
100
AcDbEntity
  8
ASSI
100
AcDbLine
 62
7
  6
CONTINUOUS
 10
-173.0908704433
 20
-80.9079181877
 11
-174.1938839025
 21
-80.9079181877
  0
LINE
  5
325
100
AcDbEntity
  8
0
100
AcDbLine
 62
7
  6
CONTINUOUS
 10
-164.7485841837
 20
-80.6579181877
 11
-141.5035841837
 21
-80.6579181877
  0
LINE
  5
326
100
AcDbEntity
  8
0
100
AcDbLine
 62
7
  6
CONTINUOUS
 10
-141.1035841837
 20
-80.6579181877
 11
-141.5035841837
 21
-80.6579181877
  0
LINE
  5
327
100
AcDbEntity
  8
0
100
AcDbLine
 62
7
  6
CONTINUOUS
 10
-164.7485841837
 20
-76.6579181877
 11
-141.5035841837
 21
-76.6579181877
  0
LINE
  5
328
100
AcDbEntity
  8
0
100
AcDbLine
 62
7
  6
CONTINUOUS
 10
-141.1035841837
 20
-76.6579181877
 11
-141.5035841837
 21
-76.6579181877
  0
LINE
  5
329
100
AcDbEntity
  8
RACCORDO
100
AcDbLine
 62
253
  6
CONTINUOUS
 10
-167.8035841837
 20
-85.1836242116
 11
-172.6348223931
 21
-85.1806811518
  0
LINE
  5
32A
100
AcDbEntity
  8
RACCORDO
100
AcDbLine
 62
253
  6
CONTINUOUS
 10
-173.3665371755
 20
-85.0302204261
 11
-173.9521647303
 21
-85.0298776228
  0
LINE
  5
32B
100
AcDbEntity
  8
RACCORDO
100
AcDbLine
 62
253
  6
CONTINUOUS
 10
-173.2952389303
 20
-85.0307462285
 11
-173.3665371755
 21
-85.0302204261
  0
LINE
  5
32C
100
AcDbEntity
  8
RACCORDO
100
AcDbLine
 62
253
  6
CONTINUOUS
 10
-173.2531408583
 20
-85.0312680489
 11
-173.2952389303
 21
-85.0307462285
  0
LINE
  5
32D
100
AcDbEntity
  8
RACCORDO
100
AcDbLine
 62
253
  6
CONTINUOUS
 10
-172.685492109
 20
-85.179962284
 11
-172.6348223931
 21
-85.1806811518
  0
LINE
  5
32E
100
AcDbEntity
  8
DRAFT
100
AcDbLine
 62
7
  6
CONTINUOUS
 10
-167.8035841837
 20
-80.9899569928
 11
-172.4769346827
 21
-80.9083833564
  0
LINE
  5
32F
100
AcDbEntity
  8
RACCORDO
100
AcDbLine
 62
253
  6
CONTINUOUS
 10
-172.7345499771
 20
-85.178962325
 11
-172.685492109
 21
-85.179962284
  0
LWPOLYLINE
  5
330
100
AcDbEntity
  8
RACCORDO
100
AcDbPolyline
 62
253
  6
CONTINUOUS
 90
4
 70
0
 10
-173.1875293923
 20
-85.0326508548
 10
-173.2012785877
 20
-85.0322688644
 10
-173.2168768114
 20
-85.0319093056
 10
-173.2531408583
 20
-85.0312680489
  0
LWPOLYLINE
  5
331
100
AcDbEntity
  8
RACCORDO
100
AcDbPolyline
 62
253
  6
CONTINUOUS
 90
8
 70
0
 10
-172.8879093073
 20
-85.1728308581
 10
-172.8740286119
 20
-85.173727885
 10
-172.8583828118
 20
-85.1745995303
 10
-172.8410848849
 20
-85.1754394999
 10
-172.8222597385
 20
-85.1762417285
 10
-172.8020433084
 20
-85.1770004231
 10
-172.7805815765
 20
-85.1777101053
 10
-172.7345499771
 20
-85.178962325
  0
LINE
  5
332
100
AcDbEntity
  8
RACCORDO
100
AcDbLine
 62
7
  6
CONTINUOUS
 10
-163.0983484617
 20
-68.0257879926
 11
-164.7485841837
 21
-68.0545929643
  0
LINE
  5
333
100
AcDbEntity
  8
RACCORDO
100
AcDbLine
 62
253
  6
CONTINUOUS
 10
-163.0983484617
 20
-65.5261687547
 11
-164.7485841837
 21
-65.5549737264
  0
LINE
  5
334
100
AcDbEntity
  8
0
100
AcDbLine
 62
7
  6
CONTINUOUS
 10
-180.4936816361
 20
-70.1579181877
 11
-181.803576621
 21
-70.1579181877
  0
LINE
  5
335
100
AcDbEntity
  8
ASSI
100
AcDbLine
 62
7
  6
CONTINUOUS
 10
-180.4936816361
 20
-70.1579181877
 11
-181.803576621
 21
-70.1579181877
  0
LINE
  5
336
100
AcDbEntity
  8
RACCORDO
100
AcDbLine
 62
253
  6
CONTINUOUS
 10
-162.8035841837
 20
-65.5261687547
 11
-163.0983484617
 21
-65.5261687545
  0
LINE
  5
337
100
AcDbEntity
  8
SMUSSO
100
AcDbLine
 62
7
  6
CONTINUOUS
 10
-141.1035841837
 20
52.2420818123
 11
-141.5035841837
 21
51.8420818123
  0
LWPOLYLINE
  5
338
100
AcDbEntity
  8
RACCORDO
100
AcDbPolyline
 62
253
  6
CONTINUOUS
 90
25
 70
0
 10
-143.107074665
 20
35.4417093974
 10
-143.1244582877
 20
35.4331610387
 10
-143.1425844823
 20
35.4239274522
 10
-143.1614532488
 20
35.4140086379
 10
-143.1810478471
 20
35.4035863877
 10
-143.2013850173
 20
35.3924789098
 10
-143.2225149797
 20
35.3801408284
 10
-143.2446699093
 20
35.3665199456
 10
-143.2676176311
 20
35.3516684593
 10
-143.2907118412
 20
35.335197588
 10
-143.3141197093
 20
35.3169205142
 10
-143.3376740657
 20
35.2970240554
 10
-143.3602270965
 20
35.2756798818
 10
-143.3816630101
 20
35.2527527612
 10
-143.4020975981
 20
35.2283779257
 10
-143.4207304228
 20
35.2031327424
 10
-143.43735916
 20
35.1770520909
 10
-143.4521861338
 20
35.1501010914
 10
-143.4650178795
 20
35.1227524712
 10
-143.4757761282
 20
35.095088086
 10
-143.4845391487
 20
35.0670260801
 10
-143.4913482819
 20
35.038793613
 10
-143.4962173083
 20
35.0104664044
 10
-143.4991324473
 20
34.9819687345
 10
-143.5000936992
 20
34.9533006033
  0
LINE
  5
339
100
AcDbEntity
  8
SMUSSO
100
AcDbLine
 62
7
  6
CONTINUOUS
 10
-141.1035841837
 20
-77.0579181877
 11
-141.5035841837
 21
-76.6579181877
  0
LWPOLYLINE
  5
33A
100
AcDbEntity
  8
RACCORDO
100
AcDbPolyline
 62
253
  6
CONTINUOUS
 90
7
 70
0
 10
-176.148070486
 20
-92.1999485734
 10
-176.1493469107
 20
-92.1742589161
 10
-176.1527349024
 20
-92.1487773857
 10
-176.1582095511
 20
-92.1236913336
 10
-176.1657306046
 20
-92.0991852037
 10
-176.1752427651
 20
-92.0754391757
 10
-176.1755644987
 20
-92.0747972652
  0
LWPOLYLINE
  5
33B
100
AcDbEntity
  8
RACCORDO
100
AcDbPolyline
 62
253
  6
CONTINUOUS
 90
19
 70
0
 10
-176.0990509286
 20
-92.3707202171
 10
-176.0978095961
 20
-92.3964327888
 10
-176.0944557991
 20
-92.4219366779
 10
-176.0890142411
 20
-92.4470440287
 10
-176.0815250033
 20
-92.4715699061
 10
-176.0720432497
 20
-92.4953336581
 10
-176.0606388208
 20
-92.5181602464
 10
-176.0473957188
 20
-92.5398815356
 10
-176.0324114895
 20
-92.5603375316
 10
-176.0157965034
 20
-92.5793775603
 10
-175.9976731424
 20
-92.5968613771
 10
-175.9781748993
 20
-92.6126602004
 10
-175.9574453935
 20
-92.6266576595
 10
-175.9356373139
 20
-92.6387506524
 10
-175.9129112937
 20
-92.6488501048
 10
-175.8894347276
 20
-92.6568816266
 10
-175.8653805387
 20
-92.6627860594
 10
-175.8409259046
 20
-92.6665199125
 10
-175.8162509524
 20
-92.6680556831
  0
LINE
  5
33C
100
AcDbEntity
  8
ASSI
100
AcDbLine
 62
7
  6
CONTINUOUS
 10
-181.8035841837
 20
68.0920818123
 11
-181.8035841837
 21
45.3420818123
  0
LINE
  5
33D
100
AcDbEntity
  8
ASSI
100
AcDbLine
 62
7
  6
CONTINUOUS
 10
-181.8035841837
 20
-70.1579181877
 11
-181.8035841837
 21
-92.9079181877
  0
LINE
  5
33E
100
AcDbEntity
  8
ELVOX
100
AcDbLine
 62
253
  6
CONTINUOUS
 10
-181.8025316019
 20
57.4810103235
 11
-181.8025316019
 21
55.7103456367
  0
LINE
  5
33F
100
AcDbEntity
  8
ELVOX
100
AcDbLine
 62
253
  6
CONTINUOUS
 10
-181.7999076501
 20
56.5957351764
 11
-181.7998988616
 21
56.8362028413
  0
LINE
  5
340
100
AcDbEntity
  8
ELVOX
100
AcDbLine
 62
253
  6
CONTINUOUS
 10
-181.7998988616
 20
56.3552675116
 11
-181.7999076501
 21
56.5957351764
  0
LINE
  5
341
100
AcDbEntity
  8
ELVOX
100
AcDbLine
 62
253
  6
CONTINUOUS
 10
-181.794299218
 20
56.8362028413
 11
-181.794299218
 21
56.3552675116
  0
LINE
  5
342
100
AcDbEntity
  8
ELVOX
100
AcDbLine
 62
253
  6
CONTINUOUS
 10
-181.7880507083
 20
55.7103456367
 11
-181.7880507083
 21
57.4831920396
  0
LINE
  5
343
100
AcDbEntity
  8
0
100
AcDbLine
 62
7
  6
CONTINUOUS
 10
-180.5678242842
 20
68.0920818123
 11
-180.5678242842
 21
45.3420818123
  0
LINE
  5
344
100
AcDbEntity
  8
ASSI
100
AcDbLine
 62
7
  6
CONTINUOUS
 10
-180.5678242842
 20
68.0920818123
 11
-180.5678242842
 21
45.3420818123
  0
LINE
  5
345
100
AcDbEntity
  8
0
100
AcDbLine
 62
7
  6
CONTINUOUS
 10
-180.5678242842
 20
-70.1579181877
 11
-180.5678242842
 21
-92.9079181877
  0
LINE
  5
346
100
AcDbEntity
  8
ASSI
100
AcDbLine
 62
7
  6
CONTINUOUS
 10
-180.5678242842
 20
-70.1579181877
 11
-180.5678242842
 21
-92.9079181877
  0
LINE
  5
347
100
AcDbEntity
  8
0
100
AcDbLine
 62
7
  6
CONTINUOUS
 10
-180.4936816361
 20
68.0920818123
 11
-180.4936816361
 21
-92.9079181877
  0
LINE
  5
348
100
AcDbEntity
  8
ASSI
100
AcDbLine
 62
7
  6
CONTINUOUS
 10
-180.4936816361
 20
68.0920818123
 11
-180.4936816361
 21
-92.9079181877
  0
LINE
  5
349
100
AcDbEntity
  8
0
100
AcDbLine
 62
253
  6
CONTINUOUS
 10
-176.4456595854
 20
-86.9571291583
 11
-176.4456595854
 21
62.1412927829
  0
LINE
  5
34A
100
AcDbEntity
  8
ASSI
100
AcDbLine
 62
253
  6
CONTINUOUS
 10
-176.4456595854
 20
-86.9571291583
 11
-176.4456595854
 21
62.1412927829
  0
LINE
  5
34B
100
AcDbEntity
  8
0
100
AcDbLine
 62
253
  6
CONTINUOUS
 10
-176.0033164597
 20
-84.9079181877
 11
-176.0033164597
 21
60.0920818123
  0
LINE
  5
34C
100
AcDbEntity
  8
ASSI
100
AcDbLine
 62
253
  6
CONTINUOUS
 10
-176.0033164597
 20
-84.9079181877
 11
-176.0033164597
 21
60.0920818123
  0
LWPOLYLINE
  5
34D
100
AcDbEntity
  8
RACCORDO
100
AcDbPolyline
 62
253
  6
CONTINUOUS
 90
19
 70
0
 10
-176.0990512078
 20
67.5548838443
 10
-176.0978099408
 20
67.5805964834
 10
-176.0944561986
 20
67.6061004448
 10
-176.0890146841
 20
67.6312078713
 10
-176.0815254786
 20
67.6557338263
 10
-176.072043746
 20
67.6794976565
 10
-176.060639327
 20
67.7023243221
 10
-176.0473962244
 20
67.7240456863
 10
-176.0324119842
 20
67.7445017536
 10
-176.0157969775
 20
67.7635418487
 10
-175.9976735872
 20
67.7810257259
 10
-175.9781753068
 20
67.7968246023
 10
-175.9574457567
 20
67.8108221065
 10
-175.9356376268
 20
67.8229151355
 10
-175.9129115516
 20
67.8330146145
 10
-175.889434927
 20
67.8410461525
 10
-175.8653806773
 20
67.846950591
 10
-175.8409259814
 20
67.8506844389
 10
-175.8162509678
 20
67.8522201934
  0
LWPOLYLINE
  5
34E
100
AcDbEntity
  8
RACCORDO
100
AcDbPolyline
 62
253
  6
CONTINUOUS
 90
7
 70
0
 10
-176.1480703878
 20
67.3841121972
 10
-176.1493468482
 20
67.3584225611
 10
-176.1527348722
 20
67.3329410547
 10
-176.1582095494
 20
67.3078550288
 10
-176.1657306279
 20
67.2833489267
 10
-176.1752428093
 20
67.2596029277
 10
-176.1755645905
 20
67.2589609242
  0
LWPOLYLINE
  5
34F
100
AcDbEntity
  8
0
100
AcDbPolyline
 62
7
  6
CONTINUOUS
 90
18
 70
0
 10
-174.2993752072
 20
60.9486614874
 10
-174.2878995536
 20
61.0254188863
 10
-174.2769024635
 20
61.1016336739
 10
-174.2663824064
 20
61.1772774098
 10
-174.2564740285
 20
61.2520248078
 10
-174.2471858587
 20
61.3258717928
 10
-174.2385093681
 20
61.3988159266
 10
-174.2305536152
 20
61.4705375943
 10
-174.2233319415
 20
61.5409973544
 10
-174.2168310056
 20
61.6102337075
 10
-174.2111198418
 20
61.6780470672
 10
-174.2062074855
 20
61.7444307878
 10
-174.2020849012
 20
61.8093952572
 10
-174.1987940173
 20
61.8727690476
 10
-174.1963431867
 20
61.9345400318
 10
-174.1947240565
 20
61.9947285033
 10
-174.193953496
 20
62.053213881
 10
-174.1938843092
 20
62.0763952956
  0
LWPOLYLINE
  5
350
100
AcDbEntity
  8
ASSI
100
AcDbPolyline
 62
7
  6
CONTINUOUS
 90
18
 70
0
 10
-174.2993752072
 20
60.9486614874
 10
-174.2878995536
 20
61.0254188863
 10
-174.2769024635
 20
61.1016336739
 10
-174.2663824064
 20
61.1772774098
 10
-174.2564740285
 20
61.2520248078
 10
-174.2471858587
 20
61.3258717928
 10
-174.2385093681
 20
61.3988159266
 10
-174.2305536152
 20
61.4705375943
 10
-174.2233319415
 20
61.5409973544
 10
-174.2168310056
 20
61.6102337075
 10
-174.2111198418
 20
61.6780470672
 10
-174.2062074855
 20
61.7444307878
 10
-174.2020849012
 20
61.8093952572
 10
-174.1987940173
 20
61.8727690476
 10
-174.1963431867
 20
61.9345400318
 10
-174.1947240565
 20
61.9947285033
 10
-174.193953496
 20
62.053213881
 10
-174.1938843092
 20
62.0763952956
  0
LINE
  5
351
100
AcDbEntity
  8
0
100
AcDbLine
 62
7
  6
CONTINUOUS
 10
-174.3236183761
 20
60.7937252689
 11
-174.2993752072
 21
60.9486614874
  0
LINE
  5
352
100
AcDbEntity
  8
ASSI
100
AcDbLine
 62
7
  6
CONTINUOUS
 10
-174.3236183761
 20
60.7937252689
 11
-174.2993752072
 21
60.9486614874
  0
LINE
  5
353
100
AcDbEntity
  8
0
100
AcDbLine
 62
7
  6
CONTINUOUS
 10
-174.3492152429
 20
60.6376199272
 11
-174.3236183761
 21
60.7937252689
  0
LINE
  5
354
100
AcDbEntity
  8
ASSI
100
AcDbLine
 62
7
  6
CONTINUOUS
 10
-174.3492152429
 20
60.6376199272
 11
-174.3236183761
 21
60.7937252689
  0
LINE
  5
355
100
AcDbEntity
  8
0
100
AcDbLine
 62
7
  6
CONTINUOUS
 10
-174.375733647
 20
60.4811170114
 11
-174.3492152429
 21
60.6376199272
  0
LINE
  5
356
100
AcDbEntity
  8
ASSI
100
AcDbLine
 62
7
  6
CONTINUOUS
 10
-174.375733647
 20
60.4811170114
 11
-174.3492152429
 21
60.6376199272
  0
LINE
  5
357
100
AcDbEntity
  8
0
100
AcDbLine
 62
7
  6
CONTINUOUS
 10
-174.4438839025
 20
60.0920818123
 11
-174.375733647
 21
60.4811170114
  0
LINE
  5
358
100
AcDbEntity
  8
ASSI
100
AcDbLine
 62
7
  6
CONTINUOUS
 10
-174.4438839025
 20
60.0920818123
 11
-174.375733647
 21
60.4811170114
  0
LINE
  5
359
100
AcDbEntity
  8
0
100
AcDbLine
 62
7
  6
CONTINUOUS
 10
-174.3885249649
 20
-85.2230470347
 11
-174.4438839025
 21
-84.9079181877
  0
LINE
  5
35A
100
AcDbEntity
  8
ASSI
100
AcDbLine
 62
7
  6
CONTINUOUS
 10
-174.3885249649
 20
-85.2230470347
 11
-174.4438839025
 21
-84.9079181877
  0
LINE
  5
35B
100
AcDbEntity
  8
0
100
AcDbLine
 62
7
  6
CONTINUOUS
 10
-174.3610084534
 20
-85.3832936316
 11
-174.3885249649
 21
-85.2230470347
  0
LINE
  5
35C
100
AcDbEntity
  8
ASSI
100
AcDbLine
 62
7
  6
CONTINUOUS
 10
-174.3610084534
 20
-85.3832936316
 11
-174.3885249649
 21
-85.2230470347
  0
LINE
  5
35D
100
AcDbEntity
  8
0
100
AcDbLine
 62
7
  6
CONTINUOUS
 10
-174.3343566077
 20
-85.543225548
 11
-174.3610084534
 21
-85.3832936316
  0
LINE
  5
35E
100
AcDbEntity
  8
ASSI
100
AcDbLine
 62
7
  6
CONTINUOUS
 10
-174.3343566077
 20
-85.543225548
 11
-174.3610084534
 21
-85.3832936316
  0
LWPOLYLINE
  5
35F
100
AcDbEntity
  8
RACCORDO
100
AcDbPolyline
 62
253
  6
CONTINUOUS
 90
46
 70
0
 10
-172.8879093073
 20
60.3569944827
 10
-172.8922495835
 20
60.5836014367
 10
-172.9009508751
 20
60.8112126268
 10
-172.9139985615
 20
61.0398280528
 10
-172.9313075848
 20
61.2697619958
 10
-172.9529165738
 20
61.5007001749
 10
-172.9789863192
 20
61.7316997471
 10
-173.0095129616
 20
61.962790665
 10
-173.0444140747
 20
62.1939429761
 10
-173.0837207557
 20
62.4241239799
 10
-173.1274036151
 20
62.6533260397
 10
-173.1753644378
 20
62.8815567922
 10
-173.2275204157
 20
63.1078064471
 10
-173.2837845798
 20
63.3319829016
 10
-173.344076539
 20
63.5541782584
 10
-173.4083133182
 20
63.773659036
 10
-173.4764122292
 20
63.9904764894
 10
-173.5482463685
 20
64.2045793636
 10
-173.6236571774
 20
64.415080412
 10
-173.7026083438
 20
64.6221322376
 10
-173.784885373
 20
64.8255822374
 10
-173.8700630882
 20
65.024085356
 10
-173.958060253
 20
65.2176252264
 10
-174.0486870989
 20
65.4062182158
 10
-174.1413731591
 20
65.5885683695
 10
-174.2360217279
 20
65.7646195841
 10
-174.3324583497
 20
65.9344279631
 10
-174.4300290515
 20
66.0968658635
 10
-174.5286563422
 20
66.2518795782
 10
-174.6281668224
 20
66.3995228144
 10
-174.7278134021
 20
66.5388290508
 10
-174.8274685334
 20
66.6696557841
 10
-174.9270587867
 20
66.7921455176
 10
-175.0259773589
 20
66.9057592402
 10
-175.1241415936
 20
67.01042159
 10
-175.2214819786
 20
67.1062079289
 10
-175.3174691874
 20
67.1928053312
 10
-175.4120485374
 20
67.2701503918
 10
-175.5051772037
 20
67.3383065157
 10
-175.596401934
 20
67.3971509933
 10
-175.6856936854
 20
67.4466260329
 10
-175.7730413966
 20
67.4867894262
 10
-175.8580755995
 20
67.5176918376
 10
-175.9406904488
 20
67.5393501554
 10
-176.0210130841
 20
67.5517474913
 10
-176.099051333
 20
67.5548838455
  0
LWPOLYLINE
  5
360
100
AcDbEntity
  8
RACCORDO
100
AcDbPolyline
 62
253
  6
CONTINUOUS
 90
46
 70
0
 10
-172.6348223931
 20
60.3648447765
 10
-172.6391475537
 20
60.6001919969
 10
-172.6477546911
 20
60.8370514503
 10
-172.6606438052
 20
61.0751826646
 10
-172.6777836789
 20
61.3143802506
 10
-172.6992055293
 20
61.5543362941
 10
-172.7250030078
 20
61.7946427801
 10
-172.7552323501
 20
62.0350383602
 10
-172.7898373205
 20
62.2752151159
 10
-172.8287428622
 20
62.5146884183
 10
-172.8719999901
 20
62.7531340693
 10
-172.9195576893
 20
62.9902677394
 10
-172.9711878587
 20
63.2256633682
 10
-173.0269040832
 20
63.458888301
 10
-173.0866927778
 20
63.6897405512
 10
-173.1502850865
 20
63.9181250782
 10
-173.2177194103
 20
64.143718685
 10
-173.2889573482
 20
64.3661485416
 10
-173.3636148407
 20
64.5852152417
 10
-173.4417897623
 20
64.8006971943
 10
-173.5233842386
 20
65.0120580903
 10
-173.607720587
 20
65.2186339769
 10
-173.6948501891
 20
65.4200842536
 10
-173.7847216634
 20
65.6160272181
 10
-173.8765031825
 20
65.8057962068
 10
-173.9702189438
 20
65.9890687761
 10
-174.06584475
 20
66.165522539
 10
-174.1624761819
 20
66.334571187
 10
-174.2601327638
 20
66.4959746698
 10
-174.3587949715
 20
66.6494373306
 10
-174.4574998133
 20
66.7943982532
 10
-174.5561850453
 20
66.930615681
 10
-174.6549129114
 20
67.0579778954
 10
-174.752907152
 20
67.1762204904
 10
-174.850125038
 20
67.2852103573
 10
-174.9466092985
 20
67.3848468858
 10
-175.0417118606
 20
67.4749802608
 10
-175.1353891594
 20
67.5555426306
 10
-175.2276847599
 20
67.6264837638
 10
-175.3180812838
 20
67.6877372569
 10
-175.4065282753
 20
67.7392896336
 10
-175.4930761901
 20
67.7811492835
 10
-175.5773590178
 20
67.8133285407
 10
-175.6592547549
 20
67.8358644773
 10
-175.7388854049
 20
67.8488081358
 10
-175.8162509678
 20
67.8522201934
  0
LWPOLYLINE
  5
361
100
AcDbEntity
  8
ASSI
100
AcDbPolyline
 62
7
  6
CONTINUOUS
 90
19
 70
0
 10
-174.193960331
 20
-86.8679313887
 10
-174.1947403382
 20
-86.8096997486
 10
-174.1963614924
 20
-86.7498760819
 10
-174.1987934744
 20
-86.6886172438
 10
-174.2020445749
 20
-86.6259058883
 10
-174.2061065031
 20
-86.5617527166
 10
-174.2109240675
 20
-86.4963591598
 10
-174.2165007145
 20
-86.4297553444
 10
-174.2228329977
 20
-86.3619090612
 10
-174.2298553862
 20
-86.292930441
 10
-174.2375669419
 20
-86.2228529027
 10
-174.2459686029
 20
-86.1516444361
 10
-174.254997653
 20
-86.0793182464
 10
-174.2646581065
 20
-86.0058639848
 10
-174.2749459491
 20
-85.9312960278
 10
-174.2857864208
 20
-85.855665606
 10
-174.297201879
 20
-85.7788670183
 10
-174.3091699663
 20
-85.7010130819
 10
-174.3343566077
 20
-85.543225548
  0
LINE
  5
362
100
AcDbEntity
  8
RACCORDO
100
AcDbLine
 62
253
  6
CONTINUOUS
 10
-172.8416384689
 20
56.0950319674
 11
-172.8879093073
 21
60.3569944827
  0
LWPOLYLINE
  5
363
100
AcDbEntity
  8
RACCORDO
100
AcDbPolyline
 62
253
  6
CONTINUOUS
 90
9
 70
0
 10
-172.5891534581
 20
56.0928285641
 10
-172.5988640162
 20
56.9946617439
 10
-172.6037845045
 20
57.453013863
 10
-172.6087261681
 20
57.9141888982
 10
-172.6137113046
 20
58.3803209528
 10
-172.6188068061
 20
58.8578123369
 10
-172.6240349701
 20
59.3487971539
 10
-172.6293734991
 20
59.8511413004
 10
-172.6348223931
 20
60.3648447765
  0
LWPOLYLINE
  5
364
100
AcDbEntity
  8
RACCORDO
100
AcDbPolyline
 62
253
  6
CONTINUOUS
 90
42
 70
0
 10
-173.4436003789
 20
60.2967203496
 10
-173.4444705709
 20
60.3806170557
 10
-173.4459658323
 20
60.4658758494
 10
-173.4481039639
 20
60.552205744
 10
-173.4509192303
 20
60.6398728875
 10
-173.4544820482
 20
60.729700848
 10
-173.4588399579
 20
60.8217002457
 10
-173.4640421745
 20
60.9158259504
 10
-173.4701973858
 20
61.0128146228
 10
-173.4773715978
 20
61.1126564164
 10
-173.4856337851
 20
61.2153118343
 10
-173.4951333817
 20
61.321465756
 10
-173.5059617801
 20
61.4311083615
 10
-173.5182113571
 20
61.5441693966
 10
-173.5320725094
 20
61.6612335494
 10
-173.5476689232
 20
61.7823075132
 10
-173.5651211505
 20
61.9073177055
 10
-173.5846553939
 20
62.0367312562
 10
-173.6064260441
 20
62.1705459539
 10
-173.6305819954
 20
62.3086758945
 10
-173.6573662425
 20
62.4514006384
 10
-173.6869821368
 20
62.5987965246
 10
-173.7195466907
 20
62.7504552848
 10
-173.7551728579
 20
62.905873768
 10
-173.7940846884
 20
63.065123154
 10
-173.8363864189
 20
63.227801259
 10
-173.8819622807
 20
63.3927117378
 10
-173.9309251734
 20
63.5596592668
 10
-173.9833754763
 20
63.72844942
 10
-174.0390699317
 20
63.8978395449
 10
-174.0980378407
 20
64.0675124472
 10
-174.1602323198
 20
64.2369592017
 10
-174.2252353128
 20
64.4048216049
 10
-174.2929826153
 20
64.570781465
 10
-174.3634949194
 20
64.734772234
 10
-174.4363605205
 20
64.8958373661
 10
-174.5111946253
 20
65.0531526618
 10
-174.5879745033
 20
65.2066669201
 10
-174.6667590777
 20
65.3564719557
 10
-174.7474792691
 20
65.5023457603
 10
-174.8299923484
 20
65.6439753011
 10
-174.9143125564
 20
65.781375259
  0
LWPOLYLINE
  5
365
100
AcDbEntity
  8
RACCORDO
100
AcDbPolyline
 62
253
  6
CONTINUOUS
 90
63
 70
0
 10
-173.1877465151
 20
60.302848074
 10
-173.188611813
 20
60.3902920955
 10
-173.1901249105
 20
60.4791465439
 10
-173.1922358898
 20
60.5691364862
 10
-173.1949935308
 20
60.6605368554
 10
-173.1985451013
 20
60.7541724504
 10
-173.2028625502
 20
60.8500778052
 10
-173.2079713469
 20
60.9482183857
 10
-173.2140980508
 20
61.0493153891
 10
-173.22121015
 20
61.1533934157
 10
-173.2293349261
 20
61.2604278653
 10
-173.2387866217
 20
61.3710661337
 10
-173.2495251534
 20
61.4853435454
 10
-173.2615805054
 20
61.6032247761
 10
-173.2753682042
 20
61.7252512484
 10
-173.2908413589
 20
61.8514736175
 10
-173.308027964
 20
61.9818412283
 10
-173.3274490007
 20
62.1167435384
 10
-173.3490589829
 20
62.256285675
 10
-173.3728691018
 20
62.4003625109
 10
-173.3994738762
 20
62.549048122
 10
-173.4288678397
 20
62.7026490179
 10
-173.4609967062
 20
62.860858689
 10
-173.4963656097
 20
63.0228316831
 10
-173.535002719
 20
63.1888365068
 10
-173.5767852192
 20
63.3586046535
 10
-173.6219743625
 20
63.5304851509
 10
-173.6705832982
 20
63.7045563194
 10
-173.7224663257
 20
63.8807398386
 10
-173.777632714
 20
64.057149775
 10
-173.836091613
 20
64.2338474893
 10
-173.8976664377
 20
64.4107716209
 10
-173.9620835497
 20
64.5858521539
 10
-174.0293062847
 20
64.7589581739
 10
-174.0991831502
 20
64.9302205953
 10
-174.1712767247
 20
65.0979621461
 10
-174.245355235
 20
65.2618255074
 10
-174.3214608102
 20
65.422167998
 10
-174.3995689201
 20
65.5783843031
 10
-174.4795900646
 20
65.7305406605
 10
-174.5613898888
 20
65.8785708323
 10
-174.6448669716
 20
66.0216707891
 10
-174.7302047815
 20
66.1602287728
 10
-174.816958917
 20
66.2938565416
 10
-174.904122488
 20
66.4205853411
 10
-174.9917531921
 20
66.5402378708
 10
-175.0796029313
 20
66.6529914312
 10
-175.1663166588
 20
66.7574091695
 10
-175.2519594367
 20
66.8531655622
 10
-175.3364110707
 20
66.9405861329
 10
-175.4181955649
 20
67.0192105998
 10
-175.4973603465
 20
67.0886270645
 10
-175.5739793612
 20
67.1492474254
 10
-175.6467837204
 20
67.2018470962
 10
-175.7155398872
 20
67.246041255
 10
-175.7807660353
 20
67.2822147236
 10
-175.8424059954
 20
67.3122973811
 10
-175.9003581859
 20
67.3363634038
 10
-175.954995387
 20
67.3543386153
 10
-176.006946748
 20
67.3679303655
 10
-176.0564696955
 20
67.3777077709
 10
-176.1034820757
 20
67.383101715
 10
-176.1480704562
 20
67.3841121978
  0
LINE
  5
366
100
AcDbEntity
  8
DRAFT
100
AcDbLine
 62
7
  6
CONTINUOUS
 10
-173.9521647303
 20
60.2140412474
 11
-173.9124808832
 21
56.1043770676
  0
LWPOLYLINE
  5
367
100
AcDbEntity
  8
0
100
AcDbPolyline
 62
7
  6
CONTINUOUS
 90
10
 70
0
 10
-174.1938843092
 20
62.0763952956
 10
-174.1940332948
 20
62.1099526594
 10
-174.1949616632
 20
62.1650000613
 10
-174.1967501015
 20
62.2183846007
 10
-174.199386089
 20
62.2700851429
 10
-174.2028821463
 20
62.3201355885
 10
-174.2072873351
 20
62.3686465628
 10
-174.2126180094
 20
62.4156587949
 10
-174.2188578151
 20
62.4611437392
 10
-174.2260067524
 20
62.5051076725
  0
LWPOLYLINE
  5
368
100
AcDbEntity
  8
ASSI
100
AcDbPolyline
 62
7
  6
CONTINUOUS
 90
10
 70
0
 10
-174.1938843092
 20
62.0763952956
 10
-174.1940332948
 20
62.1099526594
 10
-174.1949616632
 20
62.1650000613
 10
-174.1967501015
 20
62.2183846007
 10
-174.199386089
 20
62.2700851429
 10
-174.2028821463
 20
62.3201355885
 10
-174.2072873351
 20
62.3686465628
 10
-174.2126180094
 20
62.4156587949
 10
-174.2188578151
 20
62.4611437392
 10
-174.2260067524
 20
62.5051076725
  0
LWPOLYLINE
  5
369
100
AcDbEntity
  8
0
100
AcDbPolyline
 62
7
  6
CONTINUOUS
 90
20
 70
0
 10
-174.1938860617
 20
-86.8922316709
 10
-174.193960331
 20
-86.8679313887
 10
-174.1947403382
 20
-86.8096997486
 10
-174.1963614924
 20
-86.7498760819
 10
-174.1987934744
 20
-86.6886172438
 10
-174.2020445749
 20
-86.6259058883
 10
-174.2061065031
 20
-86.5617527166
 10
-174.2109240675
 20
-86.4963591598
 10
-174.2165007145
 20
-86.4297553444
 10
-174.2228329977
 20
-86.3619090612
 10
-174.2298553862
 20
-86.292930441
 10
-174.2375669419
 20
-86.2228529027
 10
-174.2459686029
 20
-86.1516444361
 10
-174.254997653
 20
-86.0793182464
 10
-174.2646581065
 20
-86.0058639848
 10
-174.2749459491
 20
-85.9312960278
 10
-174.2857864208
 20
-85.855665606
 10
-174.297201879
 20
-85.7788670183
 10
-174.3091699663
 20
-85.7010130819
 10
-174.3343566077
 20
-85.543225548
  0
LINE
  5
36A
100
AcDbEntity
  8
RACCORDO
100
AcDbLine
 62
253
  6
CONTINUOUS
 10
-163.098112311
 20
-65.6447968291
 11
-163.0978807499
 21
-65.7632267523
  0
LINE
  5
36B
100
AcDbEntity
  8
RACCORDO
100
AcDbLine
 62
253
  6
CONTINUOUS
 10
-163.0978807499
 20
-65.7632267523
 11
-163.0972641695
 21
-66.1146714557
  0
LINE
  5
36C
100
AcDbEntity
  8
RACCORDO
100
AcDbLine
 62
253
  6
CONTINUOUS
 10
-163.0972641695
 20
-66.1146714557
 11
-163.0967794667
 21
-66.4545908513
  0
LINE
  5
36D
100
AcDbEntity
  8
RACCORDO
100
AcDbLine
 62
253
  6
CONTINUOUS
 10
-163.0967794667
 20
-66.4545908513
 11
-163.0963501523
 21
-66.877364325
  0
LINE
  5
36E
100
AcDbEntity
  8
0
100
AcDbLine
 62
253
  6
CONTINUOUS
 10
-174.4438839025
 20
-84.9079181877
 11
-174.4438839025
 21
60.0920818123
  0
LINE
  5
36F
100
AcDbEntity
  8
ASSI
100
AcDbLine
 62
253
  6
CONTINUOUS
 10
-174.4438839025
 20
-84.9079181877
 11
-174.4438839025
 21
60.0920818123
  0
LINE
  5
370
100
AcDbEntity
  8
RACCORDO
100
AcDbLine
 62
7
  6
CONTINUOUS
 10
-174.1938839025
 20
-86.892231671
 11
-174.1938839025
 21
62.0763952956
  0
LINE
  5
371
100
AcDbEntity
  8
ASSI
100
AcDbLine
 62
7
  6
CONTINUOUS
 10
-174.1938860617
 20
-86.8922316709
 11
-174.1938839025
 21
62.0763952956
  0
LINE
  5
372
100
AcDbEntity
  8
0
100
AcDbLine
 62
7
  6
CONTINUOUS
 10
-173.2020773368
 20
56.0920818123
 11
-173.2020773368
 21
-80.9079181877
  0
LINE
  5
373
100
AcDbEntity
  8
ASSI
100
AcDbLine
 62
7
  6
CONTINUOUS
 10
-173.2020773368
 20
56.0920818123
 11
-173.2020773368
 21
-80.9079181877
  0
LINE
  5
374
100
AcDbEntity
  8
RACCORDO
100
AcDbLine
 62
253
  6
CONTINUOUS
 10
-172.6910950281
 20
56.0920818123
 11
-172.6910950281
 21
-80.9079181877
  0
LINE
  5
375
100
AcDbEntity
  8
ASSI
100
AcDbLine
 62
253
  6
CONTINUOUS
 10
-172.6910950281
 20
56.0920818123
 11
-172.6910950281
 21
-80.9079181877
  0
LINE
  5
376
100
AcDbEntity
  8
RACCORDO
100
AcDbLine
 62
253
  6
CONTINUOUS
 10
-172.4769265632
 20
56.0920818123
 11
-172.4769265632
 21
-80.9079181877
  0
LINE
  5
377
100
AcDbEntity
  8
ASSI
100
AcDbLine
 62
253
  6
CONTINUOUS
 10
-172.4769265632
 20
56.0920818123
 11
-172.4769265632
 21
-80.9079181877
  0
LINE
  5
378
100
AcDbEntity
  8
ASSI
100
AcDbLine
 62
7
  6
CONTINUOUS
 10
-171.5035841837
 20
56.0920818123
 11
-171.5035841837
 21
56.1095368773
  0
LINE
  5
379
100
AcDbEntity
  8
RACCORDO
100
AcDbLine
 62
253
  6
CONTINUOUS
 10
-171.4966032211
 20
-80.9079181877
 11
-171.4966032211
 21
-80.9254951058
  0
LINE
  5
37A
100
AcDbEntity
  8
RACCORDO
100
AcDbLine
 62
7
  6
CONTINUOUS
 10
-171.1035841837
 20
-80.9323552786
 11
-171.1035841837
 21
-80.9079181877
  0
LINE
  5
37B
100
AcDbEntity
  8
RACCORDO
100
AcDbLine
 62
7
  6
CONTINUOUS
 10
-171.1035841837
 20
56.0920818123
 11
-171.1035841837
 21
56.1165189032
  0
LINE
  5
37C
100
AcDbEntity
  8
RACCORDO
100
AcDbLine
 62
253
  6
CONTINUOUS
 10
-170.6123103869
 20
-80.9409304946
 11
-170.6123103869
 21
-80.9079181877
  0
LINE
  5
37D
100
AcDbEntity
  8
RACCORDO
100
AcDbLine
 62
253
  6
CONTINUOUS
 10
-170.6123103869
 20
56.0920818123
 11
-170.6123103869
 21
56.1250941193
  0
LINE
  5
37E
100
AcDbEntity
  8
DRAFT
100
AcDbLine
 62
7
  6
CONTINUOUS
 10
-170.5035841837
 20
-80.9428283175
 11
-170.5035841837
 21
-80.9079181877
  0
LINE
  5
37F
100
AcDbEntity
  8
DRAFT
100
AcDbLine
 62
7
  6
CONTINUOUS
 10
-170.5035841837
 20
56.0920818123
 11
-170.5035841837
 21
56.1269919422
  0
LINE
  5
380
100
AcDbEntity
  8
RACCORDO
100
AcDbLine
 62
253
  6
CONTINUOUS
 10
-168.0535841837
 20
-80.9079181877
 11
-168.0535841837
 21
56.0920818123
  0
LINE
  5
381
100
AcDbEntity
  8
ASSI
100
AcDbLine
 62
253
  6
CONTINUOUS
 10
-168.0535841837
 20
-80.9079181877
 11
-168.0535841837
 21
56.0920818123
  0
LINE
  5
382
100
AcDbEntity
  8
RACCORDO
100
AcDbLine
 62
253
  6
CONTINUOUS
 10
-168.0000937024
 20
56.1706905311
 11
-168.0000937024
 21
56.0920818123
  0
LINE
  5
383
100
AcDbEntity
  8
RACCORDO
100
AcDbLine
 62
253
  6
CONTINUOUS
 10
-168.0000937024
 20
-80.9079181877
 11
-168.0000937024
 21
-80.9865269064
  0
LINE
  5
384
100
AcDbEntity
  8
DRAFT
100
AcDbLine
 62
7
  6
CONTINUOUS
 10
-167.8035841837
 20
-92.8079181877
 11
-167.8035841837
 21
-80.9899569928
  0
LINE
  5
385
100
AcDbEntity
  8
RACCORDO
100
AcDbLine
 62
7
  6
CONTINUOUS
 10
-167.8035841837
 20
-80.9899569928
 11
-167.8035841837
 21
56.1741206175
  0
LINE
  5
386
100
AcDbEntity
  8
ASSI
100
AcDbLine
 62
7
  6
CONTINUOUS
 10
-167.8035841837
 20
-80.9079181877
 11
-167.8035841837
 21
56.0920818123
  0
LINE
  5
387
100
AcDbEntity
  8
DRAFT
100
AcDbLine
 62
7
  6
CONTINUOUS
 10
-167.8035841837
 20
56.1741206175
 11
-167.8035841837
 21
67.9920818123
  0
LINE
  5
388
100
AcDbEntity
  8
RACCORDO
100
AcDbLine
 62
7
  6
CONTINUOUS
 10
-164.7485841837
 20
64.0920818123
 11
-164.7485841837
 21
-88.1079181877
  0
LINE
  5
389
100
AcDbEntity
  8
RACCORDO
100
AcDbLine
 62
253
  6
CONTINUOUS
 10
-163.0983484617
 20
32.2422831079
 11
-163.098112311
 21
-65.6447968291
  0
LINE
  5
38A
100
AcDbEntity
  8
RACCORDO
100
AcDbLine
 62
7
  6
CONTINUOUS
 10
-162.8035841837
 20
-67.7258336841
 11
-162.8035841837
 21
32.2422831079
  0
LINE
  5
38B
100
AcDbEntity
  8
RACCORDO
100
AcDbLine
 62
253
  6
CONTINUOUS
 10
-173.443849342
 20
56.1002873821
 11
-173.4436003789
 21
60.2967203496
  0
LINE
  5
38C
100
AcDbEntity
  8
RACCORDO
100
AcDbLine
 62
253
  6
CONTINUOUS
 10
-173.1883277996
 20
56.0980574793
 11
-173.1877465151
 21
60.302848074
  0
LINE
  5
38D
100
AcDbEntity
  8
RACCORDO
100
AcDbLine
 62
253
  6
CONTINUOUS
 10
-163.0963501523
 20
-66.877364325
 11
-163.0962331235
 21
-67.4911484897
  0
LINE
  5
38E
100
AcDbEntity
  8
RACCORDO
100
AcDbLine
 62
253
  6
CONTINUOUS
 10
-163.0962331235
 20
-67.4911484897
 11
-163.096779638
 21
-67.847018503
  0
LWPOLYLINE
  5
38F
100
AcDbEntity
  8
RACCORDO
100
AcDbPolyline
 62
253
  6
CONTINUOUS
 90
6
 70
0
 10
-163.096779638
 20
-67.847018503
 10
-163.0974526605
 20
-67.9807782107
 10
-163.0976584216
 20
-68.0004499007
 10
-163.0978808467
 20
-68.0145201387
 10
-163.098112366
 20
-68.0229690916
 10
-163.0983484617
 20
-68.0257879926
  0
LINE
  5
390
100
AcDbEntity
  8
DRAFT
100
AcDbLine
 62
7
  6
CONTINUOUS
 10
-173.9124808832
 20
-80.9202134429
 11
-173.9521647303
 21
-85.0298776228
  0
LWPOLYLINE
  5
391
100
AcDbEntity
  8
RACCORDO
100
AcDbPolyline
 62
253
  6
CONTINUOUS
 90
5
 70
0
 10
-172.6348223931
 20
-85.1806811518
 10
-172.6296817444
 20
-84.6959476913
 10
-172.6245861475
 20
-84.2163927019
 10
-172.6195356024
 20
-83.7420161835
 10
-172.6145680707
 20
-83.2763677668
  0
LWPOLYLINE
  5
392
100
AcDbEntity
  8
RACCORDO
100
AcDbPolyline
 62
253
  6
CONTINUOUS
 90
5
 70
0
 10
-172.8879093073
 20
-85.1728308581
 10
-172.8827005333
 20
-84.6891957325
 10
-172.8775369328
 20
-84.2107317153
 10
-172.8724188252
 20
-83.7374388063
 10
-172.8673848585
 20
-83.2728505718
  0
LWPOLYLINE
  5
393
100
AcDbEntity
  8
RACCORDO
100
AcDbPolyline
 62
253
  6
CONTINUOUS
 90
5
 70
0
 10
-172.6145680707
 20
-83.2763677668
 10
-172.604654278
 20
-82.3499574549
 10
-172.5995561709
 20
-81.8749970371
 10
-172.5943892309
 20
-81.3945661986
 10
-172.5891534581
 20
-80.9086649394
  0
LWPOLYLINE
  5
394
100
AcDbEntity
  8
RACCORDO
100
AcDbPolyline
 62
253
  6
CONTINUOUS
 90
5
 70
0
 10
-172.8673848585
 20
-83.2728505718
 10
-172.8573406047
 20
-82.3485867294
 10
-172.8521763314
 20
-81.8747768571
 10
-172.8469423998
 20
-81.3955373949
 10
-172.8416384689
 20
-80.9108683427
  0
LWPOLYLINE
  5
395
100
AcDbEntity
  8
RACCORDO
100
AcDbPolyline
 62
7
  6
CONTINUOUS
 90
11
 70
0
 10
-173.9521647303
 20
-85.0298776228
 10
-173.955537246
 20
-85.2265732712
 10
-173.9619757653
 20
-85.42326683
 10
-173.9714735432
 20
-85.6199582993
 10
-173.9840166053
 20
-85.8168407389
 10
-173.9995957902
 20
-86.013721089
 10
-174.0182066713
 20
-86.2100201698
 10
-174.0398132442
 20
-86.4055954903
 10
-174.064408849
 20
-86.6005895414
 10
-174.0920275753
 20
-86.7948506167
 10
-174.1226702804
 20
-86.9885444516
  0
LWPOLYLINE
  5
396
100
AcDbEntity
  8
RACCORDO
100
AcDbPolyline
 62
253
  6
CONTINUOUS
 90
25
 70
0
 10
-163.0983484617
 20
32.2422831079
 10
-163.0966128333
 20
32.2980131733
 10
-163.0914949752
 20
32.3531888667
 10
-163.0829948873
 20
32.4078101881
 10
-163.0710481552
 20
32.4621171525
 10
-163.0557191932
 20
32.5158697449
 10
-163.0372012451
 20
32.5683479208
 10
-163.015467663
 20
32.61948884
 10
-162.9905450946
 20
32.6693553427
 10
-162.9627067268
 20
32.717415904
 10
-162.9319155048
 20
32.7636632828
 10
-162.8982084834
 20
32.8081047201
 10
-162.8619700126
 20
32.8502304146
 10
-162.8231687301
 20
32.8900145965
 10
-162.7818359983
 20
32.9274830356
 10
-162.7384502543
 20
32.9622032398
 10
-162.6930020845
 20
32.9941370978
 10
-162.6455009025
 20
33.0233227208
 10
-162.5964533863
 20
33.0494419511
 10
-162.5458032436
 20
33.0724727523
 10
-162.4936067669
 20
33.0924371607
 10
-162.4405395116
 20
33.1090831281
 10
-162.386826663
 20
33.1223266385
 10
-162.3322430359
 20
33.1322517078
 10
-162.2767886302
 20
33.1388583362
  0
LWPOLYLINE
  5
397
100
AcDbEntity
  8
0
100
AcDbPolyline
 62
7
  6
CONTINUOUS
 90
40
 70
0
 10
-176.4329897403
 20
-86.8709885187
 10
-176.4814970653
 20
-87.1985249698
 10
-176.5212619696
 20
-87.4392443732
 10
-176.5649542982
 20
-87.6790002712
 10
-176.6126411841
 20
-87.9174737956
 10
-176.6642554943
 20
-88.1543887975
 10
-176.7195958307
 20
-88.3895088088
 10
-176.7787393429
 20
-88.6226417158
 10
-176.8416088812
 20
-88.8533330083
 10
-176.9077715987
 20
-89.0809561993
 10
-176.9772982155
 20
-89.3052503735
 10
-177.0501180114
 20
-89.5258342672
 10
-177.1255859787
 20
-89.7419436072
 10
-177.2037077202
 20
-89.9532009342
 10
-177.2844776331
 20
-90.159405569
 10
-177.3672339014
 20
-90.3601061631
 10
-177.451899424
 20
-90.5548323953
 10
-177.5385513019
 20
-90.7435310416
 10
-177.6267590222
 20
-90.9263512308
 10
-177.7166646207
 20
-91.1032489615
 10
-177.8081260616
 20
-91.273636622
 10
-177.9002867249
 20
-91.4368554523
 10
-177.9931682512
 20
-91.5926937576
 10
-178.0867489999
 20
-91.7408741235
 10
-178.1801074284
 20
-91.8807696005
 10
-178.2731734534
 20
-92.0121612541
 10
-178.3660171582
 20
-92.1349847182
 10
-178.4579272513
 20
-92.2489651932
 10
-178.5487977768
 20
-92.3539321158
 10
-178.6387346904
 20
-92.4499144693
 10
-178.7273445674
 20
-92.5369550955
 10
-178.8146891274
 20
-92.6150511315
 10
-178.9007066508
 20
-92.6840310871
 10
-178.9848185537
 20
-92.7437229332
 10
-179.0669328553
 20
-92.7941037479
 10
-179.1471415365
 20
-92.8352300974
 10
-179.2251419556
 20
-92.8671256603
 10
-179.3008332319
 20
-92.889833149
 10
-179.3743162462
 20
-92.9034090234
 10
-179.4455909982
 20
-92.9079181877
  0
LWPOLYLINE
  5
398
100
AcDbEntity
  8
ASSI
100
AcDbPolyline
 62
7
  6
CONTINUOUS
 90
40
 70
0
 10
-176.4329897403
 20
-86.8709885187
 10
-176.4814970653
 20
-87.1985249698
 10
-176.5212619696
 20
-87.4392443732
 10
-176.5649542982
 20
-87.6790002712
 10
-176.6126411841
 20
-87.9174737956
 10
-176.6642554943
 20
-88.1543887975
 10
-176.7195958307
 20
-88.3895088088
 10
-176.7787393429
 20
-88.6226417158
 10
-176.8416088812
 20
-88.8533330083
 10
-176.9077715987
 20
-89.0809561993
 10
-176.9772982155
 20
-89.3052503735
 10
-177.0501180114
 20
-89.5258342672
 10
-177.1255859787
 20
-89.7419436072
 10
-177.2037077202
 20
-89.9532009342
 10
-177.2844776331
 20
-90.159405569
 10
-177.3672339014
 20
-90.3601061631
 10
-177.451899424
 20
-90.5548323953
 10
-177.5385513019
 20
-90.7435310416
 10
-177.6267590222
 20
-90.9263512308
 10
-177.7166646207
 20
-91.1032489615
 10
-177.8081260616
 20
-91.273636622
 10
-177.9002867249
 20
-91.4368554523
 10
-177.9931682512
 20
-91.5926937576
 10
-178.0867489999
 20
-91.7408741235
 10
-178.1801074284
 20
-91.8807696005
 10
-178.2731734534
 20
-92.0121612541
 10
-178.3660171582
 20
-92.1349847182
 10
-178.4579272513
 20
-92.2489651932
 10
-178.5487977768
 20
-92.3539321158
 10
-178.6387346904
 20
-92.4499144693
 10
-178.7273445674
 20
-92.5369550955
 10
-178.8146891274
 20
-92.6150511315
 10
-178.9007066508
 20
-92.6840310871
 10
-178.9848185537
 20
-92.7437229332
 10
-179.0669328553
 20
-92.7941037479
 10
-179.1471415365
 20
-92.8352300974
 10
-179.2251419556
 20
-92.8671256603
 10
-179.3008332319
 20
-92.889833149
 10
-179.3743162462
 20
-92.9034090234
 10
-179.4455909982
 20
-92.9079181877
  0
LWPOLYLINE
  5
399
100
AcDbEntity
  8
RACCORDO
100
AcDbPolyline
 62
253
  6
CONTINUOUS
 90
10
 70
0
 10
-162.2558776297
 20
32.8399999267
 10
-162.2555245169
 20
32.841174523
 10
-162.2553726881
 20
32.844610233
 10
-162.2554232972
 20
32.8502809675
 10
-162.2556759603
 20
32.8581436582
 10
-162.2561287589
 20
32.8681385909
 10
-162.2567782551
 20
32.880189865
 10
-162.2576195167
 20
32.8942059556
 10
-162.2586461548
 20
32.9100804095
 10
-162.2612230256
 20
32.9469089696
  0
LWPOLYLINE
  5
39A
100
AcDbEntity
  8
RACCORDO
100
AcDbPolyline
 62
7
  6
CONTINUOUS
 90
11
 70
0
 10
-174.1226716997
 20
62.1727167546
 10
-174.0920290692
 20
61.9790242008
 10
-174.0644103248
 20
61.7847643285
 10
-174.039814647
 20
61.5897713421
 10
-174.0182079295
 20
61.3941961748
 10
-173.9995967838
 20
61.197895804
 10
-173.9840172618
 20
61.0010132522
 10
-173.9714739185
 20
60.8041285206
 10
-173.9619759586
 20
60.6074349428
 10
-173.9555373141
 20
60.410739185
 10
-173.9521647303
 20
60.2140412474
  0
LWPOLYLINE
  5
39B
100
AcDbEntity
  8
0
100
AcDbPolyline
 62
7
  6
CONTINUOUS
 90
12
 70
0
 10
-176.4814966283
 20
62.3826862458
 10
-176.4311439483
 20
62.0433830685
 10
-176.4160976364
 20
61.947421236
 10
-176.4005206495
 20
61.8534424085
 10
-176.3843470406
 20
61.7617052168
 10
-176.3676427567
 20
61.6720151165
 10
-176.3506056394
 20
61.5837191151
 10
-176.3332784594
 20
61.4968268768
 10
-176.315618446
 20
61.4113707932
 10
-176.2976951291
 20
61.3267214388
 10
-176.2795245036
 20
61.2428477248
 10
-176.2424148872
 20
61.0771061606
  0
LWPOLYLINE
  5
39C
100
AcDbEntity
  8
ASSI
100
AcDbPolyline
 62
7
  6
CONTINUOUS
 90
12
 70
0
 10
-176.4814966283
 20
62.3826862458
 10
-176.4311439483
 20
62.0433830685
 10
-176.4160976364
 20
61.947421236
 10
-176.4005206495
 20
61.8534424085
 10
-176.3843470406
 20
61.7617052168
 10
-176.3676427567
 20
61.6720151165
 10
-176.3506056394
 20
61.5837191151
 10
-176.3332784594
 20
61.4968268768
 10
-176.315618446
 20
61.4113707932
 10
-176.2976951291
 20
61.3267214388
 10
-176.2795245036
 20
61.2428477248
 10
-176.2424148872
 20
61.0771061606
  0
LINE
  5
39D
100
AcDbEntity
  8
RACCORDO
100
AcDbLine
 62
253
  6
CONTINUOUS
 10
-162.2702078038
 20
33.06158033
 11
-162.2767886304
 21
33.1388583362
  0
LINE
  5
39E
100
AcDbEntity
  8
RACCORDO
100
AcDbLine
 62
253
  6
CONTINUOUS
 10
-162.2644307317
 20
32.9895587793
 11
-162.2702078038
 21
33.06158033
  0
LINE
  5
39F
100
AcDbEntity
  8
RACCORDO
100
AcDbLine
 62
253
  6
CONTINUOUS
 10
-162.2612230256
 20
32.9469089696
 11
-162.2644307317
 21
32.9895587793
  0
LWPOLYLINE
  5
3A0
100
AcDbEntity
  8
0
100
AcDbPolyline
 62
7
  6
CONTINUOUS
 90
10
 70
0
 10
-174.2260067524
 20
-87.3209440479
 10
-174.2188211143
 20
-87.2766992155
 10
-174.2125557819
 20
-87.2309618543
 10
-174.2072107554
 20
-87.1837258342
 10
-174.2028048008
 20
-87.1350062491
 10
-174.199319152
 20
-87.0847760843
 10
-174.1966975105
 20
-87.0329658464
 10
-174.1949287301
 20
-86.9795428991
 10
-174.194023957
 20
-86.9245279185
 10
-174.1938860617
 20
-86.8922316709
  0
LWPOLYLINE
  5
3A1
100
AcDbEntity
  8
ASSI
100
AcDbPolyline
 62
7
  6
CONTINUOUS
 90
10
 70
0
 10
-174.2260067524
 20
-87.3209440479
 10
-174.2188211143
 20
-87.2766992155
 10
-174.2125557819
 20
-87.2309618543
 10
-174.2072107554
 20
-87.1837258342
 10
-174.2028048008
 20
-87.1350062491
 10
-174.199319152
 20
-87.0847760843
 10
-174.1966975105
 20
-87.0329658464
 10
-174.1949287301
 20
-86.9795428991
 10
-174.194023957
 20
-86.9245279185
 10
-174.1938860617
 20
-86.8922316709
  0
LINE
  5
3A2
100
AcDbEntity
  8
RACCORDO
100
AcDbLine
 62
7
  6
CONTINUOUS
 10
-174.1226702804
 20
-86.9885444516
 11
-174.1562719364
 21
-87.1815053108
  0
LINE
  5
3A3
100
AcDbEntity
  8
RACCORDO
100
AcDbLine
 62
7
  6
CONTINUOUS
 10
-174.1562719364
 20
-87.1815053108
 11
-174.1927625087
 21
-87.3730842811
  0
LWPOLYLINE
  5
3A4
100
AcDbEntity
  8
RACCORDO
100
AcDbPolyline
 62
7
  6
CONTINUOUS
 90
10
 70
0
 10
-174.1927625087
 20
-87.3730842811
 10
-174.2320735105
 20
-87.563158918
 10
-174.2741899074
 20
-87.7518516662
 10
-174.3191162873
 20
-87.9388809462
 10
-174.3668262279
 20
-88.1243317788
 10
-174.4172393336
 20
-88.3081191432
 10
-174.4702734554
 20
-88.4897063981
 10
-174.5258589632
 20
-88.6689146629
 10
-174.5839382088
 20
-88.8459228182
 10
-174.6407643985
 20
-89.0101054703
  0
LWPOLYLINE
  5
3A5
100
AcDbEntity
  8
0
100
AcDbPolyline
 62
7
  6
CONTINUOUS
 90
10
 70
0
 10
-176.3017901364
 20
-86.1616148042
 10
-176.3175213178
 20
-86.2363028182
 10
-176.3330229867
 20
-86.3116264496
 10
-176.3482797618
 20
-86.3875955319
 10
-176.3632474165
 20
-86.4647324179
 10
-176.3779569037
 20
-86.5430160618
 10
-176.3923772703
 20
-86.622436883
 10
-176.4063714304
 20
-86.703526666
 10
-176.4198936886
 20
-86.7864460622
 10
-176.4329897403
 20
-86.8709885187
  0
LWPOLYLINE
  5
3A6
100
AcDbEntity
  8
ASSI
100
AcDbPolyline
 62
7
  6
CONTINUOUS
 90
10
 70
0
 10
-176.3017901364
 20
-86.1616148042
 10
-176.3175213178
 20
-86.2363028182
 10
-176.3330229867
 20
-86.3116264496
 10
-176.3482797618
 20
-86.3875955319
 10
-176.3632474165
 20
-86.4647324179
 10
-176.3779569037
 20
-86.5430160618
 10
-176.3923772703
 20
-86.622436883
 10
-176.4063714304
 20
-86.703526666
 10
-176.4198936886
 20
-86.7864460622
 10
-176.4329897403
 20
-86.8709885187
  0
LINE
  5
3A7
100
AcDbEntity
  8
0
100
AcDbLine
 62
7
  6
CONTINUOUS
 10
-176.2695911762
 20
-86.0137710071
 11
-176.3017901364
 21
-86.1616148042
  0
LINE
  5
3A8
100
AcDbEntity
  8
ASSI
100
AcDbLine
 62
7
  6
CONTINUOUS
 10
-176.2695911762
 20
-86.0137710071
 11
-176.3017901364
 21
-86.1616148042
  0
LINE
  5
3A9
100
AcDbEntity
  8
0
100
AcDbLine
 62
7
  6
CONTINUOUS
 10
-176.2363955188
 20
-85.8666176628
 11
-176.2695911762
 21
-86.0137710071
  0
LINE
  5
3AA
100
AcDbEntity
  8
ASSI
100
AcDbLine
 62
7
  6
CONTINUOUS
 10
-176.2363955188
 20
-85.8666176628
 11
-176.2695911762
 21
-86.0137710071
  0
LINE
  5
3AB
100
AcDbEntity
  8
0
100
AcDbLine
 62
7
  6
CONTINUOUS
 10
-176.2022328883
 20
-85.7194471297
 11
-176.2363955188
 21
-85.8666176628
  0
LINE
  5
3AC
100
AcDbEntity
  8
ASSI
100
AcDbLine
 62
7
  6
CONTINUOUS
 10
-176.2022328883
 20
-85.7194471297
 11
-176.2363955188
 21
-85.8666176628
  0
LINE
  5
3AD
100
AcDbEntity
  8
0
100
AcDbLine
 62
7
  6
CONTINUOUS
 10
-176.1493902184
 20
-85.4982594996
 11
-176.2022328883
 21
-85.7194471297
  0
LINE
  5
3AE
100
AcDbEntity
  8
ASSI
100
AcDbLine
 62
7
  6
CONTINUOUS
 10
-176.1493902184
 20
-85.4982594996
 11
-176.2022328883
 21
-85.7194471297
  0
LINE
  5
3AF
100
AcDbEntity
  8
0
100
AcDbLine
 62
7
  6
CONTINUOUS
 10
-176.076898931
 20
-85.2030276215
 11
-176.1493902184
 21
-85.4982594996
  0
LINE
  5
3B0
100
AcDbEntity
  8
ASSI
100
AcDbLine
 62
7
  6
CONTINUOUS
 10
-176.076898931
 20
-85.2030276215
 11
-176.1493902184
 21
-85.4982594996
  0
LINE
  5
3B1
100
AcDbEntity
  8
0
100
AcDbLine
 62
7
  6
CONTINUOUS
 10
-176.0033164597
 20
-84.9079181877
 11
-176.076898931
 21
-85.2030276215
  0
LINE
  5
3B2
100
AcDbEntity
  8
ASSI
100
AcDbLine
 62
7
  6
CONTINUOUS
 10
-176.0033164597
 20
-84.9079181877
 11
-176.076898931
 21
-85.2030276215
  0
LWPOLYLINE
  5
3B3
100
AcDbEntity
  8
RACCORDO
100
AcDbPolyline
 62
7
  6
CONTINUOUS
 90
8
 70
0
 10
-143.1164981376
 20
42.7875858085
 10
-143.1164775204
 20
42.787660454
 10
-143.1171199941
 20
42.7877471345
 10
-143.118425559
 20
42.7878455597
 10
-143.1201396115
 20
42.7879510164
 10
-143.122516755
 20
42.7880676014
 10
-143.1263207998
 20
42.7882082347
 10
-143.1284970223
 20
42.7882751913
  0
LWPOLYLINE
  5
3B4
100
AcDbEntity
  8
RACCORDO
100
AcDbPolyline
 62
253
  6
CONTINUOUS
 90
25
 70
0
 10
-143.1070746679
 20
35.4417093974
 10
-143.1157652033
 20
35.415173861
 10
-143.1248803813
 20
35.3884808703
 10
-143.1343913039
 20
35.3617239523
 10
-143.1442083193
 20
35.3347417467
 10
-143.1543477563
 20
35.3078774421
 10
-143.1649243309
 20
35.2818848489
 10
-143.1759432959
 20
35.2566172065
 10
-143.1872658289
 20
35.2321112315
 10
-143.1987849114
 20
35.2091118294
 10
-143.2105052705
 20
35.18746366
 10
-143.2222142016
 20
35.1667647026
 10
-143.2335172119
 20
35.1472284348
 10
-143.2443307714
 20
35.1287817896
 10
-143.254561043
 20
35.1110181825
 10
-143.2638944379
 20
35.0938030499
 10
-143.272246245
 20
35.0771816572
 10
-143.2796506501
 20
35.061007434
 10
-143.2860521784
 20
35.0450462746
 10
-143.2914292024
 20
35.0293482667
 10
-143.2958086143
 20
35.0139312957
 10
-143.2992144205
 20
34.9985889694
 10
-143.3016471768
 20
34.9832936886
 10
-143.3031015316
 20
34.9681796837
 10
-143.3035841775
 20
34.9532996283
  0
LINE
  5
3B5
100
AcDbEntity
  8
0
100
AcDbLine
 62
7
  6
CONTINUOUS
 10
-176.1055825111
 20
60.5031497577
 11
-176.0033164597
 21
60.0920818123
  0
LINE
  5
3B6
100
AcDbEntity
  8
ASSI
100
AcDbLine
 62
7
  6
CONTINUOUS
 10
-176.1055825111
 20
60.5031497577
 11
-176.0033164597
 21
60.0920818123
  0
LINE
  5
3B7
100
AcDbEntity
  8
0
100
AcDbLine
 62
7
  6
CONTINUOUS
 10
-176.1653811794
 20
60.7486689003
 11
-176.1055825111
 21
60.5031497577
  0
LINE
  5
3B8
100
AcDbEntity
  8
ASSI
100
AcDbLine
 62
7
  6
CONTINUOUS
 10
-176.1653811794
 20
60.7486689003
 11
-176.1055825111
 21
60.5031497577
  0
LINE
  5
3B9
100
AcDbEntity
  8
0
100
AcDbLine
 62
7
  6
CONTINUOUS
 10
-176.2043275514
 20
60.9125876912
 11
-176.1653811794
 21
60.7486689003
  0
LINE
  5
3BA
100
AcDbEntity
  8
ASSI
100
AcDbLine
 62
7
  6
CONTINUOUS
 10
-176.2043275514
 20
60.9125876912
 11
-176.1653811794
 21
60.7486689003
  0
LINE
  5
3BB
100
AcDbEntity
  8
0
100
AcDbLine
 62
7
  6
CONTINUOUS
 10
-176.2424148872
 20
61.0771061606
 11
-176.2043275514
 21
60.9125876912
  0
LINE
  5
3BC
100
AcDbEntity
  8
ASSI
100
AcDbLine
 62
7
  6
CONTINUOUS
 10
-176.2424148872
 20
61.0771061606
 11
-176.2043275514
 21
60.9125876912
  0
LWPOLYLINE
  5
3BD
100
AcDbEntity
  8
RACCORDO
100
AcDbPolyline
 62
7
  6
CONTINUOUS
 90
3
 70
0
 10
-174.1927637485
 20
62.5572542003
 10
-174.1562732276
 20
62.3656761943
 10
-174.1226716997
 20
62.1727167546
  0
LWPOLYLINE
  5
3BE
100
AcDbEntity
  8
0
100
AcDbPolyline
 62
7
  6
CONTINUOUS
 90
37
 70
0
 10
-174.2260067524
 20
62.5051076725
 10
-174.2723889043
 20
62.7530641824
 10
-174.3233247862
 20
62.999272818
 10
-174.3787348
 20
63.2437335793
 10
-174.438530659
 20
63.4867744237
 10
-174.5026181594
 20
63.7280673937
 10
-174.570897042
 20
63.9666286172
 10
-174.6433048216
 20
64.2025463
 10
-174.7196729181
 20
64.4357322362
 10
-174.7997336859
 20
64.6649379354
 10
-174.8834127499
 20
64.8902096669
 10
-174.9705130801
 20
65.1115011613
 10
-175.0605854784
 20
65.3274251197
 10
-175.1535440854
 20
65.5379851192
 10
-175.2491789256
 20
65.7431775826
 10
-175.3468730086
 20
65.9416044795
 10
-175.4465258038
 20
66.1332156232
 10
-175.5479411647
 20
66.3180612005
 10
-175.6503957491
 20
66.4948937402
 10
-175.7537788445
 20
66.6636213211
 10
-175.8579296125
 20
66.8243358645
 10
-175.9621033432
 20
66.9760656634
 10
-176.0661901694
 20
67.1187007572
 10
-176.1700754252
 20
67.2523511066
 10
-176.2730717686
 20
67.3763748868
 10
-176.3750835567
 20
67.4906679473
 10
-176.4760421672
 20
67.5953344386
 10
-176.575368494
 20
67.6900449875
 10
-176.6729917837
 20
67.7747165785
 10
-176.768882605
 20
67.8494322271
 10
-176.8625881985
 20
67.9141116072
 10
-176.9540680518
 20
67.9686977132
 10
-177.0433231985
 20
68.0132475506
 10
-177.1300203704
 20
68.0478518102
 10
-177.214064543
 20
68.0725407221
 10
-177.2955696682
 20
68.0872840562
 10
-177.3745426096
 20
68.0920818123
  0
LWPOLYLINE
  5
3BF
100
AcDbEntity
  8
ASSI
100
AcDbPolyline
 62
7
  6
CONTINUOUS
 90
37
 70
0
 10
-174.2260067524
 20
62.5051076725
 10
-174.2723889043
 20
62.7530641824
 10
-174.3233247862
 20
62.999272818
 10
-174.3787348
 20
63.2437335793
 10
-174.438530659
 20
63.4867744237
 10
-174.5026181594
 20
63.7280673937
 10
-174.570897042
 20
63.9666286172
 10
-174.6433048216
 20
64.2025463
 10
-174.7196729181
 20
64.4357322362
 10
-174.7997336859
 20
64.6649379354
 10
-174.8834127499
 20
64.8902096669
 10
-174.9705130801
 20
65.1115011613
 10
-175.0605854784
 20
65.3274251197
 10
-175.1535440854
 20
65.5379851192
 10
-175.2491789256
 20
65.7431775826
 10
-175.3468730086
 20
65.9416044795
 10
-175.4465258038
 20
66.1332156232
 10
-175.5479411647
 20
66.3180612005
 10
-175.6503957491
 20
66.4948937402
 10
-175.7537788445
 20
66.6636213211
 10
-175.8579296125
 20
66.8243358645
 10
-175.9621033432
 20
66.9760656634
 10
-176.0661901694
 20
67.1187007572
 10
-176.1700754252
 20
67.2523511066
 10
-176.2730717686
 20
67.3763748868
 10
-176.3750835567
 20
67.4906679473
 10
-176.4760421672
 20
67.5953344386
 10
-176.575368494
 20
67.6900449875
 10
-176.6729917837
 20
67.7747165785
 10
-176.768882605
 20
67.8494322271
 10
-176.8625881985
 20
67.9141116072
 10
-176.9540680518
 20
67.9686977132
 10
-177.0433231985
 20
68.0132475506
 10
-177.1300203704
 20
68.0478518102
 10
-177.214064543
 20
68.0725407221
 10
-177.2955696682
 20
68.0872840562
 10
-177.3745426096
 20
68.0920818123
  0
LWPOLYLINE
  5
3C0
100
AcDbEntity
  8
RACCORDO
100
AcDbPolyline
 62
253
  6
CONTINUOUS
 90
16
 70
0
 10
-141.8035841837
 20
37.4356925129
 10
-141.8046556235
 20
37.4535970087
 10
-141.8078584602
 20
37.4713096559
 10
-141.8131583726
 20
37.488640675
 10
-141.8204985709
 20
37.5054043755
 10
-141.8298004052
 20
37.5214211473
 10
-141.8409642098
 20
37.5365193847
 10
-141.8538703685
 20
37.5505373219
 10
-141.8683805977
 20
37.5633247689
 10
-141.8843394305
 20
37.5747447212
 10
-141.9015758773
 20
37.5846748242
 10
-141.9199052606
 20
37.5930086862
 10
-141.9391311973
 20
37.5996570195
 10
-141.9590476964
 20
37.6045485936
 10
-141.9794413659
 20
37.6076309998
 10
-142.0000937024
 20
37.6088712137
  0
LWPOLYLINE
  5
3C1
100
AcDbEntity
  8
RACCORDO
100
AcDbPolyline
 62
253
  6
CONTINUOUS
 90
16
 70
0
 10
-141.8035841837
 20
40.4418407503
 10
-141.8046556144
 20
40.4597451698
 10
-141.8078584268
 20
40.4774577558
 10
-141.8131583051
 20
40.4947887303
 10
-141.8204984647
 20
40.5115524038
 10
-141.829800261
 20
40.5275691654
 10
-141.8409640315
 20
40.5426674063
 10
-141.8538701642
 20
40.5566853596
 10
-141.8683803789
 20
40.5694728324
 10
-141.8843392087
 20
40.5808928159
 10
-141.9015756657
 20
40.5908229529
 10
-141.9199050733
 20
40.5991568489
 10
-141.9391310446
 20
40.6058052118
 10
-141.9590475866
 20
40.6106968092
 10
-141.9794413074
 20
40.613779231
 10
-142.0000937024
 20
40.6150194511
  0
LINE
  5
3C2
100
AcDbEntity
  8
RACCORDO
100
AcDbLine
 62
253
  6
CONTINUOUS
 10
-143.5000937024
 20
34.7816062809
 11
-143.4935000817
 21
34.6633794173
  0
LWPOLYLINE
  5
3C3
100
AcDbEntity
  8
RACCORDO
100
AcDbPolyline
 62
253
  6
CONTINUOUS
 90
16
 70
0
 10
-141.8035841837
 20
41.7505799677
 10
-141.8046556067
 20
41.7712456716
 10
-141.8078583988
 20
41.7916899707
 10
-141.8131582483
 20
41.8116938194
 10
-141.8204983755
 20
41.8310428906
 10
-141.8298001396
 20
41.8495298715
 10
-141.8409638814
 20
41.8669566838
 10
-141.8538699923
 20
41.8831366102
 10
-141.8683801948
 20
41.8978962915
 10
-141.884339022
 20
41.9110775837
 10
-141.9015754877
 20
41.9225392566
 10
-141.9199049157
 20
41.9321585036
 10
-141.9391309161
 20
41.9398322576
 10
-141.9590474942
 20
41.9454782978
 10
-141.9794412582
 20
41.9490361297
 10
-142.0000937024
 20
41.9504676321
  0
LINE
  5
3C4
100
AcDbEntity
  8
RACCORDO
100
AcDbLine
 62
253
  6
CONTINUOUS
 10
-143.4935000817
 20
34.6633794173
 11
-143.4895112318
 21
34.5849409949
  0
LINE
  5
3C5
100
AcDbEntity
  8
RACCORDO
100
AcDbLine
 62
253
  6
CONTINUOUS
 10
-143.4895112318
 20
34.5849409949
 11
-143.4877937653
 21
34.5476394469
  0
LINE
  5
3C6
100
AcDbEntity
  8
RACCORDO
100
AcDbLine
 62
253
  6
CONTINUOUS
 10
-143.4877937653
 20
34.5476394469
 11
-143.48683921
 21
34.5245893124
  0
LINE
  5
3C7
100
AcDbEntity
  8
RACCORDO
100
AcDbLine
 62
253
  6
CONTINUOUS
 10
-143.48683921
 20
34.5245893124
 11
-143.4863725214
 21
34.5118324678
  0
LWPOLYLINE
  5
3C8
100
AcDbEntity
  8
RACCORDO
100
AcDbPolyline
 62
253
  6
CONTINUOUS
 90
10
 70
0
 10
-143.4863725214
 20
34.5118324678
 10
-143.4860449615
 20
34.5012666236
 10
-143.4859341607
 20
34.4968291352
 10
-143.4858587794
 20
34.4929649239
 10
-143.4858189064
 20
34.4896811807
 10
-143.4858146947
 20
34.4869839042
 10
-143.4858461417
 20
34.4848773372
 10
-143.4859131702
 20
34.4833655601
 10
-143.4860155709
 20
34.482451854
 10
-143.4861530351
 20
34.4821380463
  0
LINE
  5
3C9
100
AcDbEntity
  8
RACCORDO
100
AcDbLine
 62
253
  6
CONTINUOUS
 10
-141.9992063849
 20
36.2554400847
 11
-141.9990292676
 21
36.2467918608
  0
LWPOLYLINE
  5
3CA
100
AcDbEntity
  8
RACCORDO
100
AcDbPolyline
 62
253
  6
CONTINUOUS
 90
15
 70
0
 10
-143.107074665
 20
42.6731261018
 10
-143.1072499301
 20
42.6855420078
 10
-143.1075304871
 20
42.6969650178
 10
-143.1079163358
 20
42.7074476496
 10
-143.1084349359
 20
42.717035354
 10
-143.1090588277
 20
42.7257843771
 10
-143.1097056325
 20
42.7337578714
 10
-143.1103626462
 20
42.7409993034
 10
-143.1110425729
 20
42.7475514023
 10
-143.1117011457
 20
42.7534677185
 10
-143.1123304462
 20
42.7587852137
 10
-143.1129383929
 20
42.7635401218
 10
-143.1135044743
 20
42.7677772029
 10
-143.1140239538
 20
42.7715276371
 10
-143.1149310165
 20
42.7776970322
  0
LINE
  5
3CB
100
AcDbEntity
  8
RACCORDO
100
AcDbLine
 62
253
  6
CONTINUOUS
 10
-142.0000937024
 20
35.4706967141
 11
-141.9984640385
 21
35.3642840685
  0
LINE
  5
3CC
100
AcDbEntity
  8
RACCORDO
100
AcDbLine
 62
253
  6
CONTINUOUS
 10
-141.9990292676
 20
36.2467918608
 11
-141.9988814899
 21
36.235834181
  0
LINE
  5
3CD
100
AcDbEntity
  8
RACCORDO
100
AcDbLine
 62
253
  6
CONTINUOUS
 10
-143.7933635677
 20
43.3278084799
 11
-143.7927539258
 21
43.2717213448
  0
LWPOLYLINE
  5
3CE
100
AcDbEntity
  8
RACCORDO
100
AcDbPolyline
 62
253
  6
CONTINUOUS
 90
7
 70
0
 10
-143.1098142643
 20
35.171353214
 10
-143.1097347561
 20
35.1625441967
 10
-143.1096206748
 20
35.155242308
 10
-143.1094717461
 20
35.1494287394
 10
-143.1092887057
 20
35.1451725574
 10
-143.1090714504
 20
35.1425732075
 10
-143.1088195733
 20
35.1416979698
  0
LINE
  5
3CF
100
AcDbEntity
  8
RACCORDO
100
AcDbLine
 62
253
  6
CONTINUOUS
 10
-141.9984640385
 20
35.3642840685
 11
-141.9975946654
 21
35.2840172141
  0
LINE
  5
3D0
100
AcDbEntity
  8
RACCORDO
100
AcDbLine
 62
253
  6
CONTINUOUS
 10
-141.9988814899
 20
36.235834181
 11
-141.9987238652
 21
36.2151145519
  0
LINE
  5
3D1
100
AcDbEntity
  8
RACCORDO
100
AcDbLine
 62
253
  6
CONTINUOUS
 10
-143.7927539258
 20
43.2717213448
 11
-143.7918300516
 21
43.0950953081
  0
LINE
  5
3D2
100
AcDbEntity
  8
RACCORDO
100
AcDbLine
 62
253
  6
CONTINUOUS
 10
-141.9975946654
 20
35.2840172141
 11
-141.9973162215
 21
35.2362891526
  0
LINE
  5
3D3
100
AcDbEntity
  8
RACCORDO
100
AcDbLine
 62
253
  6
CONTINUOUS
 10
-143.1050176272
 20
36.2343735372
 11
-143.1049050937
 21
36.20076479
  0
LINE
  5
3D4
100
AcDbEntity
  8
RACCORDO
100
AcDbLine
 62
253
  6
CONTINUOUS
 10
-143.1098737987
 20
35.1934141687
 11
-143.1098142643
 21
35.171353214
  0
LINE
  5
3D5
100
AcDbEntity
  8
RACCORDO
100
AcDbLine
 62
253
  6
CONTINUOUS
 10
-143.7918300516
 20
43.0950953081
 11
-143.7912767656
 21
42.7624528879
  0
LINE
  5
3D6
100
AcDbEntity
  8
RACCORDO
100
AcDbLine
 62
253
  6
CONTINUOUS
 10
-141.9987238652
 20
36.2151145519
 11
-141.9986487049
 21
36.1799924067
  0
LINE
  5
3D7
100
AcDbEntity
  8
RACCORDO
100
AcDbLine
 62
253
  6
CONTINUOUS
 10
-143.7948579805
 20
36.488621265
 11
-143.7948579805
 21
40.8733886997
  0
LINE
  5
3D8
100
AcDbEntity
  8
RACCORDO
100
AcDbLine
 62
253
  6
CONTINUOUS
 10
-143.5000936992
 20
34.9533006033
 11
-143.5000937024
 21
34.7816062809
  0
LINE
  5
3D9
100
AcDbEntity
  8
RACCORDO
100
AcDbLine
 62
7
  6
CONTINUOUS
 10
-143.3035841837
 20
42.87308409
 11
-143.3035841837
 21
36.488621265
  0
LINE
  5
3DA
100
AcDbEntity
  8
RACCORDO
100
AcDbLine
 62
7
  6
CONTINUOUS
 10
-143.3035841837
 20
34.9533001466
 11
-143.3035841837
 21
34.6813769859
  0
LINE
  5
3DB
100
AcDbEntity
  8
RACCORDO
100
AcDbLine
 62
253
  6
CONTINUOUS
 10
-142.0000937024
 20
42.7687489047
 11
-141.9999958844
 21
41.7684182322
  0
LINE
  5
3DC
100
AcDbEntity
  8
RACCORDO
100
AcDbLine
 62
253
  6
CONTINUOUS
 10
-142.0000937024
 20
35.9693749928
 11
-142.0000937024
 21
35.4706967141
  0
LINE
  5
3DD
100
AcDbEntity
  8
RACCORDO
100
AcDbLine
 62
7
  6
CONTINUOUS
 10
-141.8035841837
 20
42.5687794237
 11
-141.8035841837
 21
35.3707081355
  0
LINE
  5
3DE
100
AcDbEntity
  8
SMUSSO
100
AcDbLine
 62
7
  6
CONTINUOUS
 10
-141.5035841837
 20
-80.6579181877
 11
-141.5035841837
 21
-76.6579181877
  0
LINE
  5
3DF
100
AcDbEntity
  8
SMUSSO
100
AcDbLine
 62
7
  6
CONTINUOUS
 10
-141.5035841837
 20
51.8420818123
 11
-141.5035841837
 21
55.8420818123
  0
LINE
  5
3E0
100
AcDbEntity
  8
SMUSSO
100
AcDbLine
 62
7
  6
CONTINUOUS
 10
-141.1035841837
 20
-80.2579181877
 11
-141.1035841837
 21
-77.0579181877
  0
LINE
  5
3E1
100
AcDbEntity
  8
0
100
AcDbLine
 62
7
  6
CONTINUOUS
 10
-141.1035841837
 20
-80.6579181877
 11
-141.1035841837
 21
-76.6579181877
  0
LINE
  5
3E2
100
AcDbEntity
  8
SMUSSO
100
AcDbLine
 62
7
  6
CONTINUOUS
 10
-141.1035841837
 20
52.2420818123
 11
-141.1035841837
 21
55.4420818123
  0
LINE
  5
3E3
100
AcDbEntity
  8
0
100
AcDbLine
 62
7
  6
CONTINUOUS
 10
-141.1035841837
 20
51.8420818123
 11
-141.1035841837
 21
55.8420818123
  0
LWPOLYLINE
  5
3E4
100
AcDbEntity
  8
RACCORDO
100
AcDbPolyline
 62
253
  6
CONTINUOUS
 90
3
 70
0
 10
-143.1071529385
 20
37.1554700805
 10
-143.1070997882
 20
37.4603828914
 10
-143.1071069278
 20
40.7927343835
  0
LWPOLYLINE
  5
3E5
100
AcDbEntity
  8
RACCORDO
100
AcDbPolyline
 62
253
  6
CONTINUOUS
 90
3
 70
0
 10
-143.107184492
 20
36.8931759776
 10
-143.1071725234
 20
37.0188382607
 10
-143.1071529385
 20
37.1554700805
  0
LINE
  5
3E6
100
AcDbEntity
  8
RACCORDO
100
AcDbLine
 62
253
  6
CONTINUOUS
 10
-143.107074665
 20
36.2886517259
 11
-143.107184492
 21
36.8931759776
  0
LWPOLYLINE
  5
3E7
100
AcDbEntity
  8
RACCORDO
100
AcDbPolyline
 62
253
  6
CONTINUOUS
 90
3
 70
0
 10
-141.9999959128
 20
41.3171761797
 10
-142.0000066931
 20
41.1958171851
 10
-142.0000568444
 20
37.4416338883
  0
LINE
  5
3E8
100
AcDbEntity
  8
RACCORDO
100
AcDbLine
 62
253
  6
CONTINUOUS
 10
-141.9999958844
 20
41.7684182322
 11
-141.9999959128
 21
41.3171761797
  0
LINE
  5
3E9
100
AcDbEntity
  8
RACCORDO
100
AcDbLine
 62
253
  6
CONTINUOUS
 10
-143.7912767656
 20
42.7624528879
 11
-143.7914154401
 21
42.3233124305
  0
LINE
  5
3EA
100
AcDbEntity
  8
RACCORDO
100
AcDbLine
 62
253
  6
CONTINUOUS
 10
-141.9973162215
 20
35.2362891526
 11
-141.9973009664
 21
35.2132089287
  0
LWPOLYLINE
  5
3EB
100
AcDbEntity
  8
RACCORDO
100
AcDbPolyline
 62
253
  6
CONTINUOUS
 90
3
 70
0
 10
-142.0000568444
 20
37.4416338883
 10
-142.0000568058
 20
36.2752691833
 10
-142.0000937024
 20
36.2693293013
  0
LINE
  5
3EC
100
AcDbEntity
  8
RACCORDO
100
AcDbLine
 62
253
  6
CONTINUOUS
 10
-143.7914154401
 20
42.3233124305
 11
-143.7924838262
 21
41.6909727414
  0
LINE
  5
3ED
100
AcDbEntity
  8
RACCORDO
100
AcDbLine
 62
253
  6
CONTINUOUS
 10
-143.1071069278
 20
40.7927343835
 11
-143.107074665
 21
42.6731261018
  0
LWPOLYLINE
  5
3EE
100
AcDbEntity
  8
RACCORDO
100
AcDbPolyline
 62
253
  6
CONTINUOUS
 90
3
 70
0
 10
-143.7924838262
 20
41.6909727414
 10
-143.7944582648
 20
40.9923483623
 10
-143.7948579805
 20
40.8733886997
  0
LINE
  5
3EF
100
AcDbEntity
  8
RACCORDO
100
AcDbLine
 62
253
  6
CONTINUOUS
 10
-143.1049050937
 20
36.20076479
 11
-143.1050176269
 21
36.1607149755
  0
LINE
  5
3F0
100
AcDbEntity
  8
RACCORDO
100
AcDbLine
 62
253
  6
CONTINUOUS
 10
-141.9986487049
 20
36.1799924067
 11
-141.9988441011
 21
36.1139456639
  0
LINE
  5
3F1
100
AcDbEntity
  8
RACCORDO
100
AcDbLine
 62
253
  6
CONTINUOUS
 10
-141.9973009664
 20
35.2132089287
 11
-141.9973543368
 21
35.2004409456
  0
LINE
  5
3F2
100
AcDbEntity
  8
RACCORDO
100
AcDbLine
 62
253
  6
CONTINUOUS
 10
-143.1097115944
 20
35.236226728
 11
-143.1098737987
 21
35.1934141687
  0
LINE
  5
3F3
100
AcDbEntity
  8
RACCORDO
100
AcDbLine
 62
253
  6
CONTINUOUS
 10
-141.9988441011
 20
36.1139456639
 11
-141.9996502062
 21
36.0103075396
  0
LINE
  5
3F4
100
AcDbEntity
  8
RACCORDO
100
AcDbLine
 62
253
  6
CONTINUOUS
 10
-143.1050176269
 20
36.1607149755
 11
-143.1055990988
 21
36.0912686879
  0
LINE
  5
3F5
100
AcDbEntity
  8
RACCORDO
100
AcDbLine
 62
253
  6
CONTINUOUS
 10
-143.1090262598
 20
35.3092174881
 11
-143.1097115944
 21
35.236226728
  0
LINE
  5
3F6
100
AcDbEntity
  8
RACCORDO
100
AcDbLine
 62
253
  6
CONTINUOUS
 10
-141.9996502062
 20
36.0103075396
 11
-142.0000937024
 21
35.9693749928
  0
LWPOLYLINE
  5
3F7
100
AcDbEntity
  8
RACCORDO
100
AcDbPolyline
 62
253
  6
CONTINUOUS
 90
10
 70
0
 10
-141.9973543368
 20
35.2004409456
 10
-141.9974579034
 20
35.1898702513
 10
-141.9975280993
 20
35.1854325701
 10
-141.9976105332
 20
35.1815695087
 10
-141.9977049139
 20
35.1782882409
 10
-141.9978109636
 20
35.1755947578
 10
-141.9979287095
 20
35.173493241
 10
-141.9980579207
 20
35.1719877685
 10
-141.9981980894
 20
35.1710816381
 10
-141.998348794
 20
35.1707766705
  0
LWPOLYLINE
  5
3F8
100
AcDbEntity
  8
RACCORDO
100
AcDbPolyline
 62
253
  6
CONTINUOUS
 90
3
 70
0
 10
-143.1055990988
 20
36.0912686879
 10
-143.1066380799
 20
36.0148350746
 10
-143.1070746649
 20
35.9886974174
  0
LWPOLYLINE
  5
3F9
100
AcDbEntity
  8
RACCORDO
100
AcDbPolyline
 62
253
  6
CONTINUOUS
 90
3
 70
0
 10
-143.107074665
 20
35.4417093974
 10
-143.1074715528
 20
35.4188123392
 10
-143.1090262598
 20
35.3092174881
  0
LWPOLYLINE
  5
3FA
100
AcDbEntity
  8
RACCORDO
100
AcDbPolyline
 62
7
  6
CONTINUOUS
 90
10
 70
0
 10
-174.6407643065
 20
64.1942688409
 10
-174.5839382754
 20
64.0300865461
 10
-174.5258591784
 20
63.8530788889
 10
-174.4702739031
 20
63.6738715353
 10
-174.417240187
 20
63.4922859515
 10
-174.3668275748
 20
63.3085006713
 10
-174.3191179501
 20
63.123051296
 10
-174.2741915291
 20
62.9360221388
 10
-174.2320749046
 20
62.7473288864
 10
-174.1927637485
 20
62.5572542003
  0
LWPOLYLINE
  5
3FB
100
AcDbEntity
  8
RACCORDO
100
AcDbPolyline
 62
253
  6
CONTINUOUS
 90
5
 70
0
 10
-143.7948579805
 20
43.3730079376
 10
-143.7944582701
 20
43.3701692584
 10
-143.7940726335
 20
43.3616742746
 10
-143.7937054123
 20
43.3475429464
 10
-143.7933635677
 20
43.3278084799
  0
LWPOLYLINE
  5
3FC
100
AcDbEntity
  8
RACCORDO
100
AcDbPolyline
 62
253
  6
CONTINUOUS
 90
44
 70
0
 10
-175.0018446058
 20
-90.7323776337
 10
-174.9157677983
 20
-90.5995199103
 10
-174.8314877269
 20
-90.4623122001
 10
-174.7489878652
 20
-90.3208385263
 10
-174.6682380098
 20
-90.1750485462
 10
-174.5893635569
 20
-90.0252104118
 10
-174.512454727
 20
-89.8715714571
 10
-174.4374932113
 20
-89.7141145244
 10
-174.3645123815
 20
-89.5529148578
 10
-174.2938873562
 20
-89.3887767444
 10
-174.2260387535
 20
-89.2226777736
 10
-174.1609472065
 20
-89.054690826
 10
-174.0986745596
 20
-88.8851310134
 10
-174.0396398069
 20
-88.7153612869
 10
-173.9838908361
 20
-88.5458975508
 10
-173.9313956897
 20
-88.377053702
 10
-173.8823935605
 20
-88.2100624143
 10
-173.8367845684
 20
-88.0451223225
 10
-173.7944549022
 20
-87.8824280326
 10
-173.7555158174
 20
-87.7231591244
 10
-173.7198622978
 20
-87.5677138027
 10
-173.6872712982
 20
-87.4160246767
 10
-173.657628979
 20
-87.2685898921
 10
-173.6308182007
 20
-87.1258156866
 10
-173.6066362913
 20
-86.9876282747
 10
-173.5848407865
 20
-86.8537503325
 10
-173.5652828875
 20
-86.7242677013
 10
-173.5478083395
 20
-86.5991829938
 10
-173.532191319
 20
-86.4780317547
 10
-173.5183112782
 20
-86.3608875572
 10
-173.5060444963
 20
-86.2477436889
 10
-173.4952007593
 20
-86.1380182568
 10
-173.4856876138
 20
-86.0317816588
 10
-173.4774135768
 20
-85.9290437601
 10
-173.4702292743
 20
-85.829122456
 10
-173.4640656097
 20
-85.7320573044
 10
-173.458856453
 20
-85.6378581932
 10
-173.4544930787
 20
-85.5457911826
 10
-173.4509261014
 20
-85.4559013185
 10
-173.4481078182
 20
-85.3681780017
 10
-173.4459676872
 20
-85.2818005517
 10
-173.4444712508
 20
-85.1965037703
 10
-173.4436005018
 20
-85.1125776357
 10
-173.443849342
 20
-80.9161237574
  0
LWPOLYLINE
  5
3FD
100
AcDbEntity
  8
RACCORDO
100
AcDbPolyline
 62
253
  6
CONTINUOUS
 90
13
 70
0
 10
-174.9143125564
 20
65.781375259
 10
-175.0004601489
 20
65.9144614081
 10
-175.0879467849
 20
66.0423368456
 10
-175.1759468537
 20
66.1637770171
 10
-175.2643804533
 20
66.2786652989
 10
-175.352952166
 20
66.3866456354
 10
-175.4405433077
 20
66.4865460797
 10
-175.5270126391
 20
66.5784603178
 10
-175.612140876
 20
66.6623683541
 10
-175.6947273263
 20
66.7374212197
 10
-175.7746693188
 20
66.8039581888
 10
-175.8519099236
 20
66.8623574228
 10
-175.912198955
 20
66.9033795578
  0
LWPOLYLINE
  5
3FE
100
AcDbEntity
  8
RACCORDO
100
AcDbPolyline
 62
7
  6
CONTINUOUS
 90
5
 70
0
 10
-143.2973007343
 20
42.9098707984
 10
-143.3023337873
 20
42.9230997674
 10
-143.3064865194
 20
42.9369106436
 10
-143.3096817424
 20
42.9512471597
 10
-143.310312772
 20
42.9548494795
  0
LWPOLYLINE
  5
3FF
100
AcDbEntity
  8
RACCORDO
100
AcDbPolyline
 62
253
  6
CONTINUOUS
 90
8
 70
0
 10
-143.107074665
 20
36.2886517259
 10
-143.1066380799
 20
36.287502783
 10
-143.1062446894
 20
36.2840806321
 10
-143.1058974833
 20
36.2784113078
 10
-143.1055990991
 20
36.2705379403
 10
-143.1053518063
 20
36.2605204275
 10
-143.1051574896
 20
36.2484349791
 10
-143.1050176272
 20
36.2343735372
  0
LINE
  5
400
100
AcDbEntity
  8
RACCORDO
100
AcDbLine
 62
253
  6
CONTINUOUS
 10
-143.1156401392
 20
42.7822931829
 11
-143.1164981376
 21
42.7875858085
  0
LINE
  5
401
100
AcDbEntity
  8
RACCORDO
100
AcDbLine
 62
253
  6
CONTINUOUS
 10
-143.1149310165
 20
42.7776970322
 11
-143.1156401392
 21
42.7822931829
  0
LINE
  5
402
100
AcDbEntity
  8
RACCORDO
100
AcDbLine
 62
7
  6
CONTINUOUS
 10
-143.4861530351
 20
34.4821380463
 11
-162.2558776293
 21
32.8399999268
  0
LINE
  5
403
100
AcDbEntity
  8
RACCORDO
100
AcDbLine
 62
253
  6
CONTINUOUS
 10
-143.5000937024
 20
34.7816062809
 11
-162.2767886302
 21
33.1388583362
  0
LINE
  5
404
100
AcDbEntity
  8
RACCORDO
100
AcDbLine
 62
7
  6
CONTINUOUS
 10
-141.998348794
 20
35.1707766705
 11
-143.1088195733
 21
35.1416979698
  0
LINE
  5
405
100
AcDbEntity
  8
RACCORDO
100
AcDbLine
 62
253
  6
CONTINUOUS
 10
-142.0000937024
 20
35.4706967141
 11
-143.107074665
 21
35.4417093974
  0
LINE
  5
406
100
AcDbEntity
  8
RACCORDO
100
AcDbLine
 62
253
  6
CONTINUOUS
 10
-162.8035841837
 20
32.2422831082
 11
-163.0983484617
 21
32.2422831081
  0
LINE
  5
407
100
AcDbEntity
  8
RACCORDO
100
AcDbLine
 62
253
  6
CONTINUOUS
 10
-143.3035841837
 20
34.7816062809
 11
-143.5000937024
 21
34.7816062809
  0
LINE
  5
408
100
AcDbEntity
  8
RACCORDO
100
AcDbLine
 62
253
  6
CONTINUOUS
 10
-143.3035841837
 20
34.9533001036
 11
-143.5000936992
 21
34.9533006033
  0
LINE
  5
409
100
AcDbEntity
  8
RACCORDO
100
AcDbLine
 62
253
  6
CONTINUOUS
 10
-141.8035841837
 20
35.4706967141
 11
-142.0000937024
 21
35.4706967141
  0
LINE
  5
40A
100
AcDbEntity
  8
RACCORDO
100
AcDbLine
 62
253
  6
CONTINUOUS
 10
-141.8035841837
 20
35.9693749928
 11
-142.0000937024
 21
35.9693749928
  0
LINE
  5
40B
100
AcDbEntity
  8
RACCORDO
100
AcDbLine
 62
253
  6
CONTINUOUS
 10
-143.3035841837
 20
36.488621265
 11
-143.7948579805
 21
36.4886212639
  0
LINE
  5
40C
100
AcDbEntity
  8
RACCORDO
100
AcDbLine
 62
253
  6
CONTINUOUS
 10
-143.3035841837
 20
40.8733886997
 11
-143.7948579805
 21
40.8733886997
  0
LINE
  5
40D
100
AcDbEntity
  8
RACCORDO
100
AcDbLine
 62
253
  6
CONTINUOUS
 10
-142.0000937024
 20
40.6150194511
 11
-143.107074665
 21
40.6341942632
  0
LINE
  5
40E
100
AcDbEntity
  8
RACCORDO
100
AcDbLine
 62
253
  6
CONTINUOUS
 10
-143.1182106336
 20
35.9888873283
 11
-142.0000937024
 21
35.9693749928
  0
LINE
  5
40F
100
AcDbEntity
  8
RACCORDO
100
AcDbLine
 62
7
  6
CONTINUOUS
 10
-143.107074665
 20
36.2886517259
 11
-142.0000937024
 21
36.2693293013
  0
LINE
  5
410
100
AcDbEntity
  8
RACCORDO
100
AcDbLine
 62
253
  6
CONTINUOUS
 10
-143.107074665
 20
37.6281936383
 11
-142.0000937024
 21
37.6088712137
  0
LINE
  5
411
100
AcDbEntity
  8
RACCORDO
100
AcDbLine
 62
253
  6
CONTINUOUS
 10
-143.7948579805
 20
40.8733886997
 11
-164.7485841837
 21
41.2391373511
  0
LWPOLYLINE
  5
412
100
AcDbEntity
  8
RACCORDO
100
AcDbPolyline
 62
253
  6
CONTINUOUS
 90
75
 70
0
 10
-143.1182106336
 20
35.9888873283
 10
-143.1293355844
 20
35.9891359165
 10
-143.1404495174
 20
35.9894431821
 10
-143.151556348
 20
35.9897998444
 10
-143.1626521608
 20
35.9902151841
 10
-143.1737252096
 20
35.9907170431
 10
-143.1847425479
 20
35.9913043366
 10
-143.1957371221
 20
35.9919781495
 10
-143.2067960257
 20
35.9927695779
 10
-143.2178907014
 20
35.9936715727
 10
-143.2290497064
 20
35.994691183
 10
-143.2404458051
 20
35.9958806526
 10
-143.2521067158
 20
35.9972350598
 10
-143.2640047203
 20
35.9987593262
 10
-143.2762294286
 20
36.0005204601
 10
-143.2888181527
 20
36.0025189824
 10
-143.3017335807
 20
36.0047543721
 10
-143.314953387
 20
36.0072920744
 10
-143.3285250185
 20
36.0101449235
 10
-143.3424010284
 20
36.0133000852
 10
-143.356416751
 20
36.0167845015
 10
-143.3705776781
 20
36.0206113478
 10
-143.3848783179
 20
36.0247674488
 10
-143.3991375296
 20
36.0292402204
 10
-143.4133479879
 20
36.0340416526
 10
-143.4275170182
 20
36.0391597554
 10
-143.4414854563
 20
36.0445459755
 10
-143.4552196289
 20
36.0501971457
 10
-143.4687532094
 20
36.0561164331
 10
-143.4820280537
 20
36.0622647867
 10
-143.4950137654
 20
36.0686285387
 10
-143.5077407409
 20
36.0752213568
 10
-143.5202420255
 20
36.0820451932
 10
-143.5325349991
 20
36.0891082846
 10
-143.5446022819
 20
36.0964023942
 10
-143.5564247793
 20
36.1039047636
 10
-143.5680008617
 20
36.1116154231
 10
-143.5793321588
 20
36.1195343424
 10
-143.5904044645
 20
36.1276386723
 10
-143.6012172708
 20
36.1359288287
 10
-143.6117710857
 20
36.1444043958
 10
-143.6220532281
 20
36.153041277
 10
-143.6320669307
 20
36.16184398
 10
-143.6418089608
 20
36.1708079973
 10
-143.6512569388
 20
36.1798957095
 10
-143.660409227
 20
36.1891083748
 10
-143.6692674631
 20
36.1984447351
 10
-143.6778141816
 20
36.2078633968
 10
-143.6860431852
 20
36.2173588957
 10
-143.693960671
 20
36.2269366959
 10
-143.701567765
 20
36.2365717966
 10
-143.7088609928
 20
36.2462582105
 10
-143.7158438288
 20
36.2560019248
 10
-143.7225278215
 20
36.2657958998
 10
-143.728913216
 20
36.2756366347
 10
-143.7349997673
 20
36.2855276302
 10
-143.7407982881
 20
36.2954723484
 10
-143.7463090352
 20
36.3054644023
 10
-143.7515317518
 20
36.3155101789
 10
-143.7564764802
 20
36.3256323014
 10
-143.7611469211
 20
36.3358275941
 10
-143.7655393738
 20
36.3460992327
 10
-143.7696527786
 20
36.3564793678
 10
-143.7734947038
 20
36.3669780164
 10
-143.7770575811
 20
36.3775851615
 10
-143.7803176459
 20
36.3883029016
 10
-143.7832778008
 20
36.3991418187
 10
-143.7859351432
 20
36.4100913309
 10
-143.7882572008
 20
36.4211217907
 10
-143.7902415067
 20
36.4322353119
 10
-143.7918905279
 20
36.4434297807
 10
-143.7931791931
 20
36.4546692092
 10
-143.794099145
 20
36.4659416014
 10
-143.7946587408
 20
36.4772589533
 10
-143.7948579805
 20
36.488621265
  0
LWPOLYLINE
  5
413
100
AcDbEntity
  8
RACCORDO
100
AcDbPolyline
 62
253
  6
CONTINUOUS
 90
16
 70
0
 10
-143.107074665
 20
37.6281936383
 10
-143.1277270599
 20
37.6294338584
 10
-143.1481207807
 20
37.6325162801
 10
-143.1680373227
 20
37.6374078775
 10
-143.187263294
 20
37.6440562405
 10
-143.2055927016
 20
37.6523901364
 10
-143.2228291587
 20
37.6623202734
 10
-143.2387879884
 20
37.673740257
 10
-143.2532982031
 20
37.6865277298
 10
-143.2662043359
 20
37.700545683
 10
-143.2773681064
 20
37.715643924
 10
-143.2866699026
 20
37.7316606855
 10
-143.2940100622
 20
37.7484243591
 10
-143.2993099405
 20
37.7657553336
 10
-143.302512753
 20
37.7834679196
 10
-143.3035841837
 20
37.8013723391
  0
LWPOLYLINE
  5
414
100
AcDbEntity
  8
RACCORDO
100
AcDbPolyline
 62
253
  6
CONTINUOUS
 90
16
 70
0
 10
-143.107074665
 20
40.6341942632
 10
-143.1277270269
 20
40.6354344799
 10
-143.1481207187
 20
40.6385168928
 10
-143.1680372364
 20
40.643408477
 10
-143.1872631882
 20
40.6500568232
 10
-143.205592582
 20
40.6583907
 10
-143.2228290333
 20
40.6683208178
 10
-143.2387878647
 20
40.6797407836
 10
-143.2532980877
 20
40.6925282418
 10
-143.266204235
 20
40.706546186
 10
-143.2773680248
 20
40.7216444249
 10
-143.2866698426
 20
40.7376611923
 10
-143.294010024
 20
40.7544248811
 10
-143.2993099217
 20
40.7717558808
 10
-143.3025127478
 20
40.7894685014
 10
-143.3035841837
 20
40.807372964
  0
LWPOLYLINE
  5
415
100
AcDbEntity
  8
RACCORDO
100
AcDbPolyline
 62
253
  6
CONTINUOUS
 90
9
 70
0
 10
-142.0000937024
 20
36.2693293013
 10
-141.9999753393
 20
36.2691469339
 10
-141.999857408
 20
36.2685826716
 10
-141.9997407394
 20
36.2676042937
 10
-141.9996263171
 20
36.2661765326
 10
-141.9995149903
 20
36.2642681244
 10
-141.9994073219
 20
36.2618593894
 10
-141.9993041417
 20
36.2589249221
 10
-141.9992063849
 20
36.2554400847
  0
LINE
  5
416
100
AcDbEntity
  8
SMUSSO
100
AcDbLine
 62
7
  6
CONTINUOUS
 10
-141.1035841837
 20
-80.2579181877
 11
-141.5035841837
 21
-80.6579181877
  0
LWPOLYLINE
  5
417
100
AcDbEntity
  8
RACCORDO
100
AcDbPolyline
 62
253
  6
CONTINUOUS
 90
12
 70
0
 10
-175.9121870221
 20
-91.7191985465
 10
-175.852378663
 20
-91.6785301432
 10
-175.7752057035
 20
-91.6202202733
 10
-175.6953377173
 20
-91.5537886024
 10
-175.6128319436
 20
-91.4788588277
 10
-175.5277896025
 20
-91.3950920322
 10
-175.4414121481
 20
-91.3033390993
 10
-175.3539214537
 20
-91.2036249876
 10
-175.2654557913
 20
-91.0958549941
 10
-175.177125785
 20
-90.981191621
 10
-175.0892312229
 20
-90.8599970005
 10
-175.0018446058
 20
-90.7323776337
  0
LINE
  5
418
100
AcDbEntity
  8
0
100
AcDbLine
 62
7
  6
CONTINUOUS
 10
-180.4936816361
 20
45.3420818123
 11
-181.803576621
 21
45.3420818123
  0
LINE
  5
419
100
AcDbEntity
  8
ASSI
100
AcDbLine
 62
7
  6
CONTINUOUS
 10
-180.4936816361
 20
45.3420818123
 11
-181.803576621
 21
45.3420818123
  0
LINE
  5
41A
100
AcDbEntity
  8
0
100
AcDbLine
 62
7
  6
CONTINUOUS
 10
-164.7485841837
 20
51.8420818123
 11
-141.5035841837
 21
51.8420818123
  0
LINE
  5
41B
100
AcDbEntity
  8
0
100
AcDbLine
 62
7
  6
CONTINUOUS
 10
-141.1035841837
 20
51.8420818123
 11
-141.5035841837
 21
51.8420818123
  0
LINE
  5
41C
100
AcDbEntity
  8
RACCORDO
100
AcDbLine
 62
253
  6
CONTINUOUS
 10
-142.0000937024
 20
41.9504676321
 11
-143.107074665
 21
41.9696417424
  0
LINE
  5
41D
100
AcDbEntity
  8
RACCORDO
100
AcDbLine
 62
7
  6
CONTINUOUS
 10
-142.0000937024
 20
42.7687489047
 11
-143.1270928577
 21
42.7884356546
  0
LINE
  5
41E
100
AcDbEntity
  8
RACCORDO
100
AcDbLine
 62
7
  6
CONTINUOUS
 10
-143.7948579805
 20
43.3730079376
 11
-164.7485841837
 21
43.738756589
  0
LWPOLYLINE
  5
41F
100
AcDbEntity
  8
RACCORDO
100
AcDbPolyline
 62
253
  6
CONTINUOUS
 90
16
 70
0
 10
-143.107074665
 20
41.9696417424
 10
-143.1277270599
 20
41.9710732387
 10
-143.1481207807
 20
41.9746310552
 10
-143.1680373227
 20
41.9802770723
 10
-143.187263294
 20
41.9879507969
 10
-143.2055927016
 20
41.9975700103
 10
-143.2228291587
 20
42.0090316493
 10
-143.2387879884
 20
42.0222129104
 10
-143.2532982031
 20
42.0369725656
 10
-143.2662043359
 20
42.0531524752
 10
-143.2773681064
 20
42.0705792829
 10
-143.2866699026
 20
42.0890662724
 10
-143.2940100622
 20
42.1084153685
 10
-143.2993099405
 20
42.128419259
 10
-143.302512753
 20
42.1488636161
 10
-143.3035841837
 20
42.1695293927
  0
LWPOLYLINE
  5
420
100
AcDbEntity
  8
RACCORDO
100
AcDbPolyline
 62
253
  6
CONTINUOUS
 90
16
 70
0
 10
-143.107074665
 20
42.6731261018
 10
-143.127727045
 20
42.6745581001
 10
-143.1481207539
 20
42.6781171642
 10
-143.1680372873
 20
42.6837651622
 10
-143.1872632535
 20
42.6914415805
 10
-143.2055926592
 20
42.7010641722
 10
-143.2228291171
 20
42.7125298387
 10
-143.23878795
 20
42.7257157338
 10
-143.2532981699
 20
42.7404805803
 10
-143.2662043087
 20
42.7566661831
 10
-143.2773680858
 20
42.7740991249
 10
-143.2866698886
 20
42.7925926239
 10
-143.2940100539
 20
42.8119485347
 10
-143.2993099366
 20
42.8319594716
 10
-143.3025127519
 20
42.8524110316
 10
-143.3035841837
 20
42.87308409
  0
LINE
  5
421
100
AcDbEntity
  8
RACCORDO
100
AcDbLine
 62
7
  6
CONTINUOUS
 10
-143.1270320463
 20
42.7881847904
 11
-143.1328486281
 21
42.7886285669
  0
LWPOLYLINE
  5
422
100
AcDbEntity
  8
RACCORDO
100
AcDbPolyline
 62
7
  6
CONTINUOUS
 90
12
 70
0
 10
-143.1328486281
 20
42.7886285669
 10
-143.133902606
 20
42.7887302131
 10
-143.1353722754
 20
42.7888833603
 10
-143.1369987572
 20
42.7890668361
 10
-143.1388198984
 20
42.7892894444
 10
-143.1410233236
 20
42.7895827492
 10
-143.1435578666
 20
42.7899523122
 10
-143.146470959
 20
42.7904194015
 10
-143.1500942897
 20
42.7910635023
 10
-143.1544785639
 20
42.7919368039
 10
-143.1595534125
 20
42.7930772395
 10
-143.1654590359
 20
42.7945819994
  0
LWPOLYLINE
  5
423
100
AcDbEntity
  8
RACCORDO
100
AcDbPolyline
 62
7
  6
CONTINUOUS
 90
5
 70
0
 10
-143.1654590359
 20
42.7945819994
 10
-143.1722687109
 20
42.7965594475
 10
-143.1798478842
 20
42.799074732
 10
-143.1880145783
 20
42.8021703925
 10
-143.1967470462
 20
42.8059452148
  0
LWPOLYLINE
  5
424
100
AcDbEntity
  8
RACCORDO
100
AcDbPolyline
 62
7
  6
CONTINUOUS
 90
3
 70
0
 10
-143.1967470462
 20
42.8059452148
 10
-143.2059541035
 20
42.810478368
 10
-143.2153539799
 20
42.8157380669
  0
LWPOLYLINE
  5
425
100
AcDbEntity
  8
RACCORDO
100
AcDbPolyline
 62
7
  6
CONTINUOUS
 90
11
 70
0
 10
-143.2153539799
 20
42.8157380669
 10
-143.2248726953
 20
42.8217762449
 10
-143.234441143
 20
42.8286501073
 10
-143.2438098728
 20
42.8362670705
 10
-143.2528672514
 20
42.8445973471
 10
-143.2615914539
 20
42.8536866257
 10
-143.2698883424
 20
42.863512333
 10
-143.2776791823
 20
42.8740577323
 10
-143.2848961579
 20
42.8853157771
 10
-143.2914627332
 20
42.8972641105
 10
-143.2973007343
 20
42.9098707984
  0
LINE
  5
426
100
AcDbEntity
  8
SMUSSO
100
AcDbLine
 62
7
  6
CONTINUOUS
 10
-141.1035841837
 20
55.4420818123
 11
-141.5035841837
 21
55.8420818123
  0
LWPOLYLINE
  5
427
100
AcDbEntity
  8
RACCORDO
100
AcDbPolyline
 62
253
  6
CONTINUOUS
 90
6
 70
0
 10
-172.8879094736
 20
60.3569944844
 10
-172.8740287027
 20
60.357891508
 10
-172.8583828386
 20
60.3587631498
 10
-172.841084859
 20
60.3596031157
 10
-172.8222596716
 20
60.3604053404
 10
-172.8020432118
 20
60.3611640312
  0
LINE
  5
428
100
AcDbEntity
  8
RACCORDO
100
AcDbLine
 62
253
  6
CONTINUOUS
 10
-172.8020432118
 20
60.3611640312
 11
-172.7580293937
 21
60.3625292507
  0
LINE
  5
429
100
AcDbEntity
  8
RACCORDO
100
AcDbLine
 62
253
  6
CONTINUOUS
 10
-173.1875294027
 20
60.2168144796
 11
-173.2012785952
 21
60.2164324894
  0
LINE
  5
42A
100
AcDbEntity
  8
RACCORDO
100
AcDbLine
 62
253
  6
CONTINUOUS
 10
-172.7580293937
 20
60.3625292507
 11
-172.7103123932
 21
60.3636594131
  0
LINE
  5
42B
100
AcDbEntity
  8
RACCORDO
100
AcDbLine
 62
253
  6
CONTINUOUS
 10
-173.2012785952
 20
60.2164324894
 11
-173.234207433
 21
60.2157384921
  0
LINE
  5
42C
100
AcDbEntity
  8
DRAFT
100
AcDbLine
 62
7
  6
CONTINUOUS
 10
-167.8035841837
 20
56.1741206175
 11
-172.4769346827
 21
56.0925469811
  0
LINE
  5
42D
100
AcDbEntity
  8
RACCORDO
100
AcDbLine
 62
7
  6
CONTINUOUS
 10
-167.8035841837
 20
67.9920818123
 11
-176.7515090508
 21
67.8358952028
  0
LINE
  5
42E
100
AcDbEntity
  8
RACCORDO
100
AcDbLine
 62
253
  6
CONTINUOUS
 10
-176.099051333
 20
67.5548838455
 11
-176.4314763146
 21
67.5491318275
  0
LWPOLYLINE
  5
42F
100
AcDbEntity
  8
RACCORDO
100
AcDbPolyline
 62
253
  6
CONTINUOUS
 90
3
 70
0
 10
-172.7103123932
 20
60.3636594131
 10
-172.6602679676
 20
60.364521934
 10
-172.6348223724
 20
60.3648447351
  0
LINE
  5
430
100
AcDbEntity
  8
RACCORDO
100
AcDbLine
 62
253
  6
CONTINUOUS
 10
-173.234207433
 20
60.2157384921
 11
-173.2735355235
 21
60.2151547715
  0
LINE
  5
431
100
AcDbEntity
  8
RACCORDO
100
AcDbLine
 62
253
  6
CONTINUOUS
 10
-173.2735355235
 20
60.2151547715
 11
-173.3419142564
 21
60.2145230479
  0
LINE
  5
432
100
AcDbEntity
  8
RACCORDO
100
AcDbLine
 62
253
  6
CONTINUOUS
 10
-173.3419142564
 20
60.2145230479
 11
-173.4174343216
 21
60.2142200602
  0
LINE
  5
433
100
AcDbEntity
  8
RACCORDO
100
AcDbLine
 62
253
  6
CONTINUOUS
 10
-167.8035841837
 20
60.3677878363
 11
-172.6348223931
 21
60.3648447765
  0
LINE
  5
434
100
AcDbEntity
  8
RACCORDO
100
AcDbLine
 62
253
  6
CONTINUOUS
 10
-173.4174343216
 20
60.2142200602
 11
-173.9521647303
 21
60.2140412474
  0
LINE
  5
435
100
AcDbEntity
  8
ELVOX
100
AcDbLine
 62
253
  6
CONTINUOUS
 10
-181.7655314821
 20
55.706808687
 11
-181.7537047243
 21
55.706808687
  0
LINE
  5
436
100
AcDbEntity
  8
ELVOX
100
AcDbLine
 62
253
  6
CONTINUOUS
 10
-181.7849132794
 20
55.706808687
 11
-181.7763880173
 21
55.706808687
  0
LINE
  5
437
100
AcDbEntity
  8
ELVOX
100
AcDbLine
 62
253
  6
CONTINUOUS
 10
-181.8025316019
 20
55.7103456367
 11
-181.7880507077
 21
55.7103456367
  0
LINE
  5
438
100
AcDbEntity
  8
0
100
AcDbLine
 62
7
  6
CONTINUOUS
 10
-164.7485841837
 20
55.8420818123
 11
-141.5035841837
 21
55.8420818123
  0
LINE
  5
439
100
AcDbEntity
  8
0
100
AcDbLine
 62
7
  6
CONTINUOUS
 10
-141.1035841837
 20
55.8420818123
 11
-141.5035841837
 21
55.8420818123
  0
LINE
  5
43A
100
AcDbEntity
  8
RACCORDO
100
AcDbLine
 62
7
  6
CONTINUOUS
 10
-167.8035841837
 20
56.0920818123
 11
-172.5923659116
 21
56.0920818123
  0
LINE
  5
43B
100
AcDbEntity
  8
ASSI
100
AcDbLine
 62
7
  6
CONTINUOUS
 10
-167.8035841837
 20
56.0920818123
 11
-172.5923659116
 21
56.0920818123
  0
LINE
  5
43C
100
AcDbEntity
  8
RACCORDO
100
AcDbLine
 62
7
  6
CONTINUOUS
 10
-173.0908704433
 20
56.0920818123
 11
-173.2020773368
 21
56.0920818123
  0
LINE
  5
43D
100
AcDbEntity
  8
0
100
AcDbLine
 62
7
  6
CONTINUOUS
 10
-173.2020773368
 20
56.0920818123
 11
-174.1938839025
 21
56.0920818123
  0
LINE
  5
43E
100
AcDbEntity
  8
ASSI
100
AcDbLine
 62
7
  6
CONTINUOUS
 10
-173.0908704433
 20
56.0920818123
 11
-174.1938839025
 21
56.0920818123
  0
LINE
  5
43F
100
AcDbEntity
  8
ELVOX
100
AcDbLine
 62
253
  6
CONTINUOUS
 10
-181.794299218
 20
56.3552675116
 11
-181.7998988614
 21
56.3552675116
  0
LINE
  5
440
100
AcDbEntity
  8
ELVOX
100
AcDbLine
 62
253
  6
CONTINUOUS
 10
-181.7998988616
 20
56.8362028413
 11
-181.7942992183
 21
56.8362028413
  0
LINE
  5
441
100
AcDbEntity
  8
ELVOX
100
AcDbLine
 62
253
  6
CONTINUOUS
 10
-181.7880507083
 20
57.4821011888
 11
-181.802531602
 21
57.4821011888
  0
LINE
  5
442
100
AcDbEntity
  8
ELVOX
100
AcDbLine
 62
253
  6
CONTINUOUS
 10
-181.8025642962
 20
57.8476742093
 11
-181.7845632233
 21
57.8476742093
  0
LINE
  5
443
100
AcDbEntity
  8
ELVOX
100
AcDbLine
 62
253
  6
CONTINUOUS
 10
-181.787925596
 20
58.5605205038
 11
-181.8032567217
 21
58.5605205038
  0
LINE
  5
444
100
AcDbEntity
  8
ELVOX
100
AcDbLine
 62
253
  6
CONTINUOUS
 10
-181.7765087014
 20
58.5605205038
 11
-181.7849146992
 21
58.5605205038
  0
LINE
  5
445
100
AcDbEntity
  8
ELVOX
100
AcDbLine
 62
253
  6
CONTINUOUS
 10
-181.7537047219
 20
58.5605205038
 11
-181.764980886
 21
58.5605205038
  0
LINE
  5
446
100
AcDbEntity
  8
RACCORDO
100
AcDbLine
 62
253
  6
CONTINUOUS
 10
-164.7485841837
 20
59.0920818123
 11
-167.8035841837
 21
59.0920818123
  0
LINE
  5
447
100
AcDbEntity
  8
0
100
AcDbLine
 62
253
  6
CONTINUOUS
 10
-174.4438839025
 20
60.0920818123
 11
-176.0033164597
 21
60.0920818123
  0
LINE
  5
448
100
AcDbEntity
  8
ASSI
100
AcDbLine
 62
253
  6
CONTINUOUS
 10
-174.4438839025
 20
60.0920818123
 11
-176.0033164597
 21
60.0920818123
  0
LINE
  5
449
100
AcDbEntity
  8
RACCORDO
100
AcDbLine
 62
7
  6
CONTINUOUS
 10
-164.7485841837
 20
64.0920818123
 11
-167.8035841837
 21
64.0920818123
  0
LINE
  5
44A
100
AcDbEntity
  8
RACCORDO
100
AcDbLine
 62
253
  6
CONTINUOUS
 10
-176.1480704562
 20
67.3841121978
 11
-176.2799967652
 21
67.3841335887
  0
LINE
  5
44B
100
AcDbEntity
  8
RACCORDO
100
AcDbLine
 62
7
  6
CONTINUOUS
 10
-172.5891534581
 20
56.0928285641
 11
-174.1938839025
 21
56.1068328345
  0
LWPOLYLINE
  5
44C
100
AcDbEntity
  8
0
100
AcDbPolyline
 62
7
  6
CONTINUOUS
 90
39
 70
0
 10
-179.4455909982
 20
68.0920818123
 10
-179.3743198218
 20
68.0875730758
 10
-179.3008393695
 20
68.0739982357
 10
-179.2251496411
 20
68.0512920121
 10
-179.147149575
 20
68.019397461
 10
-179.0669402329
 20
67.9782715459
 10
-178.9848247999
 20
67.9278906909
 10
-178.9007110942
 20
67.8681981018
 10
-178.8146912975
 20
67.7992166335
 10
-178.7273451403
 20
67.7211192575
 10
-178.6387345429
 20
67.6340779265
 10
-178.5487975851
 20
67.5380955291
 10
-178.457928237
 20
67.4331299976
 10
-178.3660214862
 20
67.3191538558
 10
-178.2731823452
 20
67.1963370012
 10
-178.1801198222
 20
67.0649512426
 10
-178.0867632381
 20
66.9250597401
 10
-177.993183272
 20
66.7768819361
 10
-177.9003009692
 20
66.6210436134
 10
-177.8081370884
 20
66.4578202229
 10
-177.716670871
 20
66.287424516
 10
-177.6267610868
 20
66.1105190216
 10
-177.5385501068
 20
65.927692003
 10
-177.4518955599
 20
65.7389871534
 10
-177.3672291025
 20
65.5442584661
 10
-177.2844748525
 20
65.3435626047
 10
-177.2037086921
 20
65.137367409
 10
-177.1255899243
 20
64.9261181987
 10
-177.0501233342
 20
64.7100136189
 10
-176.9773041367
 20
64.4894327443
 10
-176.9077772795
 20
64.2651387289
 10
-176.841612993
 20
64.0375107089
 10
-176.7787410467
 20
63.8068113102
 10
-176.7195956971
 20
63.5736718875
 10
-176.6642546985
 20
63.3385491098
 10
-176.6126402966
 20
63.1016332056
 10
-176.564953485
 20
62.8631596431
 10
-176.5212612615
 20
62.6234042391
 10
-176.4814966283
 20
62.3826862458
  0
LWPOLYLINE
  5
44D
100
AcDbEntity
  8
ASSI
100
AcDbPolyline
 62
7
  6
CONTINUOUS
 90
39
 70
0
 10
-179.4455909982
 20
68.0920818123
 10
-179.3743198218
 20
68.0875730758
 10
-179.3008393695
 20
68.0739982357
 10
-179.2251496411
 20
68.0512920121
 10
-179.147149575
 20
68.019397461
 10
-179.0669402329
 20
67.9782715459
 10
-178.9848247999
 20
67.9278906909
 10
-178.9007110942
 20
67.8681981018
 10
-178.8146912975
 20
67.7992166335
 10
-178.7273451403
 20
67.7211192575
 10
-178.6387345429
 20
67.6340779265
 10
-178.5487975851
 20
67.5380955291
 10
-178.457928237
 20
67.4331299976
 10
-178.3660214862
 20
67.3191538558
 10
-178.2731823452
 20
67.1963370012
 10
-178.1801198222
 20
67.0649512426
 10
-178.0867632381
 20
66.9250597401
 10
-177.993183272
 20
66.7768819361
 10
-177.9003009692
 20
66.6210436134
 10
-177.8081370884
 20
66.4578202229
 10
-177.716670871
 20
66.287424516
 10
-177.6267610868
 20
66.1105190216
 10
-177.5385501068
 20
65.927692003
 10
-177.4518955599
 20
65.7389871534
 10
-177.3672291025
 20
65.5442584661
 10
-177.2844748525
 20
65.3435626047
 10
-177.2037086921
 20
65.137367409
 10
-177.1255899243
 20
64.9261181987
 10
-177.0501233342
 20
64.7100136189
 10
-176.9773041367
 20
64.4894327443
 10
-176.9077772795
 20
64.2651387289
 10
-176.841612993
 20
64.0375107089
 10
-176.7787410467
 20
63.8068113102
 10
-176.7195956971
 20
63.5736718875
 10
-176.6642546985
 20
63.3385491098
 10
-176.6126402966
 20
63.1016332056
 10
-176.564953485
 20
62.8631596431
 10
-176.5212612615
 20
62.6234042391
 10
-176.4814966283
 20
62.3826862458
  0
LINE
  5
44E
100
AcDbEntity
  8
0
100
AcDbLine
 62
7
  6
CONTINUOUS
 10
-177.3745447487
 20
68.0920818123
 11
-181.803576621
 21
68.0920818123
  0
LINE
  5
44F
100
AcDbEntity
  8
ASSI
100
AcDbLine
 62
7
  6
CONTINUOUS
 10
-177.3745447487
 20
68.0920818123
 11
-181.803576621
 21
68.0920818123
  0
ARC
  5
450
100
AcDbEntity
  8
0
100
AcDbCircle
 62
7
  6
CONTINUOUS
 10
34.2758568432
 20
60.0920818123
 40
8.0
100
AcDbArc
 50
0.0
 51
90.0
  0
ARC
  5
451
100
AcDbEntity
  8
0
100
AcDbCircle
 62
7
  6
CONTINUOUS
 10
34.2758568432
 20
-84.9079181877
 40
8.0
100
AcDbArc
 50
270.0
 51
360.0
  0
ARC
  5
452
100
AcDbEntity
  8
0
100
AcDbCircle
 62
7
  6
CONTINUOUS
 10
-49.2241431568
 20
-84.9079181877
 40
8.0
100
AcDbArc
 50
180.0
 51
270.0
  0
ARC
  5
453
100
AcDbEntity
  8
0
100
AcDbCircle
 62
7
  6
CONTINUOUS
 10
-49.2241431568
 20
60.0920818123
 40
8.0
100
AcDbArc
 50
90.0
 51
180.0
  0
ARC
  5
454
100
AcDbEntity
  8
ASSI
100
AcDbCircle
 62
7
  6
CONTINUOUS
 10
34.2758568432
 20
60.0920818123
 40
8.0
100
AcDbArc
 50
0.0
 51
90.0
  0
ARC
  5
455
100
AcDbEntity
  8
ASSI
100
AcDbCircle
 62
7
  6
CONTINUOUS
 10
34.2758568432
 20
-84.9079181877
 40
8.0
100
AcDbArc
 50
270.0
 51
360.0
  0
ARC
  5
456
100
AcDbEntity
  8
ASSI
100
AcDbCircle
 62
7
  6
CONTINUOUS
 10
-49.2241431568
 20
-84.9079181877
 40
8.0
100
AcDbArc
 50
180.0
 51
270.0
  0
ARC
  5
457
100
AcDbEntity
  8
ASSI
100
AcDbCircle
 62
7
  6
CONTINUOUS
 10
-49.2241431568
 20
60.0920818123
 40
8.0
100
AcDbArc
 50
90.0
 51
180.0
  0
ARC
  5
458
100
AcDbEntity
  8
RACCORDO
100
AcDbCircle
 62
7
  6
CONTINUOUS
 10
-162.2035841837
 20
32.2422831079
 40
0.6
100
AcDbArc
 50
95.0
 51
180.0
  0
ARC
  5
459
100
AcDbEntity
  8
RACCORDO
100
AcDbCircle
 62
7
  6
CONTINUOUS
 10
-143.8035841837
 20
42.8730798053
 40
0.5
100
AcDbArc
 50
0.0004909944
 51
89.0000085688
  0
ARC
  5
45A
100
AcDbEntity
  8
RACCORDO
100
AcDbCircle
 62
7
  6
CONTINUOUS
 10
-163.1035841837
 20
-67.7258290145
 40
0.3
100
AcDbArc
 50
270.999984436
 51
359.9991081699
  0
ARC
  5
45B
100
AcDbEntity
  8
RACCORDO
100
AcDbCircle
 62
7
  6
CONTINUOUS
 10
-143.1130037324
 20
42.9875551571
 40
0.200001326
100
AcDbArc
 50
189.4119104092
 51
268.9988750795
  0
ARC
  5
45C
100
AcDbEntity
  8
RACCORDO
100
AcDbCircle
 62
7
  6
CONTINUOUS
 10
-143.5035841837
 20
34.6813806824
 40
0.2
100
AcDbArc
 50
274.9999077126
 51
359.9989410406
  0
ARC
  5
45D
100
AcDbEntity
  8
RACCORDO
100
AcDbCircle
 62
7
  6
CONTINUOUS
 10
-143.1035841837
 20
36.488621265
 40
0.2
100
AcDbArc
 50
180.0
 51
269.0
  0
ARC
  5
45E
100
AcDbEntity
  8
RACCORDO
100
AcDbCircle
 62
7
  6
CONTINUOUS
 10
-142.0035841837
 20
36.0693597623
 40
0.2
100
AcDbArc
 50
0.0
 51
89.0
  0
ARC
  5
45F
100
AcDbEntity
  8
RACCORDO
100
AcDbCircle
 62
7
  6
CONTINUOUS
 10
-142.0035841837
 20
42.5687794237
 40
0.2
100
AcDbArc
 50
0.0000000001
 51
89.0000000026
  0
ARC
  5
460
100
AcDbEntity
  8
RACCORDO
100
AcDbCircle
 62
7
  6
CONTINUOUS
 10
-142.0035841837
 20
35.370709566
 40
0.2
100
AcDbArc
 50
271.4999892732
 51
359.9995902138
  0
ARC
  5
461
100
AcDbEntity
  8
RACCORDO
100
AcDbCircle
 62
7
  6
CONTINUOUS
 10
-143.1035841837
 20
34.9417665048
 40
0.2
100
AcDbArc
 50
91.5
 51
180.0
  0
ELLIPSE
  5
462
100
AcDbEntity
  8
RACCORDO
100
AcDbEllipse
 62
7
  6
CONTINUOUS
 10
4.6317879318
 20
34.8512899419
 30
0.0
 11
0.4041952346
 21
-0.3032162724
 31
0.0
 40
0.9895386875
 41
-1.4495269816
 42
-0.9221290792
  0
ELLIPSE
  5
463
100
AcDbEntity
  8
RACCORDO
100
AcDbEllipse
 62
7
  6
CONTINUOUS
 10
25.6471065071
 20
39.3633314763
 30
0.0
 11
1.0609832838
 21
1.0609832838
 31
0.0
 40
0.9996954599
 41
-0.7852458701
 42
0.7852458701
  0
ELLIPSE
  5
464
100
AcDbEntity
  8
ELVOX
100
AcDbEllipse
 62
253
  6
CONTINUOUS
 10
303.1964158163
 20
57.6507799077
 30
0.0
 11
0.0
 21
782.8762764743
 31
0.0
 40
0.6195104061
 41
1.5696342775
 42
1.5707963268
  0
ELLIPSE
  5
465
100
AcDbEntity
  8
ELVOX
100
AcDbEllipse
 62
253
  6
CONTINUOUS
 10
303.1964158163
 20
65.0300032252
 30
0.0
 11
-0.0
 21
805.1052143214
 31
0.0
 40
0.602405737
 41
-4.7043533197
 42
-4.7041363556
  0
ELLIPSE
  5
466
100
AcDbEntity
  8
ELVOX
100
AcDbEllipse
 62
253
  6
CONTINUOUS
 10
303.1964158163
 20
65.3718409579
 30
0.0
 11
-0.0
 21
846.5273826736
 31
0.0
 40
0.5729288974
 41
-4.7041363556
 42
-4.7039269585
  0
ELLIPSE
  5
467
100
AcDbEntity
  8
ELVOX
100
AcDbEllipse
 62
253
  6
CONTINUOUS
 10
303.1964158163
 20
65.7502744209
 30
0.0
 11
-0.0
 21
891.2493162024
 31
0.0
 40
0.5441799407
 41
-4.7039269585
 42
-4.7037256193
  0
ELLIPSE
  5
468
100
AcDbEntity
  8
ELVOX
100
AcDbEllipse
 62
253
  6
CONTINUOUS
 10
303.1964158163
 20
66.1701726574
 30
0.0
 11
-0.0
 21
939.718205688
 31
0.0
 40
0.5161121675
 41
-4.7037256193
 42
-4.7035324879
  0
ELLIPSE
  5
469
100
AcDbEntity
  8
ELVOX
100
AcDbEllipse
 62
253
  6
CONTINUOUS
 10
303.1964158163
 20
49.0086165028
 30
0.0
 11
0.0
 21
763.3698089868
 31
0.0
 40
0.6353408195
 41
1.5601956891
 42
1.5620217092
  0
ELLIPSE
  5
46A
100
AcDbEntity
  8
ELVOX
100
AcDbEllipse
 62
253
  6
CONTINUOUS
 10
303.1964158163
 20
65.5742580552
 30
0.0
 11
-0.0
 21
799.3618129563
 31
0.0
 40
0.6067340122
 41
-4.7036146964
 42
-4.7017883426
  0
ELLIPSE
  5
46B
100
AcDbEntity
  8
ELVOX
100
AcDbEllipse
 62
253
  6
CONTINUOUS
 10
303.1964158163
 20
64.6230255948
 30
0.0
 11
-0.0
 21
711.7906319318
 31
0.0
 40
0.6813801394
 41
-4.7007960778
 42
-4.6998621927
  0
ELLIPSE
  5
46C
100
AcDbEntity
  8
ELVOX
100
AcDbEllipse
 62
253
  6
CONTINUOUS
 10
303.1964158163
 20
66.0699975995
 30
0.0
 11
-0.0
 21
710.6954400607
 31
0.0
 40
0.682430156
 41
-4.7018224051
 42
-4.7008656973
  0
ELLIPSE
  5
46D
100
AcDbEntity
  8
ELVOX
100
AcDbEllipse
 62
253
  6
CONTINUOUS
 10
303.1964158163
 20
47.2577823194
 30
0.0
 11
0.0
 21
788.1154226107
 31
0.0
 40
0.6153920937
 41
1.5564543594
 42
1.5582774077
  0
ELLIPSE
  5
46E
100
AcDbEntity
  8
ELVOX
100
AcDbEllipse
 62
253
  6
CONTINUOUS
 10
303.1964158163
 20
66.8555550769
 30
0.0
 11
-0.0
 21
777.3779277211
 31
0.0
 40
0.6238921671
 41
-4.6998700612
 42
-4.6980470134
  0
ELLIPSE
  5
46F
100
AcDbEntity
  8
ELVOX
100
AcDbEllipse
 62
253
  6
CONTINUOUS
 10
303.1964158163
 20
48.687140159
 30
0.0
 11
0.0
 21
662.8644406445
 31
0.0
 40
0.7316729791
 41
1.5592034242
 42
1.5602062283
  0
ELLIPSE
  5
470
100
AcDbEntity
  8
ELVOX
100
AcDbEllipse
 62
253
  6
CONTINUOUS
 10
303.1964158163
 20
50.7176532487
 30
0.0
 11
-0.0
 21
621.623140664
 31
0.0
 40
0.7802154847
 41
1.5581792364
 42
1.5592730437
  0
ELLIPSE
  5
471
100
AcDbEntity
  8
ELVOX
100
AcDbEllipse
 62
253
  6
CONTINUOUS
 10
303.1964158163
 20
56.2360789545
 30
0.0
 11
0.0
 21
785.8433062702
 31
0.0
 40
0.6171713828
 41
1.5687455409
 42
1.5707963268
  0
ENDSEC
  0
SECTION
  2
OBJECTS
  0
DICTIONARY
  5
C
100
AcDbDictionary
280
0
281
1
  3
ACAD_GROUP
350
D
  3
ACAD_MLINESTYLE
350
17
  3
ACAD_LAYOUT
350
1A
  3
ACAD_PLOTSETTINGS
350
19
  3
ACAD_PLOTSTYLENAME
350
E
  0
DICTIONARY
  5
D
102
{ACAD_REACTORS
330
C
102
}
100
AcDbDictionary
280
0
281
1
  0
ACDBDICTIONARYWDFLT
  5
E
102
{ACAD_REACTORS
330
C
102
}
100
AcDbDictionary
281
1
  3
Normal
350
F
100
AcDbDictionaryWithDefault
340
F
  0
DICTIONARY
  5
17
102
{ACAD_REACTORS
330
C
102
}
100
AcDbDictionary
280
0
281
1
  3
Standard
350
18
  0
DICTIONARY
  5
19
102
{ACAD_REACTORS
330
C
102
}
100
AcDbDictionary
281
1
  0
DICTIONARY
  5
1A
102
{ACAD_REACTORS
330
C
102
}
100
AcDbDictionary
281
1
  3
Model
350
472
  3
Layout1
350
473
  0
ACDBPLACEHOLDER
  5
F
102
{ACAD_REACTORS
330
E
102
}
  0
MLINESTYLE
  5
18
102
{ACAD_REACTORS
330
17
102
}
100
AcDbMlineStyle
  2
STANDARD
 70
0
  3

 62
256
 51
90.0
 52
90.0
 71
2
 49
0.5
 62
256
  6
BYLAYER
 49
-0.5
 62
256
  6
BYLAYER
  0
LAYOUT
  5
472
102
{ACAD_REACTORS
330
1A
102
}
100
AcDbPlotSettings
  1

  2
none_device
  4
ISO_A4_(297.00_x_210.00_MM)
  6

 40
0.0
 41
0.0
 42
0.0
 43
0.0
 44
297.0
 45
210.0
 46
0.0
 47
0.0
 48
0.0
 49
0.0
140
0.0
141
0.0
142
1.0
143
1.0
 70
1024
 72
1
 73
0
 74
0
  7

 75
0
147
1.0
148
0.0
149
0.0
100
AcDbLayout
  1
Model
 70
0
 71
0
 10
0.0
 20
0.0
 11
297.0
 21
210.0
 12
0.0
 22
0.0
 32
0.0
 14
0.0
 24
0.0
 34
0.0
 15
0.0
 25
0.0
 35
0.0
146
0.0
 13
0.0
 23
0.0
 33
0.0
 16
1.0
 26
0.0
 36
0.0
 17
0.0
 27
1.0
 37
0.0
 76
0
330
21C
345
0
346
0
  0
LAYOUT
  5
473
102
{ACAD_REACTORS
330
1A
102
}
100
AcDbPlotSettings
  1

  2
none_device
  4
ISO_A4_(297.00_x_210.00_MM)
  6

 40
0.0
 41
0.0
 42
0.0
 43
0.0
 44
297.0
 45
210.0
 46
0.0
 47
0.0
 48
0.0
 49
0.0
140
0.0
141
0.0
142
1.0
143
1.0
 70
0
 72
1
 73
0
 74
0
  7

 75
0
147
1.0
148
0.0
149
0.0
100
AcDbLayout
  1
Layout1
 70
0
 71
1
 10
0.0
 20
0.0
 11
297.0
 21
210.0
 12
0.0
 22
0.0
 32
0.0
 14
0.0
 24
0.0
 34
0.0
 15
0.0
 25
0.0
 35
0.0
146
0.0
 13
0.0
 23
0.0
 33
0.0
 16
1.0
 26
0.0
 36
0.0
 17
0.0
 27
1.0
 37
0.0
 76
0
330
21D
345
0
346
0
  0
ENDSEC
  0
EOF
