  0
SECTION
  2
HEADER
  9
$ACADVER
  1
AC1015
  9
$DWGCODEPAGE
  3
ANSI_1252
  9
$EXTMAX
 10
297.0
 20
210.0
 30
0.0
  9
$EXTMIN
 10
0.0
 20
0.0
 30
0.0
  9
$LIMMIN
 10
0.0
 20
0.0
  9
$LIMMAX
 10
297.0
 20
210.0
  9
$VIEWCTR
 10
148.5
 20
105.0
  9
$VIEWSIZE
 40
210.0
  9
$CLAYER
  8
0
  9
$LTSCALE
 40
16.335
  9
$CELTYPE
  6
BYLAYER
  9
$DIMSCALE
 40
1.0
  9
$DIMASZ
 40
3.0
  9
$DIMEXO
 40
0.5
  9
$DIMDLI
 40
11.286
  9
$DIMEXE
 40
1.5
  9
$DIMCEN
 40
2.673
  9
$DIMLFAC
 40
1.0
  9
$DIMBLK
  1
_FILLED
  9
$DIMALT
 70
0
  9
$DIMALTF
 40
0.0393700787
  9
$DIMTXT
 40
3.0
  9
$DIMTOL
 70
1
  9
$DIMLIM
 70
0
  9
$DIMTFAC
 40
1.0
  9
$DIMTP
 40
0.01
  9
$DIMTM
 40
0.01
  9
$DIMGAP
 40
0.625
  9
$DIMDSEP
 70
44
  9
$AUNITS
 70
0
  9
$PDMODE
 70
3
  9
$PDSIZE
 40
3.0
  9
$HANDSEED
  5
4AE
  9
$TILEMODE
 70
1
  9
$MEASUREMENT
 70
1
  9
$INSUNITS
 70
4
  0
ENDSEC
  0
SECTION
  2
CLASSES
  0
CLASS
  1
ACDBDICTIONARYWDFLT
  2
AcDbDictionaryWithDefault
  3
AutoCAD 2000
 90
0
280
0
281
0
  0
CLASS
  1
ACDBPLACEHOLDER
  2
AcDbPlaceHolder
  3
AutoCAD 2000
 90
0
280
0
281
0
  0
CLASS
  1
LAYOUT
  2
AcDbLayout
  3
AutoCAD 2000
 90
0
280
0
281
0
  0
ENDSEC
  0
SECTION
  2
TABLES
  0
TABLE
  2
VPORT
  5
8
100
AcDbSymbolTable
 70
2
  0
VPORT
  5
1F4
100
AcDbSymbolTableRecord
100
AcDbViewportTableRecord
  2
*ACTIVE
 70
0
 10
0.0
 20
0.0
 11
1.0
 21
1.0
 12
148.5
 22
105.0
 13
0.0
 23
0.0
 14
1.0
 24
1.0
 15
0.0
 25
0.0
 16
0.0
 26
0.0
 36
1.0
 17
0.0
 27
0.0
 37
0.0
 40
210.0
 41
1.4142857143
 42
50.0
 43
0.0
 44
0.0
 50
0.0
 51
0.0
 71
0
 72
100
 73
1
 74
1
 75
0
 76
0
 77
0
 78
0
  0
ENDTAB
  0
TABLE
  2
LTYPE
  5
5
100
AcDbSymbolTable
 70
6
  0
LTYPE
  5
14
100
AcDbSymbolTableRecord
100
AcDbLinetypeTableRecord
  2
BYBLOCK
 70
0
  3

 72
65
 73
0
 40
0.0
  0
LTYPE
  5
15
100
AcDbSymbolTableRecord
100
AcDbLinetypeTableRecord
  2
BYLAYER
 70
0
  3

 72
65
 73
0
 40
0.0
  0
LTYPE
  5
16
100
AcDbSymbolTableRecord
100
AcDbLinetypeTableRecord
  2
CONTINUOUS
 70
64
  3
Solid line
 72
65
 73
0
 40
0.0
  0
LTYPE
  5
1F5
100
AcDbSymbolTableRecord
100
AcDbLinetypeTableRecord
  2
CENTER
 70
64
  3
____ _ ____ _ ____ _ ____ _ ____ _ ____ _ ____
 72
65
 73
4
 40
0.6
 49
0.375
 74
0
 49
-0.075
 74
0
 49
0.075
 74
0
 49
-0.075
 74
0
  0
LTYPE
  5
1F6
100
AcDbSymbolTableRecord
100
AcDbLinetypeTableRecord
  2
HIDDEN
 70
64
  3
- - - - - - - - - - - - - - - - - - - -
 72
65
 73
2
 40
0.2
 49
0.1
 74
0
 49
-0.1
 74
0
  0
LTYPE
  5
1F7
100
AcDbSymbolTableRecord
100
AcDbLinetypeTableRecord
  2
PHANTOM
 70
64
  3
_____ _ _ _____ _ _ _____ _ _ _____
 72
65
 73
6
 40
0.8
 49
0.45
 74
0
 49
-0.05
 74
0
 49
0.1
 74
0
 49
-0.05
 74
0
 49
0.1
 74
0
 49
-0.05
 74
0
  0
LTYPE
  5
1F8
100
AcDbSymbolTableRecord
100
AcDbLinetypeTableRecord
  2
DOT
 70
64
  3
. . . . . . . . . . . . . . . . . . . .
 72
65
 73
2
 40
0.2
 49
0.1
 74
0
 49
-0.1
 74
0
  0
LTYPE
  5
1F9
100
AcDbSymbolTableRecord
100
AcDbLinetypeTableRecord
  2
DASHED
 70
64
  3
- - - - - - - - - - - - - - - - - - - -
 72
65
 73
2
 40
0.2
 49
0.1
 74
0
 49
-0.1
 74
0
  0
ENDTAB
  0
TABLE
  2
LAYER
  5
2
100
AcDbSymbolTable
 70
36
  0
LAYER
  5
10
100
AcDbSymbolTableRecord
100
AcDbLayerTableRecord
  2
0
 70
0
 62
7
  6
CONTINUOUS
370
-3
390
F
  0
LAYER
  5
1FA
100
AcDbSymbolTableRecord
100
AcDbLayerTableRecord
  2
DEFAULT_1
 70
0
 62
7
  6
CENTER
370
-3
390
F
  0
LAYER
  5
1FB
100
AcDbSymbolTableRecord
100
AcDbLayerTableRecord
  2
DEFAULT_2
 70
0
 62
7
  6
HIDDEN
370
-3
390
F
  0
LAYER
  5
1FC
100
AcDbSymbolTableRecord
100
AcDbLayerTableRecord
  2
DEFAULT_3
 70
0
 62
7
  6
PHANTOM
370
-3
390
F
  0
LAYER
  5
1FD
100
AcDbSymbolTableRecord
100
AcDbLayerTableRecord
  2
ASSI
 70
0
 62
7
  6
CONTINUOUS
370
-3
390
F
  0
LAYER
  5
1FE
100
AcDbSymbolTableRecord
100
AcDbLayerTableRecord
  2
COLOR1
 70
0
 62
7
  6
CONTINUOUS
370
-3
390
F
  0
LAYER
  5
1FF
100
AcDbSymbolTableRecord
100
AcDbLayerTableRecord
  2
COLOR15
 70
0
 62
7
  6
CONTINUOUS
370
-3
390
F
  0
LAYER
  5
200
100
AcDbSymbolTableRecord
100
AcDbLayerTableRecord
  2
COLOR16
 70
0
 62
7
  6
CONTINUOUS
370
-3
390
F
  0
LAYER
  5
201
100
AcDbSymbolTableRecord
100
AcDbLayerTableRecord
  2
COLOR5
 70
0
 62
7
  6
CONTINUOUS
370
-3
390
F
  0
LAYER
  5
202
100
AcDbSymbolTableRecord
100
AcDbLayerTableRecord
  2
COLOR7
 70
0
 62
7
  6
CONTINUOUS
370
-3
390
F
  0
LAYER
  5
203
100
AcDbSymbolTableRecord
100
AcDbLayerTableRecord
  2
COORDINATE
 70
0
 62
7
  6
CONTINUOUS
370
-3
390
F
  0
LAYER
  5
204
100
AcDbSymbolTableRecord
100
AcDbLayerTableRecord
  2
COPY_PUBLISH
 70
0
 62
7
  6
CONTINUOUS
370
-3
390
F
  0
LAYER
  5
205
100
AcDbSymbolTableRecord
100
AcDbLayerTableRecord
  2
CORNICE_BASE
 70
0
 62
7
  6
CONTINUOUS
370
-3
390
F
  0
LAYER
  5
206
100
AcDbSymbolTableRecord
100
AcDbLayerTableRecord
  2
COSMETICI
 70
0
 62
7
  6
CONTINUOUS
370
-3
390
F
  0
LAYER
  5
207
100
AcDbSymbolTableRecord
100
AcDbLayerTableRecord
  2
CURVE
 70
0
 62
7
  6
CONTINUOUS
370
-3
390
F
  0
LAYER
  5
208
100
AcDbSymbolTableRecord
100
AcDbLayerTableRecord
  2
DRAFT
 70
0
 62
7
  6
CONTINUOUS
370
-3
390
F
  0
LAYER
  5
209
100
AcDbSymbolTableRecord
100
AcDbLayerTableRecord
  2
ELVOX
 70
0
 62
7
  6
CONTINUOUS
370
-3
390
F
  0
LAYER
  5
20A
100
AcDbSymbolTableRecord
100
AcDbLayerTableRecord
  2
IMPORT_IGES
 70
0
 62
7
  6
CONTINUOUS
370
-3
390
F
  0
LAYER
  5
20B
100
AcDbSymbolTableRecord
100
AcDbLayerTableRecord
  2
INTF_1
 70
0
 62
7
  6
CONTINUOUS
370
-3
390
F
  0
LAYER
  5
20C
100
AcDbSymbolTableRecord
100
AcDbLayerTableRecord
  2
INTF_11
 70
0
 62
7
  6
CONTINUOUS
370
-3
390
F
  0
LAYER
  5
20D
100
AcDbSymbolTableRecord
100
AcDbLayerTableRecord
  2
INTF_7
 70
0
 62
7
  6
CONTINUOUS
370
-3
390
F
  0
LAYER
  5
20E
100
AcDbSymbolTableRecord
100
AcDbLayerTableRecord
  2
INTF_RED
 70
0
 62
7
  6
CONTINUOUS
370
-3
390
F
  0
LAYER
  5
20F
100
AcDbSymbolTableRecord
100
AcDbLayerTableRecord
  2
INTF_YELLOW
 70
0
 62
7
  6
CONTINUOUS
370
-3
390
F
  0
LAYER
  5
210
100
AcDbSymbolTableRecord
100
AcDbLayerTableRecord
  2
NOTE
 70
0
 62
7
  6
CONTINUOUS
370
-3
390
F
  0
LAYER
  5
211
100
AcDbSymbolTableRecord
100
AcDbLayerTableRecord
  2
PIANI
 70
0
 62
7
  6
CONTINUOUS
370
-3
390
F
  0
LAYER
  5
212
100
AcDbSymbolTableRecord
100
AcDbLayerTableRecord
  2
PUNTI
 70
0
 62
7
  6
CONTINUOUS
370
-3
390
F
  0
LAYER
  5
213
100
AcDbSymbolTableRecord
100
AcDbLayerTableRecord
  2
RACCORDO
 70
0
 62
7
  6
CONTINUOUS
370
-3
390
F
  0
LAYER
  5
214
100
AcDbSymbolTableRecord
100
AcDbLayerTableRecord
  2
RIFERIMENTO_GEOMETRIA
 70
0
 62
7
  6
CONTINUOUS
370
-3
390
F
  0
LAYER
  5
215
100
AcDbSymbolTableRecord
100
AcDbLayerTableRecord
  2
SIMBOLI
 70
0
 62
7
  6
CONTINUOUS
370
-3
390
F
  0
LAYER
  5
216
100
AcDbSymbolTableRecord
100
AcDbLayerTableRecord
  2
SMUSSO
 70
0
 62
7
  6
CONTINUOUS
370
-3
390
F
  0
LAYER
  5
217
100
AcDbSymbolTableRecord
100
AcDbLayerTableRecord
  2
SNAPLINE
 70
0
 62
7
  6
CONTINUOUS
370
-3
390
F
  0
LAYER
  5
218
100
AcDbSymbolTableRecord
100
AcDbLayerTableRecord
  2
SUPERFICI
 70
0
 62
7
  6
CONTINUOUS
370
-3
390
F
  0
LAYER
  5
219
100
AcDbSymbolTableRecord
100
AcDbLayerTableRecord
  2
TRASH
 70
0
 62
7
  6
CONTINUOUS
370
-3
390
F
  0
ENDTAB
  0
TABLE
  2
STYLE
  5
3
100
AcDbSymbolTable
 70
1
  0
STYLE
  5
11
100
AcDbSymbolTableRecord
100
AcDbTextStyleTableRecord
  2
STANDARD
 70
0
 40
0.0
 41
0.8
 50
0.0
 71
0
 42
0.2
  3
txt
  4

  0
STYLE
  5
21A
100
AcDbSymbolTableRecord
100
AcDbTextStyleTableRecord
  2
TEXTSTYLE_1
 70
0
 40
0.0
 41
0.8
 50
0.0
 71
0
 42
0.2
  3
gdt
  4

  0
ENDTAB
  0
TABLE
  2
VIEW
  5
6
100
AcDbSymbolTable
 70
0
  0
ENDTAB
  0
TABLE
  2
UCS
  5
7
100
AcDbSymbolTable
 70
0
  0
ENDTAB
  0
TABLE
  2
APPID
  5
9
100
AcDbSymbolTable
 70
1
  0
APPID
  5
21B
100
AcDbSymbolTableRecord
100
AcDbRegAppTableRecord
  2
ACAD
 70
0
  0
ENDTAB
  0
TABLE
  2
BLOCK_RECORD
  5
1
100
AcDbSymbolTable
 70
0
  0
BLOCK_RECORD
  5
21C
100
AcDbSymbolTableRecord
100
AcDbBlockTableRecord
  2
*Model_Space
  0
BLOCK_RECORD
  5
21D
100
AcDbSymbolTableRecord
100
AcDbBlockTableRecord
  2
*Paper_Space
  0
BLOCK_RECORD
  5
21E
100
AcDbSymbolTableRecord
100
AcDbBlockTableRecord
  2
_FILLED
  0
BLOCK_RECORD
  5
21F
100
AcDbSymbolTableRecord
100
AcDbBlockTableRecord
  2
*D0
  0
BLOCK_RECORD
  5
220
100
AcDbSymbolTableRecord
100
AcDbBlockTableRecord
  2
*D1
  0
BLOCK_RECORD
  5
221
100
AcDbSymbolTableRecord
100
AcDbBlockTableRecord
  2
*D2
  0
ENDTAB
  0
TABLE
  2
DIMSTYLE
  5
A
100
AcDbSymbolTable
 70
1
100
AcDbDimStyleTable
 71
0
  0
DIMSTYLE
105
222
100
AcDbSymbolTableRecord
100
AcDbDimStyleTableRecord
  2
STANDARD
 70
0
  3

  4

 40
1.0
 41
3.0
 42
0.5
 43
0.38
 44
1.5
 45
0.0
 46
0.0
 47
0.01
 48
0.01
140
3.0
141
0.09
142
0.0
143
25.4
144
1.0
145
0.0
146
1.0
147
0.625
 71
1.0
 72
0.0
 73
0
 74
0
 75
0
 76
0
 77
1
 78
8
170
0
171
2
172
0
173
0
174
0
175
0
176
0
177
0
178
0
270
2
271
2
272
2
273
2
274
2
275
0
280
0
281
0
282
0
283
1
284
8
285
0
286
0
287
3
288
0
340
11
278
44
341
21E
342
21E
343
21E
344
21E
  0
DIMSTYLE
105
223
100
AcDbSymbolTableRecord
100
AcDbDimStyleTableRecord
  2
DIMSTYLE_1
 70
0
  3

  4

 40
1.0
 41
3.0
 42
0.5
 43
0.38
 44
1.5
 45
0.0
 46
0.0
 47
0.0
 48
0.0
140
3.0
141
0.09
142
0.0
143
25.4
144
1.0
145
0.0
146
1.0
147
0.75
 71
0.0
 72
0.0
 73
0
 74
0
 75
0
 76
0
 77
1
 78
8
170
0
171
2
172
0
173
0
174
0
175
0
176
0
177
0
178
0
270
2
271
2
272
2
273
2
274
2
275
0
280
0
281
0
282
0
283
1
284
8
285
0
286
0
287
3
288
0
340
11
278
44
341
21E
342
21E
343
21E
344
21E
  0
ENDTAB
  0
ENDSEC
  0
SECTION
  2
BLOCKS
  0
BLOCK
  5
20
100
AcDbEntity
  8
0
100
AcDbBlockBegin
  2
*Model_Space
 70
0
 10
0.0
 20
0.0
 30
0.0
  3
*Model_Space
  1

  0
ENDBLK
  5
21
100
AcDbEntity
  8
0
100
AcDbBlockEnd
  0
BLOCK
  5
1C
100
AcDbEntity
  8
0
100
AcDbBlockBegin
  2
*Paper_Space
 70
0
 10
0.0
 20
0.0
 30
0.0
  3
*Paper_Space
  1

  0
ENDBLK
  5
1D
100
AcDbEntity
  8
0
100
AcDbBlockEnd
  0
BLOCK
  5
224
100
AcDbEntity
  8
0
100
AcDbBlockBegin
  2
_FILLED
 70
64
 10
0.0
 20
0.0
  3
_FILLED
  1

  0
SOLID
  5
225
100
AcDbEntity
  8
0
  6
BYBLOCK
 62
0
100
AcDbTrace
 10
0.0
 20
0.0
 11
-1.0
 21
0.3166666667
 12
-1.0
 22
-0.3166666667
 13
-1.0
 23
-0.3166666667
  0
ENDBLK
  5
226
100
AcDbEntity
  8
0
  6
BYBLOCK
 62
0
100
AcDbBlockEnd
  0
BLOCK
  5
227
100
AcDbEntity
  8
0
100
AcDbBlockBegin
 62
7
  6
CONTINUOUS
  2
*D0
 70
65
 10
0.0
 20
0.0
  3
*D0
  1

  0
MTEXT
  5
228
100
AcDbEntity
  8
0
100
AcDbMText
 62
7
  6
CONTINUOUS
  7
STANDARD
 71
2
 72
1
 10
-18.9635392667
 20
162.7671199522
 30
0.0
 11
1.0
 21
0.0
 31
0.0
 44
0.9
  1
99,5
 40
3.0
 41
12.8571428571
  0
LINE
  5
229
100
AcDbEntity
  8
0
100
AcDbLine
 62
7
  6
CONTINUOUS
 10
-68.7135392667
 20
130.0171199522
 11
-68.7135392667
 21
160.5171199522
  0
LINE
  5
22A
100
AcDbEntity
  8
0
100
AcDbLine
 62
7
  6
CONTINUOUS
 10
30.7864607333
 20
130.0171199522
 11
30.7864607333
 21
160.5171199522
  0
LINE
  5
22B
100
AcDbEntity
  8
0
100
AcDbLine
 62
7
  6
CONTINUOUS
 10
-68.7135392667
 20
159.0171199522
 11
-18.9635392667
 21
159.0171199522
  0
LINE
  5
22C
100
AcDbEntity
  8
0
100
AcDbLine
 62
7
  6
CONTINUOUS
 10
30.7864607333
 20
159.0171199522
 11
-18.9635392667
 21
159.0171199522
  0
INSERT
  5
22D
100
AcDbEntity
  8
0
100
AcDbBlockReference
 62
7
  6
CONTINUOUS
  2
_FILLED
 10
-68.7135392667
 20
159.0171199522
 41
3.0
 42
3.0
 43
3.0
 50
180.0
  0
INSERT
  5
22E
100
AcDbEntity
  8
0
100
AcDbBlockReference
 62
7
  6
CONTINUOUS
  2
_FILLED
 10
30.7864607333
 20
159.0171199522
 41
3.0
 42
3.0
 43
3.0
  0
ENDBLK
  5
22F
100
AcDbEntity
  8
0
  6
BYBLOCK
 62
0
100
AcDbBlockEnd
  0
BLOCK
  5
230
100
AcDbEntity
  8
0
100
AcDbBlockBegin
 62
7
  6
CONTINUOUS
  2
*D1
 70
65
 10
0.0
 20
0.0
  3
*D1
  1

  0
MTEXT
  5
231
100
AcDbEntity
  8
0
100
AcDbMText
 62
7
  6
CONTINUOUS
  7
STANDARD
 71
2
 72
1
 10
40.2059031225
 20
-0.4828800478
 30
0.0
 11
0.0
 21
1.0
 31
0.0
 44
0.9
  1
276
 40
3.0
 41
10.6071428571
  0
LINE
  5
232
100
AcDbEntity
  8
0
100
AcDbLine
 62
7
  6
CONTINUOUS
 10
16.1364607333
 20
-138.4828800478
 11
45.4559031225
 21
-138.4828800478
  0
LINE
  5
233
100
AcDbEntity
  8
0
100
AcDbLine
 62
7
  6
CONTINUOUS
 10
16.1364607333
 20
137.5171199522
 11
45.4559031225
 21
137.5171199522
  0
LINE
  5
234
100
AcDbEntity
  8
0
100
AcDbLine
 62
7
  6
CONTINUOUS
 10
43.9559031225
 20
-138.4828800478
 11
43.9559031225
 21
-0.4828800478
  0
LINE
  5
235
100
AcDbEntity
  8
0
100
AcDbLine
 62
7
  6
CONTINUOUS
 10
43.9559031225
 20
137.5171199522
 11
43.9559031225
 21
-0.4828800478
  0
INSERT
  5
236
100
AcDbEntity
  8
0
100
AcDbBlockReference
 62
7
  6
CONTINUOUS
  2
_FILLED
 10
43.9559031225
 20
-138.4828800478
 41
3.0
 42
3.0
 43
3.0
 50
270.0
  0
INSERT
  5
237
100
AcDbEntity
  8
0
100
AcDbBlockReference
 62
7
  6
CONTINUOUS
  2
_FILLED
 10
43.9559031225
 20
137.5171199522
 41
3.0
 42
3.0
 43
3.0
 50
90.0
  0
ENDBLK
  5
238
100
AcDbEntity
  8
0
  6
BYBLOCK
 62
0
100
AcDbBlockEnd
  0
BLOCK
  5
239
100
AcDbEntity
  8
0
100
AcDbBlockBegin
 62
7
  6
CONTINUOUS
  2
*D2
 70
65
 10
0.0
 20
0.0
  3
*D2
  1

  0
MTEXT
  5
23A
100
AcDbEntity
  8
0
100
AcDbMText
 62
7
  6
CONTINUOUS
  7
STANDARD
 71
2
 72
1
 10
-149.5841703604
 20
162.7671199522
 30
0.0
 11
1.0
 21
0.0
 31
0.0
 44
0.9
  1
40,7
 40
3.0
 41
13.1785714286
  0
LINE
  5
23B
100
AcDbEntity
  8
0
100
AcDbLine
 62
7
  6
CONTINUOUS
 10
-169.9341703604
 20
137.5171199522
 11
-169.9341703604
 21
160.5171199522
  0
LINE
  5
23C
100
AcDbEntity
  8
0
100
AcDbLine
 62
7
  6
CONTINUOUS
 10
-129.2341703604
 20
122.5171199522
 11
-129.2341703604
 21
160.5171199522
  0
LINE
  5
23D
100
AcDbEntity
  8
0
100
AcDbLine
 62
7
  6
CONTINUOUS
 10
-169.9341703604
 20
159.0171199522
 11
-149.5841703604
 21
159.0171199522
  0
LINE
  5
23E
100
AcDbEntity
  8
0
100
AcDbLine
 62
7
  6
CONTINUOUS
 10
-129.2341703604
 20
159.0171199522
 11
-149.5841703604
 21
159.0171199522
  0
INSERT
  5
23F
100
AcDbEntity
  8
0
100
AcDbBlockReference
 62
7
  6
CONTINUOUS
  2
_FILLED
 10
-169.9341703604
 20
159.0171199522
 41
3.0
 42
3.0
 43
3.0
 50
180.0
  0
INSERT
  5
240
100
AcDbEntity
  8
0
100
AcDbBlockReference
 62
7
  6
CONTINUOUS
  2
_FILLED
 10
-129.2341703604
 20
159.0171199522
 41
3.0
 42
3.0
 43
3.0
  0
ENDBLK
  5
241
100
AcDbEntity
  8
0
  6
BYBLOCK
 62
0
100
AcDbBlockEnd
  0
ENDSEC
  0
SECTION
  2
ENTITIES
  0
DIMENSION
  5
242
100
AcDbEntity
  8
0
100
AcDbDimension
 62
7
  6
CONTINUOUS
  2
*D0
 10
30.7864607333
 20
159.0171199522
 11
-19.3921102867
 21
159.0171199522
 70
160
 71
2
 42
99.5
  3
DIMSTYLE_1
100
AcDbAlignedDimension
 13
-68.7135392667
 23
129.5171199522
 14
30.7864607333
 24
129.5171199522
100
AcDbRotatedDimension
  0
DIMENSION
  5
243
100
AcDbEntity
  8
0
100
AcDbDimension
 62
7
  6
CONTINUOUS
  2
*D1
 10
43.9559031225
 20
137.5171199522
 11
43.9559031225
 21
-0.911449696
 70
160
 71
2
 42
276.0
  3
DIMSTYLE_1
100
AcDbAlignedDimension
 13
15.6364607333
 23
-138.4828800478
 14
15.6364607333
 24
137.5171199522
 50
90.0
100
AcDbRotatedDimension
  0
DIMENSION
  5
244
100
AcDbEntity
  8
0
100
AcDbDimension
 62
7
  6
CONTINUOUS
  2
*D2
 10
-129.2341703604
 20
159.0171199522
 11
-150.0127395172
 21
159.0171199522
 70
160
 71
2
 42
40.7
  3
DIMSTYLE_1
100
AcDbAlignedDimension
 13
-169.9341703604
 23
137.0171199522
 14
-129.2341703604
 24
122.0171199522
100
AcDbRotatedDimension
  0
LINE
  5
245
100
AcDbEntity
  8
0
100
AcDbLine
 62
7
  6
CONTINUOUS
 10
22.7864607333
 20
-138.4828800478
 11
-60.7135392667
 21
-138.4828800478
  0
LINE
  5
246
100
AcDbEntity
  8
ASSI
100
AcDbLine
 62
7
  6
CONTINUOUS
 10
22.7864607333
 20
-138.4828800478
 11
-60.7135392667
 21
-138.4828800478
  0
LWPOLYLINE
  5
247
100
AcDbEntity
  8
RACCORDO
100
AcDbPolyline
 62
253
  6
CONTINUOUS
 90
16
 70
0
 10
14.5445751453
 20
-111.5687389828
 10
14.6150735618
 20
-111.5637659304
 10
14.6855315228
 20
-111.5554393066
 10
14.7558430929
 20
-111.5437282443
 10
14.8257861714
 20
-111.5286257481
 10
14.8950286119
 20
-111.5101755566
 10
14.9634010201
 20
-111.4884079081
 10
15.0307502516
 20
-111.463356486
 10
15.0967823093
 20
-111.4351257947
 10
15.1613190225
 20
-111.4038012528
 10
15.2242460796
 20
-111.369447842
 10
15.2853816714
 20
-111.3321757044
 10
15.3445628357
 20
-111.2921026512
 10
15.4016949707
 20
-111.2493117773
 10
15.456704549
 20
-111.203868758
 10
15.5094695185
 20
-111.155879581
  0
LINE
  5
248
100
AcDbEntity
  8
0
100
AcDbLine
 62
7
  6
CONTINUOUS
 10
16.4364607333
 20
-115.7328800478
 11
-54.3635392667
 21
-115.7328800478
  0
LINE
  5
249
100
AcDbEntity
  8
ASSI
100
AcDbLine
 62
7
  6
CONTINUOUS
 10
16.4364607333
 20
-115.7328800478
 11
-54.3635392667
 21
-115.7328800478
  0
LINE
  5
24A
100
AcDbEntity
  8
RACCORDO
100
AcDbLine
 62
253
  6
CONTINUOUS
 10
-54.3635392667
 20
-115.5898011425
 11
16.4364607333
 21
-115.5898011425
  0
LINE
  5
24B
100
AcDbEntity
  8
RACCORDO
100
AcDbLine
 62
253
  6
CONTINUOUS
 10
14.5798290177
 20
-112.075958953
 11
-52.5069075512
 21
-112.075958953
  0
LINE
  5
24C
100
AcDbEntity
  8
RACCORDO
100
AcDbLine
 62
253
  6
CONTINUOUS
 10
14.5798290177
 20
-111.6760198749
 11
-52.5069075512
 21
-111.6760198749
  0
LINE
  5
24D
100
AcDbEntity
  8
RACCORDO
100
AcDbLine
 62
7
  6
CONTINUOUS
 10
-52.4012739451
 20
-111.5703405774
 11
14.4741954116
 21
-111.5703405774
  0
LINE
  5
24E
100
AcDbEntity
  8
RACCORDO
100
AcDbLine
 62
253
  6
CONTINUOUS
 10
-54.3635392667
 20
-110.1762483322
 11
-54.0066790939
 21
-110.1762483322
  0
LINE
  5
24F
100
AcDbEntity
  8
RACCORDO
100
AcDbLine
 62
253
  6
CONTINUOUS
 10
16.4364607333
 20
-110.1762483322
 11
16.0796005605
 21
-110.1762483321
  0
LINE
  5
250
100
AcDbEntity
  8
RACCORDO
100
AcDbLine
 62
253
  6
CONTINUOUS
 10
-53.9009997963
 20
-110.0706147261
 11
-53.9010454878
 21
-110.0706147261
  0
LINE
  5
251
100
AcDbEntity
  8
RACCORDO
100
AcDbLine
 62
253
  6
CONTINUOUS
 10
15.9739212629
 20
-110.0706147261
 11
15.9739669544
 21
-110.0706147261
  0
LWPOLYLINE
  5
252
100
AcDbEntity
  8
RACCORDO
100
AcDbPolyline
 62
253
  6
CONTINUOUS
 90
33
 70
0
 10
-52.5069075512
 20
-112.075958953
 10
-52.5885006756
 20
-112.0742710096
 10
-52.6700044317
 20
-112.0690053582
 10
-52.7514188196
 20
-112.0601619987
 10
-52.8329701062
 20
-112.0477324773
 10
-52.9144320244
 20
-112.0317252478
 10
-52.995125774
 20
-112.0121656716
 10
-53.0750303527
 20
-111.9890058017
 10
-53.1541667626
 20
-111.9622935851
 10
-53.2319192094
 20
-111.9321982239
 10
-53.3082569729
 20
-111.8986837639
 10
-53.3832107732
 20
-111.8617861594
 10
-53.4562569768
 20
-111.821782476
 10
-53.5273378286
 20
-111.7786739042
 10
-53.5965110836
 20
-111.7324592534
 10
-53.6634263729
 20
-111.6834120177
 10
-53.7280673549
 20
-111.6315287997
 10
-53.7904503711
 20
-111.5768129968
 10
-53.8502740777
 20
-111.5195482949
 10
-53.9075303815
 20
-111.4597288183
 10
-53.9622273757
 20
-111.3973604427
 10
-54.0140879947
 20
-111.3327444821
 10
-54.0631083327
 20
-111.2658674239
 10
-54.1092922956
 20
-111.1967427806
 10
-54.1523745358
 20
-111.125712404
 10
-54.19235619
 20
-111.0527261948
 10
-54.2292361214
 20
-110.9778342522
 10
-54.2627455725
 20
-110.9015287255
 10
-54.2928590412
 20
-110.8237411772
 10
-54.3196020296
 20
-110.7445400447
 10
-54.3427822861
 20
-110.6646227901
 10
-54.3623373486
 20
-110.5840451336
 10
-54.3635392667
 20
-110.5779354259
  0
LWPOLYLINE
  5
253
100
AcDbEntity
  8
RACCORDO
100
AcDbPolyline
 62
253
  6
CONTINUOUS
 90
37
 70
0
 10
-52.5069075512
 20
-111.6760198749
 10
-52.5712476323
 20
-111.6746449783
 10
-52.635729937
 20
-111.6704895552
 10
-52.7002327129
 20
-111.6635275126
 10
-52.7646738702
 20
-111.6537307658
 10
-52.8288840304
 20
-111.6410876443
 10
-52.892610358
 20
-111.6256213518
 10
-52.9557264939
 20
-111.6073444763
 10
-53.018106948
 20
-111.586275069
 10
-53.079508638
 20
-111.5624852634
 10
-53.1398015951
 20
-111.5360252156
 10
-53.1988810072
 20
-111.5069407674
 10
-53.2565551157
 20
-111.4753316816
 10
-53.3126850133
 20
-111.4412892803
 10
-53.3672037081
 20
-111.4048697849
 10
-53.4200357572
 20
-111.3661341722
 10
-53.4710792411
 20
-111.3251663216
 10
-53.5202469369
 20
-111.2820457105
 10
-53.567484789
 20
-111.2368246571
 10
-53.6127031478
 20
-111.1895896625
 10
-53.6558166407
 20
-111.1404306271
 10
-53.696774236
 20
-111.0894015003
 10
-53.7354961893
 20
-111.0365913573
 10
-53.7719004871
 20
-110.9821011792
 10
-53.8059299606
 20
-110.9260015124
 10
-53.8375256129
 20
-110.8683648304
 10
-53.8665996676
 20
-110.809324524
 10
-53.8930620323
 20
-110.7490490529
 10
-53.9168745155
 20
-110.6876126211
 10
-53.9379707264
 20
-110.6251724188
 10
-53.9562577849
 20
-110.5620367974
 10
-53.9717101765
 20
-110.4983918019
 10
-53.9843389613
 20
-110.4343071903
 10
-53.994141088
 20
-110.3699246387
 10
-54.0011225814
 20
-110.3053744977
 10
-54.0052961804
 20
-110.2407751153
 10
-54.0066790939
 20
-110.1762483322
  0
LWPOLYLINE
  5
254
100
AcDbEntity
  8
RACCORDO
100
AcDbPolyline
 62
7
  6
CONTINUOUS
 90
32
 70
0
 10
-52.4012739449
 20
-111.5703367199
 10
-52.4827972186
 20
-111.5681202727
 10
-52.5583304693
 20
-111.5620970504
 10
-52.633457635
 20
-111.5522639846
 10
-52.7079922755
 20
-111.538650175
 10
-52.7817562828
 20
-111.5212872544
 10
-52.8545680712
 20
-111.500211854
 10
-52.9262385046
 20
-111.4754813676
 10
-52.9965778652
 20
-111.4471583202
 10
-53.0654034982
 20
-111.4153079716
 10
-53.1325397977
 20
-111.3800152131
 10
-53.1978081731
 20
-111.3413737518
 10
-53.2610385069
 20
-111.2994777544
 10
-53.3220721108
 20
-111.2544373255
 10
-53.3807487419
 20
-111.2063721492
 10
-53.4369142699
 20
-111.1554019473
 10
-53.4904291115
 20
-111.101659541
 10
-53.5411562468
 20
-111.0452858205
 10
-53.5889619155
 20
-110.9864225196
 10
-53.6337281947
 20
-110.9252220464
 10
-53.675343247
 20
-110.8618423952
 10
-53.7136969322
 20
-110.7964426493
 10
-53.7486943963
 20
-110.7291917169
 10
-53.7802488558
 20
-110.6602634446
 10
-53.8082751605
 20
-110.5898326314
 10
-53.8327052743
 20
-110.5180803286
 10
-53.8534814171
 20
-110.4451912965
 10
-53.8705457959
 20
-110.3713544654
 10
-53.8838573646
 20
-110.2967531982
 10
-53.8933868272
 20
-110.2215633181
 10
-53.8991039737
 20
-110.1459676405
 10
-53.9009950965
 20
-110.0706147261
  0
LINE
  5
255
100
AcDbEntity
  8
RACCORDO
100
AcDbLine
 62
253
  6
CONTINUOUS
 10
-52.5417952016
 20
-111.5637995297
 11
-52.4714619813
 21
-111.5687479635
  0
LWPOLYLINE
  5
256
100
AcDbEntity
  8
RACCORDO
100
AcDbPolyline
 62
253
  6
CONTINUOUS
 90
13
 70
0
 10
-53.3282819703
 20
-111.249698361
 10
-53.2711102304
 20
-111.2924808959
 10
-53.2118859129
 20
-111.3325447368
 10
-53.1506994653
 20
-111.3698085853
 10
-53.0877176504
 20
-111.404151378
 10
-53.0231392107
 20
-111.4354547387
 10
-52.9570812812
 20
-111.4636548735
 10
-52.8897213543
 20
-111.4886692023
 10
-52.8213667481
 20
-111.5103917049
 10
-52.7521766483
 20
-111.5287914185
 10
-52.6823161788
 20
-111.5438438057
 10
-52.6121153307
 20
-111.5555095873
 10
-52.5417952016
 20
-111.5637995297
  0
LINE
  5
257
100
AcDbEntity
  8
RACCORDO
100
AcDbLine
 62
253
  6
CONTINUOUS
 10
-53.383324339
 20
-111.2042662983
 11
-53.3807487419
 21
-111.2063721492
  0
LINE
  5
258
100
AcDbEntity
  8
RACCORDO
100
AcDbLine
 62
253
  6
CONTINUOUS
 10
-53.4369142699
 20
-111.1554019473
 11
-53.4361148142
 21
-111.1562926913
  0
LINE
  5
259
100
AcDbEntity
  8
ELVOX
100
AcDbLine
 62
253
  6
CONTINUOUS
 10
-12.8444127898
 20
127.9855586437
 11
-13.3748706721
 21
127.3056722626
  0
LINE
  5
25A
100
AcDbEntity
  8
ELVOX
100
AcDbLine
 62
253
  6
CONTINUOUS
 10
-19.2790770626
 20
125.1498526309
 11
-17.9689087948
 21
127.2727123492
  0
LINE
  5
25B
100
AcDbEntity
  8
ELVOX
100
AcDbLine
 62
253
  6
CONTINUOUS
 10
-18.3999455005
 20
127.9855586437
 11
-19.2629121321
 21
126.5925769875
  0
LINE
  5
25C
100
AcDbEntity
  8
ELVOX
100
AcDbLine
 62
253
  6
CONTINUOUS
 10
-13.8223262522
 20
126.525709894
 11
-14.7079043555
 21
125.1318468269
  0
LINE
  5
25D
100
AcDbEntity
  8
ELVOX
100
AcDbLine
 62
253
  6
CONTINUOUS
 10
-13.8274374828
 20
125.1318468269
 11
-13.341107436
 21
125.7965290836
  0
LINE
  5
25E
100
AcDbEntity
  8
DRAFT
100
AcDbLine
 62
7
  6
CONTINUOUS
 10
-68.7551728864
 20
-126.5649188529
 11
-68.7135392667
 21
-127.7571497324
  0
LINE
  5
25F
100
AcDbEntity
  8
DRAFT
100
AcDbLine
 62
7
  6
CONTINUOUS
 10
-68.7135392667
 20
126.7913896369
 11
-68.7551728864
 21
125.5991587574
  0
LWPOLYLINE
  5
260
100
AcDbEntity
  8
RACCORDO
100
AcDbPolyline
 62
253
  6
CONTINUOUS
 90
33
 70
0
 10
-54.3635392667
 20
109.6121358517
 10
-54.3623844668
 20
109.61801271
 10
-54.3428248906
 20
109.6987064595
 10
-54.3196650207
 20
109.7786110382
 10
-54.292952804
 20
109.8577474482
 10
-54.2628574429
 20
109.935499895
 10
-54.2293429829
 20
110.0118376584
 10
-54.1924453784
 20
110.0867914588
 10
-54.152441695
 20
110.1598376623
 10
-54.1093331231
 20
110.2309185141
 10
-54.0631184724
 20
110.3000917691
 10
-54.0140712366
 20
110.3670070584
 10
-53.9621880186
 20
110.4316480404
 10
-53.9074722157
 20
110.4940310567
 10
-53.8502075139
 20
110.5538547632
 10
-53.7903880372
 20
110.6111110671
 10
-53.7280196617
 20
110.6658080612
 10
-53.6634037011
 20
110.7176686802
 10
-53.5965266428
 20
110.7666890182
 10
-53.5274019996
 20
110.8128729811
 10
-53.4563716229
 20
110.8559552213
 10
-53.3833854137
 20
110.8959368755
 10
-53.3084934712
 20
110.9328168069
 10
-53.2321879445
 20
110.966326258
 10
-53.1544003961
 20
110.9964397267
 10
-53.0751992637
 20
111.0231827151
 10
-52.995282009
 20
111.0463629716
 10
-52.9147043525
 20
111.0659180341
 10
-52.8334105738
 20
111.0819103648
 10
-52.7519309742
 20
111.0943350989
 10
-52.6704423208
 20
111.103190615
 10
-52.5887678464
 20
111.1084785345
 10
-52.5069075512
 20
111.1101988575
  0
LINE
  5
261
100
AcDbEntity
  8
RACCORDO
100
AcDbLine
 62
253
  6
CONTINUOUS
 10
-53.8867051076
 20
102.5638964761
 11
-53.5850174227
 21
104.0760221806
  0
LINE
  5
262
100
AcDbEntity
  8
RACCORDO
100
AcDbLine
 62
7
  6
CONTINUOUS
 10
-53.8899495013
 20
102.5177710194
 11
-53.5907730106
 21
104.0173100609
  0
LINE
  5
263
100
AcDbEntity
  8
ELVOX
100
AcDbLine
 62
253
  6
CONTINUOUS
 10
-12.8920220767
 20
126.5489159977
 11
-12.0079235509
 21
127.9855586437
  0
LINE
  5
264
100
AcDbEntity
  8
RACCORDO
100
AcDbLine
 62
253
  6
CONTINUOUS
 10
14.1581673466
 20
110.2885981083
 11
14.5798290177
 21
110.7102597794
  0
LINE
  5
265
100
AcDbEntity
  8
RACCORDO
100
AcDbLine
 62
253
  6
CONTINUOUS
 10
15.6579388893
 20
108.7888265655
 11
16.0796005605
 21
109.2104882367
  0
LINE
  5
266
100
AcDbEntity
  8
ASSI
100
AcDbLine
 62
7
  6
CONTINUOUS
 10
14.7551991759
 20
-60.9828800478
 11
14.7364965497
 21
-60.9828800478
  0
LINE
  5
267
100
AcDbEntity
  8
DRAFT
100
AcDbLine
 62
7
  6
CONTINUOUS
 10
16.0626949174
 20
-60.9828800478
 11
14.7551991759
 21
-60.9828800478
  0
LINE
  5
268
100
AcDbEntity
  8
DRAFT
100
AcDbLine
 62
7
  6
CONTINUOUS
 10
16.0626949174
 20
-54.9828800478
 11
14.7551991759
 21
-54.9828800478
  0
LINE
  5
269
100
AcDbEntity
  8
ASSI
100
AcDbLine
 62
7
  6
CONTINUOUS
 10
14.7551991759
 20
-54.9828800478
 11
14.7364965497
 21
-54.9828800478
  0
LINE
  5
26A
100
AcDbEntity
  8
RACCORDO
100
AcDbLine
 62
253
  6
CONTINUOUS
 10
14.5798290177
 20
-111.6760198749
 11
14.4741954116
 21
-111.5703862688
  0
LINE
  5
26B
100
AcDbEntity
  8
RACCORDO
100
AcDbLine
 62
253
  6
CONTINUOUS
 10
16.0796005605
 20
-110.1762483322
 11
15.9739669544
 21
-110.0706147261
  0
LWPOLYLINE
  5
26C
100
AcDbEntity
  8
RACCORDO
100
AcDbPolyline
 62
253
  6
CONTINUOUS
 90
16
 70
0
 10
-53.8993982018
 20
-110.1409944598
 10
-53.8944251493
 20
-110.2114928762
 10
-53.8860985256
 20
-110.2819508373
 10
-53.8743874633
 20
-110.3522624074
 10
-53.8592849671
 20
-110.4222054859
 10
-53.8408347756
 20
-110.4914479264
 10
-53.819067127
 20
-110.5598203346
 10
-53.7940157049
 20
-110.627169566
 10
-53.7657850136
 20
-110.6932016238
 10
-53.7344604717
 20
-110.7577383369
 10
-53.7001070609
 20
-110.8206653941
 10
-53.6628349233
 20
-110.8818009859
 10
-53.6227618702
 20
-110.9409821501
 10
-53.5799709963
 20
-110.9981142852
 10
-53.5345279769
 20
-111.0531238635
 10
-53.4865388
 20
-111.105888833
  0
LINE
  5
26D
100
AcDbEntity
  8
0
100
AcDbLine
 62
7
  6
CONTINUOUS
 10
-68.7135392667
 20
-130.4828800478
 11
-68.7135392667
 21
129.5171199522
  0
LINE
  5
26E
100
AcDbEntity
  8
ASSI
100
AcDbLine
 62
7
  6
CONTINUOUS
 10
-68.7135392667
 20
-130.4828800478
 11
-68.7135392667
 21
129.5171199522
  0
LINE
  5
26F
100
AcDbEntity
  8
0
100
AcDbLine
 62
253
  6
CONTINUOUS
 10
-68.4466327226
 20
-132.5320910184
 11
-68.4466327226
 21
131.5663309228
  0
LINE
  5
270
100
AcDbEntity
  8
ASSI
100
AcDbLine
 62
253
  6
CONTINUOUS
 10
-68.4466327226
 20
-132.5320910184
 11
-68.4466327226
 21
131.5663309228
  0
LINE
  5
271
100
AcDbEntity
  8
RACCORDO
100
AcDbLine
 62
7
  6
CONTINUOUS
 10
-53.8895519093
 20
102.5232361787
 11
-53.8895109868
 21
102.5237198655
  0
LINE
  5
272
100
AcDbEntity
  8
RACCORDO
100
AcDbLine
 62
253
  6
CONTINUOUS
 10
-53.888393175
 20
102.5501730986
 11
-53.8875524564
 21
102.5583807924
  0
LINE
  5
273
100
AcDbEntity
  8
RACCORDO
100
AcDbLine
 62
253
  6
CONTINUOUS
 10
-53.8875524564
 20
102.5583807924
 11
-53.8867051076
 21
102.5638964761
  0
LINE
  5
274
100
AcDbEntity
  8
DRAFT
100
AcDbLine
 62
7
  6
CONTINUOUS
 10
30.828094353
 20
125.5991587574
 11
30.7864607333
 21
125.5560458821
  0
LINE
  5
275
100
AcDbEntity
  8
DRAFT
100
AcDbLine
 62
7
  6
CONTINUOUS
 10
30.828094353
 20
-126.5649188529
 11
30.7864607333
 21
-126.5218059776
  0
LINE
  5
276
100
AcDbEntity
  8
RACCORDO
100
AcDbLine
 62
253
  6
CONTINUOUS
 10
-53.8944521616
 20
4.7887939758
 11
-53.8994054447
 21
4.8591601006
  0
LINE
  5
277
100
AcDbEntity
  8
0
100
AcDbLine
 62
7
  6
CONTINUOUS
 10
-54.5635392667
 20
137.5171199522
 11
-54.5635392667
 21
-138.4828800478
  0
LINE
  5
278
100
AcDbEntity
  8
ASSI
100
AcDbLine
 62
7
  6
CONTINUOUS
 10
-54.5635392667
 20
137.5171199522
 11
-54.5635392667
 21
-138.4828800478
  0
LINE
  5
279
100
AcDbEntity
  8
0
100
AcDbLine
 62
7
  6
CONTINUOUS
 10
-54.3635392667
 20
114.7671199522
 11
-54.3635392667
 21
-115.7328800478
  0
LINE
  5
27A
100
AcDbEntity
  8
ASSI
100
AcDbLine
 62
7
  6
CONTINUOUS
 10
-54.3635392667
 20
114.7671199522
 11
-54.3635392667
 21
-115.7328800478
  0
LINE
  5
27B
100
AcDbEntity
  8
RACCORDO
100
AcDbLine
 62
253
  6
CONTINUOUS
 10
-54.0066790939
 20
-110.1762483322
 11
-54.0066790939
 21
-5.7895117633
  0
LINE
  5
27C
100
AcDbEntity
  8
RACCORDO
100
AcDbLine
 62
253
  6
CONTINUOUS
 10
-54.0066790939
 20
4.8237516678
 11
-54.0066790939
 21
109.2104882367
  0
LINE
  5
27D
100
AcDbEntity
  8
RACCORDO
100
AcDbLine
 62
7
  6
CONTINUOUS
 10
-53.9009997963
 20
-5.8951453694
 11
-53.9009997963
 21
-110.0706147261
  0
LINE
  5
27E
100
AcDbEntity
  8
RACCORDO
100
AcDbLine
 62
7
  6
CONTINUOUS
 10
-53.5850174227
 20
108.7891121208
 11
-53.5850174227
 21
104.0748770584
  0
LINE
  5
27F
100
AcDbEntity
  8
0
100
AcDbLine
 62
7
  6
CONTINUOUS
 10
-53.5635392667
 20
137.5171199522
 11
-53.5635392667
 21
114.7671199522
  0
LINE
  5
280
100
AcDbEntity
  8
ASSI
100
AcDbLine
 62
7
  6
CONTINUOUS
 10
-53.5635392667
 20
137.5171199522
 11
-53.5635392667
 21
114.7671199522
  0
LINE
  5
281
100
AcDbEntity
  8
0
100
AcDbLine
 62
7
  6
CONTINUOUS
 10
-53.5635392667
 20
-115.7328800478
 11
-53.5635392667
 21
-138.4828800478
  0
LINE
  5
282
100
AcDbEntity
  8
ASSI
100
AcDbLine
 62
7
  6
CONTINUOUS
 10
-53.5635392667
 20
-115.7328800478
 11
-53.5635392667
 21
-138.4828800478
  0
LINE
  5
283
100
AcDbEntity
  8
RACCORDO
100
AcDbLine
 62
253
  6
CONTINUOUS
 10
-52.5069075512
 20
111.1101988575
 11
-52.5069075512
 21
110.7102597794
  0
LINE
  5
284
100
AcDbEntity
  8
RACCORDO
100
AcDbLine
 62
253
  6
CONTINUOUS
 10
-52.5069075512
 20
-112.075958953
 11
-52.5069075511
 21
-111.6760198749
  0
LINE
  5
285
100
AcDbEntity
  8
RACCORDO
100
AcDbLine
 62
253
  6
CONTINUOUS
 10
-52.5069075512
 20
-3.8898011425
 11
-52.5069075512
 21
-4.2897402206
  0
LINE
  5
286
100
AcDbEntity
  8
RACCORDO
100
AcDbLine
 62
253
  6
CONTINUOUS
 10
-52.5069075512
 20
2.924041047
 11
-52.5069075511
 21
3.3239801251
  0
LINE
  5
287
100
AcDbEntity
  8
RACCORDO
100
AcDbLine
 62
253
  6
CONTINUOUS
 10
-52.4012739449
 20
-4.3954195181
 11
-52.4012739449
 21
-4.3953738267
  0
LINE
  5
288
100
AcDbEntity
  8
RACCORDO
100
AcDbLine
 62
253
  6
CONTINUOUS
 10
-52.4012739451
 20
3.4296137312
 11
-52.401273945
 21
3.4296594226
  0
LINE
  5
289
100
AcDbEntity
  8
RACCORDO
100
AcDbLine
 62
253
  6
CONTINUOUS
 10
-52.4012739451
 20
-111.5703405774
 11
-52.4012739451
 21
-111.5703862688
  0
LINE
  5
28A
100
AcDbEntity
  8
RACCORDO
100
AcDbLine
 62
7
  6
CONTINUOUS
 10
-53.9009997963
 20
4.9293852739
 11
-53.9006860218
 21
101.8457565542
  0
LINE
  5
28B
100
AcDbEntity
  8
RACCORDO
100
AcDbLine
 62
7
  6
CONTINUOUS
 10
-53.9006860218
 20
101.8457565542
 11
-53.8997965314
 21
102.0116987192
  0
LINE
  5
28C
100
AcDbEntity
  8
RACCORDO
100
AcDbLine
 62
253
  6
CONTINUOUS
 10
-53.8999073797
 20
102.0035372161
 11
-53.8997965314
 21
102.0116987192
  0
LINE
  5
28D
100
AcDbEntity
  8
RACCORDO
100
AcDbLine
 62
7
  6
CONTINUOUS
 10
-53.8997965314
 20
102.0116987192
 11
-53.8982782006
 21
102.1718481792
  0
LINE
  5
28E
100
AcDbEntity
  8
RACCORDO
100
AcDbLine
 62
253
  6
CONTINUOUS
 10
-53.8970425948
 20
102.2622638743
 11
-53.8968224097
 21
102.2760542144
  0
LINE
  5
28F
100
AcDbEntity
  8
RACCORDO
100
AcDbLine
 62
253
  6
CONTINUOUS
 10
-53.8965991586
 20
102.2894804427
 11
-53.8966278033
 21
102.2930292548
  0
LINE
  5
290
100
AcDbEntity
  8
RACCORDO
100
AcDbLine
 62
7
  6
CONTINUOUS
 10
-53.8982782006
 20
102.1718481792
 11
-53.8968224097
 21
102.2760542144
  0
LINE
  5
291
100
AcDbEntity
  8
RACCORDO
100
AcDbLine
 62
7
  6
CONTINUOUS
 10
-53.8968224097
 20
102.2760542144
 11
-53.8954437314
 21
102.3510414169
  0
LWPOLYLINE
  5
292
100
AcDbEntity
  8
RACCORDO
100
AcDbPolyline
 62
253
  6
CONTINUOUS
 90
37
 70
0
 10
-54.0066790939
 20
109.2104882367
 10
-54.0053041973
 20
109.2748283179
 10
-54.0011487742
 20
109.3393106225
 10
-53.9941867315
 20
109.4038133984
 10
-53.9843899848
 20
109.4682545558
 10
-53.9717468633
 20
109.5324647159
 10
-53.9562805707
 20
109.5961910435
 10
-53.9380036952
 20
109.6593071794
 10
-53.9169342879
 20
109.7216876335
 10
-53.8931444823
 20
109.7830893235
 10
-53.8666844346
 20
109.8433822806
 10
-53.8375999864
 20
109.9024616927
 10
-53.8059909006
 20
109.9601358012
 10
-53.7719484992
 20
110.0162656988
 10
-53.7355290038
 20
110.0707843936
 10
-53.6967933912
 20
110.1236164427
 10
-53.6558255406
 20
110.1746599266
 10
-53.6127049295
 20
110.2238276225
 10
-53.5674838761
 20
110.2710654745
 10
-53.5202488814
 20
110.3162838333
 10
-53.4710898461
 20
110.3593973262
 10
-53.4200607192
 20
110.4003549215
 10
-53.3672505763
 20
110.4390768749
 10
-53.3127603982
 20
110.4754811727
 10
-53.2566607314
 20
110.5095106462
 10
-53.1990240493
 20
110.5411062984
 10
-53.1399837429
 20
110.5701803532
 10
-53.0797082719
 20
110.5966427179
 10
-53.0182718401
 20
110.620455201
 10
-52.9558316378
 20
110.641551412
 10
-52.8926960163
 20
110.6598384704
 10
-52.8290510208
 20
110.6752908621
 10
-52.7649664093
 20
110.6879196468
 10
-52.7005838577
 20
110.6977217735
 10
-52.6360337167
 20
110.7047032669
 10
-52.5714343343
 20
110.708876866
 10
-52.5069075512
 20
110.7102597794
  0
LWPOLYLINE
  5
293
100
AcDbEntity
  8
RACCORDO
100
AcDbPolyline
 62
253
  6
CONTINUOUS
 90
37
 70
0
 10
-54.0066790939
 20
-5.7895117633
 10
-54.0052961804
 20
-5.7249849802
 10
-54.0011225814
 20
-5.6603855978
 10
-53.994141088
 20
-5.5958354568
 10
-53.9843389613
 20
-5.5314529052
 10
-53.9717101765
 20
-5.4673682936
 10
-53.9562577849
 20
-5.4037232981
 10
-53.9379707264
 20
-5.3405876767
 10
-53.9168745155
 20
-5.2781474744
 10
-53.8930620323
 20
-5.2167110426
 10
-53.8665996676
 20
-5.1564355715
 10
-53.8375256129
 20
-5.0973952651
 10
-53.8059299606
 20
-5.0397585831
 10
-53.7719004871
 20
-4.9836589163
 10
-53.7354961893
 20
-4.9291687382
 10
-53.696774236
 20
-4.8763585952
 10
-53.6558166407
 20
-4.8253294684
 10
-53.6127031478
 20
-4.776170433
 10
-53.567484789
 20
-4.7289354384
 10
-53.5202469369
 20
-4.683714385
 10
-53.4710792411
 20
-4.6405937739
 10
-53.4200357571
 20
-4.5996259233
 10
-53.3672037081
 20
-4.5608903106
 10
-53.3126850133
 20
-4.5244708152
 10
-53.2565551157
 20
-4.4904284139
 10
-53.1988810072
 20
-4.4588193281
 10
-53.1398015951
 20
-4.4297348799
 10
-53.079508638
 20
-4.4032748322
 10
-53.018106948
 20
-4.3794850265
 10
-52.9557264939
 20
-4.3584156192
 10
-52.892610358
 20
-4.3401387437
 10
-52.8288840304
 20
-4.3246724512
 10
-52.7646738702
 20
-4.3120293297
 10
-52.7002327129
 20
-4.3022325829
 10
-52.635729937
 20
-4.2952705403
 10
-52.5712476323
 20
-4.2911151172
 10
-52.5069075512
 20
-4.2897402206
  0
LINE
  5
294
100
AcDbEntity
  8
RACCORDO
100
AcDbLine
 62
7
  6
CONTINUOUS
 10
-53.8954437314
 20
102.3510414169
 11
-53.8942357613
 21
102.4033583196
  0
LWPOLYLINE
  5
295
100
AcDbEntity
  8
RACCORDO
100
AcDbPolyline
 62
7
  6
CONTINUOUS
 90
32
 70
0
 10
-53.9009950926
 20
-5.8951453694
 10
-53.8987726177
 20
-5.8134626653
 10
-53.8927347746
 20
-5.7378831098
 10
-53.8828863805
 20
-5.6627287147
 10
-53.8692584962
 20
-5.5881816934
 10
-53.8518809166
 20
-5.5144171972
 10
-53.8307969128
 20
-5.4416188613
 10
-53.8060649942
 20
-5.369975245
 10
-53.7777428627
 20
-5.2996695232
 10
-53.7459004524
 20
-5.2308818884
 10
-53.7106235004
 20
-5.1637867025
 10
-53.6719980844
 20
-5.0985561565
 10
-53.6301204178
 20
-5.0353582144
 10
-53.5851011033
 20
-4.9743517175
 10
-53.5370509353
 20
-4.9156934821
 10
-53.4860885034
 20
-4.8595346307
 10
-53.4323481983
 20
-4.806017047
 10
-53.3759668804
 20
-4.7552818393
 10
-53.3170846039
 20
-4.70746055
 10
-53.2558562511
 20
-4.6626729054
 10
-53.1924432859
 20
-4.6210396718
 10
-53.1270051306
 20
-4.5826697155
 10
-53.0597124689
 20
-4.5476565569
 10
-52.9907455973
 20
-4.5160946825
 10
-52.9202810226
 20
-4.4880675411
 10
-52.8485019411
 20
-4.4636391743
 10
-52.7755996343
 20
-4.4428722911
 10
-52.7017636319
 20
-4.425822731
 10
-52.6271752406
 20
-4.4125254407
 10
-52.5520131522
 20
-4.4030117146
 10
-52.4764653013
 20
-4.3973089299
 10
-52.4012739449
 20
-4.3954233683
  0
LINE
  5
296
100
AcDbEntity
  8
RACCORDO
100
AcDbLine
 62
7
  6
CONTINUOUS
 10
-53.8942357613
 20
102.4033583196
 11
-53.893256646
 21
102.4385621976
  0
LINE
  5
297
100
AcDbEntity
  8
RACCORDO
100
AcDbLine
 62
253
  6
CONTINUOUS
 10
-53.8922806414
 20
102.4679482801
 11
-53.8924750126
 21
102.4689887447
  0
LINE
  5
298
100
AcDbEntity
  8
RACCORDO
100
AcDbLine
 62
7
  6
CONTINUOUS
 10
-53.893256646
 20
102.4385621976
 11
-53.8925231196
 21
102.4611364121
  0
LINE
  5
299
100
AcDbEntity
  8
RACCORDO
100
AcDbLine
 62
253
  6
CONTINUOUS
 10
-53.8915692922
 20
102.4861832047
 11
-53.8916897474
 21
102.4904222228
  0
LINE
  5
29A
100
AcDbEntity
  8
RACCORDO
100
AcDbLine
 62
7
  6
CONTINUOUS
 10
-53.8925231196
 20
102.4611364121
 11
-53.8918029579
 21
102.4804820107
  0
LWPOLYLINE
  5
29B
100
AcDbEntity
  8
RACCORDO
100
AcDbPolyline
 62
7
  6
CONTINUOUS
 90
4
 70
0
 10
-53.5850174227
 20
104.0748770584
 10
-53.5858923593
 20
104.0527524174
 10
-53.58841729
 20
104.0307017215
 10
-53.5907729236
 20
104.017309744
  0
LWPOLYLINE
  5
29C
100
AcDbEntity
  8
RACCORDO
100
AcDbPolyline
 62
253
  6
CONTINUOUS
 90
3
 70
0
 10
-53.8867051076
 20
102.5638964761
 10
-53.8878089309
 20
102.5378240607
 10
-53.8911915912
 20
102.5119504563
  0
LWPOLYLINE
  5
29D
100
AcDbEntity
  8
RACCORDO
100
AcDbPolyline
 62
253
  6
CONTINUOUS
 90
5
 70
0
 10
-53.8911145027
 20
102.4964604039
 10
-53.8908839795
 20
102.5092847574
 10
-53.8900589365
 20
102.5256250811
 10
-53.8892272634
 20
102.5392733948
 10
-53.888393175
 20
102.5501730986
  0
LINE
  5
29E
100
AcDbEntity
  8
RACCORDO
100
AcDbLine
 62
7
  6
CONTINUOUS
 10
-53.8918029579
 20
102.4804820107
 11
-53.8913393647
 21
102.4915146133
  0
LINE
  5
29F
100
AcDbEntity
  8
RACCORDO
100
AcDbLine
 62
7
  6
CONTINUOUS
 10
-53.8913393647
 20
102.4915146133
 11
-53.890895184
 21
102.5010282658
  0
LINE
  5
2A0
100
AcDbEntity
  8
RACCORDO
100
AcDbLine
 62
7
  6
CONTINUOUS
 10
-53.890895184
 20
102.5010282658
 11
-53.8904777915
 21
102.5090194727
  0
LWPOLYLINE
  5
2A1
100
AcDbEntity
  8
RACCORDO
100
AcDbPolyline
 62
7
  6
CONTINUOUS
 90
6
 70
0
 10
-53.8904777915
 20
102.5090194727
 10
-53.8900976396
 20
102.5154814791
 10
-53.8899295452
 20
102.5180794502
 10
-53.8897789209
 20
102.5202608664
 10
-53.8896490278
 20
102.5220159732
 10
-53.8895519093
 20
102.5232361787
  0
LINE
  5
2A2
100
AcDbEntity
  8
RACCORDO
100
AcDbLine
 62
253
  6
CONTINUOUS
 10
-53.8944251493
 20
-5.7542672193
 11
-53.8993982018
 21
-5.8247656357
  0
LWPOLYLINE
  5
2A3
100
AcDbEntity
  8
RACCORDO
100
AcDbPolyline
 62
253
  6
CONTINUOUS
 90
33
 70
0
 10
-54.3635392667
 20
-5.3878246696
 10
-54.3623373485
 20
-5.3817149621
 10
-54.342782285
 20
-5.3011373057
 10
-54.3196020286
 20
-5.221220051
 10
-54.2928590411
 20
-5.1420189183
 10
-54.2627455729
 20
-5.0642313698
 10
-54.2292361218
 20
-4.9879258432
 10
-54.19235619
 20
-4.9130339007
 10
-54.1523745357
 20
-4.8400476916
 10
-54.1092922955
 20
-4.769017315
 10
-54.0631083327
 20
-4.6998926717
 10
-54.0140879947
 20
-4.6330156134
 10
-53.9622273757
 20
-4.5683996528
 10
-53.9075303815
 20
-4.5060312773
 10
-53.8502740776
 20
-4.4462118006
 10
-53.7904503711
 20
-4.3889470988
 10
-53.7280673548
 20
-4.3342312958
 10
-53.6634263729
 20
-4.2823480778
 10
-53.5965110836
 20
-4.233300842
 10
-53.5273378286
 20
-4.1870861912
 10
-53.4562569768
 20
-4.1439776194
 10
-53.3832107732
 20
-4.1039739362
 10
-53.3082569727
 20
-4.0670763321
 10
-53.2319192092
 20
-4.0335618721
 10
-53.1541667626
 20
-4.0034665102
 10
-53.075030353
 20
-3.9767542923
 10
-52.9951257745
 20
-3.953594422
 10
-52.9144320247
 20
-3.9340348473
 10
-52.832970106
 20
-3.9180276201
 10
-52.7514188192
 20
-3.9055981001
 10
-52.6700044313
 20
-3.8967547405
 10
-52.5885006753
 20
-3.8914890879
 10
-52.5069075512
 20
-3.8898011425
  0
LWPOLYLINE
  5
2A4
100
AcDbEntity
  8
RACCORDO
100
AcDbPolyline
 62
253
  6
CONTINUOUS
 90
13
 70
0
 10
-53.5799709963
 20
-4.9676458103
 10
-53.6227618702
 20
-5.0247779454
 10
-53.6628349233
 20
-5.0839591096
 10
-53.7001070609
 20
-5.1450947014
 10
-53.7344604717
 20
-5.2080217586
 10
-53.7657850136
 20
-5.2725584717
 10
-53.7940157049
 20
-5.3385905295
 10
-53.819067127
 20
-5.4059397609
 10
-53.8408347756
 20
-5.4743121691
 10
-53.8592849671
 20
-5.5435546097
 10
-53.8743874633
 20
-5.6134976882
 10
-53.8860985256
 20
-5.6838092582
 10
-53.8944251493
 20
-5.7542672193
  0
LINE
  5
2A5
100
AcDbEntity
  8
RACCORDO
100
AcDbLine
 62
253
  6
CONTINUOUS
 10
-53.5345279769
 20
-4.912636232
 11
-53.5370509353
 21
-4.9156934821
  0
LINE
  5
2A6
100
AcDbEntity
  8
RACCORDO
100
AcDbLine
 62
253
  6
CONTINUOUS
 10
-54.0066790939
 20
4.8237516678
 11
-53.9010454878
 21
4.9293852739
  0
LINE
  5
2A7
100
AcDbEntity
  8
RACCORDO
100
AcDbLine
 62
253
  6
CONTINUOUS
 10
-52.5069075512
 20
3.3239801251
 11
-52.4012739451
 21
3.4296137312
  0
LINE
  5
2A8
100
AcDbEntity
  8
RACCORDO
100
AcDbLine
 62
253
  6
CONTINUOUS
 10
-53.4860885034
 20
-4.8595346307
 11
-53.4865388
 21
-4.8598712625
  0
LINE
  5
2A9
100
AcDbEntity
  8
RACCORDO
100
AcDbLine
 62
253
  6
CONTINUOUS
 10
-53.9010454878
 20
-5.8951453694
 11
-54.0066790939
 21
-5.7895117633
  0
LINE
  5
2AA
100
AcDbEntity
  8
RACCORDO
100
AcDbLine
 62
253
  6
CONTINUOUS
 10
-52.4012739451
 20
-4.3953738267
 11
-52.5069075512
 21
-4.2897402206
  0
LINE
  5
2AB
100
AcDbEntity
  8
RACCORDO
100
AcDbLine
 62
253
  6
CONTINUOUS
 10
-53.4860790349
 20
3.8937639891
 11
-53.4867953519
 21
3.8943801776
  0
LINE
  5
2AC
100
AcDbEntity
  8
RACCORDO
100
AcDbLine
 62
253
  6
CONTINUOUS
 10
-53.5347862394
 20
3.9471741168
 11
-53.5370577
 21
3.9499408816
  0
LWPOLYLINE
  5
2AD
100
AcDbEntity
  8
RACCORDO
100
AcDbPolyline
 62
253
  6
CONTINUOUS
 90
13
 70
0
 10
-53.5802328363
 20
4.0022185933
 10
-53.623027549
 20
4.0593908703
 10
-53.6631019798
 20
4.1186145524
 10
-53.7003744648
 20
4.1797979348
 10
-53.7347249002
 20
4.2427750759
 10
-53.766037034
 20
4.3073511638
 10
-53.7942470322
 20
4.3734098405
 10
-53.8192716775
 20
4.4407730991
 10
-53.8410052776
 20
4.5091359953
 10
-53.859416439
 20
4.5783404216
 10
-53.8744796347
 20
4.6482203863
 10
-53.8861548223
 20
4.7184453566
 10
-53.8944521616
 20
4.7887939758
  0
LINE
  5
2AE
100
AcDbEntity
  8
ELVOX
100
AcDbLine
 62
253
  6
CONTINUOUS
 10
-25.9191548312
 20
128.0018715002
 11
-25.9191548312
 21
125.1306655804
  0
LINE
  5
2AF
100
AcDbEntity
  8
ELVOX
100
AcDbLine
 62
253
  6
CONTINUOUS
 10
-25.033752449
 20
125.8306655804
 11
-25.033752449
 21
126.1944061288
  0
LINE
  5
2B0
100
AcDbEntity
  8
ELVOX
100
AcDbLine
 62
253
  6
CONTINUOUS
 10
-25.033752449
 20
126.9406138109
 11
-25.033752449
 21
127.305793944
  0
LINE
  5
2B1
100
AcDbEntity
  8
ELVOX
100
AcDbLine
 62
253
  6
CONTINUOUS
 10
-23.9726758821
 20
126.1944061288
 11
-23.9726758821
 21
126.9406138109
  0
LINE
  5
2B2
100
AcDbEntity
  8
ELVOX
100
AcDbLine
 62
253
  6
CONTINUOUS
 10
-23.1596333476
 20
127.305793944
 11
-23.1596333476
 21
128.0018715002
  0
LINE
  5
2B3
100
AcDbEntity
  8
ELVOX
100
AcDbLine
 62
253
  6
CONTINUOUS
 10
-22.8450961298
 20
128.0018715002
 11
-22.8450961298
 21
127.305793944
  0
LINE
  5
2B4
100
AcDbEntity
  8
ELVOX
100
AcDbLine
 62
253
  6
CONTINUOUS
 10
-22.8285853565
 20
125.1306655804
 11
-22.8285853565
 21
125.8306655804
  0
LINE
  5
2B5
100
AcDbEntity
  8
ELVOX
100
AcDbLine
 62
253
  6
CONTINUOUS
 10
-22.4964524666
 20
126.9406138109
 11
-22.4964524666
 21
125.1306655804
  0
LINE
  5
2B6
100
AcDbEntity
  8
ELVOX
100
AcDbLine
 62
253
  6
CONTINUOUS
 10
-21.6510260346
 20
125.8306655804
 11
-21.6510260346
 21
126.9406138109
  0
LINE
  5
2B7
100
AcDbEntity
  8
ELVOX
100
AcDbLine
 62
253
  6
CONTINUOUS
 10
-20.0087490167
 20
125.1306655804
 11
-20.0087490167
 21
125.8306655804
  0
LINE
  5
2B8
100
AcDbEntity
  8
ELVOX
100
AcDbLine
 62
253
  6
CONTINUOUS
 10
-17.9530922119
 20
126.9060484634
 11
-17.9530922119
 21
125.1353837766
  0
LINE
  5
2B9
100
AcDbEntity
  8
ELVOX
100
AcDbLine
 62
253
  6
CONTINUOUS
 10
-17.0750943789
 20
126.0207733163
 11
-17.0728386442
 21
126.2612409812
  0
LWPOLYLINE
  5
2BA
100
AcDbEntity
  8
RACCORDO
100
AcDbPolyline
 62
253
  6
CONTINUOUS
 90
16
 70
0
 10
-52.4714619813
 20
-4.397012132
 10
-52.5417952016
 20
-4.4019605658
 10
-52.6121153307
 20
-4.4102505082
 10
-52.6823161788
 20
-4.4219162898
 10
-52.7521766483
 20
-4.436968677
 10
-52.8213667481
 20
-4.4553683906
 10
-52.8897213543
 20
-4.4770908932
 10
-52.9570812812
 20
-4.502105222
 10
-53.0231392107
 20
-4.5303053568
 10
-53.0877176504
 20
-4.5616087175
 10
-53.1506994653
 20
-4.5959515102
 10
-53.2118859129
 20
-4.6332153587
 10
-53.2711102304
 20
-4.6732791996
 10
-53.3282819703
 20
-4.7160617345
 10
-53.383324339
 20
-4.7614937972
 10
-53.4361148142
 20
-4.8094674042
  0
LINE
  5
2BB
100
AcDbEntity
  8
RACCORDO
100
AcDbLine
 62
253
  6
CONTINUOUS
 10
15.9739212629
 20
-5.8951453694
 11
15.9739669544
 21
-5.8951453694
  0
LINE
  5
2BC
100
AcDbEntity
  8
RACCORDO
100
AcDbLine
 62
253
  6
CONTINUOUS
 10
-53.9009997963
 20
-5.8951453694
 11
-53.9010454878
 21
-5.8951453694
  0
LINE
  5
2BD
100
AcDbEntity
  8
RACCORDO
100
AcDbLine
 62
253
  6
CONTINUOUS
 10
-54.3635392667
 20
-5.7895117633
 11
-54.0066790939
 21
-5.7895117633
  0
LINE
  5
2BE
100
AcDbEntity
  8
RACCORDO
100
AcDbLine
 62
253
  6
CONTINUOUS
 10
16.4364607333
 20
-5.7895117633
 11
16.0796005605
 21
-5.7895117633
  0
LINE
  5
2BF
100
AcDbEntity
  8
RACCORDO
100
AcDbLine
 62
7
  6
CONTINUOUS
 10
14.4741954116
 20
-4.3954195181
 11
-52.4012739449
 21
-4.3954195181
  0
LINE
  5
2C0
100
AcDbEntity
  8
RACCORDO
100
AcDbLine
 62
253
  6
CONTINUOUS
 10
-52.5069075512
 20
-4.2897402206
 11
14.5798290177
 21
-4.2897402206
  0
LINE
  5
2C1
100
AcDbEntity
  8
RACCORDO
100
AcDbLine
 62
253
  6
CONTINUOUS
 10
-52.5069075512
 20
-3.8898011425
 11
14.5798290177
 21
-3.8898011425
  0
LWPOLYLINE
  5
2C2
100
AcDbEntity
  8
RACCORDO
100
AcDbPolyline
 62
253
  6
CONTINUOUS
 90
33
 70
0
 10
14.5798290177
 20
-3.8898011425
 10
14.6614221421
 20
-3.8914890859
 10
14.7429258983
 20
-3.8967547373
 10
14.8243402862
 20
-3.9055980968
 10
14.9058915727
 20
-3.9180276182
 10
14.987353491
 20
-3.9340348477
 10
15.0680472405
 20
-3.9535944239
 10
15.1479518192
 20
-3.9767542938
 10
15.2270882292
 20
-4.0034665104
 10
15.304840676
 20
-4.0335618716
 10
15.3811784395
 20
-4.0670763316
 10
15.4561322398
 20
-4.1039739361
 10
15.5291784433
 20
-4.1439776195
 10
15.6002592951
 20
-4.1870861913
 10
15.6694325501
 20
-4.2333008421
 10
15.7363478395
 20
-4.2823480778
 10
15.8009888214
 20
-4.3342312958
 10
15.8633718377
 20
-4.3889470988
 10
15.9231955442
 20
-4.4462118006
 10
15.9804518481
 20
-4.5060312773
 10
16.0351488422
 20
-4.5683996528
 10
16.0870094613
 20
-4.6330156134
 10
16.1360297993
 20
-4.6998926716
 10
16.1822137622
 20
-4.7690173149
 10
16.2252960024
 20
-4.8400476915
 10
16.2652776565
 20
-4.9130339007
 10
16.302157588
 20
-4.9879258433
 10
16.3356670391
 20
-5.06423137
 10
16.3657805078
 20
-5.1420189183
 10
16.3925234961
 20
-5.2212200508
 10
16.4157037527
 20
-5.3011373054
 10
16.4352588152
 20
-5.3817149619
 10
16.4364607333
 20
-5.3878246696
  0
LWPOLYLINE
  5
2C3
100
AcDbEntity
  8
RACCORDO
100
AcDbPolyline
 62
253
  6
CONTINUOUS
 90
37
 70
0
 10
14.5798290177
 20
-4.2897402206
 10
14.6441690989
 20
-4.2911151172
 10
14.7086514036
 20
-4.2952705403
 10
14.7731541795
 20
-4.3022325829
 10
14.8375953368
 20
-4.3120293297
 10
14.901805497
 20
-4.3246724512
 10
14.9655318245
 20
-4.3401387437
 10
15.0286479605
 20
-4.3584156192
 10
15.0910284146
 20
-4.3794850265
 10
15.1524301046
 20
-4.4032748322
 10
15.2127230617
 20
-4.4297348799
 10
15.2718024738
 20
-4.4588193281
 10
15.3294765823
 20
-4.4904284139
 10
15.3856064798
 20
-4.5244708152
 10
15.4401251747
 20
-4.5608903106
 10
15.4929572237
 20
-4.5996259233
 10
15.5440007076
 20
-4.6405937739
 10
15.5931684035
 20
-4.683714385
 10
15.6404062555
 20
-4.7289354384
 10
15.6856246144
 20
-4.776170433
 10
15.7287381073
 20
-4.8253294684
 10
15.7696957026
 20
-4.8763585952
 10
15.8084176559
 20
-4.9291687382
 10
15.8448219537
 20
-4.9836589163
 10
15.8788514272
 20
-5.0397585831
 10
15.9104470795
 20
-5.0973952651
 10
15.9395211342
 20
-5.1564355715
 10
15.9659834989
 20
-5.2167110426
 10
15.989795982
 20
-5.2781474744
 10
16.010892193
 20
-5.3405876767
 10
16.0291792514
 20
-5.4037232981
 10
16.0446316431
 20
-5.4673682936
 10
16.0572604279
 20
-5.5314529052
 10
16.0670625545
 20
-5.5958354568
 10
16.0740440479
 20
-5.6603855978
 10
16.078217647
 20
-5.7249849802
 10
16.0796005605
 20
-5.7895117633
  0
LWPOLYLINE
  5
2C4
100
AcDbEntity
  8
RACCORDO
100
AcDbPolyline
 62
7
  6
CONTINUOUS
 90
32
 70
0
 10
14.4741954115
 20
-4.3954233756
 10
14.5557186851
 20
-4.3976398228
 10
14.6312519359
 20
-4.4036630451
 10
14.7063791016
 20
-4.4134961109
 10
14.780913742
 20
-4.4271099205
 10
14.8546777494
 20
-4.4444728411
 10
14.9274895378
 20
-4.4655482416
 10
14.9991599711
 20
-4.4902787279
 10
15.0694993318
 20
-4.5186017754
 10
15.1383249647
 20
-4.5504521239
 10
15.2054612643
 20
-4.5857448824
 10
15.2707296397
 20
-4.6243863437
 10
15.3339599735
 20
-4.6662823411
 10
15.3949935774
 20
-4.71132277
 10
15.4536702085
 20
-4.7593879463
 10
15.5098357365
 20
-4.8103581482
 10
15.5633505781
 20
-4.8641005546
 10
15.6140777134
 20
-4.920474275
 10
15.6618833821
 20
-4.9793375759
 10
15.7066496612
 20
-5.0405380491
 10
15.7482647136
 20
-5.1039177003
 10
15.7866183987
 20
-5.1693174463
 10
15.8216158629
 20
-5.2365683786
 10
15.8531703223
 20
-5.3054966509
 10
15.8811966271
 20
-5.3759274641
 10
15.9056267409
 20
-5.4476797669
 10
15.9264028836
 20
-5.520568799
 10
15.9434672625
 20
-5.5944056301
 10
15.9567788312
 20
-5.6690068974
 10
15.9663082938
 20
-5.7441967774
 10
15.9720254403
 20
-5.819792455
 10
15.973916563
 20
-5.8951453695
  0
LINE
  5
2C5
100
AcDbEntity
  8
RACCORDO
100
AcDbLine
 62
253
  6
CONTINUOUS
 10
14.6147166681
 20
-4.4019605658
 11
14.5443834479
 21
-4.397012132
  0
LINE
  5
2C6
100
AcDbEntity
  8
ELVOX
100
AcDbLine
 62
253
  6
CONTINUOUS
 10
-17.0728386442
 20
125.7803056515
 11
-17.0750943789
 21
126.0207733163
  0
LINE
  5
2C7
100
AcDbEntity
  8
ELVOX
100
AcDbLine
 62
253
  6
CONTINUOUS
 10
-15.9624843693
 20
126.2612409812
 11
-15.9624843693
 21
125.7803056515
  0
LINE
  5
2C8
100
AcDbEntity
  8
ELVOX
100
AcDbLine
 62
253
  6
CONTINUOUS
 10
-15.0818862921
 20
125.1353837766
 11
-15.0818862921
 21
126.9082301795
  0
LINE
  5
2C9
100
AcDbEntity
  8
RACCORDO
100
AcDbLine
 62
253
  6
CONTINUOUS
 10
14.6147867097
 20
3.4362070574
 11
14.5444205849
 21
3.4312537743
  0
LINE
  5
2CA
100
AcDbEntity
  8
RACCORDO
100
AcDbLine
 62
253
  6
CONTINUOUS
 10
14.5798290177
 20
2.924041047
 11
-52.5069075512
 21
2.924041047
  0
LINE
  5
2CB
100
AcDbEntity
  8
RACCORDO
100
AcDbLine
 62
253
  6
CONTINUOUS
 10
14.5798290177
 20
3.3239801251
 11
-52.5069075512
 21
3.3239801251
  0
LINE
  5
2CC
100
AcDbEntity
  8
RACCORDO
100
AcDbLine
 62
7
  6
CONTINUOUS
 10
14.4741954116
 20
3.4296594226
 11
-52.401273945
 21
3.4296594226
  0
LINE
  5
2CD
100
AcDbEntity
  8
RACCORDO
100
AcDbLine
 62
253
  6
CONTINUOUS
 10
-54.3635392667
 20
4.8237516678
 11
-54.0066790939
 21
4.8237516678
  0
LINE
  5
2CE
100
AcDbEntity
  8
RACCORDO
100
AcDbLine
 62
253
  6
CONTINUOUS
 10
16.4364607333
 20
4.8237516678
 11
16.0796005605
 21
4.8237516679
  0
LINE
  5
2CF
100
AcDbEntity
  8
RACCORDO
100
AcDbLine
 62
253
  6
CONTINUOUS
 10
-53.9010454878
 20
4.9293852739
 11
-53.9009997963
 21
4.9293852739
  0
LINE
  5
2D0
100
AcDbEntity
  8
RACCORDO
100
AcDbLine
 62
253
  6
CONTINUOUS
 10
15.9739669544
 20
4.9293852739
 11
15.9739212629
 21
4.9293852739
  0
LWPOLYLINE
  5
2D1
100
AcDbEntity
  8
RACCORDO
100
AcDbPolyline
 62
253
  6
CONTINUOUS
 90
33
 70
0
 10
-52.5069075512
 20
2.924041047
 10
-52.5885006756
 20
2.9257289904
 10
-52.6700044317
 20
2.9309946418
 10
-52.7514188196
 20
2.9398380013
 10
-52.8329701062
 20
2.9522675227
 10
-52.9144320244
 20
2.9682747522
 10
-52.995125774
 20
2.9878343284
 10
-53.0750303527
 20
3.0109941983
 10
-53.1541667626
 20
3.0377064149
 10
-53.2319192094
 20
3.0678017761
 10
-53.3082569729
 20
3.1013162361
 10
-53.3832107732
 20
3.1382138406
 10
-53.4562569768
 20
3.178217524
 10
-53.5273378286
 20
3.2213260958
 10
-53.5965110836
 20
3.2675407466
 10
-53.6634263729
 20
3.3165879823
 10
-53.7280673549
 20
3.3684712003
 10
-53.7904503711
 20
3.4231870032
 10
-53.8502740777
 20
3.4804517051
 10
-53.9075303815
 20
3.5402711817
 10
-53.9622273757
 20
3.6026395573
 10
-54.0140879947
 20
3.6672555179
 10
-54.0631083327
 20
3.7341325761
 10
-54.1092922956
 20
3.8032572194
 10
-54.1523745358
 20
3.874287596
 10
-54.19235619
 20
3.9472738052
 10
-54.2292361214
 20
4.0221657478
 10
-54.2627455725
 20
4.0984712745
 10
-54.2928590412
 20
4.1762588228
 10
-54.3196020296
 20
4.2554599553
 10
-54.3427822861
 20
4.3353772099
 10
-54.3623373486
 20
4.4159548664
 10
-54.3635392667
 20
4.4220645741
  0
LWPOLYLINE
  5
2D2
100
AcDbEntity
  8
RACCORDO
100
AcDbPolyline
 62
253
  6
CONTINUOUS
 90
37
 70
0
 10
-52.5069075512
 20
3.3239801251
 10
-52.5712476323
 20
3.3253550217
 10
-52.635729937
 20
3.3295104448
 10
-52.7002327129
 20
3.3364724874
 10
-52.7646738702
 20
3.3462692342
 10
-52.8288840304
 20
3.3589123557
 10
-52.892610358
 20
3.3743786482
 10
-52.9557264939
 20
3.3926555237
 10
-53.018106948
 20
3.413724931
 10
-53.079508638
 20
3.4375147366
 10
-53.1398015951
 20
3.4639747844
 10
-53.1988810072
 20
3.4930592326
 10
-53.2565551157
 20
3.5246683184
 10
-53.3126850133
 20
3.5587107197
 10
-53.3672037081
 20
3.5951302151
 10
-53.4200357571
 20
3.6338658278
 10
-53.4710792411
 20
3.6748336784
 10
-53.5202469369
 20
3.7179542895
 10
-53.567484789
 20
3.7631753429
 10
-53.6127031478
 20
3.8104103375
 10
-53.6558166407
 20
3.8595693729
 10
-53.696774236
 20
3.9105984997
 10
-53.7354961893
 20
3.9634086427
 10
-53.7719004871
 20
4.0178988208
 10
-53.8059299606
 20
4.0739984876
 10
-53.8375256129
 20
4.1316351696
 10
-53.8665996676
 20
4.190675476
 10
-53.8930620323
 20
4.2509509471
 10
-53.9168745155
 20
4.3123873789
 10
-53.9379707264
 20
4.3748275812
 10
-53.9562577849
 20
4.4379632026
 10
-53.9717101765
 20
4.5016081981
 10
-53.9843389613
 20
4.5656928097
 10
-53.994141088
 20
4.6300753613
 10
-54.0011225814
 20
4.6946255023
 10
-54.0052961804
 20
4.7592248847
 10
-54.0066790939
 20
4.8237516678
  0
LWPOLYLINE
  5
2D3
100
AcDbEntity
  8
RACCORDO
100
AcDbPolyline
 62
7
  6
CONTINUOUS
 90
32
 70
0
 10
-52.4012739449
 20
3.4296632733
 10
-52.4765086057
 20
3.4315505884
 10
-52.5520667252
 20
3.4372568596
 10
-52.6272309494
 20
3.4467739234
 10
-52.701815574
 20
3.4600731566
 10
-52.7756446693
 20
3.4771239742
 10
-52.8485365977
 20
3.4978900499
 10
-52.9203018546
 20
3.5223146598
 10
-52.9907522789
 20
3.5503373173
 10
-53.0597052889
 20
3.5818932131
 10
-53.1269850249
 20
3.616898111
 10
-53.1924137252
 20
3.6552611327
 10
-53.2558210317
 20
3.6968887887
 10
-53.3170477319
 20
3.7416714895
 10
-53.3759334285
 20
3.7894928917
 10
-53.4323241881
 20
3.8402347794
 10
-53.4860790349
 20
3.8937639891
 10
-53.5370577
 20
3.9499408816
 10
-53.5851264481
 20
4.0086250519
 10
-53.6301664106
 20
4.0696630413
 10
-53.6720604925
 20
4.1328949305
 10
-53.7106984496
 20
4.1981619619
 10
-53.7459860932
 20
4.265294155
 10
-53.7778317302
 20
4.3341140999
 10
-53.8061504064
 20
4.4044462792
 10
-53.830876576
 20
4.4761083674
 10
-53.8519489066
 20
4.5489124246
 10
-53.8693099037
 20
4.622669205
 10
-53.88292252
 20
4.6971972022
 10
-53.8927553912
 20
4.7723205147
 10
-53.8987791533
 20
4.8478534589
 10
-53.9009962063
 20
4.9293852741
  0
LWPOLYLINE
  5
2D4
100
AcDbEntity
  8
RACCORDO
100
AcDbPolyline
 62
253
  6
CONTINUOUS
 90
16
 70
0
 10
-52.4715379476
 20
3.4312555923
 10
-52.5419377447
 20
3.4362138794
 10
-52.6123147013
 20
3.444518715
 10
-52.6825627932
 20
3.4562032343
 10
-52.7524603756
 20
3.4712768557
 10
-52.8216762489
 20
3.4896985991
 10
-52.8900435251
 20
3.5114417703
 10
-52.9574053415
 20
3.5364744273
 10
-53.0234593157
 20
3.564691119
 10
-53.0880272595
 20
3.5960080044
 10
-53.1509934451
 20
3.6303610065
 10
-53.2121665166
 20
3.6676355292
 10
-53.2713812708
 20
3.7077120791
 10
-53.3285452173
 20
3.7505086373
 10
-53.3835827653
 20
3.79595761
 10
-53.4363713133
 20
3.8439518512
  0
LINE
  5
2D5
100
AcDbEntity
  8
RACCORDO
100
AcDbLine
 62
253
  6
CONTINUOUS
 10
15.5098166965
 20
3.844580184
 11
15.5092005079
 21
3.8438638671
  0
LINE
  5
2D6
100
AcDbEntity
  8
RACCORDO
100
AcDbLine
 62
253
  6
CONTINUOUS
 10
15.4564065687
 20
3.7958729796
 11
15.4536398039
 21
3.793601519
  0
LWPOLYLINE
  5
2D7
100
AcDbEntity
  8
RACCORDO
100
AcDbPolyline
 62
253
  6
CONTINUOUS
 90
13
 70
0
 10
15.4013620923
 20
3.7504263827
 10
15.3441898152
 20
3.7076316699
 10
15.2849661331
 20
3.6675572392
 10
15.2237827507
 20
3.6302847541
 10
15.1608056096
 20
3.5959343188
 10
15.0962295217
 20
3.5646221849
 10
15.0301708451
 20
3.5364121867
 10
14.9628075864
 20
3.5113875414
 10
14.8944446902
 20
3.4896539414
 10
14.8252402639
 20
3.4712427799
 10
14.7553602992
 20
3.4561795843
 10
14.6851353289
 20
3.4445043966
 10
14.6147867097
 20
3.4362070574
  0
LWPOLYLINE
  5
2D8
100
AcDbEntity
  8
RACCORDO
100
AcDbPolyline
 62
253
  6
CONTINUOUS
 90
13
 70
0
 10
15.4012034369
 20
-4.7160617345
 10
15.344031697
 20
-4.6732791996
 10
15.2848073795
 20
-4.6332153587
 10
15.2236209319
 20
-4.5959515102
 10
15.160639117
 20
-4.5616087175
 10
15.0960606773
 20
-4.5303053568
 10
15.0300027477
 20
-4.502105222
 10
14.9626428208
 20
-4.4770908932
 10
14.8942882147
 20
-4.4553683906
 10
14.8250981148
 20
-4.436968677
 10
14.7552376454
 20
-4.4219162898
 10
14.6850367973
 20
-4.4102505082
 10
14.6147166681
 20
-4.4019605658
  0
LINE
  5
2D9
100
AcDbEntity
  8
RACCORDO
100
AcDbLine
 62
253
  6
CONTINUOUS
 10
15.4562458056
 20
-4.7614937972
 11
15.4536702085
 21
-4.7593879463
  0
LINE
  5
2DA
100
AcDbEntity
  8
RACCORDO
100
AcDbLine
 62
253
  6
CONTINUOUS
 10
15.5098357365
 20
-4.8103581482
 11
15.5090362808
 21
-4.8094674042
  0
LINE
  5
2DB
100
AcDbEntity
  8
RACCORDO
100
AcDbLine
 62
253
  6
CONTINUOUS
 10
14.4741954116
 20
-111.5703405774
 11
14.4741954116
 21
-111.5703862688
  0
LINE
  5
2DC
100
AcDbEntity
  8
RACCORDO
100
AcDbLine
 62
253
  6
CONTINUOUS
 10
14.4741954116
 20
-4.3954195181
 11
14.4741954116
 21
-4.3953738267
  0
LINE
  5
2DD
100
AcDbEntity
  8
RACCORDO
100
AcDbLine
 62
253
  6
CONTINUOUS
 10
14.4741954116
 20
3.4296137312
 11
14.4741954116
 21
3.4296594226
  0
LINE
  5
2DE
100
AcDbEntity
  8
RACCORDO
100
AcDbLine
 62
253
  6
CONTINUOUS
 10
14.5798290177
 20
111.1101988575
 11
14.5798290177
 21
110.7102597794
  0
LINE
  5
2DF
100
AcDbEntity
  8
RACCORDO
100
AcDbLine
 62
253
  6
CONTINUOUS
 10
14.5798290177
 20
-112.075958953
 11
14.5798290177
 21
-111.6760198749
  0
LINE
  5
2E0
100
AcDbEntity
  8
RACCORDO
100
AcDbLine
 62
253
  6
CONTINUOUS
 10
14.5798290177
 20
-3.8898011425
 11
14.5798290177
 21
-4.2897402206
  0
LINE
  5
2E1
100
AcDbEntity
  8
RACCORDO
100
AcDbLine
 62
253
  6
CONTINUOUS
 10
14.5798290177
 20
2.924041047
 11
14.5798290177
 21
3.3239801251
  0
LINE
  5
2E2
100
AcDbEntity
  8
RACCORDO
100
AcDbLine
 62
253
  6
CONTINUOUS
 10
14.4741954116
 20
-4.3953738267
 11
14.5798290177
 21
-4.2897402206
  0
LINE
  5
2E3
100
AcDbEntity
  8
RACCORDO
100
AcDbLine
 62
253
  6
CONTINUOUS
 10
15.9739669544
 20
-5.8951453694
 11
16.0796005605
 21
-5.7895117633
  0
LINE
  5
2E4
100
AcDbEntity
  8
RACCORDO
100
AcDbLine
 62
253
  6
CONTINUOUS
 10
14.5798290177
 20
3.3239801251
 11
14.4741954116
 21
3.4296137312
  0
LINE
  5
2E5
100
AcDbEntity
  8
RACCORDO
100
AcDbLine
 62
253
  6
CONTINUOUS
 10
16.0796005605
 20
4.8237516678
 11
15.9739669544
 21
4.9293852739
  0
LWPOLYLINE
  5
2E6
100
AcDbEntity
  8
RACCORDO
100
AcDbPolyline
 62
253
  6
CONTINUOUS
 90
16
 70
0
 10
15.9723196684
 20
-5.8247656357
 10
15.9673466159
 20
-5.7542672193
 10
15.9590199922
 20
-5.6838092582
 10
15.9473089298
 20
-5.6134976882
 10
15.9322064336
 20
-5.5435546097
 10
15.9137562421
 20
-5.4743121691
 10
15.8919885936
 20
-5.4059397609
 10
15.8669371715
 20
-5.3385905295
 10
15.8387064802
 20
-5.2725584717
 10
15.8073819383
 20
-5.2080217586
 10
15.7730285275
 20
-5.1450947014
 10
15.7357563899
 20
-5.0839591096
 10
15.6956833367
 20
-5.0247779454
 10
15.6528924628
 20
-4.9676458103
 10
15.6074494435
 20
-4.912636232
 10
15.5594602666
 20
-4.8598712625
  0
LINE
  5
2E7
100
AcDbEntity
  8
RACCORDO
100
AcDbLine
 62
253
  6
CONTINUOUS
 10
15.9739669544
 20
101.5872072517
 11
15.9739212629
 21
101.5885927575
  0
LINE
  5
2E8
100
AcDbEntity
  8
RACCORDO
100
AcDbLine
 62
7
  6
CONTINUOUS
 10
15.9643366026
 20
102.1926080992
 11
15.9657320921
 21
102.1489649145
  0
LINE
  5
2E9
100
AcDbEntity
  8
RACCORDO
100
AcDbLine
 62
7
  6
CONTINUOUS
 10
15.9657320921
 20
102.1489649145
 11
15.9670999881
 21
102.0938990085
  0
LINE
  5
2EA
100
AcDbEntity
  8
RACCORDO
100
AcDbLine
 62
7
  6
CONTINUOUS
 10
16.0122767073
 20
-49.8328800478
 11
15.9739669544
 21
-48.1189257921
  0
LINE
  5
2EB
100
AcDbEntity
  8
RACCORDO
100
AcDbLine
 62
7
  6
CONTINUOUS
 10
16.0122767073
 20
65.1671199522
 11
15.9739669544
 21
66.8810742079
  0
LINE
  5
2EC
100
AcDbEntity
  8
RACCORDO
100
AcDbLine
 62
7
  6
CONTINUOUS
 10
15.9670999881
 20
102.0938990085
 11
15.9690842199
 21
101.9892678394
  0
LINE
  5
2ED
100
AcDbEntity
  8
RACCORDO
100
AcDbLine
 62
7
  6
CONTINUOUS
 10
15.9690842199
 20
101.9892678394
 11
15.9715646768
 21
101.8089889213
  0
LINE
  5
2EE
100
AcDbEntity
  8
RACCORDO
100
AcDbLine
 62
7
  6
CONTINUOUS
 10
15.9715646768
 20
101.8089889213
 11
15.9739669544
 21
101.5872072517
  0
LINE
  5
2EF
100
AcDbEntity
  8
RACCORDO
100
AcDbLine
 62
7
  6
CONTINUOUS
 10
15.9738898103
 20
101.5947140193
 11
15.9739215289
 21
101.5885802327
  0
LINE
  5
2F0
100
AcDbEntity
  8
ASSI
100
AcDbLine
 62
7
  6
CONTINUOUS
 10
14.7364607333
 20
60.0171199522
 11
14.7364607333
 21
54.0171199522
  0
LINE
  5
2F1
100
AcDbEntity
  8
ASSI
100
AcDbLine
 62
7
  6
CONTINUOUS
 10
14.7364607333
 20
-54.9828800478
 11
14.7364607333
 21
-60.9828800478
  0
LINE
  5
2F2
100
AcDbEntity
  8
ASSI
100
AcDbLine
 62
253
  6
CONTINUOUS
 10
14.7551991759
 20
60.0171199522
 11
14.7551991759
 21
54.0171199522
  0
LINE
  5
2F3
100
AcDbEntity
  8
ASSI
100
AcDbLine
 62
253
  6
CONTINUOUS
 10
14.7551991759
 20
-54.9828800478
 11
14.7551991759
 21
-60.9828800478
  0
LINE
  5
2F4
100
AcDbEntity
  8
0
100
AcDbLine
 62
7
  6
CONTINUOUS
 10
15.6364607333
 20
137.5171199522
 11
15.6364607333
 21
114.7671199522
  0
LINE
  5
2F5
100
AcDbEntity
  8
ASSI
100
AcDbLine
 62
7
  6
CONTINUOUS
 10
15.6364607333
 20
137.5171199522
 11
15.6364607333
 21
114.7671199522
  0
LINE
  5
2F6
100
AcDbEntity
  8
0
100
AcDbLine
 62
7
  6
CONTINUOUS
 10
15.6364607333
 20
-115.7328800478
 11
15.6364607333
 21
-138.4828800478
  0
LINE
  5
2F7
100
AcDbEntity
  8
ASSI
100
AcDbLine
 62
7
  6
CONTINUOUS
 10
15.6364607333
 20
-115.7328800478
 11
15.6364607333
 21
-138.4828800478
  0
LINE
  5
2F8
100
AcDbEntity
  8
RACCORDO
100
AcDbLine
 62
7
  6
CONTINUOUS
 10
15.6579388893
 20
108.7888265655
 11
15.6579388893
 21
103.774418163
  0
LINE
  5
2F9
100
AcDbEntity
  8
RACCORDO
100
AcDbLine
 62
7
  6
CONTINUOUS
 10
15.9739669544
 20
47.1531656966
 11
15.9739212629
 21
4.9293852739
  0
LINE
  5
2FA
100
AcDbEntity
  8
RACCORDO
100
AcDbLine
 62
7
  6
CONTINUOUS
 10
15.9739212629
 20
-110.0706147261
 11
15.9739669544
 21
-67.8468343034
  0
LINE
  5
2FB
100
AcDbEntity
  8
DRAFT
100
AcDbLine
 62
7
  6
CONTINUOUS
 10
16.0122767073
 20
-66.1328800478
 11
16.0122767073
 21
-60.9828800478
  0
LINE
  5
2FC
100
AcDbEntity
  8
DRAFT
100
AcDbLine
 62
7
  6
CONTINUOUS
 10
16.0122767073
 20
-54.9828800478
 11
16.0122767073
 21
-49.8328800478
  0
LINE
  5
2FD
100
AcDbEntity
  8
DRAFT
100
AcDbLine
 62
7
  6
CONTINUOUS
 10
16.0122767073
 20
48.8671199522
 11
16.0122767073
 21
54.0171199522
  0
LINE
  5
2FE
100
AcDbEntity
  8
DRAFT
100
AcDbLine
 62
7
  6
CONTINUOUS
 10
16.0122767073
 20
60.0171199522
 11
16.0122767073
 21
65.1671199522
  0
LINE
  5
2FF
100
AcDbEntity
  8
DRAFT
100
AcDbLine
 62
7
  6
CONTINUOUS
 10
16.0626949174
 20
-54.9828800478
 11
16.0626949174
 21
-60.9828800478
  0
LINE
  5
300
100
AcDbEntity
  8
DRAFT
100
AcDbLine
 62
7
  6
CONTINUOUS
 10
16.0626949174
 20
54.0171199522
 11
16.0626949174
 21
60.0171199522
  0
LINE
  5
301
100
AcDbEntity
  8
RACCORDO
100
AcDbLine
 62
253
  6
CONTINUOUS
 10
16.0796005605
 20
109.2104882367
 11
16.0796005605
 21
4.8237516678
  0
LINE
  5
302
100
AcDbEntity
  8
RACCORDO
100
AcDbLine
 62
253
  6
CONTINUOUS
 10
16.0796005605
 20
-5.7895117633
 11
16.0796005605
 21
-110.1762483322
  0
LINE
  5
303
100
AcDbEntity
  8
0
100
AcDbLine
 62
7
  6
CONTINUOUS
 10
16.4364607333
 20
114.7671199522
 11
16.4364607333
 21
-115.7328800478
  0
LINE
  5
304
100
AcDbEntity
  8
ASSI
100
AcDbLine
 62
7
  6
CONTINUOUS
 10
16.4364607333
 20
114.7671199522
 11
16.4364607333
 21
-115.7328800478
  0
LINE
  5
305
100
AcDbEntity
  8
0
100
AcDbLine
 62
7
  6
CONTINUOUS
 10
16.6364607333
 20
137.5171199522
 11
16.6364607333
 21
-138.4828800478
  0
LINE
  5
306
100
AcDbEntity
  8
ASSI
100
AcDbLine
 62
7
  6
CONTINUOUS
 10
16.6364607333
 20
137.5171199522
 11
16.6364607333
 21
-138.4828800478
  0
LINE
  5
307
100
AcDbEntity
  8
RACCORDO
100
AcDbLine
 62
7
  6
CONTINUOUS
 10
15.9739212629
 20
101.5885840314
 11
15.9739669544
 21
66.8810742079
  0
LINE
  5
308
100
AcDbEntity
  8
RACCORDO
100
AcDbLine
 62
7
  6
CONTINUOUS
 10
15.9739212629
 20
-5.8951453694
 11
15.9739669544
 21
-48.1189257921
  0
LWPOLYLINE
  5
309
100
AcDbEntity
  8
RACCORDO
100
AcDbPolyline
 62
253
  6
CONTINUOUS
 90
37
 70
0
 10
16.0796005605
 20
4.8237516678
 10
16.0782256639
 20
4.7594115866
 10
16.0740702407
 20
4.694929282
 10
16.0671081981
 20
4.6304265061
 10
16.0573114514
 20
4.5659853487
 10
16.0446683299
 20
4.5017751885
 10
16.0292020373
 20
4.438048861
 10
16.0109251618
 20
4.3749327251
 10
15.9898557545
 20
4.3125522709
 10
15.9660659489
 20
4.251150581
 10
15.9396059011
 20
4.1908576239
 10
15.910521453
 20
4.1317782118
 10
15.8789123672
 20
4.0741041033
 10
15.8448699658
 20
4.0179742057
 10
15.8084504704
 20
3.9634555109
 10
15.7697148577
 20
3.9106234618
 10
15.7287470072
 20
3.8595799779
 10
15.685626396
 20
3.810412282
 10
15.6404053426
 20
3.76317443
 10
15.593170348
 20
3.7179560712
 10
15.5440113127
 20
3.6748425782
 10
15.4929821858
 20
3.633884983
 10
15.4401720428
 20
3.5951630296
 10
15.3856818647
 20
3.5587587318
 10
15.329582198
 20
3.5247292583
 10
15.2719455159
 20
3.4931336061
 10
15.2129052095
 20
3.4640595513
 10
15.1526297384
 20
3.4375971866
 10
15.0911933067
 20
3.4137847035
 10
15.0287531044
 20
3.3926884925
 10
14.9656174829
 20
3.3744014341
 10
14.9019724874
 20
3.3589490424
 10
14.8378878758
 20
3.3463202576
 10
14.7735053242
 20
3.336518131
 10
14.7089551833
 20
3.3295366376
 10
14.6443558008
 20
3.3253630385
 10
14.5798290177
 20
3.3239801251
  0
LWPOLYLINE
  5
30A
100
AcDbEntity
  8
RACCORDO
100
AcDbPolyline
 62
253
  6
CONTINUOUS
 90
37
 70
0
 10
16.0796005605
 20
-110.1762483322
 10
16.0782256639
 20
-110.2405884134
 10
16.0740702407
 20
-110.305070718
 10
16.0671081981
 20
-110.3695734939
 10
16.0573114514
 20
-110.4340146513
 10
16.0446683299
 20
-110.4982248115
 10
16.0292020373
 20
-110.561951139
 10
16.0109251618
 20
-110.6250672749
 10
15.9898557545
 20
-110.6874477291
 10
15.9660659489
 20
-110.748849419
 10
15.9396059011
 20
-110.8091423761
 10
15.910521453
 20
-110.8682217882
 10
15.8789123672
 20
-110.9258958967
 10
15.8448699658
 20
-110.9820257943
 10
15.8084504704
 20
-111.0365444891
 10
15.7697148577
 20
-111.0893765382
 10
15.7287470072
 20
-111.1404200221
 10
15.685626396
 20
-111.189587718
 10
15.6404053426
 20
-111.23682557
 10
15.593170348
 20
-111.2820439288
 10
15.5440113127
 20
-111.3251574218
 10
15.4929821858
 20
-111.366115017
 10
15.4401720428
 20
-111.4048369704
 10
15.3856818647
 20
-111.4412412682
 10
15.329582198
 20
-111.4752707417
 10
15.2719455159
 20
-111.5068663939
 10
15.2129052095
 20
-111.5359404487
 10
15.1526297384
 20
-111.5624028134
 10
15.0911933067
 20
-111.5862152965
 10
15.0287531044
 20
-111.6073115075
 10
14.9656174829
 20
-111.6255985659
 10
14.9019724874
 20
-111.6410509576
 10
14.8378878758
 20
-111.6536797424
 10
14.7735053242
 20
-111.663481869
 10
14.7089551833
 20
-111.6704633624
 10
14.6443558008
 20
-111.6746369615
 10
14.5798290177
 20
-111.6760198749
  0
LINE
  5
30B
100
AcDbEntity
  8
RACCORDO
100
AcDbLine
 62
7
  6
CONTINUOUS
 10
15.9739669544
 20
47.1531656966
 11
16.0122767073
 21
48.8671199522
  0
LINE
  5
30C
100
AcDbEntity
  8
RACCORDO
100
AcDbLine
 62
7
  6
CONTINUOUS
 10
15.9739669544
 20
-67.8468343034
 11
16.0122767073
 21
-66.1328800478
  0
LWPOLYLINE
  5
30D
100
AcDbEntity
  8
RACCORDO
100
AcDbPolyline
 62
7
  6
CONTINUOUS
 90
32
 70
0
 10
15.9739174123
 20
4.9293852741
 10
15.9720300971
 20
4.8541506133
 10
15.966323826
 20
4.7785924938
 10
15.9568067622
 20
4.7034282696
 10
15.943507529
 20
4.6288436449
 10
15.9264567113
 20
4.5550145497
 10
15.9056906356
 20
4.4821226212
 10
15.8812660257
 20
4.4103573644
 10
15.8532433682
 20
4.3399069401
 10
15.8216874724
 20
4.27095393
 10
15.7866825745
 20
4.2036741941
 10
15.7483195528
 20
4.1382454938
 10
15.7066918969
 20
4.0748381873
 10
15.661909196
 20
4.013611487
 10
15.6140877939
 20
3.9547257904
 10
15.5633459061
 20
3.8983350309
 10
15.5098166965
 20
3.844580184
 10
15.4536398039
 20
3.793601519
 10
15.3949556336
 20
3.7455327709
 10
15.3339176442
 20
3.7004928083
 10
15.270685755
 20
3.6585987265
 10
15.2054187236
 20
3.6199607693
 10
15.1382865305
 20
3.5846731258
 10
15.0694665856
 20
3.5528274888
 10
14.9991344064
 20
3.5245088125
 10
14.9274723182
 20
3.4997826429
 10
14.8546682609
 20
3.4787103124
 10
14.7809114805
 20
3.4613493153
 10
14.7063834833
 20
3.447736699
 10
14.6312601709
 20
3.4379038278
 10
14.5557272266
 20
3.4318800656
 10
14.4741954115
 20
3.4296630127
  0
LWPOLYLINE
  5
30E
100
AcDbEntity
  8
RACCORDO
100
AcDbPolyline
 62
7
  6
CONTINUOUS
 90
32
 70
0
 10
15.9739174054
 20
-110.0706147259
 10
15.9717009582
 20
-110.1521379995
 10
15.9656777359
 20
-110.2276712503
 10
15.9558446702
 20
-110.302798416
 10
15.9422308606
 20
-110.3773330564
 10
15.9248679399
 20
-110.4510970638
 10
15.9037925395
 20
-110.5239088522
 10
15.8790620532
 20
-110.5955792856
 10
15.8507390057
 20
-110.6659186462
 10
15.8188886571
 20
-110.7347442792
 10
15.7835958986
 20
-110.8018805787
 10
15.7449544373
 20
-110.8671489541
 10
15.7030584399
 20
-110.9303792879
 10
15.658018011
 20
-110.9914128918
 10
15.6099528348
 20
-111.0500895229
 10
15.5589826329
 20
-111.1062550509
 10
15.5052402265
 20
-111.1597698925
 10
15.4488665061
 20
-111.2104970279
 10
15.3900032051
 20
-111.2583026965
 10
15.3288027319
 20
-111.3030689757
 10
15.2654230808
 20
-111.344684028
 10
15.2000233348
 20
-111.3830377132
 10
15.1327724024
 20
-111.4180351773
 10
15.0638441302
 20
-111.4495896368
 10
14.993413317
 20
-111.4776159415
 10
14.9216610141
 20
-111.5020460554
 10
14.8487719821
 20
-111.5228221981
 10
14.7749351509
 20
-111.539886577
 10
14.7003338837
 20
-111.5531981456
 10
14.6251440037
 20
-111.5627276082
 10
14.549548326
 20
-111.5684447548
 10
14.4741954116
 20
-111.5703358775
  0
LWPOLYLINE
  5
30F
100
AcDbEntity
  8
RACCORDO
100
AcDbPolyline
 62
253
  6
CONTINUOUS
 90
16
 70
0
 10
15.9723250932
 20
4.8591212714
 10
15.9673668061
 20
4.7887214742
 10
15.9590619705
 20
4.7183445177
 10
15.9473774512
 20
4.6480964258
 10
15.9323038298
 20
4.5781988434
 10
15.9138820865
 20
4.5089829701
 10
15.8921389152
 20
4.4406156939
 10
15.8671062582
 20
4.3732538774
 10
15.8388895666
 20
4.3071999033
 10
15.8075726811
 20
4.2426319595
 10
15.773219679
 20
4.1796657739
 10
15.7359451563
 20
4.1184927024
 10
15.6958686064
 20
4.0592779481
 10
15.6530720482
 20
4.0021140017
 10
15.6076230755
 20
3.9470764537
 10
15.5596288343
 20
3.8942879057
  0
LINE
  5
310
100
AcDbEntity
  8
RACCORDO
100
AcDbLine
 62
253
  6
CONTINUOUS
 10
15.9673802153
 20
-110.2111359826
 11
15.972328649
 21
-110.1408027624
  0
LWPOLYLINE
  5
311
100
AcDbEntity
  8
RACCORDO
100
AcDbPolyline
 62
253
  6
CONTINUOUS
 90
33
 70
0
 10
16.4364607333
 20
4.4221040527
 10
16.4353059333
 20
4.4162271945
 10
16.4157463571
 20
4.335533445
 10
16.3925864872
 20
4.2556288663
 10
16.3658742706
 20
4.1764924563
 10
16.3357789095
 20
4.0987400095
 10
16.3022644495
 20
4.0224022461
 10
16.265366845
 20
3.9474484457
 10
16.2253631616
 20
3.8744022422
 10
16.1822545897
 20
3.8033213904
 10
16.1360399389
 20
3.7341481354
 10
16.0869927032
 20
3.6672328461
 10
16.0351094852
 20
3.6025918641
 10
15.9803936823
 20
3.5402088478
 10
15.9231289805
 20
3.4803851413
 10
15.8633095038
 20
3.4231288374
 10
15.8009411282
 20
3.3684318433
 10
15.7363251676
 20
3.3165712243
 10
15.6694481094
 20
3.2675508863
 10
15.6003234661
 20
3.2213669234
 10
15.5292930895
 20
3.1782846832
 10
15.4563068803
 20
3.138303029
 10
15.3814149377
 20
3.1014230975
 10
15.3051094111
 20
3.0679136464
 10
15.2273218627
 20
3.0378001777
 10
15.1481207302
 20
3.0110571894
 10
15.0682034756
 20
2.9878769328
 10
14.9876258191
 20
2.9683218704
 10
14.9063320404
 20
2.9523295397
 10
14.8248524408
 20
2.9399048055
 10
14.7433637874
 20
2.9310492895
 10
14.661689313
 20
2.92576137
 10
14.5798290177
 20
2.924041047
  0
LINE
  5
312
100
AcDbEntity
  8
DRAFT
100
AcDbLine
 62
7
  6
CONTINUOUS
 10
30.828094353
 20
125.5991587574
 11
30.7864607333
 21
126.7913896369
  0
LINE
  5
313
100
AcDbEntity
  8
0
100
AcDbLine
 62
253
  6
CONTINUOUS
 10
30.5195541892
 20
-132.5320910184
 11
30.5195541892
 21
131.5663309228
  0
LINE
  5
314
100
AcDbEntity
  8
ASSI
100
AcDbLine
 62
253
  6
CONTINUOUS
 10
30.5195541892
 20
-132.5320910184
 11
30.5195541892
 21
131.5663309228
  0
LINE
  5
315
100
AcDbEntity
  8
0
100
AcDbLine
 62
7
  6
CONTINUOUS
 10
30.7864607333
 20
-130.4828800478
 11
30.7864607333
 21
129.5171199522
  0
LINE
  5
316
100
AcDbEntity
  8
ASSI
100
AcDbLine
 62
7
  6
CONTINUOUS
 10
30.7864607333
 20
-130.4828800478
 11
30.7864607333
 21
129.5171199522
  0
LINE
  5
317
100
AcDbEntity
  8
DRAFT
100
AcDbLine
 62
7
  6
CONTINUOUS
 10
30.7864607333
 20
-127.7571497324
 11
30.828094353
 21
-126.5649188529
  0
LINE
  5
318
100
AcDbEntity
  8
DRAFT
100
AcDbLine
 62
7
  6
CONTINUOUS
 10
-68.7551728864
 20
-126.5649188529
 11
-68.7135392667
 21
-126.5218059776
  0
LINE
  5
319
100
AcDbEntity
  8
RACCORDO
100
AcDbLine
 62
253
  6
CONTINUOUS
 10
-54.0066790939
 20
-110.1762483322
 11
-53.9010454878
 21
-110.0706147261
  0
LINE
  5
31A
100
AcDbEntity
  8
RACCORDO
100
AcDbLine
 62
253
  6
CONTINUOUS
 10
-52.5069075512
 20
-111.6760198749
 11
-52.4012739451
 21
-111.5703862688
  0
LINE
  5
31B
100
AcDbEntity
  8
ASSI
100
AcDbLine
 62
7
  6
CONTINUOUS
 10
14.7551991759
 20
54.0171199522
 11
14.7364965497
 21
54.0171199522
  0
LINE
  5
31C
100
AcDbEntity
  8
DRAFT
100
AcDbLine
 62
7
  6
CONTINUOUS
 10
16.0626949174
 20
54.0171199522
 11
14.7551991759
 21
54.0171199522
  0
LINE
  5
31D
100
AcDbEntity
  8
RACCORDO
100
AcDbLine
 62
253
  6
CONTINUOUS
 10
-54.0066790939
 20
109.2104882367
 11
-53.5850174227
 21
108.7888265655
  0
LINE
  5
31E
100
AcDbEntity
  8
RACCORDO
100
AcDbLine
 62
253
  6
CONTINUOUS
 10
-52.5069075512
 20
110.7102597794
 11
-52.08524588
 21
110.2885981083
  0
LINE
  5
31F
100
AcDbEntity
  8
DRAFT
100
AcDbLine
 62
7
  6
CONTINUOUS
 10
-68.7551728864
 20
125.5991587574
 11
-68.7135392667
 21
125.5560458821
  0
LINE
  5
320
100
AcDbEntity
  8
RACCORDO
100
AcDbLine
 62
7
  6
CONTINUOUS
 10
15.6579388893
 20
103.774418163
 11
15.9600649804
 21
102.2600950601
  0
LWPOLYLINE
  5
321
100
AcDbEntity
  8
RACCORDO
100
AcDbPolyline
 62
7
  6
CONTINUOUS
 90
7
 70
0
 10
15.9600649822
 20
102.2600950601
 10
15.9607786457
 20
102.2553440932
 10
15.9614916185
 20
102.2479943822
 10
15.9622039006
 20
102.2380459274
 10
15.9629171048
 20
102.225531334
 10
15.9636296183
 20
102.2104179967
 10
15.9643366026
 20
102.1926080992
  0
LWPOLYLINE
  5
322
100
AcDbEntity
  8
RACCORDO
100
AcDbPolyline
 62
253
  6
CONTINUOUS
 90
33
 70
0
 10
16.4364607333
 20
-110.5778959473
 10
16.4353059333
 20
-110.5837728055
 10
16.4157463571
 20
-110.664466555
 10
16.3925864872
 20
-110.7443711337
 10
16.3658742706
 20
-110.8235075437
 10
16.3357789095
 20
-110.9012599905
 10
16.3022644495
 20
-110.9775977539
 10
16.265366845
 20
-111.0525515543
 10
16.2253631616
 20
-111.1255977578
 10
16.1822545897
 20
-111.1966786096
 10
16.1360399389
 20
-111.2658518646
 10
16.0869927032
 20
-111.3327671539
 10
16.0351094852
 20
-111.3974081359
 10
15.9803936823
 20
-111.4597911522
 10
15.9231289805
 20
-111.5196148587
 10
15.8633095038
 20
-111.5768711626
 10
15.8009411282
 20
-111.6315681567
 10
15.7363251676
 20
-111.6834287757
 10
15.6694481094
 20
-111.7324491137
 10
15.6003234661
 20
-111.7786330766
 10
15.5292930895
 20
-111.8217153168
 10
15.4563068803
 20
-111.861696971
 10
15.3814149377
 20
-111.8985769025
 10
15.3051094111
 20
-111.9320863536
 10
15.2273218627
 20
-111.9621998223
 10
15.1481207302
 20
-111.9889428106
 10
15.0682034756
 20
-112.0121230672
 10
14.9876258191
 20
-112.0316781296
 10
14.9063320404
 20
-112.0476704603
 10
14.8248524408
 20
-112.0600951945
 10
14.7433637874
 20
-112.0689507105
 10
14.661689313
 20
-112.07423863
 10
14.5798290177
 20
-112.075958953
  0
LINE
  5
323
100
AcDbEntity
  8
DRAFT
100
AcDbLine
 62
7
  6
CONTINUOUS
 10
16.0626949174
 20
60.0171199522
 11
14.7551991759
 21
60.0171199522
  0
LINE
  5
324
100
AcDbEntity
  8
ASSI
100
AcDbLine
 62
7
  6
CONTINUOUS
 10
14.7551991759
 20
60.0171199522
 11
14.7364965497
 21
60.0171199522
  0
LINE
  5
325
100
AcDbEntity
  8
ELVOX
100
AcDbLine
 62
253
  6
CONTINUOUS
 10
-19.2629121321
 20
126.5925769875
 11
-20.0748124857
 21
128.0018715002
  0
LINE
  5
326
100
AcDbEntity
  8
ELVOX
100
AcDbLine
 62
253
  6
CONTINUOUS
 10
-20.5065652326
 20
127.305793944
 11
-19.2790770626
 21
125.1498526309
  0
LINE
  5
327
100
AcDbEntity
  8
ELVOX
100
AcDbLine
 62
253
  6
CONTINUOUS
 10
-14.7618617187
 20
127.4541945369
 11
-14.8595076413
 21
127.6336313653
  0
LINE
  5
328
100
AcDbEntity
  8
ELVOX
100
AcDbLine
 62
253
  6
CONTINUOUS
 10
-14.6681965534
 20
127.2727123492
 11
-14.7618617187
 21
127.4541945369
  0
LINE
  5
329
100
AcDbEntity
  8
ELVOX
100
AcDbLine
 62
253
  6
CONTINUOUS
 10
-13.341107436
 20
125.7965290836
 11
-12.8882061473
 21
125.1318468269
  0
LINE
  5
32A
100
AcDbEntity
  8
ELVOX
100
AcDbLine
 62
253
  6
CONTINUOUS
 10
-12.0079237208
 20
125.1318468269
 11
-12.8920220767
 21
126.5489159977
  0
LINE
  5
32B
100
AcDbEntity
  8
ELVOX
100
AcDbLine
 62
253
  6
CONTINUOUS
 10
-14.7080661414
 20
127.9855586437
 11
-13.8223262522
 21
126.525709894
  0
LINE
  5
32C
100
AcDbEntity
  8
ELVOX
100
AcDbLine
 62
253
  6
CONTINUOUS
 10
-14.9610616818
 20
127.8108855428
 11
-15.0662857599
 21
127.9855586437
  0
LINE
  5
32D
100
AcDbEntity
  8
ELVOX
100
AcDbLine
 62
253
  6
CONTINUOUS
 10
-14.8595076413
 20
127.6336313653
 11
-14.9610616818
 21
127.8108855428
  0
LINE
  5
32E
100
AcDbEntity
  8
ELVOX
100
AcDbLine
 62
253
  6
CONTINUOUS
 10
-13.3748706721
 20
127.3056722626
 11
-13.8388456411
 21
127.9855586437
  0
LWPOLYLINE
  5
32F
100
AcDbEntity
  8
RACCORDO
100
AcDbPolyline
 62
253
  6
CONTINUOUS
 90
13
 70
0
 10
15.6532790465
 20
-110.9976227514
 10
15.6960615814
 20
-110.9404510115
 10
15.7361254223
 20
-110.8812266939
 10
15.7733892709
 20
-110.8200402464
 10
15.8077320635
 20
-110.7570584315
 10
15.8390354242
 20
-110.6924799917
 10
15.867235559
 20
-110.6264220622
 10
15.8922498878
 20
-110.5590621353
 10
15.9139723904
 20
-110.4907075292
 10
15.932372104
 20
-110.4215174293
 10
15.9474244913
 20
-110.3516569598
 10
15.9590902729
 20
-110.2814561118
 10
15.9673802153
 20
-110.2111359826
  0
LINE
  5
330
100
AcDbEntity
  8
RACCORDO
100
AcDbLine
 62
253
  6
CONTINUOUS
 10
15.6078469838
 20
-111.0526651201
 11
15.6099528348
 21
-111.0500895229
  0
LINE
  5
331
100
AcDbEntity
  8
RACCORDO
100
AcDbLine
 62
7
  6
CONTINUOUS
 10
-7.1065524112
 20
103.842617886
 11
-18.224901373
 21
110.261799652
  0
LINE
  5
332
100
AcDbEntity
  8
RACCORDO
100
AcDbLine
 62
253
  6
CONTINUOUS
 10
15.5589826329
 20
-111.1062550509
 11
15.5598733768
 21
-111.1054555952
  0
LINE
  5
333
100
AcDbEntity
  8
RACCORDO
100
AcDbLine
 62
253
  6
CONTINUOUS
 10
-53.9010454878
 20
101.6673212478
 11
-53.9009997963
 21
101.6673212478
  0
LINE
  5
334
100
AcDbEntity
  8
RACCORDO
100
AcDbLine
 62
7
  6
CONTINUOUS
 10
15.6579388893
 20
103.774418163
 11
-6.8525259227
 21
103.774418163
  0
LWPOLYLINE
  5
335
100
AcDbEntity
  8
RACCORDO
100
AcDbPolyline
 62
7
  6
CONTINUOUS
 90
31
 70
0
 10
-52.0855314353
 20
110.2885981083
 10
-52.1639906359
 20
110.2865363822
 10
-52.2422461587
 20
110.2803727801
 10
-52.3200837175
 20
110.2701221521
 10
-52.3972976041
 20
110.2558090398
 10
-52.4736682061
 20
110.2374713676
 10
-52.5489635305
 20
110.2151642729
 10
-52.6229680038
 20
110.188954091
 10
-52.6954895815
 20
110.1589114107
 10
-52.7663373485
 20
110.1251160493
 10
-52.835319593
 20
110.0876595178
 10
-52.9022453185
 20
110.0466456536
 10
-52.9669318124
 20
110.0021864836
 10
-53.0292020069
 20
109.9544038483
 10
-53.0888855327
 20
109.9034287051
 10
-53.1458195066
 20
109.8494001921
 10
-53.1998480196
 20
109.7924662182
 10
-53.2508231628
 20
109.7327826925
 10
-53.298605798
 20
109.670512498
 10
-53.3430649681
 20
109.605826004
 10
-53.3840788323
 20
109.5389002785
 10
-53.4215353638
 20
109.4699180341
 10
-53.4553307251
 20
109.3990702671
 10
-53.4853734054
 20
109.3265486893
 10
-53.5115835873
 20
109.2525442161
 10
-53.5338906821
 20
109.1772488917
 10
-53.5522283543
 20
109.1008782897
 10
-53.5665414665
 20
109.0236644031
 10
-53.5767920946
 20
108.9458268442
 10
-53.5829556967
 20
108.8675713214
 10
-53.5850174227
 20
108.7891121208
  0
LINE
  5
336
100
AcDbEntity
  8
RACCORDO
100
AcDbLine
 62
253
  6
CONTINUOUS
 10
-54.3635392667
 20
109.2104882367
 11
-54.0066790939
 21
109.2104882366
  0
LINE
  5
337
100
AcDbEntity
  8
RACCORDO
100
AcDbLine
 62
253
  6
CONTINUOUS
 10
16.4364607333
 20
109.2104882367
 11
16.0796005605
 21
109.2104882367
  0
LINE
  5
338
100
AcDbEntity
  8
RACCORDO
100
AcDbLine
 62
7
  6
CONTINUOUS
 10
14.1581673466
 20
110.2885981083
 11
-52.0855314353
 21
110.2885981083
  0
LINE
  5
339
100
AcDbEntity
  8
RACCORDO
100
AcDbLine
 62
253
  6
CONTINUOUS
 10
-52.5069075512
 20
110.7102597794
 11
14.5798290177
 21
110.7102597794
  0
LINE
  5
33A
100
AcDbEntity
  8
RACCORDO
100
AcDbLine
 62
253
  6
CONTINUOUS
 10
-52.5069075512
 20
111.1101988575
 11
14.5798290177
 21
111.1101988575
  0
LINE
  5
33B
100
AcDbEntity
  8
RACCORDO
100
AcDbLine
 62
253
  6
CONTINUOUS
 10
-54.3635392667
 20
114.5705804996
 11
16.4364607333
 21
114.5705804996
  0
LINE
  5
33C
100
AcDbEntity
  8
0
100
AcDbLine
 62
7
  6
CONTINUOUS
 10
16.4364607333
 20
114.7671199522
 11
-54.3635392667
 21
114.7671199522
  0
LINE
  5
33D
100
AcDbEntity
  8
ASSI
100
AcDbLine
 62
7
  6
CONTINUOUS
 10
16.4364607333
 20
114.7671199522
 11
-54.3635392667
 21
114.7671199522
  0
LWPOLYLINE
  5
33E
100
AcDbEntity
  8
RACCORDO
100
AcDbPolyline
 62
253
  6
CONTINUOUS
 90
33
 70
0
 10
14.5798290177
 20
111.1101988575
 10
14.6614221421
 20
111.1085109141
 10
14.7429258983
 20
111.1032452627
 10
14.8243402862
 20
111.0944019032
 10
14.9058915727
 20
111.0819723818
 10
14.987353491
 20
111.0659651523
 10
15.0680472405
 20
111.0464055761
 10
15.1479518192
 20
111.0232457062
 10
15.2270882292
 20
110.9965334896
 10
15.304840676
 20
110.9664381284
 10
15.3811784395
 20
110.9329236684
 10
15.4561322398
 20
110.8960260639
 10
15.5291784433
 20
110.8560223805
 10
15.6002592951
 20
110.8129138087
 10
15.6694325501
 20
110.7666991579
 10
15.7363478395
 20
110.7176519222
 10
15.8009888214
 20
110.6657687042
 10
15.8633718377
 20
110.6110529012
 10
15.9231955442
 20
110.5537881994
 10
15.9804518481
 20
110.4939687227
 10
16.0351488422
 20
110.4316003472
 10
16.0870094613
 20
110.3669843866
 10
16.1360297993
 20
110.3001073284
 10
16.1822137622
 20
110.2309826851
 10
16.2252960024
 20
110.1599523085
 10
16.2652776565
 20
110.0869660993
 10
16.302157588
 20
110.0120741567
 10
16.3356670391
 20
109.93576863
 10
16.3657805078
 20
109.8579810817
 10
16.3925234961
 20
109.7787799492
 10
16.4157037527
 20
109.6988626946
 10
16.4352588152
 20
109.6182850381
 10
16.4364607333
 20
109.6121753304
  0
LWPOLYLINE
  5
33F
100
AcDbEntity
  8
RACCORDO
100
AcDbPolyline
 62
253
  6
CONTINUOUS
 90
37
 70
0
 10
14.5798290177
 20
110.7102597794
 10
14.6441690989
 20
110.7088848828
 10
14.7086514036
 20
110.7047294597
 10
14.7731541795
 20
110.6977674171
 10
14.8375953368
 20
110.6879706703
 10
14.901805497
 20
110.6753275488
 10
14.9655318245
 20
110.6598612563
 10
15.0286479605
 20
110.6415843808
 10
15.0910284146
 20
110.6205149735
 10
15.1524301046
 20
110.5967251678
 10
15.2127230617
 20
110.5702651201
 10
15.2718024738
 20
110.5411806719
 10
15.3294765823
 20
110.5095715861
 10
15.3856064798
 20
110.4755291848
 10
15.4401251747
 20
110.4391096894
 10
15.4929572237
 20
110.4003740767
 10
15.5440007076
 20
110.3594062261
 10
15.5931684035
 20
110.316285615
 10
15.6404062555
 20
110.2710645616
 10
15.6856246144
 20
110.223829567
 10
15.7287381073
 20
110.1746705316
 10
15.7696957026
 20
110.1236414048
 10
15.8084176559
 20
110.0708312618
 10
15.8448219537
 20
110.0163410837
 10
15.8788514272
 20
109.9602414169
 10
15.9104470795
 20
109.9026047349
 10
15.9395211342
 20
109.8435644285
 10
15.9659834989
 20
109.7832889574
 10
15.989795982
 20
109.7218525256
 10
16.010892193
 20
109.6594123233
 10
16.0291792514
 20
109.5962767019
 10
16.0446316431
 20
109.5326317064
 10
16.0572604279
 20
109.4685470948
 10
16.0670625545
 20
109.4041645432
 10
16.0740440479
 20
109.3396144022
 10
16.078217647
 20
109.2750150198
 10
16.0796005605
 20
109.2104882367
  0
LINE
  5
340
100
AcDbEntity
  8
ELVOX
100
AcDbLine
 62
253
  6
CONTINUOUS
 10
-25.9191548312
 20
125.1306655804
 11
-22.8285854352
 21
125.1306655804
  0
LINE
  5
341
100
AcDbEntity
  8
ELVOX
100
AcDbLine
 62
253
  6
CONTINUOUS
 10
-22.4964524666
 20
125.1306655804
 11
-20.008749112
 21
125.1306655804
  0
LINE
  5
342
100
AcDbEntity
  8
ELVOX
100
AcDbLine
 62
253
  6
CONTINUOUS
 10
-14.7079043555
 20
125.1318468269
 11
-13.8274374665
 21
125.1318468269
  0
LINE
  5
343
100
AcDbEntity
  8
ELVOX
100
AcDbLine
 62
253
  6
CONTINUOUS
 10
-12.8882061473
 20
125.1318468269
 11
-12.0079237209
 21
125.1318468269
  0
LINE
  5
344
100
AcDbEntity
  8
ELVOX
100
AcDbLine
 62
253
  6
CONTINUOUS
 10
-17.9530922119
 20
125.1353837766
 11
-15.0818862159
 21
125.1353837766
  0
LINE
  5
345
100
AcDbEntity
  8
ELVOX
100
AcDbLine
 62
253
  6
CONTINUOUS
 10
-15.9624843693
 20
125.7803056515
 11
-17.0728385911
 21
125.7803056515
  0
LINE
  5
346
100
AcDbEntity
  8
ELVOX
100
AcDbLine
 62
253
  6
CONTINUOUS
 10
-20.0087490167
 20
125.8306655804
 11
-21.6510259919
 21
125.8306655804
  0
LINE
  5
347
100
AcDbEntity
  8
ELVOX
100
AcDbLine
 62
253
  6
CONTINUOUS
 10
-22.8285853565
 20
125.8306655804
 11
-25.0337523534
 21
125.8306655804
  0
LINE
  5
348
100
AcDbEntity
  8
ELVOX
100
AcDbLine
 62
253
  6
CONTINUOUS
 10
-25.033752449
 20
126.1944061288
 11
-23.9726759226
 21
126.1944061288
  0
LINE
  5
349
100
AcDbEntity
  8
ELVOX
100
AcDbLine
 62
253
  6
CONTINUOUS
 10
-17.0728386442
 20
126.2612409812
 11
-15.9624844224
 21
126.2612409812
  0
LINE
  5
34A
100
AcDbEntity
  8
ELVOX
100
AcDbLine
 62
253
  6
CONTINUOUS
 10
-15.0818862921
 20
126.9071393287
 11
-17.9530922881
 21
126.9071393287
  0
LINE
  5
34B
100
AcDbEntity
  8
ELVOX
100
AcDbLine
 62
253
  6
CONTINUOUS
 10
-21.6510260346
 20
126.9406138109
 11
-22.4964524705
 21
126.9406138109
  0
LINE
  5
34C
100
AcDbEntity
  8
ELVOX
100
AcDbLine
 62
253
  6
CONTINUOUS
 10
-23.9726758821
 20
126.9406138109
 11
-25.0337524084
 21
126.9406138109
  0
LINE
  5
34D
100
AcDbEntity
  8
ELVOX
100
AcDbLine
 62
253
  6
CONTINUOUS
 10
-17.9689087948
 20
127.2727123492
 11
-14.6681964676
 21
127.2727123492
  0
LINE
  5
34E
100
AcDbEntity
  8
ELVOX
100
AcDbLine
 62
253
  6
CONTINUOUS
 10
-25.033752449
 20
127.305793944
 11
-23.1596333562
 21
127.305793944
  0
LINE
  5
34F
100
AcDbEntity
  8
ELVOX
100
AcDbLine
 62
253
  6
CONTINUOUS
 10
-22.8450961298
 20
127.305793944
 11
-20.5065652739
 21
127.305793944
  0
LINE
  5
350
100
AcDbEntity
  8
ELVOX
100
AcDbLine
 62
253
  6
CONTINUOUS
 10
-12.0079235509
 20
127.9855586437
 11
-12.8444128144
 21
127.9855586437
  0
LINE
  5
351
100
AcDbEntity
  8
ELVOX
100
AcDbLine
 62
253
  6
CONTINUOUS
 10
-13.8388456411
 20
127.9855586437
 11
-14.7080661581
 21
127.9855586437
  0
LINE
  5
352
100
AcDbEntity
  8
ELVOX
100
AcDbLine
 62
253
  6
CONTINUOUS
 10
-15.0662857599
 20
127.9855586437
 11
-18.3999454542
 21
127.9855586437
  0
LINE
  5
353
100
AcDbEntity
  8
ELVOX
100
AcDbLine
 62
253
  6
CONTINUOUS
 10
-20.0748124857
 20
128.0018715002
 11
-22.8450961766
 21
128.0018715002
  0
LINE
  5
354
100
AcDbEntity
  8
ELVOX
100
AcDbLine
 62
253
  6
CONTINUOUS
 10
-23.1596333476
 20
128.0018715002
 11
-25.9191548396
 21
128.0018715002
  0
LINE
  5
355
100
AcDbEntity
  8
0
100
AcDbLine
 62
7
  6
CONTINUOUS
 10
22.7864607333
 20
137.5171199522
 11
-60.7135392667
 21
137.5171199522
  0
LINE
  5
356
100
AcDbEntity
  8
ASSI
100
AcDbLine
 62
7
  6
CONTINUOUS
 10
22.7864607333
 20
137.5171199522
 11
-60.7135392667
 21
137.5171199522
  0
LWPOLYLINE
  5
357
100
AcDbEntity
  8
0
100
AcDbPolyline
 62
7
  6
CONTINUOUS
 90
37
 70
0
 10
-165.5051312782
 20
-138.4828800478
 10
-165.4261583501
 20
-138.4780825979
 10
-165.3446532322
 20
-138.4633395539
 10
-165.2606090607
 20
-138.4386509158
 10
-165.1739118837
 20
-138.4040469143
 10
-165.0846567252
 20
-138.3594973187
 10
-164.9931768526
 20
-138.3049114368
 10
-164.8994712318
 20
-138.2402322631
 10
-164.8035803751
 20
-138.1655168032
 10
-164.7059570423
 20
-138.0808453817
 10
-164.6066306643
 20
-137.9861349829
 10
-164.5056719947
 20
-137.8814686225
 10
-164.4036601399
 20
-137.7671756724
 10
-164.3006637224
 20
-137.6431519818
 10
-164.196778385
 20
-137.5095017016
 10
-164.092691471
 20
-137.3668666559
 10
-163.9885176463
 20
-137.2151368836
 10
-163.8843667784
 20
-137.0544223459
 10
-163.7809835789
 20
-136.8856947504
 10
-163.6785288866
 20
-136.7088621754
 10
-163.5771134141
 20
-136.5240165426
 10
-163.477460506
 20
-136.3324053252
 10
-163.3797663093
 20
-136.1339783363
 10
-163.2841313547
 20
-135.9287857629
 10
-163.191172635
 20
-135.7182256387
 10
-163.1011001262
 20
-135.5023015408
 10
-163.0139996878
 20
-135.2810098921
 10
-162.9303205199
 20
-135.0557379956
 10
-162.850259653
 20
-134.826532121
 10
-162.7738914625
 20
-134.5933459985
 10
-162.7014835951
 20
-134.3574281226
 10
-162.6332046315
 20
-134.1188666996
 10
-162.5691170569
 20
-133.8775735231
 10
-162.5093211309
 20
-133.6345324682
 10
-162.4539110578
 20
-133.3900714932
 10
-162.4029751244
 20
-133.1438626398
 10
-162.3565929291
 20
-132.895905908
  0
LWPOLYLINE
  5
358
100
AcDbEntity
  8
ASSI
100
AcDbPolyline
 62
7
  6
CONTINUOUS
 90
37
 70
0
 10
-165.5051312782
 20
-138.4828800478
 10
-165.4261583501
 20
-138.4780825979
 10
-165.3446532322
 20
-138.4633395539
 10
-165.2606090607
 20
-138.4386509158
 10
-165.1739118837
 20
-138.4040469143
 10
-165.0846567252
 20
-138.3594973187
 10
-164.9931768526
 20
-138.3049114368
 10
-164.8994712318
 20
-138.2402322631
 10
-164.8035803751
 20
-138.1655168032
 10
-164.7059570423
 20
-138.0808453817
 10
-164.6066306643
 20
-137.9861349829
 10
-164.5056719947
 20
-137.8814686225
 10
-164.4036601399
 20
-137.7671756724
 10
-164.3006637224
 20
-137.6431519818
 10
-164.196778385
 20
-137.5095017016
 10
-164.092691471
 20
-137.3668666559
 10
-163.9885176463
 20
-137.2151368836
 10
-163.8843667784
 20
-137.0544223459
 10
-163.7809835789
 20
-136.8856947504
 10
-163.6785288866
 20
-136.7088621754
 10
-163.5771134141
 20
-136.5240165426
 10
-163.477460506
 20
-136.3324053252
 10
-163.3797663093
 20
-136.1339783363
 10
-163.2841313547
 20
-135.9287857629
 10
-163.191172635
 20
-135.7182256387
 10
-163.1011001262
 20
-135.5023015408
 10
-163.0139996878
 20
-135.2810098921
 10
-162.9303205199
 20
-135.0557379956
 10
-162.850259653
 20
-134.826532121
 10
-162.7738914625
 20
-134.5933459985
 10
-162.7014835951
 20
-134.3574281226
 10
-162.6332046315
 20
-134.1188666996
 10
-162.5691170569
 20
-133.8775735231
 10
-162.5093211309
 20
-133.6345324682
 10
-162.4539110578
 20
-133.3900714932
 10
-162.4029751244
 20
-133.1438626398
 10
-162.3565929291
 20
-132.895905908
  0
LWPOLYLINE
  5
359
100
AcDbEntity
  8
RACCORDO
100
AcDbPolyline
 62
253
  6
CONTINUOUS
 90
46
 70
0
 10
-163.9468371445
 20
-138.2430184288
 10
-163.8694746043
 20
-138.2396066832
 10
-163.7898475723
 20
-138.2266641523
 10
-163.7079560487
 20
-138.2041303025
 10
-163.6236782143
 20
-138.1719543066
 10
-163.5371358882
 20
-138.1300991962
 10
-163.4486945274
 20
-138.0785524363
 10
-163.3583034138
 20
-138.0173053938
 10
-163.2660132654
 20
-137.9463716468
 10
-163.1723416929
 20
-137.8658178332
 10
-163.0772451976
 20
-137.7756942856
 10
-162.9807672783
 20
-137.6760688515
 10
-162.8835560416
 20
-137.5670915489
 10
-162.7855693351
 20
-137.4488637667
 10
-162.6868493114
 20
-137.3215180745
 10
-162.5881705345
 20
-137.1853167114
 10
-162.4894689992
 20
-137.0403683318
 10
-162.3908087108
 20
-136.8869167408
 10
-162.29315625
 20
-136.725528922
 10
-162.1965337909
 20
-136.5565058844
 10
-162.1009191595
 20
-136.3800839339
 10
-162.0072124149
 20
-136.1968417135
 10
-161.9154362758
 20
-136.0070983864
 10
-161.8255680235
 20
-135.8111785094
 10
-161.7384395612
 20
-135.6097480942
 10
-161.6541011555
 20
-135.4031853048
 10
-161.5725025398
 20
-135.1918333343
 10
-161.4943248172
 20
-134.9763654754
 10
-161.4196669449
 20
-134.7573204002
 10
-161.3484299657
 20
-134.534918184
 10
-161.2809981117
 20
-134.3093627207
 10
-161.2174113259
 20
-134.0810337147
 10
-161.1576296652
 20
-133.850248609
 10
-161.101917532
 20
-133.6170873799
 10
-161.0502874457
 20
-133.3817516046
 10
-161.0027268869
 20
-133.144673565
 10
-160.9594627001
 20
-132.9062630153
 10
-160.9205444
 20
-132.6667987326
 10
-160.8859224719
 20
-132.4266089479
 10
-160.8556752165
 20
-132.1861759426
 10
-160.8298586539
 20
-131.945806002
 10
-160.8084167639
 20
-131.7057614702
 10
-160.7912597865
 20
-131.4664521722
 10
-160.7783578017
 20
-131.228186729
 10
-160.7697407294
 20
-130.9911700846
 10
-160.7654085698
 20
-130.7556430119
  0
LWPOLYLINE
  5
35A
100
AcDbEntity
  8
RACCORDO
100
AcDbPolyline
 62
253
  6
CONTINUOUS
 90
46
 70
0
 10
-164.2296375097
 20
-137.9456820809
 10
-164.1515896807
 20
-137.9425426851
 10
-164.0712604333
 20
-137.9301432472
 10
-163.9886422256
 20
-137.9084837671
 10
-163.9036094797
 20
-137.8775811929
 10
-163.8162671157
 20
-137.8374185766
 10
-163.7269808614
 20
-137.7879450742
 10
-163.63576031
 20
-137.7291027213
 10
-163.5426358799
 20
-137.6609494823
 10
-163.4480610678
 20
-137.5836084066
 10
-163.3520787706
 20
-137.49701611
 10
-163.2547436109
 20
-137.4012359767
 10
-163.1565849787
 20
-137.2965812097
 10
-163.0576729163
 20
-137.1829772859
 10
-162.958089583
 20
-137.0604987284
 10
-162.8584402168
 20
-136.9296823091
 10
-162.7587963961
 20
-136.7903826497
 10
-162.6592872989
 20
-136.6427451287
 10
-162.5606637806
 20
-136.4877426533
 10
-162.4631021112
 20
-136.3253259832
 10
-162.3666772153
 20
-136.1555443588
 10
-162.2720386572
 20
-135.9795184088
 10
-162.1793592049
 20
-135.7971901714
 10
-162.0887370201
 20
-135.6086176083
 10
-162.0007426925
 20
-135.4150952329
 10
-161.9155648971
 20
-135.2166033213
 10
-161.8332858057
 20
-135.0131615974
 10
-161.7543338846
 20
-134.8061237462
 10
-161.6789247988
 20
-134.5956435926
 10
-161.6070938001
 20
-134.3815673116
 10
-161.5389994962
 20
-134.164787114
 10
-161.4747703013
 20
-133.9453606956
 10
-161.4144874748
 20
-133.7232303605
 10
-161.3582295283
 20
-133.4991152317
 10
-161.3060756519
 20
-133.2729239764
 10
-161.2581138777
 20
-133.0447479273
 10
-161.2144258419
 20
-132.8155802059
 10
-161.1751082282
 20
-132.5854087071
 10
-161.140191847
 20
-132.3542455359
 10
-161.109648894
 20
-132.1231201285
 10
-161.0835616052
 20
-131.892058107
 10
-161.0619340578
 20
-131.6610338494
 10
-161.0446094368
 20
-131.4309999247
 10
-161.0315504744
 20
-131.2022738562
 10
-161.0228409425
 20
-130.9745381207
 10
-161.018495484
 20
-130.7477927182
  0
LWPOLYLINE
  5
35B
100
AcDbEntity
  8
RACCORDO
100
AcDbPolyline
 62
253
  6
CONTINUOUS
 90
64
 70
0
 10
-164.2786566329
 20
-137.7749104332
 10
-164.2340936558
 20
-137.7738999251
 10
-164.1871112068
 20
-137.7685126817
 10
-164.1376229606
 20
-137.7587487029
 10
-164.0857117759
 20
-137.7451760198
 10
-164.0311200553
 20
-137.7272266013
 10
-163.9732175466
 20
-137.7031963544
 10
-163.9116318418
 20
-137.6731596994
 10
-163.8464646515
 20
-137.6370422159
 10
-163.7777705311
 20
-137.5929165497
 10
-163.7050301668
 20
-137.5403969285
 10
-163.6284784997
 20
-137.4798691245
 10
-163.5493865846
 20
-137.4105630999
 10
-163.4676815902
 20
-137.3320671307
 10
-163.3833154715
 20
-137.2447929408
 10
-163.2977637759
 20
-137.1492056644
 10
-163.2111495792
 20
-137.0449848159
 10
-163.1234053169
 20
-136.9324508809
 10
-163.0358768724
 20
-136.8130304497
 10
-162.9488159124
 20
-136.6865584387
 10
-162.8621605229
 20
-136.5531999316
 10
-162.7768951591
 20
-136.4148767692
 10
-162.6934583382
 20
-136.2719783933
 10
-162.6116697269
 20
-136.1241153621
 10
-162.5316205187
 20
-135.9720411912
 10
-162.4534259577
 20
-135.8157815799
 10
-162.3771914569
 20
-135.6553108289
 10
-162.3029852097
 20
-135.491305356
 10
-162.2307781106
 20
-135.3234236368
 10
-162.1607898722
 20
-135.1520071958
 10
-162.0934657523
 20
-134.9787570234
 10
-162.0289607672
 20
-134.803547047
 10
-161.9673091275
 20
-134.6265033392
 10
-161.9087835087
 20
-134.4497051087
 10
-161.8535623086
 20
-134.2732190742
 10
-161.8016353224
 20
-134.096978517
 10
-161.752987821
 20
-133.9228624899
 10
-161.7077653988
 20
-133.7509522657
 10
-161.6659553468
 20
-133.5811665717
 10
-161.6272915431
 20
-133.4151406422
 10
-161.5918954133
 20
-133.2531393974
 10
-161.559740272
 20
-133.0948979171
 10
-161.5303203204
 20
-132.941256675
 10
-161.5036893814
 20
-132.7925196444
 10
-161.4798534481
 20
-132.6483828519
 10
-161.4582188075
 20
-132.5087748511
 10
-161.4387744213
 20
-132.3738006328
 10
-161.4215656824
 20
-132.2433552062
 10
-161.4060720421
 20
-132.117052152
 10
-161.3922656529
 20
-131.9949421339
 10
-161.3801933022
 20
-131.8769744883
 10
-161.3694395138
 20
-131.7626108056
 10
-161.3599743869
 20
-131.6518864193
 10
-161.3518379489
 20
-131.5447659959
 10
-161.3447157916
 20
-131.4406051254
 10
-161.3385806965
 20
-131.3394284443
 10
-161.3334651277
 20
-131.241211316
 10
-161.3291421893
 20
-131.1452354213
 10
-161.3255864641
 20
-131.0515352684
 10
-161.3228259584
 20
-130.960076349
 10
-161.3207129187
 20
-130.8700368184
 10
-161.3191984037
 20
-130.7811427284
 10
-161.3183324951
 20
-130.6936680272
 10
-161.318115569
 20
-130.6076127149
  0
LINE
  5
35C
100
AcDbEntity
  8
RACCORDO
100
AcDbLine
 62
253
  6
CONTINUOUS
 10
-164.4105828716
 20
-137.7749318241
 11
-164.2786566329
 21
-137.7749104332
  0
LINE
  5
35D
100
AcDbEntity
  8
0
100
AcDbLine
 62
7
  6
CONTINUOUS
 10
-165.5051309254
 20
-138.4828800478
 11
-169.9341627977
 21
-138.4828800478
  0
LINE
  5
35E
100
AcDbEntity
  8
ASSI
100
AcDbLine
 62
7
  6
CONTINUOUS
 10
-165.5051309254
 20
-138.4828800478
 11
-169.9341627977
 21
-138.4828800478
  0
LINE
  5
35F
100
AcDbEntity
  8
0
100
AcDbLine
 62
7
  6
CONTINUOUS
 10
-155.9341703604
 20
-133.6828800478
 11
-152.8841703604
 21
-133.6828800478
  0
LINE
  5
360
100
AcDbEntity
  8
RACCORDO
100
AcDbLine
 62
253
  6
CONTINUOUS
 10
-164.5620625006
 20
-137.9399300605
 11
-164.2296375097
 21
-137.9456820809
  0
LINE
  5
361
100
AcDbEntity
  8
RACCORDO
100
AcDbLine
 62
7
  6
CONTINUOUS
 10
-155.9341703604
 20
-138.3828800478
 11
-164.8820953143
 21
-138.2266934367
  0
LINE
  5
362
100
AcDbEntity
  8
RACCORDO
100
AcDbLine
 62
7
  6
CONTINUOUS
 10
-160.7197396348
 20
-126.4836267995
 11
-162.3244700792
 21
-126.4976310699
  0
LINE
  5
363
100
AcDbEntity
  8
0
100
AcDbLine
 62
253
  6
CONTINUOUS
 10
-162.5744700792
 20
-130.4828800478
 11
-164.1339026365
 21
-130.4828800478
  0
LINE
  5
364
100
AcDbEntity
  8
ASSI
100
AcDbLine
 62
253
  6
CONTINUOUS
 10
-162.5744700792
 20
-130.4828800478
 11
-164.1339026365
 21
-130.4828800478
  0
LINE
  5
365
100
AcDbEntity
  8
RACCORDO
100
AcDbLine
 62
7
  6
CONTINUOUS
 10
-155.9341703604
 20
-126.4828800478
 11
-160.7229520883
 21
-126.4828800478
  0
LINE
  5
366
100
AcDbEntity
  8
ASSI
100
AcDbLine
 62
7
  6
CONTINUOUS
 10
-155.9341703604
 20
-126.4828800478
 11
-160.7229520883
 21
-126.4828800478
  0
LINE
  5
367
100
AcDbEntity
  8
RACCORDO
100
AcDbLine
 62
7
  6
CONTINUOUS
 10
-161.2214566201
 20
-126.4828800478
 11
-161.3326635135
 21
-126.4828800478
  0
LINE
  5
368
100
AcDbEntity
  8
0
100
AcDbLine
 62
7
  6
CONTINUOUS
 10
-161.3326635135
 20
-126.4828800478
 11
-162.3244700792
 21
-126.4828800478
  0
LINE
  5
369
100
AcDbEntity
  8
ASSI
100
AcDbLine
 62
7
  6
CONTINUOUS
 10
-161.2214566201
 20
-126.4828800478
 11
-162.3244700792
 21
-126.4828800478
  0
LINE
  5
36A
100
AcDbEntity
  8
0
100
AcDbLine
 62
7
  6
CONTINUOUS
 10
-152.8841703604
 20
-124.9828800478
 11
-129.6341703604
 21
-124.9828800478
  0
LINE
  5
36B
100
AcDbEntity
  8
0
100
AcDbLine
 62
7
  6
CONTINUOUS
 10
-129.2341703604
 20
-124.9828800478
 11
-129.6341703604
 21
-124.9828800478
  0
LINE
  5
36C
100
AcDbEntity
  8
RACCORDO
100
AcDbLine
 62
253
  6
CONTINUOUS
 10
-155.9341703604
 20
-130.7585860717
 11
-160.7654085698
 21
-130.7556430119
  0
LINE
  5
36D
100
AcDbEntity
  8
RACCORDO
100
AcDbLine
 62
253
  6
CONTINUOUS
 10
-161.4971233522
 20
-130.6051822862
 11
-162.082750907
 21
-130.6048394829
  0
LINE
  5
36E
100
AcDbEntity
  8
RACCORDO
100
AcDbLine
 62
253
  6
CONTINUOUS
 10
-161.425825107
 20
-130.6057080886
 11
-161.4971233522
 21
-130.6051822862
  0
LINE
  5
36F
100
AcDbEntity
  8
RACCORDO
100
AcDbLine
 62
253
  6
CONTINUOUS
 10
-161.3837270351
 20
-130.606229909
 11
-161.425825107
 21
-130.6057080886
  0
LINE
  5
370
100
AcDbEntity
  8
RACCORDO
100
AcDbLine
 62
253
  6
CONTINUOUS
 10
-160.8160782858
 20
-130.7549241441
 11
-160.7654085698
 21
-130.7556430119
  0
LINE
  5
371
100
AcDbEntity
  8
DRAFT
100
AcDbLine
 62
7
  6
CONTINUOUS
 10
-155.9341703604
 20
-126.5649188529
 11
-160.6075208595
 21
-126.4833452165
  0
LINE
  5
372
100
AcDbEntity
  8
RACCORDO
100
AcDbLine
 62
253
  6
CONTINUOUS
 10
-160.8651361538
 20
-130.7539241851
 11
-160.8160782858
 21
-130.7549241441
  0
LWPOLYLINE
  5
373
100
AcDbEntity
  8
RACCORDO
100
AcDbPolyline
 62
253
  6
CONTINUOUS
 90
4
 70
0
 10
-161.318115569
 20
-130.6076127149
 10
-161.3318647645
 20
-130.6072307245
 10
-161.3474629881
 20
-130.6068711657
 10
-161.3837270351
 20
-130.606229909
  0
LWPOLYLINE
  5
374
100
AcDbEntity
  8
RACCORDO
100
AcDbPolyline
 62
253
  6
CONTINUOUS
 90
8
 70
0
 10
-161.018495484
 20
-130.7477927182
 10
-161.0046147886
 20
-130.7486897451
 10
-160.9889689885
 20
-130.7495613904
 10
-160.9716710616
 20
-130.75040136
 10
-160.9528459152
 20
-130.7512035886
 10
-160.9326294851
 20
-130.7519622832
 10
-160.9111677532
 20
-130.7526719654
 10
-160.8651361538
 20
-130.7539241851
  0
LINE
  5
375
100
AcDbEntity
  8
RACCORDO
100
AcDbLine
 62
7
  6
CONTINUOUS
 10
-151.2289346385
 20
-113.6007498527
 11
-152.8841703604
 21
-113.6296420997
  0
LINE
  5
376
100
AcDbEntity
  8
0
100
AcDbLine
 62
7
  6
CONTINUOUS
 10
-152.8841703604
 20
-120.9828800478
 11
-129.6341703604
 21
-120.9828800478
  0
LINE
  5
377
100
AcDbEntity
  8
0
100
AcDbLine
 62
7
  6
CONTINUOUS
 10
-129.2341703604
 20
-120.9828800478
 11
-129.6341703604
 21
-120.9828800478
  0
LINE
  5
378
100
AcDbEntity
  8
0
100
AcDbLine
 62
7
  6
CONTINUOUS
 10
-168.6242678128
 20
-115.7328800478
 11
-169.9341627977
 21
-115.7328800478
  0
LINE
  5
379
100
AcDbEntity
  8
ASSI
100
AcDbLine
 62
7
  6
CONTINUOUS
 10
-168.6242678128
 20
-115.7328800478
 11
-169.9341627977
 21
-115.7328800478
  0
LINE
  5
37A
100
AcDbEntity
  8
RACCORDO
100
AcDbLine
 62
253
  6
CONTINUOUS
 10
-151.2289346385
 20
-111.1011306148
 11
-152.8841703604
 21
-111.1300228618
  0
LINE
  5
37B
100
AcDbEntity
  8
RACCORDO
100
AcDbLine
 62
253
  6
CONTINUOUS
 10
-151.2289346385
 20
-111.1011306148
 11
-150.9341703604
 21
-111.1011306148
  0
LINE
  5
37C
100
AcDbEntity
  8
SMUSSO
100
AcDbLine
 62
7
  6
CONTINUOUS
 10
-129.2341703604
 20
120.4171199522
 11
-129.6341703604
 21
120.0171199522
  0
LINE
  5
37D
100
AcDbEntity
  8
SMUSSO
100
AcDbLine
 62
7
  6
CONTINUOUS
 10
-129.2341703604
 20
-121.3828800478
 11
-129.6341703604
 21
-120.9828800478
  0
LWPOLYLINE
  5
37E
100
AcDbEntity
  8
RACCORDO
100
AcDbPolyline
 62
253
  6
CONTINUOUS
 90
12
 70
0
 10
-130.1289349707
 20
104.5958148105
 10
-130.1288240593
 20
104.5959789656
 10
-130.1287148912
 20
104.5964861263
 10
-130.1286085136
 20
104.5973674792
 10
-130.128506298
 20
104.5986561354
 10
-130.1284091392
 20
104.60038326
 10
-130.1283173358
 20
104.6025738628
 10
-130.1282319939
 20
104.6052560924
 10
-130.128154289
 20
104.6084576778
 10
-130.1280844477
 20
104.6121949143
 10
-130.1280235104
 20
104.6164902632
 10
-130.1279319082
 20
104.626824931
  0
LWPOLYLINE
  5
37F
100
AcDbEntity
  8
0
100
AcDbPolyline
 62
7
  6
CONTINUOUS
 90
18
 70
0
 10
-162.4299613839
 20
130.3736996273
 10
-162.4184857303
 20
130.4504570262
 10
-162.4074886402
 20
130.5266718138
 10
-162.3969685831
 20
130.6023155497
 10
-162.3870602052
 20
130.6770629477
 10
-162.3777720354
 20
130.7509099327
 10
-162.3690955448
 20
130.8238540665
 10
-162.3611397919
 20
130.8955757342
 10
-162.3539181182
 20
130.9660354943
 10
-162.3474171823
 20
131.0352718474
 10
-162.3417060185
 20
131.1030852071
 10
-162.3367936622
 20
131.1694689277
 10
-162.3326710779
 20
131.2344333971
 10
-162.329380194
 20
131.2978071875
 10
-162.3269293635
 20
131.3595781718
 10
-162.3253102333
 20
131.4197666432
 10
-162.3245396727
 20
131.4782520209
 10
-162.3244704859
 20
131.5014334355
  0
LWPOLYLINE
  5
380
100
AcDbEntity
  8
ASSI
100
AcDbPolyline
 62
7
  6
CONTINUOUS
 90
18
 70
0
 10
-162.4299613839
 20
130.3736996273
 10
-162.4184857303
 20
130.4504570262
 10
-162.4074886402
 20
130.5266718138
 10
-162.3969685831
 20
130.6023155497
 10
-162.3870602052
 20
130.6770629477
 10
-162.3777720354
 20
130.7509099327
 10
-162.3690955448
 20
130.8238540665
 10
-162.3611397919
 20
130.8955757342
 10
-162.3539181182
 20
130.9660354943
 10
-162.3474171823
 20
131.0352718474
 10
-162.3417060185
 20
131.1030852071
 10
-162.3367936622
 20
131.1694689277
 10
-162.3326710779
 20
131.2344333971
 10
-162.329380194
 20
131.2978071875
 10
-162.3269293635
 20
131.3595781718
 10
-162.3253102333
 20
131.4197666432
 10
-162.3245396727
 20
131.4782520209
 10
-162.3244704859
 20
131.5014334355
  0
LINE
  5
381
100
AcDbEntity
  8
0
100
AcDbLine
 62
7
  6
CONTINUOUS
 10
-162.4542045528
 20
130.2187634089
 11
-162.4299613839
 21
130.3736996273
  0
LINE
  5
382
100
AcDbEntity
  8
ASSI
100
AcDbLine
 62
7
  6
CONTINUOUS
 10
-162.4542045528
 20
130.2187634089
 11
-162.4299613839
 21
130.3736996273
  0
LINE
  5
383
100
AcDbEntity
  8
0
100
AcDbLine
 62
7
  6
CONTINUOUS
 10
-162.4798014196
 20
130.0626580671
 11
-162.4542045528
 21
130.2187634089
  0
LINE
  5
384
100
AcDbEntity
  8
ASSI
100
AcDbLine
 62
7
  6
CONTINUOUS
 10
-162.4798014196
 20
130.0626580671
 11
-162.4542045528
 21
130.2187634089
  0
LINE
  5
385
100
AcDbEntity
  8
0
100
AcDbLine
 62
7
  6
CONTINUOUS
 10
-162.5063198237
 20
129.9061551513
 11
-162.4798014196
 21
130.0626580671
  0
LINE
  5
386
100
AcDbEntity
  8
ASSI
100
AcDbLine
 62
7
  6
CONTINUOUS
 10
-162.5063198237
 20
129.9061551513
 11
-162.4798014196
 21
130.0626580671
  0
LINE
  5
387
100
AcDbEntity
  8
0
100
AcDbLine
 62
7
  6
CONTINUOUS
 10
-162.5744700792
 20
129.5171199522
 11
-162.5063198237
 21
129.9061551513
  0
LINE
  5
388
100
AcDbEntity
  8
ASSI
100
AcDbLine
 62
7
  6
CONTINUOUS
 10
-162.5744700792
 20
129.5171199522
 11
-162.5063198237
 21
129.9061551513
  0
LWPOLYLINE
  5
389
100
AcDbEntity
  8
RACCORDO
100
AcDbPolyline
 62
253
  6
CONTINUOUS
 90
9
 70
0
 10
-150.3864638062
 20
102.2650380667
 10
-150.3861488586
 20
102.2659060472
 10
-150.3859816075
 20
102.2684372688
 10
-150.3859629862
 20
102.272617605
 10
-150.3860930991
 20
102.2784237242
 10
-150.3863712199
 20
102.2858232215
 10
-150.3867957967
 20
102.2947748007
 10
-150.3873644599
 20
102.3052285014
 10
-150.3889205644
 20
102.3304008307
  0
LINE
  5
38A
100
AcDbEntity
  8
0
100
AcDbLine
 62
7
  6
CONTINUOUS
 10
-162.5191111416
 20
-130.7980088948
 11
-162.5744700792
 21
-130.4828800478
  0
LINE
  5
38B
100
AcDbEntity
  8
ASSI
100
AcDbLine
 62
7
  6
CONTINUOUS
 10
-162.5191111416
 20
-130.7980088948
 11
-162.5744700792
 21
-130.4828800478
  0
LINE
  5
38C
100
AcDbEntity
  8
0
100
AcDbLine
 62
7
  6
CONTINUOUS
 10
-162.4915946302
 20
-130.9582554916
 11
-162.5191111416
 21
-130.7980088948
  0
LINE
  5
38D
100
AcDbEntity
  8
ASSI
100
AcDbLine
 62
7
  6
CONTINUOUS
 10
-162.4915946302
 20
-130.9582554916
 11
-162.5191111416
 21
-130.7980088948
  0
LINE
  5
38E
100
AcDbEntity
  8
0
100
AcDbLine
 62
7
  6
CONTINUOUS
 10
-162.4649427844
 20
-131.1181874081
 11
-162.4915946302
 21
-130.9582554916
  0
LINE
  5
38F
100
AcDbEntity
  8
ASSI
100
AcDbLine
 62
7
  6
CONTINUOUS
 10
-162.4649427844
 20
-131.1181874081
 11
-162.4915946302
 21
-130.9582554916
  0
LWPOLYLINE
  5
390
100
AcDbEntity
  8
RACCORDO
100
AcDbPolyline
 62
253
  6
CONTINUOUS
 90
10
 70
0
 10
-131.23940575
 20
104.5667361097
 10
-131.2390371976
 20
104.5675844031
 10
-131.2387145579
 20
104.5701040937
 10
-131.2384396363
 20
104.5742811014
 10
-131.2382139713
 20
104.5800920817
 10
-131.2380388254
 20
104.5875045599
 10
-131.2379151782
 20
104.5964771175
 10
-131.2378437213
 20
104.6069596132
 10
-131.2378248557
 20
104.6188934643
 10
-131.2379450323
 20
104.6468407447
  0
LWPOLYLINE
  5
391
100
AcDbEntity
  8
RACCORDO
100
AcDbPolyline
 62
253
  6
CONTINUOUS
 90
7
 70
0
 10
-164.2786566627
 20
-137.7749104335
 10
-164.2799330875
 20
-137.7492207762
 10
-164.2833210791
 20
-137.7237392458
 10
-164.2887957278
 20
-137.6986531937
 10
-164.2963167813
 20
-137.6741470638
 10
-164.3058289418
 20
-137.6504010358
 10
-164.3061506752
 20
-137.6497591256
  0
LWPOLYLINE
  5
392
100
AcDbEntity
  8
RACCORDO
100
AcDbPolyline
 62
253
  6
CONTINUOUS
 90
19
 70
0
 10
-164.2296371053
 20
-137.9456820772
 10
-164.2283957728
 20
-137.9713946489
 10
-164.2250419758
 20
-137.996898538
 10
-164.2196004178
 20
-138.0220058888
 10
-164.21211118
 20
-138.0465317662
 10
-164.2026294264
 20
-138.0702955182
 10
-164.1912249975
 20
-138.0931221065
 10
-164.1779818955
 20
-138.1148433957
 10
-164.1629976663
 20
-138.1352993917
 10
-164.1463826801
 20
-138.1543394204
 10
-164.1282593191
 20
-138.1718232372
 10
-164.108761076
 20
-138.1876220605
 10
-164.0880315702
 20
-138.2016195196
 10
-164.0662234906
 20
-138.2137125125
 10
-164.0434974704
 20
-138.2238119649
 10
-164.0200209044
 20
-138.2318434867
 10
-163.9959667154
 20
-138.2377479195
 10
-163.9715120813
 20
-138.2414817726
 10
-163.9468371291
 20
-138.2430175432
  0
LWPOLYLINE
  5
393
100
AcDbEntity
  8
ASSI
100
AcDbPolyline
 62
7
  6
CONTINUOUS
 90
19
 70
0
 10
-162.3245465077
 20
-132.4428932488
 10
-162.3253265149
 20
-132.3846616087
 10
-162.3269476691
 20
-132.324837942
 10
-162.3293796511
 20
-132.2635791038
 10
-162.3326307516
 20
-132.2008677484
 10
-162.3366926798
 20
-132.1367145767
 10
-162.3415102442
 20
-132.0713210199
 10
-162.3470868912
 20
-132.0047172045
 10
-162.3534191744
 20
-131.9368709213
 10
-162.3604415629
 20
-131.8678923011
 10
-162.3681531186
 20
-131.7978147628
 10
-162.3765547796
 20
-131.7266062962
 10
-162.3855838297
 20
-131.6542801065
 10
-162.3952442832
 20
-131.5808258448
 10
-162.4055321258
 20
-131.5062578879
 10
-162.4163725975
 20
-131.4306274661
 10
-162.4277880557
 20
-131.3538288784
 10
-162.439756143
 20
-131.275974942
 10
-162.4649427844
 20
-131.1181874081
  0
LWPOLYLINE
  5
394
100
AcDbEntity
  8
0
100
AcDbPolyline
 62
7
  6
CONTINUOUS
 90
10
 70
0
 10
-162.3244704859
 20
131.5014334355
 10
-162.3246194715
 20
131.5349907994
 10
-162.3255478399
 20
131.5900382013
 10
-162.3273362782
 20
131.6434227406
 10
-162.3299722657
 20
131.6951232828
 10
-162.333468323
 20
131.7451737284
 10
-162.3378735118
 20
131.7936847027
 10
-162.3432041861
 20
131.8406969349
 10
-162.3494439918
 20
131.8861818791
 10
-162.3565929291
 20
131.9301458124
  0
LWPOLYLINE
  5
395
100
AcDbEntity
  8
ASSI
100
AcDbPolyline
 62
7
  6
CONTINUOUS
 90
10
 70
0
 10
-162.3244704859
 20
131.5014334355
 10
-162.3246194715
 20
131.5349907994
 10
-162.3255478399
 20
131.5900382013
 10
-162.3273362782
 20
131.6434227406
 10
-162.3299722657
 20
131.6951232828
 10
-162.333468323
 20
131.7451737284
 10
-162.3378735118
 20
131.7936847027
 10
-162.3432041861
 20
131.8406969349
 10
-162.3494439918
 20
131.8861818791
 10
-162.3565929291
 20
131.9301458124
  0
LWPOLYLINE
  5
396
100
AcDbEntity
  8
0
100
AcDbPolyline
 62
7
  6
CONTINUOUS
 90
20
 70
0
 10
-162.3244722384
 20
-132.467193531
 10
-162.3245465077
 20
-132.4428932488
 10
-162.3253265149
 20
-132.3846616087
 10
-162.3269476691
 20
-132.324837942
 10
-162.3293796511
 20
-132.2635791038
 10
-162.3326307516
 20
-132.2008677484
 10
-162.3366926798
 20
-132.1367145767
 10
-162.3415102442
 20
-132.0713210199
 10
-162.3470868912
 20
-132.0047172045
 10
-162.3534191744
 20
-131.9368709213
 10
-162.3604415629
 20
-131.8678923011
 10
-162.3681531186
 20
-131.7978147628
 10
-162.3765547796
 20
-131.7266062962
 10
-162.3855838297
 20
-131.6542801065
 10
-162.3952442832
 20
-131.5808258448
 10
-162.4055321258
 20
-131.5062578879
 10
-162.4163725975
 20
-131.4306274661
 10
-162.4277880557
 20
-131.3538288784
 10
-162.439756143
 20
-131.275974942
 10
-162.4649427844
 20
-131.1181874081
  0
LINE
  5
397
100
AcDbEntity
  8
RACCORDO
100
AcDbLine
 62
253
  6
CONTINUOUS
 10
-161.318115569
 20
-130.6076127149
 11
-161.3189139763
 21
-126.4888557148
  0
LINE
  5
398
100
AcDbEntity
  8
ELVOX
100
AcDbLine
 62
253
  6
CONTINUOUS
 10
-169.9304938268
 20
126.0207733163
 11
-169.9304850383
 21
126.2612409812
  0
LINE
  5
399
100
AcDbEntity
  8
ASSI
100
AcDbLine
 62
7
  6
CONTINUOUS
 10
-169.9341703604
 20
137.5171199522
 11
-169.9341703604
 21
114.7671199522
  0
LINE
  5
39A
100
AcDbEntity
  8
ASSI
100
AcDbLine
 62
7
  6
CONTINUOUS
 10
-169.9341703604
 20
-115.7328800478
 11
-169.9341703604
 21
-138.4828800478
  0
LINE
  5
39B
100
AcDbEntity
  8
ELVOX
100
AcDbLine
 62
253
  6
CONTINUOUS
 10
-169.9331177786
 20
126.9060484634
 11
-169.9331177786
 21
125.1353837766
  0
LINE
  5
39C
100
AcDbEntity
  8
ELVOX
100
AcDbLine
 62
253
  6
CONTINUOUS
 10
-169.9304850383
 20
125.7803056515
 11
-169.9304938268
 21
126.0207733163
  0
LINE
  5
39D
100
AcDbEntity
  8
ELVOX
100
AcDbLine
 62
253
  6
CONTINUOUS
 10
-169.9248853947
 20
126.2612409812
 11
-169.9248853947
 21
125.7803056515
  0
LINE
  5
39E
100
AcDbEntity
  8
ELVOX
100
AcDbLine
 62
253
  6
CONTINUOUS
 10
-169.918636885
 20
125.1353837766
 11
-169.918636885
 21
126.9082301795
  0
LINE
  5
39F
100
AcDbEntity
  8
0
100
AcDbLine
 62
7
  6
CONTINUOUS
 10
-168.6984104609
 20
137.5171199522
 11
-168.6984104609
 21
114.7671199522
  0
LINE
  5
3A0
100
AcDbEntity
  8
ASSI
100
AcDbLine
 62
7
  6
CONTINUOUS
 10
-168.6984104609
 20
137.5171199522
 11
-168.6984104609
 21
114.7671199522
  0
LINE
  5
3A1
100
AcDbEntity
  8
0
100
AcDbLine
 62
7
  6
CONTINUOUS
 10
-168.6984104609
 20
-115.7328800478
 11
-168.6984104609
 21
-138.4828800478
  0
LINE
  5
3A2
100
AcDbEntity
  8
ASSI
100
AcDbLine
 62
7
  6
CONTINUOUS
 10
-168.6984104609
 20
-115.7328800478
 11
-168.6984104609
 21
-138.4828800478
  0
LINE
  5
3A3
100
AcDbEntity
  8
0
100
AcDbLine
 62
7
  6
CONTINUOUS
 10
-168.6242678128
 20
137.5171199522
 11
-168.6242678128
 21
-138.4828800478
  0
LINE
  5
3A4
100
AcDbEntity
  8
ASSI
100
AcDbLine
 62
7
  6
CONTINUOUS
 10
-168.6242678128
 20
137.5171199522
 11
-168.6242678128
 21
-138.4828800478
  0
LINE
  5
3A5
100
AcDbEntity
  8
0
100
AcDbLine
 62
253
  6
CONTINUOUS
 10
-164.5762457621
 20
-132.5320910184
 11
-164.5762457621
 21
131.5663309228
  0
LINE
  5
3A6
100
AcDbEntity
  8
ASSI
100
AcDbLine
 62
253
  6
CONTINUOUS
 10
-164.5762457621
 20
-132.5320910184
 11
-164.5762457621
 21
131.5663309228
  0
LINE
  5
3A7
100
AcDbEntity
  8
0
100
AcDbLine
 62
253
  6
CONTINUOUS
 10
-164.1339026365
 20
-130.4828800478
 11
-164.1339026365
 21
129.5171199522
  0
LINE
  5
3A8
100
AcDbEntity
  8
ASSI
100
AcDbLine
 62
253
  6
CONTINUOUS
 10
-164.1339026365
 20
-130.4828800478
 11
-164.1339026365
 21
129.5171199522
  0
LINE
  5
3A9
100
AcDbEntity
  8
0
100
AcDbLine
 62
253
  6
CONTINUOUS
 10
-162.5744700792
 20
-130.4828800478
 11
-162.5744700792
 21
129.5171199522
  0
LINE
  5
3AA
100
AcDbEntity
  8
ASSI
100
AcDbLine
 62
253
  6
CONTINUOUS
 10
-162.5744700792
 20
-130.4828800478
 11
-162.5744700792
 21
129.5171199522
  0
LINE
  5
3AB
100
AcDbEntity
  8
RACCORDO
100
AcDbLine
 62
7
  6
CONTINUOUS
 10
-162.3244700792
 20
-132.4671935311
 11
-162.3244700792
 21
131.5014334355
  0
LINE
  5
3AC
100
AcDbEntity
  8
ASSI
100
AcDbLine
 62
7
  6
CONTINUOUS
 10
-162.3244722384
 20
-132.467193531
 11
-162.3244700792
 21
131.5014334355
  0
LINE
  5
3AD
100
AcDbEntity
  8
0
100
AcDbLine
 62
7
  6
CONTINUOUS
 10
-161.3326635135
 20
125.5171199522
 11
-161.3326635135
 21
-126.4828800478
  0
LINE
  5
3AE
100
AcDbEntity
  8
ASSI
100
AcDbLine
 62
7
  6
CONTINUOUS
 10
-161.3326635135
 20
125.5171199522
 11
-161.3326635135
 21
-126.4828800478
  0
LINE
  5
3AF
100
AcDbEntity
  8
RACCORDO
100
AcDbLine
 62
253
  6
CONTINUOUS
 10
-161.5744355187
 20
125.525325522
 11
-161.5741865556
 21
129.7217584895
  0
LINE
  5
3B0
100
AcDbEntity
  8
RACCORDO
100
AcDbLine
 62
253
  6
CONTINUOUS
 10
-161.3189139763
 20
125.5230956193
 11
-161.318115569
 21
129.6418526194
  0
LWPOLYLINE
  5
3B1
100
AcDbEntity
  8
RACCORDO
100
AcDbPolyline
 62
253
  6
CONTINUOUS
 90
19
 70
0
 10
-164.2296373846
 20
136.9799219842
 10
-164.2283961175
 20
137.0056346233
 10
-164.2250423753
 20
137.0311385847
 10
-164.2196008608
 20
137.0562460112
 10
-164.2121116553
 20
137.0807719663
 10
-164.2026299227
 20
137.1045357965
 10
-164.1912255037
 20
137.127362462
 10
-164.1779824011
 20
137.1490838262
 10
-164.1629981609
 20
137.1695398935
 10
-164.1463831542
 20
137.1885799886
 10
-164.128259764
 20
137.2060638658
 10
-164.1087614835
 20
137.2218627422
 10
-164.0880319334
 20
137.2358602464
 10
-164.0662238035
 20
137.2479532754
 10
-164.0434977283
 20
137.2580527544
 10
-164.0200211037
 20
137.2660842925
 10
-163.995966854
 20
137.2719887309
 10
-163.9715121581
 20
137.2757225788
 10
-163.9468371445
 20
137.2772583333
  0
LWPOLYLINE
  5
3B2
100
AcDbEntity
  8
RACCORDO
100
AcDbPolyline
 62
253
  6
CONTINUOUS
 90
7
 70
0
 10
-164.2786565645
 20
136.8091503371
 10
-164.2799330249
 20
136.7834607011
 10
-164.2833210489
 20
136.7579791946
 10
-164.2887957262
 20
136.7328931687
 10
-164.2963168046
 20
136.7083870666
 10
-164.305828986
 20
136.6846410676
 10
-164.3061507672
 20
136.6839990641
  0
LWPOLYLINE
  5
3B3
100
AcDbEntity
  8
RACCORDO
100
AcDbPolyline
 62
253
  6
CONTINUOUS
 90
46
 70
0
 10
-161.018495484
 20
129.7820326227
 10
-161.0228357603
 20
130.0086395767
 10
-161.0315370518
 20
130.2362507667
 10
-161.0445847382
 20
130.4648661927
 10
-161.0618937615
 20
130.6948001358
 10
-161.0835027505
 20
130.9257383148
 10
-161.1095724959
 20
131.156737887
 10
-161.1400991383
 20
131.3878288049
 10
-161.1750002514
 20
131.618981116
 10
-161.2143069324
 20
131.8491621198
 10
-161.2579897919
 20
132.0783641796
 10
-161.3059506145
 20
132.3065949321
 10
-161.3581065924
 20
132.532844587
 10
-161.4143707565
 20
132.7570210415
 10
-161.4746627157
 20
132.9792163983
 10
-161.5388994949
 20
133.1986971759
 10
-161.6069984059
 20
133.4155146293
 10
-161.6788325453
 20
133.6296175035
 10
-161.7542433541
 20
133.8401185519
 10
-161.8331945205
 20
134.0471703775
 10
-161.9154715497
 20
134.2506203773
 10
-162.0006492649
 20
134.4491234959
 10
-162.0886464297
 20
134.6426633664
 10
-162.1792732756
 20
134.8312563557
 10
-162.2719593358
 20
135.0136065095
 10
-162.3666079047
 20
135.189657724
 10
-162.4630445264
 20
135.359466103
 10
-162.5606152282
 20
135.5219040034
 10
-162.6592425189
 20
135.6769177181
 10
-162.7587529991
 20
135.8245609543
 10
-162.8583995788
 20
135.9638671907
 10
-162.9580547101
 20
136.094693924
 10
-163.0576449634
 20
136.2171836575
 10
-163.1565635356
 20
136.3307973801
 10
-163.2547277703
 20
136.4354597299
 10
-163.3520681553
 20
136.5312460688
 10
-163.4480553641
 20
136.6178434711
 10
-163.5426347141
 20
136.6951885317
 10
-163.6357633804
 20
136.7633446557
 10
-163.7269881107
 20
136.8221891332
 10
-163.8162798621
 20
136.8716641729
 10
-163.9036275733
 20
136.9118275661
 10
-163.9886617762
 20
136.9427299775
 10
-164.0712766255
 20
136.9643882953
 10
-164.1515992608
 20
136.9767856312
 10
-164.2296375097
 20
136.9799219854
  0
LWPOLYLINE
  5
3B4
100
AcDbEntity
  8
RACCORDO
100
AcDbPolyline
 62
253
  6
CONTINUOUS
 90
46
 70
0
 10
-160.7654085698
 20
129.7898829164
 10
-160.7697337304
 20
130.0252301368
 10
-160.7783408678
 20
130.2620895902
 10
-160.7912299819
 20
130.5002208046
 10
-160.8083698556
 20
130.7394183905
 10
-160.829791706
 20
130.979374434
 10
-160.8555891845
 20
131.21968092
 10
-160.8858185268
 20
131.4600765001
 10
-160.9204234972
 20
131.7002532558
 10
-160.9593290389
 20
131.9397265582
 10
-161.0025861668
 20
132.1781722092
 10
-161.050143866
 20
132.4153058793
 10
-161.1017740354
 20
132.6507015081
 10
-161.1574902599
 20
132.8839264409
 10
-161.2172789545
 20
133.1147786911
 10
-161.2808712632
 20
133.3431632181
 10
-161.348305587
 20
133.5687568249
 10
-161.4195435249
 20
133.7911866816
 10
-161.4942010174
 20
134.0102533816
 10
-161.572375939
 20
134.2257353342
 10
-161.6539704153
 20
134.4370962302
 10
-161.7383067637
 20
134.6436721168
 10
-161.8254363658
 20
134.8451223935
 10
-161.9153078401
 20
135.041065358
 10
-162.0070893592
 20
135.2308343467
 10
-162.1008051205
 20
135.414106916
 10
-162.1964309267
 20
135.5905606789
 10
-162.2930623586
 20
135.7596093269
 10
-162.3907189406
 20
135.9210128097
 10
-162.4893811482
 20
136.0744754705
 10
-162.58808599
 20
136.2194363931
 10
-162.686771222
 20
136.3556538209
 10
-162.7854990881
 20
136.4830160353
 10
-162.8834933287
 20
136.6012586303
 10
-162.9807112147
 20
136.7102484972
 10
-163.0771954752
 20
136.8098850257
 10
-163.1722980373
 20
136.9000184007
 10
-163.2659753362
 20
136.9805807705
 10
-163.3582709366
 20
137.0515219038
 10
-163.4486674606
 20
137.1127753968
 10
-163.537114452
 20
137.1643277735
 10
-163.6236623668
 20
137.2061874234
 10
-163.7079451945
 20
137.2383666806
 10
-163.7898409316
 20
137.2609026172
 10
-163.8694715817
 20
137.2738462757
 10
-163.9468371445
 20
137.2772583333
  0
LINE
  5
3B5
100
AcDbEntity
  8
RACCORDO
100
AcDbLine
 62
253
  6
CONTINUOUS
 10
-160.9722246456
 20
125.5200701073
 11
-161.018495484
 21
129.7820326227
  0
LWPOLYLINE
  5
3B6
100
AcDbEntity
  8
RACCORDO
100
AcDbPolyline
 62
253
  6
CONTINUOUS
 90
9
 70
0
 10
-160.7197396348
 20
125.517866704
 10
-160.7294501929
 20
126.4196998838
 10
-160.7343706812
 20
126.8780520029
 10
-160.7393123449
 20
127.3392270381
 10
-160.7442974813
 20
127.8053590927
 10
-160.7493929828
 20
128.2828504768
 10
-160.7546211468
 20
128.7738352938
 10
-160.7599596758
 20
129.2761794404
 10
-160.7654085698
 20
129.7898829164
  0
LWPOLYLINE
  5
3B7
100
AcDbEntity
  8
RACCORDO
100
AcDbPolyline
 62
253
  6
CONTINUOUS
 90
42
 70
0
 10
-161.5741865556
 20
129.7217584895
 10
-161.5750567477
 20
129.8056551956
 10
-161.576552009
 20
129.8909139894
 10
-161.5786901406
 20
129.977243884
 10
-161.581505407
 20
130.0649110274
 10
-161.5850682249
 20
130.1547389879
 10
-161.5894261346
 20
130.2467383856
 10
-161.5946283512
 20
130.3408640903
 10
-161.6007835625
 20
130.4378527627
 10
-161.6079577745
 20
130.5376945563
 10
-161.6162199618
 20
130.6403499742
 10
-161.6257195584
 20
130.7465038959
 10
-161.6365479568
 20
130.8561465015
 10
-161.6487975338
 20
130.9692075365
 10
-161.6626586861
 20
131.0862716893
 10
-161.6782550999
 20
131.2073456531
 10
-161.6957073272
 20
131.3323558454
 10
-161.7152415706
 20
131.4617693961
 10
-161.7370122208
 20
131.5955840938
 10
-161.7611681721
 20
131.7337140344
 10
-161.7879524192
 20
131.8764387783
 10
-161.8175683135
 20
132.0238346645
 10
-161.8501328674
 20
132.1754934247
 10
-161.8857590346
 20
132.3309119079
 10
-161.9246708651
 20
132.490161294
 10
-161.9669725956
 20
132.6528393989
 10
-162.0125484575
 20
132.8177498778
 10
-162.0615113501
 20
132.9846974067
 10
-162.113961653
 20
133.1534875599
 10
-162.1696561085
 20
133.3228776848
 10
-162.2286240174
 20
133.4925505871
 10
-162.2908184965
 20
133.6619973416
 10
-162.3558214895
 20
133.8298597448
 10
-162.423568792
 20
133.9958196049
 10
-162.4940810961
 20
134.1598103739
 10
-162.5669466972
 20
134.320875506
 10
-162.641780802
 20
134.4781908017
 10
-162.7185606801
 20
134.63170506
 10
-162.7973452544
 20
134.7815100956
 10
-162.8780654458
 20
134.9273839002
 10
-162.9605785251
 20
135.069013441
 10
-163.0448987331
 20
135.2064133989
  0
LINE
  5
3B8
100
AcDbEntity
  8
DRAFT
100
AcDbLine
 62
7
  6
CONTINUOUS
 10
-162.082750907
 20
129.6390793874
 11
-162.0430670599
 21
125.5294152075
  0
LWPOLYLINE
  5
3B9
100
AcDbEntity
  8
RACCORDO
100
AcDbPolyline
 62
253
  6
CONTINUOUS
 90
64
 70
0
 10
-161.318115569
 20
129.6418526194
 10
-161.3183326918
 20
129.7278862139
 10
-161.3191979897
 20
129.8153302354
 10
-161.3207110873
 20
129.9041846838
 10
-161.3228220666
 20
129.9941746261
 10
-161.3255797075
 20
130.0855749953
 10
-161.3291312781
 20
130.1792105904
 10
-161.3334487269
 20
130.2751159451
 10
-161.3385575236
 20
130.3732565256
 10
-161.3446842275
 20
130.474353529
 10
-161.3517963267
 20
130.5784315556
 10
-161.3599211028
 20
130.6854660052
 10
-161.3693727984
 20
130.7961042736
 10
-161.3801113301
 20
130.9103816853
 10
-161.3921666821
 20
131.028262916
 10
-161.4059543809
 20
131.1502893883
 10
-161.4214275357
 20
131.2765117574
 10
-161.4386141407
 20
131.4068793683
 10
-161.4580351775
 20
131.5417816783
 10
-161.4796451596
 20
131.6813238149
 10
-161.5034552786
 20
131.8254006508
 10
-161.5300600529
 20
131.974086262
 10
-161.5594540164
 20
132.1276871578
 10
-161.5915828829
 20
132.2858968289
 10
-161.6269517864
 20
132.447869823
 10
-161.6655888957
 20
132.6138746467
 10
-161.7073713959
 20
132.7836427934
 10
-161.7525605392
 20
132.9555232908
 10
-161.8011694749
 20
133.1295944593
 10
-161.8530525024
 20
133.3057779785
 10
-161.9082188907
 20
133.4821879149
 10
-161.9666777897
 20
133.6588856293
 10
-162.0282526144
 20
133.8358097608
 10
-162.0926697265
 20
134.0108902938
 10
-162.1598924614
 20
134.1839963138
 10
-162.2297693269
 20
134.3552587352
 10
-162.3018629014
 20
134.523000286
 10
-162.3759414117
 20
134.6868636473
 10
-162.4520469869
 20
134.847206138
 10
-162.5301550968
 20
135.003422443
 10
-162.6101762413
 20
135.1555788004
 10
-162.6919760655
 20
135.3036089722
 10
-162.7754531483
 20
135.446708929
 10
-162.8607909582
 20
135.5852669127
 10
-162.9475450937
 20
135.7188946815
 10
-163.0347086647
 20
135.845623481
 10
-163.1223393688
 20
135.9652760107
 10
-163.210189108
 20
136.0780295711
 10
-163.2969028356
 20
136.1824473095
 10
-163.3825456134
 20
136.2782037021
 10
-163.4669972474
 20
136.3656242728
 10
-163.5487817416
 20
136.4442487397
 10
-163.6279465232
 20
136.5136652044
 10
-163.7045655379
 20
136.5742855653
 10
-163.7773698971
 20
136.6268852361
 10
-163.8461260639
 20
136.6710793949
 10
-163.911352212
 20
136.7072528635
 10
-163.9729921721
 20
136.737335521
 10
-164.0309443626
 20
136.7614015437
 10
-164.0855815637
 20
136.7793767552
 10
-164.1375329247
 20
136.7929685054
 10
-164.1870558722
 20
136.8027459108
 10
-164.2340682524
 20
136.8081398549
 10
-164.2786566329
 20
136.8091503377
  0
LINE
  5
3BA
100
AcDbEntity
  8
RACCORDO
100
AcDbLine
 62
253
  6
CONTINUOUS
 10
-160.8216812048
 20
125.5171199522
 11
-160.8216812048
 21
-126.4828800478
  0
LINE
  5
3BB
100
AcDbEntity
  8
ASSI
100
AcDbLine
 62
253
  6
CONTINUOUS
 10
-160.8216812048
 20
125.5171199522
 11
-160.8216812048
 21
-126.4828800478
  0
LINE
  5
3BC
100
AcDbEntity
  8
RACCORDO
100
AcDbLine
 62
253
  6
CONTINUOUS
 10
-160.6075127399
 20
125.5171199522
 11
-160.6075127399
 21
-126.4828800478
  0
LINE
  5
3BD
100
AcDbEntity
  8
ASSI
100
AcDbLine
 62
253
  6
CONTINUOUS
 10
-160.6075127399
 20
125.5171199522
 11
-160.6075127399
 21
-126.4828800478
  0
LINE
  5
3BE
100
AcDbEntity
  8
ASSI
100
AcDbLine
 62
7
  6
CONTINUOUS
 10
-159.6341703604
 20
125.5171199522
 11
-159.6341703604
 21
125.5345750172
  0
LINE
  5
3BF
100
AcDbEntity
  8
RACCORDO
100
AcDbLine
 62
253
  6
CONTINUOUS
 10
-159.6271893978
 20
-126.5004569658
 11
-159.6271893978
 21
-126.4828800478
  0
LINE
  5
3C0
100
AcDbEntity
  8
RACCORDO
100
AcDbLine
 62
7
  6
CONTINUOUS
 10
-159.2341703604
 20
-126.5073171387
 11
-159.2341703604
 21
-126.4828800478
  0
LINE
  5
3C1
100
AcDbEntity
  8
RACCORDO
100
AcDbLine
 62
7
  6
CONTINUOUS
 10
-159.2341703604
 20
125.5171199522
 11
-159.2341703604
 21
125.5415570431
  0
LINE
  5
3C2
100
AcDbEntity
  8
RACCORDO
100
AcDbLine
 62
253
  6
CONTINUOUS
 10
-158.7428965636
 20
-126.5158923547
 11
-158.7428965636
 21
-126.4828800478
  0
LINE
  5
3C3
100
AcDbEntity
  8
RACCORDO
100
AcDbLine
 62
253
  6
CONTINUOUS
 10
-158.7428965636
 20
125.5171199522
 11
-158.7428965636
 21
125.5501322592
  0
LINE
  5
3C4
100
AcDbEntity
  8
DRAFT
100
AcDbLine
 62
7
  6
CONTINUOUS
 10
-158.6341703604
 20
-126.5177901776
 11
-158.6341703604
 21
-126.4828800478
  0
LINE
  5
3C5
100
AcDbEntity
  8
DRAFT
100
AcDbLine
 62
7
  6
CONTINUOUS
 10
-158.6341703604
 20
125.5171199522
 11
-158.6341703604
 21
125.5520300821
  0
LINE
  5
3C6
100
AcDbEntity
  8
RACCORDO
100
AcDbLine
 62
253
  6
CONTINUOUS
 10
-156.1841703604
 20
-126.4828800478
 11
-156.1841703604
 21
125.5171199522
  0
LINE
  5
3C7
100
AcDbEntity
  8
ASSI
100
AcDbLine
 62
253
  6
CONTINUOUS
 10
-156.1841703604
 20
-126.4828800478
 11
-156.1841703604
 21
125.5171199522
  0
LINE
  5
3C8
100
AcDbEntity
  8
RACCORDO
100
AcDbLine
 62
253
  6
CONTINUOUS
 10
-156.1306798791
 20
125.595728671
 11
-156.1306798791
 21
125.5171199522
  0
LINE
  5
3C9
100
AcDbEntity
  8
RACCORDO
100
AcDbLine
 62
253
  6
CONTINUOUS
 10
-156.1306798791
 20
-126.4828800478
 11
-156.1306798791
 21
-126.5614887665
  0
LINE
  5
3CA
100
AcDbEntity
  8
DRAFT
100
AcDbLine
 62
7
  6
CONTINUOUS
 10
-155.9341703604
 20
-138.3828800478
 11
-155.9341703604
 21
-126.5649188529
  0
LINE
  5
3CB
100
AcDbEntity
  8
RACCORDO
100
AcDbLine
 62
7
  6
CONTINUOUS
 10
-155.9341703604
 20
-126.5649188529
 11
-155.9341703604
 21
125.5991587574
  0
LINE
  5
3CC
100
AcDbEntity
  8
ASSI
100
AcDbLine
 62
7
  6
CONTINUOUS
 10
-155.9341703604
 20
-126.4828800478
 11
-155.9341703604
 21
125.5171199522
  0
LINE
  5
3CD
100
AcDbEntity
  8
DRAFT
100
AcDbLine
 62
7
  6
CONTINUOUS
 10
-155.9341703604
 20
125.5991587574
 11
-155.9341703604
 21
137.4171199522
  0
LINE
  5
3CE
100
AcDbEntity
  8
RACCORDO
100
AcDbLine
 62
7
  6
CONTINUOUS
 10
-152.8841703604
 20
133.5171199522
 11
-152.8841703604
 21
-133.6828800478
  0
LINE
  5
3CF
100
AcDbEntity
  8
RACCORDO
100
AcDbLine
 62
253
  6
CONTINUOUS
 10
-151.2270195216
 20
-112.3506198272
 11
-151.2289346385
 21
101.6673212478
  0
LINE
  5
3D0
100
AcDbEntity
  8
RACCORDO
100
AcDbLine
 62
7
  6
CONTINUOUS
 10
-150.9341703604
 20
-113.3007955442
 11
-150.9341703604
 21
101.6673212478
  0
LINE
  5
3D1
100
AcDbEntity
  8
RACCORDO
100
AcDbLine
 62
253
  6
CONTINUOUS
 10
-151.227461646
 20
-113.4502373782
 11
-151.2270195216
 21
-112.3506198272
  0
LINE
  5
3D2
100
AcDbEntity
  8
DRAFT
100
AcDbLine
 62
7
  6
CONTINUOUS
 10
-162.0430670599
 20
-126.495175303
 11
-162.082750907
 21
-130.6048394829
  0
LWPOLYLINE
  5
3D3
100
AcDbEntity
  8
RACCORDO
100
AcDbPolyline
 62
253
  6
CONTINUOUS
 90
5
 70
0
 10
-160.7654085698
 20
-130.7556430119
 10
-160.7602679211
 20
-130.2709095514
 10
-160.7551723242
 20
-129.791354562
 10
-160.7501217792
 20
-129.3169780436
 10
-160.7451542474
 20
-128.8513296269
  0
LWPOLYLINE
  5
3D4
100
AcDbEntity
  8
RACCORDO
100
AcDbPolyline
 62
253
  6
CONTINUOUS
 90
5
 70
0
 10
-161.018495484
 20
-130.7477927182
 10
-161.0132867101
 20
-130.2641575926
 10
-161.0081231095
 20
-129.7856935754
 10
-161.0030050019
 20
-129.3124006664
 10
-160.9979710352
 20
-128.8478124319
  0
LWPOLYLINE
  5
3D5
100
AcDbEntity
  8
RACCORDO
100
AcDbPolyline
 62
253
  6
CONTINUOUS
 90
5
 70
0
 10
-160.7451542474
 20
-128.8513296269
 10
-160.7352404548
 20
-127.9249193149
 10
-160.7301423476
 20
-127.4499588972
 10
-160.7249754076
 20
-126.9695280587
 10
-160.7197396348
 20
-126.4836267995
  0
LWPOLYLINE
  5
3D6
100
AcDbEntity
  8
RACCORDO
100
AcDbPolyline
 62
253
  6
CONTINUOUS
 90
5
 70
0
 10
-160.9979710352
 20
-128.8478124319
 10
-160.9879267814
 20
-127.9235485895
 10
-160.9827625081
 20
-127.4497387172
 10
-160.9775285765
 20
-126.970499255
 10
-160.9722246456
 20
-126.4858302028
  0
LWPOLYLINE
  5
3D7
100
AcDbEntity
  8
RACCORDO
100
AcDbPolyline
 62
7
  6
CONTINUOUS
 90
11
 70
0
 10
-162.082750907
 20
-130.6048394829
 10
-162.0861234227
 20
-130.8015351313
 10
-162.092561942
 20
-130.9982286901
 10
-162.1020597199
 20
-131.1949201594
 10
-162.114602782
 20
-131.391802599
 10
-162.1301819669
 20
-131.5886829491
 10
-162.148792848
 20
-131.7849820299
 10
-162.1703994209
 20
-131.9805573503
 10
-162.1949950257
 20
-132.1755514015
 10
-162.222613752
 20
-132.3698124768
 10
-162.2532564571
 20
-132.5635063117
  0
LWPOLYLINE
  5
3D8
100
AcDbEntity
  8
RACCORDO
100
AcDbPolyline
 62
253
  6
CONTINUOUS
 90
28
 70
0
 10
-151.2289346385
 20
101.6673212478
 10
-151.2276735575
 20
101.7160087346
 10
-151.2237223447
 20
101.7645375498
 10
-151.2170809999
 20
101.8129076932
 10
-151.2077270988
 20
101.8613327019
 10
-151.1956830658
 20
101.9095990389
 10
-151.1810161742
 20
101.9570660934
 10
-151.1636623234
 20
102.0037164684
 10
-151.1436856139
 20
102.049567561
 10
-151.1213456211
 20
102.0940309507
 10
-151.0966378619
 20
102.1370224405
 10
-151.0695668194
 20
102.1786262276
 10
-151.0404055172
 20
102.2185064833
 10
-151.0091786972
 20
102.2566222786
 10
-150.9758616176
 20
102.2930145427
 10
-150.9406530771
 20
102.3274702343
 10
-150.9035209997
 20
102.3600145068
 10
-150.8644974613
 20
102.390622207
 10
-150.8238774886
 20
102.4190048341
 10
-150.7815828756
 20
102.4451682541
 10
-150.7376918283
 20
102.4691066011
 10
-150.6927339908
 20
102.4905137768
 10
-150.64667259
 20
102.509335838
 10
-150.5995443991
 20
102.5256267279
 10
-150.5519893816
 20
102.5392421773
 10
-150.5042208588
 20
102.5501340963
 10
-150.4560255093
 20
102.5583505749
 10
-150.4074033333
 20
102.5638916129
  0
LINE
  5
3D9
100
AcDbEntity
  8
RACCORDO
100
AcDbLine
 62
253
  6
CONTINUOUS
 10
-150.399909643
 20
102.4758888216
 11
-150.4073746015
 21
102.5638941266
  0
LINE
  5
3DA
100
AcDbEntity
  8
RACCORDO
100
AcDbLine
 62
253
  6
CONTINUOUS
 10
-150.3950169719
 20
102.4145977424
 11
-150.399909643
 21
102.4758888216
  0
LINE
  5
3DB
100
AcDbEntity
  8
RACCORDO
100
AcDbLine
 62
253
  6
CONTINUOUS
 10
-150.3910048429
 20
102.360779024
 11
-150.3950169719
 21
102.4145977424
  0
LINE
  5
3DC
100
AcDbEntity
  8
RACCORDO
100
AcDbLine
 62
253
  6
CONTINUOUS
 10
-150.3889205644
 20
102.3304008307
 11
-150.3910048429
 21
102.360779024
  0
LWPOLYLINE
  5
3DD
100
AcDbEntity
  8
RACCORDO
100
AcDbPolyline
 62
253
  6
CONTINUOUS
 90
6
 70
0
 10
-151.2289346385
 20
-113.6007498527
 10
-151.2287167947
 20
-113.5983792048
 10
-151.2285032697
 20
-113.5912746034
 10
-151.2282975537
 20
-113.5794423462
 10
-151.2281055661
 20
-113.562896825
 10
-151.227461646
 20
-113.4502373782
  0
LWPOLYLINE
  5
3DE
100
AcDbEntity
  8
0
100
AcDbPolyline
 62
7
  6
CONTINUOUS
 90
40
 70
0
 10
-164.563575917
 20
-132.4459503787
 10
-164.612083242
 20
-132.7734868299
 10
-164.6518481463
 20
-133.0142062333
 10
-164.695540475
 20
-133.2539621313
 10
-164.7432273608
 20
-133.4924356557
 10
-164.794841671
 20
-133.7293506576
 10
-164.8501820074
 20
-133.9644706689
 10
-164.9093255196
 20
-134.1976035758
 10
-164.9721950579
 20
-134.4282948684
 10
-165.0383577754
 20
-134.6559180594
 10
-165.1078843922
 20
-134.8802122336
 10
-165.1807041881
 20
-135.1007961273
 10
-165.2561721554
 20
-135.3169054673
 10
-165.3342938969
 20
-135.5281627943
 10
-165.4150638099
 20
-135.7343674291
 10
-165.4978200781
 20
-135.9350680232
 10
-165.5824856007
 20
-136.1297942554
 10
-165.6691374786
 20
-136.3184929017
 10
-165.7573451989
 20
-136.5013130909
 10
-165.8472507974
 20
-136.6782108216
 10
-165.9387122383
 20
-136.8485984822
 10
-166.0308729016
 20
-137.0118173124
 10
-166.1237544279
 20
-137.1676556177
 10
-166.2173351766
 20
-137.3158359836
 10
-166.3106936052
 20
-137.4557314606
 10
-166.4037596301
 20
-137.5871231143
 10
-166.496603335
 20
-137.7099465783
 10
-166.588513428
 20
-137.8239270533
 10
-166.6793839535
 20
-137.9288939759
 10
-166.7693208671
 20
-138.0248763294
 10
-166.8579307441
 20
-138.1119169556
 10
-166.9452753041
 20
-138.1900129916
 10
-167.0312928275
 20
-138.2589929472
 10
-167.1154047304
 20
-138.3186847933
 10
-167.1975190321
 20
-138.369065608
 10
-167.2777277132
 20
-138.4101919575
 10
-167.3557281323
 20
-138.4420875204
 10
-167.4314194087
 20
-138.4647950091
 10
-167.5049024229
 20
-138.4783708835
 10
-167.5761771749
 20
-138.4828800478
  0
LWPOLYLINE
  5
3DF
100
AcDbEntity
  8
ASSI
100
AcDbPolyline
 62
7
  6
CONTINUOUS
 90
40
 70
0
 10
-164.563575917
 20
-132.4459503787
 10
-164.612083242
 20
-132.7734868299
 10
-164.6518481463
 20
-133.0142062333
 10
-164.695540475
 20
-133.2539621313
 10
-164.7432273608
 20
-133.4924356557
 10
-164.794841671
 20
-133.7293506576
 10
-164.8501820074
 20
-133.9644706689
 10
-164.9093255196
 20
-134.1976035758
 10
-164.9721950579
 20
-134.4282948684
 10
-165.0383577754
 20
-134.6559180594
 10
-165.1078843922
 20
-134.8802122336
 10
-165.1807041881
 20
-135.1007961273
 10
-165.2561721554
 20
-135.3169054673
 10
-165.3342938969
 20
-135.5281627943
 10
-165.4150638099
 20
-135.7343674291
 10
-165.4978200781
 20
-135.9350680232
 10
-165.5824856007
 20
-136.1297942554
 10
-165.6691374786
 20
-136.3184929017
 10
-165.7573451989
 20
-136.5013130909
 10
-165.8472507974
 20
-136.6782108216
 10
-165.9387122383
 20
-136.8485984822
 10
-166.0308729016
 20
-137.0118173124
 10
-166.1237544279
 20
-137.1676556177
 10
-166.2173351766
 20
-137.3158359836
 10
-166.3106936052
 20
-137.4557314606
 10
-166.4037596301
 20
-137.5871231143
 10
-166.496603335
 20
-137.7099465783
 10
-166.588513428
 20
-137.8239270533
 10
-166.6793839535
 20
-137.9288939759
 10
-166.7693208671
 20
-138.0248763294
 10
-166.8579307441
 20
-138.1119169556
 10
-166.9452753041
 20
-138.1900129916
 10
-167.0312928275
 20
-138.2589929472
 10
-167.1154047304
 20
-138.3186847933
 10
-167.1975190321
 20
-138.369065608
 10
-167.2777277132
 20
-138.4101919575
 10
-167.3557281323
 20
-138.4420875204
 10
-167.4314194087
 20
-138.4647950091
 10
-167.5049024229
 20
-138.4783708835
 10
-167.5761771749
 20
-138.4828800478
  0
LWPOLYLINE
  5
3E0
100
AcDbEntity
  8
0
100
AcDbPolyline
 62
7
  6
CONTINUOUS
 90
10
 70
0
 10
-162.3565929291
 20
-132.895905908
 10
-162.349407291
 20
-132.8516610755
 10
-162.3431419586
 20
-132.8059237144
 10
-162.3377969321
 20
-132.7586876942
 10
-162.3333909775
 20
-132.7099681092
 10
-162.3299053287
 20
-132.6597379444
 10
-162.3272836872
 20
-132.6079277065
 10
-162.3255149068
 20
-132.5545047592
 10
-162.3246101338
 20
-132.4994897786
 10
-162.3244722384
 20
-132.467193531
  0
LWPOLYLINE
  5
3E1
100
AcDbEntity
  8
ASSI
100
AcDbPolyline
 62
7
  6
CONTINUOUS
 90
10
 70
0
 10
-162.3565929291
 20
-132.895905908
 10
-162.349407291
 20
-132.8516610755
 10
-162.3431419586
 20
-132.8059237144
 10
-162.3377969321
 20
-132.7586876942
 10
-162.3333909775
 20
-132.7099681092
 10
-162.3299053287
 20
-132.6597379444
 10
-162.3272836872
 20
-132.6079277065
 10
-162.3255149068
 20
-132.5545047592
 10
-162.3246101338
 20
-132.4994897786
 10
-162.3244722384
 20
-132.467193531
  0
LWPOLYLINE
  5
3E2
100
AcDbEntity
  8
RACCORDO
100
AcDbPolyline
 62
7
  6
CONTINUOUS
 90
11
 70
0
 10
-162.2532578765
 20
131.5977548945
 10
-162.2226152459
 20
131.4040623407
 10
-162.1949965015
 20
131.2098024684
 10
-162.1704008237
 20
131.014809482
 10
-162.1487941062
 20
130.8192343148
 10
-162.1301829605
 20
130.6229339439
 10
-162.1146034385
 20
130.4260513922
 10
-162.1020600952
 20
130.2291666605
 10
-162.0925621353
 20
130.0324730827
 10
-162.0861234908
 20
129.835777325
 10
-162.082750907
 20
129.6390793874
  0
LWPOLYLINE
  5
3E3
100
AcDbEntity
  8
0
100
AcDbPolyline
 62
7
  6
CONTINUOUS
 90
12
 70
0
 10
-164.612082805
 20
131.8077243858
 10
-164.5617301251
 20
131.4684212084
 10
-164.5466838131
 20
131.3724593759
 10
-164.5311068262
 20
131.2784805484
 10
-164.5149332173
 20
131.1867433567
 10
-164.4982289334
 20
131.0970532564
 10
-164.4811918162
 20
131.008757255
 10
-164.4638646361
 20
130.9218650167
 10
-164.4462046227
 20
130.8364089332
 10
-164.4282813058
 20
130.7517595787
 10
-164.4101106803
 20
130.6678858647
 10
-164.3730010639
 20
130.5021443005
  0
LWPOLYLINE
  5
3E4
100
AcDbEntity
  8
ASSI
100
AcDbPolyline
 62
7
  6
CONTINUOUS
 90
12
 70
0
 10
-164.612082805
 20
131.8077243858
 10
-164.5617301251
 20
131.4684212084
 10
-164.5466838131
 20
131.3724593759
 10
-164.5311068262
 20
131.2784805484
 10
-164.5149332173
 20
131.1867433567
 10
-164.4982289334
 20
131.0970532564
 10
-164.4811918162
 20
131.008757255
 10
-164.4638646361
 20
130.9218650167
 10
-164.4462046227
 20
130.8364089332
 10
-164.4282813058
 20
130.7517595787
 10
-164.4101106803
 20
130.6678858647
 10
-164.3730010639
 20
130.5021443005
  0
LINE
  5
3E5
100
AcDbEntity
  8
RACCORDO
100
AcDbLine
 62
253
  6
CONTINUOUS
 10
-131.9237635646
 20
112.7387660595
 11
-131.9229873563
 21
112.6472605586
  0
LINE
  5
3E6
100
AcDbEntity
  8
RACCORDO
100
AcDbLine
 62
7
  6
CONTINUOUS
 10
-131.6316978213
 20
104.3666576379
 11
-131.6306798791
 21
104.2066444208
  0
LINE
  5
3E7
100
AcDbEntity
  8
RACCORDO
100
AcDbLine
 62
253
  6
CONTINUOUS
 10
-131.2356202702
 20
105.6615375323
 11
-131.2354963076
 21
105.6335850181
  0
LINE
  5
3E8
100
AcDbEntity
  8
RACCORDO
100
AcDbLine
 62
253
  6
CONTINUOUS
 10
-131.9229873563
 20
112.6472605586
 11
-131.9221233016
 21
112.406549227
  0
LINE
  5
3E9
100
AcDbEntity
  8
RACCORDO
100
AcDbLine
 62
253
  6
CONTINUOUS
 10
-131.2376608417
 20
105.7136898658
 11
-131.2377286945
 21
105.7512505844
  0
LINE
  5
3EA
100
AcDbEntity
  8
RACCORDO
100
AcDbLine
 62
253
  6
CONTINUOUS
 10
-131.9221233016
 20
112.406549227
 11
-131.9218315222
 21
112.0659087381
  0
LINE
  5
3EB
100
AcDbEntity
  8
RACCORDO
100
AcDbLine
 62
253
  6
CONTINUOUS
 10
-131.9254441572
 20
105.9136594049
 11
-131.9254441572
 21
110.2984268396
  0
LINE
  5
3EC
100
AcDbEntity
  8
RACCORDO
100
AcDbLine
 62
7
  6
CONTINUOUS
 10
-131.4341703604
 20
112.2981222299
 11
-131.4341703604
 21
105.9136594049
  0
LINE
  5
3ED
100
AcDbEntity
  8
RACCORDO
100
AcDbLine
 62
7
  6
CONTINUOUS
 10
-131.4341703604
 20
104.3668046447
 11
-131.4341703604
 21
104.1064151258
  0
LWPOLYLINE
  5
3EE
100
AcDbEntity
  8
RACCORDO
100
AcDbPolyline
 62
253
  6
CONTINUOUS
 90
3
 70
0
 10
-131.2377286915
 20
106.652863907
 10
-131.2376830928
 20
106.9127464029
 10
-131.237686897
 20
110.1918913921
  0
LWPOLYLINE
  5
3EF
100
AcDbEntity
  8
RACCORDO
100
AcDbPolyline
 62
253
  6
CONTINUOUS
 90
6
 70
0
 10
-131.2377286945
 20
105.7512505844
 10
-131.2377785489
 20
106.2222275568
 10
-131.2377700441
 20
106.3182319146
 10
-131.237759411
 20
106.4221128709
 10
-131.2377465635
 20
106.5337513987
 10
-131.2377286915
 20
106.652863907
  0
LINE
  5
3F0
100
AcDbEntity
  8
RACCORDO
100
AcDbLine
 62
253
  6
CONTINUOUS
 10
-131.9218315222
 20
112.0659087381
 11
-131.9222517624
 21
111.5482579293
  0
LINE
  5
3F1
100
AcDbEntity
  8
RACCORDO
100
AcDbLine
 62
253
  6
CONTINUOUS
 10
-131.237686897
 20
110.1918913921
 11
-131.2376608417
 21
112.0981642417
  0
LINE
  5
3F2
100
AcDbEntity
  8
RACCORDO
100
AcDbLine
 62
253
  6
CONTINUOUS
 10
-131.9222517624
 20
111.5482579293
 11
-131.9234838811
 21
110.9454101775
  0
LINE
  5
3F3
100
AcDbEntity
  8
RACCORDO
100
AcDbLine
 62
253
  6
CONTINUOUS
 10
-131.2354963076
 20
105.6335850181
 11
-131.235537705
 21
105.6007233314
  0
LINE
  5
3F4
100
AcDbEntity
  8
RACCORDO
100
AcDbLine
 62
253
  6
CONTINUOUS
 10
-131.9234838811
 20
110.9454101775
 11
-131.9254441572
 21
110.2984268396
  0
LINE
  5
3F5
100
AcDbEntity
  8
RACCORDO
100
AcDbLine
 62
253
  6
CONTINUOUS
 10
-130.1279319082
 20
104.626824931
 11
-130.127884755
 21
104.6395616678
  0
LINE
  5
3F6
100
AcDbEntity
  8
RACCORDO
100
AcDbLine
 62
253
  6
CONTINUOUS
 10
-130.1296564516
 20
105.5025632778
 11
-130.1292631561
 21
105.5825716697
  0
LWPOLYLINE
  5
3F7
100
AcDbEntity
  8
RACCORDO
100
AcDbPolyline
 62
253
  6
CONTINUOUS
 90
3
 70
0
 10
-130.1306798791
 20
105.6943674413
 10
-130.1306502413
 20
105.698487518
 10
-130.1306502377
 20
106.8939780147
  0
LINE
  5
3F8
100
AcDbEntity
  8
RACCORDO
100
AcDbLine
 62
253
  6
CONTINUOUS
 10
-131.235537705
 20
105.6007233314
 11
-131.2359068247
 21
105.5438572591
  0
LINE
  5
3F9
100
AcDbEntity
  8
RACCORDO
100
AcDbLine
 62
253
  6
CONTINUOUS
 10
-130.1306798791
 20
105.3944131327
 11
-130.1296564516
 21
105.5025632778
  0
LINE
  5
3FA
100
AcDbEntity
  8
RACCORDO
100
AcDbLine
 62
253
  6
CONTINUOUS
 10
-131.2359068247
 20
105.5438572591
 11
-131.2369386285
 21
105.4584327738
  0
LINE
  5
3FB
100
AcDbEntity
  8
RACCORDO
100
AcDbLine
 62
253
  6
CONTINUOUS
 10
-131.2369386285
 20
105.4584327738
 11
-131.2376608417
 21
105.4137355573
  0
LWPOLYLINE
  5
3FC
100
AcDbEntity
  8
RACCORDO
100
AcDbPolyline
 62
253
  6
CONTINUOUS
 90
63
 70
0
 10
-131.6301624602
 20
104.3986121929
 10
-131.6291220704
 20
104.4197836391
 10
-131.6284307961
 20
104.43033889
 10
-131.627539424
 20
104.440882182
 10
-131.6264878782
 20
104.4514076606
 10
-131.6252575689
 20
104.461905266
 10
-131.6238466377
 20
104.4723750866
 10
-131.6222569431
 20
104.4828170342
 10
-131.6204754705
 20
104.4932207845
 10
-131.6185006396
 20
104.5035871542
 10
-131.6163340308
 20
104.5139153266
 10
-131.6139673707
 20
104.5241925281
 10
-131.6113993588
 20
104.5344193101
 10
-131.6086312956
 20
104.5445951212
 10
-131.6056588095
 20
104.5547055336
 10
-131.6024812498
 20
104.5647499303
 10
-131.599099267
 20
104.5747289283
 10
-131.5955104412
 20
104.5846299505
 10
-131.5917138605
 20
104.5944537632
 10
-131.5877104367
 20
104.6041996002
 10
-131.5835004849
 20
104.6138525847
 10
-131.5790835055
 20
104.6234126124
 10
-131.5744599982
 20
104.6328797876
 10
-131.5696317759
 20
104.6422395477
 10
-131.5645986084
 20
104.6514916703
 10
-131.559360726
 20
104.6606363776
 10
-131.5539206326
 20
104.6696597742
 10
-131.5482777805
 20
104.6785623432
 10
-131.5424327173
 20
104.6873436014
 10
-131.53638959
 20
104.6959882037
 10
-131.5301478054
 20
104.704496589
 10
-131.5237079566
 20
104.7128683184
 10
-131.5170759693
 20
104.721086729
 10
-131.5102517638
 20
104.7291517137
 10
-131.5032354198
 20
104.7370633797
 10
-131.4960331027
 20
104.7448053852
 10
-131.4886447182
 20
104.7523779305
 10
-131.4810703606
 20
104.7597808154
 10
-131.4733164779
 20
104.7669970974
 10
-131.4653824945
 20
104.7740275468
 10
-131.4572689861
 20
104.7808713933
 10
-131.448984128
 20
104.7875093845
 10
-131.4405274126
 20
104.7939422523
 10
-131.4318993476
 20
104.8001692649
 10
-131.4231096316
 20
104.8061689743
 10
-131.414157739
 20
104.8119422294
 10
-131.4050441953
 20
104.8174881814
 10
-131.3957802768
 20
104.8227828357
 10
-131.3863655823
 20
104.8278271336
 10
-131.3768005129
 20
104.8326201337
 10
-131.3670975476
 20
104.8371350181
 10
-131.3572544615
 20
104.8413733437
 10
-131.3472734795
 20
104.8453335535
 10
-131.3371737558
 20
104.8489841582
 10
-131.3269528328
 20
104.8523258118
 10
-131.3166131679
 20
104.8553578603
 10
-131.3061812883
 20
104.858046853
 10
-131.2956543118
 20
104.8603918779
 10
-131.2850351206
 20
104.8623938469
 10
-131.2743588877
 20
104.8640220458
 10
-131.2636373376
 20
104.8652662364
 10
-131.2528587459
 20
104.8661366569
 10
-131.2420231126
 20
104.8666333072
  0
LINE
  5
3FD
100
AcDbEntity
  8
RACCORDO
100
AcDbLine
 62
253
  6
CONTINUOUS
 10
-131.6316978213
 20
104.3666576379
 11
-131.6301624602
 21
104.3986121929
  0
LINE
  5
3FE
100
AcDbEntity
  8
RACCORDO
100
AcDbLine
 62
7
  6
CONTINUOUS
 10
-162.2532564571
 20
-132.5635063117
 11
-162.2868581131
 21
-132.7564671708
  0
LINE
  5
3FF
100
AcDbEntity
  8
RACCORDO
100
AcDbLine
 62
7
  6
CONTINUOUS
 10
-162.2868581131
 20
-132.7564671708
 11
-162.3233486854
 21
-132.9480461412
  0
LWPOLYLINE
  5
400
100
AcDbEntity
  8
RACCORDO
100
AcDbPolyline
 62
7
  6
CONTINUOUS
 90
10
 70
0
 10
-162.3233486854
 20
-132.9480461412
 10
-162.3626596872
 20
-133.1381207781
 10
-162.4047760841
 20
-133.3268135263
 10
-162.449702464
 20
-133.5138428063
 10
-162.4974124046
 20
-133.6992936389
 10
-162.5478255103
 20
-133.8830810033
 10
-162.6008596321
 20
-134.0646682582
 10
-162.6564451399
 20
-134.243876523
 10
-162.7145243856
 20
-134.4208846783
 10
-162.7713505761
 20
-134.585067333
  0
LWPOLYLINE
  5
401
100
AcDbEntity
  8
0
100
AcDbPolyline
 62
7
  6
CONTINUOUS
 90
10
 70
0
 10
-164.4323763131
 20
-131.7365766643
 10
-164.4481074945
 20
-131.8112646783
 10
-164.4636091634
 20
-131.8865883097
 10
-164.4788659386
 20
-131.962557392
 10
-164.4938335932
 20
-132.0396942779
 10
-164.5085430804
 20
-132.1179779219
 10
-164.5229634471
 20
-132.197398743
 10
-164.5369576072
 20
-132.278488526
 10
-164.5504798654
 20
-132.3614079222
 10
-164.563575917
 20
-132.4459503787
  0
LWPOLYLINE
  5
402
100
AcDbEntity
  8
ASSI
100
AcDbPolyline
 62
7
  6
CONTINUOUS
 90
10
 70
0
 10
-164.4323763131
 20
-131.7365766643
 10
-164.4481074945
 20
-131.8112646783
 10
-164.4636091634
 20
-131.8865883097
 10
-164.4788659386
 20
-131.962557392
 10
-164.4938335932
 20
-132.0396942779
 10
-164.5085430804
 20
-132.1179779219
 10
-164.5229634471
 20
-132.197398743
 10
-164.5369576072
 20
-132.278488526
 10
-164.5504798654
 20
-132.3614079222
 10
-164.563575917
 20
-132.4459503787
  0
LINE
  5
403
100
AcDbEntity
  8
0
100
AcDbLine
 62
7
  6
CONTINUOUS
 10
-164.4001773529
 20
-131.5887328672
 11
-164.4323763131
 21
-131.7365766643
  0
LINE
  5
404
100
AcDbEntity
  8
ASSI
100
AcDbLine
 62
7
  6
CONTINUOUS
 10
-164.4001773529
 20
-131.5887328672
 11
-164.4323763131
 21
-131.7365766643
  0
LINE
  5
405
100
AcDbEntity
  8
0
100
AcDbLine
 62
7
  6
CONTINUOUS
 10
-164.3669816955
 20
-131.4415795229
 11
-164.4001773529
 21
-131.5887328672
  0
LINE
  5
406
100
AcDbEntity
  8
ASSI
100
AcDbLine
 62
7
  6
CONTINUOUS
 10
-164.3669816955
 20
-131.4415795229
 11
-164.4001773529
 21
-131.5887328672
  0
LINE
  5
407
100
AcDbEntity
  8
0
100
AcDbLine
 62
7
  6
CONTINUOUS
 10
-164.3328190651
 20
-131.2944089898
 11
-164.3669816955
 21
-131.4415795229
  0
LINE
  5
408
100
AcDbEntity
  8
ASSI
100
AcDbLine
 62
7
  6
CONTINUOUS
 10
-164.3328190651
 20
-131.2944089898
 11
-164.3669816955
 21
-131.4415795229
  0
LINE
  5
409
100
AcDbEntity
  8
0
100
AcDbLine
 62
7
  6
CONTINUOUS
 10
-164.2799763951
 20
-131.0732213597
 11
-164.3328190651
 21
-131.2944089898
  0
LINE
  5
40A
100
AcDbEntity
  8
ASSI
100
AcDbLine
 62
7
  6
CONTINUOUS
 10
-164.2799763951
 20
-131.0732213597
 11
-164.3328190651
 21
-131.2944089898
  0
LINE
  5
40B
100
AcDbEntity
  8
0
100
AcDbLine
 62
7
  6
CONTINUOUS
 10
-164.2074851077
 20
-130.7779894816
 11
-164.2799763951
 21
-131.0732213597
  0
LINE
  5
40C
100
AcDbEntity
  8
ASSI
100
AcDbLine
 62
7
  6
CONTINUOUS
 10
-164.2074851077
 20
-130.7779894816
 11
-164.2799763951
 21
-131.0732213597
  0
LINE
  5
40D
100
AcDbEntity
  8
0
100
AcDbLine
 62
7
  6
CONTINUOUS
 10
-164.1339026365
 20
-130.4828800478
 11
-164.2074851077
 21
-130.7779894816
  0
LINE
  5
40E
100
AcDbEntity
  8
ASSI
100
AcDbLine
 62
7
  6
CONTINUOUS
 10
-164.1339026365
 20
-130.4828800478
 11
-164.2074851077
 21
-130.7779894816
  0
LINE
  5
40F
100
AcDbEntity
  8
0
100
AcDbLine
 62
7
  6
CONTINUOUS
 10
-164.2361686878
 20
129.9281878976
 11
-164.1339026365
 21
129.5171199522
  0
LINE
  5
410
100
AcDbEntity
  8
ASSI
100
AcDbLine
 62
7
  6
CONTINUOUS
 10
-164.2361686878
 20
129.9281878976
 11
-164.1339026365
 21
129.5171199522
  0
LINE
  5
411
100
AcDbEntity
  8
0
100
AcDbLine
 62
7
  6
CONTINUOUS
 10
-164.2959673562
 20
130.1737070402
 11
-164.2361686878
 21
129.9281878976
  0
LINE
  5
412
100
AcDbEntity
  8
ASSI
100
AcDbLine
 62
7
  6
CONTINUOUS
 10
-164.2959673562
 20
130.1737070402
 11
-164.2361686878
 21
129.9281878976
  0
LINE
  5
413
100
AcDbEntity
  8
0
100
AcDbLine
 62
7
  6
CONTINUOUS
 10
-164.3349137281
 20
130.3376258311
 11
-164.2959673562
 21
130.1737070402
  0
LINE
  5
414
100
AcDbEntity
  8
ASSI
100
AcDbLine
 62
7
  6
CONTINUOUS
 10
-164.3349137281
 20
130.3376258311
 11
-164.2959673562
 21
130.1737070402
  0
LINE
  5
415
100
AcDbEntity
  8
0
100
AcDbLine
 62
7
  6
CONTINUOUS
 10
-164.3730010639
 20
130.5021443005
 11
-164.3349137281
 21
130.3376258311
  0
LINE
  5
416
100
AcDbEntity
  8
ASSI
100
AcDbLine
 62
7
  6
CONTINUOUS
 10
-164.3730010639
 20
130.5021443005
 11
-164.3349137281
 21
130.3376258311
  0
LWPOLYLINE
  5
417
100
AcDbEntity
  8
RACCORDO
100
AcDbPolyline
 62
7
  6
CONTINUOUS
 90
3
 70
0
 10
-162.3233499252
 20
131.9822923402
 10
-162.2868594043
 20
131.7907143342
 10
-162.2532578765
 20
131.5977548945
  0
LWPOLYLINE
  5
418
100
AcDbEntity
  8
0
100
AcDbPolyline
 62
7
  6
CONTINUOUS
 90
37
 70
0
 10
-162.3565929291
 20
131.9301458124
 10
-162.402975081
 20
132.1781023224
 10
-162.4539109629
 20
132.4243109581
 10
-162.5093209768
 20
132.6687717195
 10
-162.5691168359
 20
132.911812564
 10
-162.6332043363
 20
133.1531055342
 10
-162.7014832189
 20
133.3916667577
 10
-162.7738909985
 20
133.6275844407
 10
-162.8502590951
 20
133.860770377
 10
-162.9303198629
 20
134.0899760762
 10
-163.013998927
 20
134.3152478078
 10
-163.1010992573
 20
134.5365393023
 10
-163.1911716556
 20
134.7524632607
 10
-163.2841302626
 20
134.9630232603
 10
-163.3797651029
 20
135.1682157238
 10
-163.477459186
 20
135.3666426207
 10
-163.5771119812
 20
135.5582537645
 10
-163.6785273422
 20
135.7430993417
 10
-163.7809819266
 20
135.9199318815
 10
-163.8843650221
 20
136.0886594624
 10
-163.9885157901
 20
136.2493740058
 10
-164.0926895209
 20
136.4011038047
 10
-164.1967763471
 20
136.5437388985
 10
-164.3006616029
 20
136.6773892478
 10
-164.4036579464
 20
136.801413028
 10
-164.5056697345
 20
136.9157060884
 10
-164.606628345
 20
137.0203725796
 10
-164.7059546719
 20
137.1150831285
 10
-164.8035779616
 20
137.1997547194
 10
-164.8994687829
 20
137.2744703679
 10
-164.9931743764
 20
137.3391497479
 10
-165.0846542297
 20
137.3937358538
 10
-165.1739093765
 20
137.4382856911
 10
-165.2606065484
 20
137.4728899506
 10
-165.3446507209
 20
137.4975788623
 10
-165.4261558462
 20
137.5123221962
 10
-165.5051287876
 20
137.5171199522
  0
LWPOLYLINE
  5
419
100
AcDbEntity
  8
ASSI
100
AcDbPolyline
 62
7
  6
CONTINUOUS
 90
37
 70
0
 10
-162.3565929291
 20
131.9301458124
 10
-162.402975081
 20
132.1781023224
 10
-162.4539109629
 20
132.4243109581
 10
-162.5093209768
 20
132.6687717195
 10
-162.5691168359
 20
132.911812564
 10
-162.6332043363
 20
133.1531055342
 10
-162.7014832189
 20
133.3916667577
 10
-162.7738909985
 20
133.6275844407
 10
-162.8502590951
 20
133.860770377
 10
-162.9303198629
 20
134.0899760762
 10
-163.013998927
 20
134.3152478078
 10
-163.1010992573
 20
134.5365393023
 10
-163.1911716556
 20
134.7524632607
 10
-163.2841302626
 20
134.9630232603
 10
-163.3797651029
 20
135.1682157238
 10
-163.477459186
 20
135.3666426207
 10
-163.5771119812
 20
135.5582537645
 10
-163.6785273422
 20
135.7430993417
 10
-163.7809819266
 20
135.9199318815
 10
-163.8843650221
 20
136.0886594624
 10
-163.9885157901
 20
136.2493740058
 10
-164.0926895209
 20
136.4011038047
 10
-164.1967763471
 20
136.5437388985
 10
-164.3006616029
 20
136.6773892478
 10
-164.4036579464
 20
136.801413028
 10
-164.5056697345
 20
136.9157060884
 10
-164.606628345
 20
137.0203725796
 10
-164.7059546719
 20
137.1150831285
 10
-164.8035779616
 20
137.1997547194
 10
-164.8994687829
 20
137.2744703679
 10
-164.9931743764
 20
137.3391497479
 10
-165.0846542297
 20
137.3937358538
 10
-165.1739093765
 20
137.4382856911
 10
-165.2606065484
 20
137.4728899506
 10
-165.3446507209
 20
137.4975788623
 10
-165.4261558462
 20
137.5123221962
 10
-165.5051287876
 20
137.5171199522
  0
LINE
  5
41A
100
AcDbEntity
  8
RACCORDO
100
AcDbLine
 62
253
  6
CONTINUOUS
 10
-131.6306798791
 20
104.2066444208
 11
-131.6234685209
 21
104.0767485813
  0
LINE
  5
41B
100
AcDbEntity
  8
RACCORDO
100
AcDbLine
 62
253
  6
CONTINUOUS
 10
-131.6234685209
 20
104.0767485813
 11
-131.6197632678
 21
104.0030240041
  0
LINE
  5
41C
100
AcDbEntity
  8
RACCORDO
100
AcDbLine
 62
253
  6
CONTINUOUS
 10
-131.6197632678
 20
104.0030240041
 11
-131.6178104998
 21
103.959293965
  0
LWPOLYLINE
  5
41D
100
AcDbEntity
  8
RACCORDO
100
AcDbPolyline
 62
253
  6
CONTINUOUS
 90
8
 70
0
 10
-131.6178104998
 20
103.959293965
 10
-131.6169597262
 20
103.9369120988
 10
-131.6166763554
 20
103.9279511674
 10
-131.6164915825
 20
103.920546143
 10
-131.6164053344
 20
103.9147383058
 10
-131.616417796
 20
103.9105600504
 10
-131.6165294003
 20
103.908034646
 10
-131.6167392118
 20
103.9071761862
  0
LWPOLYLINE
  5
41E
100
AcDbEntity
  8
RACCORDO
100
AcDbPolyline
 62
253
  6
CONTINUOUS
 90
8
 70
0
 10
-130.1297443502
 20
105.6784670999
 10
-130.1298513481
 20
105.6826618402
 10
-130.1299676612
 20
105.6862226236
 10
-130.1300928623
 20
105.689143652
 10
-130.1302270767
 20
105.6914228108
 10
-130.130370062
 20
105.6930557003
 10
-130.1305211613
 20
105.6940379257
 10
-130.1306798791
 20
105.6943674413
  0
LWPOLYLINE
  5
41F
100
AcDbEntity
  8
RACCORDO
100
AcDbPolyline
 62
253
  6
CONTINUOUS
 90
10
 70
0
 10
-131.2376608417
 20
112.0981642417
 10
-131.2381385668
 20
112.1176085665
 10
-131.2387740239
 20
112.1347684413
 10
-131.2395672129
 20
112.1497985062
 10
-131.2405936425
 20
112.1628499827
 10
-131.241777804
 20
112.1740667408
 10
-131.2428931717
 20
112.1835852906
 10
-131.2438886822
 20
112.1915404532
 10
-131.2448153989
 20
112.1980640947
 10
-131.2462179969
 20
112.2073128113
  0
LINE
  5
420
100
AcDbEntity
  8
RACCORDO
100
AcDbLine
 62
253
  6
CONTINUOUS
 10
-131.239943327
 20
104.778261223
 11
-131.2420231125
 21
104.8666333072
  0
LINE
  5
421
100
AcDbEntity
  8
RACCORDO
100
AcDbLine
 62
253
  6
CONTINUOUS
 10
-131.2388015477
 20
104.7167230724
 11
-131.239943327
 21
104.778261223
  0
LINE
  5
422
100
AcDbEntity
  8
RACCORDO
100
AcDbLine
 62
253
  6
CONTINUOUS
 10
-130.1295593785
 20
105.6681984647
 11
-130.1297443502
 21
105.6784670999
  0
LINE
  5
423
100
AcDbEntity
  8
RACCORDO
100
AcDbLine
 62
253
  6
CONTINUOUS
 10
-130.1290189775
 20
104.7869103861
 11
-130.1306798791
 21
104.895734854
  0
LINE
  5
424
100
AcDbEntity
  8
RACCORDO
100
AcDbLine
 62
253
  6
CONTINUOUS
 10
-130.1294142533
 20
105.6554562969
 11
-130.1295593785
 21
105.6681984647
  0
LINE
  5
425
100
AcDbEntity
  8
RACCORDO
100
AcDbLine
 62
253
  6
CONTINUOUS
 10
-130.1282189686
 20
104.7135990827
 11
-130.1290189775
 21
104.7869103861
  0
LWPOLYLINE
  5
426
100
AcDbEntity
  8
RACCORDO
100
AcDbPolyline
 62
253
  6
CONTINUOUS
 90
3
 70
0
 10
-131.2379450323
 20
104.6468407447
 10
-131.2380834039
 20
104.6626979879
 10
-131.2388015477
 20
104.7167230724
  0
LINE
  5
427
100
AcDbEntity
  8
RACCORDO
100
AcDbLine
 62
253
  6
CONTINUOUS
 10
-130.1292752751
 20
105.6318733554
 11
-130.1294142533
 21
105.6554562969
  0
LINE
  5
428
100
AcDbEntity
  8
RACCORDO
100
AcDbLine
 62
253
  6
CONTINUOUS
 10
-130.1279080338
 20
104.663204549
 11
-130.1282189686
 21
104.7135990827
  0
LINE
  5
429
100
AcDbEntity
  8
RACCORDO
100
AcDbLine
 62
253
  6
CONTINUOUS
 10
-130.1306798791
 20
104.895734854
 11
-130.1306798791
 21
105.3944131327
  0
LINE
  5
42A
100
AcDbEntity
  8
RACCORDO
100
AcDbLine
 62
253
  6
CONTINUOUS
 10
-130.1306502377
 20
106.8939780147
 11
-130.1306798791
 21
110.040057591
  0
LINE
  5
42B
100
AcDbEntity
  8
RACCORDO
100
AcDbLine
 62
253
  6
CONTINUOUS
 10
-130.1305920409
 20
111.2427048997
 11
-130.1306798791
 21
112.1927728493
  0
LINE
  5
42C
100
AcDbEntity
  8
RACCORDO
100
AcDbLine
 62
7
  6
CONTINUOUS
 10
-129.9341703604
 20
104.7957462755
 11
-129.9341703604
 21
111.9928034697
  0
LINE
  5
42D
100
AcDbEntity
  8
SMUSSO
100
AcDbLine
 62
7
  6
CONTINUOUS
 10
-129.6341703604
 20
-124.9828800478
 11
-129.6341703604
 21
-120.9828800478
  0
LINE
  5
42E
100
AcDbEntity
  8
SMUSSO
100
AcDbLine
 62
7
  6
CONTINUOUS
 10
-129.6341703604
 20
120.0171199522
 11
-129.6341703604
 21
124.0171199522
  0
LINE
  5
42F
100
AcDbEntity
  8
SMUSSO
100
AcDbLine
 62
7
  6
CONTINUOUS
 10
-129.2341703604
 20
-124.5828800478
 11
-129.2341703604
 21
-121.3828800478
  0
LINE
  5
430
100
AcDbEntity
  8
0
100
AcDbLine
 62
7
  6
CONTINUOUS
 10
-129.2341703604
 20
-124.9828800478
 11
-129.2341703604
 21
-120.9828800478
  0
LINE
  5
431
100
AcDbEntity
  8
SMUSSO
100
AcDbLine
 62
7
  6
CONTINUOUS
 10
-129.2341703604
 20
120.4171199522
 11
-129.2341703604
 21
123.6171199522
  0
LINE
  5
432
100
AcDbEntity
  8
0
100
AcDbLine
 62
7
  6
CONTINUOUS
 10
-129.2341703604
 20
120.0171199522
 11
-129.2341703604
 21
124.0171199522
  0
LWPOLYLINE
  5
433
100
AcDbEntity
  8
RACCORDO
100
AcDbPolyline
 62
253
  6
CONTINUOUS
 90
6
 70
0
 10
-130.1306596616
 20
110.1732210869
 10
-130.1306193697
 20
110.4206048402
 10
-130.1306035746
 20
110.5345910202
 10
-130.130592036
 20
110.6418970799
 10
-130.1305825641
 20
110.7422875419
 10
-130.1305920409
 20
111.2427048997
  0
LINE
  5
434
100
AcDbEntity
  8
RACCORDO
100
AcDbLine
 62
253
  6
CONTINUOUS
 10
-130.1306798791
 20
110.040057591
 11
-130.1306596616
 21
110.1732210869
  0
LINE
  5
435
100
AcDbEntity
  8
RACCORDO
100
AcDbLine
 62
253
  6
CONTINUOUS
 10
-130.127884755
 20
104.6395616678
 11
-130.1279080338
 21
104.663204549
  0
LWPOLYLINE
  5
436
100
AcDbEntity
  8
RACCORDO
100
AcDbPolyline
 62
253
  6
CONTINUOUS
 90
3
 70
0
 10
-130.1292631561
 20
105.5825716697
 10
-130.1292439152
 20
105.5932273123
 10
-130.1292752751
 20
105.6318733554
  0
LWPOLYLINE
  5
437
100
AcDbEntity
  8
RACCORDO
100
AcDbPolyline
 62
7
  6
CONTINUOUS
 90
10
 70
0
 10
-162.7713504832
 20
133.6193069809
 10
-162.7145244521
 20
133.455124686
 10
-162.6564453551
 20
133.2781170288
 10
-162.6008600798
 20
133.0989096752
 10
-162.5478263637
 20
132.9173240914
 10
-162.4974137515
 20
132.7335388113
 10
-162.4497041268
 20
132.5480894359
 10
-162.4047777058
 20
132.3610602787
 10
-162.3626610813
 20
132.1723670263
 10
-162.3233499252
 20
131.9822923402
  0
LWPOLYLINE
  5
438
100
AcDbEntity
  8
RACCORDO
100
AcDbPolyline
 62
253
  6
CONTINUOUS
 90
3
 70
0
 10
-131.2462179969
 20
112.2073128113
 10
-131.2466938784
 20
112.210276177
 10
-131.2470276299
 20
112.2122833292
  0
LWPOLYLINE
  5
439
100
AcDbEntity
  8
RACCORDO
100
AcDbPolyline
 62
253
  6
CONTINUOUS
 90
6
 70
0
 10
-131.9254441572
 20
112.7980460775
 10
-131.9250762249
 20
112.7956601275
 10
-131.9247204671
 20
112.788520277
 10
-131.9243802489
 20
112.7766407805
 10
-131.924061035
 20
112.7600453839
 10
-131.9237635646
 20
112.7387660595
  0
LWPOLYLINE
  5
43A
100
AcDbEntity
  8
RACCORDO
100
AcDbPolyline
 62
253
  6
CONTINUOUS
 90
9
 70
0
 10
-131.2376608417
 20
105.7136898658
 10
-131.2372840314
 20
105.7128446249
 10
-131.2369386288
 20
105.710327293
 10
-131.2366265629
 20
105.7061519426
 10
-131.2363495752
 20
105.700341915
 10
-131.236109214
 20
105.6929296896
 10
-131.2359068253
 20
105.6839567024
 10
-131.2357435403
 20
105.6734731147
 10
-131.2356202702
 20
105.6615375323
  0
LWPOLYLINE
  5
43B
100
AcDbEntity
  8
RACCORDO
100
AcDbPolyline
 62
253
  6
CONTINUOUS
 90
44
 70
0
 10
-163.1324307825
 20
-136.3073394938
 10
-163.046353975
 20
-136.1744817704
 10
-162.9620739036
 20
-136.0372740602
 10
-162.8795740419
 20
-135.8958003864
 10
-162.7988241865
 20
-135.7500104063
 10
-162.7199497337
 20
-135.6001722719
 10
-162.6430409037
 20
-135.4465333172
 10
-162.568079388
 20
-135.2890763845
 10
-162.4950985582
 20
-135.1278767179
 10
-162.424473533
 20
-134.9637386045
 10
-162.3566249303
 20
-134.7976396337
 10
-162.2915333832
 20
-134.629652686
 10
-162.2292607363
 20
-134.4600928735
 10
-162.1702259837
 20
-134.290323147
 10
-162.1144770128
 20
-134.1208594109
 10
-162.0619818664
 20
-133.9520155621
 10
-162.0129797372
 20
-133.7850242744
 10
-161.9673707451
 20
-133.6200841826
 10
-161.9250410789
 20
-133.4573898926
 10
-161.8861019941
 20
-133.2981209845
 10
-161.8504484745
 20
-133.1426756628
 10
-161.8178574749
 20
-132.9909865368
 10
-161.7882151558
 20
-132.8435517522
 10
-161.7614043774
 20
-132.7007775467
 10
-161.737222468
 20
-132.5625901348
 10
-161.7154269632
 20
-132.4287121926
 10
-161.6958690642
 20
-132.2992295614
 10
-161.6783945162
 20
-132.1741448538
 10
-161.6627774957
 20
-132.0529936148
 10
-161.6488974549
 20
-131.9358494173
 10
-161.636630673
 20
-131.8227055489
 10
-161.625786936
 20
-131.7129801168
 10
-161.6162737906
 20
-131.6067435189
 10
-161.6079997535
 20
-131.5040056202
 10
-161.600815451
 20
-131.4040843161
 10
-161.5946517864
 20
-131.3070191645
 10
-161.5894426297
 20
-131.2128200533
 10
-161.5850792554
 20
-131.1207530427
 10
-161.5815122781
 20
-131.0308631786
 10
-161.5786939949
 20
-130.9431398618
 10
-161.576553864
 20
-130.8567624118
 10
-161.5750574275
 20
-130.7714656304
 10
-161.5741866785
 20
-130.6875394958
 10
-161.5744355187
 20
-126.4910856175
  0
LWPOLYLINE
  5
43C
100
AcDbEntity
  8
RACCORDO
100
AcDbPolyline
 62
253
  6
CONTINUOUS
 90
13
 70
0
 10
-163.0448987331
 20
135.2064133989
 10
-163.1310463256
 20
135.339499548
 10
-163.2185329616
 20
135.4673749855
 10
-163.3065330305
 20
135.588815157
 10
-163.39496663
 20
135.7037034388
 10
-163.4835383427
 20
135.8116837753
 10
-163.5711294844
 20
135.9115842196
 10
-163.6575988158
 20
136.0034984577
 10
-163.7427270528
 20
136.087406494
 10
-163.825313503
 20
136.1624593596
 10
-163.9052554955
 20
136.2289963287
 10
-163.9824961003
 20
136.2873955627
 10
-164.0427851317
 20
136.3284176977
  0
LINE
  5
43D
100
AcDbEntity
  8
RACCORDO
100
AcDbLine
 62
7
  6
CONTINUOUS
 10
-131.6167392118
 20
103.9071761862
 11
-150.386463806
 21
102.2650380667
  0
LINE
  5
43E
100
AcDbEntity
  8
RACCORDO
100
AcDbLine
 62
253
  6
CONTINUOUS
 10
-131.6306798791
 20
104.2066444208
 11
-150.4074033333
 21
102.5638916129
  0
LINE
  5
43F
100
AcDbEntity
  8
RACCORDO
100
AcDbLine
 62
253
  6
CONTINUOUS
 10
-150.9341703604
 20
101.667321248
 11
-151.2289346385
 21
101.6673212479
  0
LINE
  5
440
100
AcDbEntity
  8
SMUSSO
100
AcDbLine
 62
7
  6
CONTINUOUS
 10
-129.2341703604
 20
-124.5828800478
 11
-129.6341703604
 21
-124.9828800478
  0
LWPOLYLINE
  5
441
100
AcDbEntity
  8
RACCORDO
100
AcDbPolyline
 62
253
  6
CONTINUOUS
 90
12
 70
0
 10
-164.0427731988
 20
-137.2941604066
 10
-163.9829648397
 20
-137.2534920033
 10
-163.9057918802
 20
-137.1951821334
 10
-163.8259238941
 20
-137.1287504625
 10
-163.7434181203
 20
-137.0538206878
 10
-163.6583757792
 20
-136.9700538923
 10
-163.5719983248
 20
-136.8783009594
 10
-163.4845076304
 20
-136.7785868477
 10
-163.396041968
 20
-136.6708168542
 10
-163.3077119617
 20
-136.5561534811
 10
-163.2198173996
 20
-136.4349588606
 10
-163.1324307825
 20
-136.3073394938
  0
LINE
  5
442
100
AcDbEntity
  8
RACCORDO
100
AcDbLine
 62
7
  6
CONTINUOUS
 10
-130.1289349707
 20
104.5958148105
 11
-131.23940575
 21
104.5667361097
  0
LINE
  5
443
100
AcDbEntity
  8
RACCORDO
100
AcDbLine
 62
253
  6
CONTINUOUS
 10
-131.2420231126
 20
104.8666333072
 11
-130.1306798791
 21
104.895734854
  0
LINE
  5
444
100
AcDbEntity
  8
RACCORDO
100
AcDbLine
 62
253
  6
CONTINUOUS
 10
-131.4341703604
 20
104.2066444208
 11
-131.6306798791
 21
104.2066444208
  0
LINE
  5
445
100
AcDbEntity
  8
RACCORDO
100
AcDbLine
 62
253
  6
CONTINUOUS
 10
-131.4341703604
 20
104.3668046447
 11
-131.6327196896
 21
104.3668046775
  0
LINE
  5
446
100
AcDbEntity
  8
RACCORDO
100
AcDbLine
 62
253
  6
CONTINUOUS
 10
-130.1306798791
 20
104.895734854
 11
-129.9341703604
 21
104.895734854
  0
LINE
  5
447
100
AcDbEntity
  8
RACCORDO
100
AcDbLine
 62
253
  6
CONTINUOUS
 10
-130.1306798791
 20
105.3944131327
 11
-129.9341703604
 21
105.3944131327
  0
LINE
  5
448
100
AcDbEntity
  8
RACCORDO
100
AcDbLine
 62
253
  6
CONTINUOUS
 10
-131.4341703604
 20
105.9136594049
 11
-131.9254441572
 21
105.913659404
  0
LINE
  5
449
100
AcDbEntity
  8
RACCORDO
100
AcDbLine
 62
253
  6
CONTINUOUS
 10
-131.4341703604
 20
110.2984268396
 11
-131.9254441572
 21
110.2984268396
  0
LINE
  5
44A
100
AcDbEntity
  8
RACCORDO
100
AcDbLine
 62
253
  6
CONTINUOUS
 10
-130.1306798791
 20
110.040057591
 11
-131.2376608417
 21
110.0592324032
  0
LINE
  5
44B
100
AcDbEntity
  8
RACCORDO
100
AcDbLine
 62
253
  6
CONTINUOUS
 10
-130.1306798791
 20
111.375505772
 11
-131.2376608417
 21
111.3946798823
  0
LINE
  5
44C
100
AcDbEntity
  8
RACCORDO
100
AcDbLine
 62
253
  6
CONTINUOUS
 10
-131.2486031113
 20
105.4139223597
 11
-130.1306798791
 21
105.3944131327
  0
LINE
  5
44D
100
AcDbEntity
  8
RACCORDO
100
AcDbLine
 62
7
  6
CONTINUOUS
 10
-131.2376608417
 20
105.7136898658
 11
-130.1306798791
 21
105.6943674413
  0
LINE
  5
44E
100
AcDbEntity
  8
RACCORDO
100
AcDbLine
 62
253
  6
CONTINUOUS
 10
-131.2376608417
 20
107.0532317782
 11
-130.1306798791
 21
107.0339093536
  0
LINE
  5
44F
100
AcDbEntity
  8
RACCORDO
100
AcDbLine
 62
253
  6
CONTINUOUS
 10
-131.9254441572
 20
110.2984268396
 11
-152.8841703604
 21
110.6642627663
  0
LINE
  5
450
100
AcDbEntity
  8
RACCORDO
100
AcDbLine
 62
7
  6
CONTINUOUS
 10
-130.1306798791
 20
112.1927728493
 11
-131.2470276299
 21
112.2122833292
  0
LINE
  5
451
100
AcDbEntity
  8
RACCORDO
100
AcDbLine
 62
7
  6
CONTINUOUS
 10
-131.9254441572
 20
112.7980460775
 11
-152.8841703604
 21
113.1638820042
  0
LINE
  5
452
100
AcDbEntity
  8
RACCORDO
100
AcDbLine
 62
253
  6
CONTINUOUS
 10
-131.2486031113
 20
105.4139223597
 11
-131.2595366767
 21
105.4141654246
  0
LWPOLYLINE
  5
453
100
AcDbEntity
  8
RACCORDO
100
AcDbPolyline
 62
253
  6
CONTINUOUS
 90
79
 70
0
 10
-131.2595366767
 20
105.4141654246
 10
-131.2813777279
 20
105.4148111518
 10
-131.2922852138
 20
105.415213814
 10
-131.3031838952
 20
105.4157003084
 10
-131.3140696053
 20
105.416272047
 10
-131.324946511
 20
105.4169276177
 10
-131.3358270123
 20
105.4176903533
 10
-131.3467008815
 20
105.4185596729
 10
-131.3575783464
 20
105.4195361575
 10
-131.3685024911
 20
105.4206448827
 10
-131.3794659082
 20
105.4218830226
 10
-131.390476005
 20
105.4232534031
 10
-131.4015980878
 20
105.4247895783
 10
-131.4128231952
 20
105.4264854834
 10
-131.4241602886
 20
105.428347183
 10
-131.4357015581
 20
105.430426425
 10
-131.4474668174
 20
105.4327213454
 10
-131.4594362528
 20
105.4352338082
 10
-131.4716426131
 20
105.4380211523
 10
-131.484164531
 20
105.4411059885
 10
-131.4969233739
 20
105.4444657062
 10
-131.5097159917
 20
105.4480898129
 10
-131.5225456168
 20
105.4519945399
 10
-131.5354090169
 20
105.4561636558
 10
-131.5480933459
 20
105.4605379752
 10
-131.5605301033
 20
105.4651021918
 10
-131.5727877896
 20
105.4698716118
 10
-131.5848590598
 20
105.4748329675
 10
-131.5967385741
 20
105.4799838241
 10
-131.6084316723
 20
105.4853266165
 10
-131.6199470287
 20
105.4908553816
 10
-131.6312872952
 20
105.4965706392
 10
-131.6424498199
 20
105.5024718696
 10
-131.6534353222
 20
105.5085515509
 10
-131.6642478497
 20
105.5148120108
 10
-131.6748833548
 20
105.5212509215
 10
-131.6853304145
 20
105.5278537779
 10
-131.6955885722
 20
105.5346208525
 10
-131.7056582846
 20
105.5415518728
 10
-131.7155294988
 20
105.548631516
 10
-131.7252025898
 20
105.5558606797
 10
-131.7346771826
 20
105.5632384663
 10
-131.7439420996
 20
105.5707468603
 10
-131.7529995319
 20
105.5783889962
 10
-131.7618472883
 20
105.5861617394
 10
-131.770467618
 20
105.5940376705
 10
-131.77885556
 20
105.6020131825
 10
-131.7870160752
 20
105.6100918824
 10
-131.7949462954
 20
105.6182571717
 10
-131.8026398136
 20
105.6265005077
 10
-131.8101030368
 20
105.6348304331
 10
-131.8173523178
 20
105.6432559774
 10
-131.8243900517
 20
105.6517760561
 10
-131.8312138434
 20
105.6603917537
 10
-131.8378328598
 20
105.6691153526
 10
-131.844249631
 20
105.6779459063
 10
-131.8504616269
 20
105.6868843613
 10
-131.8564704241
 20
105.6959458408
 10
-131.8622797088
 20
105.7051314046
 10
-131.8678857949
 20
105.7144399929
 10
-131.8732792
 20
105.7238835491
 10
-131.8784646196
 20
105.7334671089
 10
-131.8834373583
 20
105.7431856368
 10
-131.8881738474
 20
105.7530359694
 10
-131.8926758406
 20
105.7630204161
 10
-131.8969415842
 20
105.7731366675
 10
-131.9009422488
 20
105.7833746326
 10
-131.9046788036
 20
105.7937376766
 10
-131.9081502794
 20
105.8042224343
 10
-131.9113249385
 20
105.8148087188
 10
-131.9142019257
 20
105.82549797
 10
-131.9167820962
 20
105.836288748
 10
-131.9190362786
 20
105.8471565457
 10
-131.9209626425
 20
105.8581032801
 10
-131.9225630183
 20
105.8691270342
 10
-131.9238137256
 20
105.8801975496
 10
-131.9247068712
 20
105.8913047401
 10
-131.9252503484
 20
105.9024586918
 10
-131.9254441572
 20
105.9136594049
  0
LWPOLYLINE
  5
454
100
AcDbEntity
  8
RACCORDO
100
AcDbPolyline
 62
253
  6
CONTINUOUS
 90
19
 70
0
 10
-131.2376608417
 20
107.0532317782
 10
-131.2548831801
 20
107.0541367598
 10
-131.2719513629
 20
107.0563238925
 10
-131.2887383597
 20
107.0597768987
 10
-131.3051192329
 20
107.0644700791
 10
-131.3209720675
 20
107.0703685047
 10
-131.3361788783
 20
107.0774282764
 10
-131.3506264884
 20
107.0855968515
 10
-131.3642073711
 20
107.0948134353
 10
-131.3768204502
 20
107.1050094333
 10
-131.3883718528
 20
107.1161089613
 10
-131.3987756071
 20
107.1280294109
 10
-131.4079542831
 20
107.1406820639
 10
-131.4158395682
 20
107.1539727526
 10
-131.422372776
 20
107.1678025608
 10
-131.4275052829
 20
107.1820685598
 10
-131.4311988902
 20
107.1966645746
 10
-131.4334261081
 20
107.2114819739
 10
-131.4341703604
 20
107.226410479
  0
LWPOLYLINE
  5
455
100
AcDbEntity
  8
RACCORDO
100
AcDbPolyline
 62
253
  6
CONTINUOUS
 90
19
 70
0
 10
-130.1306798791
 20
107.0339093536
 10
-130.1134575407
 20
107.033004372
 10
-130.0963893579
 20
107.0308172393
 10
-130.0796023611
 20
107.0273642331
 10
-130.0632214878
 20
107.0226710527
 10
-130.0473686533
 20
107.0167726271
 10
-130.0321618424
 20
107.0097128555
 10
-130.0177142324
 20
107.0015442803
 10
-130.0041333497
 20
106.9923276965
 10
-129.9915202706
 20
106.9821316986
 10
-129.979968868
 20
106.9710321705
 10
-129.9695651136
 20
106.9591117209
 10
-129.9603864377
 20
106.9464590679
 10
-129.9525011526
 20
106.9331683792
 10
-129.9459679448
 20
106.919338571
 10
-129.9408354378
 20
106.905072572
 10
-129.9371418306
 20
106.8904765573
 10
-129.9349146127
 20
106.8756591579
 10
-129.9341703604
 20
106.8607306528
  0
LWPOLYLINE
  5
456
100
AcDbEntity
  8
RACCORDO
100
AcDbPolyline
 62
253
  6
CONTINUOUS
 90
19
 70
0
 10
-131.2376608417
 20
110.0592324032
 10
-131.2548831618
 20
110.0601373831
 10
-131.2719513279
 20
110.0623245117
 10
-131.2887383099
 20
110.0657775114
 10
-131.3051191702
 20
110.0704706834
 10
-131.3209719943
 20
110.0763690991
 10
-131.3361787981
 20
110.0834288601
 10
-131.3506264046
 20
110.0915974245
 10
-131.3642072869
 20
110.1008139979
 10
-131.3768203693
 20
110.1110099869
 10
-131.3883717782
 20
110.122109508
 10
-131.3987755413
 20
110.1340299533
 10
-131.4079542282
 20
110.1466826054
 10
-131.4158395254
 20
110.1599732972
 10
-131.4223727456
 20
110.1738031125
 10
-131.4275052641
 20
110.1880691232
 10
-131.4311988811
 20
110.2026651542
 10
-131.4334261056
 20
110.2174825742
 10
-131.4341703604
 20
110.2324111039
  0
LWPOLYLINE
  5
457
100
AcDbEntity
  8
RACCORDO
100
AcDbPolyline
 62
253
  6
CONTINUOUS
 90
19
 70
0
 10
-130.1306798791
 20
110.040057591
 10
-130.1134575229
 20
110.0391526078
 10
-130.0963893239
 20
110.036965471
 10
-130.0796023127
 20
110.0335124586
 10
-130.063221427
 20
110.0288192701
 10
-130.0473685823
 20
110.0229208349
 10
-130.0321617647
 20
110.0158610529
 10
-130.0177141511
 20
110.0076924673
 10
-130.0041332681
 20
109.9984758734
 10
-129.9915201921
 20
109.9882798668
 10
-129.9799687957
 20
109.9771803321
 10
-129.9695650499
 20
109.9652598783
 10
-129.9603863845
 20
109.9526072244
 10
-129.9525011111
 20
109.9393165387
 10
-129.9459679153
 20
109.9254867374
 10
-129.9408354196
 20
109.9112207497
 10
-129.9371418217
 20
109.8966247507
 10
-129.9349146103
 20
109.8818073714
 10
-129.9341703604
 20
109.8668788902
  0
LWPOLYLINE
  5
458
100
AcDbEntity
  8
RACCORDO
100
AcDbPolyline
 62
253
  6
CONTINUOUS
 90
19
 70
0
 10
-131.2376608417
 20
111.3946798823
 10
-131.2548831801
 20
111.3957244371
 10
-131.2719513629
 20
111.3982488862
 10
-131.2887383597
 20
111.4022344415
 10
-131.3051192329
 20
111.4076514403
 10
-131.3209720675
 20
111.4144595664
 10
-131.3361788783
 20
111.4226081502
 10
-131.3506264884
 20
111.4320365458
 10
-131.364207371
 20
111.442674582
 10
-131.3768204502
 20
111.454443085
 10
-131.3883718528
 20
111.4672544675
 10
-131.3987756071
 20
111.4810133805
 10
-131.4079542831
 20
111.4956174228
 10
-131.4158395682
 20
111.5109579036
 10
-131.422372776
 20
111.5269206511
 10
-131.4275052829
 20
111.543386862
 10
-131.4311988902
 20
111.5602339863
 10
-131.4334261081
 20
111.5773366388
 10
-131.4341703604
 20
111.5945675326
  0
LWPOLYLINE
  5
459
100
AcDbEntity
  8
RACCORDO
100
AcDbPolyline
 62
253
  6
CONTINUOUS
 90
19
 70
0
 10
-130.1306798791
 20
111.375505772
 10
-130.1134575407
 20
111.3744612171
 10
-130.0963893579
 20
111.3719367678
 10
-130.0796023611
 20
111.3679512122
 10
-130.0632214878
 20
111.3625342131
 10
-130.0473686533
 20
111.3557260865
 10
-130.0321618424
 20
111.3475775021
 10
-130.0177142323
 20
111.3381491058
 10
-130.0041333497
 20
111.3275110689
 10
-129.9915202705
 20
111.315742565
 10
-129.979968868
 20
111.3029311816
 10
-129.9695651136
 20
111.2891722677
 10
-129.9603864377
 20
111.2745682244
 10
-129.9525011526
 20
111.2592277424
 10
-129.9459679448
 20
111.2432649939
 10
-129.9408354378
 20
111.2267987818
 10
-129.9371418306
 20
111.2099516563
 10
-129.9349146127
 20
111.1928490026
 10
-129.9341703604
 20
111.1756181076
  0
LWPOLYLINE
  5
45A
100
AcDbEntity
  8
RACCORDO
100
AcDbPolyline
 62
253
  6
CONTINUOUS
 90
19
 70
0
 10
-131.2376608417
 20
112.0981642417
 10
-131.2548831195
 20
112.0992091578
 10
-131.2719512516
 20
112.1017344802
 10
-131.2887382087
 20
112.1057214165
 10
-131.3051190536
 20
112.1111402962
 10
-131.3209718711
 20
112.1179507915
 10
-131.336178675
 20
112.1261022168
 10
-131.3506262876
 20
112.1355339069
 10
-131.3642071813
 20
112.1461756679
 10
-131.3768202777
 20
112.1579482989
 10
-131.3883717024
 20
112.1707641831
 10
-131.3987754824
 20
112.1845279389
 10
-131.4079541848
 20
112.1991371283
 10
-131.4158394958
 20
112.2144830227
 10
-131.4223727277
 20
112.23045141
 10
-131.4275052547
 20
112.246923443
 10
-131.4311988772
 20
112.2637765273
 10
-131.4334261047
 20
112.2808852338
 10
-131.4341703604
 20
112.2981222299
  0
LINE
  5
45B
100
AcDbEntity
  8
SMUSSO
100
AcDbLine
 62
7
  6
CONTINUOUS
 10
-129.2341703604
 20
123.6171199522
 11
-129.6341703604
 21
124.0171199522
  0
LINE
  5
45C
100
AcDbEntity
  8
0
100
AcDbLine
 62
7
  6
CONTINUOUS
 10
-168.6242678128
 20
114.7671199522
 11
-169.9341627977
 21
114.7671199522
  0
LINE
  5
45D
100
AcDbEntity
  8
ASSI
100
AcDbLine
 62
7
  6
CONTINUOUS
 10
-168.6242678128
 20
114.7671199522
 11
-169.9341627977
 21
114.7671199522
  0
LINE
  5
45E
100
AcDbEntity
  8
0
100
AcDbLine
 62
7
  6
CONTINUOUS
 10
-152.8841703604
 20
120.0171199522
 11
-129.6341703604
 21
120.0171199522
  0
LINE
  5
45F
100
AcDbEntity
  8
0
100
AcDbLine
 62
7
  6
CONTINUOUS
 10
-129.2341703604
 20
120.0171199522
 11
-129.6341703604
 21
120.0171199522
  0
LWPOLYLINE
  5
460
100
AcDbEntity
  8
RACCORDO
100
AcDbPolyline
 62
253
  6
CONTINUOUS
 90
6
 70
0
 10
-161.0184956503
 20
129.7820326243
 10
-161.0046148794
 20
129.7829296479
 10
-160.9889690153
 20
129.7838012897
 10
-160.9716710358
 20
129.7846412556
 10
-160.9528458483
 20
129.7854434804
 10
-160.9326293885
 20
129.7862021711
  0
LINE
  5
461
100
AcDbEntity
  8
RACCORDO
100
AcDbLine
 62
253
  6
CONTINUOUS
 10
-160.9326293885
 20
129.7862021711
 11
-160.8886155704
 21
129.7875673907
  0
LINE
  5
462
100
AcDbEntity
  8
RACCORDO
100
AcDbLine
 62
253
  6
CONTINUOUS
 10
-161.3181155794
 20
129.6418526195
 11
-161.3318647719
 21
129.6414706293
  0
LINE
  5
463
100
AcDbEntity
  8
RACCORDO
100
AcDbLine
 62
253
  6
CONTINUOUS
 10
-160.8886155704
 20
129.7875673907
 11
-160.84089857
 21
129.788697553
  0
LINE
  5
464
100
AcDbEntity
  8
RACCORDO
100
AcDbLine
 62
253
  6
CONTINUOUS
 10
-161.3318647719
 20
129.6414706293
 11
-161.3647936098
 21
129.640776632
  0
LINE
  5
465
100
AcDbEntity
  8
DRAFT
100
AcDbLine
 62
7
  6
CONTINUOUS
 10
-155.9341703604
 20
125.5991587574
 11
-160.6075208595
 21
125.517585121
  0
LWPOLYLINE
  5
466
100
AcDbEntity
  8
RACCORDO
100
AcDbPolyline
 62
253
  6
CONTINUOUS
 90
3
 70
0
 10
-160.84089857
 20
129.788697553
 10
-160.7908541443
 20
129.789560074
 10
-160.7654085491
 20
129.789882875
  0
LINE
  5
467
100
AcDbEntity
  8
RACCORDO
100
AcDbLine
 62
253
  6
CONTINUOUS
 10
-161.3647936098
 20
129.640776632
 11
-161.4041217002
 21
129.6401929114
  0
LINE
  5
468
100
AcDbEntity
  8
RACCORDO
100
AcDbLine
 62
253
  6
CONTINUOUS
 10
-161.4041217002
 20
129.6401929114
 11
-161.4725004331
 21
129.6395611878
  0
LINE
  5
469
100
AcDbEntity
  8
RACCORDO
100
AcDbLine
 62
253
  6
CONTINUOUS
 10
-161.4725004331
 20
129.6395611878
 11
-161.5480204983
 21
129.6392582001
  0
LINE
  5
46A
100
AcDbEntity
  8
RACCORDO
100
AcDbLine
 62
253
  6
CONTINUOUS
 10
-155.9341703604
 20
129.7928259762
 11
-160.7654085698
 21
129.7898829164
  0
LINE
  5
46B
100
AcDbEntity
  8
RACCORDO
100
AcDbLine
 62
253
  6
CONTINUOUS
 10
-161.5480204983
 20
129.6392582001
 11
-162.082750907
 21
129.6390793874
  0
LINE
  5
46C
100
AcDbEntity
  8
0
100
AcDbLine
 62
7
  6
CONTINUOUS
 10
-152.8841703604
 20
124.0171199522
 11
-129.6341703604
 21
124.0171199522
  0
LINE
  5
46D
100
AcDbEntity
  8
0
100
AcDbLine
 62
7
  6
CONTINUOUS
 10
-129.2341703604
 20
124.0171199522
 11
-129.6341703604
 21
124.0171199522
  0
LINE
  5
46E
100
AcDbEntity
  8
ELVOX
100
AcDbLine
 62
253
  6
CONTINUOUS
 10
-169.8961176588
 20
125.1318468269
 11
-169.884290901
 21
125.1318468269
  0
LINE
  5
46F
100
AcDbEntity
  8
ELVOX
100
AcDbLine
 62
253
  6
CONTINUOUS
 10
-169.9154994562
 20
125.1318468269
 11
-169.9069741941
 21
125.1318468269
  0
LINE
  5
470
100
AcDbEntity
  8
ELVOX
100
AcDbLine
 62
253
  6
CONTINUOUS
 10
-169.9331177786
 20
125.1353837766
 11
-169.9186368844
 21
125.1353837766
  0
LINE
  5
471
100
AcDbEntity
  8
RACCORDO
100
AcDbLine
 62
7
  6
CONTINUOUS
 10
-155.9341703604
 20
125.5171199522
 11
-160.7229520883
 21
125.5171199522
  0
LINE
  5
472
100
AcDbEntity
  8
ASSI
100
AcDbLine
 62
7
  6
CONTINUOUS
 10
-155.9341703604
 20
125.5171199522
 11
-160.7229520883
 21
125.5171199522
  0
LINE
  5
473
100
AcDbEntity
  8
RACCORDO
100
AcDbLine
 62
7
  6
CONTINUOUS
 10
-161.2214566201
 20
125.5171199522
 11
-161.3326635135
 21
125.5171199522
  0
LINE
  5
474
100
AcDbEntity
  8
0
100
AcDbLine
 62
7
  6
CONTINUOUS
 10
-161.3326635135
 20
125.5171199522
 11
-162.3244700792
 21
125.5171199522
  0
LINE
  5
475
100
AcDbEntity
  8
ASSI
100
AcDbLine
 62
7
  6
CONTINUOUS
 10
-161.2214566201
 20
125.5171199522
 11
-162.3244700792
 21
125.5171199522
  0
LINE
  5
476
100
AcDbEntity
  8
ELVOX
100
AcDbLine
 62
253
  6
CONTINUOUS
 10
-169.9248853947
 20
125.7803056515
 11
-169.9304850381
 21
125.7803056515
  0
LINE
  5
477
100
AcDbEntity
  8
ELVOX
100
AcDbLine
 62
253
  6
CONTINUOUS
 10
-169.9304850383
 20
126.2612409812
 11
-169.924885395
 21
126.2612409812
  0
LINE
  5
478
100
AcDbEntity
  8
ELVOX
100
AcDbLine
 62
253
  6
CONTINUOUS
 10
-169.918636885
 20
126.9071393287
 11
-169.9331177787
 21
126.9071393287
  0
LINE
  5
479
100
AcDbEntity
  8
ELVOX
100
AcDbLine
 62
253
  6
CONTINUOUS
 10
-169.9331504729
 20
127.2727123492
 11
-169.9151494
 21
127.2727123492
  0
LINE
  5
47A
100
AcDbEntity
  8
ELVOX
100
AcDbLine
 62
253
  6
CONTINUOUS
 10
-169.9185117727
 20
127.9855586437
 11
-169.9338428984
 21
127.9855586437
  0
LINE
  5
47B
100
AcDbEntity
  8
ELVOX
100
AcDbLine
 62
253
  6
CONTINUOUS
 10
-169.9070948781
 20
127.9855586437
 11
-169.9155008759
 21
127.9855586437
  0
LINE
  5
47C
100
AcDbEntity
  8
ELVOX
100
AcDbLine
 62
253
  6
CONTINUOUS
 10
-169.8842908986
 20
127.9855586437
 11
-169.8955670627
 21
127.9855586437
  0
LINE
  5
47D
100
AcDbEntity
  8
RACCORDO
100
AcDbLine
 62
253
  6
CONTINUOUS
 10
-152.8841703604
 20
128.5171199522
 11
-155.9341703604
 21
128.5171199522
  0
LINE
  5
47E
100
AcDbEntity
  8
0
100
AcDbLine
 62
253
  6
CONTINUOUS
 10
-162.5744700792
 20
129.5171199522
 11
-164.1339026365
 21
129.5171199522
  0
LINE
  5
47F
100
AcDbEntity
  8
ASSI
100
AcDbLine
 62
253
  6
CONTINUOUS
 10
-162.5744700792
 20
129.5171199522
 11
-164.1339026365
 21
129.5171199522
  0
LINE
  5
480
100
AcDbEntity
  8
RACCORDO
100
AcDbLine
 62
7
  6
CONTINUOUS
 10
-152.8841703604
 20
133.5171199522
 11
-155.9341703604
 21
133.5171199522
  0
LINE
  5
481
100
AcDbEntity
  8
RACCORDO
100
AcDbLine
 62
7
  6
CONTINUOUS
 10
-160.7197396348
 20
125.517866704
 11
-162.3244700792
 21
125.5318709744
  0
LINE
  5
482
100
AcDbEntity
  8
RACCORDO
100
AcDbLine
 62
7
  6
CONTINUOUS
 10
-155.9341703604
 20
137.4171199522
 11
-164.8820952275
 21
137.2609333427
  0
LINE
  5
483
100
AcDbEntity
  8
RACCORDO
100
AcDbLine
 62
253
  6
CONTINUOUS
 10
-164.2296375097
 20
136.9799219854
 11
-164.5620624913
 21
136.9741699674
  0
LINE
  5
484
100
AcDbEntity
  8
0
100
AcDbLine
 62
7
  6
CONTINUOUS
 10
-165.5051309254
 20
137.5171199522
 11
-169.9341627977
 21
137.5171199522
  0
LINE
  5
485
100
AcDbEntity
  8
ASSI
100
AcDbLine
 62
7
  6
CONTINUOUS
 10
-165.5051309254
 20
137.5171199522
 11
-169.9341627977
 21
137.5171199522
  0
LINE
  5
486
100
AcDbEntity
  8
RACCORDO
100
AcDbLine
 62
253
  6
CONTINUOUS
 10
-164.2786566329
 20
136.8091503377
 11
-164.4105829418
 21
136.8091717286
  0
LWPOLYLINE
  5
487
100
AcDbEntity
  8
0
100
AcDbPolyline
 62
7
  6
CONTINUOUS
 90
39
 70
0
 10
-167.5761771749
 20
137.5171199522
 10
-167.5049059988
 20
137.5126112158
 10
-167.4314255465
 20
137.4990363757
 10
-167.3557358182
 20
137.4763301521
 10
-167.2777357522
 20
137.4444356012
 10
-167.1975264101
 20
137.4033096861
 10
-167.1154109771
 20
137.3529288311
 10
-167.0312972713
 20
137.2932362421
 10
-166.9452774746
 20
137.2242547738
 10
-166.8579313175
 20
137.1461573978
 10
-166.76932072
 20
137.0591160669
 10
-166.6793837622
 20
136.9631336695
 10
-166.5885144142
 20
136.858168138
 10
-166.4966076633
 20
136.7441919962
 10
-166.4037685223
 20
136.6213751416
 10
-166.3107059993
 20
136.4899893831
 10
-166.2173494151
 20
136.3500978806
 10
-166.123769449
 20
136.2019200766
 10
-166.0308871462
 20
136.0460817538
 10
-165.9387232654
 20
135.8828583633
 10
-165.847257048
 20
135.7124626564
 10
-165.7573472638
 20
135.5355571621
 10
-165.6691362837
 20
135.3527301434
 10
-165.5824817368
 20
135.1640252938
 10
-165.4978152795
 20
134.9692966065
 10
-165.4150610294
 20
134.7686007451
 10
-165.334294869
 20
134.5624055494
 10
-165.2561761011
 20
134.351156339
 10
-165.180709511
 20
134.1350517592
 10
-165.1078903135
 20
133.9144708846
 10
-165.0383634563
 20
133.6901768691
 10
-164.9721991698
 20
133.4625488491
 10
-164.9093272235
 20
133.2318494504
 10
-164.8501818739
 20
132.9987100276
 10
-164.7948408753
 20
132.7635872499
 10
-164.7432264734
 20
132.5266713456
 10
-164.6955396617
 20
132.2881977831
 10
-164.6518474382
 20
132.0484423791
 10
-164.612082805
 20
131.8077243858
  0
LWPOLYLINE
  5
488
100
AcDbEntity
  8
ASSI
100
AcDbPolyline
 62
7
  6
CONTINUOUS
 90
39
 70
0
 10
-167.5761771749
 20
137.5171199522
 10
-167.5049059988
 20
137.5126112158
 10
-167.4314255465
 20
137.4990363757
 10
-167.3557358182
 20
137.4763301521
 10
-167.2777357522
 20
137.4444356012
 10
-167.1975264101
 20
137.4033096861
 10
-167.1154109771
 20
137.3529288311
 10
-167.0312972713
 20
137.2932362421
 10
-166.9452774746
 20
137.2242547738
 10
-166.8579313175
 20
137.1461573978
 10
-166.76932072
 20
137.0591160669
 10
-166.6793837622
 20
136.9631336695
 10
-166.5885144142
 20
136.858168138
 10
-166.4966076633
 20
136.7441919962
 10
-166.4037685223
 20
136.6213751416
 10
-166.3107059993
 20
136.4899893831
 10
-166.2173494151
 20
136.3500978806
 10
-166.123769449
 20
136.2019200766
 10
-166.0308871462
 20
136.0460817538
 10
-165.9387232654
 20
135.8828583633
 10
-165.847257048
 20
135.7124626564
 10
-165.7573472638
 20
135.5355571621
 10
-165.6691362837
 20
135.3527301434
 10
-165.5824817368
 20
135.1640252938
 10
-165.4978152795
 20
134.9692966065
 10
-165.4150610294
 20
134.7686007451
 10
-165.334294869
 20
134.5624055494
 10
-165.2561761011
 20
134.351156339
 10
-165.180709511
 20
134.1350517592
 10
-165.1078903135
 20
133.9144708846
 10
-165.0383634563
 20
133.6901768691
 10
-164.9721991698
 20
133.4625488491
 10
-164.9093272235
 20
133.2318494504
 10
-164.8501818739
 20
132.9987100276
 10
-164.7948408753
 20
132.7635872499
 10
-164.7432264734
 20
132.5266713456
 10
-164.6955396617
 20
132.2881977831
 10
-164.6518474382
 20
132.0484423791
 10
-164.612082805
 20
131.8077243858
  0
ARC
  5
489
100
AcDbEntity
  8
0
100
AcDbCircle
 62
7
  6
CONTINUOUS
 10
22.7864607333
 20
129.5171199522
 40
8.0
100
AcDbArc
 50
0.0
 51
90.0
  0
ARC
  5
48A
100
AcDbEntity
  8
0
100
AcDbCircle
 62
7
  6
CONTINUOUS
 10
22.7864607333
 20
-130.4828800478
 40
8.0
100
AcDbArc
 50
270.0
 51
360.0
  0
ARC
  5
48B
100
AcDbEntity
  8
0
100
AcDbCircle
 62
7
  6
CONTINUOUS
 10
-60.7135392667
 20
-130.4828800478
 40
8.0
100
AcDbArc
 50
180.0
 51
270.0
  0
ARC
  5
48C
100
AcDbEntity
  8
0
100
AcDbCircle
 62
7
  6
CONTINUOUS
 10
-60.7135392667
 20
129.5171199522
 40
8.0
100
AcDbArc
 50
90.0
 51
180.0
  0
ARC
  5
48D
100
AcDbEntity
  8
ASSI
100
AcDbCircle
 62
7
  6
CONTINUOUS
 10
22.7864607333
 20
129.5171199522
 40
8.0
100
AcDbArc
 50
0.0
 51
90.0
  0
ARC
  5
48E
100
AcDbEntity
  8
ASSI
100
AcDbCircle
 62
7
  6
CONTINUOUS
 10
22.7864607333
 20
-130.4828800478
 40
8.0
100
AcDbArc
 50
270.0
 51
360.0
  0
ARC
  5
48F
100
AcDbEntity
  8
ASSI
100
AcDbCircle
 62
7
  6
CONTINUOUS
 10
-60.7135392667
 20
-130.4828800478
 40
8.0
100
AcDbArc
 50
180.0
 51
270.0
  0
ARC
  5
490
100
AcDbEntity
  8
ASSI
100
AcDbCircle
 62
7
  6
CONTINUOUS
 10
-60.7135392667
 20
129.5171199522
 40
8.0
100
AcDbArc
 50
90.0
 51
180.0
  0
ARC
  5
491
100
AcDbEntity
  8
RACCORDO
100
AcDbCircle
 62
7
  6
CONTINUOUS
 10
-150.3341703604
 20
101.6673212478
 40
0.6
100
AcDbArc
 50
95.0
 51
180.0
  0
ARC
  5
492
100
AcDbEntity
  8
RACCORDO
100
AcDbCircle
 62
7
  6
CONTINUOUS
 10
-131.9341703604
 20
112.2981222299
 40
0.5
100
AcDbArc
 50
0.0
 51
89.0
  0
ARC
  5
493
100
AcDbEntity
  8
RACCORDO
100
AcDbCircle
 62
7
  6
CONTINUOUS
 10
-151.2341703604
 20
-113.3007955442
 40
0.3
100
AcDbArc
 50
271.0
 51
360.0
  0
ARC
  5
494
100
AcDbEntity
  8
RACCORDO
100
AcDbCircle
 62
7
  6
CONTINUOUS
 10
-131.2341703604
 20
104.3668046447
 40
0.2
100
AcDbArc
 50
91.5
 51
180.0
  0
ARC
  5
495
100
AcDbEntity
  8
RACCORDO
100
AcDbCircle
 62
7
  6
CONTINUOUS
 10
-131.6341703604
 20
104.1064151258
 40
0.2
100
AcDbArc
 50
275.0
 51
360.0
  0
ARC
  5
496
100
AcDbEntity
  8
RACCORDO
100
AcDbCircle
 62
7
  6
CONTINUOUS
 10
-130.1341703604
 20
111.9928008526
 40
0.2
100
AcDbArc
 50
0.0007489577
 51
89.0000122904
  0
ARC
  5
497
100
AcDbEntity
  8
RACCORDO
100
AcDbCircle
 62
7
  6
CONTINUOUS
 10
-130.1341703604
 20
104.7957462989
 40
0.2
100
AcDbArc
 50
271.4999998243
 51
359.9999932874
  0
ARC
  5
498
100
AcDbEntity
  8
RACCORDO
100
AcDbCircle
 62
7
  6
CONTINUOUS
 10
-131.2341703604
 20
105.9136594049
 40
0.2
100
AcDbArc
 50
180.0
 51
269.0
  0
ARC
  5
499
100
AcDbEntity
  8
RACCORDO
100
AcDbCircle
 62
7
  6
CONTINUOUS
 10
-131.243536422
 20
112.4122526003
 40
0.1999999927
100
AcDbArc
 50
189.3835292392
 51
268.9997905458
  0
ARC
  5
49A
100
AcDbEntity
  8
RACCORDO
100
AcDbCircle
 62
7
  6
CONTINUOUS
 10
-130.1341703604
 20
105.4943985499
 40
0.1999999873
100
AcDbArc
 50
359.9998144585
 51
89.0
  0
ELLIPSE
  5
49B
100
AcDbEntity
  8
RACCORDO
100
AcDbEllipse
 62
7
  6
CONTINUOUS
 10
-18.3248496837
 20
110.0885295498
 30
0.0
 11
-0.0741292603
 21
0.185840375
 31
0.0
 40
0.9996028342
 41
-0.9029519236
 42
-0.3794096124
  0
ELLIPSE
  5
49C
100
AcDbEntity
  8
RACCORDO
100
AcDbEllipse
 62
7
  6
CONTINUOUS
 10
-6.857608178
 20
104.2763280818
 30
0.0
 11
0.4041952346
 21
-0.3032162724
 31
0.0
 40
0.9895386875
 41
-1.4495269816
 42
-0.9221290792
  0
ELLIPSE
  5
49D
100
AcDbEntity
  8
RACCORDO
100
AcDbEllipse
 62
7
  6
CONTINUOUS
 10
14.1577103972
 20
108.7883696162
 30
0.0
 11
1.0609832838
 21
1.0609832838
 31
0.0
 40
0.9996954599
 41
-0.7852458701
 42
0.7852458701
  0
ELLIPSE
  5
49E
100
AcDbEntity
  8
ELVOX
100
AcDbEllipse
 62
253
  6
CONTINUOUS
 10
315.0658296396
 20
127.0758180476
 30
0.0
 11
0.0
 21
782.8762764743
 31
0.0
 40
0.6195104061
 41
1.5696342775
 42
1.5707963268
  0
ELLIPSE
  5
49F
100
AcDbEntity
  8
ELVOX
100
AcDbEllipse
 62
253
  6
CONTINUOUS
 10
315.0658296396
 20
134.4550413651
 30
0.0
 11
-0.0
 21
805.1052143216
 31
0.0
 40
0.602405737
 41
-4.7043533197
 42
-4.7041363556
  0
ELLIPSE
  5
4A0
100
AcDbEntity
  8
ELVOX
100
AcDbEllipse
 62
253
  6
CONTINUOUS
 10
315.0658296396
 20
134.7968790978
 30
0.0
 11
-0.0
 21
846.5273826735
 31
0.0
 40
0.5729288974
 41
-4.7041363556
 42
-4.7039269585
  0
ELLIPSE
  5
4A1
100
AcDbEntity
  8
ELVOX
100
AcDbEllipse
 62
253
  6
CONTINUOUS
 10
315.0658296396
 20
135.1753125608
 30
0.0
 11
-0.0
 21
891.2493162023
 31
0.0
 40
0.5441799407
 41
-4.7039269585
 42
-4.7037256193
  0
ELLIPSE
  5
4A2
100
AcDbEntity
  8
ELVOX
100
AcDbEllipse
 62
253
  6
CONTINUOUS
 10
315.0658296396
 20
135.5952107973
 30
0.0
 11
-0.0
 21
939.718205688
 31
0.0
 40
0.5161121675
 41
-4.7037256193
 42
-4.7035324879
  0
ELLIPSE
  5
4A3
100
AcDbEntity
  8
ELVOX
100
AcDbEllipse
 62
253
  6
CONTINUOUS
 10
315.0658296396
 20
118.4336546428
 30
0.0
 11
0.0
 21
763.3698089868
 31
0.0
 40
0.6353408195
 41
1.5601956891
 42
1.5620217092
  0
ELLIPSE
  5
4A4
100
AcDbEntity
  8
ELVOX
100
AcDbEllipse
 62
253
  6
CONTINUOUS
 10
315.0658296396
 20
134.9992961951
 30
0.0
 11
-0.0
 21
799.3618129563
 31
0.0
 40
0.6067340122
 41
-4.7036146964
 42
-4.7017883426
  0
ELLIPSE
  5
4A5
100
AcDbEntity
  8
ELVOX
100
AcDbEllipse
 62
253
  6
CONTINUOUS
 10
315.0658296396
 20
134.0480637347
 30
0.0
 11
-0.0
 21
711.7906319318
 31
0.0
 40
0.6813801394
 41
-4.7007960778
 42
-4.6998621927
  0
ELLIPSE
  5
4A6
100
AcDbEntity
  8
ELVOX
100
AcDbEllipse
 62
253
  6
CONTINUOUS
 10
315.0658296396
 20
135.4950357394
 30
0.0
 11
-0.0
 21
710.6954400607
 31
0.0
 40
0.682430156
 41
-4.7018224051
 42
-4.7008656973
  0
ELLIPSE
  5
4A7
100
AcDbEntity
  8
ELVOX
100
AcDbEllipse
 62
253
  6
CONTINUOUS
 10
315.0658296396
 20
116.6828204593
 30
0.0
 11
0.0
 21
788.1154226107
 31
0.0
 40
0.6153920937
 41
1.5564543594
 42
1.5582774077
  0
ELLIPSE
  5
4A8
100
AcDbEntity
  8
ELVOX
100
AcDbEllipse
 62
253
  6
CONTINUOUS
 10
315.0658296396
 20
136.2805932169
 30
0.0
 11
-0.0
 21
777.3779277211
 31
0.0
 40
0.6238921671
 41
-4.6998700612
 42
-4.6980470134
  0
ELLIPSE
  5
4A9
100
AcDbEntity
  8
ELVOX
100
AcDbEllipse
 62
253
  6
CONTINUOUS
 10
315.0658296396
 20
118.1121782989
 30
0.0
 11
0.0
 21
662.8644406445
 31
0.0
 40
0.7316729791
 41
1.5592034242
 42
1.5602062283
  0
ELLIPSE
  5
4AA
100
AcDbEntity
  8
ELVOX
100
AcDbEllipse
 62
253
  6
CONTINUOUS
 10
315.0658296396
 20
120.1426913886
 30
0.0
 11
0.0
 21
621.623140664
 31
0.0
 40
0.7802154847
 41
1.5581792364
 42
1.5592730437
  0
ELLIPSE
  5
4AB
100
AcDbEntity
  8
ELVOX
100
AcDbEllipse
 62
253
  6
CONTINUOUS
 10
315.0658296396
 20
125.6611170944
 30
0.0
 11
0.0
 21
785.8433062702
 31
0.0
 40
0.6171713828
 41
1.5687455409
 42
1.5707963268
  0
ENDSEC
  0
SECTION
  2
OBJECTS
  0
DICTIONARY
  5
C
100
AcDbDictionary
280
0
281
1
  3
ACAD_GROUP
350
D
  3
ACAD_MLINESTYLE
350
17
  3
ACAD_LAYOUT
350
1A
  3
ACAD_PLOTSETTINGS
350
19
  3
ACAD_PLOTSTYLENAME
350
E
  0
DICTIONARY
  5
D
102
{ACAD_REACTORS
330
C
102
}
100
AcDbDictionary
280
0
281
1
  0
ACDBDICTIONARYWDFLT
  5
E
102
{ACAD_REACTORS
330
C
102
}
100
AcDbDictionary
281
1
  3
Normal
350
F
100
AcDbDictionaryWithDefault
340
F
  0
DICTIONARY
  5
17
102
{ACAD_REACTORS
330
C
102
}
100
AcDbDictionary
280
0
281
1
  3
Standard
350
18
  0
DICTIONARY
  5
19
102
{ACAD_REACTORS
330
C
102
}
100
AcDbDictionary
281
1
  0
DICTIONARY
  5
1A
102
{ACAD_REACTORS
330
C
102
}
100
AcDbDictionary
281
1
  3
Model
350
4AC
  3
Layout1
350
4AD
  0
ACDBPLACEHOLDER
  5
F
102
{ACAD_REACTORS
330
E
102
}
  0
MLINESTYLE
  5
18
102
{ACAD_REACTORS
330
17
102
}
100
AcDbMlineStyle
  2
STANDARD
 70
0
  3

 62
256
 51
90.0
 52
90.0
 71
2
 49
0.5
 62
256
  6
BYLAYER
 49
-0.5
 62
256
  6
BYLAYER
  0
LAYOUT
  5
4AC
102
{ACAD_REACTORS
330
1A
102
}
100
AcDbPlotSettings
  1

  2
none_device
  4
ISO_A4_(297.00_x_210.00_MM)
  6

 40
0.0
 41
0.0
 42
0.0
 43
0.0
 44
297.0
 45
210.0
 46
0.0
 47
0.0
 48
0.0
 49
0.0
140
0.0
141
0.0
142
1.0
143
1.0
 70
1024
 72
1
 73
0
 74
0
  7

 75
0
147
1.0
148
0.0
149
0.0
100
AcDbLayout
  1
Model
 70
0
 71
0
 10
0.0
 20
0.0
 11
297.0
 21
210.0
 12
0.0
 22
0.0
 32
0.0
 14
0.0
 24
0.0
 34
0.0
 15
0.0
 25
0.0
 35
0.0
146
0.0
 13
0.0
 23
0.0
 33
0.0
 16
1.0
 26
0.0
 36
0.0
 17
0.0
 27
1.0
 37
0.0
 76
0
330
21C
345
0
346
0
  0
LAYOUT
  5
4AD
102
{ACAD_REACTORS
330
1A
102
}
100
AcDbPlotSettings
  1

  2
none_device
  4
ISO_A4_(297.00_x_210.00_MM)
  6

 40
0.0
 41
0.0
 42
0.0
 43
0.0
 44
297.0
 45
210.0
 46
0.0
 47
0.0
 48
0.0
 49
0.0
140
0.0
141
0.0
142
1.0
143
1.0
 70
0
 72
1
 73
0
 74
0
  7

 75
0
147
1.0
148
0.0
149
0.0
100
AcDbLayout
  1
Layout1
 70
0
 71
1
 10
0.0
 20
0.0
 11
297.0
 21
210.0
 12
0.0
 22
0.0
 32
0.0
 14
0.0
 24
0.0
 34
0.0
 15
0.0
 25
0.0
 35
0.0
146
0.0
 13
0.0
 23
0.0
 33
0.0
 16
1.0
 26
0.0
 36
0.0
 17
0.0
 27
1.0
 37
0.0
 76
0
330
21D
345
0
346
0
  0
ENDSEC
  0
EOF
