  0
SECTION
  2
HEADER
  9
$ACADVER
  1
AC1015
  9
$DWGCODEPAGE
  3
ANSI_1252
  9
$EXTMAX
 10
297.0
 20
210.0
 30
0.0
  9
$EXTMIN
 10
0.0
 20
0.0
 30
0.0
  9
$LIMMIN
 10
0.0
 20
0.0
  9
$LIMMAX
 10
297.0
 20
210.0
  9
$VIEWCTR
 10
148.5
 20
105.0
  9
$VIEWSIZE
 40
210.0
  9
$CLAYER
  8
0
  9
$LTSCALE
 40
16.335
  9
$CELTYPE
  6
BYLAYER
  9
$DIMSCALE
 40
1.0
  9
$DIMASZ
 40
3.0
  9
$DIMEXO
 40
0.5
  9
$DIMDLI
 40
11.286
  9
$DIMEXE
 40
1.5
  9
$DIMCEN
 40
2.673
  9
$DIMLFAC
 40
1.0
  9
$DIMBLK
  1
_FILLED
  9
$DIMALT
 70
0
  9
$DIMALTF
 40
0.0393700787
  9
$DIMTXT
 40
3.0
  9
$DIMTOL
 70
1
  9
$DIMLIM
 70
0
  9
$DIMTFAC
 40
1.0
  9
$DIMTP
 40
0.01
  9
$DIMTM
 40
0.01
  9
$DIMGAP
 40
0.625
  9
$DIMDSEP
 70
44
  9
$AUNITS
 70
0
  9
$PDMODE
 70
3
  9
$PDSIZE
 40
3.0
  9
$HANDSEED
  5
510
  9
$TILEMODE
 70
1
  9
$MEASUREMENT
 70
1
  9
$INSUNITS
 70
4
  0
ENDSEC
  0
SECTION
  2
CLASSES
  0
CLASS
  1
ACDBDICTIONARYWDFLT
  2
AcDbDictionaryWithDefault
  3
AutoCAD 2000
 90
0
280
0
281
0
  0
CLASS
  1
ACDBPLACEHOLDER
  2
AcDbPlaceHolder
  3
AutoCAD 2000
 90
0
280
0
281
0
  0
CLASS
  1
LAYOUT
  2
AcDbLayout
  3
AutoCAD 2000
 90
0
280
0
281
0
  0
ENDSEC
  0
SECTION
  2
TABLES
  0
TABLE
  2
VPORT
  5
8
100
AcDbSymbolTable
 70
2
  0
VPORT
  5
1F4
100
AcDbSymbolTableRecord
100
AcDbViewportTableRecord
  2
*ACTIVE
 70
0
 10
0.0
 20
0.0
 11
1.0
 21
1.0
 12
148.5
 22
105.0
 13
0.0
 23
0.0
 14
1.0
 24
1.0
 15
0.0
 25
0.0
 16
0.0
 26
0.0
 36
1.0
 17
0.0
 27
0.0
 37
0.0
 40
210.0
 41
1.4142857143
 42
50.0
 43
0.0
 44
0.0
 50
0.0
 51
0.0
 71
0
 72
100
 73
1
 74
1
 75
0
 76
0
 77
0
 78
0
  0
ENDTAB
  0
TABLE
  2
LTYPE
  5
5
100
AcDbSymbolTable
 70
6
  0
LTYPE
  5
14
100
AcDbSymbolTableRecord
100
AcDbLinetypeTableRecord
  2
BYBLOCK
 70
0
  3

 72
65
 73
0
 40
0.0
  0
LTYPE
  5
15
100
AcDbSymbolTableRecord
100
AcDbLinetypeTableRecord
  2
BYLAYER
 70
0
  3

 72
65
 73
0
 40
0.0
  0
LTYPE
  5
16
100
AcDbSymbolTableRecord
100
AcDbLinetypeTableRecord
  2
CONTINUOUS
 70
64
  3
Solid line
 72
65
 73
0
 40
0.0
  0
LTYPE
  5
1F5
100
AcDbSymbolTableRecord
100
AcDbLinetypeTableRecord
  2
CENTER
 70
64
  3
____ _ ____ _ ____ _ ____ _ ____ _ ____ _ ____
 72
65
 73
4
 40
0.6
 49
0.375
 74
0
 49
-0.075
 74
0
 49
0.075
 74
0
 49
-0.075
 74
0
  0
LTYPE
  5
1F6
100
AcDbSymbolTableRecord
100
AcDbLinetypeTableRecord
  2
HIDDEN
 70
64
  3
- - - - - - - - - - - - - - - - - - - -
 72
65
 73
2
 40
0.2
 49
0.1
 74
0
 49
-0.1
 74
0
  0
LTYPE
  5
1F7
100
AcDbSymbolTableRecord
100
AcDbLinetypeTableRecord
  2
PHANTOM
 70
64
  3
_____ _ _ _____ _ _ _____ _ _ _____
 72
65
 73
6
 40
0.8
 49
0.45
 74
0
 49
-0.05
 74
0
 49
0.1
 74
0
 49
-0.05
 74
0
 49
0.1
 74
0
 49
-0.05
 74
0
  0
LTYPE
  5
1F8
100
AcDbSymbolTableRecord
100
AcDbLinetypeTableRecord
  2
DOT
 70
64
  3
. . . . . . . . . . . . . . . . . . . .
 72
65
 73
2
 40
0.2
 49
0.1
 74
0
 49
-0.1
 74
0
  0
LTYPE
  5
1F9
100
AcDbSymbolTableRecord
100
AcDbLinetypeTableRecord
  2
DASHED
 70
64
  3
- - - - - - - - - - - - - - - - - - - -
 72
65
 73
2
 40
0.2
 49
0.1
 74
0
 49
-0.1
 74
0
  0
ENDTAB
  0
TABLE
  2
LAYER
  5
2
100
AcDbSymbolTable
 70
36
  0
LAYER
  5
10
100
AcDbSymbolTableRecord
100
AcDbLayerTableRecord
  2
0
 70
0
 62
7
  6
CONTINUOUS
370
-3
390
F
  0
LAYER
  5
1FA
100
AcDbSymbolTableRecord
100
AcDbLayerTableRecord
  2
DEFAULT_1
 70
0
 62
7
  6
CENTER
370
-3
390
F
  0
LAYER
  5
1FB
100
AcDbSymbolTableRecord
100
AcDbLayerTableRecord
  2
DEFAULT_2
 70
0
 62
7
  6
HIDDEN
370
-3
390
F
  0
LAYER
  5
1FC
100
AcDbSymbolTableRecord
100
AcDbLayerTableRecord
  2
DEFAULT_3
 70
0
 62
7
  6
PHANTOM
370
-3
390
F
  0
LAYER
  5
1FD
100
AcDbSymbolTableRecord
100
AcDbLayerTableRecord
  2
ASSI
 70
0
 62
7
  6
CONTINUOUS
370
-3
390
F
  0
LAYER
  5
1FE
100
AcDbSymbolTableRecord
100
AcDbLayerTableRecord
  2
COLOR1
 70
0
 62
7
  6
CONTINUOUS
370
-3
390
F
  0
LAYER
  5
1FF
100
AcDbSymbolTableRecord
100
AcDbLayerTableRecord
  2
COLOR15
 70
0
 62
7
  6
CONTINUOUS
370
-3
390
F
  0
LAYER
  5
200
100
AcDbSymbolTableRecord
100
AcDbLayerTableRecord
  2
COLOR16
 70
0
 62
7
  6
CONTINUOUS
370
-3
390
F
  0
LAYER
  5
201
100
AcDbSymbolTableRecord
100
AcDbLayerTableRecord
  2
COLOR5
 70
0
 62
7
  6
CONTINUOUS
370
-3
390
F
  0
LAYER
  5
202
100
AcDbSymbolTableRecord
100
AcDbLayerTableRecord
  2
COLOR7
 70
0
 62
7
  6
CONTINUOUS
370
-3
390
F
  0
LAYER
  5
203
100
AcDbSymbolTableRecord
100
AcDbLayerTableRecord
  2
COORDINATE
 70
0
 62
7
  6
CONTINUOUS
370
-3
390
F
  0
LAYER
  5
204
100
AcDbSymbolTableRecord
100
AcDbLayerTableRecord
  2
COPY_PUBLISH
 70
0
 62
7
  6
CONTINUOUS
370
-3
390
F
  0
LAYER
  5
205
100
AcDbSymbolTableRecord
100
AcDbLayerTableRecord
  2
CORNICE_BASE
 70
0
 62
7
  6
CONTINUOUS
370
-3
390
F
  0
LAYER
  5
206
100
AcDbSymbolTableRecord
100
AcDbLayerTableRecord
  2
COSMETICI
 70
0
 62
7
  6
CONTINUOUS
370
-3
390
F
  0
LAYER
  5
207
100
AcDbSymbolTableRecord
100
AcDbLayerTableRecord
  2
CURVE
 70
0
 62
7
  6
CONTINUOUS
370
-3
390
F
  0
LAYER
  5
208
100
AcDbSymbolTableRecord
100
AcDbLayerTableRecord
  2
DRAFT
 70
0
 62
7
  6
CONTINUOUS
370
-3
390
F
  0
LAYER
  5
209
100
AcDbSymbolTableRecord
100
AcDbLayerTableRecord
  2
ELVOX
 70
0
 62
7
  6
CONTINUOUS
370
-3
390
F
  0
LAYER
  5
20A
100
AcDbSymbolTableRecord
100
AcDbLayerTableRecord
  2
IMPORT_IGES
 70
0
 62
7
  6
CONTINUOUS
370
-3
390
F
  0
LAYER
  5
20B
100
AcDbSymbolTableRecord
100
AcDbLayerTableRecord
  2
INTF_1
 70
0
 62
7
  6
CONTINUOUS
370
-3
390
F
  0
LAYER
  5
20C
100
AcDbSymbolTableRecord
100
AcDbLayerTableRecord
  2
INTF_11
 70
0
 62
7
  6
CONTINUOUS
370
-3
390
F
  0
LAYER
  5
20D
100
AcDbSymbolTableRecord
100
AcDbLayerTableRecord
  2
INTF_7
 70
0
 62
7
  6
CONTINUOUS
370
-3
390
F
  0
LAYER
  5
20E
100
AcDbSymbolTableRecord
100
AcDbLayerTableRecord
  2
INTF_RED
 70
0
 62
7
  6
CONTINUOUS
370
-3
390
F
  0
LAYER
  5
20F
100
AcDbSymbolTableRecord
100
AcDbLayerTableRecord
  2
INTF_YELLOW
 70
0
 62
7
  6
CONTINUOUS
370
-3
390
F
  0
LAYER
  5
210
100
AcDbSymbolTableRecord
100
AcDbLayerTableRecord
  2
NOTE
 70
0
 62
7
  6
CONTINUOUS
370
-3
390
F
  0
LAYER
  5
211
100
AcDbSymbolTableRecord
100
AcDbLayerTableRecord
  2
PIANI
 70
0
 62
7
  6
CONTINUOUS
370
-3
390
F
  0
LAYER
  5
212
100
AcDbSymbolTableRecord
100
AcDbLayerTableRecord
  2
PUNTI
 70
0
 62
7
  6
CONTINUOUS
370
-3
390
F
  0
LAYER
  5
213
100
AcDbSymbolTableRecord
100
AcDbLayerTableRecord
  2
RACCORDO
 70
0
 62
7
  6
CONTINUOUS
370
-3
390
F
  0
LAYER
  5
214
100
AcDbSymbolTableRecord
100
AcDbLayerTableRecord
  2
RIFERIMENTO_GEOMETRIA
 70
0
 62
7
  6
CONTINUOUS
370
-3
390
F
  0
LAYER
  5
215
100
AcDbSymbolTableRecord
100
AcDbLayerTableRecord
  2
SIMBOLI
 70
0
 62
7
  6
CONTINUOUS
370
-3
390
F
  0
LAYER
  5
216
100
AcDbSymbolTableRecord
100
AcDbLayerTableRecord
  2
SMUSSO
 70
0
 62
7
  6
CONTINUOUS
370
-3
390
F
  0
LAYER
  5
217
100
AcDbSymbolTableRecord
100
AcDbLayerTableRecord
  2
SNAPLINE
 70
0
 62
7
  6
CONTINUOUS
370
-3
390
F
  0
LAYER
  5
218
100
AcDbSymbolTableRecord
100
AcDbLayerTableRecord
  2
SUPERFICI
 70
0
 62
7
  6
CONTINUOUS
370
-3
390
F
  0
LAYER
  5
219
100
AcDbSymbolTableRecord
100
AcDbLayerTableRecord
  2
TRASH
 70
0
 62
7
  6
CONTINUOUS
370
-3
390
F
  0
ENDTAB
  0
TABLE
  2
STYLE
  5
3
100
AcDbSymbolTable
 70
1
  0
STYLE
  5
11
100
AcDbSymbolTableRecord
100
AcDbTextStyleTableRecord
  2
STANDARD
 70
0
 40
0.0
 41
0.8
 50
0.0
 71
0
 42
0.2
  3
txt
  4

  0
STYLE
  5
21A
100
AcDbSymbolTableRecord
100
AcDbTextStyleTableRecord
  2
TEXTSTYLE_1
 70
0
 40
0.0
 41
0.8
 50
0.0
 71
0
 42
0.2
  3
gdt
  4

  0
ENDTAB
  0
TABLE
  2
VIEW
  5
6
100
AcDbSymbolTable
 70
0
  0
ENDTAB
  0
TABLE
  2
UCS
  5
7
100
AcDbSymbolTable
 70
0
  0
ENDTAB
  0
TABLE
  2
APPID
  5
9
100
AcDbSymbolTable
 70
1
  0
APPID
  5
21B
100
AcDbSymbolTableRecord
100
AcDbRegAppTableRecord
  2
ACAD
 70
0
  0
ENDTAB
  0
TABLE
  2
BLOCK_RECORD
  5
1
100
AcDbSymbolTable
 70
0
  0
BLOCK_RECORD
  5
21C
100
AcDbSymbolTableRecord
100
AcDbBlockTableRecord
  2
*Model_Space
  0
BLOCK_RECORD
  5
21D
100
AcDbSymbolTableRecord
100
AcDbBlockTableRecord
  2
*Paper_Space
  0
BLOCK_RECORD
  5
21E
100
AcDbSymbolTableRecord
100
AcDbBlockTableRecord
  2
_FILLED
  0
BLOCK_RECORD
  5
21F
100
AcDbSymbolTableRecord
100
AcDbBlockTableRecord
  2
*D0
  0
BLOCK_RECORD
  5
220
100
AcDbSymbolTableRecord
100
AcDbBlockTableRecord
  2
*D1
  0
BLOCK_RECORD
  5
221
100
AcDbSymbolTableRecord
100
AcDbBlockTableRecord
  2
*D2
  0
ENDTAB
  0
TABLE
  2
DIMSTYLE
  5
A
100
AcDbSymbolTable
 70
1
100
AcDbDimStyleTable
 71
0
  0
DIMSTYLE
105
222
100
AcDbSymbolTableRecord
100
AcDbDimStyleTableRecord
  2
STANDARD
 70
0
  3

  4

 40
1.0
 41
3.0
 42
0.5
 43
0.38
 44
1.5
 45
0.0
 46
0.0
 47
0.01
 48
0.01
140
3.0
141
0.09
142
0.0
143
25.4
144
1.0
145
0.0
146
1.0
147
0.625
 71
1.0
 72
0.0
 73
0
 74
0
 75
0
 76
0
 77
1
 78
8
170
0
171
2
172
0
173
0
174
0
175
0
176
0
177
0
178
0
270
2
271
2
272
2
273
2
274
2
275
0
280
0
281
0
282
0
283
1
284
8
285
0
286
0
287
3
288
0
340
11
278
44
341
21E
342
21E
343
21E
344
21E
  0
DIMSTYLE
105
223
100
AcDbSymbolTableRecord
100
AcDbDimStyleTableRecord
  2
DIMSTYLE_1
 70
0
  3

  4

 40
1.0
 41
3.0
 42
0.5
 43
0.38
 44
1.5
 45
0.0
 46
0.0
 47
0.0
 48
0.0
140
3.0
141
0.09
142
0.0
143
25.4
144
1.0
145
0.0
146
1.0
147
0.75
 71
0.0
 72
0.0
 73
0
 74
0
 75
0
 76
0
 77
1
 78
8
170
0
171
2
172
0
173
0
174
0
175
0
176
0
177
0
178
0
270
2
271
2
272
2
273
2
274
2
275
0
280
0
281
0
282
0
283
1
284
8
285
0
286
0
287
3
288
0
340
11
278
44
341
21E
342
21E
343
21E
344
21E
  0
ENDTAB
  0
ENDSEC
  0
SECTION
  2
BLOCKS
  0
BLOCK
  5
20
100
AcDbEntity
  8
0
100
AcDbBlockBegin
  2
*Model_Space
 70
0
 10
0.0
 20
0.0
 30
0.0
  3
*Model_Space
  1

  0
ENDBLK
  5
21
100
AcDbEntity
  8
0
100
AcDbBlockEnd
  0
BLOCK
  5
1C
100
AcDbEntity
  8
0
100
AcDbBlockBegin
  2
*Paper_Space
 70
0
 10
0.0
 20
0.0
 30
0.0
  3
*Paper_Space
  1

  0
ENDBLK
  5
1D
100
AcDbEntity
  8
0
100
AcDbBlockEnd
  0
BLOCK
  5
224
100
AcDbEntity
  8
0
100
AcDbBlockBegin
  2
_FILLED
 70
64
 10
0.0
 20
0.0
  3
_FILLED
  1

  0
SOLID
  5
225
100
AcDbEntity
  8
0
  6
BYBLOCK
 62
0
100
AcDbTrace
 10
0.0
 20
0.0
 11
-1.0
 21
0.3166666667
 12
-1.0
 22
-0.3166666667
 13
-1.0
 23
-0.3166666667
  0
ENDBLK
  5
226
100
AcDbEntity
  8
0
  6
BYBLOCK
 62
0
100
AcDbBlockEnd
  0
BLOCK
  5
227
100
AcDbEntity
  8
0
100
AcDbBlockBegin
 62
7
  6
CONTINUOUS
  2
*D0
 70
65
 10
0.0
 20
0.0
  3
*D0
  1

  0
MTEXT
  5
228
100
AcDbEntity
  8
0
100
AcDbMText
 62
7
  6
CONTINUOUS
  7
STANDARD
 71
2
 72
1
 10
57.7937714244
 20
-37.8002897165
 30
0.0
 11
0.0
 21
1.0
 31
0.0
 44
0.9
  1
391
 40
3.0
 41
9.3214285714
  0
LINE
  5
229
100
AcDbEntity
  8
0
100
AcDbLine
 62
7
  6
CONTINUOUS
 10
33.7243290351
 20
157.6997102835
 11
63.0437714244
 21
157.6997102835
  0
LINE
  5
22A
100
AcDbEntity
  8
0
100
AcDbLine
 62
7
  6
CONTINUOUS
 10
33.7243290351
 20
-233.3002897165
 11
63.0437714244
 21
-233.3002897165
  0
LINE
  5
22B
100
AcDbEntity
  8
0
100
AcDbLine
 62
7
  6
CONTINUOUS
 10
61.5437714244
 20
157.6997102835
 11
61.5437714244
 21
-37.8002897165
  0
LINE
  5
22C
100
AcDbEntity
  8
0
100
AcDbLine
 62
7
  6
CONTINUOUS
 10
61.5437714244
 20
-233.3002897165
 11
61.5437714244
 21
-37.8002897165
  0
INSERT
  5
22D
100
AcDbEntity
  8
0
100
AcDbBlockReference
 62
7
  6
CONTINUOUS
  2
_FILLED
 10
61.5437714244
 20
157.6997102835
 41
3.0
 42
3.0
 43
3.0
 50
90.0
  0
INSERT
  5
22E
100
AcDbEntity
  8
0
100
AcDbBlockReference
 62
7
  6
CONTINUOUS
  2
_FILLED
 10
61.5437714244
 20
-233.3002897165
 41
3.0
 42
3.0
 43
3.0
 50
270.0
  0
ENDBLK
  5
22F
100
AcDbEntity
  8
0
  6
BYBLOCK
 62
0
100
AcDbBlockEnd
  0
BLOCK
  5
230
100
AcDbEntity
  8
0
100
AcDbBlockBegin
 62
7
  6
CONTINUOUS
  2
*D1
 70
65
 10
0.0
 20
0.0
  3
*D1
  1

  0
MTEXT
  5
231
100
AcDbEntity
  8
0
100
AcDbMText
 62
7
  6
CONTINUOUS
  7
STANDARD
 71
2
 72
1
 10
-1.3756709649
 20
169.4497102835
 30
0.0
 11
1.0
 21
0.0
 31
0.0
 44
0.9
  1
99,5
 40
3.0
 41
12.8571428571
  0
LINE
  5
232
100
AcDbEntity
  8
0
100
AcDbLine
 62
7
  6
CONTINUOUS
 10
-51.1256709649
 20
150.1997102835
 11
-51.1256709649
 21
167.1997102835
  0
LINE
  5
233
100
AcDbEntity
  8
0
100
AcDbLine
 62
7
  6
CONTINUOUS
 10
48.3743290351
 20
150.1997102835
 11
48.3743290351
 21
167.1997102835
  0
LINE
  5
234
100
AcDbEntity
  8
0
100
AcDbLine
 62
7
  6
CONTINUOUS
 10
-51.1256709649
 20
165.6997102835
 11
-1.3756709649
 21
165.6997102835
  0
LINE
  5
235
100
AcDbEntity
  8
0
100
AcDbLine
 62
7
  6
CONTINUOUS
 10
48.3743290351
 20
165.6997102835
 11
-1.3756709649
 21
165.6997102835
  0
INSERT
  5
236
100
AcDbEntity
  8
0
100
AcDbBlockReference
 62
7
  6
CONTINUOUS
  2
_FILLED
 10
-51.1256709649
 20
165.6997102835
 41
3.0
 42
3.0
 43
3.0
 50
180.0
  0
INSERT
  5
237
100
AcDbEntity
  8
0
100
AcDbBlockReference
 62
7
  6
CONTINUOUS
  2
_FILLED
 10
48.3743290351
 20
165.6997102835
 41
3.0
 42
3.0
 43
3.0
  0
ENDBLK
  5
238
100
AcDbEntity
  8
0
  6
BYBLOCK
 62
0
100
AcDbBlockEnd
  0
BLOCK
  5
239
100
AcDbEntity
  8
0
100
AcDbBlockBegin
 62
7
  6
CONTINUOUS
  2
*D2
 70
65
 10
0.0
 20
0.0
  3
*D2
  1

  0
MTEXT
  5
23A
100
AcDbEntity
  8
0
100
AcDbMText
 62
7
  6
CONTINUOUS
  7
STANDARD
 71
2
 72
1
 10
-159.9728777872
 20
169.4497102835
 30
0.0
 11
1.0
 21
0.0
 31
0.0
 44
0.9
  1
40,7
 40
3.0
 41
13.1785714286
  0
LINE
  5
23B
100
AcDbEntity
  8
0
100
AcDbLine
 62
7
  6
CONTINUOUS
 10
-180.3228777872
 20
158.1997102835
 11
-180.3228777872
 21
167.1997102835
  0
LINE
  5
23C
100
AcDbEntity
  8
0
100
AcDbLine
 62
7
  6
CONTINUOUS
 10
-139.6228777872
 20
141.4497102835
 11
-139.6228777872
 21
167.1997102835
  0
LINE
  5
23D
100
AcDbEntity
  8
0
100
AcDbLine
 62
7
  6
CONTINUOUS
 10
-180.3228777872
 20
165.6997102835
 11
-159.9728777872
 21
165.6997102835
  0
LINE
  5
23E
100
AcDbEntity
  8
0
100
AcDbLine
 62
7
  6
CONTINUOUS
 10
-139.6228777872
 20
165.6997102835
 11
-159.9728777872
 21
165.6997102835
  0
INSERT
  5
23F
100
AcDbEntity
  8
0
100
AcDbBlockReference
 62
7
  6
CONTINUOUS
  2
_FILLED
 10
-180.3228777872
 20
165.6997102835
 41
3.0
 42
3.0
 43
3.0
 50
180.0
  0
INSERT
  5
240
100
AcDbEntity
  8
0
100
AcDbBlockReference
 62
7
  6
CONTINUOUS
  2
_FILLED
 10
-139.6228777872
 20
165.6997102835
 41
3.0
 42
3.0
 43
3.0
  0
ENDBLK
  5
241
100
AcDbEntity
  8
0
  6
BYBLOCK
 62
0
100
AcDbBlockEnd
  0
ENDSEC
  0
SECTION
  2
ENTITIES
  0
DIMENSION
  5
242
100
AcDbEntity
  8
0
100
AcDbDimension
 62
7
  6
CONTINUOUS
  2
*D0
 10
61.5437714244
 20
-233.3002897165
 11
61.5437714244
 21
-38.2288606905
 70
160
 71
2
 42
391.0
  3
DIMSTYLE_1
100
AcDbAlignedDimension
 13
33.2243290351
 23
157.6997102835
 14
33.2243290351
 24
-233.3002897165
 50
270.0
100
AcDbRotatedDimension
  0
DIMENSION
  5
243
100
AcDbEntity
  8
0
100
AcDbDimension
 62
7
  6
CONTINUOUS
  2
*D1
 10
48.3743290351
 20
165.6997102835
 11
-1.8042423706
 21
165.6997102835
 70
160
 71
2
 42
99.5
  3
DIMSTYLE_1
100
AcDbAlignedDimension
 13
-51.1256709649
 23
149.6997102835
 14
48.3743290351
 24
149.6997102835
100
AcDbRotatedDimension
  0
DIMENSION
  5
244
100
AcDbEntity
  8
0
100
AcDbDimension
 62
7
  6
CONTINUOUS
  2
*D2
 10
-139.6228777872
 20
165.6997102835
 11
-160.4014447632
 21
165.6997102835
 70
160
 71
2
 42
40.7
  3
DIMSTYLE_1
100
AcDbAlignedDimension
 13
-180.3228777872
 23
157.6997102835
 14
-139.6228777872
 24
140.9497102835
100
AcDbRotatedDimension
  0
LINE
  5
245
100
AcDbEntity
  8
0
100
AcDbLine
 62
7
  6
CONTINUOUS
 10
40.3743290351
 20
-233.3002897165
 11
-43.1256709649
 21
-233.3002897165
  0
LINE
  5
246
100
AcDbEntity
  8
ASSI
100
AcDbLine
 62
7
  6
CONTINUOUS
 10
40.3743290351
 20
-233.3002897165
 11
-43.1256709649
 21
-233.3002897165
  0
LWPOLYLINE
  5
247
100
AcDbEntity
  8
RACCORDO
100
AcDbPolyline
 62
253
  6
CONTINUOUS
 90
6
 70
0
 10
32.1265885367
 20
-206.3864117671
 10
32.1911873088
 20
-206.3822369187
 10
32.2557381747
 20
-206.3752540171
 10
32.3201237842
 20
-206.3654499752
 10
32.3842126993
 20
-206.3528186972
 10
32.4478601597
 20
-206.3373638877
  0
LINE
  5
248
100
AcDbEntity
  8
0
100
AcDbLine
 62
7
  6
CONTINUOUS
 10
34.0243290351
 20
-210.5502897165
 11
-36.7756709649
 21
-210.5502897165
  0
LINE
  5
249
100
AcDbEntity
  8
ASSI
100
AcDbLine
 62
7
  6
CONTINUOUS
 10
34.0243290351
 20
-210.5502897165
 11
-36.7756709649
 21
-210.5502897165
  0
LINE
  5
24A
100
AcDbEntity
  8
RACCORDO
100
AcDbLine
 62
253
  6
CONTINUOUS
 10
-36.7756709649
 20
-210.4072108113
 11
34.0243290351
 21
-210.4072108113
  0
LINE
  5
24B
100
AcDbEntity
  8
RACCORDO
100
AcDbLine
 62
253
  6
CONTINUOUS
 10
32.1676973196
 20
-206.8933686218
 11
-34.9190392493
 21
-206.8933686218
  0
LINE
  5
24C
100
AcDbEntity
  8
RACCORDO
100
AcDbLine
 62
253
  6
CONTINUOUS
 10
32.1676973196
 20
-206.4934295437
 11
-34.9190392493
 21
-206.4934295437
  0
LINE
  5
24D
100
AcDbEntity
  8
RACCORDO
100
AcDbLine
 62
7
  6
CONTINUOUS
 10
-34.8134056432
 20
-206.3877502462
 11
32.0620637135
 21
-206.3877502462
  0
LINE
  5
24E
100
AcDbEntity
  8
RACCORDO
100
AcDbLine
 62
253
  6
CONTINUOUS
 10
-36.7756709649
 20
-204.993658001
 11
-36.418810792
 21
-204.993658001
  0
LINE
  5
24F
100
AcDbEntity
  8
RACCORDO
100
AcDbLine
 62
253
  6
CONTINUOUS
 10
34.0243290351
 20
-204.993658001
 11
33.6674688623
 21
-204.9936580009
  0
LINE
  5
250
100
AcDbEntity
  8
RACCORDO
100
AcDbLine
 62
253
  6
CONTINUOUS
 10
33.5617895648
 20
-204.8880243949
 11
33.5618352562
 21
-204.8880243949
  0
LINE
  5
251
100
AcDbEntity
  8
RACCORDO
100
AcDbLine
 62
253
  6
CONTINUOUS
 10
-36.3131314945
 20
-204.8880243949
 11
-36.3131771859
 21
-204.8880243949
  0
LWPOLYLINE
  5
252
100
AcDbEntity
  8
RACCORDO
100
AcDbPolyline
 62
253
  6
CONTINUOUS
 90
33
 70
0
 10
-34.9190392493
 20
-206.8933686218
 10
-35.0006323737
 20
-206.8916806784
 10
-35.0821361299
 20
-206.886415027
 10
-35.1635505178
 20
-206.8775716675
 10
-35.2451018043
 20
-206.8651421461
 10
-35.3265637226
 20
-206.8491349166
 10
-35.4072574721
 20
-206.8295753404
 10
-35.4871620508
 20
-206.8064154705
 10
-35.5662984608
 20
-206.7797032539
 10
-35.6440509076
 20
-206.7496078927
 10
-35.720388671
 20
-206.7160934327
 10
-35.7953424714
 20
-206.6791958282
 10
-35.8683886749
 20
-206.6391921448
 10
-35.9394695267
 20
-206.596083573
 10
-36.0086427817
 20
-206.5498689222
 10
-36.075558071
 20
-206.5008216865
 10
-36.140199053
 20
-206.4489384685
 10
-36.2025820693
 20
-206.3942226655
 10
-36.2624057758
 20
-206.3369579637
 10
-36.3196620797
 20
-206.277138487
 10
-36.3743590738
 20
-206.2147701115
 10
-36.4262196928
 20
-206.1501541509
 10
-36.4752400308
 20
-206.0832770927
 10
-36.5214239937
 20
-206.0141524494
 10
-36.5645062339
 20
-205.9431220728
 10
-36.6044878881
 20
-205.8701358636
 10
-36.6413678196
 20
-205.795243921
 10
-36.6748772707
 20
-205.7189383943
 10
-36.7049907394
 20
-205.641150846
 10
-36.7317337277
 20
-205.5619497135
 10
-36.7549139843
 20
-205.4820324589
 10
-36.7744690467
 20
-205.4014548023
 10
-36.7756709649
 20
-205.3953450947
  0
LWPOLYLINE
  5
253
100
AcDbEntity
  8
RACCORDO
100
AcDbPolyline
 62
253
  6
CONTINUOUS
 90
37
 70
0
 10
-34.9190392493
 20
-206.4934295437
 10
-34.9833793305
 20
-206.4920546471
 10
-35.0478616351
 20
-206.487899224
 10
-35.112364411
 20
-206.4809371814
 10
-35.1768055684
 20
-206.4711404346
 10
-35.2410157286
 20
-206.4584973131
 10
-35.3047420561
 20
-206.4430310206
 10
-35.367858192
 20
-206.4247541451
 10
-35.4302386462
 20
-206.4036847378
 10
-35.4916403361
 20
-206.3798949321
 10
-35.5519332932
 20
-206.3534348844
 10
-35.6110127053
 20
-206.3243504362
 10
-35.6686868138
 20
-206.2927413504
 10
-35.7248167114
 20
-206.2586989491
 10
-35.7793354062
 20
-206.2222794537
 10
-35.8321674553
 20
-206.183543841
 10
-35.8832109392
 20
-206.1425759904
 10
-35.9323786351
 20
-206.0994553793
 10
-35.9796164871
 20
-206.0542343259
 10
-36.0248348459
 20
-206.0069993312
 10
-36.0679483389
 20
-205.9578402959
 10
-36.1089059341
 20
-205.9068111691
 10
-36.1476278875
 20
-205.8540010261
 10
-36.1840321853
 20
-205.799510848
 10
-36.2180616588
 20
-205.7434111812
 10
-36.249657311
 20
-205.6857744992
 10
-36.2787313658
 20
-205.6267341928
 10
-36.3051937305
 20
-205.5664587217
 10
-36.3290062136
 20
-205.5050222899
 10
-36.3501024246
 20
-205.4425820876
 10
-36.368389483
 20
-205.3794464662
 10
-36.3838418747
 20
-205.3158014707
 10
-36.3964706595
 20
-205.2517168591
 10
-36.4062727861
 20
-205.1873343075
 10
-36.4132542795
 20
-205.1227841665
 10
-36.4174278786
 20
-205.0581847841
 10
-36.418810792
 20
-204.993658001
  0
LWPOLYLINE
  5
254
100
AcDbEntity
  8
RACCORDO
100
AcDbPolyline
 62
7
  6
CONTINUOUS
 90
32
 70
0
 10
-34.8134056431
 20
-206.3877473328
 10
-34.8950549528
 20
-206.385524697
 10
-34.9706184697
 20
-206.3794903612
 10
-35.0457558768
 20
-206.3696474197
 10
-35.1202848196
 20
-206.3560266301
 10
-35.1940319142
 20
-206.3386581536
 10
-35.2668141859
 20
-206.317585792
 10
-35.3384417899
 20
-206.2928665318
 10
-35.4087307782
 20
-206.2645579589
 10
-35.4775032091
 20
-206.2327336071
 10
-35.5445831799
 20
-206.1974761563
 10
-35.6097968684
 20
-206.1588715329
 10
-35.6729791856
 20
-206.1170215487
 10
-35.733968674
 20
-206.0720323745
 10
-35.7926080609
 20
-206.0240148744
 10
-35.848750295
 20
-205.9730945898
 10
-35.9022500032
 20
-205.9193999277
 10
-35.9529693186
 20
-205.8630658144
 10
-36.0007814121
 20
-205.8042384567
 10
-36.0455607352
 20
-205.7430657475
 10
-36.0871927611
 20
-205.6797036763
 10
-36.1255734038
 20
-205.6143154918
 10
-36.1606000358
 20
-205.5470662348
 10
-36.1921842755
 20
-205.478129289
 10
-36.2202462185
 20
-205.4076817832
 10
-36.2447098036
 20
-205.3359012584
 10
-36.2655161484
 20
-205.2629730639
 10
-36.2826113632
 20
-205.1890877826
 10
-36.2959483123
 20
-205.1144313589
 10
-36.3054970917
 20
-205.0391827494
 10
-36.3112295505
 20
-204.9635251335
 10
-36.313128088
 20
-204.8880243949
  0
LWPOLYLINE
  5
255
100
AcDbEntity
  8
RACCORDO
100
AcDbPolyline
 62
253
  6
CONTINUOUS
 90
3
 70
0
 10
-34.9422246026
 20
-206.382263191
 10
-34.8777439525
 20
-206.3864197791
 10
-34.8134056432
 20
-206.3877959376
  0
LWPOLYLINE
  5
256
100
AcDbEntity
  8
RACCORDO
100
AcDbPolyline
 62
253
  6
CONTINUOUS
 90
5
 70
0
 10
-35.1990996081
 20
-206.3373911511
 10
-35.1353745501
 20
-206.3528582646
 10
-35.0711656349
 20
-206.3655023209
 10
-35.0067258432
 20
-206.3753000729
 10
-34.9422246026
 20
-206.382263191
  0
LWPOLYLINE
  5
257
100
AcDbEntity
  8
RACCORDO
100
AcDbPolyline
 62
253
  6
CONTINUOUS
 90
7
 70
0
 10
-35.6191668729
 20
-206.1530567099
 10
-35.5630376389
 20
-206.1870991567
 10
-35.5053643048
 20
-206.2187083917
 10
-35.4462857758
 20
-206.2477930937
 10
-35.3859938509
 20
-206.2742534797
 10
-35.3245934091
 20
-206.298043693
 10
-35.2622143546
 20
-206.319113614
  0
LINE
  5
258
100
AcDbEntity
  8
RACCORDO
100
AcDbLine
 62
253
  6
CONTINUOUS
 10
-35.6736850156
 20
-206.1166372697
 11
-35.6729791856
 21
-206.1170215487
  0
LWPOLYLINE
  5
259
100
AcDbEntity
  8
RACCORDO
100
AcDbPolyline
 62
253
  6
CONTINUOUS
 90
7
 70
0
 10
-36.0032542549
 20
-205.8011729159
 10
-35.9622964673
 20
-205.8522011744
 10
-35.9191829355
 20
-205.9013594112
 10
-35.8739646633
 20
-205.9485937139
 10
-35.8267270204
 20
-205.9938141855
 10
-35.7775596545
 20
-206.0369343257
 10
-35.7265165882
 20
-206.0779018413
  0
LINE
  5
25A
100
AcDbEntity
  8
ELVOX
100
AcDbLine
 62
253
  6
CONTINUOUS
 10
4.2129976298
 20
147.4882625939
 11
4.7434555121
 21
148.1681489749
  0
LINE
  5
25B
100
AcDbEntity
  8
ASSI
100
AcDbLine
 62
7
  6
CONTINUOUS
 10
32.3430674777
 20
-155.8002897165
 11
32.3243648516
 21
-155.8002897165
  0
LINE
  5
25C
100
AcDbEntity
  8
DRAFT
100
AcDbLine
 62
7
  6
CONTINUOUS
 10
33.6505632192
 20
-155.8002897165
 11
32.3430674777
 21
-155.8002897165
  0
LINE
  5
25D
100
AcDbEntity
  8
DRAFT
100
AcDbLine
 62
7
  6
CONTINUOUS
 10
33.6505632192
 20
-149.8002897165
 11
32.3430674777
 21
-149.8002897165
  0
LINE
  5
25E
100
AcDbEntity
  8
ASSI
100
AcDbLine
 62
7
  6
CONTINUOUS
 10
32.3430674777
 20
-149.8002897165
 11
32.3243648516
 21
-149.8002897165
  0
LINE
  5
25F
100
AcDbEntity
  8
ELVOX
100
AcDbLine
 62
253
  6
CONTINUOUS
 10
-0.3810404929
 20
147.4553026805
 11
-1.6912087608
 21
145.3324429621
  0
LINE
  5
260
100
AcDbEntity
  8
ELVOX
100
AcDbLine
 62
253
  6
CONTINUOUS
 10
-1.6750438303
 20
146.7751673187
 11
-0.8120771987
 21
148.1681489749
  0
LINE
  5
261
100
AcDbEntity
  8
ELVOX
100
AcDbLine
 62
253
  6
CONTINUOUS
 10
2.8799639464
 20
145.3144371581
 11
3.7655420496
 21
146.7083002252
  0
LINE
  5
262
100
AcDbEntity
  8
ELVOX
100
AcDbLine
 62
253
  6
CONTINUOUS
 10
4.2467608659
 20
145.9791194148
 11
3.760430819
 21
145.3144371581
  0
LINE
  5
263
100
AcDbEntity
  8
RACCORDO
100
AcDbLine
 62
253
  6
CONTINUOUS
 10
31.7460356484
 20
130.4711884395
 11
32.1676973196
 21
130.8928501106
  0
LINE
  5
264
100
AcDbEntity
  8
RACCORDO
100
AcDbLine
 62
253
  6
CONTINUOUS
 10
33.2458071912
 20
128.9714168967
 11
33.6674688623
 21
129.3930785679
  0
LINE
  5
265
100
AcDbEntity
  8
RACCORDO
100
AcDbLine
 62
253
  6
CONTINUOUS
 10
32.1676973196
 20
-206.4934295437
 11
32.0620637135
 21
-206.3877959376
  0
LINE
  5
266
100
AcDbEntity
  8
RACCORDO
100
AcDbLine
 62
253
  6
CONTINUOUS
 10
33.6674688623
 20
-204.993658001
 11
33.5618352562
 21
-204.8880243949
  0
LWPOLYLINE
  5
267
100
AcDbEntity
  8
RACCORDO
100
AcDbPolyline
 62
253
  6
CONTINUOUS
 90
7
 70
0
 10
-36.2233593867
 20
-205.3993929952
 10
-36.1995461607
 20
-205.460827038
 10
-36.1730828595
 20
-205.5211010975
 10
-36.1440079044
 20
-205.5801402526
 10
-36.1124114716
 20
-205.637775857
 10
-36.0783813694
 20
-205.6938744743
 10
-36.0419765669
 20
-205.7483636842
  0
LINE
  5
268
100
AcDbEntity
  8
ELVOX
100
AcDbLine
 62
253
  6
CONTINUOUS
 10
5.579944751
 20
148.1681489749
 11
4.6958462252
 21
146.7315063289
  0
LINE
  5
269
100
AcDbEntity
  8
DRAFT
100
AcDbLine
 62
7
  6
CONTINUOUS
 10
48.4159626549
 20
145.7817490886
 11
48.3743290351
 21
145.7386362133
  0
LINE
  5
26A
100
AcDbEntity
  8
DRAFT
100
AcDbLine
 62
7
  6
CONTINUOUS
 10
48.4159626549
 20
-221.3823285217
 11
48.3743290351
 21
-221.3392156464
  0
LINE
  5
26B
100
AcDbEntity
  8
RACCORDO
100
AcDbLine
 62
253
  6
CONTINUOUS
 10
-36.2447098036
 20
-205.3359012584
 11
-36.2444564904
 21
-205.3369554761
  0
LWPOLYLINE
  5
26C
100
AcDbEntity
  8
RACCORDO
100
AcDbPolyline
 62
253
  6
CONTINUOUS
 90
33
 70
0
 10
-36.7756709649
 20
129.794726183
 10
-36.7745161649
 20
129.8006030412
 10
-36.7549565887
 20
129.8812967907
 10
-36.7317967188
 20
129.9612013694
 10
-36.7050845022
 20
130.0403377794
 10
-36.674989141
 20
130.1180902262
 10
-36.641474681
 20
130.1944279896
 10
-36.6045770765
 20
130.26938179
 10
-36.5645733931
 20
130.3424279935
 10
-36.5214648213
 20
130.4135088453
 10
-36.4752501705
 20
130.4826821003
 10
-36.4262029348
 20
130.5495973896
 10
-36.3743197168
 20
130.6142383716
 10
-36.3196039139
 20
130.6766213879
 10
-36.262339212
 20
130.7364450944
 10
-36.2025197354
 20
130.7937013983
 10
-36.1401513598
 20
130.8483983924
 10
-36.0755353992
 20
130.9002590114
 10
-36.008658341
 20
130.9492793494
 10
-35.9395336977
 20
130.9954633123
 10
-35.8685033211
 20
131.0385455525
 10
-35.7955171119
 20
131.0785272067
 10
-35.7206251693
 20
131.1154071382
 10
-35.6443196426
 20
131.1489165893
 10
-35.5665320943
 20
131.179030058
 10
-35.4873309618
 20
131.2057730463
 10
-35.4074137072
 20
131.2289533029
 10
-35.3268360507
 20
131.2485083653
 10
-35.245542272
 20
131.264500696
 10
-35.1640626724
 20
131.2769254302
 10
-35.0825740189
 20
131.2857809462
 10
-35.0008995446
 20
131.2910688657
 10
-34.9190392493
 20
131.2927891887
  0
LINE
  5
26D
100
AcDbEntity
  8
RACCORDO
100
AcDbLine
 62
253
  6
CONTINUOUS
 10
-36.418810792
 20
25.006341999
 11
-36.3131771859
 21
25.1119756051
  0
LINE
  5
26E
100
AcDbEntity
  8
RACCORDO
100
AcDbLine
 62
253
  6
CONTINUOUS
 10
-34.9190392493
 20
23.5065704563
 11
-34.8134056432
 21
23.6122040624
  0
LINE
  5
26F
100
AcDbEntity
  8
RACCORDO
100
AcDbLine
 62
253
  6
CONTINUOUS
 10
-36.3131771859
 20
-100.7125550382
 11
-36.418810792
 21
-100.6069214321
  0
LINE
  5
270
100
AcDbEntity
  8
RACCORDO
100
AcDbLine
 62
253
  6
CONTINUOUS
 10
-34.8134056432
 20
-99.2127834955
 11
-34.9190392493
 21
-99.1071498894
  0
LINE
  5
271
100
AcDbEntity
  8
DRAFT
100
AcDbLine
 62
7
  6
CONTINUOUS
 10
-51.1673045846
 20
-221.3823285217
 11
-51.1256709649
 21
-222.5745594012
  0
LINE
  5
272
100
AcDbEntity
  8
DRAFT
100
AcDbLine
 62
7
  6
CONTINUOUS
 10
-51.1256709649
 20
146.9739799681
 11
-51.1673045846
 21
145.7817490886
  0
LINE
  5
273
100
AcDbEntity
  8
RACCORDO
100
AcDbLine
 62
253
  6
CONTINUOUS
 10
-36.2995982704
 20
122.7416491655
 11
-36.2988368057
 21
122.7464868073
  0
LINE
  5
274
100
AcDbEntity
  8
RACCORDO
100
AcDbLine
 62
253
  6
CONTINUOUS
 10
-36.2988368057
 20
122.7464868073
 11
-35.9971491209
 21
124.2586125118
  0
LINE
  5
275
100
AcDbEntity
  8
RACCORDO
100
AcDbLine
 62
7
  6
CONTINUOUS
 10
-36.3020812986
 20
122.7003608538
 11
-36.0029047087
 21
124.1999003921
  0
LWPOLYLINE
  5
276
100
AcDbEntity
  8
RACCORDO
100
AcDbPolyline
 62
253
  6
CONTINUOUS
 90
7
 70
0
 10
-36.0783813694
 20
15.0932950412
 10
-36.1124114716
 20
15.0371964239
 10
-36.1440079044
 20
14.9795608196
 10
-36.1730828595
 20
14.9205216644
 10
-36.1995461607
 20
14.860247605
 10
-36.2233593867
 20
14.7988135621
 10
-36.2444564904
 20
14.736376043
  0
LWPOLYLINE
  5
277
100
AcDbEntity
  8
RACCORDO
100
AcDbPolyline
 62
253
  6
CONTINUOUS
 90
7
 70
0
 10
-35.7265165882
 20
15.4773224082
 10
-35.7775596545
 20
15.4363548926
 10
-35.8267270204
 20
15.3932347524
 10
-35.8739646633
 20
15.3480142808
 10
-35.9191829355
 20
15.3007799782
 10
-35.9622964673
 20
15.2516217413
 10
-36.0032542549
 20
15.2005934828
  0
LWPOLYLINE
  5
278
100
AcDbEntity
  8
RACCORDO
100
AcDbPolyline
 62
253
  6
CONTINUOUS
 90
7
 70
0
 10
-35.3245934091
 20
15.69746426
 10
-35.3859938509
 20
15.6736740466
 10
-35.4462857758
 20
15.6472136607
 10
-35.5053643048
 20
15.6181289586
 10
-35.5630376389
 20
15.5865197236
 10
-35.6191668729
 20
15.5524772769
 10
-35.6736850156
 20
15.5160578366
  0
LINE
  5
279
100
AcDbEntity
  8
RACCORDO
100
AcDbLine
 62
253
  6
CONTINUOUS
 10
-35.260692651
 20
15.7189330382
 11
-35.2622143546
 21
15.7185341809
  0
LWPOLYLINE
  5
27A
100
AcDbEntity
  8
RACCORDO
100
AcDbPolyline
 62
253
  6
CONTINUOUS
 90
6
 70
0
 10
32.1265885367
 20
-91.3864117671
 10
32.1911873088
 20
-91.3822369187
 10
32.2557381747
 20
-91.3752540171
 10
32.3201237842
 20
-91.3654499752
 10
32.3842126993
 20
-91.3528186972
 10
32.4478601597
 20
-91.3373638877
  0
LWPOLYLINE
  5
27B
100
AcDbEntity
  8
RACCORDO
100
AcDbPolyline
 62
253
  6
CONTINUOUS
 90
6
 70
0
 10
-34.8777439525
 20
-99.2141596539
 10
-34.9422246026
 20
-99.2183162421
 10
-35.0067258432
 20
-99.2252793602
 10
-35.0711656349
 20
-99.2350771122
 10
-35.1353745501
 20
-99.2477211685
 10
-35.1990996081
 20
-99.263188282
  0
LINE
  5
27C
100
AcDbEntity
  8
RACCORDO
100
AcDbLine
 62
253
  6
CONTINUOUS
 10
33.5617895648
 20
-100.7125550382
 11
33.5618352562
 21
-100.7125550382
  0
LINE
  5
27D
100
AcDbEntity
  8
RACCORDO
100
AcDbLine
 62
253
  6
CONTINUOUS
 10
-36.3131314945
 20
-100.7125550382
 11
-36.3131771859
 21
-100.7125550382
  0
LINE
  5
27E
100
AcDbEntity
  8
RACCORDO
100
AcDbLine
 62
253
  6
CONTINUOUS
 10
-36.7756709649
 20
-100.6069214321
 11
-36.418810792
 21
-100.6069214321
  0
LINE
  5
27F
100
AcDbEntity
  8
RACCORDO
100
AcDbLine
 62
253
  6
CONTINUOUS
 10
34.0243290351
 20
-100.6069214321
 11
33.6674688623
 21
-100.6069214321
  0
LINE
  5
280
100
AcDbEntity
  8
RACCORDO
100
AcDbLine
 62
7
  6
CONTINUOUS
 10
32.0620637135
 20
-99.2128291869
 11
-34.8134056431
 21
-99.2128291869
  0
LINE
  5
281
100
AcDbEntity
  8
RACCORDO
100
AcDbLine
 62
253
  6
CONTINUOUS
 10
-34.9190392493
 20
-99.1071498894
 11
32.1676973196
 21
-99.1071498894
  0
LINE
  5
282
100
AcDbEntity
  8
RACCORDO
100
AcDbLine
 62
253
  6
CONTINUOUS
 10
-34.9190392493
 20
-98.7072108113
 11
32.1676973196
 21
-98.7072108113
  0
LINE
  5
283
100
AcDbEntity
  8
RACCORDO
100
AcDbLine
 62
253
  6
CONTINUOUS
 10
32.1676973196
 20
-91.8933686218
 11
-34.9190392493
 21
-91.8933686218
  0
LINE
  5
284
100
AcDbEntity
  8
RACCORDO
100
AcDbLine
 62
253
  6
CONTINUOUS
 10
32.1676973196
 20
-91.4934295437
 11
-34.9190392493
 21
-91.4934295437
  0
LINE
  5
285
100
AcDbEntity
  8
RACCORDO
100
AcDbLine
 62
7
  6
CONTINUOUS
 10
-34.8134056432
 20
-91.3877502462
 11
32.0620637135
 21
-91.3877502462
  0
LWPOLYLINE
  5
286
100
AcDbEntity
  8
RACCORDO
100
AcDbPolyline
 62
253
  6
CONTINUOUS
 90
33
 70
0
 10
32.1676973196
 20
-98.7072108113
 10
32.249290444
 20
-98.7088987547
 10
32.3307942001
 20
-98.7141644061
 10
32.4122085881
 20
-98.7230077656
 10
32.4937598746
 20
-98.735437287
 10
32.5752217929
 20
-98.7514445165
 10
32.6559155424
 20
-98.7710040927
 10
32.7358201211
 20
-98.7941639626
 10
32.8149565311
 20
-98.8208761792
 10
32.8927089779
 20
-98.8509715403
 10
32.9690467413
 20
-98.8844860004
 10
33.0440005417
 20
-98.9213836048
 10
33.1170467452
 20
-98.9613872883
 10
33.188127597
 20
-99.0044958601
 10
33.257300852
 20
-99.0507105109
 10
33.3242161413
 20
-99.0997577466
 10
33.3888571233
 20
-99.1516409646
 10
33.4512401396
 20
-99.2063567675
 10
33.5110638461
 20
-99.2636214694
 10
33.56832015
 20
-99.323440946
 10
33.6230171441
 20
-99.3858093216
 10
33.6748777631
 20
-99.4504252822
 10
33.7238981011
 20
-99.5173023404
 10
33.770082064
 20
-99.5864269837
 10
33.8131643042
 20
-99.6574573603
 10
33.8531459584
 20
-99.7304435695
 10
33.8900258898
 20
-99.8053355121
 10
33.923535341
 20
-99.8816410388
 10
33.9536488097
 20
-99.9594285871
 10
33.980391798
 20
-100.0386297196
 10
34.0035720545
 20
-100.1185469742
 10
34.023127117
 20
-100.1991246307
 10
34.0243290351
 20
-100.2052343384
  0
LWPOLYLINE
  5
287
100
AcDbEntity
  8
RACCORDO
100
AcDbPolyline
 62
253
  6
CONTINUOUS
 90
33
 70
0
 10
-34.9190392493
 20
-91.8933686218
 10
-35.0006323737
 20
-91.8916806784
 10
-35.0821361299
 20
-91.886415027
 10
-35.1635505178
 20
-91.8775716675
 10
-35.2451018043
 20
-91.8651421461
 10
-35.3265637226
 20
-91.8491349166
 10
-35.4072574721
 20
-91.8295753404
 10
-35.4871620508
 20
-91.8064154705
 10
-35.5662984608
 20
-91.7797032539
 10
-35.6440509076
 20
-91.7496078927
 10
-35.720388671
 20
-91.7160934327
 10
-35.7953424714
 20
-91.6791958282
 10
-35.8683886749
 20
-91.6391921448
 10
-35.9394695267
 20
-91.596083573
 10
-36.0086427817
 20
-91.5498689222
 10
-36.075558071
 20
-91.5008216865
 10
-36.140199053
 20
-91.4489384685
 10
-36.2025820693
 20
-91.3942226655
 10
-36.2624057758
 20
-91.3369579637
 10
-36.3196620797
 20
-91.277138487
 10
-36.3743590738
 20
-91.2147701115
 10
-36.4262196928
 20
-91.1501541509
 10
-36.4752400308
 20
-91.0832770927
 10
-36.5214239937
 20
-91.0141524494
 10
-36.5645062339
 20
-90.9431220728
 10
-36.6044878881
 20
-90.8701358636
 10
-36.6413678196
 20
-90.795243921
 10
-36.6748772707
 20
-90.7189383943
 10
-36.7049907394
 20
-90.641150846
 10
-36.7317337277
 20
-90.5619497135
 10
-36.7549139843
 20
-90.4820324589
 10
-36.7744690467
 20
-90.4014548023
 10
-36.7756709649
 20
-90.3953450947
  0
LWPOLYLINE
  5
288
100
AcDbEntity
  8
RACCORDO
100
AcDbPolyline
 62
253
  6
CONTINUOUS
 90
37
 70
0
 10
32.1676973196
 20
-99.1071498894
 10
32.2320374008
 20
-99.108524786
 10
32.2965197054
 20
-99.1126802091
 10
32.3610224813
 20
-99.1196422517
 10
32.4254636387
 20
-99.1294389985
 10
32.4896737988
 20
-99.14208212
 10
32.5534001264
 20
-99.1575484125
 10
32.6165162623
 20
-99.175825288
 10
32.6788967164
 20
-99.1968946953
 10
32.7402984064
 20
-99.2206845009
 10
32.8005913635
 20
-99.2471445487
 10
32.8596707756
 20
-99.2762289968
 10
32.9173448841
 20
-99.3078380827
 10
32.9734747817
 20
-99.341880484
 10
33.0279934765
 20
-99.3782999794
 10
33.0808255256
 20
-99.4170355921
 10
33.1318690095
 20
-99.4580034427
 10
33.1810367054
 20
-99.5011240538
 10
33.2282745574
 20
-99.5463451072
 10
33.2734929162
 20
-99.5935801018
 10
33.3166064091
 20
-99.6427391371
 10
33.3575640044
 20
-99.693768264
 10
33.3962859578
 20
-99.746578407
 10
33.4326902556
 20
-99.8010685851
 10
33.4667197291
 20
-99.8571682518
 10
33.4983153813
 20
-99.9148049339
 10
33.5273894361
 20
-99.9738452403
 10
33.5538518008
 20
-100.0341207114
 10
33.5776642839
 20
-100.0955571432
 10
33.5987604949
 20
-100.1579973455
 10
33.6170475533
 20
-100.2211329669
 10
33.632499945
 20
-100.2847779624
 10
33.6451287298
 20
-100.348862574
 10
33.6549308564
 20
-100.4132451256
 10
33.6619123498
 20
-100.4777952666
 10
33.6660859489
 20
-100.542394649
 10
33.6674688623
 20
-100.6069214321
  0
LWPOLYLINE
  5
289
100
AcDbEntity
  8
RACCORDO
100
AcDbPolyline
 62
253
  6
CONTINUOUS
 90
37
 70
0
 10
-34.9190392493
 20
-91.4934295437
 10
-34.9833793305
 20
-91.4920546471
 10
-35.0478616351
 20
-91.487899224
 10
-35.112364411
 20
-91.4809371814
 10
-35.1768055684
 20
-91.4711404346
 10
-35.2410157286
 20
-91.4584973131
 10
-35.3047420561
 20
-91.4430310206
 10
-35.367858192
 20
-91.4247541451
 10
-35.4302386462
 20
-91.4036847378
 10
-35.4916403361
 20
-91.3798949321
 10
-35.5519332932
 20
-91.3534348844
 10
-35.6110127053
 20
-91.3243504362
 10
-35.6686868138
 20
-91.2927413504
 10
-35.7248167114
 20
-91.2586989491
 10
-35.7793354062
 20
-91.2222794537
 10
-35.8321674553
 20
-91.183543841
 10
-35.8832109392
 20
-91.1425759904
 10
-35.9323786351
 20
-91.0994553793
 10
-35.9796164871
 20
-91.0542343259
 10
-36.0248348459
 20
-91.0069993312
 10
-36.0679483389
 20
-90.9578402959
 10
-36.1089059341
 20
-90.9068111691
 10
-36.1476278875
 20
-90.8540010261
 10
-36.1840321853
 20
-90.799510848
 10
-36.2180616588
 20
-90.7434111812
 10
-36.249657311
 20
-90.6857744992
 10
-36.2787313658
 20
-90.6267341928
 10
-36.3051937305
 20
-90.5664587217
 10
-36.3290062136
 20
-90.5050222899
 10
-36.3501024246
 20
-90.4425820876
 10
-36.368389483
 20
-90.3794464662
 10
-36.3838418747
 20
-90.3158014707
 10
-36.3964706595
 20
-90.2517168591
 10
-36.4062727861
 20
-90.1873343075
 10
-36.4132542795
 20
-90.1227841665
 10
-36.4174278786
 20
-90.0581847841
 10
-36.418810792
 20
-89.993658001
  0
LWPOLYLINE
  5
28A
100
AcDbEntity
  8
RACCORDO
100
AcDbPolyline
 62
7
  6
CONTINUOUS
 90
32
 70
0
 10
32.0620637134
 20
-99.2128321003
 10
32.1437130231
 20
-99.2150547361
 10
32.2192765399
 20
-99.2210890719
 10
32.2944139471
 20
-99.2309320133
 10
32.3689428899
 20
-99.244552803
 10
32.4426899845
 20
-99.2619212795
 10
32.5154722562
 20
-99.2829936411
 10
32.5870998602
 20
-99.3077129013
 10
32.6573888485
 20
-99.3360214742
 10
32.7261612794
 20
-99.367845826
 10
32.7932412502
 20
-99.4031032768
 10
32.8584549387
 20
-99.4417079002
 10
32.9216372559
 20
-99.4835578844
 10
32.9826267443
 20
-99.5285470586
 10
33.0412661312
 20
-99.5765645587
 10
33.0974083653
 20
-99.6274848433
 10
33.1509080735
 20
-99.6811795054
 10
33.2016273889
 20
-99.7375136187
 10
33.2494394824
 20
-99.7963409764
 10
33.2942188055
 20
-99.8575136856
 10
33.3358508314
 20
-99.9208757568
 10
33.3742314741
 20
-99.9862639413
 10
33.4092581061
 20
-100.0535131983
 10
33.4408423458
 20
-100.1224501441
 10
33.4689042888
 20
-100.1928976499
 10
33.4933678739
 20
-100.2646781747
 10
33.5141742187
 20
-100.3376063692
 10
33.5312694335
 20
-100.4114916505
 10
33.5446063826
 20
-100.4861480742
 10
33.554155162
 20
-100.5613966837
 10
33.5598876208
 20
-100.6370542996
 10
33.5617861583
 20
-100.7125550382
  0
LWPOLYLINE
  5
28B
100
AcDbEntity
  8
RACCORDO
100
AcDbPolyline
 62
7
  6
CONTINUOUS
 90
32
 70
0
 10
-34.8134056431
 20
-91.3877473328
 10
-34.8950549528
 20
-91.385524697
 10
-34.9706184697
 20
-91.3794903612
 10
-35.0457558768
 20
-91.3696474197
 10
-35.1202848196
 20
-91.3560266301
 10
-35.1940319142
 20
-91.3386581536
 10
-35.2668141859
 20
-91.317585792
 10
-35.3384417899
 20
-91.2928665318
 10
-35.4087307782
 20
-91.2645579589
 10
-35.4775032091
 20
-91.2327336071
 10
-35.5445831799
 20
-91.1974761563
 10
-35.6097968684
 20
-91.1588715329
 10
-35.6729791856
 20
-91.1170215487
 10
-35.733968674
 20
-91.0720323745
 10
-35.7926080609
 20
-91.0240148744
 10
-35.848750295
 20
-90.9730945898
 10
-35.9022500032
 20
-90.9193999277
 10
-35.9529693186
 20
-90.8630658144
 10
-36.0007814121
 20
-90.8042384567
 10
-36.0455607352
 20
-90.7430657475
 10
-36.0871927611
 20
-90.6797036763
 10
-36.1255734038
 20
-90.6143154918
 10
-36.1606000358
 20
-90.5470662348
 10
-36.1921842755
 20
-90.478129289
 10
-36.2202462185
 20
-90.4076817832
 10
-36.2447098036
 20
-90.3359012584
 10
-36.2655161484
 20
-90.2629730639
 10
-36.2826113632
 20
-90.1890877826
 10
-36.2959483123
 20
-90.1144313589
 10
-36.3054970917
 20
-90.0391827494
 10
-36.3112295505
 20
-89.9635251335
 10
-36.313128088
 20
-89.8880243949
  0
LWPOLYLINE
  5
28C
100
AcDbEntity
  8
RACCORDO
100
AcDbPolyline
 62
253
  6
CONTINUOUS
 90
3
 70
0
 10
32.1908826729
 20
-99.2183162421
 10
32.1264020228
 20
-99.2141596539
 10
32.0620637135
 20
-99.2127834955
  0
LWPOLYLINE
  5
28D
100
AcDbEntity
  8
RACCORDO
100
AcDbPolyline
 62
253
  6
CONTINUOUS
 90
3
 70
0
 10
-34.9422246026
 20
-91.382263191
 10
-34.8777439525
 20
-91.3864197791
 10
-34.8134056432
 20
-91.3877959376
  0
LWPOLYLINE
  5
28E
100
AcDbEntity
  8
RACCORDO
100
AcDbPolyline
 62
253
  6
CONTINUOUS
 90
12
 70
0
 10
-35.6191668729
 20
-91.1530567099
 10
-35.5630376389
 20
-91.1870991567
 10
-35.5053643048
 20
-91.2187083917
 10
-35.4462857758
 20
-91.2477930937
 10
-35.3859938509
 20
-91.2742534797
 10
-35.3245934091
 20
-91.298043693
 10
-35.2622143546
 20
-91.319113614
 10
-35.1990996081
 20
-91.3373911511
 10
-35.1353745501
 20
-91.3528582646
 10
-35.0711656349
 20
-91.3655023209
 10
-35.0067258432
 20
-91.3753000729
 10
-34.9422246026
 20
-91.382263191
  0
LINE
  5
28F
100
AcDbEntity
  8
RACCORDO
100
AcDbLine
 62
253
  6
CONTINUOUS
 10
-35.6736850156
 20
-91.1166372697
 11
-35.6729791856
 21
-91.1170215487
  0
LWPOLYLINE
  5
290
100
AcDbEntity
  8
RACCORDO
100
AcDbPolyline
 62
253
  6
CONTINUOUS
 90
7
 70
0
 10
-36.0032542549
 20
-90.8011729159
 10
-35.9622964673
 20
-90.8522011744
 10
-35.9191829355
 20
-90.9013594112
 10
-35.8739646633
 20
-90.9485937139
 10
-35.8267270204
 20
-90.9938141855
 10
-35.7775596545
 20
-91.0369343257
 10
-35.7265165882
 20
-91.0779018413
  0
LWPOLYLINE
  5
291
100
AcDbEntity
  8
RACCORDO
100
AcDbPolyline
 62
253
  6
CONTINUOUS
 90
6
 70
0
 10
-36.3117930154
 20
-204.9525492181
 10
-36.307618167
 20
-205.0171479902
 10
-36.3006352654
 20
-205.0816988561
 10
-36.2908312236
 20
-205.1460844656
 10
-36.2781999455
 20
-205.2101733807
 10
-36.262745136
 20
-205.2738208411
  0
LINE
  5
292
100
AcDbEntity
  8
0
100
AcDbLine
 62
7
  6
CONTINUOUS
 10
-51.1256709649
 20
-225.3002897165
 11
-51.1256709649
 21
149.6997102835
  0
LINE
  5
293
100
AcDbEntity
  8
ASSI
100
AcDbLine
 62
7
  6
CONTINUOUS
 10
-51.1256709649
 20
-225.3002897165
 11
-51.1256709649
 21
149.6997102835
  0
LINE
  5
294
100
AcDbEntity
  8
0
100
AcDbLine
 62
253
  6
CONTINUOUS
 10
-50.8587644208
 20
-227.3495006871
 11
-50.8587644208
 21
151.7489212541
  0
LINE
  5
295
100
AcDbEntity
  8
ASSI
100
AcDbLine
 62
253
  6
CONTINUOUS
 10
-50.8587644208
 20
-227.3495006871
 11
-50.8587644208
 21
151.7489212541
  0
LINE
  5
296
100
AcDbEntity
  8
RACCORDO
100
AcDbLine
 62
253
  6
CONTINUOUS
 10
-36.3059722013
 20
122.6008599805
 11
-36.3057425488
 21
122.609070813
  0
LINE
  5
297
100
AcDbEntity
  8
RACCORDO
100
AcDbLine
 62
253
  6
CONTINUOUS
 10
-36.3055132203
 20
122.6169573657
 11
-36.3054487695
 21
122.6251093239
  0
LINE
  5
298
100
AcDbEntity
  8
RACCORDO
100
AcDbLine
 62
7
  6
CONTINUOUS
 10
-36.3066584981
 20
122.5743283945
 11
-36.3055132203
 21
122.6169573657
  0
LINE
  5
299
100
AcDbEntity
  8
RACCORDO
100
AcDbLine
 62
7
  6
CONTINUOUS
 10
-36.3055132203
 20
122.6169573657
 11
-36.3046009175
 21
122.6452896209
  0
LINE
  5
29A
100
AcDbEntity
  8
RACCORDO
100
AcDbLine
 62
253
  6
CONTINUOUS
 10
-36.3046009175
 20
122.6452896209
 11
-36.3040601925
 21
122.666803771
  0
LWPOLYLINE
  5
29B
100
AcDbEntity
  8
RACCORDO
100
AcDbPolyline
 62
253
  6
CONTINUOUS
 90
3
 70
0
 10
-36.2988368057
 20
122.7464868073
 10
-36.2996430343
 20
122.7241314782
 10
-36.3021254604
 20
122.7019014112
  0
LINE
  5
29C
100
AcDbEntity
  8
RACCORDO
100
AcDbLine
 62
7
  6
CONTINUOUS
 10
-36.3046009175
 20
122.6452896209
 11
-36.3039284555
 21
122.6632123645
  0
LWPOLYLINE
  5
29D
100
AcDbEntity
  8
RACCORDO
100
AcDbPolyline
 62
7
  6
CONTINUOUS
 90
4
 70
0
 10
-35.9971491209
 20
124.2574673896
 10
-35.9980240574
 20
124.2353427486
 10
-36.0005489881
 20
124.2132920527
 10
-36.0029046218
 20
124.1999000752
  0
LWPOLYLINE
  5
29E
100
AcDbEntity
  8
RACCORDO
100
AcDbPolyline
 62
253
  6
CONTINUOUS
 90
6
 70
0
 10
-36.3034927074
 20
122.6735789438
 10
-36.3033413567
 20
122.6846352944
 10
-36.3026077525
 20
122.7003449805
 10
-36.3018601936
 20
122.7139710537
 10
-36.3011083522
 20
122.7254087494
 10
-36.3003554525
 20
122.7346231462
  0
LINE
  5
29F
100
AcDbEntity
  8
RACCORDO
100
AcDbLine
 62
7
  6
CONTINUOUS
 10
-36.3039284555
 20
122.6632123645
 11
-36.3032812576
 21
122.6782647136
  0
LINE
  5
2A0
100
AcDbEntity
  8
RACCORDO
100
AcDbLine
 62
7
  6
CONTINUOUS
 10
-36.3032812576
 20
122.6782647136
 11
-36.3028740626
 21
122.6866384817
  0
LINE
  5
2A1
100
AcDbEntity
  8
RACCORDO
100
AcDbLine
 62
7
  6
CONTINUOUS
 10
-36.3028740626
 20
122.6866384817
 11
-36.3024946102
 21
122.693651579
  0
LINE
  5
2A2
100
AcDbEntity
  8
RACCORDO
100
AcDbLine
 62
7
  6
CONTINUOUS
 10
-36.3024946102
 20
122.693651579
 11
-36.3021544721
 21
122.6992605746
  0
LWPOLYLINE
  5
2A3
100
AcDbEntity
  8
RACCORDO
100
AcDbPolyline
 62
7
  6
CONTINUOUS
 90
3
 70
0
 10
-36.3021544721
 20
122.6992605746
 10
-36.3018699266
 20
122.7034169479
 10
-36.3017937461
 20
122.7044358372
  0
LINE
  5
2A4
100
AcDbEntity
  8
RACCORDO
100
AcDbLine
 62
253
  6
CONTINUOUS
 10
-36.3003554525
 20
122.7346231462
 11
-36.2995982704
 21
122.7416491655
  0
LWPOLYLINE
  5
2A5
100
AcDbEntity
  8
RACCORDO
100
AcDbPolyline
 62
253
  6
CONTINUOUS
 90
33
 70
0
 10
-36.7756709649
 20
14.7947656616
 10
-36.7744690466
 20
14.8008753691
 10
-36.7549139831
 20
14.8814530255
 10
-36.7317337268
 20
14.9613702802
 10
-36.7049907392
 20
15.0405714129
 10
-36.674877271
 20
15.1183589614
 10
-36.6413678199
 20
15.194664488
 10
-36.6044878882
 20
15.2695564305
 10
-36.5645062338
 20
15.3425426396
 10
-36.5214239936
 20
15.4135730163
 10
-36.4752400308
 20
15.4826976596
 10
-36.4262196929
 20
15.5495747178
 10
-36.3743590738
 20
15.6141906784
 10
-36.3196620797
 20
15.676559054
 10
-36.2624057758
 20
15.7363785306
 10
-36.2025820692
 20
15.7936432324
 10
-36.140199053
 20
15.8483590354
 10
-36.075558071
 20
15.9002422534
 10
-36.0086427817
 20
15.9492894892
 10
-35.9394695268
 20
15.99550414
 10
-35.868388675
 20
16.0386127118
 10
-35.7953424713
 20
16.078616395
 10
-35.7203886708
 20
16.1155139991
 10
-35.6440509073
 20
16.1490284591
 10
-35.5662984607
 20
16.179123821
 10
-35.4871620511
 20
16.2058360389
 10
-35.4072574726
 20
16.2289959092
 10
-35.3265637228
 20
16.2485554839
 10
-35.2451018041
 20
16.2645627111
 10
-35.1635505173
 20
16.2769922311
 10
-35.0821361294
 20
16.2858355908
 10
-35.0006323734
 20
16.2911012433
 10
-34.9190392493
 20
16.2927891887
  0
LWPOLYLINE
  5
2A6
100
AcDbEntity
  8
RACCORDO
100
AcDbPolyline
 62
253
  6
CONTINUOUS
 90
5
 70
0
 10
-36.262745136
 20
14.673241408
 10
-36.2781999455
 20
14.6095939476
 10
-36.2908312236
 20
14.5455050325
 10
-36.3006352654
 20
14.481119423
 10
-36.307618167
 20
14.4165685571
  0
LINE
  5
2A7
100
AcDbEntity
  8
RACCORDO
100
AcDbLine
 62
253
  6
CONTINUOUS
 10
-36.7756709649
 20
-89.993658001
 11
-36.418810792
 21
-89.993658001
  0
LINE
  5
2A8
100
AcDbEntity
  8
RACCORDO
100
AcDbLine
 62
253
  6
CONTINUOUS
 10
34.0243290351
 20
-89.993658001
 11
33.6674688623
 21
-89.9936580009
  0
LINE
  5
2A9
100
AcDbEntity
  8
RACCORDO
100
AcDbLine
 62
253
  6
CONTINUOUS
 10
-36.3131314945
 20
-89.8880243949
 11
-36.3131771859
 21
-89.8880243949
  0
LINE
  5
2AA
100
AcDbEntity
  8
RACCORDO
100
AcDbLine
 62
253
  6
CONTINUOUS
 10
33.5617895648
 20
-89.8880243949
 11
33.5618352562
 21
-89.8880243949
  0
LWPOLYLINE
  5
2AB
100
AcDbEntity
  8
RACCORDO
100
AcDbPolyline
 62
253
  6
CONTINUOUS
 90
7
 70
0
 10
-36.2233593867
 20
-90.3993929952
 10
-36.1995461607
 20
-90.460827038
 10
-36.1730828595
 20
-90.5211010975
 10
-36.1440079044
 20
-90.5801402526
 10
-36.1124114716
 20
-90.637775857
 10
-36.0783813694
 20
-90.6938744743
 10
-36.0419765669
 20
-90.7483636842
  0
LINE
  5
2AC
100
AcDbEntity
  8
RACCORDO
100
AcDbLine
 62
253
  6
CONTINUOUS
 10
-36.2447098036
 20
-90.3359012584
 11
-36.2444564904
 21
-90.3369554761
  0
LWPOLYLINE
  5
2AD
100
AcDbEntity
  8
RACCORDO
100
AcDbPolyline
 62
253
  6
CONTINUOUS
 90
6
 70
0
 10
-36.3117930154
 20
-89.9525492181
 10
-36.307618167
 20
-90.0171479902
 10
-36.3006352654
 20
-90.0816988561
 10
-36.2908312236
 20
-90.1460844656
 10
-36.2781999455
 20
-90.2101733807
 10
-36.262745136
 20
-90.2738208411
  0
LWPOLYLINE
  5
2AE
100
AcDbEntity
  8
RACCORDO
100
AcDbPolyline
 62
253
  6
CONTINUOUS
 90
3
 70
0
 10
-36.307641677
 20
24.9831245788
 10
-36.3118002675
 20
25.0476195739
 10
-36.3131771859
 20
25.1119756051
  0
LINE
  5
2AF
100
AcDbEntity
  8
RACCORDO
100
AcDbLine
 62
253
  6
CONTINUOUS
 10
-36.3131771859
 20
-204.8880243949
 11
-36.3117930154
 21
-204.9525492181
  0
LINE
  5
2B0
100
AcDbEntity
  8
0
100
AcDbLine
 62
7
  6
CONTINUOUS
 10
-36.9756709649
 20
157.6997102835
 11
-36.9756709649
 21
-233.3002897165
  0
LINE
  5
2B1
100
AcDbEntity
  8
ASSI
100
AcDbLine
 62
7
  6
CONTINUOUS
 10
-36.9756709649
 20
157.6997102835
 11
-36.9756709649
 21
-233.3002897165
  0
LINE
  5
2B2
100
AcDbEntity
  8
0
100
AcDbLine
 62
7
  6
CONTINUOUS
 10
-36.7756709649
 20
134.9497102835
 11
-36.7756709649
 21
-210.5502897165
  0
LINE
  5
2B3
100
AcDbEntity
  8
ASSI
100
AcDbLine
 62
7
  6
CONTINUOUS
 10
-36.7756709649
 20
134.9497102835
 11
-36.7756709649
 21
-210.5502897165
  0
LINE
  5
2B4
100
AcDbEntity
  8
RACCORDO
100
AcDbLine
 62
253
  6
CONTINUOUS
 10
-36.418810792
 20
-204.993658001
 11
-36.418810792
 21
-100.6069214321
  0
LINE
  5
2B5
100
AcDbEntity
  8
RACCORDO
100
AcDbLine
 62
253
  6
CONTINUOUS
 10
-36.418810792
 20
-89.993658001
 11
-36.418810792
 21
14.3930785679
  0
LINE
  5
2B6
100
AcDbEntity
  8
RACCORDO
100
AcDbLine
 62
253
  6
CONTINUOUS
 10
-36.418810792
 20
25.006341999
 11
-36.418810792
 21
129.3930785679
  0
LINE
  5
2B7
100
AcDbEntity
  8
RACCORDO
100
AcDbLine
 62
7
  6
CONTINUOUS
 10
-36.3131314945
 20
14.2874449618
 11
-36.3131314945
 21
-89.8880243949
  0
LINE
  5
2B8
100
AcDbEntity
  8
RACCORDO
100
AcDbLine
 62
7
  6
CONTINUOUS
 10
-36.3131314945
 20
-100.7125550382
 11
-36.3131314945
 21
-204.8880243949
  0
LINE
  5
2B9
100
AcDbEntity
  8
RACCORDO
100
AcDbLine
 62
7
  6
CONTINUOUS
 10
-35.9971491209
 20
128.971702452
 11
-35.9971491209
 21
124.2574673896
  0
LINE
  5
2BA
100
AcDbEntity
  8
0
100
AcDbLine
 62
7
  6
CONTINUOUS
 10
-35.9756709649
 20
157.6997102835
 11
-35.9756709649
 21
134.9497102835
  0
LINE
  5
2BB
100
AcDbEntity
  8
ASSI
100
AcDbLine
 62
7
  6
CONTINUOUS
 10
-35.9756709649
 20
157.6997102835
 11
-35.9756709649
 21
134.9497102835
  0
LINE
  5
2BC
100
AcDbEntity
  8
0
100
AcDbLine
 62
7
  6
CONTINUOUS
 10
-35.9756709649
 20
-210.5502897165
 11
-35.9756709649
 21
-233.3002897165
  0
LINE
  5
2BD
100
AcDbEntity
  8
ASSI
100
AcDbLine
 62
7
  6
CONTINUOUS
 10
-35.9756709649
 20
-210.5502897165
 11
-35.9756709649
 21
-233.3002897165
  0
LINE
  5
2BE
100
AcDbEntity
  8
RACCORDO
100
AcDbLine
 62
253
  6
CONTINUOUS
 10
-34.9190392493
 20
-206.8933686218
 11
-34.9190392492
 21
-206.4934295437
  0
LINE
  5
2BF
100
AcDbEntity
  8
RACCORDO
100
AcDbLine
 62
253
  6
CONTINUOUS
 10
-34.9190392493
 20
131.2927891887
 11
-34.9190392493
 21
130.8928501106
  0
LINE
  5
2C0
100
AcDbEntity
  8
RACCORDO
100
AcDbLine
 62
253
  6
CONTINUOUS
 10
-34.9190392493
 20
-91.8933686218
 11
-34.9190392492
 21
-91.4934295437
  0
LINE
  5
2C1
100
AcDbEntity
  8
RACCORDO
100
AcDbLine
 62
253
  6
CONTINUOUS
 10
-34.9190392493
 20
16.2927891887
 11
-34.9190392493
 21
15.8928501106
  0
LINE
  5
2C2
100
AcDbEntity
  8
RACCORDO
100
AcDbLine
 62
253
  6
CONTINUOUS
 10
-34.9190392493
 20
23.1066313782
 11
-34.9190392492
 21
23.5065704563
  0
LINE
  5
2C3
100
AcDbEntity
  8
RACCORDO
100
AcDbLine
 62
253
  6
CONTINUOUS
 10
-34.9190392493
 20
-98.7072108113
 11
-34.9190392493
 21
-99.1071498894
  0
LINE
  5
2C4
100
AcDbEntity
  8
RACCORDO
100
AcDbLine
 62
253
  6
CONTINUOUS
 10
-34.8134056432
 20
23.6122040624
 11
-34.8134056432
 21
23.6122497538
  0
LINE
  5
2C5
100
AcDbEntity
  8
RACCORDO
100
AcDbLine
 62
253
  6
CONTINUOUS
 10
-34.8134056431
 20
-99.2128291869
 11
-34.8134056431
 21
-99.2127834955
  0
LINE
  5
2C6
100
AcDbEntity
  8
RACCORDO
100
AcDbLine
 62
253
  6
CONTINUOUS
 10
-34.8134056432
 20
-91.3877502462
 11
-34.8134056432
 21
-91.3877959376
  0
LINE
  5
2C7
100
AcDbEntity
  8
RACCORDO
100
AcDbLine
 62
253
  6
CONTINUOUS
 10
-34.8134056432
 20
-206.3877502462
 11
-34.8134056432
 21
-206.3877959376
  0
LINE
  5
2C8
100
AcDbEntity
  8
RACCORDO
100
AcDbLine
 62
253
  6
CONTINUOUS
 10
-34.8134056431
 20
15.7871708131
 11
-34.8134056431
 21
15.7872165045
  0
LINE
  5
2C9
100
AcDbEntity
  8
RACCORDO
100
AcDbLine
 62
7
  6
CONTINUOUS
 10
-36.3131314945
 20
25.1119756051
 11
-36.312805835
 21
122.0317272262
  0
LINE
  5
2CA
100
AcDbEntity
  8
RACCORDO
100
AcDbLine
 62
253
  6
CONTINUOUS
 10
-36.312878023
 20
122.0245496873
 11
-36.312805835
 21
122.0317272262
  0
LINE
  5
2CB
100
AcDbEntity
  8
RACCORDO
100
AcDbLine
 62
7
  6
CONTINUOUS
 10
-36.312805835
 20
122.0317272262
 11
-36.3118474012
 21
122.2052542799
  0
LINE
  5
2CC
100
AcDbEntity
  8
RACCORDO
100
AcDbLine
 62
253
  6
CONTINUOUS
 10
-36.3119711449
 20
122.1956714647
 11
-36.3118474012
 21
122.2052542799
  0
LINE
  5
2CD
100
AcDbEntity
  8
RACCORDO
100
AcDbLine
 62
253
  6
CONTINUOUS
 10
-36.310765944
 20
122.3232755991
 11
-36.310592398
 21
122.3388743622
  0
LINE
  5
2CE
100
AcDbEntity
  8
RACCORDO
100
AcDbLine
 62
7
  6
CONTINUOUS
 10
-36.3118474012
 20
122.2052542799
 11
-36.3104143504
 21
122.354152915
  0
LINE
  5
2CF
100
AcDbEntity
  8
RACCORDO
100
AcDbLine
 62
253
  6
CONTINUOUS
 10
-36.3104925527
 20
122.3530877927
 11
-36.3104143504
 21
122.354152915
  0
LINE
  5
2D0
100
AcDbEntity
  8
RACCORDO
100
AcDbLine
 62
7
  6
CONTINUOUS
 10
-36.3104143504
 20
122.354152915
 11
-36.3088522627
 21
122.4648926651
  0
LINE
  5
2D1
100
AcDbEntity
  8
RACCORDO
100
AcDbLine
 62
253
  6
CONTINUOUS
 10
-36.3090540637
 20
122.4576823101
 11
-36.3088522627
 21
122.4648926651
  0
LINE
  5
2D2
100
AcDbEntity
  8
RACCORDO
100
AcDbLine
 62
253
  6
CONTINUOUS
 10
-36.308642556
 20
122.477290974
 11
-36.3085181886
 21
122.4896035423
  0
LINE
  5
2D3
100
AcDbEntity
  8
RACCORDO
100
AcDbLine
 62
7
  6
CONTINUOUS
 10
-36.3088522627
 20
122.4648926651
 11
-36.3073347722
 21
122.5449057318
  0
LWPOLYLINE
  5
2D4
100
AcDbEntity
  8
RACCORDO
100
AcDbPolyline
 62
253
  6
CONTINUOUS
 90
37
 70
0
 10
-36.418810792
 20
129.3930785679
 10
-36.4174358954
 20
129.4574186491
 10
-36.4132804723
 20
129.5219009537
 10
-36.4063184297
 20
129.5864037297
 10
-36.3965216829
 20
129.650844887
 10
-36.3838785614
 20
129.7150550472
 10
-36.3684122689
 20
129.7787813747
 10
-36.3501353934
 20
129.8418975106
 10
-36.3290659861
 20
129.9042779648
 10
-36.3052761805
 20
129.9656796547
 10
-36.2788161327
 20
130.0259726118
 10
-36.2497316845
 20
130.085052024
 10
-36.2181225987
 20
130.1427261324
 10
-36.1840801974
 20
130.19885603
 10
-36.147660702
 20
130.2533747248
 10
-36.1089250893
 20
130.3062067739
 10
-36.0679572387
 20
130.3572502578
 10
-36.0248366276
 20
130.4064179537
 10
-35.9796155742
 20
130.4536558057
 10
-35.9323805796
 20
130.4988741645
 10
-35.8832215442
 20
130.5419876575
 10
-35.8321924174
 20
130.5829452527
 10
-35.7793822744
 20
130.6216672061
 10
-35.7248920963
 20
130.6580715039
 10
-35.6687924295
 20
130.6921009774
 10
-35.6111557475
 20
130.7236966296
 10
-35.5521154411
 20
130.7527706844
 10
-35.49183997
 20
130.7792330491
 10
-35.4304035382
 20
130.8030455322
 10
-35.3679633359
 20
130.8241417432
 10
-35.3048277145
 20
130.8424288016
 10
-35.241182719
 20
130.8578811933
 10
-35.1770981074
 20
130.8705099781
 10
-35.1127155558
 20
130.8803121047
 10
-35.0481654148
 20
130.8872935981
 10
-34.9835660324
 20
130.8914671972
 10
-34.9190392493
 20
130.8928501106
  0
LWPOLYLINE
  5
2D5
100
AcDbEntity
  8
RACCORDO
100
AcDbPolyline
 62
253
  6
CONTINUOUS
 90
37
 70
0
 10
-36.418810792
 20
14.3930785679
 10
-36.4174278786
 20
14.457605351
 10
-36.4132542795
 20
14.5222047334
 10
-36.4062727861
 20
14.5867548744
 10
-36.3964706595
 20
14.651137426
 10
-36.3838418747
 20
14.7152220376
 10
-36.368389483
 20
14.7788670331
 10
-36.3501024246
 20
14.8420026545
 10
-36.3290062136
 20
14.9044428568
 10
-36.3051937305
 20
14.9658792886
 10
-36.2787313658
 20
15.0261547597
 10
-36.249657311
 20
15.0851950661
 10
-36.2180616588
 20
15.1428317482
 10
-36.1840321853
 20
15.1989314149
 10
-36.1476278875
 20
15.253421593
 10
-36.1089059341
 20
15.306231736
 10
-36.0679483389
 20
15.3572608629
 10
-36.0248348459
 20
15.4064198982
 10
-35.9796164871
 20
15.4536548928
 10
-35.9323786351
 20
15.4988759462
 10
-35.8832109392
 20
15.5419965573
 10
-35.8321674553
 20
15.5829644079
 10
-35.7793354062
 20
15.6217000206
 10
-35.7248167114
 20
15.658119516
 10
-35.6686868138
 20
15.6921619173
 10
-35.6110127053
 20
15.7237710032
 10
-35.5519332932
 20
15.7528554513
 10
-35.4916403361
 20
15.7793154991
 10
-35.4302386462
 20
15.8031053047
 10
-35.367858192
 20
15.824174712
 10
-35.3047420561
 20
15.8424515875
 10
-35.2410157286
 20
15.85791788
 10
-35.1768055684
 20
15.8705610015
 10
-35.112364411
 20
15.8803577483
 10
-35.0478616351
 20
15.8873197909
 10
-34.9833793305
 20
15.891475214
 10
-34.9190392493
 20
15.8928501106
  0
LWPOLYLINE
  5
2D6
100
AcDbEntity
  8
RACCORDO
100
AcDbPolyline
 62
253
  6
CONTINUOUS
 90
37
 70
0
 10
-36.418810792
 20
-100.6069214321
 10
-36.4174278786
 20
-100.542394649
 10
-36.4132542795
 20
-100.4777952666
 10
-36.4062727861
 20
-100.4132451256
 10
-36.3964706595
 20
-100.348862574
 10
-36.3838418747
 20
-100.2847779624
 10
-36.368389483
 20
-100.2211329669
 10
-36.3501024246
 20
-100.1579973455
 10
-36.3290062136
 20
-100.0955571432
 10
-36.3051937305
 20
-100.0341207114
 10
-36.2787313658
 20
-99.9738452403
 10
-36.249657311
 20
-99.9148049339
 10
-36.2180616588
 20
-99.8571682518
 10
-36.1840321853
 20
-99.8010685851
 10
-36.1476278875
 20
-99.746578407
 10
-36.1089059341
 20
-99.693768264
 10
-36.0679483389
 20
-99.6427391371
 10
-36.0248348459
 20
-99.5935801018
 10
-35.9796164871
 20
-99.5463451072
 10
-35.9323786351
 20
-99.5011240538
 10
-35.8832109392
 20
-99.4580034427
 10
-35.8321674553
 20
-99.4170355921
 10
-35.7793354062
 20
-99.3782999794
 10
-35.7248167114
 20
-99.341880484
 10
-35.6686868138
 20
-99.3078380827
 10
-35.6110127053
 20
-99.2762289968
 10
-35.5519332932
 20
-99.2471445487
 10
-35.4916403361
 20
-99.2206845009
 10
-35.4302386462
 20
-99.1968946953
 10
-35.367858192
 20
-99.175825288
 10
-35.3047420561
 20
-99.1575484125
 10
-35.2410157286
 20
-99.14208212
 10
-35.1768055684
 20
-99.1294389985
 10
-35.112364411
 20
-99.1196422517
 10
-35.0478616351
 20
-99.1126802091
 10
-34.9833793305
 20
-99.108524786
 10
-34.9190392493
 20
-99.1071498894
  0
LINE
  5
2D7
100
AcDbEntity
  8
RACCORDO
100
AcDbLine
 62
253
  6
CONTINUOUS
 10
-36.3066584981
 20
122.5743283945
 11
-36.3067505646
 21
122.5759594603
  0
LINE
  5
2D8
100
AcDbEntity
  8
RACCORDO
100
AcDbLine
 62
7
  6
CONTINUOUS
 10
-36.3073347722
 20
122.5449057318
 11
-36.3066584981
 21
122.5743283945
  0
LWPOLYLINE
  5
2D9
100
AcDbEntity
  8
RACCORDO
100
AcDbPolyline
 62
7
  6
CONTINUOUS
 90
32
 70
0
 10
-36.3131280898
 20
14.2874449618
 10
-36.3108984919
 20
14.369256749
 10
-36.3048465884
 20
14.444893561
 10
-36.2949800653
 20
14.5201056515
 10
-36.2813272078
 20
14.5947097984
 10
-36.2639189903
 20
14.6685265393
 10
-36.2428039112
 20
14.7413695312
 10
-36.2180359342
 20
14.8130484431
 10
-36.1896752308
 20
14.8833788926
 10
-36.1577987563
 20
14.9521836362
 10
-36.1224865281
 20
15.0192856717
 10
-36.0838280962
 20
15.0845128839
 10
-36.0419264823
 20
15.1477004766
 10
-35.9968860057
 20
15.2086852835
 10
-35.9488222639
 20
15.2673126232
 10
-35.8978607507
 20
15.323434863
 10
-35.8441288217
 20
15.3769058762
 10
-35.7877657409
 20
15.4275914802
 10
-35.7289167124
 20
15.4753634242
 10
-35.6677295964
 20
15.5200966645
 10
-35.6043635492
 20
15.5616806335
 10
-35.5389800977
 20
15.6000092824
 10
-35.4717451483
 20
15.6349820677
 10
-35.4028343675
 20
15.6665133803
 10
-35.3324239656
 20
15.6945209086
 10
-35.260692651
 20
15.7189330382
 10
-35.1878258124
 20
15.7396927569
 10
-35.114013649
 20
15.7567438038
 10
-35.0394387805
 20
15.770044612
 10
-34.9642748495
 20
15.779565747
 10
-34.8887049485
 20
15.7852776115
 10
-34.8134056431
 20
15.787167904
  0
LWPOLYLINE
  5
2DA
100
AcDbEntity
  8
RACCORDO
100
AcDbPolyline
 62
7
  6
CONTINUOUS
 90
32
 70
0
 10
-36.3131280898
 20
-100.7125550382
 10
-36.3108984919
 20
-100.630743251
 10
-36.3048465884
 20
-100.555106439
 10
-36.2949800653
 20
-100.4798943485
 10
-36.2813272078
 20
-100.4052902016
 10
-36.2639189903
 20
-100.3314734607
 10
-36.2428039112
 20
-100.2586304688
 10
-36.2180359342
 20
-100.1869515569
 10
-36.1896752308
 20
-100.1166211074
 10
-36.1577987563
 20
-100.0478163638
 10
-36.1224865281
 20
-99.9807143283
 10
-36.0838280962
 20
-99.9154871161
 10
-36.0419264823
 20
-99.8522995234
 10
-35.9968860057
 20
-99.7913147165
 10
-35.9488222639
 20
-99.7326873768
 10
-35.8978607507
 20
-99.676565137
 10
-35.8441288217
 20
-99.6230941238
 10
-35.7877657409
 20
-99.5724085198
 10
-35.7289167124
 20
-99.5246365758
 10
-35.6677295964
 20
-99.4799033355
 10
-35.6043635492
 20
-99.4383193665
 10
-35.5389800977
 20
-99.3999907176
 10
-35.4717451483
 20
-99.3650179323
 10
-35.4028343675
 20
-99.3334866197
 10
-35.3324239656
 20
-99.3054790914
 10
-35.260692651
 20
-99.2810669618
 10
-35.1878258124
 20
-99.2603072431
 10
-35.114013649
 20
-99.2432561962
 10
-35.0394387805
 20
-99.229955388
 10
-34.9642748495
 20
-99.220434253
 10
-34.8887049485
 20
-99.2147223885
 10
-34.8134056431
 20
-99.212832096
  0
LWPOLYLINE
  5
2DB
100
AcDbEntity
  8
RACCORDO
100
AcDbPolyline
 62
253
  6
CONTINUOUS
 90
3
 70
0
 10
-36.307618167
 20
14.4165685571
 10
-36.3117930154
 20
14.351969785
 10
-36.3131771859
 20
14.2874449618
  0
LWPOLYLINE
  5
2DC
100
AcDbEntity
  8
RACCORDO
100
AcDbPolyline
 62
253
  6
CONTINUOUS
 90
3
 70
0
 10
-36.307618167
 20
-100.5834314429
 10
-36.3117930154
 20
-100.648030215
 10
-36.3131771859
 20
-100.7125550382
  0
LINE
  5
2DD
100
AcDbEntity
  8
RACCORDO
100
AcDbLine
 62
253
  6
CONTINUOUS
 10
32.9223149936
 20
23.8833430627
 11
32.9219357893
 21
23.8831869732
  0
LWPOLYLINE
  5
2DE
100
AcDbEntity
  8
RACCORDO
100
AcDbPolyline
 62
253
  6
CONTINUOUS
 90
12
 70
0
 10
32.8678062623
 20
23.8469313934
 10
32.8116881371
 20
23.8128964747
 10
32.7540285369
 20
23.7812948116
 10
32.6949655074
 20
23.7522169855
 10
32.6346868657
 20
23.7257609506
 10
32.5732961097
 20
23.7019724827
 10
32.5109240516
 20
23.6809025714
 10
32.4478128318
 20
23.6626235204
 10
32.384087351
 20
23.6471537601
 10
32.3198742768
 20
23.6345064973
 10
32.2554268951
 20
23.6247055103
 10
32.1909147398
 20
23.6177395713
  0
LWPOLYLINE
  5
2DF
100
AcDbEntity
  8
RACCORDO
100
AcDbPolyline
 62
253
  6
CONTINUOUS
 90
12
 70
0
 10
32.8678249432
 20
-99.4475227231
 10
32.8116957092
 20
-99.4134802764
 10
32.7540223751
 20
-99.3818710414
 10
32.6949438461
 20
-99.3527863393
 10
32.6346519212
 20
-99.3263259534
 10
32.5732514794
 20
-99.30253574
 10
32.5108724249
 20
-99.2814658191
 10
32.4477576784
 20
-99.263188282
 10
32.3840326204
 20
-99.2477211685
 10
32.3198237052
 20
-99.2350771122
 10
32.2553839135
 20
-99.2252793602
 10
32.1908826729
 20
-99.2183162421
  0
LINE
  5
2E0
100
AcDbEntity
  8
RACCORDO
100
AcDbLine
 62
253
  6
CONTINUOUS
 10
32.9223430859
 20
-99.4839421634
 11
32.9216372559
 21
-99.4835578844
  0
LWPOLYLINE
  5
2E1
100
AcDbEntity
  8
RACCORDO
100
AcDbPolyline
 62
253
  6
CONTINUOUS
 90
33
 70
0
 10
-36.7756709649
 20
-100.2052343384
 10
-36.7744690466
 20
-100.1991246309
 10
-36.7549139831
 20
-100.1185469745
 10
-36.7317337268
 20
-100.0386297198
 10
-36.7049907392
 20
-99.9594285871
 10
-36.674877271
 20
-99.8816410386
 10
-36.6413678199
 20
-99.805335512
 10
-36.6044878882
 20
-99.7304435695
 10
-36.5645062338
 20
-99.6574573604
 10
-36.5214239936
 20
-99.5864269837
 10
-36.4752400308
 20
-99.5173023404
 10
-36.4262196929
 20
-99.4504252822
 10
-36.3743590738
 20
-99.3858093216
 10
-36.3196620797
 20
-99.323440946
 10
-36.2624057758
 20
-99.2636214694
 10
-36.2025820692
 20
-99.2063567676
 10
-36.140199053
 20
-99.1516409646
 10
-36.075558071
 20
-99.0997577466
 10
-36.0086427817
 20
-99.0507105108
 10
-35.9394695268
 20
-99.00449586
 10
-35.868388675
 20
-98.9613872882
 10
-35.7953424713
 20
-98.921383605
 10
-35.7203886708
 20
-98.8844860009
 10
-35.6440509073
 20
-98.8509715409
 10
-35.5662984607
 20
-98.820876179
 10
-35.4871620511
 20
-98.7941639611
 10
-35.4072574726
 20
-98.7710040908
 10
-35.3265637228
 20
-98.7514445161
 10
-35.2451018041
 20
-98.7354372889
 10
-35.1635505173
 20
-98.7230077689
 10
-35.0821361294
 20
-98.7141644092
 10
-35.0006323734
 20
-98.7088987567
 10
-34.9190392493
 20
-98.7072108113
  0
LWPOLYLINE
  5
2E2
100
AcDbEntity
  8
RACCORDO
100
AcDbPolyline
 62
253
  6
CONTINUOUS
 90
5
 70
0
 10
-36.262745136
 20
-100.326758592
 10
-36.2781999455
 20
-100.3904060524
 10
-36.2908312236
 20
-100.4544949675
 10
-36.3006352654
 20
-100.518880577
 10
-36.307618167
 20
-100.5834314429
  0
LWPOLYLINE
  5
2E3
100
AcDbEntity
  8
RACCORDO
100
AcDbPolyline
 62
253
  6
CONTINUOUS
 90
7
 70
0
 10
33.2518859334
 20
24.1987926926
 10
33.2109220755
 20
24.1477601432
 10
33.1678037869
 20
24.0985999747
 10
33.1225825943
 20
24.0513661485
 10
33.0753443449
 20
24.0061484783
 10
33.0261787705
 20
23.9630329874
 10
32.9751397904
 20
23.9220714042
  0
LINE
  5
2E4
100
AcDbEntity
  8
RACCORDO
100
AcDbLine
 62
253
  6
CONTINUOUS
 10
32.0620637135
 20
15.7872165045
 11
32.1676973196
 21
15.8928501106
  0
LINE
  5
2E5
100
AcDbEntity
  8
RACCORDO
100
AcDbLine
 62
253
  6
CONTINUOUS
 10
33.5618352562
 20
14.2874449618
 11
33.6674688623
 21
14.3930785679
  0
LINE
  5
2E6
100
AcDbEntity
  8
RACCORDO
100
AcDbLine
 62
253
  6
CONTINUOUS
 10
32.1676973196
 20
-91.4934295437
 11
32.0620637135
 21
-91.3877959376
  0
LINE
  5
2E7
100
AcDbEntity
  8
RACCORDO
100
AcDbLine
 62
253
  6
CONTINUOUS
 10
33.6674688623
 20
-89.993658001
 11
33.5618352562
 21
-89.8880243949
  0
LWPOLYLINE
  5
2E8
100
AcDbEntity
  8
RACCORDO
100
AcDbPolyline
 62
253
  6
CONTINUOUS
 90
7
 70
0
 10
33.2519123252
 20
-99.7994065172
 10
33.2109545376
 20
-99.7483782587
 10
33.1678410058
 20
-99.6992200218
 10
33.1226227336
 20
-99.6519857192
 10
33.0753850907
 20
-99.6067652476
 10
33.0262177248
 20
-99.5636451074
 10
32.9751746585
 20
-99.5226775918
  0
LINE
  5
2E9
100
AcDbEntity
  8
ELVOX
100
AcDbLine
 62
253
  6
CONTINUOUS
 10
-8.3312865294
 20
145.3132559117
 11
-8.3312865294
 21
148.1844618314
  0
LINE
  5
2EA
100
AcDbEntity
  8
ELVOX
100
AcDbLine
 62
253
  6
CONTINUOUS
 10
-7.4458841471
 20
147.4883842752
 11
-7.4458841471
 21
147.1232041421
  0
LINE
  5
2EB
100
AcDbEntity
  8
ELVOX
100
AcDbLine
 62
253
  6
CONTINUOUS
 10
-7.4458841471
 20
146.37699646
 11
-7.4458841471
 21
146.0132559117
  0
LINE
  5
2EC
100
AcDbEntity
  8
ELVOX
100
AcDbLine
 62
253
  6
CONTINUOUS
 10
-6.3848075802
 20
147.1232041421
 11
-6.3848075802
 21
146.37699646
  0
LINE
  5
2ED
100
AcDbEntity
  8
ELVOX
100
AcDbLine
 62
253
  6
CONTINUOUS
 10
-5.5717650457
 20
148.1844618314
 11
-5.5717650457
 21
147.4883842752
  0
LINE
  5
2EE
100
AcDbEntity
  8
ELVOX
100
AcDbLine
 62
253
  6
CONTINUOUS
 10
-5.2572278279
 20
147.4883842752
 11
-5.2572278279
 21
148.1844618314
  0
LINE
  5
2EF
100
AcDbEntity
  8
ELVOX
100
AcDbLine
 62
253
  6
CONTINUOUS
 10
-5.2407170547
 20
146.0132559117
 11
-5.2407170547
 21
145.3132559117
  0
LINE
  5
2F0
100
AcDbEntity
  8
ELVOX
100
AcDbLine
 62
253
  6
CONTINUOUS
 10
-4.9085841648
 20
145.3132559117
 11
-4.9085841648
 21
147.1232041421
  0
LINE
  5
2F1
100
AcDbEntity
  8
ELVOX
100
AcDbLine
 62
253
  6
CONTINUOUS
 10
-4.0631577327
 20
147.1232041421
 11
-4.0631577327
 21
146.0132559117
  0
LINE
  5
2F2
100
AcDbEntity
  8
ELVOX
100
AcDbLine
 62
253
  6
CONTINUOUS
 10
-2.4208807149
 20
146.0132559117
 11
-2.4208807149
 21
145.3132559117
  0
LINE
  5
2F3
100
AcDbEntity
  8
ELVOX
100
AcDbLine
 62
253
  6
CONTINUOUS
 10
-0.36522391
 20
145.3179741079
 11
-0.36522391
 21
147.0886387947
  0
LINE
  5
2F4
100
AcDbEntity
  8
ELVOX
100
AcDbLine
 62
253
  6
CONTINUOUS
 10
0.5150296576
 20
146.4438313124
 11
0.5127739229
 21
146.2033636475
  0
LINE
  5
2F5
100
AcDbEntity
  8
ASSI
100
AcDbLine
 62
7
  6
CONTINUOUS
 10
32.3430674777
 20
-40.8002897165
 11
32.3243648516
 21
-40.8002897165
  0
LINE
  5
2F6
100
AcDbEntity
  8
DRAFT
100
AcDbLine
 62
7
  6
CONTINUOUS
 10
33.6505632192
 20
-40.8002897165
 11
32.3430674777
 21
-40.8002897165
  0
LINE
  5
2F7
100
AcDbEntity
  8
ELVOX
100
AcDbLine
 62
253
  6
CONTINUOUS
 10
0.5127739229
 20
146.2033636475
 11
0.5150296576
 21
145.9628959827
  0
LINE
  5
2F8
100
AcDbEntity
  8
ELVOX
100
AcDbLine
 62
253
  6
CONTINUOUS
 10
1.6253839325
 20
145.9628959827
 11
1.6253839325
 21
146.4438313124
  0
LINE
  5
2F9
100
AcDbEntity
  8
ELVOX
100
AcDbLine
 62
253
  6
CONTINUOUS
 10
2.5059820097
 20
147.0908205107
 11
2.5059820097
 21
145.3179741079
  0
LWPOLYLINE
  5
2FA
100
AcDbEntity
  8
RACCORDO
100
AcDbPolyline
 62
253
  6
CONTINUOUS
 90
7
 70
0
 10
33.4720088723
 20
24.6005833171
 10
33.4482128796
 20
24.5391938971
 10
33.4217513746
 20
24.4789213435
 10
33.3926702648
 20
24.419867998
 10
33.3610660851
 20
24.3622181521
 10
33.3270290146
 20
24.3061091585
 10
33.2906159058
 20
24.2516095647
  0
LWPOLYLINE
  5
2FB
100
AcDbEntity
  8
RACCORDO
100
AcDbPolyline
 62
253
  6
CONTINUOUS
 90
7
 70
0
 10
-36.0783813694
 20
-99.9067049588
 10
-36.1124114716
 20
-99.9628035761
 10
-36.1440079044
 20
-100.0204391804
 10
-36.1730828595
 20
-100.0794783356
 10
-36.1995461607
 20
-100.139752395
 10
-36.2233593867
 20
-100.2011864379
 10
-36.2444564904
 20
-100.263623957
  0
LINE
  5
2FC
100
AcDbEntity
  8
RACCORDO
100
AcDbLine
 62
253
  6
CONTINUOUS
 10
-36.418810792
 20
-89.993658001
 11
-36.3131771859
 21
-89.8880243949
  0
LINE
  5
2FD
100
AcDbEntity
  8
RACCORDO
100
AcDbLine
 62
253
  6
CONTINUOUS
 10
-34.9190392493
 20
-91.4934295437
 11
-34.8134056432
 21
-91.3877959376
  0
LINE
  5
2FE
100
AcDbEntity
  8
DRAFT
100
AcDbLine
 62
7
  6
CONTINUOUS
 10
33.6505632192
 20
-34.8002897165
 11
32.3430674777
 21
-34.8002897165
  0
LINE
  5
2FF
100
AcDbEntity
  8
ASSI
100
AcDbLine
 62
7
  6
CONTINUOUS
 10
32.3430674777
 20
-34.8002897165
 11
32.3243648516
 21
-34.8002897165
  0
LINE
  5
300
100
AcDbEntity
  8
RACCORDO
100
AcDbLine
 62
253
  6
CONTINUOUS
 10
-36.3131771859
 20
14.2874449618
 11
-36.418810792
 21
14.3930785679
  0
LINE
  5
301
100
AcDbEntity
  8
RACCORDO
100
AcDbLine
 62
253
  6
CONTINUOUS
 10
-34.8134056432
 20
15.7872165045
 11
-34.9190392493
 21
15.8928501106
  0
LINE
  5
302
100
AcDbEntity
  8
RACCORDO
100
AcDbLine
 62
253
  6
CONTINUOUS
 10
-36.0420381856
 20
24.251724325
 11
-36.0421942751
 21
24.2521035293
  0
LWPOLYLINE
  5
303
100
AcDbEntity
  8
RACCORDO
100
AcDbPolyline
 62
253
  6
CONTINUOUS
 90
12
 70
0
 10
-36.0784498549
 20
24.3062330563
 10
-36.1124847736
 20
24.3623511815
 10
-36.1440864367
 20
24.4200107817
 10
-36.1731642628
 20
24.4790738112
 10
-36.1996202977
 20
24.539352453
 10
-36.2234087656
 20
24.6007432089
 10
-36.2444786769
 20
24.663115267
 10
-36.2627577279
 20
24.7262264868
 10
-36.2782274882
 20
24.7899519676
 10
-36.2908747511
 20
24.8541650419
 10
-36.300675738
 20
24.9186124235
 10
-36.307641677
 20
24.9831245788
  0
LWPOLYLINE
  5
304
100
AcDbEntity
  8
RACCORDO
100
AcDbPolyline
 62
253
  6
CONTINUOUS
 90
7
 70
0
 10
33.472017457
 20
-100.2011864379
 10
33.4482042309
 20
-100.139752395
 10
33.4217409298
 20
-100.0794783356
 10
33.3926659747
 20
-100.0204391804
 10
33.3610695419
 20
-99.9628035761
 10
33.3270394397
 20
-99.9067049588
 10
33.2906346372
 20
-99.8522157489
  0
LWPOLYLINE
  5
305
100
AcDbEntity
  8
RACCORDO
100
AcDbPolyline
 62
253
  6
CONTINUOUS
 90
33
 70
0
 10
34.0243290351
 20
24.604694384
 10
34.0231742352
 20
24.5988175257
 10
34.003614659
 20
24.5181237762
 10
33.9804547891
 20
24.4382191975
 10
33.9537425725
 20
24.3590827876
 10
33.9236472113
 20
24.2813303407
 10
33.8901327513
 20
24.2049925773
 10
33.8532351468
 20
24.1300387769
 10
33.8132314634
 20
24.0569925734
 10
33.7701228916
 20
23.9859117216
 10
33.7239082408
 20
23.9167384666
 10
33.6748610051
 20
23.8498231773
 10
33.6229777871
 20
23.7851821953
 10
33.5682619841
 20
23.722799179
 10
33.5109972823
 20
23.6629754725
 10
33.4511778056
 20
23.6057191686
 10
33.3888094301
 20
23.5510221745
 10
33.3241934695
 20
23.4991615555
 10
33.2573164113
 20
23.4501412175
 10
33.188191768
 20
23.4039572546
 10
33.1171613914
 20
23.3608750144
 10
33.0441751822
 20
23.3208933602
 10
32.9692832396
 20
23.2840134288
 10
32.8929777129
 20
23.2505039777
 10
32.8151901646
 20
23.220390509
 10
32.7359890321
 20
23.1936475206
 10
32.6560717775
 20
23.1704672641
 10
32.575494121
 20
23.1509122016
 10
32.4942003423
 20
23.1349198709
 10
32.4127207427
 20
23.1224951368
 10
32.3312320892
 20
23.1136396207
 10
32.2495576149
 20
23.1083517012
 10
32.1676973196
 20
23.1066313782
  0
LINE
  5
306
100
AcDbEntity
  8
RACCORDO
100
AcDbLine
 62
253
  6
CONTINUOUS
 10
33.4934536965
 20
24.6643740726
 11
33.4930874537
 21
24.662958077
  0
LWPOLYLINE
  5
307
100
AcDbEntity
  8
RACCORDO
100
AcDbPolyline
 62
253
  6
CONTINUOUS
 90
7
 70
0
 10
-35.7265165882
 20
-99.5226775918
 10
-35.7775596545
 20
-99.5636451074
 10
-35.8267270204
 20
-99.6067652476
 10
-35.8739646633
 20
-99.6519857192
 10
-35.9191829355
 20
-99.6992200218
 10
-35.9622964673
 20
-99.7483782587
 10
-36.0032542549
 20
-99.7994065172
  0
LWPOLYLINE
  5
308
100
AcDbEntity
  8
RACCORDO
100
AcDbPolyline
 62
253
  6
CONTINUOUS
 90
7
 70
0
 10
-35.7265885557
 20
23.9221533852
 10
-35.7776211051
 20
23.9631172431
 10
-35.8267812736
 20
24.0062355317
 10
-35.8740150998
 20
24.0514567243
 10
-35.9192327701
 20
24.0986949738
 10
-35.9623482609
 20
24.1478605481
 10
-36.0033098441
 20
24.1988995283
  0
LINE
  5
309
100
AcDbEntity
  8
RACCORDO
100
AcDbLine
 62
253
  6
CONTINUOUS
 10
33.4933678739
 20
-100.2646781747
 11
33.4931145607
 21
-100.263623957
  0
LWPOLYLINE
  5
30A
100
AcDbEntity
  8
RACCORDO
100
AcDbPolyline
 62
253
  6
CONTINUOUS
 90
6
 70
0
 10
33.5604510857
 20
-100.648030215
 10
33.5562762373
 20
-100.5834314429
 10
33.5492933357
 20
-100.518880577
 10
33.5394892938
 20
-100.4544949675
 10
33.5268580158
 20
-100.3904060524
 10
33.5114032063
 20
-100.326758592
  0
LWPOLYLINE
  5
30B
100
AcDbEntity
  8
RACCORDO
100
AcDbPolyline
 62
253
  6
CONTINUOUS
 90
6
 70
0
 10
33.5604510857
 20
14.351969785
 10
33.5562762373
 20
14.4165685571
 10
33.5492933357
 20
14.481119423
 10
33.5394892938
 20
14.5455050325
 10
33.5268580158
 20
14.6095939476
 10
33.5114032063
 20
14.673241408
  0
LINE
  5
30C
100
AcDbEntity
  8
RACCORDO
100
AcDbLine
 62
253
  6
CONTINUOUS
 10
33.5618352562
 20
121.7697975829
 11
33.5617895648
 21
121.7711807661
  0
LINE
  5
30D
100
AcDbEntity
  8
RACCORDO
100
AcDbLine
 62
7
  6
CONTINUOUS
 10
33.5522926285
 20
122.3727695976
 11
33.5535281765
 21
122.3340684715
  0
LINE
  5
30E
100
AcDbEntity
  8
RACCORDO
100
AcDbLine
 62
7
  6
CONTINUOUS
 10
33.5535281765
 20
122.3340684715
 11
33.5547433614
 21
122.2864871023
  0
LINE
  5
30F
100
AcDbEntity
  8
RACCORDO
100
AcDbLine
 62
7
  6
CONTINUOUS
 10
33.6001450092
 20
-144.6502897165
 11
33.5618352562
 21
-142.9355519325
  0
LINE
  5
310
100
AcDbEntity
  8
RACCORDO
100
AcDbLine
 62
7
  6
CONTINUOUS
 10
33.6001450092
 20
-29.6502897165
 11
33.5618352562
 21
-27.9355519325
  0
LINE
  5
311
100
AcDbEntity
  8
RACCORDO
100
AcDbLine
 62
7
  6
CONTINUOUS
 10
33.6001450092
 20
85.3497102835
 11
33.5618352562
 21
87.0644480675
  0
LINE
  5
312
100
AcDbEntity
  8
RACCORDO
100
AcDbLine
 62
7
  6
CONTINUOUS
 10
33.5547433614
 20
122.2864871023
 11
33.5565093731
 21
122.1980718829
  0
LINE
  5
313
100
AcDbEntity
  8
RACCORDO
100
AcDbLine
 62
7
  6
CONTINUOUS
 10
33.5565093731
 20
122.1980718829
 11
33.5587175385
 21
122.0498369155
  0
LINE
  5
314
100
AcDbEntity
  8
RACCORDO
100
AcDbLine
 62
7
  6
CONTINUOUS
 10
33.5587175385
 20
122.0498369155
 11
33.5618352562
 21
121.7697975829
  0
LINE
  5
315
100
AcDbEntity
  8
RACCORDO
100
AcDbLine
 62
7
  6
CONTINUOUS
 10
33.5617580586
 20
121.7773067025
 11
33.5617897984
 21
121.7711717478
  0
LINE
  5
316
100
AcDbEntity
  8
RACCORDO
100
AcDbLine
 62
253
  6
CONTINUOUS
 10
32.0620637135
 20
-206.3877502462
 11
32.0620637135
 21
-206.3877959376
  0
LINE
  5
317
100
AcDbEntity
  8
RACCORDO
100
AcDbLine
 62
253
  6
CONTINUOUS
 10
32.0620637135
 20
-91.3877502462
 11
32.0620637135
 21
-91.3877959376
  0
LINE
  5
318
100
AcDbEntity
  8
RACCORDO
100
AcDbLine
 62
253
  6
CONTINUOUS
 10
32.0620637135
 20
-99.2128291869
 11
32.0620637135
 21
-99.2127834955
  0
LINE
  5
319
100
AcDbEntity
  8
RACCORDO
100
AcDbLine
 62
253
  6
CONTINUOUS
 10
32.0620637135
 20
15.7871708131
 11
32.0620637135
 21
15.7872165045
  0
LINE
  5
31A
100
AcDbEntity
  8
RACCORDO
100
AcDbLine
 62
253
  6
CONTINUOUS
 10
32.0620637135
 20
23.6122040624
 11
32.0620637135
 21
23.6122497538
  0
LINE
  5
31B
100
AcDbEntity
  8
RACCORDO
100
AcDbLine
 62
253
  6
CONTINUOUS
 10
32.1676973196
 20
-206.8933686218
 11
32.1676973196
 21
-206.4934295437
  0
LINE
  5
31C
100
AcDbEntity
  8
RACCORDO
100
AcDbLine
 62
253
  6
CONTINUOUS
 10
32.1676973196
 20
131.2927891887
 11
32.1676973195
 21
130.8928501106
  0
LINE
  5
31D
100
AcDbEntity
  8
RACCORDO
100
AcDbLine
 62
253
  6
CONTINUOUS
 10
32.1676973196
 20
-91.8933686218
 11
32.1676973196
 21
-91.4934295437
  0
LINE
  5
31E
100
AcDbEntity
  8
RACCORDO
100
AcDbLine
 62
253
  6
CONTINUOUS
 10
32.1676973196
 20
16.2927891887
 11
32.1676973195
 21
15.8928501106
  0
LINE
  5
31F
100
AcDbEntity
  8
RACCORDO
100
AcDbLine
 62
253
  6
CONTINUOUS
 10
32.1676973196
 20
23.1066313782
 11
32.1676973196
 21
23.5065704563
  0
LINE
  5
320
100
AcDbEntity
  8
RACCORDO
100
AcDbLine
 62
253
  6
CONTINUOUS
 10
32.1676973196
 20
-98.7072108113
 11
32.1676973195
 21
-99.1071498894
  0
LINE
  5
321
100
AcDbEntity
  8
ASSI
100
AcDbLine
 62
7
  6
CONTINUOUS
 10
32.3243290351
 20
80.1997102835
 11
32.3243290351
 21
74.1997102835
  0
LINE
  5
322
100
AcDbEntity
  8
ASSI
100
AcDbLine
 62
7
  6
CONTINUOUS
 10
32.3243290351
 20
-34.8002897165
 11
32.3243290351
 21
-40.8002897165
  0
LINE
  5
323
100
AcDbEntity
  8
ASSI
100
AcDbLine
 62
7
  6
CONTINUOUS
 10
32.3243290351
 20
-149.8002897165
 11
32.3243290351
 21
-155.8002897165
  0
LINE
  5
324
100
AcDbEntity
  8
ASSI
100
AcDbLine
 62
253
  6
CONTINUOUS
 10
32.3430674777
 20
80.1997102835
 11
32.3430674777
 21
74.1997102835
  0
LINE
  5
325
100
AcDbEntity
  8
ASSI
100
AcDbLine
 62
253
  6
CONTINUOUS
 10
32.3430674777
 20
-34.8002897165
 11
32.3430674777
 21
-40.8002897165
  0
LINE
  5
326
100
AcDbEntity
  8
ASSI
100
AcDbLine
 62
253
  6
CONTINUOUS
 10
32.3430674777
 20
-149.8002897165
 11
32.3430674777
 21
-155.8002897165
  0
LINE
  5
327
100
AcDbEntity
  8
0
100
AcDbLine
 62
7
  6
CONTINUOUS
 10
33.2243290351
 20
157.6997102835
 11
33.2243290351
 21
134.9497102835
  0
LINE
  5
328
100
AcDbEntity
  8
ASSI
100
AcDbLine
 62
7
  6
CONTINUOUS
 10
33.2243290351
 20
157.6997102835
 11
33.2243290351
 21
134.9497102835
  0
LINE
  5
329
100
AcDbEntity
  8
0
100
AcDbLine
 62
7
  6
CONTINUOUS
 10
33.2243290351
 20
-210.5502897165
 11
33.2243290351
 21
-233.3002897165
  0
LINE
  5
32A
100
AcDbEntity
  8
ASSI
100
AcDbLine
 62
7
  6
CONTINUOUS
 10
33.2243290351
 20
-210.5502897165
 11
33.2243290351
 21
-233.3002897165
  0
LINE
  5
32B
100
AcDbEntity
  8
RACCORDO
100
AcDbLine
 62
7
  6
CONTINUOUS
 10
33.2458071912
 20
128.9714168967
 11
33.2458071912
 21
123.9570084942
  0
LINE
  5
32C
100
AcDbEntity
  8
RACCORDO
100
AcDbLine
 62
7
  6
CONTINUOUS
 10
33.5618352562
 20
-142.9355519325
 11
33.5617895648
 21
-100.7125550382
  0
LINE
  5
32D
100
AcDbEntity
  8
RACCORDO
100
AcDbLine
 62
7
  6
CONTINUOUS
 10
33.5618352562
 20
-27.9355519325
 11
33.5617895648
 21
14.2874449618
  0
LINE
  5
32E
100
AcDbEntity
  8
RACCORDO
100
AcDbLine
 62
7
  6
CONTINUOUS
 10
33.5618352562
 20
87.0644480675
 11
33.5617895648
 21
121.7711737455
  0
LINE
  5
32F
100
AcDbEntity
  8
DRAFT
100
AcDbLine
 62
7
  6
CONTINUOUS
 10
33.6001450092
 20
-160.9502897165
 11
33.6001450092
 21
-155.8002897165
  0
LINE
  5
330
100
AcDbEntity
  8
DRAFT
100
AcDbLine
 62
7
  6
CONTINUOUS
 10
33.6001450092
 20
-149.8002897165
 11
33.6001450092
 21
-144.6502897165
  0
LINE
  5
331
100
AcDbEntity
  8
DRAFT
100
AcDbLine
 62
7
  6
CONTINUOUS
 10
33.6001450092
 20
-45.9502897165
 11
33.6001450092
 21
-40.8002897165
  0
LINE
  5
332
100
AcDbEntity
  8
DRAFT
100
AcDbLine
 62
7
  6
CONTINUOUS
 10
33.6001450092
 20
-34.8002897165
 11
33.6001450092
 21
-29.6502897165
  0
LINE
  5
333
100
AcDbEntity
  8
DRAFT
100
AcDbLine
 62
7
  6
CONTINUOUS
 10
33.6001450092
 20
69.0497102835
 11
33.6001450092
 21
74.1997102835
  0
LINE
  5
334
100
AcDbEntity
  8
DRAFT
100
AcDbLine
 62
7
  6
CONTINUOUS
 10
33.6001450092
 20
80.1997102835
 11
33.6001450092
 21
85.3497102835
  0
LINE
  5
335
100
AcDbEntity
  8
DRAFT
100
AcDbLine
 62
7
  6
CONTINUOUS
 10
33.6505632192
 20
-34.8002897165
 11
33.6505632192
 21
-40.8002897165
  0
LINE
  5
336
100
AcDbEntity
  8
DRAFT
100
AcDbLine
 62
7
  6
CONTINUOUS
 10
33.6505632192
 20
74.1997102835
 11
33.6505632192
 21
80.1997102835
  0
LINE
  5
337
100
AcDbEntity
  8
DRAFT
100
AcDbLine
 62
7
  6
CONTINUOUS
 10
33.6505632192
 20
-149.8002897165
 11
33.6505632192
 21
-155.8002897165
  0
LINE
  5
338
100
AcDbEntity
  8
RACCORDO
100
AcDbLine
 62
253
  6
CONTINUOUS
 10
33.6674688623
 20
129.3930785679
 11
33.6674688623
 21
25.006341999
  0
LINE
  5
339
100
AcDbEntity
  8
RACCORDO
100
AcDbLine
 62
253
  6
CONTINUOUS
 10
33.6674688623
 20
14.3930785679
 11
33.6674688623
 21
-89.993658001
  0
LINE
  5
33A
100
AcDbEntity
  8
RACCORDO
100
AcDbLine
 62
253
  6
CONTINUOUS
 10
33.6674688623
 20
-100.6069214321
 11
33.6674688623
 21
-204.993658001
  0
LINE
  5
33B
100
AcDbEntity
  8
0
100
AcDbLine
 62
7
  6
CONTINUOUS
 10
34.0243290351
 20
134.9497102835
 11
34.0243290351
 21
-210.5502897165
  0
LINE
  5
33C
100
AcDbEntity
  8
ASSI
100
AcDbLine
 62
7
  6
CONTINUOUS
 10
34.0243290351
 20
134.9497102835
 11
34.0243290351
 21
-210.5502897165
  0
LINE
  5
33D
100
AcDbEntity
  8
0
100
AcDbLine
 62
7
  6
CONTINUOUS
 10
34.2243290351
 20
157.6997102835
 11
34.2243290351
 21
-233.3002897165
  0
LINE
  5
33E
100
AcDbEntity
  8
ASSI
100
AcDbLine
 62
7
  6
CONTINUOUS
 10
34.2243290351
 20
157.6997102835
 11
34.2243290351
 21
-233.3002897165
  0
LINE
  5
33F
100
AcDbEntity
  8
RACCORDO
100
AcDbLine
 62
7
  6
CONTINUOUS
 10
33.5618352562
 20
67.3349724994
 11
33.5617895648
 21
25.1119756051
  0
LINE
  5
340
100
AcDbEntity
  8
RACCORDO
100
AcDbLine
 62
7
  6
CONTINUOUS
 10
33.5618352562
 20
-47.6650275006
 11
33.5617895648
 21
-89.8880243949
  0
LINE
  5
341
100
AcDbEntity
  8
RACCORDO
100
AcDbLine
 62
7
  6
CONTINUOUS
 10
33.5618352562
 20
-162.6650275006
 11
33.5617895648
 21
-204.8880243949
  0
LWPOLYLINE
  5
342
100
AcDbEntity
  8
RACCORDO
100
AcDbPolyline
 62
253
  6
CONTINUOUS
 90
37
 70
0
 10
33.6674688623
 20
25.006341999
 10
33.6660939657
 20
24.9420019178
 10
33.6619385426
 20
24.8775196132
 10
33.6549765
 20
24.8130168373
 10
33.6451797532
 20
24.74857568
 10
33.6325366317
 20
24.6843655198
 10
33.6170703392
 20
24.6206391922
 10
33.5987934637
 20
24.5575230563
 10
33.5777240564
 20
24.4951426022
 10
33.5539342507
 20
24.4337409122
 10
33.527474203
 20
24.3734479551
 10
33.4983897548
 20
24.314368543
 10
33.466780669
 20
24.2566944345
 10
33.4327382677
 20
24.2005645369
 10
33.3963187723
 20
24.1460458421
 10
33.3575831596
 20
24.093213793
 10
33.316615309
 20
24.0421703091
 10
33.2734946979
 20
23.9930026133
 10
33.2282736445
 20
23.9457647612
 10
33.1810386499
 20
23.9005464024
 10
33.1318796145
 20
23.8574329095
 10
33.0808504877
 20
23.8164753142
 10
33.0280403447
 20
23.7777533609
 10
32.9735501666
 20
23.741349063
 10
32.9174504998
 20
23.7073195895
 10
32.8598138178
 20
23.6757239373
 10
32.8007735114
 20
23.6466498825
 10
32.7404980403
 20
23.6201875178
 10
32.6790616085
 20
23.5963750347
 10
32.6166214062
 20
23.5752788237
 10
32.5534857848
 20
23.5569917653
 10
32.4898407893
 20
23.5415393736
 10
32.4257561777
 20
23.5289105889
 10
32.3613736261
 20
23.5191084622
 10
32.2968234851
 20
23.5121269688
 10
32.2322241027
 20
23.5079533697
 10
32.1676973196
 20
23.5065704563
  0
LWPOLYLINE
  5
343
100
AcDbEntity
  8
RACCORDO
100
AcDbPolyline
 62
253
  6
CONTINUOUS
 90
37
 70
0
 10
33.6674688623
 20
-89.993658001
 10
33.6660939657
 20
-90.0579980822
 10
33.6619385426
 20
-90.1224803868
 10
33.6549765
 20
-90.1869831627
 10
33.6451797532
 20
-90.25142432
 10
33.6325366317
 20
-90.3156344802
 10
33.6170703392
 20
-90.3793608078
 10
33.5987934637
 20
-90.4424769437
 10
33.5777240564
 20
-90.5048573978
 10
33.5539342507
 20
-90.5662590878
 10
33.527474203
 20
-90.6265520449
 10
33.4983897548
 20
-90.685631457
 10
33.466780669
 20
-90.7433055655
 10
33.4327382677
 20
-90.7994354631
 10
33.3963187723
 20
-90.8539541579
 10
33.3575831596
 20
-90.906786207
 10
33.316615309
 20
-90.9578296909
 10
33.2734946979
 20
-91.0069973867
 10
33.2282736445
 20
-91.0542352388
 10
33.1810386499
 20
-91.0994535976
 10
33.1318796145
 20
-91.1425670905
 10
33.0808504877
 20
-91.1835246858
 10
33.0280403447
 20
-91.2222466391
 10
32.9735501666
 20
-91.258650937
 10
32.9174504998
 20
-91.2926804105
 10
32.8598138178
 20
-91.3242760627
 10
32.8007735114
 20
-91.3533501175
 10
32.7404980403
 20
-91.3798124822
 10
32.6790616085
 20
-91.4036249653
 10
32.6166214062
 20
-91.4247211763
 10
32.5534857848
 20
-91.4430082347
 10
32.4898407893
 20
-91.4584606264
 10
32.4257561777
 20
-91.4710894111
 10
32.3613736261
 20
-91.4808915378
 10
32.2968234851
 20
-91.4878730312
 10
32.2322241027
 20
-91.4920466303
 10
32.1676973196
 20
-91.4934295437
  0
LWPOLYLINE
  5
344
100
AcDbEntity
  8
RACCORDO
100
AcDbPolyline
 62
253
  6
CONTINUOUS
 90
37
 70
0
 10
33.6674688623
 20
-204.993658001
 10
33.6660939657
 20
-205.0579980822
 10
33.6619385426
 20
-205.1224803868
 10
33.6549765
 20
-205.1869831627
 10
33.6451797532
 20
-205.25142432
 10
33.6325366317
 20
-205.3156344802
 10
33.6170703392
 20
-205.3793608078
 10
33.5987934637
 20
-205.4424769437
 10
33.5777240564
 20
-205.5048573978
 10
33.5539342507
 20
-205.5662590878
 10
33.527474203
 20
-205.6265520449
 10
33.4983897548
 20
-205.685631457
 10
33.466780669
 20
-205.7433055655
 10
33.4327382677
 20
-205.7994354631
 10
33.3963187723
 20
-205.8539541579
 10
33.3575831596
 20
-205.906786207
 10
33.316615309
 20
-205.9578296909
 10
33.2734946979
 20
-206.0069973867
 10
33.2282736445
 20
-206.0542352388
 10
33.1810386499
 20
-206.0994535976
 10
33.1318796145
 20
-206.1425670905
 10
33.0808504877
 20
-206.1835246858
 10
33.0280403447
 20
-206.2222466391
 10
32.9735501666
 20
-206.258650937
 10
32.9174504998
 20
-206.2926804105
 10
32.8598138178
 20
-206.3242760627
 10
32.8007735114
 20
-206.3533501175
 10
32.7404980403
 20
-206.3798124822
 10
32.6790616085
 20
-206.4036249653
 10
32.6166214062
 20
-206.4247211763
 10
32.5534857848
 20
-206.4430082347
 10
32.4898407893
 20
-206.4584606264
 10
32.4257561777
 20
-206.4710894111
 10
32.3613736261
 20
-206.4808915378
 10
32.2968234851
 20
-206.4878730312
 10
32.2322241027
 20
-206.4920466303
 10
32.1676973196
 20
-206.4934295437
  0
LINE
  5
345
100
AcDbEntity
  8
RACCORDO
100
AcDbLine
 62
7
  6
CONTINUOUS
 10
33.5618352562
 20
67.3349724994
 11
33.6001450092
 21
69.0497102835
  0
LINE
  5
346
100
AcDbEntity
  8
RACCORDO
100
AcDbLine
 62
7
  6
CONTINUOUS
 10
33.5618352562
 20
-47.6650275006
 11
33.6001450092
 21
-45.9502897165
  0
LINE
  5
347
100
AcDbEntity
  8
RACCORDO
100
AcDbLine
 62
7
  6
CONTINUOUS
 10
33.5618352562
 20
-162.6650275006
 11
33.6001450092
 21
-160.9502897165
  0
LWPOLYLINE
  5
348
100
AcDbEntity
  8
RACCORDO
100
AcDbPolyline
 62
7
  6
CONTINUOUS
 90
32
 70
0
 10
33.5617866768
 20
25.1119756052
 10
33.5598910569
 20
25.0365641183
 10
33.5541681928
 20
24.9609451554
 10
33.5446318865
 20
24.8857361715
 10
33.5313119831
 20
24.8111201487
 10
33.5142380893
 20
24.7372716393
 10
33.4934536965
 20
24.6643740726
 10
33.4690147656
 20
24.59261797
 10
33.4409787359
 20
24.5221886064
 10
33.4094192683
 20
24.4532640508
 10
33.3744178843
 20
24.3860209725
 10
33.3360610818
 20
24.3206342697
 10
33.2944508145
 20
24.2572692979
 10
33.2496920432
 20
24.1960884522
 10
33.2018970408
 20
24.1372493
 10
33.151191238
 20
24.080899476
 10
33.0977019188
 20
24.0271851486
 10
33.0415655695
 20
23.9762433275
 10
32.9829278263
 20
23.9282019254
 10
32.9219357893
 20
23.8831869732
 10
32.8587465584
 20
23.8413113316
 10
32.7935220688
 20
23.8026806646
 10
32.7264272527
 20
23.7673975896
 10
32.6576366217
 20
23.7355492879
 10
32.5873264837
 20
23.7072180525
 10
32.5156746125
 20
23.6824782433
 10
32.4428659921
 20
23.6613880603
 10
32.3690908759
 20
23.644004294
 10
32.294532496
 20
23.6303711561
 10
32.2193652608
 20
23.6205190033
 10
32.1437720613
 20
23.6144784666
 10
32.0620637134
 20
23.6122524737
  0
LWPOLYLINE
  5
349
100
AcDbEntity
  8
RACCORDO
100
AcDbPolyline
 62
7
  6
CONTINUOUS
 90
32
 70
0
 10
33.5617866514
 20
-89.8880243948
 10
33.5595640156
 20
-89.9696737045
 10
33.5535296798
 20
-90.0452372213
 10
33.5436867383
 20
-90.1203746285
 10
33.5300659487
 20
-90.1949035713
 10
33.5126974722
 20
-90.2686506659
 10
33.4916251106
 20
-90.3414329375
 10
33.4669058504
 20
-90.4130605416
 10
33.4385972775
 20
-90.4833495299
 10
33.4067729257
 20
-90.5521219608
 10
33.3715154749
 20
-90.6192019316
 10
33.3329108515
 20
-90.6844156201
 10
33.2910608673
 20
-90.7475979373
 10
33.2460716931
 20
-90.8085874257
 10
33.198054193
 20
-90.8672268125
 10
33.1471339084
 20
-90.9233690467
 10
33.0934392463
 20
-90.9768687549
 10
33.037105133
 20
-91.0275880703
 10
32.9782777753
 20
-91.0754001637
 10
32.9171050661
 20
-91.1201794869
 10
32.8537429949
 20
-91.1618115128
 10
32.7883548104
 20
-91.2001921555
 10
32.7211055534
 20
-91.2352187875
 10
32.6521686076
 20
-91.2668030272
 10
32.5817211018
 20
-91.2948649702
 10
32.509940577
 20
-91.3193285553
 10
32.4370123825
 20
-91.3401349001
 10
32.3631271012
 20
-91.3572301149
 10
32.2884706775
 20
-91.370567064
 10
32.213222068
 20
-91.3801158434
 10
32.1375644521
 20
-91.3858483022
 10
32.0620637135
 20
-91.3877468397
  0
LWPOLYLINE
  5
34A
100
AcDbEntity
  8
RACCORDO
100
AcDbPolyline
 62
7
  6
CONTINUOUS
 90
32
 70
0
 10
33.5617866514
 20
-204.8880243948
 10
33.5595640156
 20
-204.9696737045
 10
33.5535296798
 20
-205.0452372213
 10
33.5436867383
 20
-205.1203746285
 10
33.5300659487
 20
-205.1949035713
 10
33.5126974722
 20
-205.2686506659
 10
33.4916251106
 20
-205.3414329375
 10
33.4669058504
 20
-205.4130605416
 10
33.4385972775
 20
-205.4833495299
 10
33.4067729257
 20
-205.5521219608
 10
33.3715154749
 20
-205.6192019316
 10
33.3329108515
 20
-205.6844156201
 10
33.2910608673
 20
-205.7475979373
 10
33.2460716931
 20
-205.8085874257
 10
33.198054193
 20
-205.8672268125
 10
33.1471339084
 20
-205.9233690467
 10
33.0934392463
 20
-205.9768687549
 10
33.037105133
 20
-206.0275880703
 10
32.9782777753
 20
-206.0754001637
 10
32.9171050661
 20
-206.1201794869
 10
32.8537429949
 20
-206.1618115128
 10
32.7883548104
 20
-206.2001921555
 10
32.7211055534
 20
-206.2352187875
 10
32.6521686076
 20
-206.2668030272
 10
32.5817211018
 20
-206.2948649702
 10
32.509940577
 20
-206.3193285553
 10
32.4370123825
 20
-206.3401349001
 10
32.3631271012
 20
-206.3572301149
 10
32.2884706775
 20
-206.370567064
 10
32.213222068
 20
-206.3801158434
 10
32.1375644521
 20
-206.3858483022
 10
32.0620637135
 20
-206.3877468397
  0
LWPOLYLINE
  5
34B
100
AcDbEntity
  8
RACCORDO
100
AcDbPolyline
 62
253
  6
CONTINUOUS
 90
6
 70
0
 10
33.5604567874
 20
25.0475834299
 10
33.5562938922
 20
24.9830566305
 10
33.5493214286
 20
24.9185171561
 10
33.53951221
 20
24.854046877
 10
33.5268555769
 20
24.789815548
 10
33.5113760058
 20
24.7260769421
  0
LWPOLYLINE
  5
34C
100
AcDbEntity
  8
RACCORDO
100
AcDbPolyline
 62
253
  6
CONTINUOUS
 90
3
 70
0
 10
33.5563025096
 20
-90.0168433543
 10
33.5604590978
 20
-89.9523627042
 10
33.5618352562
 20
-89.8880243949
  0
LINE
  5
34D
100
AcDbEntity
  8
0
100
AcDbLine
 62
253
  6
CONTINUOUS
 10
48.1074224911
 20
-227.3495006871
 11
48.1074224911
 21
151.7489212541
  0
LINE
  5
34E
100
AcDbEntity
  8
ASSI
100
AcDbLine
 62
253
  6
CONTINUOUS
 10
48.1074224911
 20
-227.3495006871
 11
48.1074224911
 21
151.7489212541
  0
LINE
  5
34F
100
AcDbEntity
  8
0
100
AcDbLine
 62
7
  6
CONTINUOUS
 10
48.3743290351
 20
-225.3002897165
 11
48.3743290351
 21
149.6997102835
  0
LINE
  5
350
100
AcDbEntity
  8
ASSI
100
AcDbLine
 62
7
  6
CONTINUOUS
 10
48.3743290351
 20
-225.3002897165
 11
48.3743290351
 21
149.6997102835
  0
LWPOLYLINE
  5
351
100
AcDbEntity
  8
RACCORDO
100
AcDbPolyline
 62
253
  6
CONTINUOUS
 90
3
 70
0
 10
33.5563025096
 20
-205.0168433543
 10
33.5604590978
 20
-204.9523627042
 10
33.5618352562
 20
-204.8880243949
  0
LWPOLYLINE
  5
352
100
AcDbEntity
  8
RACCORDO
100
AcDbPolyline
 62
253
  6
CONTINUOUS
 90
33
 70
0
 10
34.0243290351
 20
-90.395305616
 10
34.0231742352
 20
-90.4011824743
 10
34.003614659
 20
-90.4818762238
 10
33.9804547891
 20
-90.5617808025
 10
33.9537425725
 20
-90.6409172124
 10
33.9236472113
 20
-90.7186696593
 10
33.8901327513
 20
-90.7950074227
 10
33.8532351468
 20
-90.8699612231
 10
33.8132314634
 20
-90.9430074266
 10
33.7701228916
 20
-91.0140882784
 10
33.7239082408
 20
-91.0832615334
 10
33.6748610051
 20
-91.1501768227
 10
33.6229777871
 20
-91.2148178047
 10
33.5682619841
 20
-91.277200821
 10
33.5109972823
 20
-91.3370245275
 10
33.4511778056
 20
-91.3942808314
 10
33.3888094301
 20
-91.4489778255
 10
33.3241934695
 20
-91.5008384445
 10
33.2573164113
 20
-91.5498587825
 10
33.188191768
 20
-91.5960427454
 10
33.1171613914
 20
-91.6391249856
 10
33.0441751822
 20
-91.6791066398
 10
32.9692832396
 20
-91.7159865712
 10
32.8929777129
 20
-91.7494960223
 10
32.8151901646
 20
-91.779609491
 10
32.7359890321
 20
-91.8063524794
 10
32.6560717775
 20
-91.8295327359
 10
32.575494121
 20
-91.8490877984
 10
32.4942003423
 20
-91.8650801291
 10
32.4127207427
 20
-91.8775048632
 10
32.3312320892
 20
-91.8863603793
 10
32.2495576149
 20
-91.8916482988
 10
32.1676973196
 20
-91.8933686218
  0
LWPOLYLINE
  5
353
100
AcDbEntity
  8
RACCORDO
100
AcDbPolyline
 62
253
  6
CONTINUOUS
 90
7
 70
0
 10
-35.3245934091
 20
-99.30253574
 10
-35.3859938509
 20
-99.3263259534
 10
-35.4462857758
 20
-99.3527863393
 10
-35.5053643048
 20
-99.3818710414
 10
-35.5630376389
 20
-99.4134802764
 10
-35.6191668729
 20
-99.4475227231
 10
-35.6736850156
 20
-99.4839421634
  0
LINE
  5
354
100
AcDbEntity
  8
RACCORDO
100
AcDbLine
 62
253
  6
CONTINUOUS
 10
-35.260692651
 20
-99.2810669618
 11
-35.2622143546
 21
-99.2814658191
  0
LWPOLYLINE
  5
355
100
AcDbEntity
  8
RACCORDO
100
AcDbPolyline
 62
253
  6
CONTINUOUS
 90
6
 70
0
 10
-34.8777439525
 20
15.7858403461
 10
-34.9422246026
 20
15.7816837579
 10
-35.0067258432
 20
15.7747206398
 10
-35.0711656349
 20
15.7649228878
 10
-35.1353745501
 20
15.7522788315
 10
-35.1990996081
 20
15.736811718
  0
LINE
  5
356
100
AcDbEntity
  8
RACCORDO
100
AcDbLine
 62
253
  6
CONTINUOUS
 10
33.5617895648
 20
14.2874449618
 11
33.5618352562
 21
14.2874449618
  0
LINE
  5
357
100
AcDbEntity
  8
RACCORDO
100
AcDbLine
 62
253
  6
CONTINUOUS
 10
-36.3131314945
 20
14.2874449618
 11
-36.3131771859
 21
14.2874449618
  0
LINE
  5
358
100
AcDbEntity
  8
RACCORDO
100
AcDbLine
 62
253
  6
CONTINUOUS
 10
-36.7756709649
 20
14.3930785679
 11
-36.418810792
 21
14.3930785679
  0
LINE
  5
359
100
AcDbEntity
  8
RACCORDO
100
AcDbLine
 62
253
  6
CONTINUOUS
 10
34.0243290351
 20
14.3930785679
 11
33.6674688623
 21
14.3930785679
  0
LINE
  5
35A
100
AcDbEntity
  8
RACCORDO
100
AcDbLine
 62
7
  6
CONTINUOUS
 10
32.0620637135
 20
15.7871708131
 11
-34.8134056431
 21
15.7871708131
  0
LINE
  5
35B
100
AcDbEntity
  8
RACCORDO
100
AcDbLine
 62
253
  6
CONTINUOUS
 10
-34.9190392493
 20
15.8928501106
 11
32.1676973196
 21
15.8928501106
  0
LINE
  5
35C
100
AcDbEntity
  8
RACCORDO
100
AcDbLine
 62
253
  6
CONTINUOUS
 10
-34.9190392493
 20
16.2927891887
 11
32.1676973196
 21
16.2927891887
  0
LWPOLYLINE
  5
35D
100
AcDbEntity
  8
RACCORDO
100
AcDbPolyline
 62
253
  6
CONTINUOUS
 90
33
 70
0
 10
32.1676973196
 20
16.2927891887
 10
32.249290444
 20
16.2911012453
 10
32.3307942001
 20
16.2858355939
 10
32.4122085881
 20
16.2769922344
 10
32.4937598746
 20
16.264562713
 10
32.5752217929
 20
16.2485554835
 10
32.6559155424
 20
16.2289959073
 10
32.7358201211
 20
16.2058360374
 10
32.8149565311
 20
16.1791238208
 10
32.8927089779
 20
16.1490284597
 10
32.9690467413
 20
16.1155139996
 10
33.0440005417
 20
16.0786163952
 10
33.1170467452
 20
16.0386127117
 10
33.188127597
 20
15.9955041399
 10
33.257300852
 20
15.9492894891
 10
33.3242161413
 20
15.9002422534
 10
33.3888571233
 20
15.8483590354
 10
33.4512401396
 20
15.7936432325
 10
33.5110638461
 20
15.7363785306
 10
33.56832015
 20
15.676559054
 10
33.6230171441
 20
15.6141906784
 10
33.6748777631
 20
15.5495747178
 10
33.7238981011
 20
15.4826976596
 10
33.770082064
 20
15.4135730163
 10
33.8131643042
 20
15.3425426397
 10
33.8531459584
 20
15.2695564305
 10
33.8900258898
 20
15.1946644879
 10
33.923535341
 20
15.1183589612
 10
33.9536488097
 20
15.0405714129
 10
33.980391798
 20
14.9613702804
 10
34.0035720545
 20
14.8814530258
 10
34.023127117
 20
14.8008753693
 10
34.0243290351
 20
14.7947656616
  0
LWPOLYLINE
  5
35E
100
AcDbEntity
  8
RACCORDO
100
AcDbPolyline
 62
253
  6
CONTINUOUS
 90
37
 70
0
 10
32.1676973196
 20
15.8928501106
 10
32.2320374008
 20
15.891475214
 10
32.2965197054
 20
15.8873197909
 10
32.3610224813
 20
15.8803577483
 10
32.4254636387
 20
15.8705610015
 10
32.4896737988
 20
15.85791788
 10
32.5534001264
 20
15.8424515875
 10
32.6165162623
 20
15.824174712
 10
32.6788967164
 20
15.8031053047
 10
32.7402984064
 20
15.7793154991
 10
32.8005913635
 20
15.7528554513
 10
32.8596707756
 20
15.7237710032
 10
32.9173448841
 20
15.6921619173
 10
32.9734747817
 20
15.658119516
 10
33.0279934765
 20
15.6217000206
 10
33.0808255256
 20
15.5829644079
 10
33.1318690095
 20
15.5419965573
 10
33.1810367054
 20
15.4988759462
 10
33.2282745574
 20
15.4536548928
 10
33.2734929162
 20
15.4064198982
 10
33.3166064091
 20
15.3572608629
 10
33.3575640044
 20
15.306231736
 10
33.3962859578
 20
15.253421593
 10
33.4326902556
 20
15.1989314149
 10
33.4667197291
 20
15.1428317482
 10
33.4983153813
 20
15.0851950661
 10
33.5273894361
 20
15.0261547597
 10
33.5538518008
 20
14.9658792886
 10
33.5776642839
 20
14.9044428568
 10
33.5987604949
 20
14.8420026545
 10
33.6170475533
 20
14.7788670331
 10
33.632499945
 20
14.7152220376
 10
33.6451287298
 20
14.651137426
 10
33.6549308564
 20
14.5867548744
 10
33.6619123498
 20
14.5222047334
 10
33.6660859489
 20
14.457605351
 10
33.6674688623
 20
14.3930785679
  0
LWPOLYLINE
  5
35F
100
AcDbEntity
  8
RACCORDO
100
AcDbPolyline
 62
7
  6
CONTINUOUS
 90
32
 70
0
 10
32.0620637134
 20
15.7871678997
 10
32.1437130231
 20
15.7849452639
 10
32.2192765399
 20
15.7789109281
 10
32.2944139471
 20
15.7690679867
 10
32.3689428899
 20
15.755447197
 10
32.4426899845
 20
15.7380787205
 10
32.5154722562
 20
15.7170063589
 10
32.5870998602
 20
15.6922870987
 10
32.6573888485
 20
15.6639785258
 10
32.7261612794
 20
15.632154174
 10
32.7932412502
 20
15.5968967232
 10
32.8584549387
 20
15.5582920998
 10
32.9216372559
 20
15.5164421156
 10
32.9826267443
 20
15.4714529414
 10
33.0412661312
 20
15.4234354413
 10
33.0974083653
 20
15.3725151567
 10
33.1509080735
 20
15.3188204946
 10
33.2016273889
 20
15.2624863813
 10
33.2494394824
 20
15.2036590236
 10
33.2942188055
 20
15.1424863144
 10
33.3358508314
 20
15.0791242433
 10
33.3742314741
 20
15.0137360587
 10
33.4092581061
 20
14.9464868017
 10
33.4408423458
 20
14.8775498559
 10
33.4689042888
 20
14.8071023501
 10
33.4933678739
 20
14.7353218253
 10
33.5141742187
 20
14.6623936308
 10
33.5312694335
 20
14.5885083495
 10
33.5446063826
 20
14.5138519258
 10
33.554155162
 20
14.4386033163
 10
33.5598876208
 20
14.3629457004
 10
33.5617861583
 20
14.2874449618
  0
LWPOLYLINE
  5
360
100
AcDbEntity
  8
RACCORDO
100
AcDbPolyline
 62
253
  6
CONTINUOUS
 90
3
 70
0
 10
32.1908826729
 20
15.7816837579
 10
32.1264020228
 20
15.7858403461
 10
32.0620637135
 20
15.7872165045
  0
LINE
  5
361
100
AcDbEntity
  8
RACCORDO
100
AcDbLine
 62
253
  6
CONTINUOUS
 10
-35.2610071757
 20
23.6805856221
 11
-35.2624231713
 21
23.6809518649
  0
LWPOLYLINE
  5
362
100
AcDbEntity
  8
RACCORDO
100
AcDbPolyline
 62
253
  6
CONTINUOUS
 90
7
 70
0
 10
-35.3247979312
 20
23.7020304464
 10
-35.3861873512
 20
23.725826439
 10
-35.4464599048
 20
23.752287944
 10
-35.5055132503
 20
23.7813690538
 10
-35.5631630962
 20
23.8129732335
 10
-35.6192720898
 20
23.8470103041
 10
-35.6737716836
 20
23.8834234128
  0
LWPOLYLINE
  5
363
100
AcDbEntity
  8
RACCORDO
100
AcDbPolyline
 62
253
  6
CONTINUOUS
 90
7
 70
0
 10
33.472017457
 20
14.7988135621
 10
33.4482042309
 20
14.860247605
 10
33.4217409298
 20
14.9205216644
 10
33.3926659747
 20
14.9795608196
 10
33.3610695419
 20
15.0371964239
 10
33.3270394397
 20
15.0932950412
 10
33.2906346372
 20
15.1477842511
  0
LINE
  5
364
100
AcDbEntity
  8
RACCORDO
100
AcDbLine
 62
253
  6
CONTINUOUS
 10
33.4933678739
 20
14.7353218253
 11
33.4931145607
 21
14.736376043
  0
LINE
  5
365
100
AcDbEntity
  8
DRAFT
100
AcDbLine
 62
7
  6
CONTINUOUS
 10
48.4159626549
 20
145.7817490886
 11
48.3743290351
 21
146.9739799681
  0
LINE
  5
366
100
AcDbEntity
  8
DRAFT
100
AcDbLine
 62
7
  6
CONTINUOUS
 10
48.3743290351
 20
-222.5745594012
 11
48.4159626549
 21
-221.3823285217
  0
LWPOLYLINE
  5
367
100
AcDbEntity
  8
RACCORDO
100
AcDbPolyline
 62
253
  6
CONTINUOUS
 90
33
 70
0
 10
34.0243290351
 20
-205.395305616
 10
34.0231742352
 20
-205.4011824743
 10
34.003614659
 20
-205.4818762238
 10
33.9804547891
 20
-205.5617808025
 10
33.9537425725
 20
-205.6409172124
 10
33.9236472113
 20
-205.7186696593
 10
33.8901327513
 20
-205.7950074227
 10
33.8532351468
 20
-205.8699612231
 10
33.8132314634
 20
-205.9430074266
 10
33.7701228916
 20
-206.0140882784
 10
33.7239082408
 20
-206.0832615334
 10
33.6748610051
 20
-206.1501768227
 10
33.6229777871
 20
-206.2148178047
 10
33.5682619841
 20
-206.277200821
 10
33.5109972823
 20
-206.3370245275
 10
33.4511778056
 20
-206.3942808314
 10
33.3888094301
 20
-206.4489778255
 10
33.3241934695
 20
-206.5008384445
 10
33.2573164113
 20
-206.5498587825
 10
33.188191768
 20
-206.5960427454
 10
33.1171613914
 20
-206.6391249856
 10
33.0441751822
 20
-206.6791066398
 10
32.9692832396
 20
-206.7159865712
 10
32.8929777129
 20
-206.7494960223
 10
32.8151901646
 20
-206.779609491
 10
32.7359890321
 20
-206.8063524794
 10
32.6560717775
 20
-206.8295327359
 10
32.575494121
 20
-206.8490877984
 10
32.4942003423
 20
-206.8650801291
 10
32.4127207427
 20
-206.8775048632
 10
32.3312320892
 20
-206.8863603793
 10
32.2495576149
 20
-206.8916482988
 10
32.1676973196
 20
-206.8933686218
  0
LWPOLYLINE
  5
368
100
AcDbEntity
  8
RACCORDO
100
AcDbPolyline
 62
253
  6
CONTINUOUS
 90
12
 70
0
 10
33.3270960285
 20
-90.6937856246
 10
33.3611384753
 20
-90.6376563906
 10
33.3927477103
 20
-90.5799830565
 10
33.4218324124
 20
-90.5209045275
 10
33.4482927983
 20
-90.4606126026
 10
33.4720830117
 20
-90.3992121608
 10
33.4931529326
 20
-90.3368331063
 10
33.5114304697
 20
-90.2737183598
 10
33.5268975832
 20
-90.2099933018
 10
33.5395416395
 20
-90.1457843866
 10
33.5493393915
 20
-90.0813445948
 10
33.5563025096
 20
-90.0168433543
  0
LINE
  5
369
100
AcDbEntity
  8
RACCORDO
100
AcDbLine
 62
253
  6
CONTINUOUS
 10
33.2906765883
 20
-90.7483037673
 11
33.2910608673
 21
-90.7475979373
  0
LINE
  5
36A
100
AcDbEntity
  8
RACCORDO
100
AcDbLine
 62
253
  6
CONTINUOUS
 10
32.0620637135
 20
-99.2127834955
 11
32.1676973196
 21
-99.1071498894
  0
LINE
  5
36B
100
AcDbEntity
  8
RACCORDO
100
AcDbLine
 62
253
  6
CONTINUOUS
 10
33.5618352562
 20
-100.7125550382
 11
33.6674688623
 21
-100.6069214321
  0
LWPOLYLINE
  5
36C
100
AcDbEntity
  8
RACCORDO
100
AcDbPolyline
 62
253
  6
CONTINUOUS
 90
7
 70
0
 10
32.9752122345
 20
-91.0778730066
 10
33.026240493
 20
-91.036915219
 10
33.0753987298
 20
-90.9938016872
 10
33.1226330325
 20
-90.948583415
 10
33.1678535041
 20
-90.901345772
 10
33.2109736443
 20
-90.8521784062
 10
33.2519411599
 20
-90.8011353399
  0
LWPOLYLINE
  5
36D
100
AcDbEntity
  8
RACCORDO
100
AcDbPolyline
 62
253
  6
CONTINUOUS
 90
7
 70
0
 10
32.5734323138
 20
-91.2979781384
 10
32.6348663566
 20
-91.2741649123
 10
32.6951404161
 20
-91.2477016112
 10
32.7541795713
 20
-91.2186266561
 10
32.8118151756
 20
-91.1870302233
 10
32.8679137929
 20
-91.1530001211
 10
32.9224030028
 20
-91.1165953186
  0
LINE
  5
36E
100
AcDbEntity
  8
RACCORDO
100
AcDbLine
 62
253
  6
CONTINUOUS
 10
32.509940577
 20
-91.3193285553
 11
32.5109947947
 21
-91.3190752421
  0
LWPOLYLINE
  5
36F
100
AcDbEntity
  8
RACCORDO
100
AcDbPolyline
 62
253
  6
CONTINUOUS
 90
3
 70
0
 10
32.1909147398
 20
23.6177395713
 10
32.1264197447
 20
23.6135809808
 10
32.0620637135
 20
23.6122040624
  0
LINE
  5
370
100
AcDbEntity
  8
RACCORDO
100
AcDbLine
 62
253
  6
CONTINUOUS
 10
32.1676973196
 20
23.1066313782
 11
-34.9190392493
 21
23.1066313782
  0
LINE
  5
371
100
AcDbEntity
  8
RACCORDO
100
AcDbLine
 62
253
  6
CONTINUOUS
 10
32.1676973196
 20
23.5065704563
 11
-34.9190392493
 21
23.5065704563
  0
LINE
  5
372
100
AcDbEntity
  8
RACCORDO
100
AcDbLine
 62
7
  6
CONTINUOUS
 10
32.0620637135
 20
23.6122497538
 11
-34.8134056432
 21
23.6122497538
  0
LINE
  5
373
100
AcDbEntity
  8
RACCORDO
100
AcDbLine
 62
253
  6
CONTINUOUS
 10
-36.7756709649
 20
25.006341999
 11
-36.418810792
 21
25.006341999
  0
LINE
  5
374
100
AcDbEntity
  8
RACCORDO
100
AcDbLine
 62
253
  6
CONTINUOUS
 10
34.0243290351
 20
25.006341999
 11
33.6674688623
 21
25.0063419991
  0
LINE
  5
375
100
AcDbEntity
  8
RACCORDO
100
AcDbLine
 62
253
  6
CONTINUOUS
 10
-36.3131771859
 20
25.1119756051
 11
-36.3131314945
 21
25.1119756051
  0
LINE
  5
376
100
AcDbEntity
  8
RACCORDO
100
AcDbLine
 62
253
  6
CONTINUOUS
 10
33.5618352562
 20
25.1119756051
 11
33.5617895648
 21
25.1119756051
  0
LWPOLYLINE
  5
377
100
AcDbEntity
  8
RACCORDO
100
AcDbPolyline
 62
253
  6
CONTINUOUS
 90
33
 70
0
 10
-34.9190392493
 20
23.1066313782
 10
-35.0006323737
 20
23.1083193216
 10
-35.0821361299
 20
23.113584973
 10
-35.1635505178
 20
23.1224283325
 10
-35.2451018043
 20
23.1348578539
 10
-35.3265637226
 20
23.1508650834
 10
-35.4072574721
 20
23.1704246596
 10
-35.4871620508
 20
23.1935845295
 10
-35.5662984608
 20
23.2202967461
 10
-35.6440509076
 20
23.2503921073
 10
-35.720388671
 20
23.2839065673
 10
-35.7953424714
 20
23.3208041718
 10
-35.8683886749
 20
23.3608078552
 10
-35.9394695267
 20
23.403916427
 10
-36.0086427817
 20
23.4501310778
 10
-36.075558071
 20
23.4991783135
 10
-36.140199053
 20
23.5510615315
 10
-36.2025820693
 20
23.6057773345
 10
-36.2624057758
 20
23.6630420363
 10
-36.3196620797
 20
23.722861513
 10
-36.3743590738
 20
23.7852298885
 10
-36.4262196928
 20
23.8498458491
 10
-36.4752400308
 20
23.9167229073
 10
-36.5214239937
 20
23.9858475506
 10
-36.5645062339
 20
24.0568779272
 10
-36.6044878881
 20
24.1298641364
 10
-36.6413678196
 20
24.204756079
 10
-36.6748772707
 20
24.2810616057
 10
-36.7049907394
 20
24.358849154
 10
-36.7317337277
 20
24.4380502865
 10
-36.7549139843
 20
24.5179675411
 10
-36.7744690467
 20
24.5985451977
 10
-36.7756709649
 20
24.6046549053
  0
LWPOLYLINE
  5
378
100
AcDbEntity
  8
RACCORDO
100
AcDbPolyline
 62
253
  6
CONTINUOUS
 90
37
 70
0
 10
-34.9190392493
 20
23.5065704563
 10
-34.9833793305
 20
23.5079453529
 10
-35.0478616351
 20
23.512100776
 10
-35.112364411
 20
23.5190628186
 10
-35.1768055684
 20
23.5288595654
 10
-35.2410157285
 20
23.5415026869
 10
-35.3047420561
 20
23.5569689794
 10
-35.367858192
 20
23.5752458549
 10
-35.4302386462
 20
23.5963152622
 10
-35.4916403361
 20
23.6201050679
 10
-35.5519332932
 20
23.6465651156
 10
-35.6110127053
 20
23.6756495638
 10
-35.6686868138
 20
23.7072586496
 10
-35.7248167114
 20
23.7413010509
 10
-35.7793354062
 20
23.7777205463
 10
-35.8321674553
 20
23.816456159
 10
-35.8832109392
 20
23.8574240096
 10
-35.9323786351
 20
23.9005446207
 10
-35.9796164871
 20
23.9457656741
 10
-36.0248348459
 20
23.9930006688
 10
-36.0679483389
 20
24.0421597041
 10
-36.1089059341
 20
24.0931888309
 10
-36.1476278875
 20
24.1459989739
 10
-36.1840321853
 20
24.200489152
 10
-36.2180616588
 20
24.2565888188
 10
-36.249657311
 20
24.3142255008
 10
-36.2787313658
 20
24.3732658072
 10
-36.3051937305
 20
24.4335412783
 10
-36.3290062136
 20
24.4949777101
 10
-36.3501024246
 20
24.5574179124
 10
-36.368389483
 20
24.6205535338
 10
-36.3838418747
 20
24.6841985293
 10
-36.3964706595
 20
24.7482831409
 10
-36.4062727861
 20
24.8126656925
 10
-36.4132542795
 20
24.8772158335
 10
-36.4174278786
 20
24.9418152159
 10
-36.418810792
 20
25.006341999
  0
LWPOLYLINE
  5
379
100
AcDbEntity
  8
RACCORDO
100
AcDbPolyline
 62
7
  6
CONTINUOUS
 90
32
 70
0
 10
-34.8134056431
 20
23.6122526418
 10
-34.88881713
 20
23.6141482617
 10
-34.9644360929
 20
23.6198711258
 10
-35.0396450768
 20
23.6294074321
 10
-35.1142610996
 20
23.6427273355
 10
-35.188109609
 20
23.6598012293
 10
-35.2610071757
 20
23.6805856221
 10
-35.3327632784
 20
23.705024553
 10
-35.4031926419
 20
23.7330605827
 10
-35.4721171975
 20
23.7646200503
 10
-35.5393602758
 20
23.7996214343
 10
-35.6047469786
 20
23.8379782368
 10
-35.6681119504
 20
23.8795885041
 10
-35.7292927961
 20
23.9243472755
 10
-35.7881319483
 20
23.9721422778
 10
-35.8444817723
 20
24.0228480806
 10
-35.8981960997
 20
24.0763373998
 10
-35.9491379208
 20
24.1324737491
 10
-35.9971793229
 20
24.1911114923
 10
-36.0421942751
 20
24.2521035293
 10
-36.0840699167
 20
24.3152927602
 10
-36.1227005837
 20
24.3805172498
 10
-36.1579836587
 20
24.4476120659
 10
-36.1898319604
 20
24.5164026969
 10
-36.2181631958
 20
24.5867128349
 10
-36.242903005
 20
24.6583647061
 10
-36.263993188
 20
24.7311733265
 10
-36.2813769543
 20
24.8049484428
 10
-36.2950100923
 20
24.8795068226
 10
-36.304862245
 20
24.9546740578
 10
-36.3109027817
 20
25.0302672573
 10
-36.3131287746
 20
25.1119756052
  0
LWPOLYLINE
  5
37A
100
AcDbEntity
  8
RACCORDO
100
AcDbPolyline
 62
253
  6
CONTINUOUS
 90
6
 70
0
 10
-34.8777978184
 20
23.6135825312
 10
-34.9423246178
 20
23.6177454264
 10
-35.0068640922
 20
23.62471789
 10
-35.0713343713
 20
23.6345271086
 10
-35.1355657003
 20
23.6471837417
 10
-35.1993043062
 20
23.6626633128
  0
LWPOLYLINE
  5
37B
100
AcDbEntity
  8
RACCORDO
100
AcDbPolyline
 62
253
  6
CONTINUOUS
 90
12
 70
0
 10
32.8678249432
 20
15.5524772769
 10
32.8116957092
 20
15.5865197236
 10
32.7540223751
 20
15.6181289586
 10
32.6949438461
 20
15.6472136607
 10
32.6346519212
 20
15.6736740466
 10
32.5732514794
 20
15.69746426
 10
32.5108724249
 20
15.7185341809
 10
32.4477576784
 20
15.736811718
 10
32.3840326204
 20
15.7522788315
 10
32.3198237052
 20
15.7649228878
 10
32.2553839135
 20
15.7747206398
 10
32.1908826729
 20
15.7816837579
  0
LINE
  5
37C
100
AcDbEntity
  8
RACCORDO
100
AcDbLine
 62
253
  6
CONTINUOUS
 10
32.9223430859
 20
15.5160578366
 11
32.9216372559
 21
15.5164421156
  0
LINE
  5
37D
100
AcDbEntity
  8
RACCORDO
100
AcDbLine
 62
253
  6
CONTINUOUS
 10
32.1676973196
 20
23.5065704563
 11
32.0620637135
 21
23.6122040624
  0
LINE
  5
37E
100
AcDbEntity
  8
RACCORDO
100
AcDbLine
 62
253
  6
CONTINUOUS
 10
33.6674688623
 20
25.006341999
 11
33.5618352562
 21
25.1119756051
  0
LWPOLYLINE
  5
37F
100
AcDbEntity
  8
RACCORDO
100
AcDbPolyline
 62
253
  6
CONTINUOUS
 90
7
 70
0
 10
33.2519123252
 20
15.2005934828
 10
33.2109545376
 20
15.2516217413
 10
33.1678410058
 20
15.3007799782
 10
33.1226227336
 20
15.3480142808
 10
33.0753850907
 20
15.3932347524
 10
33.0262177248
 20
15.4363548926
 10
32.9751746585
 20
15.4773224082
  0
LINE
  5
380
100
AcDbEntity
  8
RACCORDO
100
AcDbLine
 62
7
  6
CONTINUOUS
 10
33.2458071912
 20
123.9570084942
 11
33.5479332824
 21
122.4426853913
  0
LWPOLYLINE
  5
381
100
AcDbEntity
  8
RACCORDO
100
AcDbPolyline
 62
7
  6
CONTINUOUS
 90
8
 70
0
 10
33.547933284
 20
122.4426853914
 10
33.5485515064
 20
122.4387291392
 10
33.5491715687
 20
122.4327703458
 10
33.5497934709
 20
122.4248090109
 10
33.5504185222
 20
122.4148791776
 10
33.5510454133
 20
122.402946803
 10
33.5516702171
 20
122.388909758
 10
33.5522926285
 20
122.3727695976
  0
LINE
  5
382
100
AcDbEntity
  8
DRAFT
100
AcDbLine
 62
7
  6
CONTINUOUS
 10
-51.1673045846
 20
-221.3823285217
 11
-51.1256709649
 21
-221.3392156464
  0
LINE
  5
383
100
AcDbEntity
  8
RACCORDO
100
AcDbLine
 62
253
  6
CONTINUOUS
 10
-36.418810792
 20
-204.993658001
 11
-36.3131771859
 21
-204.8880243949
  0
LINE
  5
384
100
AcDbEntity
  8
RACCORDO
100
AcDbLine
 62
253
  6
CONTINUOUS
 10
-34.9190392493
 20
-206.4934295437
 11
-34.8134056432
 21
-206.3877959376
  0
LINE
  5
385
100
AcDbEntity
  8
RACCORDO
100
AcDbLine
 62
253
  6
CONTINUOUS
 10
-36.418810792
 20
129.3930785679
 11
-35.9971491209
 21
128.9714168967
  0
LINE
  5
386
100
AcDbEntity
  8
RACCORDO
100
AcDbLine
 62
253
  6
CONTINUOUS
 10
-34.9190392493
 20
130.8928501106
 11
-34.4973775781
 21
130.4711884395
  0
LINE
  5
387
100
AcDbEntity
  8
DRAFT
100
AcDbLine
 62
7
  6
CONTINUOUS
 10
-51.1673045846
 20
145.7817490886
 11
-51.1256709649
 21
145.7386362133
  0
LINE
  5
388
100
AcDbEntity
  8
ELVOX
100
AcDbLine
 62
253
  6
CONTINUOUS
 10
-2.4869441839
 20
148.1844618314
 11
-1.6750438303
 21
146.7751673187
  0
LINE
  5
389
100
AcDbEntity
  8
ELVOX
100
AcDbLine
 62
253
  6
CONTINUOUS
 10
2.6268066201
 20
147.993475874
 11
2.7283606605
 21
147.8162216965
  0
LINE
  5
38A
100
AcDbEntity
  8
ELVOX
100
AcDbLine
 62
253
  6
CONTINUOUS
 10
-1.6912087608
 20
145.3324429621
 11
-2.9186969307
 21
147.4883842752
  0
LINE
  5
38B
100
AcDbEntity
  8
ELVOX
100
AcDbLine
 62
253
  6
CONTINUOUS
 10
2.7283606605
 20
147.8162216965
 11
2.8260065832
 21
147.6367848681
  0
LINE
  5
38C
100
AcDbEntity
  8
ELVOX
100
AcDbLine
 62
253
  6
CONTINUOUS
 10
2.8260065832
 20
147.6367848681
 11
2.9196717484
 21
147.4553026805
  0
LINE
  5
38D
100
AcDbEntity
  8
ELVOX
100
AcDbLine
 62
253
  6
CONTINUOUS
 10
3.7490226607
 20
148.1681489749
 11
4.2129976298
 21
147.4882625939
  0
LINE
  5
38E
100
AcDbEntity
  8
ELVOX
100
AcDbLine
 62
253
  6
CONTINUOUS
 10
4.6996621546
 20
145.3144371581
 11
4.2467608659
 21
145.9791194148
  0
LINE
  5
38F
100
AcDbEntity
  8
ELVOX
100
AcDbLine
 62
253
  6
CONTINUOUS
 10
4.6958462252
 20
146.7315063289
 11
5.5799445811
 21
145.3144371581
  0
LINE
  5
390
100
AcDbEntity
  8
ELVOX
100
AcDbLine
 62
253
  6
CONTINUOUS
 10
3.7655420496
 20
146.7083002252
 11
2.8798021605
 21
148.1681489749
  0
LINE
  5
391
100
AcDbEntity
  8
ELVOX
100
AcDbLine
 62
253
  6
CONTINUOUS
 10
2.521582542
 20
148.1681489749
 11
2.6268066201
 21
147.993475874
  0
LWPOLYLINE
  5
392
100
AcDbEntity
  8
RACCORDO
100
AcDbPolyline
 62
253
  6
CONTINUOUS
 90
12
 70
0
 10
33.3270960285
 20
-205.6937856246
 10
33.3611384753
 20
-205.6376563906
 10
33.3927477103
 20
-205.5799830565
 10
33.4218324124
 20
-205.5209045275
 10
33.4482927983
 20
-205.4606126026
 10
33.4720830117
 20
-205.3992121608
 10
33.4931529326
 20
-205.3368331063
 10
33.5114304697
 20
-205.2737183598
 10
33.5268975832
 20
-205.2099933018
 10
33.5395416395
 20
-205.1457843866
 10
33.5493393915
 20
-205.0813445948
 10
33.5563025096
 20
-205.0168433543
  0
LINE
  5
393
100
AcDbEntity
  8
RACCORDO
100
AcDbLine
 62
253
  6
CONTINUOUS
 10
33.2906765883
 20
-205.7483037673
 11
33.2910608673
 21
-205.7475979373
  0
LINE
  5
394
100
AcDbEntity
  8
ASSI
100
AcDbLine
 62
7
  6
CONTINUOUS
 10
32.3430674777
 20
74.1997102835
 11
32.3243648516
 21
74.1997102835
  0
LINE
  5
395
100
AcDbEntity
  8
DRAFT
100
AcDbLine
 62
7
  6
CONTINUOUS
 10
33.6505632192
 20
74.1997102835
 11
32.3430674777
 21
74.1997102835
  0
LINE
  5
396
100
AcDbEntity
  8
DRAFT
100
AcDbLine
 62
7
  6
CONTINUOUS
 10
33.6505632192
 20
80.1997102835
 11
32.3430674777
 21
80.1997102835
  0
LINE
  5
397
100
AcDbEntity
  8
ASSI
100
AcDbLine
 62
7
  6
CONTINUOUS
 10
32.3430674777
 20
80.1997102835
 11
32.3243648516
 21
80.1997102835
  0
LINE
  5
398
100
AcDbEntity
  8
RACCORDO
100
AcDbLine
 62
7
  6
CONTINUOUS
 10
10.4813158907
 20
124.0252082172
 11
-0.6834493589
 21
130.4711884395
  0
LWPOLYLINE
  5
399
100
AcDbEntity
  8
RACCORDO
100
AcDbPolyline
 62
253
  6
CONTINUOUS
 90
7
 70
0
 10
32.9752122345
 20
-206.0778730066
 10
33.026240493
 20
-206.036915219
 10
33.0753987298
 20
-205.9938016872
 10
33.1226330325
 20
-205.948583415
 10
33.1678535041
 20
-205.901345772
 10
33.2109736443
 20
-205.8521784062
 10
33.2519411599
 20
-205.8011353399
  0
LINE
  5
39A
100
AcDbEntity
  8
RACCORDO
100
AcDbLine
 62
253
  6
CONTINUOUS
 10
-36.3131771859
 20
121.849911579
 11
-36.3131314945
 21
121.8499115791
  0
LINE
  5
39B
100
AcDbEntity
  8
RACCORDO
100
AcDbLine
 62
7
  6
CONTINUOUS
 10
33.2458071912
 20
123.9570084942
 11
10.7353423791
 21
123.9570084942
  0
LWPOLYLINE
  5
39C
100
AcDbEntity
  8
RACCORDO
100
AcDbPolyline
 62
253
  6
CONTINUOUS
 90
7
 70
0
 10
32.5734323138
 20
-206.2979781384
 10
32.6348663566
 20
-206.2741649123
 10
32.6951404161
 20
-206.2477016112
 10
32.7541795713
 20
-206.2186266561
 10
32.8118151756
 20
-206.1870302233
 10
32.8679137929
 20
-206.1530001211
 10
32.9224030028
 20
-206.1165953186
  0
LINE
  5
39D
100
AcDbEntity
  8
RACCORDO
100
AcDbLine
 62
253
  6
CONTINUOUS
 10
32.509940577
 20
-206.3193285553
 11
32.5109947947
 21
-206.3190752421
  0
LWPOLYLINE
  5
39E
100
AcDbEntity
  8
RACCORDO
100
AcDbPolyline
 62
7
  6
CONTINUOUS
 90
34
 70
0
 10
-34.4976631334
 20
130.4711884395
 10
-34.5689482114
 20
130.4694859681
 10
-34.6401100245
 20
130.4643944407
 10
-34.7109873328
 20
130.4559197664
 10
-34.7814509506
 20
130.4440694849
 10
-34.8513078602
 20
130.4288679306
 10
-34.9203048571
 20
130.4103712807
 10
-34.9882200106
 20
130.3886528113
 10
-35.054972004
 20
130.3637525205
 10
-35.1205199988
 20
130.3356852341
 10
-35.1847873616
 20
130.3044679064
 10
-35.2475464339
 20
130.2701949413
 10
-35.308536883
 20
130.2330095302
 10
-35.3675478651
 20
130.1930606825
 10
-35.424535178
 20
130.150399431
 10
-35.4794921474
 20
130.1050303708
 10
-35.5323621945
 20
130.0569762456
 10
-35.582936927
 20
130.0064015131
 10
-35.6309910522
 20
129.953531466
 10
-35.6763601123
 20
129.8985744966
 10
-35.7190213639
 20
129.8415871837
 10
-35.7589702116
 20
129.7825762016
 10
-35.7961556227
 20
129.7215857525
 10
-35.8304285878
 20
129.6588266802
 10
-35.8616459155
 20
129.5945593174
 10
-35.8897132019
 20
129.5290113226
 10
-35.9146134927
 20
129.4622593292
 10
-35.9363319621
 20
129.3943441757
 10
-35.9548286119
 20
129.3253471788
 10
-35.9700301663
 20
129.2554902692
 10
-35.9818804478
 20
129.1850266514
 10
-35.9903551221
 20
129.1141493431
 10
-35.9954466495
 20
129.04298753
 10
-35.9971491209
 20
128.971702452
  0
LINE
  5
39F
100
AcDbEntity
  8
RACCORDO
100
AcDbLine
 62
253
  6
CONTINUOUS
 10
-36.7756709649
 20
129.3930785679
 11
-36.418810792
 21
129.3930785678
  0
LINE
  5
3A0
100
AcDbEntity
  8
RACCORDO
100
AcDbLine
 62
253
  6
CONTINUOUS
 10
34.0243290351
 20
129.3930785679
 11
33.6674688623
 21
129.3930785679
  0
LINE
  5
3A1
100
AcDbEntity
  8
RACCORDO
100
AcDbLine
 62
7
  6
CONTINUOUS
 10
31.7460356484
 20
130.4711884395
 11
-34.4976631334
 21
130.4711884395
  0
LINE
  5
3A2
100
AcDbEntity
  8
RACCORDO
100
AcDbLine
 62
253
  6
CONTINUOUS
 10
-34.9190392493
 20
130.8928501106
 11
32.1676973196
 21
130.8928501106
  0
LINE
  5
3A3
100
AcDbEntity
  8
RACCORDO
100
AcDbLine
 62
253
  6
CONTINUOUS
 10
-34.9190392493
 20
131.2927891887
 11
32.1676973196
 21
131.2927891887
  0
LINE
  5
3A4
100
AcDbEntity
  8
RACCORDO
100
AcDbLine
 62
253
  6
CONTINUOUS
 10
34.0243290351
 20
134.7531708308
 11
-36.7756709649
 21
134.7531708308
  0
LINE
  5
3A5
100
AcDbEntity
  8
0
100
AcDbLine
 62
7
  6
CONTINUOUS
 10
34.0243290351
 20
134.9497102835
 11
-36.7756709649
 21
134.9497102835
  0
LINE
  5
3A6
100
AcDbEntity
  8
ASSI
100
AcDbLine
 62
7
  6
CONTINUOUS
 10
34.0243290351
 20
134.9497102835
 11
-36.7756709649
 21
134.9497102835
  0
LWPOLYLINE
  5
3A7
100
AcDbEntity
  8
RACCORDO
100
AcDbPolyline
 62
253
  6
CONTINUOUS
 90
33
 70
0
 10
32.1676973196
 20
131.2927891887
 10
32.249290444
 20
131.2911012453
 10
32.3307942001
 20
131.2858355939
 10
32.4122085881
 20
131.2769922344
 10
32.4937598746
 20
131.264562713
 10
32.5752217929
 20
131.2485554835
 10
32.6559155424
 20
131.2289959073
 10
32.7358201211
 20
131.2058360374
 10
32.8149565311
 20
131.1791238208
 10
32.8927089779
 20
131.1490284597
 10
32.9690467413
 20
131.1155139996
 10
33.0440005417
 20
131.0786163952
 10
33.1170467452
 20
131.0386127117
 10
33.188127597
 20
130.9955041399
 10
33.257300852
 20
130.9492894891
 10
33.3242161413
 20
130.9002422534
 10
33.3888571233
 20
130.8483590354
 10
33.4512401396
 20
130.7936432325
 10
33.5110638461
 20
130.7363785306
 10
33.56832015
 20
130.676559054
 10
33.6230171441
 20
130.6141906784
 10
33.6748777631
 20
130.5495747178
 10
33.7238981011
 20
130.4826976596
 10
33.770082064
 20
130.4135730163
 10
33.8131643042
 20
130.3425426397
 10
33.8531459584
 20
130.2695564305
 10
33.8900258898
 20
130.1946644879
 10
33.923535341
 20
130.1183589612
 10
33.9536488097
 20
130.0405714129
 10
33.980391798
 20
129.9613702804
 10
34.0035720545
 20
129.8814530258
 10
34.023127117
 20
129.8008753693
 10
34.0243290351
 20
129.7947656616
  0
LWPOLYLINE
  5
3A8
100
AcDbEntity
  8
RACCORDO
100
AcDbPolyline
 62
253
  6
CONTINUOUS
 90
37
 70
0
 10
32.1676973196
 20
130.8928501106
 10
32.2320374008
 20
130.891475214
 10
32.2965197054
 20
130.8873197909
 10
32.3610224813
 20
130.8803577483
 10
32.4254636387
 20
130.8705610015
 10
32.4896737988
 20
130.85791788
 10
32.5534001264
 20
130.8424515875
 10
32.6165162623
 20
130.824174712
 10
32.6788967164
 20
130.8031053047
 10
32.7402984064
 20
130.7793154991
 10
32.8005913635
 20
130.7528554513
 10
32.8596707756
 20
130.7237710032
 10
32.9173448841
 20
130.6921619173
 10
32.9734747817
 20
130.658119516
 10
33.0279934765
 20
130.6217000206
 10
33.0808255256
 20
130.5829644079
 10
33.1318690095
 20
130.5419965573
 10
33.1810367054
 20
130.4988759462
 10
33.2282745574
 20
130.4536548928
 10
33.2734929162
 20
130.4064198982
 10
33.3166064091
 20
130.3572608629
 10
33.3575640044
 20
130.306231736
 10
33.3962859578
 20
130.253421593
 10
33.4326902556
 20
130.1989314149
 10
33.4667197291
 20
130.1428317482
 10
33.4983153813
 20
130.0851950661
 10
33.5273894361
 20
130.0261547597
 10
33.5538518008
 20
129.9658792886
 10
33.5776642839
 20
129.9044428568
 10
33.5987604949
 20
129.8420026545
 10
33.6170475533
 20
129.7788670331
 10
33.632499945
 20
129.7152220376
 10
33.6451287298
 20
129.651137426
 10
33.6549308564
 20
129.5867548744
 10
33.6619123498
 20
129.5222047334
 10
33.6660859489
 20
129.457605351
 10
33.6674688623
 20
129.3930785679
  0
LINE
  5
3A9
100
AcDbEntity
  8
ELVOX
100
AcDbLine
 62
253
  6
CONTINUOUS
 10
-2.4208807149
 20
145.3132559117
 11
-4.9085840696
 21
145.3132559117
  0
LINE
  5
3AA
100
AcDbEntity
  8
ELVOX
100
AcDbLine
 62
253
  6
CONTINUOUS
 10
-5.2407170547
 20
145.3132559117
 11
-8.3312864507
 21
145.3132559117
  0
LINE
  5
3AB
100
AcDbEntity
  8
ELVOX
100
AcDbLine
 62
253
  6
CONTINUOUS
 10
5.5799445811
 20
145.3144371581
 11
4.6996621547
 21
145.3144371581
  0
LINE
  5
3AC
100
AcDbEntity
  8
ELVOX
100
AcDbLine
 62
253
  6
CONTINUOUS
 10
3.760430819
 20
145.3144371581
 11
2.87996393
 21
145.3144371581
  0
LINE
  5
3AD
100
AcDbEntity
  8
ELVOX
100
AcDbLine
 62
253
  6
CONTINUOUS
 10
2.5059820097
 20
145.3179741079
 11
-0.3652239862
 21
145.3179741079
  0
LINE
  5
3AE
100
AcDbEntity
  8
ELVOX
100
AcDbLine
 62
253
  6
CONTINUOUS
 10
0.5150296576
 20
145.9628959827
 11
1.6253838795
 21
145.9628959827
  0
LINE
  5
3AF
100
AcDbEntity
  8
ELVOX
100
AcDbLine
 62
253
  6
CONTINUOUS
 10
-7.4458841471
 20
146.0132559117
 11
-5.2407171503
 21
146.0132559117
  0
LINE
  5
3B0
100
AcDbEntity
  8
ELVOX
100
AcDbLine
 62
253
  6
CONTINUOUS
 10
-4.0631577327
 20
146.0132559117
 11
-2.4208807575
 21
146.0132559117
  0
LINE
  5
3B1
100
AcDbEntity
  8
ELVOX
100
AcDbLine
 62
253
  6
CONTINUOUS
 10
-6.3848075802
 20
146.37699646
 11
-7.4458841066
 21
146.37699646
  0
LINE
  5
3B2
100
AcDbEntity
  8
ELVOX
100
AcDbLine
 62
253
  6
CONTINUOUS
 10
1.6253839325
 20
146.4438313124
 11
0.5150297107
 21
146.4438313124
  0
LINE
  5
3B3
100
AcDbEntity
  8
ELVOX
100
AcDbLine
 62
253
  6
CONTINUOUS
 10
-0.36522391
 20
147.0897296599
 11
2.505982086
 21
147.0897296599
  0
LINE
  5
3B4
100
AcDbEntity
  8
ELVOX
100
AcDbLine
 62
253
  6
CONTINUOUS
 10
-7.4458841471
 20
147.1232041421
 11
-6.3848076208
 21
147.1232041421
  0
LINE
  5
3B5
100
AcDbEntity
  8
ELVOX
100
AcDbLine
 62
253
  6
CONTINUOUS
 10
-4.9085841648
 20
147.1232041421
 11
-4.0631577288
 21
147.1232041421
  0
LINE
  5
3B6
100
AcDbEntity
  8
ELVOX
100
AcDbLine
 62
253
  6
CONTINUOUS
 10
2.9196717484
 20
147.4553026805
 11
-0.3810405787
 21
147.4553026805
  0
LINE
  5
3B7
100
AcDbEntity
  8
ELVOX
100
AcDbLine
 62
253
  6
CONTINUOUS
 10
-2.9186969307
 20
147.4883842752
 11
-5.2572277866
 21
147.4883842752
  0
LINE
  5
3B8
100
AcDbEntity
  8
ELVOX
100
AcDbLine
 62
253
  6
CONTINUOUS
 10
-5.5717650457
 20
147.4883842752
 11
-7.4458841385
 21
147.4883842752
  0
LINE
  5
3B9
100
AcDbEntity
  8
ELVOX
100
AcDbLine
 62
253
  6
CONTINUOUS
 10
-0.8120771987
 20
148.1681489749
 11
2.5215824957
 21
148.1681489749
  0
LINE
  5
3BA
100
AcDbEntity
  8
ELVOX
100
AcDbLine
 62
253
  6
CONTINUOUS
 10
2.8798021605
 20
148.1681489749
 11
3.7490226774
 21
148.1681489749
  0
LINE
  5
3BB
100
AcDbEntity
  8
ELVOX
100
AcDbLine
 62
253
  6
CONTINUOUS
 10
4.7434555121
 20
148.1681489749
 11
5.5799447756
 21
148.1681489749
  0
LINE
  5
3BC
100
AcDbEntity
  8
ELVOX
100
AcDbLine
 62
253
  6
CONTINUOUS
 10
-8.3312865294
 20
148.1844618314
 11
-5.5717650373
 21
148.1844618314
  0
LINE
  5
3BD
100
AcDbEntity
  8
ELVOX
100
AcDbLine
 62
253
  6
CONTINUOUS
 10
-5.2572278279
 20
148.1844618314
 11
-2.4869441371
 21
148.1844618314
  0
LINE
  5
3BE
100
AcDbEntity
  8
0
100
AcDbLine
 62
7
  6
CONTINUOUS
 10
40.3743290351
 20
157.6997102835
 11
-43.1256709649
 21
157.6997102835
  0
LINE
  5
3BF
100
AcDbEntity
  8
ASSI
100
AcDbLine
 62
7
  6
CONTINUOUS
 10
40.3743290351
 20
157.6997102835
 11
-43.1256709649
 21
157.6997102835
  0
LINE
  5
3C0
100
AcDbEntity
  8
0
100
AcDbLine
 62
7
  6
CONTINUOUS
 10
-175.8938383523
 20
-233.3002897165
 11
-180.3228702245
 21
-233.3002897165
  0
LINE
  5
3C1
100
AcDbEntity
  8
ASSI
100
AcDbLine
 62
7
  6
CONTINUOUS
 10
-175.8938383523
 20
-233.3002897165
 11
-180.3228702245
 21
-233.3002897165
  0
LINE
  5
3C2
100
AcDbEntity
  8
RACCORDO
100
AcDbLine
 62
253
  6
CONTINUOUS
 10
-174.950481444
 20
-232.7573447181
 11
-174.6183449366
 21
-232.7630917497
  0
LINE
  5
3C3
100
AcDbEntity
  8
RACCORDO
100
AcDbLine
 62
7
  6
CONTINUOUS
 10
-166.3228777872
 20
-233.2002897165
 11
-175.2707331181
 21
-233.0441043208
  0
LWPOLYLINE
  5
3C4
100
AcDbEntity
  8
0
100
AcDbPolyline
 62
7
  6
CONTINUOUS
 90
40
 70
0
 10
-175.8938386929
 20
-233.3002897165
 10
-175.8210737145
 20
-233.2962015441
 10
-175.7461343193
 20
-233.283650651
 10
-175.6690135087
 20
-233.2626370374
 10
-175.5896226365
 20
-233.2331892102
 10
-175.5080326723
 20
-233.1952786625
 10
-175.4244949874
 20
-233.1488198731
 10
-175.3390064817
 20
-233.0937742802
 10
-175.2515941899
 20
-233.0301804457
 10
-175.1625952417
 20
-232.9580685348
 10
-175.0720277908
 20
-232.8773825527
 10
-174.9799408878
 20
-232.7881784943
 10
-174.886763771
 20
-232.6906545091
 10
-174.7925408556
 20
-232.5847384584
 10
-174.6973412461
 20
-232.470502481
 10
-174.6016802021
 20
-232.3483611434
 10
-174.5056336354
 20
-232.2182337653
 10
-174.4092847084
 20
-232.080201027
 10
-174.313208205
 20
-231.9349195356
 10
-174.2175135181
 20
-231.7823135479
 10
-174.122289532
 20
-231.6224588071
 10
-174.0281238663
 20
-231.45623915
 10
-173.9351551784
 20
-231.2835987664
 10
-173.8434699908
 20
-231.1045934666
 10
-173.7536118004
 20
-230.9202745175
 10
-173.6657389425
 20
-230.7306208461
 10
-173.579928737
 20
-230.5356535255
 10
-173.4966249124
 20
-230.3364870418
 10
-173.4159883593
 20
-230.1331360916
 10
-173.3380867916
 20
-229.9255859782
 10
-173.2632335179
 20
-229.7149070991
 10
-173.1915762403
 20
-229.5011434175
 10
-173.1231742692
 20
-229.28425097
 10
-173.058207728
 20
-229.0651682639
 10
-172.9967997581
 20
-228.8439576916
 10
-172.9390032048
 20
-228.6205568606
 10
-172.8848858279
 20
-228.3957171006
 10
-172.8345169731
 20
-228.169688855
 10
-172.7879678586
 20
-227.9422216803
 10
-172.745300356
 20
-227.7133155767
  0
LWPOLYLINE
  5
3C5
100
AcDbEntity
  8
ASSI
100
AcDbPolyline
 62
7
  6
CONTINUOUS
 90
40
 70
0
 10
-175.8938386929
 20
-233.3002897165
 10
-175.8210737145
 20
-233.2962015441
 10
-175.7461343193
 20
-233.283650651
 10
-175.6690135087
 20
-233.2626370374
 10
-175.5896226365
 20
-233.2331892102
 10
-175.5080326723
 20
-233.1952786625
 10
-175.4244949874
 20
-233.1488198731
 10
-175.3390064817
 20
-233.0937742802
 10
-175.2515941899
 20
-233.0301804457
 10
-175.1625952417
 20
-232.9580685348
 10
-175.0720277908
 20
-232.8773825527
 10
-174.9799408878
 20
-232.7881784943
 10
-174.886763771
 20
-232.6906545091
 10
-174.7925408556
 20
-232.5847384584
 10
-174.6973412461
 20
-232.470502481
 10
-174.6016802021
 20
-232.3483611434
 10
-174.5056336354
 20
-232.2182337653
 10
-174.4092847084
 20
-232.080201027
 10
-174.313208205
 20
-231.9349195356
 10
-174.2175135181
 20
-231.7823135479
 10
-174.122289532
 20
-231.6224588071
 10
-174.0281238663
 20
-231.45623915
 10
-173.9351551784
 20
-231.2835987664
 10
-173.8434699908
 20
-231.1045934666
 10
-173.7536118004
 20
-230.9202745175
 10
-173.6657389425
 20
-230.7306208461
 10
-173.579928737
 20
-230.5356535255
 10
-173.4966249124
 20
-230.3364870418
 10
-173.4159883593
 20
-230.1331360916
 10
-173.3380867916
 20
-229.9255859782
 10
-173.2632335179
 20
-229.7149070991
 10
-173.1915762403
 20
-229.5011434175
 10
-173.1231742692
 20
-229.28425097
 10
-173.058207728
 20
-229.0651682639
 10
-172.9967997581
 20
-228.8439576916
 10
-172.9390032048
 20
-228.6205568606
 10
-172.8848858279
 20
-228.3957171006
 10
-172.8345169731
 20
-228.169688855
 10
-172.7879678586
 20
-227.9422216803
 10
-172.745300356
 20
-227.7133155767
  0
LWPOLYLINE
  5
3C6
100
AcDbEntity
  8
RACCORDO
100
AcDbPolyline
 62
253
  6
CONTINUOUS
 90
46
 70
0
 10
-174.3355445714
 20
-233.0604280976
 10
-174.2581820311
 20
-233.057016352
 10
-174.1785549992
 20
-233.0440738211
 10
-174.0966634755
 20
-233.0215399713
 10
-174.0123856412
 20
-232.9893639753
 10
-173.9258433151
 20
-232.947508865
 10
-173.8374019542
 20
-232.8959621051
 10
-173.7470108406
 20
-232.8347150626
 10
-173.6547206922
 20
-232.7637813156
 10
-173.5610491197
 20
-232.683227502
 10
-173.4659526245
 20
-232.5931039544
 10
-173.3694747051
 20
-232.4934785203
 10
-173.2722634685
 20
-232.3845012177
 10
-173.174276762
 20
-232.2662734355
 10
-173.0755567382
 20
-232.1389277433
 10
-172.9768779614
 20
-232.0027263802
 10
-172.878176426
 20
-231.8577780006
 10
-172.7795161376
 20
-231.7043264096
 10
-172.6818636769
 20
-231.5429385908
 10
-172.5852412178
 20
-231.3739155532
 10
-172.4896265863
 20
-231.1974936027
 10
-172.3959198418
 20
-231.0142513823
 10
-172.3041437027
 20
-230.8245080552
 10
-172.2142754504
 20
-230.6285881781
 10
-172.1271469881
 20
-230.427157763
 10
-172.0428085824
 20
-230.2205949736
 10
-171.9612099666
 20
-230.0092430031
 10
-171.883032244
 20
-229.7937751441
 10
-171.8083743717
 20
-229.574730069
 10
-171.7371373926
 20
-229.3523278528
 10
-171.6697055386
 20
-229.1267723895
 10
-171.6061187528
 20
-228.8984433835
 10
-171.5463370921
 20
-228.6676582778
 10
-171.4906249589
 20
-228.4344970487
 10
-171.4389948725
 20
-228.1991612734
 10
-171.3914343137
 20
-227.9620832338
 10
-171.3481701269
 20
-227.7236726841
 10
-171.3092518268
 20
-227.4842084014
 10
-171.2746298988
 20
-227.2440186167
 10
-171.2443826434
 20
-227.0035856114
 10
-171.2185660808
 20
-226.7632156708
 10
-171.1971241908
 20
-226.523171139
 10
-171.1799672133
 20
-226.283861841
 10
-171.1670652285
 20
-226.0455963978
 10
-171.1584481563
 20
-225.8085797534
 10
-171.1541159966
 20
-225.5730526807
  0
LWPOLYLINE
  5
3C7
100
AcDbEntity
  8
RACCORDO
100
AcDbPolyline
 62
253
  6
CONTINUOUS
 90
46
 70
0
 10
-174.6183449366
 20
-232.7630917497
 10
-174.5402971075
 20
-232.7599523539
 10
-174.4599678602
 20
-232.7475529159
 10
-174.3773496525
 20
-232.7258934359
 10
-174.2923169065
 20
-232.6949908617
 10
-174.2049745425
 20
-232.6548282454
 10
-174.1156882883
 20
-232.605354743
 10
-174.0244677368
 20
-232.5465123901
 10
-173.9313433068
 20
-232.478359151
 10
-173.8367684946
 20
-232.4010180754
 10
-173.7407861975
 20
-232.3144257787
 10
-173.6434510378
 20
-232.2186456455
 10
-173.5452924056
 20
-232.1139908785
 10
-173.4463803432
 20
-232.0003869547
 10
-173.3467970099
 20
-231.8779083972
 10
-173.2471476437
 20
-231.7470919779
 10
-173.1475038229
 20
-231.6077923185
 10
-173.0479947257
 20
-231.4601547974
 10
-172.9493712074
 20
-231.3051523221
 10
-172.8518095381
 20
-231.142735652
 10
-172.7553846421
 20
-230.9729540276
 10
-172.6607460841
 20
-230.7969280775
 10
-172.5680666317
 20
-230.6145998402
 10
-172.477444447
 20
-230.4260272771
 10
-172.3894501193
 20
-230.2325049017
 10
-172.304272324
 20
-230.0340129901
 10
-172.2219932325
 20
-229.8305712662
 10
-172.1430413115
 20
-229.623533415
 10
-172.0676322257
 20
-229.4130532614
 10
-171.995801227
 20
-229.1989769804
 10
-171.927706923
 20
-228.9821967828
 10
-171.8634777282
 20
-228.7627703644
 10
-171.8031949017
 20
-228.5406400293
 10
-171.7469369552
 20
-228.3165249005
 10
-171.6947830787
 20
-228.0903336452
 10
-171.6468213046
 20
-227.8621575961
 10
-171.6031332687
 20
-227.6329898746
 10
-171.563815655
 20
-227.4028183759
 10
-171.5288992739
 20
-227.1716552047
 10
-171.4983563209
 20
-226.9405297973
 10
-171.4722690321
 20
-226.7094677758
 10
-171.4506414846
 20
-226.4784435181
 10
-171.4333168636
 20
-226.2484095935
 10
-171.4202579013
 20
-226.0196835249
 10
-171.4115483694
 20
-225.7919477894
 10
-171.4072029109
 20
-225.565202387
  0
LWPOLYLINE
  5
3C8
100
AcDbEntity
  8
RACCORDO
100
AcDbPolyline
 62
253
  6
CONTINUOUS
 90
64
 70
0
 10
-174.6673640598
 20
-232.592320102
 10
-174.6228010827
 20
-232.5913095939
 10
-174.5758186337
 20
-232.5859223505
 10
-174.5263303875
 20
-232.5761583717
 10
-174.4744192028
 20
-232.5625856886
 10
-174.4198274822
 20
-232.5446362701
 10
-174.3619249735
 20
-232.5206060232
 10
-174.3003392686
 20
-232.4905693682
 10
-174.2351720784
 20
-232.4544518847
 10
-174.166477958
 20
-232.4103262184
 10
-174.0937375937
 20
-232.3578065973
 10
-174.0171859266
 20
-232.2972787933
 10
-173.9380940115
 20
-232.2279727687
 10
-173.8563890171
 20
-232.1494767995
 10
-173.7720228984
 20
-232.0622026096
 10
-173.6864712027
 20
-231.9666153332
 10
-173.599857006
 20
-231.8623944847
 10
-173.5121127437
 20
-231.7498605497
 10
-173.4245842992
 20
-231.6304401185
 10
-173.3375233393
 20
-231.5039681075
 10
-173.2508679497
 20
-231.3706096004
 10
-173.165602586
 20
-231.232286438
 10
-173.082165765
 20
-231.0893880621
 10
-173.0003771538
 20
-230.9415250309
 10
-172.9203279455
 20
-230.78945086
 10
-172.8421333845
 20
-230.6331912487
 10
-172.7658988837
 20
-230.4727204977
 10
-172.6916926366
 20
-230.3087150247
 10
-172.6194855374
 20
-230.1408333056
 10
-172.549497299
 20
-229.9694168646
 10
-172.4821731792
 20
-229.7961666922
 10
-172.417668194
 20
-229.6209567158
 10
-172.3560165544
 20
-229.443913008
 10
-172.2974909356
 20
-229.2671147775
 10
-172.2422697354
 20
-229.090628743
 10
-172.1903427493
 20
-228.9143881857
 10
-172.1416952479
 20
-228.7402721586
 10
-172.0964728256
 20
-228.5683619345
 10
-172.0546627737
 20
-228.3985762405
 10
-172.01599897
 20
-228.2325503109
 10
-171.9806028402
 20
-228.0705490662
 10
-171.9484476988
 20
-227.9123075859
 10
-171.9190277473
 20
-227.7586663438
 10
-171.8923968083
 20
-227.6099293131
 10
-171.868560875
 20
-227.4657925207
 10
-171.8469262343
 20
-227.3261845199
 10
-171.8274818482
 20
-227.1912103016
 10
-171.8102731093
 20
-227.0607648749
 10
-171.794779469
 20
-226.9344618208
 10
-171.7809730797
 20
-226.8123518027
 10
-171.768900729
 20
-226.6943841571
 10
-171.7581469406
 20
-226.5800204744
 10
-171.7486818138
 20
-226.4692960881
 10
-171.7405453757
 20
-226.3621756647
 10
-171.7334232185
 20
-226.2580147942
 10
-171.7272881234
 20
-226.1568381131
 10
-171.7221725545
 20
-226.0586209848
 10
-171.7178496162
 20
-225.9626450901
 10
-171.714293891
 20
-225.8689449372
 10
-171.7115333853
 20
-225.7774860177
 10
-171.7094203455
 20
-225.6874464871
 10
-171.7079058306
 20
-225.5985523972
 10
-171.7070399219
 20
-225.511077696
 10
-171.7076214031
 20
-221.3062653835
  0
LINE
  5
3C9
100
AcDbEntity
  8
RACCORDO
100
AcDbLine
 62
7
  6
CONTINUOUS
 10
-171.1084470617
 20
-221.3010364683
 11
-172.7131775061
 21
-221.3150407387
  0
LINE
  5
3CA
100
AcDbEntity
  8
RACCORDO
100
AcDbLine
 62
253
  6
CONTINUOUS
 10
-174.7993045169
 20
-232.5923414952
 11
-174.6673640598
 21
-232.592320102
  0
LINE
  5
3CB
100
AcDbEntity
  8
0
100
AcDbLine
 62
7
  6
CONTINUOUS
 10
-166.3228777872
 20
-228.5002897165
 11
-163.2728777872
 21
-228.5002897165
  0
LINE
  5
3CC
100
AcDbEntity
  8
0
100
AcDbLine
 62
253
  6
CONTINUOUS
 10
-172.9631775061
 20
-225.3002897165
 11
-174.5226100633
 21
-225.3002897165
  0
LINE
  5
3CD
100
AcDbEntity
  8
ASSI
100
AcDbLine
 62
253
  6
CONTINUOUS
 10
-172.9631775061
 20
-225.3002897165
 11
-174.5226100633
 21
-225.3002897165
  0
LINE
  5
3CE
100
AcDbEntity
  8
RACCORDO
100
AcDbLine
 62
7
  6
CONTINUOUS
 10
-166.3228777872
 20
-221.3002897165
 11
-171.1116595152
 21
-221.3002897165
  0
LINE
  5
3CF
100
AcDbEntity
  8
ASSI
100
AcDbLine
 62
7
  6
CONTINUOUS
 10
-166.3228777872
 20
-221.3002897165
 11
-171.1116595152
 21
-221.3002897165
  0
LINE
  5
3D0
100
AcDbEntity
  8
RACCORDO
100
AcDbLine
 62
7
  6
CONTINUOUS
 10
-171.6101640469
 20
-221.3002897165
 11
-171.7213709403
 21
-221.3002897165
  0
LINE
  5
3D1
100
AcDbEntity
  8
0
100
AcDbLine
 62
7
  6
CONTINUOUS
 10
-171.7213709403
 20
-221.3002897165
 11
-172.7131775061
 21
-221.3002897165
  0
LINE
  5
3D2
100
AcDbEntity
  8
ASSI
100
AcDbLine
 62
7
  6
CONTINUOUS
 10
-171.6101640469
 20
-221.3002897165
 11
-172.7131775061
 21
-221.3002897165
  0
LINE
  5
3D3
100
AcDbEntity
  8
RACCORDO
100
AcDbLine
 62
253
  6
CONTINUOUS
 10
-166.3228777872
 20
-225.5759957405
 11
-171.1541159966
 21
-225.5730526807
  0
LINE
  5
3D4
100
AcDbEntity
  8
RACCORDO
100
AcDbLine
 62
253
  6
CONTINUOUS
 10
-171.8858307791
 20
-225.422591955
 11
-172.4714583338
 21
-225.4222491517
  0
LINE
  5
3D5
100
AcDbEntity
  8
RACCORDO
100
AcDbLine
 62
253
  6
CONTINUOUS
 10
-171.8145325338
 20
-225.4231177574
 11
-171.8858307791
 21
-225.422591955
  0
LINE
  5
3D6
100
AcDbEntity
  8
RACCORDO
100
AcDbLine
 62
253
  6
CONTINUOUS
 10
-171.7724344619
 20
-225.4236395778
 11
-171.8145325338
 21
-225.4231177574
  0
LINE
  5
3D7
100
AcDbEntity
  8
RACCORDO
100
AcDbLine
 62
253
  6
CONTINUOUS
 10
-171.2047857126
 20
-225.5723338129
 11
-171.1541159966
 21
-225.5730526807
  0
LINE
  5
3D8
100
AcDbEntity
  8
DRAFT
100
AcDbLine
 62
7
  6
CONTINUOUS
 10
-166.3228777872
 20
-221.3823285217
 11
-170.9962282863
 21
-221.3007548853
  0
LINE
  5
3D9
100
AcDbEntity
  8
RACCORDO
100
AcDbLine
 62
253
  6
CONTINUOUS
 10
-171.2538435807
 20
-225.5713338539
 11
-171.2047857126
 21
-225.5723338129
  0
LWPOLYLINE
  5
3DA
100
AcDbEntity
  8
RACCORDO
100
AcDbPolyline
 62
253
  6
CONTINUOUS
 90
4
 70
0
 10
-171.7068229959
 20
-225.4250223837
 10
-171.7205721913
 20
-225.4246403933
 10
-171.7361704149
 20
-225.4242808344
 10
-171.7724344619
 20
-225.4236395778
  0
LWPOLYLINE
  5
3DB
100
AcDbEntity
  8
RACCORDO
100
AcDbPolyline
 62
253
  6
CONTINUOUS
 90
8
 70
0
 10
-171.4072029109
 20
-225.565202387
 10
-171.3933222154
 20
-225.5660994138
 10
-171.3776764154
 20
-225.5669710592
 10
-171.3603784884
 20
-225.5678110288
 10
-171.3415533421
 20
-225.5686132573
 10
-171.321336912
 20
-225.569371952
 10
-171.29987518
 20
-225.5700816342
 10
-171.2538435807
 20
-225.5713338539
  0
LINE
  5
3DC
100
AcDbEntity
  8
RACCORDO
100
AcDbLine
 62
7
  6
CONTINUOUS
 10
-161.6176420653
 20
-208.4181595215
 11
-163.2728777872
 21
-208.4470517685
  0
LINE
  5
3DD
100
AcDbEntity
  8
0
100
AcDbLine
 62
7
  6
CONTINUOUS
 10
-163.2728777872
 20
-218.5502897165
 11
-140.0228777872
 21
-218.5502897165
  0
LINE
  5
3DE
100
AcDbEntity
  8
0
100
AcDbLine
 62
7
  6
CONTINUOUS
 10
-139.6228777872
 20
-218.5502897165
 11
-140.0228777872
 21
-218.5502897165
  0
LINE
  5
3DF
100
AcDbEntity
  8
0
100
AcDbLine
 62
7
  6
CONTINUOUS
 10
-163.2728777872
 20
-214.5502897165
 11
-140.0228777872
 21
-214.5502897165
  0
LINE
  5
3E0
100
AcDbEntity
  8
0
100
AcDbLine
 62
7
  6
CONTINUOUS
 10
-139.6228777872
 20
-214.5502897165
 11
-140.0228777872
 21
-214.5502897165
  0
LINE
  5
3E1
100
AcDbEntity
  8
0
100
AcDbLine
 62
7
  6
CONTINUOUS
 10
-179.0129752397
 20
-210.5502897165
 11
-180.3228702245
 21
-210.5502897165
  0
LINE
  5
3E2
100
AcDbEntity
  8
ASSI
100
AcDbLine
 62
7
  6
CONTINUOUS
 10
-179.0129752397
 20
-210.5502897165
 11
-180.3228702245
 21
-210.5502897165
  0
LINE
  5
3E3
100
AcDbEntity
  8
RACCORDO
100
AcDbLine
 62
253
  6
CONTINUOUS
 10
-161.6176420653
 20
-205.9185402836
 11
-163.2728777872
 21
-205.9474325306
  0
LINE
  5
3E4
100
AcDbEntity
  8
RACCORDO
100
AcDbLine
 62
253
  6
CONTINUOUS
 10
-161.6176420653
 20
-205.9185402836
 11
-161.3228777872
 21
-205.9185402836
  0
LWPOLYLINE
  5
3E5
100
AcDbEntity
  8
RACCORDO
100
AcDbPolyline
 62
253
  6
CONTINUOUS
 90
24
 70
0
 10
-141.690296702
 20
125.0166040764
 10
-141.707518325
 20
125.0073813255
 10
-141.7255650096
 20
124.9972078905
 10
-141.7445923098
 20
124.9860933538
 10
-141.7644446716
 20
124.9740281331
 10
-141.7849547561
 20
124.9604971514
 10
-141.8064794832
 20
124.9452457629
 10
-141.828661933
 20
124.9285286135
 10
-141.8502640066
 20
124.9105945646
 10
-141.8711356694
 20
124.8913652483
 10
-141.8914269559
 20
124.8709190325
 10
-141.9103498714
 20
124.8497398815
 10
-141.9276920599
 20
124.827902548
 10
-141.9436658773
 20
124.8053322793
 10
-141.9581203966
 20
124.7822887826
 10
-141.9710065399
 20
124.7587973332
 10
-141.982373385
 20
124.7348326557
 10
-141.9922172391
 20
124.7105786305
 10
-142.0005333056
 20
124.6860378291
 10
-142.007326381
 20
124.66120768
 10
-142.0126071609
 20
124.6362643494
 10
-142.0163792106
 20
124.6112665592
 10
-142.0186389648
 20
124.5861555875
 10
-142.0193864236
 20
124.5609314342
  0
LWPOLYLINE
  5
3E6
100
AcDbEntity
  8
RACCORDO
100
AcDbPolyline
 62
253
  6
CONTINUOUS
 90
4
 70
0
 10
-141.6263682685
 20
125.0493378685
 10
-141.6415867132
 20
125.0418104242
 10
-141.6573308961
 20
125.0338186258
 10
-141.690296702
 20
125.0166040764
  0
LINE
  5
3E7
100
AcDbEntity
  8
SMUSSO
100
AcDbLine
 62
7
  6
CONTINUOUS
 10
-139.6228777872
 20
139.3497102835
 11
-140.0228777872
 21
138.9497102835
  0
LINE
  5
3E8
100
AcDbEntity
  8
SMUSSO
100
AcDbLine
 62
7
  6
CONTINUOUS
 10
-139.6228777872
 20
-214.9502897165
 11
-140.0228777872
 21
-214.5502897165
  0
LWPOLYLINE
  5
3E9
100
AcDbEntity
  8
RACCORDO
100
AcDbPolyline
 62
253
  6
CONTINUOUS
 90
9
 70
0
 10
-160.7751712329
 20
122.4476283979
 10
-160.7748562845
 20
122.4484963845
 10
-160.7746890335
 20
122.451027623
 10
-160.7746704135
 20
122.455207986
 10
-160.7748005284
 20
122.4610141408
 10
-160.7750786521
 20
122.4684136807
 10
-160.7755032324
 20
122.4773653066
 10
-160.7760718994
 20
122.4878190555
 10
-160.7776280117
 20
122.5129914754
  0
LWPOLYLINE
  5
3EA
100
AcDbEntity
  8
0
100
AcDbPolyline
 62
7
  6
CONTINUOUS
 90
21
 70
0
 10
-172.867862602
 20
150.2490657924
 10
-172.8514620953
 20
150.3484732564
 10
-172.8360524455
 20
150.444490166
 10
-172.8216006481
 20
150.5371627462
 10
-172.8081036363
 20
150.626867777
 10
-172.7955711975
 20
150.7136250844
 10
-172.7839935444
 20
150.7974151329
 10
-172.7733382485
 20
150.8785556759
 10
-172.7636098019
 20
150.9570616757
 10
-172.7548037124
 20
151.0329246114
 10
-172.7468740762
 20
151.1064261677
 10
-172.7398218943
 20
151.1775651712
 10
-172.7336461657
 20
151.2463526007
 10
-172.7282979821
 20
151.3130867836
 10
-172.7237721112
 20
151.377768319
 10
-172.7200737854
 20
151.4404073947
 10
-172.7171697942
 20
151.5013144326
 10
-172.715048482
 20
151.5605062053
 10
-172.7137215044
 20
151.6179760609
 10
-172.7131906178
 20
151.6739967628
 10
-172.7131792986
 20
151.6840237665
  0
LWPOLYLINE
  5
3EB
100
AcDbEntity
  8
ASSI
100
AcDbPolyline
 62
7
  6
CONTINUOUS
 90
21
 70
0
 10
-172.867862602
 20
150.2490657924
 10
-172.8514620953
 20
150.3484732564
 10
-172.8360524455
 20
150.444490166
 10
-172.8216006481
 20
150.5371627462
 10
-172.8081036363
 20
150.626867777
 10
-172.7955711975
 20
150.7136250844
 10
-172.7839935444
 20
150.7974151329
 10
-172.7733382485
 20
150.8785556759
 10
-172.7636098019
 20
150.9570616757
 10
-172.7548037124
 20
151.0329246114
 10
-172.7468740762
 20
151.1064261677
 10
-172.7398218943
 20
151.1775651712
 10
-172.7336461657
 20
151.2463526007
 10
-172.7282979821
 20
151.3130867836
 10
-172.7237721112
 20
151.377768319
 10
-172.7200737854
 20
151.4404073947
 10
-172.7171697942
 20
151.5013144326
 10
-172.715048482
 20
151.5605062053
 10
-172.7137215044
 20
151.6179760609
 10
-172.7131906178
 20
151.6739967628
 10
-172.7131792986
 20
151.6840237665
  0
LINE
  5
3EC
100
AcDbEntity
  8
0
100
AcDbLine
 62
7
  6
CONTINUOUS
 10
-172.9034412257
 20
150.0400267025
 11
-172.867862602
 21
150.2490657924
  0
LINE
  5
3ED
100
AcDbEntity
  8
ASSI
100
AcDbLine
 62
7
  6
CONTINUOUS
 10
-172.9034412257
 20
150.0400267025
 11
-172.867862602
 21
150.2490657924
  0
LWPOLYLINE
  5
3EE
100
AcDbEntity
  8
0
100
AcDbPolyline
 62
7
  6
CONTINUOUS
 90
3
 70
0
 10
-172.9631775061
 20
149.6997102835
 10
-172.9424035071
 20
149.8166638433
 10
-172.9034412257
 20
150.0400267025
  0
LWPOLYLINE
  5
3EF
100
AcDbEntity
  8
ASSI
100
AcDbPolyline
 62
7
  6
CONTINUOUS
 90
3
 70
0
 10
-172.9631775061
 20
149.6997102835
 10
-172.9424035071
 20
149.8166638433
 10
-172.9034412257
 20
150.0400267025
  0
LINE
  5
3F0
100
AcDbEntity
  8
0
100
AcDbLine
 62
7
  6
CONTINUOUS
 10
-172.9224914136
 20
-225.5306886283
 11
-172.9631775061
 21
-225.3002897165
  0
LINE
  5
3F1
100
AcDbEntity
  8
ASSI
100
AcDbLine
 62
7
  6
CONTINUOUS
 10
-172.9224914136
 20
-225.5306886283
 11
-172.9631775061
 21
-225.3002897165
  0
LWPOLYLINE
  5
3F2
100
AcDbEntity
  8
RACCORDO
100
AcDbPolyline
 62
253
  6
CONTINUOUS
 90
28
 70
0
 10
-141.6263682803
 20
125.0493378685
 10
-141.6339980252
 20
125.0262575422
 10
-141.6419164576
 20
125.0029942232
 10
-141.650105102
 20
124.9796119418
 10
-141.6584582314
 20
124.9560954223
 10
-141.6670371819
 20
124.9325924402
 10
-141.6760662542
 20
124.9093668435
 10
-141.6855505513
 20
124.8862669831
 10
-141.6953941602
 20
124.8634611869
 10
-141.7056497427
 20
124.8415323161
 10
-141.7164019595
 20
124.8202123581
 10
-141.7273953129
 20
124.7994617071
 10
-141.7381840705
 20
124.7800263719
 10
-141.7486929397
 20
124.7619403227
 10
-141.7588604526
 20
124.7447014957
 10
-141.768344466
 20
124.728291647
 10
-141.7770460285
 20
124.7127784743
 10
-141.7850292851
 20
124.6979162463
 10
-141.7922550004
 20
124.6833782851
 10
-141.7987020193
 20
124.6691499006
 10
-141.8043799422
 20
124.6552399496
 10
-141.809299901
 20
124.641440256
 10
-141.8134570384
 20
124.6277532923
 10
-141.8168506681
 20
124.6142288797
 10
-141.8194897879
 20
124.6007608965
 10
-141.8213740981
 20
124.5873417166
 10
-141.8225015682
 20
124.5740531193
 10
-141.8228760226
 20
124.560931926
  0
LWPOLYLINE
  5
3F3
100
AcDbEntity
  8
RACCORDO
100
AcDbPolyline
 62
253
  6
CONTINUOUS
 90
8
 70
0
 10
-140.5176423976
 20
124.7784051417
 10
-140.5174260339
 20
124.7790529831
 10
-140.5172323004
 20
124.7809818261
 10
-140.5170624392
 20
124.7841833914
 10
-140.5169178052
 20
124.7886439416
 10
-140.5167990574
 20
124.7943443761
 10
-140.5167061541
 20
124.8012603281
 10
-140.5165997286
 20
124.8186153523
  0
LWPOLYLINE
  5
3F4
100
AcDbEntity
  8
RACCORDO
100
AcDbPolyline
 62
253
  6
CONTINUOUS
 90
7
 70
0
 10
-174.6673640896
 20
-232.5923201023
 10
-174.6686405143
 20
-232.566630445
 10
-174.672028506
 20
-232.5411489146
 10
-174.6775031546
 20
-232.5160628625
 10
-174.6850242082
 20
-232.4915567325
 10
-174.6945363686
 20
-232.4678107046
 10
-174.6948082319
 20
-232.4672682936
  0
LWPOLYLINE
  5
3F5
100
AcDbEntity
  8
RACCORDO
100
AcDbPolyline
 62
253
  6
CONTINUOUS
 90
19
 70
0
 10
-174.6183445322
 20
-232.763091746
 10
-174.6171031996
 20
-232.7888043177
 10
-174.6137494027
 20
-232.8143082068
 10
-174.6083078447
 20
-232.8394155576
 10
-174.6008186069
 20
-232.8639414349
 10
-174.5913368533
 20
-232.887705187
 10
-174.5799324243
 20
-232.9105317753
 10
-174.5666893224
 20
-232.9322530645
 10
-174.5517050931
 20
-232.9527090605
 10
-174.5350901069
 20
-232.9717490892
 10
-174.516966746
 20
-232.989232906
 10
-174.4974685028
 20
-233.0050317292
 10
-174.4767389971
 20
-233.0190291883
 10
-174.4549309174
 20
-233.0311221812
 10
-174.4322048973
 20
-233.0412216337
 10
-174.4087283312
 20
-233.0492531555
 10
-174.3846741423
 20
-233.0551575883
 10
-174.3602195081
 20
-233.0588914414
 10
-174.3355445559
 20
-233.060427212
  0
LWPOLYLINE
  5
3F6
100
AcDbEntity
  8
ASSI
100
AcDbPolyline
 62
7
  6
CONTINUOUS
 90
22
 70
0
 10
-172.7131906178
 20
-227.2745761959
 10
-172.7137215044
 20
-227.218555494
 10
-172.715048482
 20
-227.1610856384
 10
-172.7171697942
 20
-227.1018938657
 10
-172.7200737854
 20
-227.0409868278
 10
-172.7237721112
 20
-226.9783477521
 10
-172.7282979821
 20
-226.9136662167
 10
-172.7336461657
 20
-226.8469320338
 10
-172.7398218943
 20
-226.7781446043
 10
-172.7468740762
 20
-226.7070056008
 10
-172.7548037124
 20
-226.6335040445
 10
-172.7636098019
 20
-226.5576411088
 10
-172.7733382485
 20
-226.479135109
 10
-172.7839935444
 20
-226.397994566
 10
-172.7955711975
 20
-226.3142045175
 10
-172.8081036363
 20
-226.2274472101
 10
-172.8216006481
 20
-226.1377421793
 10
-172.8360524455
 20
-226.0450695991
 10
-172.8514620953
 20
-225.9490526895
 10
-172.867862602
 20
-225.8496452255
 10
-172.8852209611
 20
-225.7469034009
 10
-172.9224914136
 20
-225.5306886283
  0
LINE
  5
3F7
100
AcDbEntity
  8
ELVOX
100
AcDbLine
 62
253
  6
CONTINUOUS
 10
-180.3191924651
 20
146.4438313124
 11
-180.3192012536
 21
146.2033636475
  0
LINE
  5
3F8
100
AcDbEntity
  8
ASSI
100
AcDbLine
 62
7
  6
CONTINUOUS
 10
-180.3228777872
 20
157.6997102835
 11
-180.3228777872
 21
134.9497102835
  0
LINE
  5
3F9
100
AcDbEntity
  8
ASSI
100
AcDbLine
 62
7
  6
CONTINUOUS
 10
-180.3228777872
 20
-210.5502897165
 11
-180.3228777872
 21
-233.3002897165
  0
LINE
  5
3FA
100
AcDbEntity
  8
ELVOX
100
AcDbLine
 62
253
  6
CONTINUOUS
 10
-180.3218252054
 20
145.3179741079
 11
-180.3218252054
 21
147.0886387947
  0
LINE
  5
3FB
100
AcDbEntity
  8
ELVOX
100
AcDbLine
 62
253
  6
CONTINUOUS
 10
-180.3135928216
 20
145.9628959827
 11
-180.3135928216
 21
146.4438313124
  0
LINE
  5
3FC
100
AcDbEntity
  8
ELVOX
100
AcDbLine
 62
253
  6
CONTINUOUS
 10
-180.3192012536
 20
146.2033636475
 11
-180.3191924651
 21
145.9628959827
  0
LINE
  5
3FD
100
AcDbEntity
  8
ELVOX
100
AcDbLine
 62
253
  6
CONTINUOUS
 10
-180.3073443119
 20
147.0908205107
 11
-180.3073443119
 21
145.3179741079
  0
LINE
  5
3FE
100
AcDbEntity
  8
0
100
AcDbLine
 62
7
  6
CONTINUOUS
 10
-179.0871178877
 20
157.6997102835
 11
-179.0871178877
 21
134.9497102835
  0
LINE
  5
3FF
100
AcDbEntity
  8
ASSI
100
AcDbLine
 62
7
  6
CONTINUOUS
 10
-179.0871178877
 20
157.6997102835
 11
-179.0871178877
 21
134.9497102835
  0
LINE
  5
400
100
AcDbEntity
  8
0
100
AcDbLine
 62
7
  6
CONTINUOUS
 10
-179.0871178877
 20
-210.5502897165
 11
-179.0871178877
 21
-233.3002897165
  0
LINE
  5
401
100
AcDbEntity
  8
ASSI
100
AcDbLine
 62
7
  6
CONTINUOUS
 10
-179.0871178877
 20
-210.5502897165
 11
-179.0871178877
 21
-233.3002897165
  0
LINE
  5
402
100
AcDbEntity
  8
0
100
AcDbLine
 62
7
  6
CONTINUOUS
 10
-179.0129752397
 20
157.6997102835
 11
-179.0129752397
 21
-233.3002897165
  0
LINE
  5
403
100
AcDbEntity
  8
ASSI
100
AcDbLine
 62
7
  6
CONTINUOUS
 10
-179.0129752397
 20
157.6997102835
 11
-179.0129752397
 21
-233.3002897165
  0
LINE
  5
404
100
AcDbEntity
  8
0
100
AcDbLine
 62
253
  6
CONTINUOUS
 10
-174.964953189
 20
-227.3495006871
 11
-174.964953189
 21
151.7489212541
  0
LINE
  5
405
100
AcDbEntity
  8
ASSI
100
AcDbLine
 62
253
  6
CONTINUOUS
 10
-174.964953189
 20
-227.3495006871
 11
-174.964953189
 21
151.7489212541
  0
LINE
  5
406
100
AcDbEntity
  8
0
100
AcDbLine
 62
253
  6
CONTINUOUS
 10
-174.5226100633
 20
-225.3002897165
 11
-174.5226100633
 21
149.6997102835
  0
LINE
  5
407
100
AcDbEntity
  8
ASSI
100
AcDbLine
 62
253
  6
CONTINUOUS
 10
-174.5226100633
 20
-225.3002897165
 11
-174.5226100633
 21
149.6997102835
  0
LWPOLYLINE
  5
408
100
AcDbEntity
  8
RACCORDO
100
AcDbPolyline
 62
253
  6
CONTINUOUS
 90
19
 70
0
 10
-174.6183448114
 20
157.1625123155
 10
-174.6171035444
 20
157.1882249546
 10
-174.6137498021
 20
157.213728916
 10
-174.6083082876
 20
157.2388363424
 10
-174.6008190821
 20
157.2633622975
 10
-174.5913373496
 20
157.2871261277
 10
-174.5799329306
 20
157.3099527933
 10
-174.5666898279
 20
157.3316741574
 10
-174.5517055878
 20
157.3521302247
 10
-174.5350905811
 20
157.3711703198
 10
-174.5169671908
 20
157.388654197
 10
-174.4974689103
 20
157.4044530734
 10
-174.4767393602
 20
157.4184505776
 10
-174.4549312304
 20
157.4305436066
 10
-174.4322051552
 20
157.4406430856
 10
-174.4087285306
 20
157.4486746237
 10
-174.3846742809
 20
157.4545790621
 10
-174.3602195849
 20
157.45831291
 10
-174.3355445714
 20
157.4598486645
  0
LWPOLYLINE
  5
409
100
AcDbEntity
  8
RACCORDO
100
AcDbPolyline
 62
253
  6
CONTINUOUS
 90
7
 70
0
 10
-174.6673639914
 20
156.9917406683
 10
-174.6686404518
 20
156.9660510323
 10
-174.6720284757
 20
156.9405695258
 10
-174.677503153
 20
156.9154834999
 10
-174.6850242315
 20
156.8909773978
 10
-174.6945364129
 20
156.8672313988
 10
-174.6948082748
 20
156.8666889921
  0
LWPOLYLINE
  5
40A
100
AcDbEntity
  8
RACCORDO
100
AcDbPolyline
 62
253
  6
CONTINUOUS
 90
46
 70
0
 10
-171.4072029109
 20
149.9646229539
 10
-171.4115431871
 20
150.1912299079
 10
-171.4202444787
 20
150.4188410979
 10
-171.4332921651
 20
150.6474565239
 10
-171.4506011884
 20
150.877390467
 10
-171.4722101773
 20
151.108328646
 10
-171.4982799228
 20
151.3393282182
 10
-171.5288065652
 20
151.5704191361
 10
-171.5637076783
 20
151.8015714472
 10
-171.6030143592
 20
152.031752451
 10
-171.6466972187
 20
152.2609545108
 10
-171.6946580414
 20
152.4891852633
 10
-171.7468140193
 20
152.7154349183
 10
-171.8030781834
 20
152.9396113727
 10
-171.8633701426
 20
153.1618067295
 10
-171.9276069218
 20
153.3812875071
 10
-171.9957058327
 20
153.5981049605
 10
-172.0675399721
 20
153.8122078347
 10
-172.1429507809
 20
154.0227088831
 10
-172.2219019474
 20
154.2297607087
 10
-172.3041789765
 20
154.4332107085
 10
-172.3893566918
 20
154.6317138271
 10
-172.4773538565
 20
154.8252536976
 10
-172.5679807024
 20
155.0138466869
 10
-172.6606667627
 20
155.1961968407
 10
-172.7553153315
 20
155.3722480552
 10
-172.8517519533
 20
155.5420564342
 10
-172.9493226551
 20
155.7044943347
 10
-173.0479499458
 20
155.8595080494
 10
-173.147460426
 20
156.0071512855
 10
-173.2471070057
 20
156.146457522
 10
-173.346762137
 20
156.2772842552
 10
-173.4463523903
 20
156.3997739887
 10
-173.5452709625
 20
156.5133877113
 10
-173.6434351971
 20
156.6180500611
 10
-173.7407755821
 20
156.7138364
 10
-173.8367627909
 20
156.8004338024
 10
-173.9313421409
 20
156.8777788629
 10
-174.0244708072
 20
156.9459349869
 10
-174.1156955376
 20
157.0047794644
 10
-174.2049872889
 20
157.0542545041
 10
-174.2923350002
 20
157.0944178973
 10
-174.377369203
 20
157.1253203087
 10
-174.4599840524
 20
157.1469786265
 10
-174.5403066876
 20
157.1593759625
 10
-174.6183449366
 20
157.1625123166
  0
LWPOLYLINE
  5
40B
100
AcDbEntity
  8
RACCORDO
100
AcDbPolyline
 62
253
  6
CONTINUOUS
 90
46
 70
0
 10
-171.1541159966
 20
149.9724732476
 10
-171.1584411573
 20
150.207820468
 10
-171.1670482947
 20
150.4446799214
 10
-171.1799374087
 20
150.6828111358
 10
-171.1970772825
 20
150.9220087217
 10
-171.2184991329
 20
151.1619647652
 10
-171.2442966113
 20
151.4022712512
 10
-171.2745259537
 20
151.6426668313
 10
-171.309130924
 20
151.882843587
 10
-171.3480364657
 20
152.1223168894
 10
-171.3912935936
 20
152.3607625405
 10
-171.4388512929
 20
152.5978962105
 10
-171.4904814622
 20
152.8332918393
 10
-171.5461976867
 20
153.0665167722
 10
-171.6059863814
 20
153.2973690223
 10
-171.66957869
 20
153.5257535493
 10
-171.7370130139
 20
153.7513471561
 10
-171.8082509517
 20
153.9737770128
 10
-171.8829084443
 20
154.1928437128
 10
-171.9610833659
 20
154.4083256655
 10
-172.0426778422
 20
154.6196865614
 10
-172.1270141906
 20
154.826262448
 10
-172.2141437927
 20
155.0277127247
 10
-172.3040152669
 20
155.2236556893
 10
-172.3957967861
 20
155.413424678
 10
-172.4895125474
 20
155.5966972472
 10
-172.5851383535
 20
155.7731510101
 10
-172.6817697855
 20
155.9421996581
 10
-172.7794263674
 20
156.1036031409
 10
-172.8780885751
 20
156.2570658017
 10
-172.9767934169
 20
156.4020267243
 10
-173.0754786489
 20
156.5382441521
 10
-173.174206515
 20
156.6656063665
 10
-173.2722007555
 20
156.7838489615
 10
-173.3694186416
 20
156.8928388284
 10
-173.465902902
 20
156.9924753569
 10
-173.5610054641
 20
157.0826087319
 10
-173.654682763
 20
157.1631711017
 10
-173.7469783635
 20
157.234112235
 10
-173.8373748874
 20
157.295365728
 10
-173.9258218788
 20
157.3469181047
 10
-174.0123697937
 20
157.3887777546
 10
-174.0966526214
 20
157.4209570118
 10
-174.1785483585
 20
157.4434929484
 10
-174.2581790085
 20
157.4564366069
 10
-174.3355445714
 20
157.4598486645
  0
LINE
  5
40C
100
AcDbEntity
  8
RACCORDO
100
AcDbLine
 62
253
  6
CONTINUOUS
 10
-171.3609320724
 20
145.7026604385
 11
-171.4072029109
 21
149.9646229539
  0
LWPOLYLINE
  5
40D
100
AcDbEntity
  8
RACCORDO
100
AcDbPolyline
 62
253
  6
CONTINUOUS
 90
9
 70
0
 10
-171.1084470617
 20
145.7004570352
 10
-171.1181576198
 20
146.602290215
 10
-171.123078108
 20
147.0606423341
 10
-171.1280197717
 20
147.5218173693
 10
-171.1330049082
 20
147.9879494239
 10
-171.1381004097
 20
148.465440808
 10
-171.1433285736
 20
148.956425625
 10
-171.1486671026
 20
149.4587697716
 10
-171.1541159966
 20
149.9724732476
  0
LWPOLYLINE
  5
40E
100
AcDbEntity
  8
RACCORDO
100
AcDbPolyline
 62
253
  6
CONTINUOUS
 90
42
 70
0
 10
-171.9628939825
 20
149.9043488207
 10
-171.9637641745
 20
149.9882455268
 10
-171.9652594359
 20
150.0735043206
 10
-171.9673975675
 20
150.1598342152
 10
-171.9702128338
 20
150.2475013586
 10
-171.9737756518
 20
150.3373293191
 10
-171.9781335615
 20
150.4293287168
 10
-171.9833357781
 20
150.5234544215
 10
-171.9894909893
 20
150.6204430939
 10
-171.9966652013
 20
150.7202848875
 10
-172.0049273886
 20
150.8229403054
 10
-172.0144269853
 20
150.9290942271
 10
-172.0252553836
 20
151.0387368327
 10
-172.0375049607
 20
151.1517978677
 10
-172.051366113
 20
151.2688620206
 10
-172.0669625267
 20
151.3899359843
 10
-172.084414754
 20
151.5149461766
 10
-172.1039489975
 20
151.6443597273
 10
-172.1257196476
 20
151.778174425
 10
-172.149875599
 20
151.9163043656
 10
-172.1766598461
 20
152.0590291095
 10
-172.2062757403
 20
152.2064249957
 10
-172.2388402942
 20
152.3580837559
 10
-172.2744664615
 20
152.5135022391
 10
-172.3133782919
 20
152.6727516252
 10
-172.3556800225
 20
152.8354297301
 10
-172.4012558843
 20
153.000340209
 10
-172.450218777
 20
153.1672877379
 10
-172.5026690799
 20
153.3360778911
 10
-172.5583635353
 20
153.505468016
 10
-172.6173314442
 20
153.6751409183
 10
-172.6795259234
 20
153.8445876728
 10
-172.7445289163
 20
154.012450076
 10
-172.8122762189
 20
154.1784099361
 10
-172.882788523
 20
154.3424007051
 10
-172.9556541241
 20
154.5034658372
 10
-173.0304882289
 20
154.6607811329
 10
-173.1072681069
 20
154.8142953912
 10
-173.1860526813
 20
154.9641004268
 10
-173.2667728726
 20
155.1099742314
 10
-173.349285952
 20
155.2516037722
 10
-173.43360616
 20
155.3890037301
  0
LWPOLYLINE
  5
40F
100
AcDbEntity
  8
RACCORDO
100
AcDbPolyline
 62
253
  6
CONTINUOUS
 90
63
 70
0
 10
-171.7070401186
 20
149.9104765452
 10
-171.7079054166
 20
149.9979205666
 10
-171.7094185141
 20
150.086775015
 10
-171.7115294934
 20
150.1767649573
 10
-171.7142871344
 20
150.2681653266
 10
-171.7178387049
 20
150.3618009216
 10
-171.7221561538
 20
150.4577062763
 10
-171.7272649505
 20
150.5558468568
 10
-171.7333916543
 20
150.6569438602
 10
-171.7405037535
 20
150.7610218869
 10
-171.7486285297
 20
150.8680563364
 10
-171.7580802253
 20
150.9786946048
 10
-171.768818757
 20
151.0929720166
 10
-171.780874109
 20
151.2108532472
 10
-171.7946618078
 20
151.3328797196
 10
-171.8101349625
 20
151.4591020887
 10
-171.8273215676
 20
151.5894696995
 10
-171.8467426043
 20
151.7243720096
 10
-171.8683525865
 20
151.8639141461
 10
-171.8921627054
 20
152.007990982
 10
-171.9187674798
 20
152.1566765932
 10
-171.9481614433
 20
152.310277489
 10
-171.9802903098
 20
152.4684871601
 10
-172.0156592133
 20
152.6304601542
 10
-172.0542963226
 20
152.7964649779
 10
-172.0960788228
 20
152.9662331246
 10
-172.1412679661
 20
153.138113622
 10
-172.1898769018
 20
153.3121847905
 10
-172.2417599293
 20
153.4883683097
 10
-172.2969263176
 20
153.6647782461
 10
-172.3553852166
 20
153.8414759605
 10
-172.4169600412
 20
154.018400092
 10
-172.4813771533
 20
154.193480625
 10
-172.5485998883
 20
154.366586645
 10
-172.6184767537
 20
154.5378490664
 10
-172.6905703283
 20
154.7055906172
 10
-172.7646488385
 20
154.8694539785
 10
-172.8407544138
 20
155.0297964692
 10
-172.9188625237
 20
155.1860127742
 10
-172.9988836681
 20
155.3381691316
 10
-173.0806834924
 20
155.4861993034
 10
-173.1641605751
 20
155.6292992603
 10
-173.2494983851
 20
155.7678572439
 10
-173.3362525206
 20
155.9014850127
 10
-173.4234160915
 20
156.0282138122
 10
-173.5110467957
 20
156.1478663419
 10
-173.5988965349
 20
156.2606199023
 10
-173.6856102624
 20
156.3650376407
 10
-173.7712530402
 20
156.4607940333
 10
-173.8557046742
 20
156.548214604
 10
-173.9374891685
 20
156.6268390709
 10
-174.0166539501
 20
156.6962555356
 10
-174.0932729648
 20
156.7568758965
 10
-174.166077324
 20
156.8094755673
 10
-174.2348334908
 20
156.8536697261
 10
-174.3000596388
 20
156.8898431947
 10
-174.361699599
 20
156.9199258522
 10
-174.4196517894
 20
156.9439918749
 10
-174.4742889906
 20
156.9619670864
 10
-174.5262403516
 20
156.9755588366
 10
-174.5757632991
 20
156.985336242
 10
-174.6227756792
 20
156.9907301862
 10
-174.6673640598
 20
156.9917406689
  0
LINE
  5
410
100
AcDbEntity
  8
DRAFT
100
AcDbLine
 62
7
  6
CONTINUOUS
 10
-172.4714583338
 20
149.8216697186
 11
-172.4317744867
 21
145.7120055387
  0
LWPOLYLINE
  5
411
100
AcDbEntity
  8
0
100
AcDbPolyline
 62
7
  6
CONTINUOUS
 90
10
 70
0
 10
-172.7131792986
 20
151.6840237665
 10
-172.7134472093
 20
151.7286745859
 10
-172.7144998919
 20
151.7819118949
 10
-172.7163762609
 20
151.8336747148
 10
-172.7190739121
 20
151.8839844338
 10
-172.7225952497
 20
151.9328302427
 10
-172.7269750821
 20
151.980130804
 10
-172.732225012
 20
152.0258633302
 10
-172.7383334366
 20
152.0700630275
 10
-172.745300356
 20
152.1127361437
  0
LWPOLYLINE
  5
412
100
AcDbEntity
  8
ASSI
100
AcDbPolyline
 62
7
  6
CONTINUOUS
 90
10
 70
0
 10
-172.7131792986
 20
151.6840237665
 10
-172.7134472093
 20
151.7286745859
 10
-172.7144998919
 20
151.7819118949
 10
-172.7163762609
 20
151.8336747148
 10
-172.7190739121
 20
151.8839844338
 10
-172.7225952497
 20
151.9328302427
 10
-172.7269750821
 20
151.980130804
 10
-172.732225012
 20
152.0258633302
 10
-172.7383334366
 20
152.0700630275
 10
-172.745300356
 20
152.1127361437
  0
LWPOLYLINE
  5
413
100
AcDbEntity
  8
0
100
AcDbPolyline
 62
7
  6
CONTINUOUS
 90
23
 70
0
 10
-172.7131792986
 20
-227.2846031996
 10
-172.7131906178
 20
-227.2745761959
 10
-172.7137215044
 20
-227.218555494
 10
-172.715048482
 20
-227.1610856384
 10
-172.7171697942
 20
-227.1018938657
 10
-172.7200737854
 20
-227.0409868278
 10
-172.7237721112
 20
-226.9783477521
 10
-172.7282979821
 20
-226.9136662167
 10
-172.7336461657
 20
-226.8469320338
 10
-172.7398218943
 20
-226.7781446043
 10
-172.7468740762
 20
-226.7070056008
 10
-172.7548037124
 20
-226.6335040445
 10
-172.7636098019
 20
-226.5576411088
 10
-172.7733382485
 20
-226.479135109
 10
-172.7839935444
 20
-226.397994566
 10
-172.7955711975
 20
-226.3142045175
 10
-172.8081036363
 20
-226.2274472101
 10
-172.8216006481
 20
-226.1377421793
 10
-172.8360524455
 20
-226.0450695991
 10
-172.8514620953
 20
-225.9490526895
 10
-172.867862602
 20
-225.8496452255
 10
-172.8852209611
 20
-225.7469034009
 10
-172.9224914136
 20
-225.5306886283
  0
LINE
  5
414
100
AcDbEntity
  8
0
100
AcDbLine
 62
253
  6
CONTINUOUS
 10
-172.9631775061
 20
-225.3002897165
 11
-172.9631775061
 21
149.6997102835
  0
LINE
  5
415
100
AcDbEntity
  8
ASSI
100
AcDbLine
 62
253
  6
CONTINUOUS
 10
-172.9631775061
 20
-225.3002897165
 11
-172.9631775061
 21
149.6997102835
  0
LINE
  5
416
100
AcDbEntity
  8
RACCORDO
100
AcDbLine
 62
7
  6
CONTINUOUS
 10
-172.7131775061
 20
-227.2846031998
 11
-172.7131775061
 21
151.6840237668
  0
LINE
  5
417
100
AcDbEntity
  8
ASSI
100
AcDbLine
 62
7
  6
CONTINUOUS
 10
-172.7131792986
 20
-227.2846031996
 11
-172.7131775061
 21
151.6840237668
  0
LINE
  5
418
100
AcDbEntity
  8
0
100
AcDbLine
 62
7
  6
CONTINUOUS
 10
-171.7213709403
 20
145.6997102835
 11
-171.7213709403
 21
-221.3002897165
  0
LINE
  5
419
100
AcDbEntity
  8
ASSI
100
AcDbLine
 62
7
  6
CONTINUOUS
 10
-171.7213709403
 20
145.6997102835
 11
-171.7213709403
 21
-221.3002897165
  0
LINE
  5
41A
100
AcDbEntity
  8
RACCORDO
100
AcDbLine
 62
253
  6
CONTINUOUS
 10
-171.2103886317
 20
145.6997102835
 11
-171.2103886317
 21
-221.3002897165
  0
LINE
  5
41B
100
AcDbEntity
  8
ASSI
100
AcDbLine
 62
253
  6
CONTINUOUS
 10
-171.2103886317
 20
145.6997102835
 11
-171.2103886317
 21
-221.3002897165
  0
LINE
  5
41C
100
AcDbEntity
  8
RACCORDO
100
AcDbLine
 62
253
  6
CONTINUOUS
 10
-170.9962201668
 20
145.6997102835
 11
-170.9962201668
 21
-221.3002897165
  0
LINE
  5
41D
100
AcDbEntity
  8
ASSI
100
AcDbLine
 62
253
  6
CONTINUOUS
 10
-170.9962201668
 20
145.6997102835
 11
-170.9962201668
 21
-221.3002897165
  0
LINE
  5
41E
100
AcDbEntity
  8
ASSI
100
AcDbLine
 62
7
  6
CONTINUOUS
 10
-170.0228777872
 20
145.6997102835
 11
-170.0228777872
 21
145.7171653484
  0
LINE
  5
41F
100
AcDbEntity
  8
RACCORDO
100
AcDbLine
 62
253
  6
CONTINUOUS
 10
-170.0158968247
 20
-221.3178666346
 11
-170.0158968247
 21
-221.3002897165
  0
LINE
  5
420
100
AcDbEntity
  8
RACCORDO
100
AcDbLine
 62
7
  6
CONTINUOUS
 10
-169.6228777872
 20
-221.3247268074
 11
-169.6228777872
 21
-221.3002897165
  0
LINE
  5
421
100
AcDbEntity
  8
RACCORDO
100
AcDbLine
 62
7
  6
CONTINUOUS
 10
-169.6228777872
 20
145.6997102835
 11
-169.6228777872
 21
145.7241473744
  0
LINE
  5
422
100
AcDbEntity
  8
RACCORDO
100
AcDbLine
 62
253
  6
CONTINUOUS
 10
-169.1316039905
 20
-221.3333020235
 11
-169.1316039905
 21
-221.3002897165
  0
LINE
  5
423
100
AcDbEntity
  8
RACCORDO
100
AcDbLine
 62
253
  6
CONTINUOUS
 10
-169.1316039905
 20
145.6997102835
 11
-169.1316039905
 21
145.7327225904
  0
LINE
  5
424
100
AcDbEntity
  8
DRAFT
100
AcDbLine
 62
7
  6
CONTINUOUS
 10
-169.0228777872
 20
-221.3351998464
 11
-169.0228777872
 21
-221.3002897165
  0
LINE
  5
425
100
AcDbEntity
  8
DRAFT
100
AcDbLine
 62
7
  6
CONTINUOUS
 10
-169.0228777872
 20
145.6997102835
 11
-169.0228777872
 21
145.7346204133
  0
LINE
  5
426
100
AcDbEntity
  8
RACCORDO
100
AcDbLine
 62
253
  6
CONTINUOUS
 10
-166.5728777872
 20
-221.3002897165
 11
-166.5728777872
 21
145.6997102835
  0
LINE
  5
427
100
AcDbEntity
  8
ASSI
100
AcDbLine
 62
253
  6
CONTINUOUS
 10
-166.5728777872
 20
-221.3002897165
 11
-166.5728777872
 21
145.6997102835
  0
LINE
  5
428
100
AcDbEntity
  8
RACCORDO
100
AcDbLine
 62
253
  6
CONTINUOUS
 10
-166.5193873059
 20
145.7783190022
 11
-166.5193873059
 21
145.6997102835
  0
LINE
  5
429
100
AcDbEntity
  8
RACCORDO
100
AcDbLine
 62
253
  6
CONTINUOUS
 10
-166.5193873059
 20
-221.3002897165
 11
-166.5193873059
 21
-221.3788984353
  0
LINE
  5
42A
100
AcDbEntity
  8
DRAFT
100
AcDbLine
 62
7
  6
CONTINUOUS
 10
-166.3228777872
 20
-233.2002897165
 11
-166.3228777872
 21
-221.3823285217
  0
LINE
  5
42B
100
AcDbEntity
  8
ASSI
100
AcDbLine
 62
7
  6
CONTINUOUS
 10
-166.3228777872
 20
-221.3002897165
 11
-166.3228777872
 21
145.6997102835
  0
LINE
  5
42C
100
AcDbEntity
  8
DRAFT
100
AcDbLine
 62
7
  6
CONTINUOUS
 10
-166.3228777872
 20
145.7817490886
 11
-166.3228777872
 21
157.5997102835
  0
LINE
  5
42D
100
AcDbEntity
  8
RACCORDO
100
AcDbLine
 62
7
  6
CONTINUOUS
 10
-166.3228777872
 20
145.7817490886
 11
-166.3228777872
 21
-221.3823285217
  0
LINE
  5
42E
100
AcDbEntity
  8
RACCORDO
100
AcDbLine
 62
7
  6
CONTINUOUS
 10
-163.2728777872
 20
153.6997102835
 11
-163.2728777872
 21
-228.5002897165
  0
LINE
  5
42F
100
AcDbEntity
  8
RACCORDO
100
AcDbLine
 62
253
  6
CONTINUOUS
 10
-161.6154757488
 20
-207.6500990346
 11
-161.6176420653
 21
121.849911579
  0
LINE
  5
430
100
AcDbEntity
  8
RACCORDO
100
AcDbLine
 62
7
  6
CONTINUOUS
 10
-161.3228777872
 20
-208.118205213
 11
-161.3228777872
 21
121.849911579
  0
LINE
  5
431
100
AcDbEntity
  8
RACCORDO
100
AcDbLine
 62
253
  6
CONTINUOUS
 10
-171.9631429456
 20
145.7079158532
 11
-171.9628939825
 21
149.9043488207
  0
LINE
  5
432
100
AcDbEntity
  8
RACCORDO
100
AcDbLine
 62
253
  6
CONTINUOUS
 10
-171.7076214031
 20
145.7056859505
 11
-171.7070401186
 21
149.9104765452
  0
LWPOLYLINE
  5
433
100
AcDbEntity
  8
RACCORDO
100
AcDbPolyline
 62
253
  6
CONTINUOUS
 90
3
 70
0
 10
-161.6163919135
 20
-208.3194469675
 10
-161.6162545052
 20
-208.2894948266
 10
-161.6154757488
 20
-207.6500990346
  0
LINE
  5
434
100
AcDbEntity
  8
DRAFT
100
AcDbLine
 62
7
  6
CONTINUOUS
 10
-172.4317744867
 20
-221.3125849718
 11
-172.4714583338
 21
-225.4222491517
  0
LWPOLYLINE
  5
435
100
AcDbEntity
  8
RACCORDO
100
AcDbPolyline
 62
253
  6
CONTINUOUS
 90
5
 70
0
 10
-171.1541159966
 20
-225.5730526807
 10
-171.148975348
 20
-225.0883192202
 10
-171.1438797511
 20
-224.6087642307
 10
-171.138829206
 20
-224.1343877124
 10
-171.1338616743
 20
-223.6687392957
  0
LWPOLYLINE
  5
436
100
AcDbEntity
  8
RACCORDO
100
AcDbPolyline
 62
253
  6
CONTINUOUS
 90
5
 70
0
 10
-171.4072029109
 20
-225.565202387
 10
-171.4019941369
 20
-225.0815672614
 10
-171.3968305364
 20
-224.6031032442
 10
-171.3917124288
 20
-224.1298103352
 10
-171.3866784621
 20
-223.6652221007
  0
LWPOLYLINE
  5
437
100
AcDbEntity
  8
RACCORDO
100
AcDbPolyline
 62
253
  6
CONTINUOUS
 90
5
 70
0
 10
-171.1338616743
 20
-223.6687392957
 10
-171.1239478816
 20
-222.7423289837
 10
-171.1188497745
 20
-222.267368566
 10
-171.1136828345
 20
-221.7869377275
 10
-171.1084470617
 20
-221.3010364683
  0
LWPOLYLINE
  5
438
100
AcDbEntity
  8
RACCORDO
100
AcDbPolyline
 62
253
  6
CONTINUOUS
 90
5
 70
0
 10
-171.3866784621
 20
-223.6652221007
 10
-171.3766342083
 20
-222.7409582582
 10
-171.371469935
 20
-222.267148386
 10
-171.3662360034
 20
-221.7879089238
 10
-171.3609320724
 20
-221.3032398716
  0
LWPOLYLINE
  5
439
100
AcDbEntity
  8
RACCORDO
100
AcDbPolyline
 62
7
  6
CONTINUOUS
 90
11
 70
0
 10
-172.4714583338
 20
-225.4222491517
 10
-172.4748308496
 20
-225.6189448001
 10
-172.4812693689
 20
-225.8156383589
 10
-172.4907671468
 20
-226.0123298282
 10
-172.5033102088
 20
-226.2092122678
 10
-172.5188893938
 20
-226.4060926179
 10
-172.5375002748
 20
-226.6023916987
 10
-172.5591068478
 20
-226.7979670191
 10
-172.5837024526
 20
-226.9929610703
 10
-172.6113211788
 20
-227.1872221456
 10
-172.641963884
 20
-227.3809159805
  0
LWPOLYLINE
  5
43A
100
AcDbEntity
  8
RACCORDO
100
AcDbPolyline
 62
253
  6
CONTINUOUS
 90
31
 70
0
 10
-161.6176420653
 20
121.849911579
 10
-161.6166231528
 20
121.8936875681
 10
-161.6134235732
 20
121.9373851944
 10
-161.6080433265
 20
121.9810044581
 10
-161.6004724955
 20
122.0247033499
 10
-161.5907209975
 20
122.0683238791
 10
-161.5788185844
 20
122.1113920729
 10
-161.5647196061
 20
122.1539017848
 10
-161.5484697127
 20
122.1958591614
 10
-161.530235606
 20
122.2368086703
 10
-161.5100018244
 20
122.2766996203
 10
-161.4877838294
 20
122.3155827025
 10
-161.4637947078
 20
122.3531544578
 10
-161.438051226
 20
122.3893702642
 10
-161.4105366176
 20
122.4242747436
 10
-161.3814136697
 20
122.4576983028
 10
-161.350686845
 20
122.4896403261
 10
-161.3183516808
 20
122.5201014293
 10
-161.2845575772
 20
122.548913866
 10
-161.2492637988
 20
122.5760993663
 10
-161.212511081
 20
122.6016362001
 10
-161.1745710287
 20
122.6252914315
 10
-161.1353930462
 20
122.6470565151
 10
-161.0950277293
 20
122.6669399964
 10
-161.053898471
 20
122.6847345751
 10
-161.0119925028
 20
122.7003983249
 10
-160.9693225932
 20
122.7139731721
 10
-160.9263504416
 20
122.7253775961
 10
-160.8832299477
 20
122.7345844231
 10
-160.8398072118
 20
122.7416208269
 10
-160.7960822338
 20
122.7464868073
  0
LINE
  5
43B
100
AcDbEntity
  8
RACCORDO
100
AcDbLine
 62
253
  6
CONTINUOUS
 10
-160.7837244274
 20
122.597188444
 11
-160.7886170763
 21
122.6584792326
  0
LINE
  5
43C
100
AcDbEntity
  8
RACCORDO
100
AcDbLine
 62
253
  6
CONTINUOUS
 10
-160.7797122964
 20
122.5433697308
 11
-160.7837244274
 21
122.597188444
  0
LINE
  5
43D
100
AcDbEntity
  8
RACCORDO
100
AcDbLine
 62
253
  6
CONTINUOUS
 10
-160.7776280117
 20
122.5129914754
 11
-160.7797122964
 21
122.5433697308
  0
LINE
  5
43E
100
AcDbEntity
  8
RACCORDO
100
AcDbLine
 62
253
  6
CONTINUOUS
 10
-160.7886170763
 20
122.6584792326
 11
-160.7960822338
 21
122.7464868073
  0
LINE
  5
43F
100
AcDbEntity
  8
RACCORDO
100
AcDbLine
 62
253
  6
CONTINUOUS
 10
-142.0080933266
 20
124.1775515015
 11
-142.0064548607
 21
124.1403177924
  0
LWPOLYLINE
  5
440
100
AcDbEntity
  8
RACCORDO
100
AcDbPolyline
 62
253
  6
CONTINUOUS
 90
9
 70
0
 10
-142.0064548607
 20
124.1403177924
 10
-142.0057095407
 20
124.1207295792
 10
-142.0054462002
 20
124.1126376966
 10
-142.0052569378
 20
124.1057282559
 10
-142.0051434459
 20
124.1000307129
 10
-142.0051057422
 20
124.0955694023
 10
-142.0051438324
 20
124.0923633801
 10
-142.0052577081
 20
124.0904263241
 10
-142.0054466387
 20
124.0897665174
  0
LWPOLYLINE
  5
441
100
AcDbEntity
  8
RACCORDO
100
AcDbPolyline
 62
253
  6
CONTINUOUS
 90
10
 70
0
 10
-141.6263682685
 20
132.280754573
 10
-141.6268459936
 20
132.3001988978
 10
-141.6274814507
 20
132.3173587725
 10
-141.6282746397
 20
132.3323888374
 10
-141.6293010693
 20
132.345440314
 10
-141.6304852309
 20
132.3566570721
 10
-141.6316005986
 20
132.3661756218
 10
-141.6325961091
 20
132.3741307844
 10
-141.6335228257
 20
132.3806544259
 10
-141.6349254238
 20
132.3899031425
  0
LWPOLYLINE
  5
442
100
AcDbEntity
  8
RACCORDO
100
AcDbPolyline
 62
253
  6
CONTINUOUS
 90
7
 70
0
 10
-140.5183177054
 20
125.8541079333
 10
-140.5184509465
 20
125.861023936
 10
-140.5186028729
 20
125.8667240735
 10
-140.5187735212
 20
125.8711839199
 10
-140.5189621347
 20
125.8743843799
 10
-140.519167168
 20
125.87631175
 10
-140.5193873059
 20
125.8769577725
  0
LINE
  5
443
100
AcDbEntity
  8
RACCORDO
100
AcDbLine
 62
253
  6
CONTINUOUS
 10
-140.517650421
 20
124.9635661936
 11
-140.5193873059
 21
125.0783251852
  0
LINE
  5
444
100
AcDbEntity
  8
RACCORDO
100
AcDbLine
 62
253
  6
CONTINUOUS
 10
-142.3128645783
 20
132.9482434253
 11
-142.3123176499
 21
132.9079704964
  0
LINE
  5
445
100
AcDbEntity
  8
RACCORDO
100
AcDbLine
 62
253
  6
CONTINUOUS
 10
-140.5181102922
 20
125.8367519924
 11
-140.5183177054
 21
125.8541079333
  0
LINE
  5
446
100
AcDbEntity
  8
RACCORDO
100
AcDbLine
 62
253
  6
CONTINUOUS
 10
-140.5168029658
 20
124.8806010077
 11
-140.517650421
 21
124.9635661936
  0
LINE
  5
447
100
AcDbEntity
  8
RACCORDO
100
AcDbLine
 62
253
  6
CONTINUOUS
 10
-141.6289888238
 20
124.7672956474
 11
-141.6291202192
 21
124.7810347012
  0
LINE
  5
448
100
AcDbEntity
  8
RACCORDO
100
AcDbLine
 62
253
  6
CONTINUOUS
 10
-141.6244508971
 20
125.8560634449
 11
-141.6242450545
 21
125.8308070079
  0
LINE
  5
449
100
AcDbEntity
  8
RACCORDO
100
AcDbLine
 62
253
  6
CONTINUOUS
 10
-142.3123176499
 20
132.9079704964
 11
-142.3114302233
 21
132.7805726095
  0
LINE
  5
44A
100
AcDbEntity
  8
RACCORDO
100
AcDbLine
 62
253
  6
CONTINUOUS
 10
-140.51798433
 20
125.8149528907
 11
-140.5181102922
 21
125.8367519924
  0
LINE
  5
44B
100
AcDbEntity
  8
RACCORDO
100
AcDbLine
 62
253
  6
CONTINUOUS
 10
-140.5166007147
 20
124.8404120854
 11
-140.5168029658
 21
124.8806010077
  0
LINE
  5
44C
100
AcDbEntity
  8
RACCORDO
100
AcDbLine
 62
253
  6
CONTINUOUS
 10
-142.3114302233
 20
132.7805726095
 11
-142.310740957
 21
132.5381270669
  0
LINE
  5
44D
100
AcDbEntity
  8
RACCORDO
100
AcDbLine
 62
253
  6
CONTINUOUS
 10
-141.6263682685
 20
125.8962801971
 11
-141.6264152767
 21
125.9131404453
  0
LINE
  5
44E
100
AcDbEntity
  8
RACCORDO
100
AcDbLine
 62
253
  6
CONTINUOUS
 10
-141.6291202192
 20
124.7810347012
 11
-141.6291685303
 21
124.798297883
  0
LINE
  5
44F
100
AcDbEntity
  8
RACCORDO
100
AcDbLine
 62
253
  6
CONTINUOUS
 10
-142.314151584
 20
126.0962497361
 11
-142.314151584
 21
130.4810171708
  0
LINE
  5
450
100
AcDbEntity
  8
RACCORDO
100
AcDbLine
 62
253
  6
CONTINUOUS
 10
-142.0193864236
 20
124.5609314342
 11
-142.0193873059
 21
124.389234752
  0
LINE
  5
451
100
AcDbEntity
  8
RACCORDO
100
AcDbLine
 62
7
  6
CONTINUOUS
 10
-141.8228777872
 20
132.4807125612
 11
-141.8228777872
 21
126.0962497361
  0
LINE
  5
452
100
AcDbEntity
  8
RACCORDO
100
AcDbLine
 62
7
  6
CONTINUOUS
 10
-141.8228777872
 20
124.5609317606
 11
-141.8228777872
 21
124.289005457
  0
LINE
  5
453
100
AcDbEntity
  8
RACCORDO
100
AcDbLine
 62
253
  6
CONTINUOUS
 10
-141.6242450545
 20
125.8308070079
 11
-141.6242036552
 21
125.8003146778
  0
LINE
  5
454
100
AcDbEntity
  8
RACCORDO
100
AcDbLine
 62
253
  6
CONTINUOUS
 10
-140.5193873059
 20
125.0783251852
 11
-140.5193873059
 21
125.5770034639
  0
LINE
  5
455
100
AcDbEntity
  8
RACCORDO
100
AcDbLine
 62
253
  6
CONTINUOUS
 10
-140.5193595197
 20
127.0752237848
 11
-140.5193873059
 21
130.2226479222
  0
LINE
  5
456
100
AcDbEntity
  8
RACCORDO
100
AcDbLine
 62
253
  6
CONTINUOUS
 10
-140.5192994678
 20
131.4252952309
 11
-140.519387306
 21
132.3753631805
  0
LINE
  5
457
100
AcDbEntity
  8
RACCORDO
100
AcDbLine
 62
7
  6
CONTINUOUS
 10
-140.3228777872
 20
124.9783366067
 11
-140.3228777872
 21
132.1753938009
  0
LINE
  5
458
100
AcDbEntity
  8
SMUSSO
100
AcDbLine
 62
7
  6
CONTINUOUS
 10
-140.0228777872
 20
-218.5502897165
 11
-140.0228777872
 21
-214.5502897165
  0
LINE
  5
459
100
AcDbEntity
  8
SMUSSO
100
AcDbLine
 62
7
  6
CONTINUOUS
 10
-140.0228777872
 20
138.9497102835
 11
-140.0228777872
 21
142.9497102835
  0
LINE
  5
45A
100
AcDbEntity
  8
SMUSSO
100
AcDbLine
 62
7
  6
CONTINUOUS
 10
-139.6228777872
 20
-218.1502897165
 11
-139.6228777872
 21
-214.9502897165
  0
LINE
  5
45B
100
AcDbEntity
  8
0
100
AcDbLine
 62
7
  6
CONTINUOUS
 10
-139.6228777872
 20
-218.5502897165
 11
-139.6228777872
 21
-214.5502897165
  0
LINE
  5
45C
100
AcDbEntity
  8
SMUSSO
100
AcDbLine
 62
7
  6
CONTINUOUS
 10
-139.6228777872
 20
139.3497102835
 11
-139.6228777872
 21
142.5497102835
  0
LINE
  5
45D
100
AcDbEntity
  8
0
100
AcDbLine
 62
7
  6
CONTINUOUS
 10
-139.6228777872
 20
138.9497102835
 11
-139.6228777872
 21
142.9497102835
  0
LWPOLYLINE
  5
45E
100
AcDbEntity
  8
RACCORDO
100
AcDbPolyline
 62
253
  6
CONTINUOUS
 90
7
 70
0
 10
-141.6264152767
 20
125.9131404453
 10
-141.6264856188
 20
126.403998839
 10
-141.6264775842
 20
126.4995954448
 10
-141.6264669321
 20
126.6031269253
 10
-141.6264536981
 20
126.7144987166
 10
-141.6264363975
 20
126.8335749655
 10
-141.6263943239
 20
130.3744817233
  0
LWPOLYLINE
  5
45F
100
AcDbEntity
  8
RACCORDO
100
AcDbPolyline
 62
253
  6
CONTINUOUS
 90
6
 70
0
 10
-140.5193670885
 20
130.3558114182
 10
-140.5193267966
 20
130.6031951715
 10
-140.5193110014
 20
130.7171813514
 10
-140.5192994629
 20
130.8244874111
 10
-140.5192899909
 20
130.9248778731
 10
-140.5192994678
 20
131.4252952309
  0
LINE
  5
460
100
AcDbEntity
  8
RACCORDO
100
AcDbLine
 62
253
  6
CONTINUOUS
 10
-140.5193873059
 20
130.2226479222
 11
-140.5193670885
 21
130.3558114182
  0
LINE
  5
461
100
AcDbEntity
  8
RACCORDO
100
AcDbLine
 62
253
  6
CONTINUOUS
 10
-142.310740957
 20
132.5381270669
 11
-142.3105614523
 21
132.1385637548
  0
LINE
  5
462
100
AcDbEntity
  8
RACCORDO
100
AcDbLine
 62
253
  6
CONTINUOUS
 10
-140.5179527651
 20
125.7747581723
 11
-140.51798433
 21
125.8149528907
  0
LINE
  5
463
100
AcDbEntity
  8
RACCORDO
100
AcDbLine
 62
253
  6
CONTINUOUS
 10
-140.5165997286
 20
124.8186153523
 11
-140.5166007147
 21
124.8404120854
  0
LINE
  5
464
100
AcDbEntity
  8
RACCORDO
100
AcDbLine
 62
253
  6
CONTINUOUS
 10
-142.3105614523
 20
132.1385637548
 11
-142.3112548577
 21
131.5526175556
  0
LINE
  5
465
100
AcDbEntity
  8
RACCORDO
100
AcDbLine
 62
253
  6
CONTINUOUS
 10
-141.6263943239
 20
130.3744817233
 11
-141.6263682685
 21
132.280754573
  0
LINE
  5
466
100
AcDbEntity
  8
RACCORDO
100
AcDbLine
 62
253
  6
CONTINUOUS
 10
-142.3112548577
 20
131.5526175556
 11
-142.3131638004
 21
130.7823487748
  0
LINE
  5
467
100
AcDbEntity
  8
RACCORDO
100
AcDbLine
 62
253
  6
CONTINUOUS
 10
-142.3131638004
 20
130.7823487748
 11
-142.314151584
 21
130.4810171708
  0
LINE
  5
468
100
AcDbEntity
  8
RACCORDO
100
AcDbLine
 62
253
  6
CONTINUOUS
 10
-141.6291685303
 20
124.798297883
 11
-141.6290844339
 21
124.8302091582
  0
LINE
  5
469
100
AcDbEntity
  8
RACCORDO
100
AcDbLine
 62
253
  6
CONTINUOUS
 10
-141.6242036552
 20
125.8003146778
 11
-141.6244508964
 21
125.7462765935
  0
LINE
  5
46A
100
AcDbEntity
  8
RACCORDO
100
AcDbLine
 62
253
  6
CONTINUOUS
 10
-140.5183177645
 20
125.6917797117
 11
-140.5179527651
 21
125.7747581723
  0
LWPOLYLINE
  5
46B
100
AcDbEntity
  8
RACCORDO
100
AcDbPolyline
 62
253
  6
CONTINUOUS
 90
3
 70
0
 10
-140.5193873059
 20
125.8769577725
 10
-140.5193595205
 20
125.8811589531
 10
-140.5193595197
 20
127.0752237848
  0
LINE
  5
46C
100
AcDbEntity
  8
RACCORDO
100
AcDbLine
 62
253
  6
CONTINUOUS
 10
-141.6290844339
 20
124.8302091582
 11
-141.6286838576
 21
124.8829254758
  0
LINE
  5
46D
100
AcDbEntity
  8
RACCORDO
100
AcDbLine
 62
253
  6
CONTINUOUS
 10
-141.6244508964
 20
125.7462765935
 11
-141.6250569535
 21
125.6847222705
  0
LINE
  5
46E
100
AcDbEntity
  8
RACCORDO
100
AcDbLine
 62
253
  6
CONTINUOUS
 10
-140.5193873059
 20
125.5770034639
 11
-140.5183177645
 21
125.6917797117
  0
LINE
  5
46F
100
AcDbEntity
  8
RACCORDO
100
AcDbLine
 62
253
  6
CONTINUOUS
 10
-141.6286838576
 20
124.8829254758
 11
-141.6274913914
 21
124.9793216355
  0
LINE
  5
470
100
AcDbEntity
  8
RACCORDO
100
AcDbLine
 62
253
  6
CONTINUOUS
 10
-141.6250569535
 20
125.6847222705
 11
-141.6263682685
 21
125.5963258885
  0
LINE
  5
471
100
AcDbEntity
  8
RACCORDO
100
AcDbLine
 62
253
  6
CONTINUOUS
 10
-141.6274913914
 20
124.9793216355
 11
-141.6263682685
 21
125.0493378685
  0
LWPOLYLINE
  5
472
100
AcDbEntity
  8
RACCORDO
100
AcDbPolyline
 62
253
  6
CONTINUOUS
 90
6
 70
0
 10
-161.6176420653
 20
-208.4181595215
 10
-161.6174392963
 20
-208.416128447
 10
-161.6172408504
 20
-208.4100459142
 10
-161.6170493918
 20
-208.3999221997
 10
-161.6168694681
 20
-208.3857743746
 10
-161.6163919135
 20
-208.3194469675
  0
LWPOLYLINE
  5
473
100
AcDbEntity
  8
0
100
AcDbPolyline
 62
7
  6
CONTINUOUS
 90
43
 70
0
 10
-174.9522764586
 20
-227.2633161072
 10
-174.9981531984
 20
-227.5740224987
 10
-175.0347065003
 20
-227.7977614189
 10
-175.0746130946
 20
-228.020493654
 10
-175.1179267966
 20
-228.2419547882
 10
-175.164593791
 20
-228.4619499526
 10
-175.2144526323
 20
-228.6803495913
 10
-175.2675374796
 20
-228.8969455359
 10
-175.3238141737
 20
-229.1114525238
 10
-175.3830187908
 20
-229.3236154763
 10
-175.4451820791
 20
-229.5331890372
 10
-175.5102732904
 20
-229.7399040928
 10
-175.5779362568
 20
-229.9434672001
 10
-175.6482379718
 20
-230.1437200354
 10
-175.7211114418
 20
-230.3402896114
 10
-175.7959995188
 20
-230.5325842155
 10
-175.8728971636
 20
-230.7202931616
 10
-175.9518094153
 20
-230.903251149
 10
-176.0321942439
 20
-231.0811204983
 10
-176.1140541992
 20
-231.2536593382
 10
-176.1973867313
 20
-231.4206613383
 10
-176.2816421607
 20
-231.5818609328
 10
-176.3668735587
 20
-231.7371367739
 10
-176.453027854
 20
-231.886183877
 10
-176.5393961531
 20
-232.0285137973
 10
-176.6259663937
 20
-232.1639659345
 10
-176.7127506381
 20
-232.2923976263
 10
-176.7990761806
 20
-232.4134401591
 10
-176.8848500477
 20
-232.5269063925
 10
-176.9701652127
 20
-232.6328216932
 10
-177.0546278906
 20
-232.7311753205
 10
-177.1382333848
 20
-232.8219017689
 10
-177.2209863918
 20
-232.9049096799
 10
-177.3025072161
 20
-232.980143753
 10
-177.3828251736
 20
-233.0475890711
 10
-177.4619109483
 20
-233.1071381985
 10
-177.5392968979
 20
-233.158653113
 10
-177.6149047849
 20
-233.2021217273
 10
-177.6888128466
 20
-233.2375985688
 10
-177.7607881523
 20
-233.2651089007
 10
-177.8307530582
 20
-233.2846928189
 10
-177.8987852081
 20
-233.2964008789
 10
-177.9648846018
 20
-233.3002897165
  0
LWPOLYLINE
  5
474
100
AcDbEntity
  8
ASSI
100
AcDbPolyline
 62
7
  6
CONTINUOUS
 90
43
 70
0
 10
-174.9522764586
 20
-227.2633161072
 10
-174.9981531984
 20
-227.5740224987
 10
-175.0347065003
 20
-227.7977614189
 10
-175.0746130946
 20
-228.020493654
 10
-175.1179267966
 20
-228.2419547882
 10
-175.164593791
 20
-228.4619499526
 10
-175.2144526323
 20
-228.6803495913
 10
-175.2675374796
 20
-228.8969455359
 10
-175.3238141737
 20
-229.1114525238
 10
-175.3830187908
 20
-229.3236154763
 10
-175.4451820791
 20
-229.5331890372
 10
-175.5102732904
 20
-229.7399040928
 10
-175.5779362568
 20
-229.9434672001
 10
-175.6482379718
 20
-230.1437200354
 10
-175.7211114418
 20
-230.3402896114
 10
-175.7959995188
 20
-230.5325842155
 10
-175.8728971636
 20
-230.7202931616
 10
-175.9518094153
 20
-230.903251149
 10
-176.0321942439
 20
-231.0811204983
 10
-176.1140541992
 20
-231.2536593382
 10
-176.1973867313
 20
-231.4206613383
 10
-176.2816421607
 20
-231.5818609328
 10
-176.3668735587
 20
-231.7371367739
 10
-176.453027854
 20
-231.886183877
 10
-176.5393961531
 20
-232.0285137973
 10
-176.6259663937
 20
-232.1639659345
 10
-176.7127506381
 20
-232.2923976263
 10
-176.7990761806
 20
-232.4134401591
 10
-176.8848500477
 20
-232.5269063925
 10
-176.9701652127
 20
-232.6328216932
 10
-177.0546278906
 20
-232.7311753205
 10
-177.1382333848
 20
-232.8219017689
 10
-177.2209863918
 20
-232.9049096799
 10
-177.3025072161
 20
-232.980143753
 10
-177.3828251736
 20
-233.0475890711
 10
-177.4619109483
 20
-233.1071381985
 10
-177.5392968979
 20
-233.158653113
 10
-177.6149047849
 20
-233.2021217273
 10
-177.6888128466
 20
-233.2375985688
 10
-177.7607881523
 20
-233.2651089007
 10
-177.8307530582
 20
-233.2846928189
 10
-177.8987852081
 20
-233.2964008789
 10
-177.9648846018
 20
-233.3002897165
  0
LWPOLYLINE
  5
475
100
AcDbEntity
  8
0
100
AcDbPolyline
 62
7
  6
CONTINUOUS
 90
10
 70
0
 10
-172.745300356
 20
-227.7133155767
 10
-172.7383334366
 20
-227.6706424606
 10
-172.732225012
 20
-227.6264427633
 10
-172.7269750821
 20
-227.5807102371
 10
-172.7225952497
 20
-227.5334096758
 10
-172.7190739121
 20
-227.4845638669
 10
-172.7163762609
 20
-227.4342541479
 10
-172.7144998919
 20
-227.382491328
 10
-172.7134472093
 20
-227.329254019
 10
-172.7131792986
 20
-227.2846031996
  0
LWPOLYLINE
  5
476
100
AcDbEntity
  8
ASSI
100
AcDbPolyline
 62
7
  6
CONTINUOUS
 90
10
 70
0
 10
-172.745300356
 20
-227.7133155767
 10
-172.7383334366
 20
-227.6706424606
 10
-172.732225012
 20
-227.6264427633
 10
-172.7269750821
 20
-227.5807102371
 10
-172.7225952497
 20
-227.5334096758
 10
-172.7190739121
 20
-227.4845638669
 10
-172.7163762609
 20
-227.4342541479
 10
-172.7144998919
 20
-227.382491328
 10
-172.7134472093
 20
-227.329254019
 10
-172.7131792986
 20
-227.2846031996
  0
LINE
  5
477
100
AcDbEntity
  8
RACCORDO
100
AcDbLine
 62
7
  6
CONTINUOUS
 10
-172.641963884
 20
-227.3809159805
 11
-172.6755655399
 21
-227.5738768396
  0
LINE
  5
478
100
AcDbEntity
  8
RACCORDO
100
AcDbLine
 62
7
  6
CONTINUOUS
 10
-172.6755655399
 20
-227.5738768396
 11
-172.7120561123
 21
-227.7654558099
  0
LWPOLYLINE
  5
479
100
AcDbEntity
  8
0
100
AcDbPolyline
 62
7
  6
CONTINUOUS
 90
11
 70
0
 10
-174.8050388723
 20
-226.479648846
 10
-174.8210183063
 20
-226.5536793708
 10
-174.83675378
 20
-226.628381029
 10
-174.8522607031
 20
-226.703723055
 10
-174.8675236658
 20
-226.7797152033
 10
-174.8824979513
 20
-226.8568788198
 10
-174.8972145359
 20
-226.9351928161
 10
-174.9116424432
 20
-227.0146475902
 10
-174.9256440267
 20
-227.0957739577
 10
-174.9391734045
 20
-227.1787322238
 10
-174.9522764586
 20
-227.2633161072
  0
LWPOLYLINE
  5
47A
100
AcDbEntity
  8
ASSI
100
AcDbPolyline
 62
7
  6
CONTINUOUS
 90
11
 70
0
 10
-174.8050388723
 20
-226.479648846
 10
-174.8210183063
 20
-226.5536793708
 10
-174.83675378
 20
-226.628381029
 10
-174.8522607031
 20
-226.703723055
 10
-174.8675236658
 20
-226.7797152033
 10
-174.8824979513
 20
-226.8568788198
 10
-174.8972145359
 20
-226.9351928161
 10
-174.9116424432
 20
-227.0146475902
 10
-174.9256440267
 20
-227.0957739577
 10
-174.9391734045
 20
-227.1787322238
 10
-174.9522764586
 20
-227.2633161072
  0
LWPOLYLINE
  5
47B
100
AcDbEntity
  8
RACCORDO
100
AcDbPolyline
 62
7
  6
CONTINUOUS
 90
3
 70
0
 10
-172.7120573521
 20
152.1648826714
 10
-172.6755668312
 20
151.9733046654
 10
-172.6419653033
 20
151.7803452257
  0
LWPOLYLINE
  5
47C
100
AcDbEntity
  8
0
100
AcDbPolyline
 62
7
  6
CONTINUOUS
 90
40
 70
0
 10
-172.745300356
 20
152.1127361437
 10
-172.7879678189
 20
152.3416420431
 10
-172.8345168868
 20
152.5691090168
 10
-172.8848856884
 20
152.7951370647
 10
-172.9390030054
 20
153.0199766294
 10
-172.9967994926
 20
153.2433772682
 10
-173.0582073903
 20
153.4645876538
 10
-173.1231738535
 20
153.6836701784
 10
-173.191575741
 20
153.9005624498
 10
-173.2632329304
 20
154.1143259636
 10
-173.3380861113
 20
154.3250046832
 10
-173.4159875822
 20
154.5325546453
 10
-173.4966240357
 20
154.7359054558
 10
-173.579927758
 20
154.9350718112
 10
-173.6657378591
 20
155.1300390149
 10
-173.7536106119
 20
155.3196925835
 10
-173.8434686967
 20
155.504011444
 10
-173.9351537788
 20
155.6830166693
 10
-174.0281223632
 20
155.8556569951
 10
-174.1222879276
 20
156.0218766118
 10
-174.217511815
 20
156.181731329
 10
-174.313206408
 20
156.3343373116
 10
-174.4092828228
 20
156.4796188173
 10
-174.505631666
 20
156.6176515884
 10
-174.6016781545
 20
156.7477790166
 10
-174.6973391257
 20
156.8699204216
 10
-174.792538668
 20
156.9841564838
 10
-174.8867615224
 20
157.0900726359
 10
-174.9799385841
 20
157.1875967391
 10
-175.072025438
 20
157.2768009322
 10
-175.162592847
 20
157.3574870651
 10
-175.2515917606
 20
157.4295991435
 10
-175.3390040246
 20
157.4931931616
 10
-175.4244925093
 20
157.548238953
 10
-175.5080301807
 20
157.5946979556
 10
-175.5896201379
 20
157.6326087315
 10
-175.6690110077
 20
157.6620568002
 10
-175.7461318196
 20
157.6830706684
 10
-175.8210712206
 20
157.6956218295
 10
-175.8938362091
 20
157.6997102835
  0
LWPOLYLINE
  5
47D
100
AcDbEntity
  8
ASSI
100
AcDbPolyline
 62
7
  6
CONTINUOUS
 90
40
 70
0
 10
-172.745300356
 20
152.1127361437
 10
-172.7879678189
 20
152.3416420431
 10
-172.8345168868
 20
152.5691090168
 10
-172.8848856884
 20
152.7951370647
 10
-172.9390030054
 20
153.0199766294
 10
-172.9967994926
 20
153.2433772682
 10
-173.0582073903
 20
153.4645876538
 10
-173.1231738535
 20
153.6836701784
 10
-173.191575741
 20
153.9005624498
 10
-173.2632329304
 20
154.1143259636
 10
-173.3380861113
 20
154.3250046832
 10
-173.4159875822
 20
154.5325546453
 10
-173.4966240357
 20
154.7359054558
 10
-173.579927758
 20
154.9350718112
 10
-173.6657378591
 20
155.1300390149
 10
-173.7536106119
 20
155.3196925835
 10
-173.8434686967
 20
155.504011444
 10
-173.9351537788
 20
155.6830166693
 10
-174.0281223632
 20
155.8556569951
 10
-174.1222879276
 20
156.0218766118
 10
-174.217511815
 20
156.181731329
 10
-174.313206408
 20
156.3343373116
 10
-174.4092828228
 20
156.4796188173
 10
-174.505631666
 20
156.6176515884
 10
-174.6016781545
 20
156.7477790166
 10
-174.6973391257
 20
156.8699204216
 10
-174.792538668
 20
156.9841564838
 10
-174.8867615224
 20
157.0900726359
 10
-174.9799385841
 20
157.1875967391
 10
-175.072025438
 20
157.2768009322
 10
-175.162592847
 20
157.3574870651
 10
-175.2515917606
 20
157.4295991435
 10
-175.3390040246
 20
157.4931931616
 10
-175.4244925093
 20
157.548238953
 10
-175.5080301807
 20
157.5946979556
 10
-175.5896201379
 20
157.6326087315
 10
-175.6690110077
 20
157.6620568002
 10
-175.7461318196
 20
157.6830706684
 10
-175.8210712206
 20
157.6956218295
 10
-175.8938362091
 20
157.6997102835
  0
LWPOLYLINE
  5
47E
100
AcDbEntity
  8
RACCORDO
100
AcDbPolyline
 62
7
  6
CONTINUOUS
 90
11
 70
0
 10
-172.6419653033
 20
151.7803452257
 10
-172.6113226727
 20
151.5866526719
 10
-172.5837039284
 20
151.3923927996
 10
-172.5591082506
 20
151.1973998132
 10
-172.537501533
 20
151.001824646
 10
-172.5188903874
 20
150.8055242751
 10
-172.5033108654
 20
150.6086417234
 10
-172.4907675221
 20
150.4117569917
 10
-172.4812695622
 20
150.2150634139
 10
-172.4748309177
 20
150.0183676562
 10
-172.4714583338
 20
149.8216697186
  0
LWPOLYLINE
  5
47F
100
AcDbEntity
  8
0
100
AcDbPolyline
 62
7
  6
CONTINUOUS
 90
11
 70
0
 10
-174.9504494835
 20
151.6510885836
 10
-174.935417067
 20
151.5552072852
 10
-174.9198559394
 20
151.4613124569
 10
-174.9037009951
 20
151.3696660908
 10
-174.8870173398
 20
151.2800702444
 10
-174.8700002901
 20
151.1918616913
 10
-174.8526927593
 20
151.1050498916
 10
-174.8350518343
 20
151.0196672752
 10
-174.8171440917
 20
150.935074438
 10
-174.7989851245
 20
150.8512382508
 10
-174.7618865361
 20
150.6855160402
  0
LWPOLYLINE
  5
480
100
AcDbEntity
  8
ASSI
100
AcDbPolyline
 62
7
  6
CONTINUOUS
 90
11
 70
0
 10
-174.9504494835
 20
151.6510885836
 10
-174.935417067
 20
151.5552072852
 10
-174.9198559394
 20
151.4613124569
 10
-174.9037009951
 20
151.3696660908
 10
-174.8870173398
 20
151.2800702444
 10
-174.8700002901
 20
151.1918616913
 10
-174.8526927593
 20
151.1050498916
 10
-174.8350518343
 20
151.0196672752
 10
-174.8171440917
 20
150.935074438
 10
-174.7989851245
 20
150.8512382508
 10
-174.7618865361
 20
150.6855160402
  0
LINE
  5
481
100
AcDbEntity
  8
RACCORDO
100
AcDbLine
 62
253
  6
CONTINUOUS
 10
-142.0193873059
 20
124.389234752
 11
-142.0129883186
 21
124.2746656533
  0
LINE
  5
482
100
AcDbEntity
  8
RACCORDO
100
AcDbLine
 62
253
  6
CONTINUOUS
 10
-142.0129883186
 20
124.2746656533
 11
-142.0095049933
 21
124.2069910162
  0
LINE
  5
483
100
AcDbEntity
  8
RACCORDO
100
AcDbLine
 62
253
  6
CONTINUOUS
 10
-142.0095049933
 20
124.2069910162
 11
-142.0080933266
 21
124.1775515015
  0
LWPOLYLINE
  5
484
100
AcDbEntity
  8
RACCORDO
100
AcDbPolyline
 62
7
  6
CONTINUOUS
 90
10
 70
0
 10
-172.7120561123
 20
-227.7654558099
 10
-172.7513671141
 20
-227.9555304469
 10
-172.793483511
 20
-228.1442231951
 10
-172.8384098908
 20
-228.3312524751
 10
-172.8861198315
 20
-228.5167033077
 10
-172.9365329372
 20
-228.7004906721
 10
-172.9895670589
 20
-228.882077927
 10
-173.0451525668
 20
-229.0612861918
 10
-173.1032318124
 20
-229.238294347
 10
-173.1637356174
 20
-229.4131023927
  0
LINE
  5
485
100
AcDbEntity
  8
0
100
AcDbLine
 62
7
  6
CONTINUOUS
 10
-174.7723389916
 20
-226.3321422041
 11
-174.8050388723
 21
-226.479648846
  0
LINE
  5
486
100
AcDbEntity
  8
ASSI
100
AcDbLine
 62
7
  6
CONTINUOUS
 10
-174.7723389916
 20
-226.3321422041
 11
-174.8050388723
 21
-226.479648846
  0
LINE
  5
487
100
AcDbEntity
  8
0
100
AcDbLine
 62
7
  6
CONTINUOUS
 10
-174.7386648993
 20
-226.1851748572
 11
-174.7723389916
 21
-226.3321422041
  0
LINE
  5
488
100
AcDbEntity
  8
ASSI
100
AcDbLine
 62
7
  6
CONTINUOUS
 10
-174.7386648993
 20
-226.1851748572
 11
-174.7723389916
 21
-226.3321422041
  0
LINE
  5
489
100
AcDbEntity
  8
0
100
AcDbLine
 62
7
  6
CONTINUOUS
 10
-174.7040253304
 20
-226.0378788095
 11
-174.7386648993
 21
-226.1851748572
  0
LINE
  5
48A
100
AcDbEntity
  8
ASSI
100
AcDbLine
 62
7
  6
CONTINUOUS
 10
-174.7040253304
 20
-226.0378788095
 11
-174.7386648993
 21
-226.1851748572
  0
LINE
  5
48B
100
AcDbEntity
  8
0
100
AcDbLine
 62
7
  6
CONTINUOUS
 10
-174.6506838064
 20
-225.8166684328
 11
-174.7040253304
 21
-226.0378788095
  0
LINE
  5
48C
100
AcDbEntity
  8
ASSI
100
AcDbLine
 62
7
  6
CONTINUOUS
 10
-174.6506838064
 20
-225.8166684328
 11
-174.7040253304
 21
-226.0378788095
  0
LINE
  5
48D
100
AcDbEntity
  8
0
100
AcDbLine
 62
7
  6
CONTINUOUS
 10
-174.5594837369
 20
-225.4477749049
 11
-174.6506838064
 21
-225.8166684328
  0
LINE
  5
48E
100
AcDbEntity
  8
ASSI
100
AcDbLine
 62
7
  6
CONTINUOUS
 10
-174.5594837369
 20
-225.4477749049
 11
-174.6506838064
 21
-225.8166684328
  0
LINE
  5
48F
100
AcDbEntity
  8
0
100
AcDbLine
 62
7
  6
CONTINUOUS
 10
-174.5226100633
 20
-225.3002897165
 11
-174.5594837369
 21
-225.4477749049
  0
LINE
  5
490
100
AcDbEntity
  8
ASSI
100
AcDbLine
 62
7
  6
CONTINUOUS
 10
-174.5226100633
 20
-225.3002897165
 11
-174.5594837369
 21
-225.4477749049
  0
LINE
  5
491
100
AcDbEntity
  8
0
100
AcDbLine
 62
7
  6
CONTINUOUS
 10
-174.6249485079
 20
150.1110721319
 11
-174.5226100633
 21
149.6997102835
  0
LINE
  5
492
100
AcDbEntity
  8
ASSI
100
AcDbLine
 62
7
  6
CONTINUOUS
 10
-174.6249485079
 20
150.1110721319
 11
-174.5226100633
 21
149.6997102835
  0
LINE
  5
493
100
AcDbEntity
  8
0
100
AcDbLine
 62
7
  6
CONTINUOUS
 10
-174.6848110324
 20
150.3568645857
 11
-174.6249485079
 21
150.1110721319
  0
LINE
  5
494
100
AcDbEntity
  8
ASSI
100
AcDbLine
 62
7
  6
CONTINUOUS
 10
-174.6848110324
 20
150.3568645857
 11
-174.6249485079
 21
150.1110721319
  0
LINE
  5
495
100
AcDbEntity
  8
0
100
AcDbLine
 62
7
  6
CONTINUOUS
 10
-174.7237870883
 20
150.5209231401
 11
-174.6848110324
 21
150.3568645857
  0
LINE
  5
496
100
AcDbEntity
  8
ASSI
100
AcDbLine
 62
7
  6
CONTINUOUS
 10
-174.7237870883
 20
150.5209231401
 11
-174.6848110324
 21
150.3568645857
  0
LINE
  5
497
100
AcDbEntity
  8
0
100
AcDbLine
 62
7
  6
CONTINUOUS
 10
-174.7618865361
 20
150.6855160402
 11
-174.7237870883
 21
150.5209231401
  0
LINE
  5
498
100
AcDbEntity
  8
ASSI
100
AcDbLine
 62
7
  6
CONTINUOUS
 10
-174.7618865361
 20
150.6855160402
 11
-174.7237870883
 21
150.5209231401
  0
LWPOLYLINE
  5
499
100
AcDbEntity
  8
RACCORDO
100
AcDbPolyline
 62
7
  6
CONTINUOUS
 90
10
 70
0
 10
-173.1637356174
 20
153.812522978
 10
-173.1032318789
 20
153.6377150172
 10
-173.045152782
 20
153.46070736
 10
-172.9895675067
 20
153.2815000064
 10
-172.9365337906
 20
153.0999144226
 10
-172.8861211784
 20
152.9161291425
 10
-172.8384115537
 20
152.7306797671
 10
-172.7934851326
 20
152.5436506099
 10
-172.7513685082
 20
152.3549573575
 10
-172.7120573521
 20
152.1648826714
  0
LWPOLYLINE
  5
49A
100
AcDbEntity
  8
RACCORDO
100
AcDbPolyline
 62
253
  6
CONTINUOUS
 90
5
 70
0
 10
-142.314151584
 20
132.9806364087
 10
-142.3138108197
 20
132.9786030435
 10
-142.31348067
 20
132.9725185075
 10
-142.3131638008
 20
132.9623929896
 10
-142.3128645783
 20
132.9482434253
  0
LWPOLYLINE
  5
49B
100
AcDbEntity
  8
RACCORDO
100
AcDbPolyline
 62
253
  6
CONTINUOUS
 90
3
 70
0
 10
-141.6349254238
 20
132.3899031425
 10
-141.6354013052
 20
132.3928665082
 10
-141.6357350567
 20
132.3948736604
  0
LWPOLYLINE
  5
49C
100
AcDbEntity
  8
RACCORDO
100
AcDbPolyline
 62
253
  6
CONTINUOUS
 90
7
 70
0
 10
-141.6281131769
 20
124.7493264409
 10
-141.6283085673
 20
124.7498245114
 10
-141.6284830283
 20
124.7513290362
 10
-141.6286374921
 20
124.7538367499
 10
-141.6287738284
 20
124.7573426015
 10
-141.6288917773
 20
124.7618357563
 10
-141.6289888238
 20
124.7672956474
  0
LWPOLYLINE
  5
49D
100
AcDbEntity
  8
RACCORDO
100
AcDbPolyline
 62
253
  6
CONTINUOUS
 90
8
 70
0
 10
-141.6263682685
 20
125.8962801971
 10
-141.6259914444
 20
125.8954349558
 10
-141.6256460292
 20
125.8929176237
 10
-141.625333952
 20
125.8887422732
 10
-141.6250569542
 20
125.8829322455
 10
-141.6248165841
 20
125.8755200199
 10
-141.6246141881
 20
125.8665470326
 10
-141.6244508971
 20
125.8560634449
  0
LWPOLYLINE
  5
49E
100
AcDbEntity
  8
RACCORDO
100
AcDbPolyline
 62
253
  6
CONTINUOUS
 90
44
 70
0
 10
-173.5211382094
 20
-231.1247491626
 10
-173.4350614019
 20
-230.9918914392
 10
-173.3507813305
 20
-230.8546837289
 10
-173.2682814688
 20
-230.7132100552
 10
-173.1875316134
 20
-230.5674200751
 10
-173.1086571605
 20
-230.4175819407
 10
-173.0317483305
 20
-230.263942986
 10
-172.9567868148
 20
-230.1064860533
 10
-172.883805985
 20
-229.9452863867
 10
-172.8131809598
 20
-229.7811482733
 10
-172.7453323571
 20
-229.6150493025
 10
-172.6802408101
 20
-229.4470623548
 10
-172.6179681632
 20
-229.2775025423
 10
-172.5589334105
 20
-229.1077328158
 10
-172.5031844397
 20
-228.9382690797
 10
-172.4506892933
 20
-228.7694252309
 10
-172.4016871641
 20
-228.6024339432
 10
-172.356078172
 20
-228.4374938514
 10
-172.3137485058
 20
-228.2747995614
 10
-172.2748094209
 20
-228.1155306533
 10
-172.2391559013
 20
-227.9600853316
 10
-172.2065649018
 20
-227.8083962056
 10
-172.1769225826
 20
-227.6609614209
 10
-172.1501118043
 20
-227.5181872155
 10
-172.1259298948
 20
-227.3799998035
 10
-172.10413439
 20
-227.2461218614
 10
-172.084576491
 20
-227.1166392302
 10
-172.067101943
 20
-226.9915545226
 10
-172.0514849225
 20
-226.8704032836
 10
-172.0376048817
 20
-226.7532590861
 10
-172.0253380998
 20
-226.6401152177
 10
-172.0144943629
 20
-226.5303897856
 10
-172.0049812174
 20
-226.4241531877
 10
-171.9967071803
 20
-226.321415289
 10
-171.9895228778
 20
-226.2214939849
 10
-171.9833592133
 20
-226.1244288332
 10
-171.9781500566
 20
-226.0302297221
 10
-171.9737866822
 20
-225.9381627115
 10
-171.9702197049
 20
-225.8482728474
 10
-171.9674014217
 20
-225.7605495306
 10
-171.9652612908
 20
-225.6741720806
 10
-171.9637648544
 20
-225.5888752992
 10
-171.9628941053
 20
-225.5049491646
 10
-171.9631429456
 20
-221.3084952863
  0
LWPOLYLINE
  5
49F
100
AcDbEntity
  8
RACCORDO
100
AcDbPolyline
 62
253
  6
CONTINUOUS
 90
13
 70
0
 10
-173.43360616
 20
155.3890037301
 10
-173.5197537525
 20
155.5220898792
 10
-173.6072403884
 20
155.6499653167
 10
-173.6952404573
 20
155.7714054882
 10
-173.7836740568
 20
155.88629377
 10
-173.8722457695
 20
155.9942741065
 10
-173.9598369112
 20
156.0941745508
 10
-174.0463062427
 20
156.1860887889
 10
-174.1314344796
 20
156.2699968252
 10
-174.2140209299
 20
156.3450496908
 10
-174.2939629223
 20
156.4115866599
 10
-174.3712035271
 20
156.4699858939
 10
-174.4309219158
 20
156.5106197496
  0
LINE
  5
4A0
100
AcDbEntity
  8
SMUSSO
100
AcDbLine
 62
7
  6
CONTINUOUS
 10
-139.6228777872
 20
-218.1502897165
 11
-140.0228777872
 21
-218.5502897165
  0
LINE
  5
4A1
100
AcDbEntity
  8
SMUSSO
100
AcDbLine
 62
7
  6
CONTINUOUS
 10
-139.6228777872
 20
142.5497102835
 11
-140.0228777872
 21
142.9497102835
  0
LWPOLYLINE
  5
4A2
100
AcDbEntity
  8
RACCORDO
100
AcDbPolyline
 62
253
  6
CONTINUOUS
 90
12
 70
0
 10
-174.4309098797
 20
-232.1111819804
 10
-174.3716722666
 20
-232.0709016721
 10
-174.294499307
 20
-232.0125918022
 10
-174.2146313209
 20
-231.9461601313
 10
-174.1321255472
 20
-231.8712303566
 10
-174.047083206
 20
-231.787463561
 10
-173.9607057517
 20
-231.6957106282
 10
-173.8732150572
 20
-231.5959965164
 10
-173.7847493949
 20
-231.488226523
 10
-173.6964193885
 20
-231.3735631499
 10
-173.6085248265
 20
-231.2523685294
 10
-173.5211382094
 20
-231.1247491626
  0
LINE
  5
4A3
100
AcDbEntity
  8
RACCORDO
100
AcDbLine
 62
7
  6
CONTINUOUS
 10
-142.0054466387
 20
124.0897665174
 11
-160.7751712329
 21
122.4476283979
  0
LINE
  5
4A4
100
AcDbEntity
  8
RACCORDO
100
AcDbLine
 62
253
  6
CONTINUOUS
 10
-142.0193873059
 20
124.389234752
 11
-160.7960822338
 21
122.7464868073
  0
LINE
  5
4A5
100
AcDbEntity
  8
RACCORDO
100
AcDbLine
 62
7
  6
CONTINUOUS
 10
-140.5176423976
 20
124.7784051417
 11
-141.6281131769
 21
124.7493264409
  0
LINE
  5
4A6
100
AcDbEntity
  8
RACCORDO
100
AcDbLine
 62
253
  6
CONTINUOUS
 10
-140.5193873059
 20
125.0783251852
 11
-141.6263682685
 21
125.0493378685
  0
LINE
  5
4A7
100
AcDbEntity
  8
RACCORDO
100
AcDbLine
 62
253
  6
CONTINUOUS
 10
-161.3228777872
 20
121.8499115791
 11
-161.6176420653
 21
121.8499115791
  0
LINE
  5
4A8
100
AcDbEntity
  8
RACCORDO
100
AcDbLine
 62
253
  6
CONTINUOUS
 10
-141.8228777872
 20
124.389234752
 11
-142.0193873059
 21
124.389234752
  0
LINE
  5
4A9
100
AcDbEntity
  8
RACCORDO
100
AcDbLine
 62
253
  6
CONTINUOUS
 10
-141.8228777872
 20
124.5609316794
 11
-142.0193864236
 21
124.5609314342
  0
LINE
  5
4AA
100
AcDbEntity
  8
RACCORDO
100
AcDbLine
 62
253
  6
CONTINUOUS
 10
-140.5193873059
 20
125.0783251852
 11
-140.3228777872
 21
125.0783251852
  0
LINE
  5
4AB
100
AcDbEntity
  8
RACCORDO
100
AcDbLine
 62
253
  6
CONTINUOUS
 10
-140.5193873059
 20
125.5770034639
 11
-140.3228777872
 21
125.5770034639
  0
LINE
  5
4AC
100
AcDbEntity
  8
RACCORDO
100
AcDbLine
 62
253
  6
CONTINUOUS
 10
-141.8228777872
 20
126.0962497361
 11
-142.314151584
 21
126.0962497352
  0
LINE
  5
4AD
100
AcDbEntity
  8
RACCORDO
100
AcDbLine
 62
253
  6
CONTINUOUS
 10
-141.8228777872
 20
130.4810171708
 11
-142.314151584
 21
130.4810171708
  0
LINE
  5
4AE
100
AcDbEntity
  8
RACCORDO
100
AcDbLine
 62
253
  6
CONTINUOUS
 10
-140.5193873059
 20
130.2226479222
 11
-141.6263682685
 21
130.2418227344
  0
LINE
  5
4AF
100
AcDbEntity
  8
RACCORDO
100
AcDbLine
 62
253
  6
CONTINUOUS
 10
-140.519387306
 20
131.5580961032
 11
-141.6263682685
 21
131.5772702135
  0
LINE
  5
4B0
100
AcDbEntity
  8
RACCORDO
100
AcDbLine
 62
253
  6
CONTINUOUS
 10
-141.6373276319
 20
125.5965128688
 11
-140.5193873059
 21
125.5770034639
  0
LINE
  5
4B1
100
AcDbEntity
  8
RACCORDO
100
AcDbLine
 62
7
  6
CONTINUOUS
 10
-141.6263682685
 20
125.8962801971
 11
-140.5193873059
 21
125.8769577725
  0
LINE
  5
4B2
100
AcDbEntity
  8
RACCORDO
100
AcDbLine
 62
253
  6
CONTINUOUS
 10
-141.6263682685
 20
127.2358221094
 11
-140.5193873059
 21
127.2164996848
  0
LINE
  5
4B3
100
AcDbEntity
  8
RACCORDO
100
AcDbLine
 62
253
  6
CONTINUOUS
 10
-142.314151584
 20
130.4810171708
 11
-163.2728777872
 21
130.8468530975
  0
LINE
  5
4B4
100
AcDbEntity
  8
RACCORDO
100
AcDbLine
 62
7
  6
CONTINUOUS
 10
-140.519387306
 20
132.3753631805
 11
-141.6357350567
 21
132.3948736604
  0
LINE
  5
4B5
100
AcDbEntity
  8
RACCORDO
100
AcDbLine
 62
7
  6
CONTINUOUS
 10
-142.314151584
 20
132.9806364087
 11
-163.2728777872
 21
133.3464723354
  0
LINE
  5
4B6
100
AcDbEntity
  8
RACCORDO
100
AcDbLine
 62
253
  6
CONTINUOUS
 10
-141.6373276319
 20
125.5965128688
 11
-141.6482808108
 21
125.5967564909
  0
LWPOLYLINE
  5
4B7
100
AcDbEntity
  8
RACCORDO
100
AcDbPolyline
 62
253
  6
CONTINUOUS
 90
82
 70
0
 10
-141.6482808108
 20
125.5967564909
 10
-141.6701735569
 20
125.5974047254
 10
-141.6811131241
 20
125.5978093378
 10
-141.6920316819
 20
125.5982973965
 10
-141.702925773
 20
125.5988710035
 10
-141.7137988547
 20
125.5995280567
 10
-141.7246464729
 20
125.6002890538
 10
-141.7354604691
 20
125.6011546637
 10
-141.7462490018
 20
125.6021242176
 10
-141.7570320929
 20
125.6032162071
 10
-141.7678017005
 20
125.6044292531
 10
-141.7785658664
 20
125.6057647348
 10
-141.7893687378
 20
125.6072452821
 10
-141.8001996503
 20
125.6088664269
 10
-141.8110692683
 20
125.6106326372
 10
-141.822053732
 20
125.6125799468
 10
-141.833165132
 20
125.6147065463
 10
-141.8443913777
 20
125.6170142452
 10
-141.8557723367
 20
125.6195445049
 10
-141.8673571767
 20
125.6223097366
 10
-141.8790967301
 20
125.6252975292
 10
-141.8908833621
 20
125.6285121113
 10
-141.9027365237
 20
125.6319680364
 10
-141.914636764
 20
125.6356507511
 10
-141.926418096
 20
125.6395208239
 10
-141.9380421698
 20
125.6435734343
 10
-141.9495473353
 20
125.6478134027
 10
-141.9608826552
 20
125.652215759
 10
-141.9720236842
 20
125.6567718503
 10
-141.9829948675
 20
125.6614903295
 10
-141.9938186034
 20
125.6663721855
 10
-142.0045020851
 20
125.6714195611
 10
-142.0150381194
 20
125.6766303135
 10
-142.0254275254
 20
125.6819990035
 10
-142.0356738875
 20
125.6875276004
 10
-142.0457736213
 20
125.6932141349
 10
-142.0557167924
 20
125.699047259
 10
-142.0655029455
 20
125.7050271873
 10
-142.0751325359
 20
125.7111537053
 10
-142.0845969949
 20
125.7174148214
 10
-142.0938957516
 20
125.7238105089
 10
-142.1030293768
 20
125.7303407946
 10
-142.1119910144
 20
125.7369937673
 10
-142.1207781362
 20
125.7437673355
 10
-142.1293932703
 20
125.7506635907
 10
-142.1378371453
 20
125.7576768955
 10
-142.1461061357
 20
125.7648026364
 10
-142.1542038669
 20
125.7720454269
 10
-142.1621419439
 20
125.7794134701
 10
-142.1699216486
 20
125.7869052967
 10
-142.177541699
 20
125.794522376
 10
-142.1850098536
 20
125.8022773184
 10
-142.1923308034
 20
125.8101727666
 10
-142.1994998573
 20
125.8182060779
 10
-142.206510701
 20
125.8263819341
 10
-142.2133655473
 20
125.8347014008
 10
-142.2200621833
 20
125.8431634125
 10
-142.2265876566
 20
125.8517694542
 10
-142.2329438846
 20
125.8605208374
 10
-142.2391289499
 20
125.8694162508
 10
-142.2451241474
 20
125.8784532449
 10
-142.2509307458
 20
125.8876326916
 10
-142.2565474765
 20
125.8969537191
 10
-142.2619518283
 20
125.9064112633
 10
-142.2671447512
 20
125.9160059188
 10
-142.2721252953
 20
125.9257370909
 10
-142.2768680987
 20
125.9355979318
 10
-142.2813741037
 20
125.9455894493
 10
-142.285642368
 20
125.9557106355
 10
-142.2896447033
 20
125.9659516185
 10
-142.2933819062
 20
125.976314739
 10
-142.29685318
 20
125.9867976561
 10
-142.3000279456
 20
125.9973834759
 10
-142.3029058724
 20
126.0080748417
 10
-142.305487291
 20
126.01886911
 10
-142.3077426137
 20
126.0297414567
 10
-142.3096699697
 20
126.0406953033
 10
-142.3112712299
 20
126.0517272283
 10
-142.312522419
 20
126.062802143
 10
-142.3134155452
 20
126.073908351
 10
-142.3139586002
 20
126.0850575487
 10
-142.314151584
 20
126.0962497361
  0
LWPOLYLINE
  5
4B8
100
AcDbEntity
  8
RACCORDO
100
AcDbPolyline
 62
253
  6
CONTINUOUS
 90
19
 70
0
 10
-141.6263682685
 20
127.2358221094
 10
-141.643590607
 20
127.236727091
 10
-141.6606587898
 20
127.2389142238
 10
-141.6774457866
 20
127.2423672299
 10
-141.6938266598
 20
127.2470604103
 10
-141.7096794943
 20
127.2529588359
 10
-141.7248863052
 20
127.2600186076
 10
-141.7393339153
 20
127.2681871827
 10
-141.7529147979
 20
127.2774037666
 10
-141.7655278771
 20
127.2875997645
 10
-141.7770792796
 20
127.2986992925
 10
-141.787483034
 20
127.3106197421
 10
-141.79666171
 20
127.3232723951
 10
-141.804546995
 20
127.3365630838
 10
-141.8110802028
 20
127.350392892
 10
-141.8162127098
 20
127.364658891
 10
-141.819906317
 20
127.3792549058
 10
-141.8221335349
 20
127.3940723051
 10
-141.8228777872
 20
127.4090008102
  0
LWPOLYLINE
  5
4B9
100
AcDbEntity
  8
RACCORDO
100
AcDbPolyline
 62
253
  6
CONTINUOUS
 90
19
 70
0
 10
-140.5193873059
 20
127.2164996848
 10
-140.5021649675
 20
127.2155947032
 10
-140.4850967847
 20
127.2134075705
 10
-140.4683097879
 20
127.2099545644
 10
-140.4519289147
 20
127.2052613839
 10
-140.4360760801
 20
127.1993629583
 10
-140.4208692693
 20
127.1923031867
 10
-140.4064216592
 20
127.1841346115
 10
-140.3928407766
 20
127.1749180277
 10
-140.3802276974
 20
127.1647220298
 10
-140.3686762949
 20
127.1536225018
 10
-140.3582725405
 20
127.1417020521
 10
-140.3490938645
 20
127.1290493991
 10
-140.3412085794
 20
127.1157587104
 10
-140.3346753716
 20
127.1019289022
 10
-140.3295428647
 20
127.0876629032
 10
-140.3258492574
 20
127.0730668885
 10
-140.3236220396
 20
127.0582494891
 10
-140.3228777872
 20
127.043320984
  0
LWPOLYLINE
  5
4BA
100
AcDbEntity
  8
RACCORDO
100
AcDbPolyline
 62
253
  6
CONTINUOUS
 90
19
 70
0
 10
-141.6263682685
 20
130.2418227344
 10
-141.6435905886
 20
130.2427277143
 10
-141.6606587547
 20
130.2449148429
 10
-141.6774457367
 20
130.2483678426
 10
-141.693826597
 20
130.2530610147
 10
-141.7096794211
 20
130.2589594303
 10
-141.724886225
 20
130.2660191913
 10
-141.7393338314
 20
130.2741877557
 10
-141.7529147137
 20
130.2834043291
 10
-141.7655277961
 20
130.2936003181
 10
-141.777079205
 20
130.3046998392
 10
-141.7874829682
 20
130.3166202845
 10
-141.7966616551
 20
130.3292729366
 10
-141.8045469523
 20
130.3425636284
 10
-141.8110801724
 20
130.3563934437
 10
-141.8162126909
 20
130.3706594544
 10
-141.8199063079
 20
130.3852554854
 10
-141.8221335324
 20
130.4000729054
 10
-141.8228777872
 20
130.4150014352
  0
LWPOLYLINE
  5
4BB
100
AcDbEntity
  8
RACCORDO
100
AcDbPolyline
 62
253
  6
CONTINUOUS
 90
19
 70
0
 10
-140.5193873059
 20
130.2226479222
 10
-140.5021649497
 20
130.221742939
 10
-140.4850967507
 20
130.2195558022
 10
-140.4683097396
 20
130.2161027899
 10
-140.4519288539
 20
130.2114096013
 10
-140.4360760092
 20
130.2055111661
 10
-140.4208691915
 20
130.1984513841
 10
-140.406421578
 20
130.1902827985
 10
-140.392840695
 20
130.1810662046
 10
-140.380227619
 20
130.170870198
 10
-140.3686762226
 20
130.1597706633
 10
-140.3582724767
 20
130.1478502095
 10
-140.3490938113
 20
130.1351975557
 10
-140.341208538
 20
130.1219068699
 10
-140.3346753422
 20
130.1080770686
 10
-140.3295428464
 20
130.0938110809
 10
-140.3258492486
 20
130.0792150819
 10
-140.3236220372
 20
130.0643977026
 10
-140.3228777872
 20
130.0494692214
  0
LWPOLYLINE
  5
4BC
100
AcDbEntity
  8
RACCORDO
100
AcDbPolyline
 62
253
  6
CONTINUOUS
 90
19
 70
0
 10
-141.6263682685
 20
131.5772702135
 10
-141.643590607
 20
131.5783147683
 10
-141.6606587898
 20
131.5808392175
 10
-141.6774457866
 20
131.5848247727
 10
-141.6938266598
 20
131.5902417715
 10
-141.7096794943
 20
131.5970498976
 10
-141.7248863052
 20
131.6051984815
 10
-141.7393339153
 20
131.614626877
 10
-141.7529147979
 20
131.6252649132
 10
-141.7655278771
 20
131.6370334162
 10
-141.7770792796
 20
131.6498447987
 10
-141.787483034
 20
131.6636037117
 10
-141.7966617099
 20
131.678207754
 10
-141.804546995
 20
131.6935482349
 10
-141.8110802028
 20
131.7095109823
 10
-141.8162127098
 20
131.7259771933
 10
-141.819906317
 20
131.7428243175
 10
-141.8221335349
 20
131.75992697
 10
-141.8228777872
 20
131.7771578639
  0
LWPOLYLINE
  5
4BD
100
AcDbEntity
  8
RACCORDO
100
AcDbPolyline
 62
253
  6
CONTINUOUS
 90
19
 70
0
 10
-140.519387306
 20
131.5580961032
 10
-140.5021649675
 20
131.5570515483
 10
-140.4850967847
 20
131.554527099
 10
-140.4683097879
 20
131.5505415435
 10
-140.4519289147
 20
131.5451245443
 10
-140.4360760801
 20
131.5383164177
 10
-140.4208692693
 20
131.5301678333
 10
-140.4064216592
 20
131.520739437
 10
-140.3928407766
 20
131.5101014001
 10
-140.3802276974
 20
131.4983328962
 10
-140.3686762949
 20
131.4855215129
 10
-140.3582725405
 20
131.471762599
 10
-140.3490938645
 20
131.4571585556
 10
-140.3412085794
 20
131.4418180737
 10
-140.3346753716
 20
131.4258553251
 10
-140.3295428647
 20
131.409389113
 10
-140.3258492574
 20
131.3925419875
 10
-140.3236220396
 20
131.3754393338
 10
-140.3228777872
 20
131.3582084388
  0
LWPOLYLINE
  5
4BE
100
AcDbEntity
  8
RACCORDO
100
AcDbPolyline
 62
253
  6
CONTINUOUS
 90
19
 70
0
 10
-141.6263682685
 20
132.2807545729
 10
-141.6435905463
 20
132.281799489
 10
-141.6606586785
 20
132.2843248114
 10
-141.6774456355
 20
132.2883117477
 10
-141.6938264804
 20
132.2937306275
 10
-141.7096792979
 20
132.3005411227
 10
-141.7248861018
 20
132.308692548
 10
-141.7393337145
 20
132.3181242381
 10
-141.7529146082
 20
132.3287659991
 10
-141.7655277045
 20
132.3405386301
 10
-141.7770791293
 20
132.3533545143
 10
-141.7874829092
 20
132.3671182701
 10
-141.7966616116
 20
132.3817274595
 10
-141.8045469227
 20
132.3970733539
 10
-141.8110801545
 20
132.4130417412
 10
-141.8162126815
 20
132.4295137742
 10
-141.819906304
 20
132.4463668586
 10
-141.8221335315
 20
132.463475565
 10
-141.8228777872
 20
132.4807125612
  0
LWPOLYLINE
  5
4BF
100
AcDbEntity
  8
RACCORDO
100
AcDbPolyline
 62
253
  6
CONTINUOUS
 90
6
 70
0
 10
-171.4072030772
 20
149.9646229556
 10
-171.3933223062
 20
149.9655199792
 10
-171.3776764421
 20
149.9663916209
 10
-171.3603784626
 20
149.9672315869
 10
-171.3415532752
 20
149.9680338116
 10
-171.3213368153
 20
149.9687925023
  0
LINE
  5
4C0
100
AcDbEntity
  8
RACCORDO
100
AcDbLine
 62
253
  6
CONTINUOUS
 10
-171.3213368153
 20
149.9687925023
 11
-171.2773229972
 21
149.9701577219
  0
LINE
  5
4C1
100
AcDbEntity
  8
RACCORDO
100
AcDbLine
 62
253
  6
CONTINUOUS
 10
-171.7068230063
 20
149.8244429507
 11
-171.7205721987
 21
149.8240609605
  0
LINE
  5
4C2
100
AcDbEntity
  8
RACCORDO
100
AcDbLine
 62
253
  6
CONTINUOUS
 10
-171.2773229972
 20
149.9701577219
 11
-171.2296059968
 21
149.9712878843
  0
LINE
  5
4C3
100
AcDbEntity
  8
RACCORDO
100
AcDbLine
 62
253
  6
CONTINUOUS
 10
-171.7205721987
 20
149.8240609605
 11
-171.7535010366
 21
149.8233669633
  0
LINE
  5
4C4
100
AcDbEntity
  8
DRAFT
100
AcDbLine
 62
7
  6
CONTINUOUS
 10
-166.3228777872
 20
145.7817490886
 11
-170.9962282863
 21
145.7001754522
  0
LINE
  5
4C5
100
AcDbEntity
  8
RACCORDO
100
AcDbLine
 62
7
  6
CONTINUOUS
 10
-166.3228777872
 20
157.5997102835
 11
-175.2707331948
 21
157.4435248864
  0
LINE
  5
4C6
100
AcDbEntity
  8
RACCORDO
100
AcDbLine
 62
253
  6
CONTINUOUS
 10
-174.6183449366
 20
157.1625123166
 11
-174.9504814145
 21
157.1567652877
  0
LWPOLYLINE
  5
4C7
100
AcDbEntity
  8
RACCORDO
100
AcDbPolyline
 62
253
  6
CONTINUOUS
 90
3
 70
0
 10
-171.2296059968
 20
149.9712878843
 10
-171.1795615711
 20
149.9721504052
 10
-171.154115976
 20
149.9724732062
  0
LINE
  5
4C8
100
AcDbEntity
  8
RACCORDO
100
AcDbLine
 62
253
  6
CONTINUOUS
 10
-171.7535010366
 20
149.8233669633
 11
-171.792829127
 21
149.8227832426
  0
LINE
  5
4C9
100
AcDbEntity
  8
RACCORDO
100
AcDbLine
 62
253
  6
CONTINUOUS
 10
-171.792829127
 20
149.8227832426
 11
-171.8612078599
 21
149.822151519
  0
LINE
  5
4CA
100
AcDbEntity
  8
RACCORDO
100
AcDbLine
 62
253
  6
CONTINUOUS
 10
-171.8612078599
 20
149.822151519
 11
-171.9367279252
 21
149.8218485313
  0
LINE
  5
4CB
100
AcDbEntity
  8
RACCORDO
100
AcDbLine
 62
253
  6
CONTINUOUS
 10
-166.3228777872
 20
149.9754163074
 11
-171.1541159966
 21
149.9724732476
  0
LINE
  5
4CC
100
AcDbEntity
  8
RACCORDO
100
AcDbLine
 62
253
  6
CONTINUOUS
 10
-171.9367279252
 20
149.8218485313
 11
-172.4714583338
 21
149.8216697186
  0
LINE
  5
4CD
100
AcDbEntity
  8
0
100
AcDbLine
 62
7
  6
CONTINUOUS
 10
-179.0129752397
 20
134.9497102835
 11
-180.3228702245
 21
134.9497102835
  0
LINE
  5
4CE
100
AcDbEntity
  8
ASSI
100
AcDbLine
 62
7
  6
CONTINUOUS
 10
-179.0129752397
 20
134.9497102835
 11
-180.3228702245
 21
134.9497102835
  0
LINE
  5
4CF
100
AcDbEntity
  8
0
100
AcDbLine
 62
7
  6
CONTINUOUS
 10
-163.2728777872
 20
138.9497102835
 11
-140.0228777872
 21
138.9497102835
  0
LINE
  5
4D0
100
AcDbEntity
  8
0
100
AcDbLine
 62
7
  6
CONTINUOUS
 10
-139.6228777872
 20
138.9497102835
 11
-140.0228777872
 21
138.9497102835
  0
LINE
  5
4D1
100
AcDbEntity
  8
0
100
AcDbLine
 62
7
  6
CONTINUOUS
 10
-163.2728777872
 20
142.9497102835
 11
-140.0228777872
 21
142.9497102835
  0
LINE
  5
4D2
100
AcDbEntity
  8
0
100
AcDbLine
 62
7
  6
CONTINUOUS
 10
-139.6228777872
 20
142.9497102835
 11
-140.0228777872
 21
142.9497102835
  0
LINE
  5
4D3
100
AcDbEntity
  8
ELVOX
100
AcDbLine
 62
253
  6
CONTINUOUS
 10
-180.2956816211
 20
145.3144371581
 11
-180.3042068832
 21
145.3144371581
  0
LINE
  5
4D4
100
AcDbEntity
  8
ELVOX
100
AcDbLine
 62
253
  6
CONTINUOUS
 10
-180.2729983279
 20
145.3144371581
 11
-180.2848250857
 21
145.3144371581
  0
LINE
  5
4D5
100
AcDbEntity
  8
ELVOX
100
AcDbLine
 62
253
  6
CONTINUOUS
 10
-180.3073443119
 20
145.3179741079
 11
-180.3218252056
 21
145.3179741079
  0
LINE
  5
4D6
100
AcDbEntity
  8
RACCORDO
100
AcDbLine
 62
7
  6
CONTINUOUS
 10
-166.3228777872
 20
145.6997102835
 11
-171.1116595152
 21
145.6997102835
  0
LINE
  5
4D7
100
AcDbEntity
  8
ASSI
100
AcDbLine
 62
7
  6
CONTINUOUS
 10
-166.3228777872
 20
145.6997102835
 11
-171.1116595152
 21
145.6997102835
  0
LINE
  5
4D8
100
AcDbEntity
  8
RACCORDO
100
AcDbLine
 62
7
  6
CONTINUOUS
 10
-171.6101640469
 20
145.6997102835
 11
-171.7213709403
 21
145.6997102835
  0
LINE
  5
4D9
100
AcDbEntity
  8
0
100
AcDbLine
 62
7
  6
CONTINUOUS
 10
-171.7213709403
 20
145.6997102835
 11
-172.7131775061
 21
145.6997102835
  0
LINE
  5
4DA
100
AcDbEntity
  8
ASSI
100
AcDbLine
 62
7
  6
CONTINUOUS
 10
-171.6101640469
 20
145.6997102835
 11
-172.7131775061
 21
145.6997102835
  0
LINE
  5
4DB
100
AcDbEntity
  8
ELVOX
100
AcDbLine
 62
253
  6
CONTINUOUS
 10
-180.3191924651
 20
145.9628959827
 11
-180.3135928219
 21
145.9628959827
  0
LINE
  5
4DC
100
AcDbEntity
  8
ELVOX
100
AcDbLine
 62
253
  6
CONTINUOUS
 10
-180.3135928216
 20
146.4438313124
 11
-180.3191924649
 21
146.4438313124
  0
LINE
  5
4DD
100
AcDbEntity
  8
ELVOX
100
AcDbLine
 62
253
  6
CONTINUOUS
 10
-180.3218252054
 20
147.0897296599
 11
-180.3073443113
 21
147.0897296599
  0
LINE
  5
4DE
100
AcDbEntity
  8
ELVOX
100
AcDbLine
 62
253
  6
CONTINUOUS
 10
-180.3038568276
 20
147.4553026805
 11
-180.3218579
 21
147.4553026805
  0
LINE
  5
4DF
100
AcDbEntity
  8
ELVOX
100
AcDbLine
 62
253
  6
CONTINUOUS
 10
-180.3225503253
 20
148.1681489749
 11
-180.3072191999
 21
148.1681489749
  0
LINE
  5
4E0
100
AcDbEntity
  8
ELVOX
100
AcDbLine
 62
253
  6
CONTINUOUS
 10
-180.3042083026
 20
148.1681489749
 11
-180.2958023048
 21
148.1681489749
  0
LINE
  5
4E1
100
AcDbEntity
  8
ELVOX
100
AcDbLine
 62
253
  6
CONTINUOUS
 10
-180.2842744892
 20
148.1681489749
 11
-180.2729983251
 21
148.1681489749
  0
LINE
  5
4E2
100
AcDbEntity
  8
RACCORDO
100
AcDbLine
 62
253
  6
CONTINUOUS
 10
-163.2728777872
 20
148.6997102835
 11
-166.3228777872
 21
148.6997102835
  0
LINE
  5
4E3
100
AcDbEntity
  8
0
100
AcDbLine
 62
253
  6
CONTINUOUS
 10
-172.9631775061
 20
149.6997102835
 11
-174.5226100633
 21
149.6997102835
  0
LINE
  5
4E4
100
AcDbEntity
  8
ASSI
100
AcDbLine
 62
253
  6
CONTINUOUS
 10
-172.9631775061
 20
149.6997102835
 11
-174.5226100633
 21
149.6997102835
  0
LINE
  5
4E5
100
AcDbEntity
  8
RACCORDO
100
AcDbLine
 62
7
  6
CONTINUOUS
 10
-163.2728777872
 20
153.6997102835
 11
-166.3228777872
 21
153.6997102835
  0
LINE
  5
4E6
100
AcDbEntity
  8
0
100
AcDbLine
 62
7
  6
CONTINUOUS
 10
-175.8938383523
 20
157.6997102835
 11
-180.3228702245
 21
157.6997102835
  0
LINE
  5
4E7
100
AcDbEntity
  8
ASSI
100
AcDbLine
 62
7
  6
CONTINUOUS
 10
-175.8938383523
 20
157.6997102835
 11
-180.3228702245
 21
157.6997102835
  0
LINE
  5
4E8
100
AcDbEntity
  8
RACCORDO
100
AcDbLine
 62
253
  6
CONTINUOUS
 10
-174.6673640598
 20
156.9917406689
 11
-174.7993045794
 21
156.9917620621
  0
LINE
  5
4E9
100
AcDbEntity
  8
RACCORDO
100
AcDbLine
 62
7
  6
CONTINUOUS
 10
-171.1084470617
 20
145.7004570352
 11
-172.7131775061
 21
145.7144613056
  0
LWPOLYLINE
  5
4EA
100
AcDbEntity
  8
0
100
AcDbPolyline
 62
7
  6
CONTINUOUS
 90
43
 70
0
 10
-177.9648846018
 20
157.6997102835
 10
-177.898787558
 20
157.6958217087
 10
-177.8307571277
 20
157.6841142917
 10
-177.7607933109
 20
157.6645311773
 10
-177.6888184985
 20
157.6370215858
 10
-177.6149102995
 20
157.6015452025
 10
-177.5393015411
 20
157.5580765607
 10
-177.4619137015
 20
157.5065607468
 10
-177.3828253024
 20
157.447009765
 10
-177.302504736
 20
157.3795621347
 10
-177.2209811154
 20
157.3043251759
 10
-177.1382253275
 20
157.2213139528
 10
-177.054618425
 20
157.1305852458
 10
-176.970156607
 20
157.0322318586
 10
-176.8848436744
 20
156.9263187522
 10
-176.7990720825
 20
156.8128551464
 10
-176.7127487294
 20
156.6918154525
 10
-176.625966717
 20
156.5633870018
 10
-176.5393978058
 20
156.4279370166
 10
-176.4530294945
 20
156.2856072275
 10
-176.3668742843
 20
156.1365586581
 10
-176.2816414401
 20
155.9812801552
 10
-176.1973834775
 20
155.8200754222
 10
-176.1140478808
 20
155.6530667672
 10
-176.0321863678
 20
155.4805240695
 10
-175.9518029156
 20
155.3026571858
 10
-175.872893547
 20
155.1197053108
 10
-175.7959980478
 20
154.9320011028
 10
-175.7211104102
 20
154.7397073735
 10
-175.648236642
 20
154.543136869
 10
-175.5779345516
 20
154.3428827793
 10
-175.5102713494
 20
154.1393186602
 10
-175.4451798251
 20
153.9326022605
 10
-175.3830161567
 20
153.7230268959
 10
-175.3238109404
 20
153.5108609513
 10
-175.26753358
 20
153.2963504561
 10
-175.2144484649
 20
153.0797525573
 10
-175.1645900402
 20
152.8613536949
 10
-175.1179238609
 20
152.6413610299
 10
-175.0746109807
 20
152.419902948
 10
-175.0347050843
 20
152.197173913
 10
-174.9981524871
 20
151.9734387495
 10
-174.9504494835
 20
151.6510885836
  0
LWPOLYLINE
  5
4EB
100
AcDbEntity
  8
ASSI
100
AcDbPolyline
 62
7
  6
CONTINUOUS
 90
43
 70
0
 10
-177.9648846018
 20
157.6997102835
 10
-177.898787558
 20
157.6958217087
 10
-177.8307571277
 20
157.6841142917
 10
-177.7607933109
 20
157.6645311773
 10
-177.6888184985
 20
157.6370215858
 10
-177.6149102995
 20
157.6015452025
 10
-177.5393015411
 20
157.5580765607
 10
-177.4619137015
 20
157.5065607468
 10
-177.3828253024
 20
157.447009765
 10
-177.302504736
 20
157.3795621347
 10
-177.2209811154
 20
157.3043251759
 10
-177.1382253275
 20
157.2213139528
 10
-177.054618425
 20
157.1305852458
 10
-176.970156607
 20
157.0322318586
 10
-176.8848436744
 20
156.9263187522
 10
-176.7990720825
 20
156.8128551464
 10
-176.7127487294
 20
156.6918154525
 10
-176.625966717
 20
156.5633870018
 10
-176.5393978058
 20
156.4279370166
 10
-176.4530294945
 20
156.2856072275
 10
-176.3668742843
 20
156.1365586581
 10
-176.2816414401
 20
155.9812801552
 10
-176.1973834775
 20
155.8200754222
 10
-176.1140478808
 20
155.6530667672
 10
-176.0321863678
 20
155.4805240695
 10
-175.9518029156
 20
155.3026571858
 10
-175.872893547
 20
155.1197053108
 10
-175.7959980478
 20
154.9320011028
 10
-175.7211104102
 20
154.7397073735
 10
-175.648236642
 20
154.543136869
 10
-175.5779345516
 20
154.3428827793
 10
-175.5102713494
 20
154.1393186602
 10
-175.4451798251
 20
153.9326022605
 10
-175.3830161567
 20
153.7230268959
 10
-175.3238109404
 20
153.5108609513
 10
-175.26753358
 20
153.2963504561
 10
-175.2144484649
 20
153.0797525573
 10
-175.1645900402
 20
152.8613536949
 10
-175.1179238609
 20
152.6413610299
 10
-175.0746109807
 20
152.419902948
 10
-175.0347050843
 20
152.197173913
 10
-174.9981524871
 20
151.9734387495
 10
-174.9504494835
 20
151.6510885836
  0
ARC
  5
4EC
100
AcDbEntity
  8
0
100
AcDbCircle
 62
7
  6
CONTINUOUS
 10
40.3743290351
 20
149.6997102835
 40
8.0
100
AcDbArc
 50
0.0
 51
90.0
  0
ARC
  5
4ED
100
AcDbEntity
  8
0
100
AcDbCircle
 62
7
  6
CONTINUOUS
 10
40.3743290351
 20
-225.3002897165
 40
8.0
100
AcDbArc
 50
270.0
 51
360.0
  0
ARC
  5
4EE
100
AcDbEntity
  8
0
100
AcDbCircle
 62
7
  6
CONTINUOUS
 10
-43.1256709649
 20
-225.3002897165
 40
8.0
100
AcDbArc
 50
180.0
 51
270.0
  0
ARC
  5
4EF
100
AcDbEntity
  8
0
100
AcDbCircle
 62
7
  6
CONTINUOUS
 10
-43.1256709649
 20
149.6997102835
 40
8.0
100
AcDbArc
 50
90.0
 51
180.0
  0
ARC
  5
4F0
100
AcDbEntity
  8
ASSI
100
AcDbCircle
 62
7
  6
CONTINUOUS
 10
40.3743290351
 20
149.6997102835
 40
8.0
100
AcDbArc
 50
0.0
 51
90.0
  0
ARC
  5
4F1
100
AcDbEntity
  8
ASSI
100
AcDbCircle
 62
7
  6
CONTINUOUS
 10
40.3743290351
 20
-225.3002897165
 40
8.0
100
AcDbArc
 50
270.0
 51
360.0
  0
ARC
  5
4F2
100
AcDbEntity
  8
ASSI
100
AcDbCircle
 62
7
  6
CONTINUOUS
 10
-43.1256709649
 20
-225.3002897165
 40
8.0
100
AcDbArc
 50
180.0
 51
270.0
  0
ARC
  5
4F3
100
AcDbEntity
  8
ASSI
100
AcDbCircle
 62
7
  6
CONTINUOUS
 10
-43.1256709649
 20
149.6997102835
 40
8.0
100
AcDbArc
 50
90.0
 51
180.0
  0
ARC
  5
4F4
100
AcDbEntity
  8
RACCORDO
100
AcDbCircle
 62
7
  6
CONTINUOUS
 10
-160.7228777872
 20
121.849911579
 40
0.6
100
AcDbArc
 50
95.0
 51
180.0
  0
ARC
  5
4F5
100
AcDbEntity
  8
RACCORDO
100
AcDbCircle
 62
7
  6
CONTINUOUS
 10
-142.3228777872
 20
132.4807125612
 40
0.5
100
AcDbArc
 50
0.0
 51
89.0
  0
ARC
  5
4F6
100
AcDbEntity
  8
RACCORDO
100
AcDbCircle
 62
7
  6
CONTINUOUS
 10
-161.6228777872
 20
-208.1182031713
 40
0.3
100
AcDbArc
 50
270.9999931948
 51
359.9996100658
  0
ARC
  5
4F7
100
AcDbEntity
  8
RACCORDO
100
AcDbCircle
 62
7
  6
CONTINUOUS
 10
-141.6228777872
 20
124.5493949503
 40
0.2000000102
100
AcDbArc
 50
91.4999998078
 51
176.6969756031
  0
ARC
  5
4F8
100
AcDbEntity
  8
RACCORDO
100
AcDbCircle
 62
7
  6
CONTINUOUS
 10
-142.0228777872
 20
124.2890061404
 40
0.2
100
AcDbArc
 50
275.0
 51
359.9998042307
  0
ARC
  5
4F9
100
AcDbEntity
  8
RACCORDO
100
AcDbCircle
 62
7
  6
CONTINUOUS
 10
-140.5228777872
 20
132.1753916873
 40
0.2
100
AcDbArc
 50
0.0006047137
 51
89.000009773
  0
ARC
  5
4FA
100
AcDbEntity
  8
RACCORDO
100
AcDbCircle
 62
7
  6
CONTINUOUS
 10
-140.5228777872
 20
124.9783365741
 40
0.2
100
AcDbArc
 50
271.5000002443
 51
0.0000093342
  0
ARC
  5
4FB
100
AcDbEntity
  8
RACCORDO
100
AcDbCircle
 62
7
  6
CONTINUOUS
 10
-141.6228777872
 20
126.0962497361
 40
0.2
100
AcDbArc
 50
180.0
 51
269.0
  0
ARC
  5
4FC
100
AcDbEntity
  8
RACCORDO
100
AcDbCircle
 62
7
  6
CONTINUOUS
 10
-141.6322438489
 20
132.5948429315
 40
0.1999999927
100
AcDbArc
 50
189.3835299468
 51
268.9997905474
  0
ARC
  5
4FD
100
AcDbEntity
  8
RACCORDO
100
AcDbCircle
 62
7
  6
CONTINUOUS
 10
-140.5228777872
 20
125.6769888952
 40
0.199999987
100
AcDbArc
 50
359.9998104323
 51
88.9999966916
  0
ELLIPSE
  5
4FE
100
AcDbEntity
  8
RACCORDO
100
AcDbEllipse
 62
7
  6
CONTINUOUS
 10
10.7302601238
 20
124.458918413
 30
0.0
 11
0.4041952346
 21
-0.3032162724
 31
0.0
 40
0.9895386875
 41
-1.4495269816
 42
-0.9221290792
  0
ELLIPSE
  5
4FF
100
AcDbEntity
  8
RACCORDO
100
AcDbEllipse
 62
7
  6
CONTINUOUS
 10
31.7455786991
 20
128.9709599474
 30
0.0
 11
1.0609832838
 21
1.0609832838
 31
0.0
 40
0.9996954599
 41
-0.7852458701
 42
0.7852458701
  0
ELLIPSE
  5
500
100
AcDbEntity
  8
ELVOX
100
AcDbEllipse
 62
253
  6
CONTINUOUS
 10
304.6771222128
 20
154.6376316963
 30
0.0
 11
-0.0
 21
805.1052143215
 31
0.0
 40
0.602405737
 41
-4.7043533197
 42
-4.7041363556
  0
ELLIPSE
  5
501
100
AcDbEntity
  8
ELVOX
100
AcDbEllipse
 62
253
  6
CONTINUOUS
 10
304.6771222128
 20
147.2584083788
 30
0.0
 11
0.0
 21
782.8762764743
 31
0.0
 40
0.6195104061
 41
1.5696342775
 42
1.5707963268
  0
ELLIPSE
  5
502
100
AcDbEntity
  8
ELVOX
100
AcDbEllipse
 62
253
  6
CONTINUOUS
 10
304.6771222128
 20
145.8437074256
 30
0.0
 11
0.0
 21
785.8433062701
 31
0.0
 40
0.6171713828
 41
1.5687455409
 42
1.5707963268
  0
ELLIPSE
  5
503
100
AcDbEntity
  8
ELVOX
100
AcDbEllipse
 62
253
  6
CONTINUOUS
 10
304.6771222128
 20
155.1818865263
 30
0.0
 11
-0.0
 21
799.3618129563
 31
0.0
 40
0.6067340122
 41
-4.7036146964
 42
-4.7017883426
  0
ELLIPSE
  5
504
100
AcDbEntity
  8
ELVOX
100
AcDbEllipse
 62
253
  6
CONTINUOUS
 10
304.6771222128
 20
138.616244974
 30
0.0
 11
0.0
 21
763.3698089868
 31
0.0
 40
0.6353408195
 41
1.5601956891
 42
1.5620217092
  0
ELLIPSE
  5
505
100
AcDbEntity
  8
ELVOX
100
AcDbEllipse
 62
253
  6
CONTINUOUS
 10
304.6771222128
 20
154.2306540659
 30
0.0
 11
-0.0
 21
711.7906319319
 31
0.0
 40
0.6813801394
 41
-4.7007960778
 42
-4.6998621927
  0
ELLIPSE
  5
506
100
AcDbEntity
  8
ELVOX
100
AcDbEllipse
 62
253
  6
CONTINUOUS
 10
304.6771222128
 20
156.4631835481
 30
0.0
 11
-0.0
 21
777.3779277211
 31
0.0
 40
0.6238921671
 41
-4.6998700612
 42
-4.6980470134
  0
ELLIPSE
  5
507
100
AcDbEntity
  8
ELVOX
100
AcDbEllipse
 62
253
  6
CONTINUOUS
 10
304.6771222128
 20
136.8654107905
 30
0.0
 11
0.0
 21
788.1154226107
 31
0.0
 40
0.6153920937
 41
1.5564543594
 42
1.5582774077
  0
ELLIPSE
  5
508
100
AcDbEntity
  8
ELVOX
100
AcDbEllipse
 62
253
  6
CONTINUOUS
 10
304.6771222128
 20
140.3252817198
 30
0.0
 11
0.0
 21
621.623140664
 31
0.0
 40
0.7802154847
 41
1.5581792364
 42
1.5592730437
  0
ELLIPSE
  5
509
100
AcDbEntity
  8
ELVOX
100
AcDbEllipse
 62
253
  6
CONTINUOUS
 10
304.6771222128
 20
155.6776260706
 30
0.0
 11
-0.0
 21
710.6954400607
 31
0.0
 40
0.682430156
 41
-4.7018224051
 42
-4.7008656973
  0
ELLIPSE
  5
50A
100
AcDbEntity
  8
ELVOX
100
AcDbEllipse
 62
253
  6
CONTINUOUS
 10
304.6771222128
 20
138.2947686302
 30
0.0
 11
0.0
 21
662.8644406445
 31
0.0
 40
0.7316729791
 41
1.5592034242
 42
1.5602062283
  0
ELLIPSE
  5
50B
100
AcDbEntity
  8
ELVOX
100
AcDbEllipse
 62
253
  6
CONTINUOUS
 10
304.6771222128
 20
155.7778011286
 30
0.0
 11
-0.0
 21
939.718205688
 31
0.0
 40
0.5161121675
 41
-4.7037256193
 42
-4.7035324879
  0
ELLIPSE
  5
50C
100
AcDbEntity
  8
ELVOX
100
AcDbEllipse
 62
253
  6
CONTINUOUS
 10
304.6771222128
 20
155.357902892
 30
0.0
 11
-0.0
 21
891.2493162023
 31
0.0
 40
0.5441799407
 41
-4.7039269585
 42
-4.7037256193
  0
ELLIPSE
  5
50D
100
AcDbEntity
  8
ELVOX
100
AcDbEllipse
 62
253
  6
CONTINUOUS
 10
304.6771222128
 20
154.979469429
 30
0.0
 11
-0.0
 21
846.5273826736
 31
0.0
 40
0.5729288974
 41
-4.7041363556
 42
-4.7039269585
  0
ENDSEC
  0
SECTION
  2
OBJECTS
  0
DICTIONARY
  5
C
100
AcDbDictionary
280
0
281
1
  3
ACAD_GROUP
350
D
  3
ACAD_MLINESTYLE
350
17
  3
ACAD_LAYOUT
350
1A
  3
ACAD_PLOTSETTINGS
350
19
  3
ACAD_PLOTSTYLENAME
350
E
  0
DICTIONARY
  5
D
102
{ACAD_REACTORS
330
C
102
}
100
AcDbDictionary
280
0
281
1
  0
ACDBDICTIONARYWDFLT
  5
E
102
{ACAD_REACTORS
330
C
102
}
100
AcDbDictionary
281
1
  3
Normal
350
F
100
AcDbDictionaryWithDefault
340
F
  0
DICTIONARY
  5
17
102
{ACAD_REACTORS
330
C
102
}
100
AcDbDictionary
280
0
281
1
  3
Standard
350
18
  0
DICTIONARY
  5
19
102
{ACAD_REACTORS
330
C
102
}
100
AcDbDictionary
281
1
  0
DICTIONARY
  5
1A
102
{ACAD_REACTORS
330
C
102
}
100
AcDbDictionary
281
1
  3
Model
350
50E
  3
Layout1
350
50F
  0
ACDBPLACEHOLDER
  5
F
102
{ACAD_REACTORS
330
E
102
}
  0
MLINESTYLE
  5
18
102
{ACAD_REACTORS
330
17
102
}
100
AcDbMlineStyle
  2
STANDARD
 70
0
  3

 62
256
 51
90.0
 52
90.0
 71
2
 49
0.5
 62
256
  6
BYLAYER
 49
-0.5
 62
256
  6
BYLAYER
  0
LAYOUT
  5
50E
102
{ACAD_REACTORS
330
1A
102
}
100
AcDbPlotSettings
  1

  2
none_device
  4
ISO_A4_(297.00_x_210.00_MM)
  6

 40
0.0
 41
0.0
 42
0.0
 43
0.0
 44
297.0
 45
210.0
 46
0.0
 47
0.0
 48
0.0
 49
0.0
140
0.0
141
0.0
142
1.0
143
1.0
 70
1024
 72
1
 73
0
 74
0
  7

 75
0
147
1.0
148
0.0
149
0.0
100
AcDbLayout
  1
Model
 70
0
 71
0
 10
0.0
 20
0.0
 11
297.0
 21
210.0
 12
0.0
 22
0.0
 32
0.0
 14
0.0
 24
0.0
 34
0.0
 15
0.0
 25
0.0
 35
0.0
146
0.0
 13
0.0
 23
0.0
 33
0.0
 16
1.0
 26
0.0
 36
0.0
 17
0.0
 27
1.0
 37
0.0
 76
0
330
21C
345
0
346
0
  0
LAYOUT
  5
50F
102
{ACAD_REACTORS
330
1A
102
}
100
AcDbPlotSettings
  1

  2
none_device
  4
ISO_A4_(297.00_x_210.00_MM)
  6

 40
0.0
 41
0.0
 42
0.0
 43
0.0
 44
297.0
 45
210.0
 46
0.0
 47
0.0
 48
0.0
 49
0.0
140
0.0
141
0.0
142
1.0
143
1.0
 70
0
 72
1
 73
0
 74
0
  7

 75
0
147
1.0
148
0.0
149
0.0
100
AcDbLayout
  1
Layout1
 70
0
 71
1
 10
0.0
 20
0.0
 11
297.0
 21
210.0
 12
0.0
 22
0.0
 32
0.0
 14
0.0
 24
0.0
 34
0.0
 15
0.0
 25
0.0
 35
0.0
146
0.0
 13
0.0
 23
0.0
 33
0.0
 16
1.0
 26
0.0
 36
0.0
 17
0.0
 27
1.0
 37
0.0
 76
0
330
21D
345
0
346
0
  0
ENDSEC
  0
EOF
