  0
SECTION
  2
HEADER
  9
$ACADVER
  1
AC1015
  9
$DWGCODEPAGE
  3
ANSI_1252
  9
$EXTMAX
 10
210.0
 20
297.0
 30
0.0
  9
$EXTMIN
 10
0.0
 20
0.0
 30
0.0
  9
$LIMMIN
 10
0.0
 20
0.0
  9
$LIMMAX
 10
210.0
 20
297.0
  9
$VIEWCTR
 10
105.0
 20
148.5
  9
$VIEWSIZE
 40
297.0
  9
$CLAYER
  8
0
  9
$LTSCALE
 40
19.36
  9
$CELTYPE
  6
BYLAYER
  9
$DIMSCALE
 40
1.0
  9
$DIMASZ
 40
3.0
  9
$DIMEXO
 40
0.5
  9
$DIMDLI
 40
13.376
  9
$DIMEXE
 40
1.5
  9
$DIMCEN
 40
3.168
  9
$DIMLFAC
 40
1.0
  9
$DIMBLK
  1
_FILLED
  9
$DIMALT
 70
0
  9
$DIMALTF
 40
0.0393700787
  9
$DIMTXT
 40
3.0
  9
$DIMTOL
 70
1
  9
$DIMLIM
 70
0
  9
$DIMTFAC
 40
1.0
  9
$DIMTP
 40
0.01
  9
$DIMTM
 40
0.01
  9
$DIMGAP
 40
0.625
  9
$DIMDSEP
 70
44
  9
$AUNITS
 70
0
  9
$PDMODE
 70
3
  9
$PDSIZE
 40
3.0
  9
$HANDSEED
  5
52E
  9
$TILEMODE
 70
1
  9
$MEASUREMENT
 70
1
  9
$INSUNITS
 70
4
  0
ENDSEC
  0
SECTION
  2
CLASSES
  0
CLASS
  1
ACDBDICTIONARYWDFLT
  2
AcDbDictionaryWithDefault
  3
AutoCAD 2000
 90
0
280
0
281
0
  0
CLASS
  1
ACDBPLACEHOLDER
  2
AcDbPlaceHolder
  3
AutoCAD 2000
 90
0
280
0
281
0
  0
CLASS
  1
LAYOUT
  2
AcDbLayout
  3
AutoCAD 2000
 90
0
280
0
281
0
  0
ENDSEC
  0
SECTION
  2
TABLES
  0
TABLE
  2
VPORT
  5
8
100
AcDbSymbolTable
 70
2
  0
VPORT
  5
1F4
100
AcDbSymbolTableRecord
100
AcDbViewportTableRecord
  2
*ACTIVE
 70
0
 10
0.0
 20
0.0
 11
1.0
 21
1.0
 12
105.0
 22
148.5
 13
0.0
 23
0.0
 14
1.0
 24
1.0
 15
0.0
 25
0.0
 16
0.0
 26
0.0
 36
1.0
 17
0.0
 27
0.0
 37
0.0
 40
297.0
 41
0.7070707071
 42
50.0
 43
0.0
 44
0.0
 50
0.0
 51
0.0
 71
0
 72
100
 73
1
 74
1
 75
0
 76
0
 77
0
 78
0
  0
ENDTAB
  0
TABLE
  2
LTYPE
  5
5
100
AcDbSymbolTable
 70
6
  0
LTYPE
  5
14
100
AcDbSymbolTableRecord
100
AcDbLinetypeTableRecord
  2
BYBLOCK
 70
0
  3

 72
65
 73
0
 40
0.0
  0
LTYPE
  5
15
100
AcDbSymbolTableRecord
100
AcDbLinetypeTableRecord
  2
BYLAYER
 70
0
  3

 72
65
 73
0
 40
0.0
  0
LTYPE
  5
16
100
AcDbSymbolTableRecord
100
AcDbLinetypeTableRecord
  2
CONTINUOUS
 70
64
  3
Solid line
 72
65
 73
0
 40
0.0
  0
LTYPE
  5
1F5
100
AcDbSymbolTableRecord
100
AcDbLinetypeTableRecord
  2
CENTER
 70
64
  3
____ _ ____ _ ____ _ ____ _ ____ _ ____ _ ____
 72
65
 73
4
 40
0.6
 49
0.375
 74
0
 49
-0.075
 74
0
 49
0.075
 74
0
 49
-0.075
 74
0
  0
LTYPE
  5
1F6
100
AcDbSymbolTableRecord
100
AcDbLinetypeTableRecord
  2
HIDDEN
 70
64
  3
- - - - - - - - - - - - - - - - - - - -
 72
65
 73
2
 40
0.2
 49
0.1
 74
0
 49
-0.1
 74
0
  0
LTYPE
  5
1F7
100
AcDbSymbolTableRecord
100
AcDbLinetypeTableRecord
  2
PHANTOM
 70
64
  3
_____ _ _ _____ _ _ _____ _ _ _____
 72
65
 73
6
 40
0.8
 49
0.45
 74
0
 49
-0.05
 74
0
 49
0.1
 74
0
 49
-0.05
 74
0
 49
0.1
 74
0
 49
-0.05
 74
0
  0
LTYPE
  5
1F8
100
AcDbSymbolTableRecord
100
AcDbLinetypeTableRecord
  2
DOT
 70
64
  3
. . . . . . . . . . . . . . . . . . . .
 72
65
 73
2
 40
0.2
 49
0.1
 74
0
 49
-0.1
 74
0
  0
LTYPE
  5
1F9
100
AcDbSymbolTableRecord
100
AcDbLinetypeTableRecord
  2
DASHED
 70
64
  3
- - - - - - - - - - - - - - - - - - - -
 72
65
 73
2
 40
0.2
 49
0.1
 74
0
 49
-0.1
 74
0
  0
ENDTAB
  0
TABLE
  2
LAYER
  5
2
100
AcDbSymbolTable
 70
36
  0
LAYER
  5
10
100
AcDbSymbolTableRecord
100
AcDbLayerTableRecord
  2
0
 70
0
 62
7
  6
CONTINUOUS
370
-3
390
F
  0
LAYER
  5
1FA
100
AcDbSymbolTableRecord
100
AcDbLayerTableRecord
  2
DEFAULT_1
 70
0
 62
7
  6
CENTER
370
-3
390
F
  0
LAYER
  5
1FB
100
AcDbSymbolTableRecord
100
AcDbLayerTableRecord
  2
DEFAULT_2
 70
0
 62
7
  6
HIDDEN
370
-3
390
F
  0
LAYER
  5
1FC
100
AcDbSymbolTableRecord
100
AcDbLayerTableRecord
  2
DEFAULT_3
 70
0
 62
7
  6
PHANTOM
370
-3
390
F
  0
LAYER
  5
1FD
100
AcDbSymbolTableRecord
100
AcDbLayerTableRecord
  2
ASSI
 70
0
 62
7
  6
CONTINUOUS
370
-3
390
F
  0
LAYER
  5
1FE
100
AcDbSymbolTableRecord
100
AcDbLayerTableRecord
  2
COORDINATE
 70
0
 62
7
  6
CONTINUOUS
370
-3
390
F
  0
LAYER
  5
1FF
100
AcDbSymbolTableRecord
100
AcDbLayerTableRecord
  2
COPY_PUBLISH
 70
0
 62
7
  6
CONTINUOUS
370
-3
390
F
  0
LAYER
  5
200
100
AcDbSymbolTableRecord
100
AcDbLayerTableRecord
  2
COSMETICI
 70
0
 62
7
  6
CONTINUOUS
370
-3
390
F
  0
LAYER
  5
201
100
AcDbSymbolTableRecord
100
AcDbLayerTableRecord
  2
CURVE
 70
0
 62
7
  6
CONTINUOUS
370
-3
390
F
  0
LAYER
  5
202
100
AcDbSymbolTableRecord
100
AcDbLayerTableRecord
  2
DRAFT
 70
0
 62
7
  6
CONTINUOUS
370
-3
390
F
  0
LAYER
  5
203
100
AcDbSymbolTableRecord
100
AcDbLayerTableRecord
  2
IMPORT_IGES
 70
0
 62
7
  6
CONTINUOUS
370
-3
390
F
  0
LAYER
  5
204
100
AcDbSymbolTableRecord
100
AcDbLayerTableRecord
  2
NOTE
 70
0
 62
7
  6
CONTINUOUS
370
-3
390
F
  0
LAYER
  5
205
100
AcDbSymbolTableRecord
100
AcDbLayerTableRecord
  2
PIANI
 70
0
 62
7
  6
CONTINUOUS
370
-3
390
F
  0
LAYER
  5
206
100
AcDbSymbolTableRecord
100
AcDbLayerTableRecord
  2
PUNTI
 70
0
 62
7
  6
CONTINUOUS
370
-3
390
F
  0
LAYER
  5
207
100
AcDbSymbolTableRecord
100
AcDbLayerTableRecord
  2
RACCORDO
 70
0
 62
7
  6
CONTINUOUS
370
-3
390
F
  0
LAYER
  5
208
100
AcDbSymbolTableRecord
100
AcDbLayerTableRecord
  2
SIMBOLI
 70
0
 62
7
  6
CONTINUOUS
370
-3
390
F
  0
LAYER
  5
209
100
AcDbSymbolTableRecord
100
AcDbLayerTableRecord
  2
SMUSSO
 70
0
 62
7
  6
CONTINUOUS
370
-3
390
F
  0
LAYER
  5
20A
100
AcDbSymbolTableRecord
100
AcDbLayerTableRecord
  2
SNAPLINE
 70
0
 62
7
  6
CONTINUOUS
370
-3
390
F
  0
LAYER
  5
20B
100
AcDbSymbolTableRecord
100
AcDbLayerTableRecord
  2
SUPERFICI
 70
0
 62
7
  6
CONTINUOUS
370
-3
390
F
  0
LAYER
  5
20C
100
AcDbSymbolTableRecord
100
AcDbLayerTableRecord
  2
TRASH
 70
0
 62
7
  6
CONTINUOUS
370
-3
390
F
  0
ENDTAB
  0
TABLE
  2
STYLE
  5
3
100
AcDbSymbolTable
 70
1
  0
STYLE
  5
11
100
AcDbSymbolTableRecord
100
AcDbTextStyleTableRecord
  2
STANDARD
 70
0
 40
0.0
 41
0.8
 50
0.0
 71
0
 42
0.2
  3
txt
  4

  0
STYLE
  5
20D
100
AcDbSymbolTableRecord
100
AcDbTextStyleTableRecord
  2
TEXTSTYLE_1
 70
0
 40
0.0
 41
0.8
 50
0.0
 71
0
 42
0.2
  3
gdt
  4

  0
ENDTAB
  0
TABLE
  2
VIEW
  5
6
100
AcDbSymbolTable
 70
0
  0
ENDTAB
  0
TABLE
  2
UCS
  5
7
100
AcDbSymbolTable
 70
0
  0
ENDTAB
  0
TABLE
  2
APPID
  5
9
100
AcDbSymbolTable
 70
1
  0
APPID
  5
20E
100
AcDbSymbolTableRecord
100
AcDbRegAppTableRecord
  2
ACAD
 70
0
  0
ENDTAB
  0
TABLE
  2
BLOCK_RECORD
  5
1
100
AcDbSymbolTable
 70
0
  0
BLOCK_RECORD
  5
20F
100
AcDbSymbolTableRecord
100
AcDbBlockTableRecord
  2
*Model_Space
  0
BLOCK_RECORD
  5
210
100
AcDbSymbolTableRecord
100
AcDbBlockTableRecord
  2
*Paper_Space
  0
BLOCK_RECORD
  5
211
100
AcDbSymbolTableRecord
100
AcDbBlockTableRecord
  2
_FILLED
  0
BLOCK_RECORD
  5
212
100
AcDbSymbolTableRecord
100
AcDbBlockTableRecord
  2
*D0
  0
BLOCK_RECORD
  5
213
100
AcDbSymbolTableRecord
100
AcDbBlockTableRecord
  2
*D1
  0
BLOCK_RECORD
  5
214
100
AcDbSymbolTableRecord
100
AcDbBlockTableRecord
  2
*D2
  0
ENDTAB
  0
TABLE
  2
DIMSTYLE
  5
A
100
AcDbSymbolTable
 70
1
100
AcDbDimStyleTable
 71
0
  0
DIMSTYLE
105
215
100
AcDbSymbolTableRecord
100
AcDbDimStyleTableRecord
  2
STANDARD
 70
0
  3

  4

 40
1.0
 41
3.0
 42
0.5
 43
0.38
 44
1.5
 45
0.0
 46
0.0
 47
0.01
 48
0.01
140
3.0
141
0.09
142
0.0
143
25.4
144
1.0
145
0.0
146
1.0
147
0.625
 71
1.0
 72
0.0
 73
0
 74
0
 75
0
 76
0
 77
1
 78
8
170
0
171
2
172
0
173
0
174
0
175
0
176
0
177
0
178
0
270
2
271
2
272
2
273
2
274
2
275
0
280
0
281
0
282
0
283
1
284
8
285
0
286
0
287
3
288
0
340
11
278
44
341
211
342
211
343
211
344
211
  0
DIMSTYLE
105
216
100
AcDbSymbolTableRecord
100
AcDbDimStyleTableRecord
  2
DIMSTYLE_1
 70
0
  3

  4

 40
1.0
 41
3.0
 42
0.5
 43
0.38
 44
1.5
 45
0.0
 46
0.0
 47
0.0
 48
0.0
140
3.0
141
0.09
142
0.0
143
25.4
144
1.0
145
0.0
146
1.0
147
0.75
 71
0.0
 72
0.0
 73
0
 74
0
 75
0
 76
0
 77
1
 78
8
170
0
171
2
172
0
173
0
174
0
175
0
176
0
177
0
178
0
270
2
271
2
272
2
273
2
274
2
275
0
280
0
281
0
282
0
283
1
284
8
285
0
286
0
287
3
288
0
340
11
278
44
341
211
342
211
343
211
344
211
  0
DIMSTYLE
105
217
100
AcDbSymbolTableRecord
100
AcDbDimStyleTableRecord
  2
DIMSTYLE_2
 70
0
  3

  4

 40
1.0
 41
3.0
 42
0.5
 43
0.38
 44
1.5
 45
0.0
 46
0.0
 47
0.0
 48
0.0
140
3.0
141
0.09
142
0.0
143
25.4
144
1.0
145
0.0
146
1.0
147
0.75
 71
0.0
 72
0.0
 73
0
 74
0
 75
0
 76
0
 77
1
 78
8
170
0
171
2
172
0
173
0
174
0
175
0
176
0
177
0
178
0
270
2
271
1
272
1
273
2
274
2
275
0
280
0
281
0
282
0
283
1
284
8
285
0
286
0
287
3
288
0
340
11
278
44
341
211
342
211
343
211
344
211
  0
ENDTAB
  0
ENDSEC
  0
SECTION
  2
BLOCKS
  0
BLOCK
  5
20
100
AcDbEntity
  8
0
100
AcDbBlockBegin
  2
*Model_Space
 70
0
 10
0.0
 20
0.0
 30
0.0
  3
*Model_Space
  1

  0
ENDBLK
  5
21
100
AcDbEntity
  8
0
100
AcDbBlockEnd
  0
BLOCK
  5
1C
100
AcDbEntity
  8
0
100
AcDbBlockBegin
  2
*Paper_Space
 70
0
 10
0.0
 20
0.0
 30
0.0
  3
*Paper_Space
  1

  0
ENDBLK
  5
1D
100
AcDbEntity
  8
0
100
AcDbBlockEnd
  0
BLOCK
  5
218
100
AcDbEntity
  8
0
100
AcDbBlockBegin
  2
_FILLED
 70
64
 10
0.0
 20
0.0
  3
_FILLED
  1

  0
SOLID
  5
219
100
AcDbEntity
  8
0
  6
BYBLOCK
 62
0
100
AcDbTrace
 10
0.0
 20
0.0
 11
-1.0
 21
0.3166666667
 12
-1.0
 22
-0.3166666667
 13
-1.0
 23
-0.3166666667
  0
ENDBLK
  5
21A
100
AcDbEntity
  8
0
  6
BYBLOCK
 62
0
100
AcDbBlockEnd
  0
BLOCK
  5
21B
100
AcDbEntity
  8
0
100
AcDbBlockBegin
 62
7
  6
CONTINUOUS
  2
*D0
 70
65
 10
0.0
 20
0.0
  3
*D0
  1

  0
MTEXT
  5
21C
100
AcDbEntity
  8
0
100
AcDbMText
 62
7
  6
CONTINUOUS
  7
STANDARD
 71
2
 72
1
 10
13.8960909168
 20
-5.6736403439
 30
0.0
 11
0.0
 21
1.0
 31
0.0
 44
0.9
  1
248,3
 40
3.0
 41
16.3928571429
  0
LINE
  5
21D
100
AcDbEntity
  8
0
100
AcDbLine
 62
7
  6
CONTINUOUS
 10
2.0349707657
 20
-47.2882971343
 11
19.1460909168
 21
-47.2882971343
  0
LINE
  5
21E
100
AcDbEntity
  8
0
100
AcDbLine
 62
7
  6
CONTINUOUS
 10
2.0349707657
 20
35.9410164464
 11
19.1460909168
 21
35.9410164464
  0
LINE
  5
21F
100
AcDbEntity
  8
0
100
AcDbLine
 62
7
  6
CONTINUOUS
 10
17.6460909168
 20
-47.2882971343
 11
17.6460909168
 21
-5.6736403439
  0
LINE
  5
220
100
AcDbEntity
  8
0
100
AcDbLine
 62
7
  6
CONTINUOUS
 10
17.6460909168
 20
35.9410164464
 11
17.6460909168
 21
-5.6736403439
  0
INSERT
  5
221
100
AcDbEntity
  8
0
100
AcDbBlockReference
 62
7
  6
CONTINUOUS
  2
_FILLED
 10
17.6460909168
 20
-47.2882971343
 41
3.0
 42
3.0
 43
3.0
 50
270.0
  0
INSERT
  5
222
100
AcDbEntity
  8
0
100
AcDbBlockReference
 62
7
  6
CONTINUOUS
  2
_FILLED
 10
17.6460909168
 20
35.9410164464
 41
3.0
 42
3.0
 43
3.0
 50
90.0
  0
ENDBLK
  5
223
100
AcDbEntity
  8
0
  6
BYBLOCK
 62
0
100
AcDbBlockEnd
  0
BLOCK
  5
224
100
AcDbEntity
  8
0
100
AcDbBlockBegin
 62
7
  6
CONTINUOUS
  2
*D1
 70
65
 10
0.0
 20
0.0
  3
*D1
  1

  0
MTEXT
  5
225
100
AcDbEntity
  8
0
100
AcDbMText
 62
7
  6
CONTINUOUS
  7
STANDARD
 71
2
 72
1
 10
-0.3450292343
 20
47.6910164464
 30
0.0
 11
1.0
 21
0.0
 31
0.0
 44
0.9
  1
20
 40
3.0
 41
7.0714285714
  0
LINE
  5
226
100
AcDbEntity
  8
0
100
AcDbLine
 62
7
  6
CONTINUOUS
 10
-10.3361493853
 20
10.3997426496
 11
-10.3361493853
 21
45.4410164464
  0
LINE
  5
227
100
AcDbEntity
  8
0
100
AcDbLine
 62
7
  6
CONTINUOUS
 10
9.6460909168
 20
10.3997426496
 11
9.6460909168
 21
45.4410164464
  0
LINE
  5
228
100
AcDbEntity
  8
0
100
AcDbLine
 62
7
  6
CONTINUOUS
 10
-10.3361493853
 20
43.9410164464
 11
-0.3450292343
 21
43.9410164464
  0
LINE
  5
229
100
AcDbEntity
  8
0
100
AcDbLine
 62
7
  6
CONTINUOUS
 10
9.6460909168
 20
43.9410164464
 11
-0.3450292343
 21
43.9410164464
  0
INSERT
  5
22A
100
AcDbEntity
  8
0
100
AcDbBlockReference
 62
7
  6
CONTINUOUS
  2
_FILLED
 10
-10.3361493853
 20
43.9410164464
 41
3.0
 42
3.0
 43
3.0
 50
180.0
  0
INSERT
  5
22B
100
AcDbEntity
  8
0
100
AcDbBlockReference
 62
7
  6
CONTINUOUS
  2
_FILLED
 10
9.6460909168
 20
43.9410164464
 41
3.0
 42
3.0
 43
3.0
  0
ENDBLK
  5
22C
100
AcDbEntity
  8
0
  6
BYBLOCK
 62
0
100
AcDbBlockEnd
  0
BLOCK
  5
22D
100
AcDbEntity
  8
0
100
AcDbBlockBegin
 62
7
  6
CONTINUOUS
  2
*D2
 70
65
 10
0.0
 20
0.0
  3
*D2
  1

  0
MTEXT
  5
22E
100
AcDbEntity
  8
0
100
AcDbMText
 62
7
  6
CONTINUOUS
  7
STANDARD
 71
2
 72
1
 10
-101.8514424285
 20
-51.5382971343
 30
0.0
 11
1.0
 21
0.0
 31
0.0
 44
0.9
  1
17,4
 40
3.0
 41
12.2142857143
  0
LINE
  5
22F
100
AcDbEntity
  8
0
100
AcDbLine
 62
7
  6
CONTINUOUS
 10
-93.1558823529
 20
-46.8882971343
 11
-93.1558823529
 21
-56.7882971343
  0
LINE
  5
230
100
AcDbEntity
  8
0
100
AcDbLine
 62
7
  6
CONTINUOUS
 10
-110.547002504
 20
-21.7470233375
 11
-110.547002504
 21
-56.7882971343
  0
LINE
  5
231
100
AcDbEntity
  8
0
100
AcDbLine
 62
7
  6
CONTINUOUS
 10
-93.1558823529
 20
-55.2882971343
 11
-101.8514424285
 21
-55.2882971343
  0
LINE
  5
232
100
AcDbEntity
  8
0
100
AcDbLine
 62
7
  6
CONTINUOUS
 10
-110.547002504
 20
-55.2882971343
 11
-101.8514424285
 21
-55.2882971343
  0
INSERT
  5
233
100
AcDbEntity
  8
0
100
AcDbBlockReference
 62
7
  6
CONTINUOUS
  2
_FILLED
 10
-93.1558823529
 20
-55.2882971343
 41
3.0
 42
3.0
 43
3.0
  0
INSERT
  5
234
100
AcDbEntity
  8
0
100
AcDbBlockReference
 62
7
  6
CONTINUOUS
  2
_FILLED
 10
-110.547002504
 20
-55.2882971343
 41
3.0
 42
3.0
 43
3.0
 50
180.0
  0
ENDBLK
  5
235
100
AcDbEntity
  8
0
  6
BYBLOCK
 62
0
100
AcDbBlockEnd
  0
ENDSEC
  0
SECTION
  2
ENTITIES
  0
DIMENSION
  5
236
100
AcDbEntity
  8
0
100
AcDbDimension
 62
7
  6
CONTINUOUS
  2
*D0
 10
17.6460909168
 20
35.9410164464
 11
17.6460909168
 21
-6.1022142407
 70
160
 71
2
 42
248.3
  3
DIMSTYLE_1
100
AcDbAlignedDimension
 13
1.5349707657
 23
-47.2882971343
 14
1.5349707657
 24
35.9410164464
 50
90.0
100
AcDbRotatedDimension
  0
DIMENSION
  5
237
100
AcDbEntity
  8
0
100
AcDbDimension
 62
7
  6
CONTINUOUS
  2
*D1
 10
9.6460909168
 20
43.9410164464
 11
-0.7735991211
 21
43.9410164464
 70
160
 71
2
 42
19.9822403022
  3
DIMSTYLE_2
100
AcDbAlignedDimension
 13
-10.3361493853
 23
9.8997426496
 14
9.6460909168
 24
9.8997426496
100
AcDbRotatedDimension
  0
DIMENSION
  5
238
100
AcDbEntity
  8
0
100
AcDbDimension
 62
7
  6
CONTINUOUS
  2
*D2
 10
-110.547002504
 20
-55.2882971343
 11
-102.2800133057
 21
-55.2882971343
 70
160
 71
2
 42
17.3911201511
  3
DIMSTYLE_2
100
AcDbAlignedDimension
 13
-93.1558823529
 23
-46.3882971343
 14
-110.547002504
 24
-21.2470233375
 50
180.0
100
AcDbRotatedDimension
  0
LINE
  5
239
100
AcDbEntity
  8
0
100
AcDbLine
 62
7
  6
CONTINUOUS
 10
0.1243541043
 20
-5.4731177509
 11
2.0702907495
 21
-6.1650740731
  0
LINE
  5
23A
100
AcDbEntity
  8
0
100
AcDbLine
 62
7
  6
CONTINUOUS
 10
-4.9200292343
 20
32.5260164464
 11
-4.5700292343
 21
32.8760164464
  0
LINE
  5
23B
100
AcDbEntity
  8
0
100
AcDbLine
 62
7
  6
CONTINUOUS
 10
-3.7200292343
 20
33.6460164464
 11
-3.3700292343
 21
33.9960164464
  0
LINE
  5
23C
100
AcDbEntity
  8
0
100
AcDbLine
 62
7
  6
CONTINUOUS
 10
-5.2400292343
 20
-1.3758575069
 11
-4.071036503
 21
-1.7940829107
  0
LINE
  5
23D
100
AcDbEntity
  8
0
100
AcDbLine
 62
7
  6
CONTINUOUS
 10
-4.9200292343
 20
29.9860164464
 11
-4.5700292343
 21
30.3360164464
  0
LINE
  5
23E
100
AcDbEntity
  8
0
100
AcDbLine
 62
7
  6
CONTINUOUS
 10
-2.3800292343
 20
32.5260164464
 11
-2.0300292343
 21
32.8760164464
  0
LINE
  5
23F
100
AcDbEntity
  8
0
100
AcDbLine
 62
7
  6
CONTINUOUS
 10
-3.7200292343
 20
31.1060164464
 11
-3.3700292343
 21
31.4560164464
  0
LINE
  5
240
100
AcDbEntity
  8
0
100
AcDbLine
 62
7
  6
CONTINUOUS
 10
-1.1800292343
 20
33.6460164464
 11
-0.8300292343
 21
33.9960164464
  0
LINE
  5
241
100
AcDbEntity
  8
0
100
AcDbLine
 62
7
  6
CONTINUOUS
 10
-1.2993074577
 20
-4.3071370964
 11
0.1243541043
 21
-5.4731177509
  0
LINE
  5
242
100
AcDbEntity
  8
0
100
AcDbLine
 62
7
  6
CONTINUOUS
 10
-4.071036503
 20
-1.7940829107
 11
-2.6901652493
 21
-2.9666786926
  0
LINE
  5
243
100
AcDbEntity
  8
0
100
AcDbLine
 62
7
  6
CONTINUOUS
 10
-2.6901652493
 20
-2.9666786926
 11
-1.2993074577
 21
-4.3071370964
  0
LINE
  5
244
100
AcDbEntity
  8
0
100
AcDbLine
 62
7
  6
CONTINUOUS
 10
-6.2084581207
 20
32.4396036344
 11
-6.1450292343
 21
32.6150523086
  0
LINE
  5
245
100
AcDbEntity
  8
0
100
AcDbLine
 62
7
  6
CONTINUOUS
 10
0.0649707657
 20
34.5410164464
 11
0.4149707657
 21
35.0410164464
  0
LINE
  5
246
100
AcDbEntity
  8
0
100
AcDbLine
 62
7
  6
CONTINUOUS
 10
-2.3800292343
 20
29.9860164464
 11
-2.0300292343
 21
30.3360164464
  0
LINE
  5
247
100
AcDbEntity
  8
0
100
AcDbLine
 62
7
  6
CONTINUOUS
 10
0.1599707657
 20
32.5260164464
 11
0.5099707657
 21
32.8760164464
  0
LINE
  5
248
100
AcDbEntity
  8
0
100
AcDbLine
 62
7
  6
CONTINUOUS
 10
-1.1800292343
 20
31.1060164464
 11
-0.8300292343
 21
31.4560164464
  0
LINE
  5
249
100
AcDbEntity
  8
0
100
AcDbLine
 62
7
  6
CONTINUOUS
 10
1.3599707657
 20
33.6460164464
 11
1.7099707657
 21
33.9960164464
  0
LINE
  5
24A
100
AcDbEntity
  8
RACCORDO
100
AcDbLine
 62
7
  6
CONTINUOUS
 10
-10.3361494105
 20
9.8822916844
 11
-10.3361493853
 21
9.8997426496
  0
LINE
  5
24B
100
AcDbEntity
  8
RACCORDO
100
AcDbLine
 62
253
  6
CONTINUOUS
 10
-9.8362255378
 20
9.3910164464
 11
-9.8362255444
 21
9.8997426498
  0
LINE
  5
24C
100
AcDbEntity
  8
RACCORDO
100
AcDbLine
 62
253
  6
CONTINUOUS
 10
-9.8066433173
 20
11.7910164464
 11
-9.8066433173
 21
11.5945069277
  0
LINE
  5
24D
100
AcDbEntity
  8
RACCORDO
100
AcDbLine
 62
7
  6
CONTINUOUS
 10
-10.3361493853
 20
9.8997426496
 11
-10.3065671648
 21
11.5945069277
  0
LINE
  5
24E
100
AcDbEntity
  8
RACCORDO
100
AcDbLine
 62
253
  6
CONTINUOUS
 10
-9.8362255378
 20
9.8997426496
 11
-9.8066433173
 21
11.5945069277
  0
LINE
  5
24F
100
AcDbEntity
  8
0
100
AcDbLine
 62
7
  6
CONTINUOUS
 10
0.1599707657
 20
29.9860164464
 11
0.5099707657
 21
30.3360164464
  0
LINE
  5
250
100
AcDbEntity
  8
0
100
AcDbLine
 62
7
  6
CONTINUOUS
 10
2.6999707657
 20
32.5260164464
 11
3.0499707657
 21
32.8760164464
  0
LINE
  5
251
100
AcDbEntity
  8
0
100
AcDbLine
 62
7
  6
CONTINUOUS
 10
1.3599707657
 20
31.1060164464
 11
1.7099707657
 21
31.4560164464
  0
LINE
  5
252
100
AcDbEntity
  8
0
100
AcDbLine
 62
7
  6
CONTINUOUS
 10
3.8999707657
 20
33.6460164464
 11
4.2499707657
 21
33.9960164464
  0
LINE
  5
253
100
AcDbEntity
  8
RACCORDO
100
AcDbLine
 62
253
  6
CONTINUOUS
 10
-8.8416753003
 20
11.7910164464
 11
-8.8416753003
 21
11.9875259651
  0
LINE
  5
254
100
AcDbEntity
  8
RACCORDO
100
AcDbLine
 62
253
  6
CONTINUOUS
 10
-8.8013154079
 20
14.7910164464
 11
-8.8013154079
 21
14.2997426496
  0
LINE
  5
255
100
AcDbEntity
  8
RACCORDO
100
AcDbLine
 62
7
  6
CONTINUOUS
 10
-9.3415991478
 20
11.9875259651
 11
-9.3012392555
 21
14.2997426496
  0
LINE
  5
256
100
AcDbEntity
  8
RACCORDO
100
AcDbLine
 62
253
  6
CONTINUOUS
 10
-8.8416753003
 20
11.9875259651
 11
-8.8013154079
 21
14.2997426496
  0
LWPOLYLINE
  5
257
100
AcDbEntity
  8
0
100
AcDbPolyline
 62
7
  6
CONTINUOUS
 90
12
 70
0
 10
-7.2176884605
 20
31.2395516642
 10
-7.2164965881
 20
31.2645953945
 10
-7.2116761762
 20
31.2949688497
 10
-7.203319866
 20
31.3240063977
 10
-7.1912629236
 20
31.3520000828
 10
-7.1750111478
 20
31.3798260383
 10
-7.1545254165
 20
31.4078719555
 10
-7.1298448517
 20
31.4357501431
 10
-7.1005926188
 20
31.4631736601
 10
-7.0666431062
 20
31.4900468594
 10
-7.0281219255
 20
31.5164653882
 10
-6.9850290766
 20
31.5424292464
  0
LINE
  5
258
100
AcDbEntity
  8
0
100
AcDbLine
 62
7
  6
CONTINUOUS
 10
2.6449707657
 20
34.5410164464
 11
2.9949707657
 21
35.0410164464
  0
LINE
  5
259
100
AcDbEntity
  8
0
100
AcDbLine
 62
7
  6
CONTINUOUS
 10
2.6999707657
 20
29.9860164464
 11
3.0499707657
 21
30.3360164464
  0
LINE
  5
25A
100
AcDbEntity
  8
0
100
AcDbLine
 62
7
  6
CONTINUOUS
 10
3.8999707657
 20
31.1060164464
 11
4.2499707657
 21
31.4560164464
  0
LINE
  5
25B
100
AcDbEntity
  8
0
100
AcDbLine
 62
7
  6
CONTINUOUS
 10
-7.6250292343
 20
30.4910164464
 11
-7.6250292343
 21
33.4910164464
  0
LINE
  5
25C
100
AcDbEntity
  8
0
100
AcDbLine
 62
7
  6
CONTINUOUS
 10
-7.2250292343
 20
32.7810164464
 11
-7.2250292343
 21
32.0310164464
  0
LINE
  5
25D
100
AcDbEntity
  8
0
100
AcDbLine
 62
7
  6
CONTINUOUS
 10
-7.2179028072
 20
31.9510164464
 11
-7.2179028072
 21
31.2395516777
  0
LINE
  5
25E
100
AcDbEntity
  8
0
100
AcDbLine
 62
7
  6
CONTINUOUS
 10
-7.1750292343
 20
32.8210164464
 11
-7.1750292343
 21
32.7810164464
  0
LINE
  5
25F
100
AcDbEntity
  8
0
100
AcDbLine
 62
7
  6
CONTINUOUS
 10
-7.1750292343
 20
32.0310164464
 11
-7.1750292343
 21
31.9510164464
  0
LINE
  5
260
100
AcDbEntity
  8
0
100
AcDbLine
 62
7
  6
CONTINUOUS
 10
-7.1750292343
 20
31.2007160643
 11
-7.1750292343
 21
31.1410164464
  0
LINE
  5
261
100
AcDbEntity
  8
0
100
AcDbLine
 62
7
  6
CONTINUOUS
 10
-6.9850292343
 20
31.2009750515
 11
-6.9850292343
 21
31.1410164464
  0
LINE
  5
262
100
AcDbEntity
  8
0
100
AcDbLine
 62
7
  6
CONTINUOUS
 10
-6.9850292343
 20
32.8210164464
 11
-6.9850291248
 21
31.5424292584
  0
LINE
  5
263
100
AcDbEntity
  8
0
100
AcDbLine
 62
7
  6
CONTINUOUS
 10
-6.9454045124
 20
30.6438028509
 11
-6.9454045124
 21
31.1410164464
  0
LINE
  5
264
100
AcDbEntity
  8
0
100
AcDbLine
 62
7
  6
CONTINUOUS
 10
-6.9454045124
 20
32.8410164464
 11
-6.9454045124
 21
33.3382300419
  0
LINE
  5
265
100
AcDbEntity
  8
0
100
AcDbLine
 62
253
  6
CONTINUOUS
 10
-6.7454045124
 20
33.4567018713
 11
-6.7454045124
 21
32.8410164464
  0
LINE
  5
266
100
AcDbEntity
  8
0
100
AcDbLine
 62
253
  6
CONTINUOUS
 10
-6.7454045124
 20
31.1410164464
 11
-6.7454045124
 21
30.5253310214
  0
LWPOLYLINE
  5
267
100
AcDbEntity
  8
0
100
AcDbPolyline
 62
7
  6
CONTINUOUS
 90
3
 70
0
 10
-7.2150355156
 20
31.2007168954
 10
-7.2176163679
 20
31.2331780764
 10
-7.2176884605
 20
31.2395516642
  0
LINE
  5
268
100
AcDbEntity
  8
0
100
AcDbLine
 62
253
  6
CONTINUOUS
 10
-6.3450292343
 20
30.5253310214
 11
-6.3450292343
 21
31.1410164464
  0
LINE
  5
269
100
AcDbEntity
  8
0
100
AcDbLine
 62
253
  6
CONTINUOUS
 10
-6.3450292343
 20
32.8410164464
 11
-6.3450292343
 21
33.4567018713
  0
LINE
  5
26A
100
AcDbEntity
  8
0
100
AcDbLine
 62
7
  6
CONTINUOUS
 10
-6.2084581207
 20
31.5424292584
 11
-6.2084581207
 21
32.4396036344
  0
LINE
  5
26B
100
AcDbEntity
  8
0
100
AcDbLine
 62
7
  6
CONTINUOUS
 10
-6.1450292343
 20
35.0410164464
 11
-6.1450292343
 21
28.9410164464
  0
LINE
  5
26C
100
AcDbEntity
  8
ASSI
100
AcDbLine
 62
7
  6
CONTINUOUS
 10
-5.2400292343
 20
28.9410164464
 11
-5.2400292343
 21
14.7910164464
  0
LINE
  5
26D
100
AcDbEntity
  8
ASSI
100
AcDbLine
 62
7
  6
CONTINUOUS
 10
-5.2400292343
 20
9.3910164464
 11
-5.2400292343
 21
-1.3758575069
  0
LINE
  5
26E
100
AcDbEntity
  8
0
100
AcDbLine
 62
7
  6
CONTINUOUS
 10
-4.9200292343
 20
33.9960164464
 11
-4.9200292343
 21
32.5260164464
  0
LINE
  5
26F
100
AcDbEntity
  8
0
100
AcDbLine
 62
7
  6
CONTINUOUS
 10
-4.9200292343
 20
31.4560164464
 11
-4.9200292343
 21
29.9860164464
  0
LWPOLYLINE
  5
270
100
AcDbEntity
  8
RACCORDO
100
AcDbPolyline
 62
253
  6
CONTINUOUS
 90
5
 70
0
 10
-10.2691215539
 20
9.9029350087
 10
-10.2980512622
 20
9.9024164037
 10
-10.3190820626
 20
9.9017028179
 10
-10.3318542536
 20
9.9008064562
 10
-10.3361493853
 20
9.8997426496
  0
LINE
  5
271
100
AcDbEntity
  8
RACCORDO
100
AcDbLine
 62
253
  6
CONTINUOUS
 10
9.2755323578
 20
9.9017028179
 11
9.1461670693
 21
9.8997426496
  0
LINE
  5
272
100
AcDbEntity
  8
RACCORDO
100
AcDbLine
 62
253
  6
CONTINUOUS
 10
9.39608503
 20
9.9029350087
 11
9.2755323578
 21
9.9017028179
  0
LWPOLYLINE
  5
273
100
AcDbEntity
  8
RACCORDO
100
AcDbPolyline
 62
253
  6
CONTINUOUS
 90
3
 70
0
 10
-10.1896712644
 20
9.9033552823
 10
-10.2327877404
 20
9.9032497627
 10
-10.2691215539
 20
9.9029350087
  0
LINE
  5
274
100
AcDbEntity
  8
RACCORDO
100
AcDbLine
 62
7
  6
CONTINUOUS
 10
9.1461670693
 20
9.3910164464
 11
-9.8362255378
 21
9.3910164464
  0
LINE
  5
275
100
AcDbEntity
  8
RACCORDO
100
AcDbLine
 62
253
  6
CONTINUOUS
 10
9.1461670693
 20
9.8997426496
 11
-9.8362255378
 21
9.8997426496
  0
LINE
  5
276
100
AcDbEntity
  8
RACCORDO
100
AcDbLine
 62
253
  6
CONTINUOUS
 10
-10.0861435196
 20
9.9029350088
 11
-10.1896712644
 21
9.9033552823
  0
LWPOLYLINE
  5
277
100
AcDbEntity
  8
RACCORDO
100
AcDbPolyline
 62
253
  6
CONTINUOUS
 90
4
 70
0
 10
9.5790630732
 20
9.9029350088
 10
9.5427292585
 20
9.9032497628
 10
9.4996127814
 20
9.9033552823
 10
9.39608503
 20
9.9029350087
  0
LINE
  5
278
100
AcDbEntity
  8
RACCORDO
100
AcDbLine
 62
253
  6
CONTINUOUS
 10
-9.9655908444
 20
9.9017028181
 11
-10.0861435196
 21
9.9029350088
  0
LINE
  5
279
100
AcDbEntity
  8
RACCORDO
100
AcDbLine
 62
253
  6
CONTINUOUS
 10
-9.8362255378
 20
9.8997426496
 11
-9.9655908444
 21
9.9017028181
  0
LINE
  5
27A
100
AcDbEntity
  8
0
100
AcDbLine
 62
7
  6
CONTINUOUS
 10
-4.5700292343
 20
33.6460164464
 11
-4.5700292343
 21
32.8760164464
  0
LINE
  5
27B
100
AcDbEntity
  8
0
100
AcDbLine
 62
7
  6
CONTINUOUS
 10
-4.5700292343
 20
31.1060164464
 11
-4.5700292343
 21
30.3360164464
  0
LINE
  5
27C
100
AcDbEntity
  8
ASSI
100
AcDbLine
 62
253
  6
CONTINUOUS
 10
-4.5000584685
 20
28.9410164464
 11
-4.5000584685
 21
14.7910164464
  0
LINE
  5
27D
100
AcDbEntity
  8
ASSI
100
AcDbLine
 62
253
  6
CONTINUOUS
 10
-4.5000584685
 20
9.3910164464
 11
-4.5000584685
 21
-1.6405936032
  0
LINE
  5
27E
100
AcDbEntity
  8
ASSI
100
AcDbLine
 62
253
  6
CONTINUOUS
 10
-4.2423066767
 20
28.9410164464
 11
-4.2423066767
 21
14.7910164464
  0
LINE
  5
27F
100
AcDbEntity
  8
ASSI
100
AcDbLine
 62
253
  6
CONTINUOUS
 10
-4.2423066767
 20
9.3910164464
 11
-4.2423066767
 21
-1.7328083316
  0
LINE
  5
280
100
AcDbEntity
  8
ASSI
100
AcDbLine
 62
253
  6
CONTINUOUS
 10
-4.0677517918
 20
28.9410164464
 11
-4.0677517918
 21
14.7910164464
  0
LINE
  5
281
100
AcDbEntity
  8
ASSI
100
AcDbLine
 62
253
  6
CONTINUOUS
 10
-4.0677517918
 20
9.3910164464
 11
-4.0677517918
 21
-1.7968721921
  0
LINE
  5
282
100
AcDbEntity
  8
ASSI
100
AcDbLine
 62
253
  6
CONTINUOUS
 10
-3.81
 20
28.9410164464
 11
-3.81
 21
14.7910164464
  0
LINE
  5
283
100
AcDbEntity
  8
ASSI
100
AcDbLine
 62
253
  6
CONTINUOUS
 10
-3.81
 20
9.3910164464
 11
-3.81
 21
-2.0157475311
  0
LINE
  5
284
100
AcDbEntity
  8
0
100
AcDbLine
 62
7
  6
CONTINUOUS
 10
-3.7200292343
 20
30.3360164464
 11
-3.7200292343
 21
31.1060164464
  0
LINE
  5
285
100
AcDbEntity
  8
0
100
AcDbLine
 62
7
  6
CONTINUOUS
 10
-3.7200292343
 20
32.8760164464
 11
-3.7200292343
 21
33.6460164464
  0
LINE
  5
286
100
AcDbEntity
  8
0
100
AcDbLine
 62
7
  6
CONTINUOUS
 10
-3.3700292343
 20
29.9860164464
 11
-3.3700292343
 21
31.4560164464
  0
LINE
  5
287
100
AcDbEntity
  8
0
100
AcDbLine
 62
7
  6
CONTINUOUS
 10
-3.3700292343
 20
32.5260164464
 11
-3.3700292343
 21
33.9960164464
  0
LINE
  5
288
100
AcDbEntity
  8
RACCORDO
100
AcDbLine
 62
253
  6
CONTINUOUS
 10
-10.2633178932
 20
11.5956266491
 11
-10.2110746702
 21
11.5958913795
  0
LINE
  5
289
100
AcDbEntity
  8
RACCORDO
100
AcDbLine
 62
253
  6
CONTINUOUS
 10
9.1165848487
 20
11.5945069277
 11
9.4104170613
 21
11.5958913795
  0
LINE
  5
28A
100
AcDbEntity
  8
RACCORDO
100
AcDbLine
 62
253
  6
CONTINUOUS
 10
-9.8066433173
 20
11.5945069277
 11
9.1165848487
 21
11.5945069277
  0
LINE
  5
28B
100
AcDbEntity
  8
RACCORDO
100
AcDbLine
 62
253
  6
CONTINUOUS
 10
9.4104170613
 20
11.5958913795
 11
9.5210470453
 21
11.5958920635
  0
LINE
  5
28C
100
AcDbEntity
  8
RACCORDO
100
AcDbLine
 62
253
  6
CONTINUOUS
 10
-10.2110746702
 20
11.5958913795
 11
-10.0565481489
 21
11.5957850336
  0
LINE
  5
28D
100
AcDbEntity
  8
RACCORDO
100
AcDbLine
 62
253
  6
CONTINUOUS
 10
-10.0565481489
 20
11.5957850336
 11
-9.8066433173
 21
11.5945069277
  0
LWPOLYLINE
  5
28E
100
AcDbEntity
  8
RACCORDO
100
AcDbPolyline
 62
253
  6
CONTINUOUS
 90
6
 70
0
 10
9.5210470453
 20
11.5958920635
 10
9.573289054
 20
11.5956269104
 10
9.5920362129
 20
11.5954144126
 10
9.6055781591
 20
11.5951507131
 10
9.6137655008
 20
11.5948454481
 10
9.6165086963
 20
11.5945069277
  0
LWPOLYLINE
  5
28F
100
AcDbEntity
  8
RACCORDO
100
AcDbPolyline
 62
253
  6
CONTINUOUS
 90
6
 70
0
 10
-9.3415991478
 20
11.9875259651
 10
-9.3388649905
 20
11.9871638885
 10
-9.3306790347
 20
11.9868641963
 10
-9.3171315101
 20
11.9866185752
 10
-9.2983701999
 20
11.9864139905
 10
-9.2460921115
 20
11.9861421174
  0
LINE
  5
290
100
AcDbEntity
  8
ASSI
100
AcDbLine
 62
253
  6
CONTINUOUS
 10
-3.2300584685
 20
28.9410164464
 11
-3.2300584685
 21
14.7910164464
  0
LINE
  5
291
100
AcDbEntity
  8
ASSI
100
AcDbLine
 62
253
  6
CONTINUOUS
 10
-3.2300584685
 20
9.3910164464
 11
-3.2300584685
 21
-2.508217044
  0
LINE
  5
292
100
AcDbEntity
  8
ASSI
100
AcDbLine
 62
253
  6
CONTINUOUS
 10
-2.9723066767
 20
28.9410164464
 11
-2.9723066767
 21
14.7910164464
  0
LINE
  5
293
100
AcDbEntity
  8
ASSI
100
AcDbLine
 62
253
  6
CONTINUOUS
 10
-2.9723066767
 20
9.3910164464
 11
-2.9723066767
 21
-2.727092383
  0
LINE
  5
294
100
AcDbEntity
  8
ASSI
100
AcDbLine
 62
253
  6
CONTINUOUS
 10
-2.7977517918
 20
28.9410164464
 11
-2.7977517918
 21
14.7910164464
  0
LINE
  5
295
100
AcDbEntity
  8
ASSI
100
AcDbLine
 62
253
  6
CONTINUOUS
 10
-2.7977517918
 20
9.3910164464
 11
-2.7977517918
 21
-2.875319324
  0
LINE
  5
296
100
AcDbEntity
  8
ASSI
100
AcDbLine
 62
253
  6
CONTINUOUS
 10
-2.54
 20
28.9410164464
 11
-2.54
 21
14.7910164464
  0
LINE
  5
297
100
AcDbEntity
  8
ASSI
100
AcDbLine
 62
253
  6
CONTINUOUS
 10
-2.54
 20
9.3910164464
 11
-2.54
 21
-3.1114025254
  0
LINE
  5
298
100
AcDbEntity
  8
0
100
AcDbLine
 62
7
  6
CONTINUOUS
 10
-2.3800292343
 20
33.9960164464
 11
-2.3800292343
 21
32.5260164464
  0
LINE
  5
299
100
AcDbEntity
  8
0
100
AcDbLine
 62
7
  6
CONTINUOUS
 10
-2.3800292343
 20
31.4560164464
 11
-2.3800292343
 21
29.9860164464
  0
LINE
  5
29A
100
AcDbEntity
  8
0
100
AcDbLine
 62
7
  6
CONTINUOUS
 10
-2.1650292343
 20
35.0410164464
 11
-2.1650292343
 21
35.9410164464
  0
LINE
  5
29B
100
AcDbEntity
  8
0
100
AcDbLine
 62
7
  6
CONTINUOUS
 10
-2.0300292343
 20
33.6460164464
 11
-2.0300292343
 21
32.8760164464
  0
LINE
  5
29C
100
AcDbEntity
  8
0
100
AcDbLine
 62
7
  6
CONTINUOUS
 10
-2.0300292343
 20
31.1060164464
 11
-2.0300292343
 21
30.3360164464
  0
LINE
  5
29D
100
AcDbEntity
  8
ASSI
100
AcDbLine
 62
253
  6
CONTINUOUS
 10
-1.9600584685
 20
28.9410164464
 11
-1.9600584685
 21
14.7910164464
  0
LINE
  5
29E
100
AcDbEntity
  8
ASSI
100
AcDbLine
 62
253
  6
CONTINUOUS
 10
-1.9600584685
 20
9.3910164464
 11
-1.9600584685
 21
-3.6703291851
  0
LINE
  5
29F
100
AcDbEntity
  8
ASSI
100
AcDbLine
 62
253
  6
CONTINUOUS
 10
-1.7023066767
 20
28.9410164464
 11
-1.7023066767
 21
14.7910164464
  0
LINE
  5
2A0
100
AcDbEntity
  8
ASSI
100
AcDbLine
 62
253
  6
CONTINUOUS
 10
-1.7023066767
 20
9.3910164464
 11
-1.7023066767
 21
-3.9187410338
  0
LWPOLYLINE
  5
2A1
100
AcDbEntity
  8
RACCORDO
100
AcDbPolyline
 62
253
  6
CONTINUOUS
 90
5
 70
0
 10
-10.3065671648
 20
11.5945069277
 10
-10.303820296
 20
11.5948456794
 10
-10.295624219
 20
11.5951509537
 10
-10.2820719116
 20
11.5954144958
 10
-10.2633178932
 20
11.5956266491
  0
LWPOLYLINE
  5
2A2
100
AcDbEntity
  8
RACCORDO
100
AcDbPolyline
 62
253
  6
CONTINUOUS
 90
4
 70
0
 10
8.6271524619
 20
11.9866195989
 10
8.6406643272
 20
11.9868647584
 10
8.6488195676
 20
11.9871640402
 10
8.6515406793
 20
11.9875259651
  0
LINE
  5
2A3
100
AcDbEntity
  8
RACCORDO
100
AcDbLine
 62
253
  6
CONTINUOUS
 10
8.5846429259
 20
11.9862512702
 11
8.6271524619
 21
11.9866195989
  0
LINE
  5
2A4
100
AcDbEntity
  8
RACCORDO
100
AcDbLine
 62
253
  6
CONTINUOUS
 10
-9.0915809576
 20
11.9862512702
 11
-8.8416753003
 21
11.9875259651
  0
LINE
  5
2A5
100
AcDbEntity
  8
RACCORDO
100
AcDbLine
 62
7
  6
CONTINUOUS
 10
-10.1065976258
 20
11.7910164464
 11
9.4165391573
 21
11.7910164464
  0
LINE
  5
2A6
100
AcDbEntity
  8
RACCORDO
100
AcDbLine
 62
253
  6
CONTINUOUS
 10
8.4862318096
 20
11.9860914569
 11
8.5846429259
 21
11.9862512702
  0
LINE
  5
2A7
100
AcDbEntity
  8
RACCORDO
100
AcDbLine
 62
253
  6
CONTINUOUS
 10
-8.8416753003
 20
11.9875259651
 11
8.1516168318
 21
11.9875259651
  0
LINE
  5
2A8
100
AcDbEntity
  8
RACCORDO
100
AcDbLine
 62
253
  6
CONTINUOUS
 10
-9.2460921115
 20
11.9861421174
 11
-9.0915809576
 21
11.9862512702
  0
LINE
  5
2A9
100
AcDbEntity
  8
RACCORDO
100
AcDbLine
 62
253
  6
CONTINUOUS
 10
8.255614607
 20
11.9868641963
 11
8.4862318096
 21
11.9860914569
  0
LINE
  5
2AA
100
AcDbEntity
  8
RACCORDO
100
AcDbLine
 62
253
  6
CONTINUOUS
 10
8.1516168318
 20
11.9875259651
 11
8.255614607
 21
11.9868641963
  0
LWPOLYLINE
  5
2AB
100
AcDbEntity
  8
RACCORDO
100
AcDbPolyline
 62
253
  6
CONTINUOUS
 90
5
 70
0
 10
9.6460909168
 20
9.8997426496
 10
9.6417957837
 20
9.9008064563
 10
9.6290235893
 20
9.9017028181
 10
9.6079927846
 20
9.9024164039
 10
9.5790630732
 20
9.9029350088
  0
LINE
  5
2AC
100
AcDbEntity
  8
ASSI
100
AcDbLine
 62
253
  6
CONTINUOUS
 10
-1.5277517918
 20
28.9410164464
 11
-1.5277517918
 21
14.7910164464
  0
LINE
  5
2AD
100
AcDbEntity
  8
ASSI
100
AcDbLine
 62
253
  6
CONTINUOUS
 10
-1.5277517918
 20
9.3910164464
 11
-1.5277517918
 21
-4.0869707148
  0
LINE
  5
2AE
100
AcDbEntity
  8
ASSI
100
AcDbLine
 62
253
  6
CONTINUOUS
 10
-1.27
 20
28.9410164464
 11
-1.27
 21
14.7910164464
  0
LINE
  5
2AF
100
AcDbEntity
  8
ASSI
100
AcDbLine
 62
253
  6
CONTINUOUS
 10
-1.27
 20
9.3910164464
 11
-1.27
 21
-4.3311399421
  0
LINE
  5
2B0
100
AcDbEntity
  8
0
100
AcDbLine
 62
7
  6
CONTINUOUS
 10
-1.1800292343
 20
30.3360164464
 11
-1.1800292343
 21
31.1060164464
  0
LINE
  5
2B1
100
AcDbEntity
  8
0
100
AcDbLine
 62
7
  6
CONTINUOUS
 10
-1.1800292343
 20
32.8760164464
 11
-1.1800292343
 21
33.6460164464
  0
LINE
  5
2B2
100
AcDbEntity
  8
0
100
AcDbLine
 62
7
  6
CONTINUOUS
 10
-1.1650292343
 20
35.9410164464
 11
-1.1650292343
 21
35.0410164464
  0
LINE
  5
2B3
100
AcDbEntity
  8
0
100
AcDbLine
 62
7
  6
CONTINUOUS
 10
-0.8300292343
 20
29.9860164464
 11
-0.8300292343
 21
31.4560164464
  0
LINE
  5
2B4
100
AcDbEntity
  8
0
100
AcDbLine
 62
7
  6
CONTINUOUS
 10
-0.8300292343
 20
32.5260164464
 11
-0.8300292343
 21
33.9960164464
  0
LINE
  5
2B5
100
AcDbEntity
  8
ASSI
100
AcDbLine
 62
253
  6
CONTINUOUS
 10
-0.6900584685
 20
28.9410164464
 11
-0.6900584685
 21
14.7910164464
  0
LINE
  5
2B6
100
AcDbEntity
  8
ASSI
100
AcDbLine
 62
253
  6
CONTINUOUS
 10
-0.6900584685
 20
9.3910164464
 11
-0.6900584685
 21
-4.8061128039
  0
LINE
  5
2B7
100
AcDbEntity
  8
ASSI
100
AcDbLine
 62
253
  6
CONTINUOUS
 10
-0.4323066767
 20
28.9410164464
 11
-0.4323066767
 21
14.7910164464
  0
LINE
  5
2B8
100
AcDbEntity
  8
ASSI
100
AcDbLine
 62
253
  6
CONTINUOUS
 10
-0.4323066767
 20
9.3910164464
 11
-0.4323066767
 21
-5.0172118537
  0
LINE
  5
2B9
100
AcDbEntity
  8
ASSI
100
AcDbLine
 62
253
  6
CONTINUOUS
 10
-0.2577517918
 20
28.9410164464
 11
-0.2577517918
 21
14.7910164464
  0
LINE
  5
2BA
100
AcDbEntity
  8
ASSI
100
AcDbLine
 62
253
  6
CONTINUOUS
 10
-0.2577517918
 20
9.3910164464
 11
-0.2577517918
 21
-5.1601725295
  0
LINE
  5
2BB
100
AcDbEntity
  8
0
100
AcDbLine
 62
7
  6
CONTINUOUS
 10
5.5349707657
 20
31.2010164464
 11
5.6583996522
 21
31.5424292584
  0
LINE
  5
2BC
100
AcDbEntity
  8
RACCORDO
100
AcDbLine
 62
253
  6
CONTINUOUS
 10
8.1112569394
 20
14.2997426496
 11
8.2406222279
 21
14.3017028179
  0
LINE
  5
2BD
100
AcDbEntity
  8
RACCORDO
100
AcDbLine
 62
253
  6
CONTINUOUS
 10
8.2406222279
 20
14.3017028179
 11
8.3611749002
 21
14.3029350087
  0
LWPOLYLINE
  5
2BE
100
AcDbEntity
  8
RACCORDO
100
AcDbPolyline
 62
253
  6
CONTINUOUS
 90
8
 70
0
 10
8.3611749002
 20
14.3029350087
 10
8.4647026516
 20
14.3033552823
 10
8.5078191286
 20
14.3032497628
 10
8.5441529433
 20
14.3029350088
 10
8.5730826548
 20
14.3024164039
 10
8.5941134594
 20
14.3017028181
 10
8.6068856538
 20
14.3008064563
 10
8.611180787
 20
14.2997426496
  0
LINE
  5
2BF
100
AcDbEntity
  8
RACCORDO
100
AcDbLine
 62
253
  6
CONTINUOUS
 10
-8.8013154079
 20
14.2997426496
 11
8.1112569394
 21
14.2997426496
  0
LINE
  5
2C0
100
AcDbEntity
  8
RACCORDO
100
AcDbLine
 62
7
  6
CONTINUOUS
 10
-8.8013154079
 20
14.7910164464
 11
8.1112569394
 21
14.7910164464
  0
LINE
  5
2C1
100
AcDbEntity
  8
RACCORDO
100
AcDbLine
 62
253
  6
CONTINUOUS
 10
-9.1547611345
 20
14.3033552823
 11
-9.0512333898
 21
14.3029350088
  0
LINE
  5
2C2
100
AcDbEntity
  8
RACCORDO
100
AcDbLine
 62
253
  6
CONTINUOUS
 10
-9.0512333898
 20
14.3029350088
 11
-8.9306807145
 21
14.3017028181
  0
LINE
  5
2C3
100
AcDbEntity
  8
RACCORDO
100
AcDbLine
 62
253
  6
CONTINUOUS
 10
-8.9306807145
 20
14.3017028181
 11
-8.8013154079
 21
14.2997426496
  0
LINE
  5
2C4
100
AcDbEntity
  8
ASSI
100
AcDbLine
 62
253
  6
CONTINUOUS
 10
0.0
 20
28.9410164464
 11
0.0
 21
14.7910164464
  0
LINE
  5
2C5
100
AcDbEntity
  8
ASSI
100
AcDbLine
 62
253
  6
CONTINUOUS
 10
0.0
 20
9.3910164464
 11
0.0
 21
-5.3712715792
  0
LINE
  5
2C6
100
AcDbEntity
  8
0
100
AcDbLine
 62
7
  6
CONTINUOUS
 10
0.1599707657
 20
33.9960164464
 11
0.1599707657
 21
32.5260164464
  0
LINE
  5
2C7
100
AcDbEntity
  8
0
100
AcDbLine
 62
7
  6
CONTINUOUS
 10
0.1599707657
 20
31.4560164464
 11
0.1599707657
 21
29.9860164464
  0
LINE
  5
2C8
100
AcDbEntity
  8
0
100
AcDbLine
 62
7
  6
CONTINUOUS
 10
0.5099707657
 20
33.6460164464
 11
0.5099707657
 21
32.8760164464
  0
LINE
  5
2C9
100
AcDbEntity
  8
0
100
AcDbLine
 62
7
  6
CONTINUOUS
 10
0.5099707657
 20
31.1060164464
 11
0.5099707657
 21
30.3360164464
  0
LINE
  5
2CA
100
AcDbEntity
  8
0
100
AcDbLine
 62
7
  6
CONTINUOUS
 10
0.5349707657
 20
35.0410164464
 11
0.5349707657
 21
35.9410164464
  0
LINE
  5
2CB
100
AcDbEntity
  8
ASSI
100
AcDbLine
 62
253
  6
CONTINUOUS
 10
0.5799415315
 20
28.9410164464
 11
0.5799415315
 21
14.7910164464
  0
LINE
  5
2CC
100
AcDbEntity
  8
ASSI
100
AcDbLine
 62
253
  6
CONTINUOUS
 10
0.5799415315
 20
9.3910164464
 11
0.5799415315
 21
-5.6351202505
  0
LINE
  5
2CD
100
AcDbEntity
  8
ASSI
100
AcDbLine
 62
253
  6
CONTINUOUS
 10
0.8376933233
 20
28.9410164464
 11
0.8376933233
 21
14.7910164464
  0
LINE
  5
2CE
100
AcDbEntity
  8
ASSI
100
AcDbLine
 62
253
  6
CONTINUOUS
 10
0.8376933233
 20
9.3910164464
 11
0.8376933233
 21
-5.7267743042
  0
LINE
  5
2CF
100
AcDbEntity
  8
ASSI
100
AcDbLine
 62
253
  6
CONTINUOUS
 10
1.0122482082
 20
28.9410164464
 11
1.0122482082
 21
14.7910164464
  0
LINE
  5
2D0
100
AcDbEntity
  8
ASSI
100
AcDbLine
 62
253
  6
CONTINUOUS
 10
1.0122482082
 20
9.3910164464
 11
1.0122482082
 21
-5.7888443395
  0
LINE
  5
2D1
100
AcDbEntity
  8
ASSI
100
AcDbLine
 62
253
  6
CONTINUOUS
 10
1.27
 20
28.9410164464
 11
1.27
 21
14.7910164464
  0
LINE
  5
2D2
100
AcDbEntity
  8
ASSI
100
AcDbLine
 62
253
  6
CONTINUOUS
 10
1.27
 20
9.3910164464
 11
1.27
 21
-5.8804983933
  0
LINE
  5
2D3
100
AcDbEntity
  8
0
100
AcDbLine
 62
7
  6
CONTINUOUS
 10
1.3599707657
 20
30.3360164464
 11
1.3599707657
 21
31.1060164464
  0
LINE
  5
2D4
100
AcDbEntity
  8
0
100
AcDbLine
 62
7
  6
CONTINUOUS
 10
1.3599707657
 20
32.8760164464
 11
1.3599707657
 21
33.6460164464
  0
LINE
  5
2D5
100
AcDbEntity
  8
0
100
AcDbLine
 62
7
  6
CONTINUOUS
 10
-6.2084581164
 20
31.5424292464
 11
-6.1450292343
 21
31.3669805841
  0
LINE
  5
2D6
100
AcDbEntity
  8
0
100
AcDbLine
 62
7
  6
CONTINUOUS
 10
1.5349707657
 20
35.9410164464
 11
1.5349707657
 21
35.0410164464
  0
LINE
  5
2D7
100
AcDbEntity
  8
0
100
AcDbLine
 62
7
  6
CONTINUOUS
 10
1.7099707657
 20
29.9860164464
 11
1.7099707657
 21
31.4560164464
  0
LINE
  5
2D8
100
AcDbEntity
  8
0
100
AcDbLine
 62
7
  6
CONTINUOUS
 10
1.7099707657
 20
32.5260164464
 11
1.7099707657
 21
33.9960164464
  0
LINE
  5
2D9
100
AcDbEntity
  8
ASSI
100
AcDbLine
 62
253
  6
CONTINUOUS
 10
1.8499415315
 20
28.9410164464
 11
1.8499415315
 21
14.7910164464
  0
LINE
  5
2DA
100
AcDbEntity
  8
ASSI
100
AcDbLine
 62
253
  6
CONTINUOUS
 10
1.8499415315
 20
9.3910164464
 11
1.8499415315
 21
-6.0867200142
  0
LINE
  5
2DB
100
AcDbEntity
  8
ASSI
100
AcDbLine
 62
253
  6
CONTINUOUS
 10
2.1076933233
 20
28.9410164464
 11
2.1076933233
 21
14.7910164464
  0
LINE
  5
2DC
100
AcDbEntity
  8
ASSI
100
AcDbLine
 62
253
  6
CONTINUOUS
 10
2.1076933233
 20
9.3910164464
 11
2.1076933233
 21
-6.1480697078
  0
LINE
  5
2DD
100
AcDbEntity
  8
ASSI
100
AcDbLine
 62
253
  6
CONTINUOUS
 10
2.2822482082
 20
28.9410164464
 11
2.2822482082
 21
14.7910164464
  0
LINE
  5
2DE
100
AcDbEntity
  8
ASSI
100
AcDbLine
 62
253
  6
CONTINUOUS
 10
2.2822482082
 20
9.3910164464
 11
2.2822482082
 21
-6.0687116657
  0
LINE
  5
2DF
100
AcDbEntity
  8
ASSI
100
AcDbLine
 62
253
  6
CONTINUOUS
 10
2.54
 20
28.9410164464
 11
2.54
 21
14.7910164464
  0
LINE
  5
2E0
100
AcDbEntity
  8
ASSI
100
AcDbLine
 62
253
  6
CONTINUOUS
 10
2.54
 20
9.3910164464
 11
2.54
 21
-5.95152974
  0
LINE
  5
2E1
100
AcDbEntity
  8
0
100
AcDbLine
 62
7
  6
CONTINUOUS
 10
2.6999707657
 20
33.9960164464
 11
2.6999707657
 21
32.5260164464
  0
LINE
  5
2E2
100
AcDbEntity
  8
0
100
AcDbLine
 62
7
  6
CONTINUOUS
 10
2.6999707657
 20
31.4560164464
 11
2.6999707657
 21
29.9860164464
  0
LWPOLYLINE
  5
2E3
100
AcDbEntity
  8
RACCORDO
100
AcDbPolyline
 62
253
  6
CONTINUOUS
 90
7
 70
0
 10
-9.3012392555
 20
14.2997426496
 10
-9.2969441237
 20
14.3008064562
 10
-9.2841719328
 20
14.3017028179
 10
-9.2631411323
 20
14.3024164037
 10
-9.234211424
 20
14.3029350087
 10
-9.1978776106
 20
14.3032497627
 10
-9.1547611345
 20
14.3033552823
  0
LINE
  5
2E4
100
AcDbEntity
  8
0
100
AcDbLine
 62
7
  6
CONTINUOUS
 10
3.0499707657
 20
33.6460164464
 11
3.0499707657
 21
32.8760164464
  0
LINE
  5
2E5
100
AcDbEntity
  8
0
100
AcDbLine
 62
7
  6
CONTINUOUS
 10
3.0499707657
 20
31.1060164464
 11
3.0499707657
 21
30.3360164464
  0
LINE
  5
2E6
100
AcDbEntity
  8
ASSI
100
AcDbLine
 62
253
  6
CONTINUOUS
 10
3.1199415315
 20
28.9410164464
 11
3.1199415315
 21
14.7910164464
  0
LINE
  5
2E7
100
AcDbEntity
  8
ASSI
100
AcDbLine
 62
253
  6
CONTINUOUS
 10
3.1199415315
 20
9.3910164464
 11
3.1199415315
 21
-5.6878704071
  0
LINE
  5
2E8
100
AcDbEntity
  8
ASSI
100
AcDbLine
 62
253
  6
CONTINUOUS
 10
3.3776933233
 20
28.9410164464
 11
3.3776933233
 21
14.7910164464
  0
LINE
  5
2E9
100
AcDbEntity
  8
ASSI
100
AcDbLine
 62
253
  6
CONTINUOUS
 10
3.3776933233
 20
9.3910164464
 11
3.3776933233
 21
-5.5706884814
  0
LINE
  5
2EA
100
AcDbEntity
  8
ASSI
100
AcDbLine
 62
253
  6
CONTINUOUS
 10
3.5522482082
 20
28.9410164464
 11
3.5522482082
 21
14.7910164464
  0
LINE
  5
2EB
100
AcDbEntity
  8
ASSI
100
AcDbLine
 62
253
  6
CONTINUOUS
 10
3.5522482082
 20
9.3910164464
 11
3.5522482082
 21
-5.4913304392
  0
LINE
  5
2EC
100
AcDbEntity
  8
ASSI
100
AcDbLine
 62
253
  6
CONTINUOUS
 10
3.81
 20
28.9410164464
 11
3.81
 21
14.7910164464
  0
LINE
  5
2ED
100
AcDbEntity
  8
ASSI
100
AcDbLine
 62
253
  6
CONTINUOUS
 10
3.81
 20
9.3910164464
 11
3.81
 21
-5.3741485135
  0
LINE
  5
2EE
100
AcDbEntity
  8
0
100
AcDbLine
 62
7
  6
CONTINUOUS
 10
3.8999707657
 20
30.3360164464
 11
3.8999707657
 21
31.1060164464
  0
LINE
  5
2EF
100
AcDbEntity
  8
0
100
AcDbLine
 62
7
  6
CONTINUOUS
 10
3.8999707657
 20
32.8760164464
 11
3.8999707657
 21
33.6460164464
  0
LINE
  5
2F0
100
AcDbEntity
  8
0
100
AcDbLine
 62
7
  6
CONTINUOUS
 10
4.2499707657
 20
29.9860164464
 11
4.2499707657
 21
31.4560164464
  0
LINE
  5
2F1
100
AcDbEntity
  8
0
100
AcDbLine
 62
7
  6
CONTINUOUS
 10
4.2499707657
 20
32.5260164464
 11
4.2499707657
 21
33.9960164464
  0
LINE
  5
2F2
100
AcDbEntity
  8
ASSI
100
AcDbLine
 62
7
  6
CONTINUOUS
 10
4.5499707658
 20
28.9410164464
 11
4.5499707658
 21
14.7910164464
  0
LINE
  5
2F3
100
AcDbEntity
  8
ASSI
100
AcDbLine
 62
7
  6
CONTINUOUS
 10
4.5499707658
 20
9.3910164464
 11
4.5499707658
 21
-4.6449103743
  0
LINE
  5
2F4
100
AcDbEntity
  8
0
100
AcDbLine
 62
7
  6
CONTINUOUS
 10
5.5149707657
 20
28.9410164464
 11
5.5149707657
 21
35.0410164464
  0
LINE
  5
2F5
100
AcDbEntity
  8
0
100
AcDbLine
 62
7
  6
CONTINUOUS
 10
5.5349707657
 20
34.8910164464
 11
5.5349707657
 21
33.4910164464
  0
LINE
  5
2F6
100
AcDbEntity
  8
0
100
AcDbLine
 62
7
  6
CONTINUOUS
 10
5.5349707657
 20
30.4910164464
 11
5.5349707657
 21
29.0910164464
  0
LINE
  5
2F7
100
AcDbEntity
  8
0
100
AcDbLine
 62
7
  6
CONTINUOUS
 10
5.5349707657
 20
31.1410164464
 11
5.5349707657
 21
32.8210164464
  0
LINE
  5
2F8
100
AcDbEntity
  8
0
100
AcDbLine
 62
7
  6
CONTINUOUS
 10
5.6583996522
 20
32.4396036344
 11
5.6583996522
 21
31.5424292584
  0
LINE
  5
2F9
100
AcDbEntity
  8
0
100
AcDbLine
 62
253
  6
CONTINUOUS
 10
5.7149707657
 20
33.4567018713
 11
5.7149707657
 21
32.8210164464
  0
LINE
  5
2FA
100
AcDbEntity
  8
0
100
AcDbLine
 62
253
  6
CONTINUOUS
 10
5.7149707657
 20
31.1410164464
 11
5.7149707657
 21
30.5253310214
  0
LINE
  5
2FB
100
AcDbEntity
  8
0
100
AcDbLine
 62
253
  6
CONTINUOUS
 10
6.1153460439
 20
30.5253310214
 11
6.1153460439
 21
31.1410164464
  0
LINE
  5
2FC
100
AcDbEntity
  8
0
100
AcDbLine
 62
253
  6
CONTINUOUS
 10
6.1153460439
 20
32.8210164464
 11
6.1153460439
 21
33.4567018713
  0
LINE
  5
2FD
100
AcDbEntity
  8
0
100
AcDbLine
 62
7
  6
CONTINUOUS
 10
6.3153460439
 20
30.6438028509
 11
6.3153460439
 21
31.1410164464
  0
LINE
  5
2FE
100
AcDbEntity
  8
0
100
AcDbLine
 62
7
  6
CONTINUOUS
 10
6.3153460439
 20
32.8210164464
 11
6.3153460439
 21
33.3382300419
  0
LINE
  5
2FF
100
AcDbEntity
  8
0
100
AcDbLine
 62
7
  6
CONTINUOUS
 10
6.4349707657
 20
32.7810578412
 11
6.4349707657
 21
32.8210164464
  0
LINE
  5
300
100
AcDbEntity
  8
0
100
AcDbLine
 62
7
  6
CONTINUOUS
 10
6.4349707657
 20
31.1410164464
 11
6.434970655
 21
32.4396036344
  0
LINE
  5
301
100
AcDbEntity
  8
0
100
AcDbLine
 62
7
  6
CONTINUOUS
 10
6.5449707657
 20
31.1410164464
 11
6.5449707657
 21
31.2010164464
  0
LINE
  5
302
100
AcDbEntity
  8
0
100
AcDbLine
 62
7
  6
CONTINUOUS
 10
6.5449707657
 20
31.9510164464
 11
6.5449707657
 21
32.0310164464
  0
LINE
  5
303
100
AcDbEntity
  8
0
100
AcDbLine
 62
7
  6
CONTINUOUS
 10
6.5449707657
 20
32.7813209517
 11
6.5449707657
 21
32.8210164464
  0
LINE
  5
304
100
AcDbEntity
  8
0
100
AcDbLine
 62
7
  6
CONTINUOUS
 10
6.6718951499
 20
32.0310164464
 11
6.6718951499
 21
32.7252993662
  0
LINE
  5
305
100
AcDbEntity
  8
0
100
AcDbLine
 62
7
  6
CONTINUOUS
 10
6.6749707657
 20
31.2010164464
 11
6.6749707657
 21
31.9510164464
  0
LINE
  5
306
100
AcDbEntity
  8
0
100
AcDbLine
 62
7
  6
CONTINUOUS
 10
6.9949707657
 20
30.4910164464
 11
6.9949707657
 21
33.4910164464
  0
LWPOLYLINE
  5
307
100
AcDbEntity
  8
0
100
AcDbPolyline
 62
7
  6
CONTINUOUS
 90
12
 70
0
 10
6.6716678236
 20
32.7252992512
 10
6.6715135966
 20
32.7163448222
 10
6.6681195003
 20
32.6853437023
 10
6.6603001259
 20
32.6554712598
 10
6.6480394244
 20
32.6265884361
 10
6.6312892484
 20
32.5982780553
 10
6.6100869684
 20
32.5704010242
 10
6.5843952139
 20
32.5430964359
 10
6.5540537261
 20
32.5163643938
 10
6.5190090854
 20
32.4902049322
 10
6.4793147113
 20
32.4646180167
 10
6.4349706039
 20
32.4396036473
  0
LINE
  5
308
100
AcDbEntity
  8
RACCORDO
100
AcDbLine
 62
253
  6
CONTINUOUS
 10
8.1516168318
 20
11.9875259651
 11
8.1112569394
 21
14.2997426496
  0
LINE
  5
309
100
AcDbEntity
  8
RACCORDO
100
AcDbLine
 62
7
  6
CONTINUOUS
 10
8.6515406793
 20
11.9875259651
 11
8.611180787
 21
14.2997426496
  0
LINE
  5
30A
100
AcDbEntity
  8
RACCORDO
100
AcDbLine
 62
253
  6
CONTINUOUS
 10
9.1461670693
 20
9.8997426496
 11
9.1165848487
 21
11.5945069277
  0
LINE
  5
30B
100
AcDbEntity
  8
RACCORDO
100
AcDbLine
 62
253
  6
CONTINUOUS
 10
8.1112569394
 20
14.7910164464
 11
8.1112569142
 21
14.2997426498
  0
LINE
  5
30C
100
AcDbEntity
  8
RACCORDO
100
AcDbLine
 62
253
  6
CONTINUOUS
 10
8.1516168318
 20
11.7910164464
 11
8.1516168318
 21
11.9875259651
  0
LINE
  5
30D
100
AcDbEntity
  8
RACCORDO
100
AcDbLine
 62
253
  6
CONTINUOUS
 10
9.1165848487
 20
11.7910164464
 11
9.1165848188
 21
11.594506928
  0
LINE
  5
30E
100
AcDbEntity
  8
RACCORDO
100
AcDbLine
 62
253
  6
CONTINUOUS
 10
9.1461670693
 20
9.3910164464
 11
9.1461670693
 21
9.8997426496
  0
LINE
  5
30F
100
AcDbEntity
  8
0
100
AcDbLine
 62
7
  6
CONTINUOUS
 10
-4.9200292343
 20
31.4560164464
 11
-4.5700292343
 21
31.1060164464
  0
LINE
  5
310
100
AcDbEntity
  8
0
100
AcDbLine
 62
7
  6
CONTINUOUS
 10
-3.7200292343
 20
30.3360164464
 11
-3.3700292343
 21
29.9860164464
  0
LINE
  5
311
100
AcDbEntity
  8
RACCORDO
100
AcDbLine
 62
7
  6
CONTINUOUS
 10
9.6460909168
 20
9.8997426496
 11
9.6165086963
 21
11.5945069277
  0
LINE
  5
312
100
AcDbEntity
  8
RACCORDO
100
AcDbLine
 62
7
  6
CONTINUOUS
 10
9.6460909102
 20
9.882289862
 11
9.6460909168
 21
9.8997426498
  0
LINE
  5
313
100
AcDbEntity
  8
0
100
AcDbLine
 62
7
  6
CONTINUOUS
 10
-4.9200292343
 20
33.9960164464
 11
-4.5700292343
 21
33.6460164464
  0
LINE
  5
314
100
AcDbEntity
  8
0
100
AcDbLine
 62
7
  6
CONTINUOUS
 10
-2.3800292343
 20
31.4560164464
 11
-2.0300292343
 21
31.1060164464
  0
LINE
  5
315
100
AcDbEntity
  8
0
100
AcDbLine
 62
7
  6
CONTINUOUS
 10
-3.7200292343
 20
32.8760164464
 11
-3.3700292343
 21
32.5260164464
  0
LINE
  5
316
100
AcDbEntity
  8
0
100
AcDbLine
 62
7
  6
CONTINUOUS
 10
-1.1800292343
 20
30.3360164464
 11
-0.8300292343
 21
29.9860164464
  0
LINE
  5
317
100
AcDbEntity
  8
0
100
AcDbLine
 62
7
  6
CONTINUOUS
 10
-1.0850292343
 20
35.0410164464
 11
-0.7350292343
 21
34.5410164464
  0
LWPOLYLINE
  5
318
100
AcDbEntity
  8
0
100
AcDbPolyline
 62
7
  6
CONTINUOUS
 90
3
 70
0
 10
6.664977808
 20
32.7813159182
 10
6.6704663659
 20
32.7483355608
 10
6.6716678236
 20
32.7252992512
  0
LINE
  5
319
100
AcDbEntity
  8
0
100
AcDbLine
 62
7
  6
CONTINUOUS
 10
-2.3800292343
 20
33.9960164464
 11
-2.0300292343
 21
33.6460164464
  0
LINE
  5
31A
100
AcDbEntity
  8
0
100
AcDbLine
 62
7
  6
CONTINUOUS
 10
0.1599707657
 20
31.4560164464
 11
0.5099707657
 21
31.1060164464
  0
LINE
  5
31B
100
AcDbEntity
  8
0
100
AcDbLine
 62
7
  6
CONTINUOUS
 10
-1.1800292343
 20
32.8760164464
 11
-0.8300292343
 21
32.5260164464
  0
LINE
  5
31C
100
AcDbEntity
  8
0
100
AcDbLine
 62
7
  6
CONTINUOUS
 10
1.3599707657
 20
30.3360164464
 11
1.7099707657
 21
29.9860164464
  0
LINE
  5
31D
100
AcDbEntity
  8
0
100
AcDbLine
 62
7
  6
CONTINUOUS
 10
5.6583996476
 20
32.4396036473
 11
5.5349707657
 21
32.7810164464
  0
LINE
  5
31E
100
AcDbEntity
  8
0
100
AcDbLine
 62
7
  6
CONTINUOUS
 10
-6.1450292343
 20
28.9410164464
 11
5.5149707657
 21
28.9410164464
  0
LINE
  5
31F
100
AcDbEntity
  8
0
100
AcDbLine
 62
7
  6
CONTINUOUS
 10
0.1599707657
 20
33.9960164464
 11
0.5099707657
 21
33.6460164464
  0
LINE
  5
320
100
AcDbEntity
  8
0
100
AcDbLine
 62
7
  6
CONTINUOUS
 10
2.6999707657
 20
31.4560164464
 11
3.0499707657
 21
31.1060164464
  0
LINE
  5
321
100
AcDbEntity
  8
0
100
AcDbLine
 62
7
  6
CONTINUOUS
 10
1.3599707657
 20
32.8760164464
 11
1.7099707657
 21
32.5260164464
  0
LINE
  5
322
100
AcDbEntity
  8
0
100
AcDbLine
 62
7
  6
CONTINUOUS
 10
3.8999707657
 20
30.3360164464
 11
4.2499707657
 21
29.9860164464
  0
LINE
  5
323
100
AcDbEntity
  8
0
100
AcDbLine
 62
7
  6
CONTINUOUS
 10
1.4949707657
 20
35.0410164464
 11
1.8449707657
 21
34.5410164464
  0
LINE
  5
324
100
AcDbEntity
  8
0
100
AcDbLine
 62
7
  6
CONTINUOUS
 10
4.1618170021
 20
-5.2142016378
 11
4.5499707658
 21
-4.6449103743
  0
LWPOLYLINE
  5
325
100
AcDbEntity
  8
0
100
AcDbPolyline
 62
7
  6
CONTINUOUS
 90
31
 70
0
 10
6.1153460439
 20
30.5253310214
 10
6.1258871301
 20
30.5254313783
 10
6.1363268088
 20
30.525723404
 10
6.1466650799
 20
30.5262094514
 10
6.156926736
 20
30.5268953759
 10
6.1670869844
 20
30.5277846805
 10
6.1770714483
 20
30.5288782716
 10
6.1868857336
 20
30.5301865738
 10
6.1965242344
 20
30.5317169797
 10
6.2058957547
 20
30.5334670152
 10
6.2149871678
 20
30.5354467357
 10
6.2238116005
 20
30.5376700481
 10
6.2323172378
 20
30.5401405928
 10
6.2405058163
 20
30.5428733162
 10
6.2483755994
 20
30.5458823697
 10
6.2558695618
 20
30.5491698967
 10
6.262981794
 20
30.5527485663
 10
6.2697182056
 20
30.5566375587
 10
6.2760395005
 20
30.5608483479
 10
6.2819461988
 20
30.5653957958
 10
6.2874377804
 20
30.570299839
 10
6.2924733893
 20
30.5755800387
 10
6.2970551652
 20
30.5812522413
 10
6.3011809684
 20
30.5873383978
 10
6.3048035236
 20
30.5938688367
 10
6.3079267039
 20
30.6008606556
 10
6.3105466362
 20
30.6083381329
 10
6.3126044258
 20
30.6163455557
 10
6.3140804412
 20
30.6249139553
 10
6.3149943139
 20
30.6340587853
 10
6.3153460439
 20
30.6438028509
  0
LINE
  5
326
100
AcDbEntity
  8
0
100
AcDbLine
 62
7
  6
CONTINUOUS
 10
5.5149707657
 20
29.0910164464
 11
5.5349707657
 21
29.0910164464
  0
LINE
  5
327
100
AcDbEntity
  8
0
100
AcDbLine
 62
7
  6
CONTINUOUS
 10
-4.9200292343
 20
29.9860164464
 11
-3.3700292343
 21
29.9860164464
  0
LINE
  5
328
100
AcDbEntity
  8
0
100
AcDbLine
 62
7
  6
CONTINUOUS
 10
-2.3800292343
 20
29.9860164464
 11
-0.8300292343
 21
29.9860164464
  0
LINE
  5
329
100
AcDbEntity
  8
0
100
AcDbLine
 62
7
  6
CONTINUOUS
 10
0.1599707657
 20
29.9860164464
 11
1.7099707657
 21
29.9860164464
  0
LINE
  5
32A
100
AcDbEntity
  8
0
100
AcDbLine
 62
7
  6
CONTINUOUS
 10
2.6999707657
 20
29.9860164464
 11
4.2499707657
 21
29.9860164464
  0
LINE
  5
32B
100
AcDbEntity
  8
0
100
AcDbLine
 62
7
  6
CONTINUOUS
 10
-4.5700292343
 20
30.3360164464
 11
-3.7200292343
 21
30.3360164464
  0
LINE
  5
32C
100
AcDbEntity
  8
0
100
AcDbLine
 62
7
  6
CONTINUOUS
 10
-2.0300292343
 20
30.3360164464
 11
-1.1800292343
 21
30.3360164464
  0
LINE
  5
32D
100
AcDbEntity
  8
0
100
AcDbLine
 62
7
  6
CONTINUOUS
 10
0.5099707657
 20
30.3360164464
 11
1.3599707657
 21
30.3360164464
  0
LINE
  5
32E
100
AcDbEntity
  8
0
100
AcDbLine
 62
7
  6
CONTINUOUS
 10
3.0499707657
 20
30.3360164464
 11
3.8999707657
 21
30.3360164464
  0
LINE
  5
32F
100
AcDbEntity
  8
0
100
AcDbLine
 62
7
  6
CONTINUOUS
 10
6.9949707657
 20
30.4910164464
 11
5.5149707657
 21
30.4910164464
  0
LINE
  5
330
100
AcDbEntity
  8
0
100
AcDbLine
 62
7
  6
CONTINUOUS
 10
-6.1450292343
 20
30.4910164464
 11
-7.6250292343
 21
30.4910164464
  0
LINE
  5
331
100
AcDbEntity
  8
0
100
AcDbLine
 62
7
  6
CONTINUOUS
 10
-6.7454045124
 20
30.5253310214
 11
-6.3450292343
 21
30.5253310214
  0
LINE
  5
332
100
AcDbEntity
  8
0
100
AcDbLine
 62
7
  6
CONTINUOUS
 10
5.7149707657
 20
30.5253310214
 11
6.1153460439
 21
30.5253310214
  0
LWPOLYLINE
  5
333
100
AcDbEntity
  8
0
100
AcDbPolyline
 62
7
  6
CONTINUOUS
 90
31
 70
0
 10
-6.7454045124
 20
30.5253310214
 10
-6.7558986903
 20
30.5254248966
 10
-6.7663476993
 20
30.525717697
 10
-6.7767230428
 20
30.5262094226
 10
-6.7869942554
 20
30.5268952692
 10
-6.7971362154
 20
30.5277800409
 10
-6.8071289176
 20
30.5288781506
 10
-6.8169536909
 20
30.5301882981
 10
-6.826575996
 20
30.5317117836
 10
-6.8359537519
 20
30.5334669201
 10
-6.8450532998
 20
30.5354497622
 10
-6.8538631009
 20
30.5376642554
 10
-6.8623755664
 20
30.5401405492
 10
-6.8705726266
 20
30.542877865
 10
-6.8784296662
 20
30.5458769813
 10
-6.8859290693
 20
30.5491703846
 10
-6.8930470133
 20
30.5527538846
 10
-6.8997709423
 20
30.5566316714
 10
-6.9060986038
 20
30.5608488018
 10
-6.9120105708
 20
30.5654017047
 10
-6.9174899009
 20
30.5702939512
 10
-6.9225329777
 20
30.5755813113
 10
-6.9271193415
 20
30.5812589825
 10
-6.9312313858
 20
30.5873317673
 10
-6.9348624963
 20
30.593869844
 10
-6.9379903265
 20
30.6008672325
 10
-6.9405948279
 20
30.6083299127
 10
-6.9426629911
 20
30.6163460029
 10
-6.9441712316
 20
30.6249448756
 10
-6.9450926123
 20
30.6340971583
 10
-6.9454045124
 20
30.6438028509
  0
LINE
  5
334
100
AcDbEntity
  8
0
100
AcDbLine
 62
7
  6
CONTINUOUS
 10
2.6999707657
 20
33.9960164464
 11
3.0499707657
 21
33.6460164464
  0
LINE
  5
335
100
AcDbEntity
  8
0
100
AcDbLine
 62
7
  6
CONTINUOUS
 10
3.8999707657
 20
32.8760164464
 11
4.2499707657
 21
32.5260164464
  0
LWPOLYLINE
  5
336
100
AcDbEntity
  8
0
100
AcDbPolyline
 62
7
  6
CONTINUOUS
 90
31
 70
0
 10
-6.3450292343
 20
30.5253310214
 10
-6.3344881663
 20
30.525431378
 10
-6.3240485059
 20
30.5257234027
 10
-6.3137102529
 20
30.5262094483
 10
-6.3034486221
 20
30.526895369
 10
-6.2932883987
 20
30.5277846689
 10
-6.2833039387
 20
30.5288782584
 10
-6.2734896172
 20
30.530186565
 10
-6.2638510591
 20
30.5317169787
 10
-6.2544794941
 20
30.5334670212
 10
-6.245388061
 20
30.5354467471
 10
-6.2365636211
 20
30.537670064
 10
-6.2280579886
 20
30.5401406089
 10
-6.2198694329
 20
30.542873325
 10
-6.2119996845
 20
30.5458823659
 10
-6.20450575
 20
30.5491698809
 10
-6.1973935297
 20
30.552748543
 10
-6.1906571233
 20
30.5566375288
 10
-6.1843358357
 20
30.5608483063
 10
-6.1784291551
 20
30.5653957294
 10
-6.1729375934
 20
30.5702997414
 10
-6.1679019921
 20
30.5755799214
 10
-6.1633202013
 20
30.5812521279
 10
-6.1591943708
 20
30.5873383029
 10
-6.155571792
 20
30.5938687619
 10
-6.1524485972
 20
30.6008605995
 10
-6.1498286539
 20
30.608338097
 10
-6.1477708566
 20
30.6163455365
 10
-6.1462948365
 20
30.624913947
 10
-6.1453809624
 20
30.6340587836
 10
-6.1450292343
 20
30.6438028509
  0
LINE
  5
337
100
AcDbEntity
  8
0
100
AcDbLine
 62
253
  6
CONTINUOUS
 10
-7.6250292343
 20
31.0910164464
 11
-6.9454045124
 21
31.0910164464
  0
LINE
  5
338
100
AcDbEntity
  8
0
100
AcDbLine
 62
253
  6
CONTINUOUS
 10
6.3153460439
 20
31.0910164464
 11
6.9949707657
 21
31.0910164464
  0
LINE
  5
339
100
AcDbEntity
  8
0
100
AcDbLine
 62
7
  6
CONTINUOUS
 10
3.8999707657
 20
31.1060164464
 11
3.0499707657
 21
31.1060164464
  0
LINE
  5
33A
100
AcDbEntity
  8
0
100
AcDbLine
 62
7
  6
CONTINUOUS
 10
1.3599707657
 20
31.1060164464
 11
0.5099707657
 21
31.1060164464
  0
LINE
  5
33B
100
AcDbEntity
  8
0
100
AcDbLine
 62
7
  6
CONTINUOUS
 10
-1.1800292343
 20
31.1060164464
 11
-2.0300292343
 21
31.1060164464
  0
LINE
  5
33C
100
AcDbEntity
  8
0
100
AcDbLine
 62
7
  6
CONTINUOUS
 10
-3.7200292343
 20
31.1060164464
 11
-4.5700292343
 21
31.1060164464
  0
LINE
  5
33D
100
AcDbEntity
  8
0
100
AcDbLine
 62
7
  6
CONTINUOUS
 10
-6.1450292343
 20
31.1410164464
 11
-7.6250292343
 21
31.1410164464
  0
LINE
  5
33E
100
AcDbEntity
  8
0
100
AcDbLine
 62
7
  6
CONTINUOUS
 10
5.5149707657
 20
31.1410164464
 11
6.9949707657
 21
31.1410164464
  0
LINE
  5
33F
100
AcDbEntity
  8
0
100
AcDbLine
 62
7
  6
CONTINUOUS
 10
5.5149707657
 20
31.2010164464
 11
6.6749707657
 21
31.2010164464
  0
LINE
  5
340
100
AcDbEntity
  8
0
100
AcDbLine
 62
7
  6
CONTINUOUS
 10
4.2499707657
 20
31.4560164464
 11
2.6999707657
 21
31.4560164464
  0
LINE
  5
341
100
AcDbEntity
  8
0
100
AcDbLine
 62
7
  6
CONTINUOUS
 10
1.7099707657
 20
31.4560164464
 11
0.1599707657
 21
31.4560164464
  0
LINE
  5
342
100
AcDbEntity
  8
0
100
AcDbLine
 62
7
  6
CONTINUOUS
 10
-0.8300292343
 20
31.4560164464
 11
-2.3800292343
 21
31.4560164464
  0
LINE
  5
343
100
AcDbEntity
  8
0
100
AcDbLine
 62
7
  6
CONTINUOUS
 10
-3.3700292343
 20
31.4560164464
 11
-4.9200292343
 21
31.4560164464
  0
LINE
  5
344
100
AcDbEntity
  8
0
100
AcDbLine
 62
7
  6
CONTINUOUS
 10
-6.9850290766
 20
31.5424292464
 11
-6.2084581164
 21
31.5424292464
  0
LINE
  5
345
100
AcDbEntity
  8
0
100
AcDbLine
 62
7
  6
CONTINUOUS
 10
5.6583996522
 20
31.5424292584
 11
6.4349707657
 21
31.5424292584
  0
LINE
  5
346
100
AcDbEntity
  8
0
100
AcDbLine
 62
7
  6
CONTINUOUS
 10
6.6749707657
 20
31.9510164464
 11
6.4349707657
 21
31.9510164464
  0
LINE
  5
347
100
AcDbEntity
  8
0
100
AcDbLine
 62
7
  6
CONTINUOUS
 10
-6.9850291948
 20
31.9510164464
 11
-7.2178255852
 21
31.9510164464
  0
LINE
  5
348
100
AcDbEntity
  8
0
100
AcDbLine
 62
7
  6
CONTINUOUS
 10
-7.2250292343
 20
32.0310164464
 11
-6.9850292343
 21
32.0310164464
  0
LINE
  5
349
100
AcDbEntity
  8
0
100
AcDbLine
 62
7
  6
CONTINUOUS
 10
6.4349707259
 20
32.0310164464
 11
6.6719325476
 21
32.0310164464
  0
LINE
  5
34A
100
AcDbEntity
  8
0
100
AcDbLine
 62
7
  6
CONTINUOUS
 10
-6.1450292343
 20
31.2010164464
 11
-7.2150355156
 21
31.2007168954
  0
LWPOLYLINE
  5
34B
100
AcDbEntity
  8
0
100
AcDbPolyline
 62
7
  6
CONTINUOUS
 90
31
 70
0
 10
5.7149707657
 20
30.5253310214
 10
5.7044765879
 20
30.5254248966
 10
5.6940275789
 20
30.525717697
 10
5.6836522354
 20
30.5262094226
 10
5.6733810228
 20
30.5268952692
 10
5.6632390628
 20
30.5277800409
 10
5.6532463606
 20
30.5288781506
 10
5.6434215873
 20
30.5301882981
 10
5.6337992822
 20
30.5317117836
 10
5.6244215263
 20
30.5334669201
 10
5.6153219784
 20
30.5354497622
 10
5.6065121773
 20
30.5376642554
 10
5.5979997118
 20
30.5401405492
 10
5.5898026516
 20
30.542877865
 10
5.581945612
 20
30.5458769813
 10
5.5744462089
 20
30.5491703846
 10
5.5673282649
 20
30.5527538846
 10
5.5606043359
 20
30.5566316714
 10
5.5542766744
 20
30.5608488018
 10
5.5483647074
 20
30.5654017047
 10
5.5428853773
 20
30.5702939512
 10
5.5378423005
 20
30.5755813113
 10
5.5332559367
 20
30.5812589825
 10
5.5291438924
 20
30.5873317673
 10
5.5255127819
 20
30.593869844
 10
5.5223849516
 20
30.6008672325
 10
5.5197804503
 20
30.6083299127
 10
5.5177122871
 20
30.6163460029
 10
5.5162040466
 20
30.6249448756
 10
5.5152826659
 20
30.6340971583
 10
5.5149707657
 20
30.6438028509
  0
LWPOLYLINE
  5
34C
100
AcDbEntity
  8
0
100
AcDbPolyline
 62
7
  6
CONTINUOUS
 90
31
 70
0
 10
5.7149707657
 20
33.4567018713
 10
5.7044296796
 20
33.4566015145
 10
5.6939900009
 20
33.4563094888
 10
5.6836517297
 20
33.4558234414
 10
5.6733900737
 20
33.4551375168
 10
5.6632298252
 20
33.4542482123
 10
5.6532453614
 20
33.4531546212
 10
5.643431076
 20
33.451846319
 10
5.6337925753
 20
33.4503159131
 10
5.624421055
 20
33.4485658775
 10
5.6153296419
 20
33.4465861571
 10
5.6065052092
 20
33.4443628447
 10
5.5979995719
 20
33.4418923
 10
5.5898109934
 20
33.4391595765
 10
5.5819412103
 20
33.4361505231
 10
5.5744472478
 20
33.432862996
 10
5.5673350157
 20
33.4292843264
 10
5.5605986041
 20
33.425395334
 10
5.5542773092
 20
33.4211845449
 10
5.5483706109
 20
33.416637097
 10
5.5428790293
 20
33.4117330537
 10
5.5378434204
 20
33.4064528541
 10
5.5332616445
 20
33.4007806515
 10
5.5291358413
 20
33.394694495
 10
5.5255132861
 20
33.3881640561
 10
5.5223901058
 20
33.3811722371
 10
5.5197701735
 20
33.3736947599
 10
5.5177123839
 20
33.3656873371
 10
5.5162363685
 20
33.3571189375
 10
5.5153224958
 20
33.3479741075
 10
5.5149707657
 20
33.3382300419
  0
LWPOLYLINE
  5
34D
100
AcDbEntity
  8
0
100
AcDbPolyline
 62
7
  6
CONTINUOUS
 90
31
 70
0
 10
-6.7454045124
 20
33.4567018713
 10
-6.7559455986
 20
33.4566015145
 10
-6.7663852773
 20
33.4563094888
 10
-6.7767235485
 20
33.4558234414
 10
-6.7869852045
 20
33.4551375168
 10
-6.7971454529
 20
33.4542482123
 10
-6.8071299168
 20
33.4531546212
 10
-6.8169442022
 20
33.451846319
 10
-6.8265827029
 20
33.4503159131
 10
-6.8359542232
 20
33.4485658775
 10
-6.8450456363
 20
33.4465861571
 10
-6.853870069
 20
33.4443628447
 10
-6.8623757063
 20
33.4418923
 10
-6.8705642848
 20
33.4391595765
 10
-6.8784340679
 20
33.4361505231
 10
-6.8859280303
 20
33.432862996
 10
-6.8930402625
 20
33.4292843264
 10
-6.8997766741
 20
33.425395334
 10
-6.906097969
 20
33.4211845449
 10
-6.9120046673
 20
33.416637097
 10
-6.9174962489
 20
33.4117330537
 10
-6.9225318578
 20
33.4064528541
 10
-6.9271136337
 20
33.4007806515
 10
-6.9312394369
 20
33.394694495
 10
-6.9348619921
 20
33.3881640561
 10
-6.9379851724
 20
33.3811722371
 10
-6.9406051047
 20
33.3736947599
 10
-6.9426628943
 20
33.3656873371
 10
-6.9441389097
 20
33.3571189375
 10
-6.9450527824
 20
33.3479741075
 10
-6.9454045124
 20
33.3382300419
  0
LINE
  5
34E
100
AcDbEntity
  8
0
100
AcDbLine
 62
7
  6
CONTINUOUS
 10
6.4349706039
 20
32.4396036473
 11
5.6583996476
 21
32.4396036473
  0
LINE
  5
34F
100
AcDbEntity
  8
0
100
AcDbLine
 62
7
  6
CONTINUOUS
 10
-6.9850291948
 20
32.4396036344
 11
-6.2084581207
 21
32.4396036344
  0
LINE
  5
350
100
AcDbEntity
  8
0
100
AcDbLine
 62
7
  6
CONTINUOUS
 10
-4.9200292343
 20
32.5260164464
 11
-3.3700292343
 21
32.5260164464
  0
LINE
  5
351
100
AcDbEntity
  8
0
100
AcDbLine
 62
7
  6
CONTINUOUS
 10
-2.3800292343
 20
32.5260164464
 11
-0.8300292343
 21
32.5260164464
  0
LINE
  5
352
100
AcDbEntity
  8
0
100
AcDbLine
 62
7
  6
CONTINUOUS
 10
0.1599707657
 20
32.5260164464
 11
1.7099707657
 21
32.5260164464
  0
LINE
  5
353
100
AcDbEntity
  8
0
100
AcDbLine
 62
7
  6
CONTINUOUS
 10
2.6999707657
 20
32.5260164464
 11
4.2499707657
 21
32.5260164464
  0
LINE
  5
354
100
AcDbEntity
  8
0
100
AcDbLine
 62
7
  6
CONTINUOUS
 10
-7.2250292343
 20
32.7810164464
 11
-6.1450292343
 21
32.7810164464
  0
LINE
  5
355
100
AcDbEntity
  8
0
100
AcDbLine
 62
7
  6
CONTINUOUS
 10
-7.1750292343
 20
32.8210164464
 11
-6.1450292343
 21
32.8210164464
  0
LINE
  5
356
100
AcDbEntity
  8
0
100
AcDbLine
 62
7
  6
CONTINUOUS
 10
5.5149707657
 20
32.8210164464
 11
6.9949707657
 21
32.8210164464
  0
LINE
  5
357
100
AcDbEntity
  8
0
100
AcDbLine
 62
7
  6
CONTINUOUS
 10
-7.6250292343
 20
32.8410164464
 11
-6.1450292343
 21
32.8410164464
  0
LINE
  5
358
100
AcDbEntity
  8
0
100
AcDbLine
 62
7
  6
CONTINUOUS
 10
-4.5700292343
 20
32.8760164464
 11
-3.7200292343
 21
32.8760164464
  0
LINE
  5
359
100
AcDbEntity
  8
0
100
AcDbLine
 62
7
  6
CONTINUOUS
 10
-2.0300292343
 20
32.8760164464
 11
-1.1800292343
 21
32.8760164464
  0
LINE
  5
35A
100
AcDbEntity
  8
0
100
AcDbLine
 62
7
  6
CONTINUOUS
 10
0.5099707657
 20
32.8760164464
 11
1.3599707657
 21
32.8760164464
  0
LINE
  5
35B
100
AcDbEntity
  8
0
100
AcDbLine
 62
7
  6
CONTINUOUS
 10
3.0499707657
 20
32.8760164464
 11
3.8999707657
 21
32.8760164464
  0
LINE
  5
35C
100
AcDbEntity
  8
0
100
AcDbLine
 62
253
  6
CONTINUOUS
 10
6.9949707657
 20
32.8910164464
 11
6.3153460439
 21
32.8910164464
  0
LINE
  5
35D
100
AcDbEntity
  8
0
100
AcDbLine
 62
253
  6
CONTINUOUS
 10
-6.9454045124
 20
32.8910164464
 11
-7.6250292343
 21
32.8910164464
  0
LINE
  5
35E
100
AcDbEntity
  8
0
100
AcDbLine
 62
7
  6
CONTINUOUS
 10
6.1153460439
 20
33.4567018713
 11
5.7149707657
 21
33.4567018713
  0
LINE
  5
35F
100
AcDbEntity
  8
0
100
AcDbLine
 62
7
  6
CONTINUOUS
 10
-6.3450292343
 20
33.4567018713
 11
-6.7454045124
 21
33.4567018713
  0
LINE
  5
360
100
AcDbEntity
  8
0
100
AcDbLine
 62
7
  6
CONTINUOUS
 10
-7.6250292343
 20
33.4910164464
 11
-6.1450292343
 21
33.4910164464
  0
LINE
  5
361
100
AcDbEntity
  8
0
100
AcDbLine
 62
7
  6
CONTINUOUS
 10
5.5149707657
 20
33.4910164464
 11
6.9949707657
 21
33.4910164464
  0
LINE
  5
362
100
AcDbEntity
  8
0
100
AcDbLine
 62
7
  6
CONTINUOUS
 10
3.8999707657
 20
33.6460164464
 11
3.0499707657
 21
33.6460164464
  0
LINE
  5
363
100
AcDbEntity
  8
0
100
AcDbLine
 62
7
  6
CONTINUOUS
 10
1.3599707657
 20
33.6460164464
 11
0.5099707657
 21
33.6460164464
  0
LINE
  5
364
100
AcDbEntity
  8
0
100
AcDbLine
 62
7
  6
CONTINUOUS
 10
-1.1800292343
 20
33.6460164464
 11
-2.0300292343
 21
33.6460164464
  0
LINE
  5
365
100
AcDbEntity
  8
0
100
AcDbLine
 62
7
  6
CONTINUOUS
 10
-3.7200292343
 20
33.6460164464
 11
-4.5700292343
 21
33.6460164464
  0
LINE
  5
366
100
AcDbEntity
  8
0
100
AcDbLine
 62
7
  6
CONTINUOUS
 10
5.5149707657
 20
32.7810164464
 11
6.664977808
 21
32.7813159182
  0
LWPOLYLINE
  5
367
100
AcDbEntity
  8
0
100
AcDbPolyline
 62
7
  6
CONTINUOUS
 90
31
 70
0
 10
-6.3450292343
 20
33.4567018713
 10
-6.3345350564
 20
33.4566079961
 10
-6.3240860474
 20
33.4563151957
 10
-6.3137107039
 20
33.4558234701
 10
-6.3034394913
 20
33.4551376236
 10
-6.2932975313
 20
33.4542528519
 10
-6.2833048291
 20
33.4531547422
 10
-6.2734800558
 20
33.4518445947
 10
-6.2638577507
 20
33.4503211092
 10
-6.2544799948
 20
33.4485659727
 10
-6.2453804469
 20
33.4465831306
 10
-6.2365706458
 20
33.4443686374
 10
-6.2280581803
 20
33.4418923435
 10
-6.2198611201
 20
33.4391550278
 10
-6.2120040805
 20
33.4361559114
 10
-6.2045046774
 20
33.4328625081
 10
-6.1973867334
 20
33.4292790082
 10
-6.1906628044
 20
33.4254012214
 10
-6.1843351429
 20
33.4211840909
 10
-6.1784231759
 20
33.4166311881
 10
-6.1729438458
 20
33.4117389416
 10
-6.167900769
 20
33.4064515815
 10
-6.1633144052
 20
33.4007739103
 10
-6.1592023609
 20
33.3947011254
 10
-6.1555712504
 20
33.3881630488
 10
-6.1524434201
 20
33.3811656603
 10
-6.1498389188
 20
33.3737029801
 10
-6.1477707556
 20
33.3656868899
 10
-6.1462625151
 20
33.3570880171
 10
-6.1453411344
 20
33.3479357345
 10
-6.1450292343
 20
33.3382300419
  0
LWPOLYLINE
  5
368
100
AcDbEntity
  8
0
100
AcDbPolyline
 62
7
  6
CONTINUOUS
 90
31
 70
0
 10
6.1153460439
 20
33.4567018713
 10
6.1258402218
 20
33.4566079961
 10
6.1362892308
 20
33.4563151957
 10
6.1466645742
 20
33.4558234701
 10
6.1569357869
 20
33.4551376236
 10
6.1670777468
 20
33.4542528519
 10
6.1770704491
 20
33.4531547422
 10
6.1868952224
 20
33.4518445947
 10
6.1965175275
 20
33.4503211092
 10
6.2058952834
 20
33.4485659727
 10
6.2149948313
 20
33.4465831306
 10
6.2238046324
 20
33.4443686374
 10
6.2323170979
 20
33.4418923435
 10
6.2405141581
 20
33.4391550278
 10
6.2483711977
 20
33.4361559114
 10
6.2558706007
 20
33.4328625081
 10
6.2629885448
 20
33.4292790082
 10
6.2697124738
 20
33.4254012214
 10
6.2760401353
 20
33.4211840909
 10
6.2819521023
 20
33.4166311881
 10
6.2874314324
 20
33.4117389416
 10
6.2924745092
 20
33.4064515815
 10
6.297060873
 20
33.4007739103
 10
6.3011729172
 20
33.3947011254
 10
6.3048040278
 20
33.3881630488
 10
6.307931858
 20
33.3811656603
 10
6.3105363594
 20
33.3737029801
 10
6.3126045225
 20
33.3656868899
 10
6.3141127631
 20
33.3570880171
 10
6.3150341438
 20
33.3479357345
 10
6.3153460439
 20
33.3382300419
  0
LINE
  5
369
100
AcDbEntity
  8
0
100
AcDbLine
 62
7
  6
CONTINUOUS
 10
2.0702907495
 20
-6.1650740731
 11
4.1618170021
 21
-5.2142016378
  0
LINE
  5
36A
100
AcDbEntity
  8
0
100
AcDbLine
 62
7
  6
CONTINUOUS
 10
4.2499707657
 20
33.9960164464
 11
2.6999707657
 21
33.9960164464
  0
LINE
  5
36B
100
AcDbEntity
  8
0
100
AcDbLine
 62
7
  6
CONTINUOUS
 10
1.7099707657
 20
33.9960164464
 11
0.1599707657
 21
33.9960164464
  0
LINE
  5
36C
100
AcDbEntity
  8
0
100
AcDbLine
 62
7
  6
CONTINUOUS
 10
-0.8300292343
 20
33.9960164464
 11
-2.3800292343
 21
33.9960164464
  0
LINE
  5
36D
100
AcDbEntity
  8
0
100
AcDbLine
 62
7
  6
CONTINUOUS
 10
-3.3700292343
 20
33.9960164464
 11
-4.9200292343
 21
33.9960164464
  0
LINE
  5
36E
100
AcDbEntity
  8
0
100
AcDbLine
 62
7
  6
CONTINUOUS
 10
-0.7350292343
 20
34.5410164464
 11
0.0649707657
 21
34.5410164464
  0
LINE
  5
36F
100
AcDbEntity
  8
0
100
AcDbLine
 62
7
  6
CONTINUOUS
 10
1.8449707657
 20
34.5410164464
 11
2.6449707657
 21
34.5410164464
  0
LINE
  5
370
100
AcDbEntity
  8
0
100
AcDbLine
 62
7
  6
CONTINUOUS
 10
5.5349707657
 20
34.8910164464
 11
5.5149707657
 21
34.8910164464
  0
LINE
  5
371
100
AcDbEntity
  8
0
100
AcDbLine
 62
7
  6
CONTINUOUS
 10
1.5349707657
 20
35.0410164464
 11
1.4949707657
 21
35.0410164464
  0
LINE
  5
372
100
AcDbEntity
  8
0
100
AcDbLine
 62
7
  6
CONTINUOUS
 10
-6.1450292343
 20
35.0410164464
 11
-2.1650292343
 21
35.0410164464
  0
LINE
  5
373
100
AcDbEntity
  8
0
100
AcDbLine
 62
7
  6
CONTINUOUS
 10
-1.1650292343
 20
35.0410164464
 11
-1.0850292343
 21
35.0410164464
  0
LINE
  5
374
100
AcDbEntity
  8
0
100
AcDbLine
 62
7
  6
CONTINUOUS
 10
0.4149707657
 20
35.0410164464
 11
0.5349707657
 21
35.0410164464
  0
LINE
  5
375
100
AcDbEntity
  8
0
100
AcDbLine
 62
7
  6
CONTINUOUS
 10
2.9949707657
 20
35.0410164464
 11
5.5149707657
 21
35.0410164464
  0
LINE
  5
376
100
AcDbEntity
  8
0
100
AcDbLine
 62
7
  6
CONTINUOUS
 10
-2.1650292343
 20
35.9410164464
 11
-1.1650292343
 21
35.9410164464
  0
LINE
  5
377
100
AcDbEntity
  8
0
100
AcDbLine
 62
7
  6
CONTINUOUS
 10
0.5349707657
 20
35.9410164464
 11
1.5349707657
 21
35.9410164464
  0
LINE
  5
378
100
AcDbEntity
  8
0
100
AcDbLine
 62
7
  6
CONTINUOUS
 10
-2.1650292343
 20
-47.2882971343
 11
-1.1650292343
 21
-47.2882971343
  0
LINE
  5
379
100
AcDbEntity
  8
0
100
AcDbLine
 62
7
  6
CONTINUOUS
 10
0.5349707657
 20
-47.2882971343
 11
1.5349707657
 21
-47.2882971343
  0
LINE
  5
37A
100
AcDbEntity
  8
0
100
AcDbLine
 62
7
  6
CONTINUOUS
 10
5.5149707657
 20
-46.3882971343
 11
2.9949707657
 21
-46.3882971343
  0
LINE
  5
37B
100
AcDbEntity
  8
0
100
AcDbLine
 62
7
  6
CONTINUOUS
 10
1.5349707657
 20
-46.3882971343
 11
0.4149707657
 21
-46.3882971343
  0
LINE
  5
37C
100
AcDbEntity
  8
0
100
AcDbLine
 62
7
  6
CONTINUOUS
 10
-6.1450292343
 20
-46.3882971343
 11
-1.0850292343
 21
-46.3882971343
  0
LINE
  5
37D
100
AcDbEntity
  8
0
100
AcDbLine
 62
7
  6
CONTINUOUS
 10
-6.0850292343
 20
-46.2382971343
 11
-5.6450292343
 21
-46.2382971343
  0
LINE
  5
37E
100
AcDbEntity
  8
0
100
AcDbLine
 62
7
  6
CONTINUOUS
 10
5.0949707657
 20
-46.2382971343
 11
5.5349707657
 21
-46.2382971343
  0
LINE
  5
37F
100
AcDbEntity
  8
0
100
AcDbLine
 62
7
  6
CONTINUOUS
 10
-2.9903286959
 20
-46.1382971343
 11
-5.2997297726
 21
-46.1382971343
  0
LINE
  5
380
100
AcDbEntity
  8
0
100
AcDbLine
 62
7
  6
CONTINUOUS
 10
-1.0850292343
 20
-45.8882971343
 11
0.4149707657
 21
-45.8882971343
  0
LINE
  5
381
100
AcDbEntity
  8
0
100
AcDbLine
 62
7
  6
CONTINUOUS
 10
1.4949707657
 20
-45.8882971343
 11
2.9949707657
 21
-45.8882971343
  0
LINE
  5
382
100
AcDbEntity
  8
0
100
AcDbLine
 62
7
  6
CONTINUOUS
 10
5.5349707657
 20
-45.7382971343
 11
-6.0850292343
 21
-45.7382971343
  0
LINE
  5
383
100
AcDbEntity
  8
0
100
AcDbLine
 62
7
  6
CONTINUOUS
 10
-6.0850292343
 20
-44.8382971343
 11
-7.6250292343
 21
-44.8382971343
  0
LINE
  5
384
100
AcDbEntity
  8
0
100
AcDbLine
 62
7
  6
CONTINUOUS
 10
5.5349707657
 20
-44.8382971343
 11
6.9949707657
 21
-44.8382971343
  0
LINE
  5
385
100
AcDbEntity
  8
0
100
AcDbLine
 62
7
  6
CONTINUOUS
 10
6.9949707657
 20
-44.1682971343
 11
6.4349707657
 21
-44.1682971343
  0
LINE
  5
386
100
AcDbEntity
  8
0
100
AcDbLine
 62
7
  6
CONTINUOUS
 10
-6.9850292343
 20
-44.1682971343
 11
-7.2904992881
 21
-44.1682971343
  0
LINE
  5
387
100
AcDbEntity
  8
0
100
AcDbLine
 62
7
  6
CONTINUOUS
 10
-7.1750292343
 20
-44.1282971343
 11
-6.9850292343
 21
-44.1282971343
  0
LINE
  5
388
100
AcDbEntity
  8
0
100
AcDbLine
 62
7
  6
CONTINUOUS
 10
-6.9850292343
 20
-43.3782971343
 11
-7.1750292343
 21
-43.3782971343
  0
LINE
  5
389
100
AcDbEntity
  8
0
100
AcDbLine
 62
7
  6
CONTINUOUS
 10
6.4349707728
 20
-43.3782971343
 11
6.5449707657
 21
-43.3782971343
  0
LINE
  5
38A
100
AcDbEntity
  8
0
100
AcDbLine
 62
7
  6
CONTINUOUS
 10
-6.9850292413
 20
-43.2982971343
 11
-7.1750292343
 21
-43.2982971343
  0
LINE
  5
38B
100
AcDbEntity
  8
0
100
AcDbLine
 62
7
  6
CONTINUOUS
 10
6.4349707657
 20
-43.2982971343
 11
6.5449707657
 21
-43.2982971343
  0
LINE
  5
38C
100
AcDbEntity
  8
0
100
AcDbLine
 62
7
  6
CONTINUOUS
 10
6.4349707798
 20
-44.1285162986
 11
6.5449707657
 21
-44.1286016396
  0
LINE
  5
38D
100
AcDbEntity
  8
0
100
AcDbLine
 62
7
  6
CONTINUOUS
 10
6.5449707657
 20
-42.5482971343
 11
6.4349707657
 21
-42.5482971343
  0
LINE
  5
38E
100
AcDbEntity
  8
0
100
AcDbLine
 62
7
  6
CONTINUOUS
 10
-7.2904992881
 20
-42.4882971343
 11
-6.9850292343
 21
-42.4882971343
  0
LINE
  5
38F
100
AcDbEntity
  8
0
100
AcDbLine
 62
7
  6
CONTINUOUS
 10
6.4349707657
 20
-42.4882971343
 11
6.9949707657
 21
-42.4882971343
  0
LINE
  5
390
100
AcDbEntity
  8
0
100
AcDbLine
 62
7
  6
CONTINUOUS
 10
-6.0850292343
 20
-41.8382971343
 11
-7.6250292343
 21
-41.8382971343
  0
LINE
  5
391
100
AcDbEntity
  8
0
100
AcDbLine
 62
7
  6
CONTINUOUS
 10
5.5349707657
 20
-41.8382971343
 11
6.9949707657
 21
-41.8382971343
  0
LINE
  5
392
100
AcDbEntity
  8
0
100
AcDbLine
 62
7
  6
CONTINUOUS
 10
-6.9850292483
 20
-42.5480779699
 11
-7.1750292343
 21
-42.5479967522
  0
LINE
  5
393
100
AcDbEntity
  8
0
100
AcDbLine
 62
7
  6
CONTINUOUS
 10
5.5349707657
 20
-40.9382971343
 11
-6.0850292343
 21
-40.9382971343
  0
LINE
  5
394
100
AcDbEntity
  8
0
100
AcDbLine
 62
7
  6
CONTINUOUS
 10
5.5349707657
 20
-40.4382971343
 11
5.0949707657
 21
-40.4382971343
  0
LINE
  5
395
100
AcDbEntity
  8
0
100
AcDbLine
 62
7
  6
CONTINUOUS
 10
-5.6450292343
 20
-40.4382971343
 11
-6.0850292343
 21
-40.4382971343
  0
LINE
  5
396
100
AcDbEntity
  8
0
100
AcDbLine
 62
7
  6
CONTINUOUS
 10
5.5149707657
 20
-40.2882971343
 11
4.5499707658
 21
-40.2882971343
  0
LINE
  5
397
100
AcDbEntity
  8
0
100
AcDbLine
 62
7
  6
CONTINUOUS
 10
-5.2400292343
 20
-40.2882971343
 11
-6.1450292343
 21
-40.2882971343
  0
LINE
  5
398
100
AcDbEntity
  8
0
100
AcDbLine
 62
7
  6
CONTINUOUS
 10
4.1618170021
 20
-8.2144036378
 11
2.0702907495
 21
-9.1652760731
  0
LINE
  5
399
100
AcDbEntity
  8
0
100
AcDbLine
 62
7
  6
CONTINUOUS
 10
0.4149707657
 20
-46.3882971343
 11
0.0649707657
 21
-45.8882971343
  0
LINE
  5
39A
100
AcDbEntity
  8
RACCORDO
100
AcDbLine
 62
7
  6
CONTINUOUS
 10
-10.3361493853
 20
-21.2470233375
 11
-10.3065671648
 21
-22.9417876156
  0
LINE
  5
39B
100
AcDbEntity
  8
RACCORDO
100
AcDbLine
 62
253
  6
CONTINUOUS
 10
-9.8362255378
 20
-21.2470233375
 11
-9.8066433173
 21
-22.9417876156
  0
LINE
  5
39C
100
AcDbEntity
  8
RACCORDO
100
AcDbLine
 62
7
  6
CONTINUOUS
 10
-10.3361493787
 20
-21.2295705499
 11
-10.3361493853
 21
-21.2470233377
  0
LINE
  5
39D
100
AcDbEntity
  8
RACCORDO
100
AcDbLine
 62
253
  6
CONTINUOUS
 10
-9.8362255378
 20
-20.7382971343
 11
-9.8362255378
 21
-21.2470233375
  0
LINE
  5
39E
100
AcDbEntity
  8
RACCORDO
100
AcDbLine
 62
253
  6
CONTINUOUS
 10
-9.8066433173
 20
-23.1382971343
 11
-9.8066432873
 21
-22.9417876159
  0
LINE
  5
39F
100
AcDbEntity
  8
RACCORDO
100
AcDbLine
 62
7
  6
CONTINUOUS
 10
-9.3415991478
 20
-23.334806653
 11
-9.3012392555
 21
-25.6470233375
  0
LINE
  5
3A0
100
AcDbEntity
  8
RACCORDO
100
AcDbLine
 62
253
  6
CONTINUOUS
 10
-8.8416753003
 20
-23.334806653
 11
-8.8013154079
 21
-25.6470233375
  0
LINE
  5
3A1
100
AcDbEntity
  8
RACCORDO
100
AcDbLine
 62
253
  6
CONTINUOUS
 10
-8.8416753003
 20
-23.1382971343
 11
-8.8416753003
 21
-23.334806653
  0
LINE
  5
3A2
100
AcDbEntity
  8
RACCORDO
100
AcDbLine
 62
253
  6
CONTINUOUS
 10
-8.8013154079
 20
-26.1382971343
 11
-8.8013153828
 21
-25.6470233376
  0
LINE
  5
3A3
100
AcDbEntity
  8
0
100
AcDbLine
 62
7
  6
CONTINUOUS
 10
2.9949707657
 20
-46.3882971343
 11
2.6449707657
 21
-45.8882971343
  0
LINE
  5
3A4
100
AcDbEntity
  8
0
100
AcDbLine
 62
7
  6
CONTINUOUS
 10
-7.6250292343
 20
-44.8382971343
 11
-7.6250292343
 21
-41.8382971343
  0
LINE
  5
3A5
100
AcDbEntity
  8
0
100
AcDbLine
 62
7
  6
CONTINUOUS
 10
-7.2904992881
 20
-44.1682971343
 11
-7.2904992881
 21
-42.4882971343
  0
LINE
  5
3A6
100
AcDbEntity
  8
0
100
AcDbLine
 62
7
  6
CONTINUOUS
 10
-7.1750292343
 20
-42.4882971343
 11
-7.1750292343
 21
-44.1682971343
  0
LINE
  5
3A7
100
AcDbEntity
  8
0
100
AcDbLine
 62
7
  6
CONTINUOUS
 10
-6.9850292343
 20
-41.8382971343
 11
-6.9850292343
 21
-44.8382971343
  0
LINE
  5
3A8
100
AcDbEntity
  8
0
100
AcDbLine
 62
7
  6
CONTINUOUS
 10
-6.1450292343
 20
-40.2882971343
 11
-6.1450292343
 21
-41.8382971343
  0
LINE
  5
3A9
100
AcDbEntity
  8
0
100
AcDbLine
 62
7
  6
CONTINUOUS
 10
-6.1450292343
 20
-44.8382971343
 11
-6.1450292343
 21
-46.3882971343
  0
LINE
  5
3AA
100
AcDbEntity
  8
0
100
AcDbLine
 62
7
  6
CONTINUOUS
 10
-6.0850292343
 20
-40.4382971343
 11
-6.0850292343
 21
-41.8382971343
  0
LINE
  5
3AB
100
AcDbEntity
  8
0
100
AcDbLine
 62
7
  6
CONTINUOUS
 10
-6.0850292343
 20
-44.8382971343
 11
-6.0850292343
 21
-46.2382971343
  0
LINE
  5
3AC
100
AcDbEntity
  8
0
100
AcDbLine
 62
7
  6
CONTINUOUS
 10
-5.6450292343
 20
-46.2382971343
 11
-5.6450292343
 21
-45.7382971343
  0
LINE
  5
3AD
100
AcDbEntity
  8
0
100
AcDbLine
 62
7
  6
CONTINUOUS
 10
-5.6450292343
 20
-40.9382971343
 11
-5.6450292343
 21
-40.4382971343
  0
LINE
  5
3AE
100
AcDbEntity
  8
0
100
AcDbLine
 62
7
  6
CONTINUOUS
 10
-5.2997297726
 20
-46.1382971343
 11
-5.2997297726
 21
-46.3882971343
  0
LINE
  5
3AF
100
AcDbEntity
  8
ASSI
100
AcDbLine
 62
7
  6
CONTINUOUS
 10
-5.2400292343
 20
-4.3760595069
 11
-5.2400292343
 21
-20.7382971343
  0
LINE
  5
3B0
100
AcDbEntity
  8
ASSI
100
AcDbLine
 62
7
  6
CONTINUOUS
 10
-5.2400292343
 20
-26.1382971343
 11
-5.2400292343
 21
-40.9382971343
  0
LINE
  5
3B1
100
AcDbEntity
  8
0
100
AcDbLine
 62
7
  6
CONTINUOUS
 10
4.5499707658
 20
-7.6451123743
 11
4.1618170021
 21
-8.2144036378
  0
LINE
  5
3B2
100
AcDbEntity
  8
ASSI
100
AcDbLine
 62
253
  6
CONTINUOUS
 10
-4.5000584685
 20
-4.6407956032
 11
-4.5000584685
 21
-20.7382971343
  0
LINE
  5
3B3
100
AcDbEntity
  8
ASSI
100
AcDbLine
 62
253
  6
CONTINUOUS
 10
-4.5000584685
 20
-26.1382971343
 11
-4.5000584685
 21
-40.9382971343
  0
LINE
  5
3B4
100
AcDbEntity
  8
ASSI
100
AcDbLine
 62
253
  6
CONTINUOUS
 10
-4.2423066767
 20
-4.7330103316
 11
-4.2423066767
 21
-20.7382971343
  0
LINE
  5
3B5
100
AcDbEntity
  8
ASSI
100
AcDbLine
 62
253
  6
CONTINUOUS
 10
-4.2423066767
 20
-26.1382971343
 11
-4.2423066767
 21
-40.9382971343
  0
LINE
  5
3B6
100
AcDbEntity
  8
0
100
AcDbLine
 62
7
  6
CONTINUOUS
 10
-4.1450292343
 20
-46.1382971343
 11
-4.1450292343
 21
-46.3882971343
  0
LINE
  5
3B7
100
AcDbEntity
  8
ASSI
100
AcDbLine
 62
253
  6
CONTINUOUS
 10
-4.0677517918
 20
-4.7970741921
 11
-4.0677517918
 21
-20.7382971343
  0
LINE
  5
3B8
100
AcDbEntity
  8
ASSI
100
AcDbLine
 62
253
  6
CONTINUOUS
 10
-4.0677517918
 20
-26.1382971343
 11
-4.0677517918
 21
-40.9382971343
  0
LINE
  5
3B9
100
AcDbEntity
  8
ASSI
100
AcDbLine
 62
253
  6
CONTINUOUS
 10
-3.81
 20
-5.0159495311
 11
-3.81
 21
-20.7382971343
  0
LINE
  5
3BA
100
AcDbEntity
  8
ASSI
100
AcDbLine
 62
253
  6
CONTINUOUS
 10
-3.81
 20
-26.1382971343
 11
-3.81
 21
-40.9382971343
  0
LINE
  5
3BB
100
AcDbEntity
  8
ASSI
100
AcDbLine
 62
253
  6
CONTINUOUS
 10
-3.2300584685
 20
-5.508419044
 11
-3.2300584685
 21
-20.7382971343
  0
LINE
  5
3BC
100
AcDbEntity
  8
ASSI
100
AcDbLine
 62
253
  6
CONTINUOUS
 10
-3.2300584685
 20
-26.1382971343
 11
-3.2300584685
 21
-40.9382971343
  0
LINE
  5
3BD
100
AcDbEntity
  8
0
100
AcDbLine
 62
7
  6
CONTINUOUS
 10
-2.9903286959
 20
-46.3882971343
 11
-2.9903286959
 21
-46.1382971343
  0
LINE
  5
3BE
100
AcDbEntity
  8
ASSI
100
AcDbLine
 62
253
  6
CONTINUOUS
 10
-2.9723066767
 20
-5.727294383
 11
-2.9723066767
 21
-20.7382971343
  0
LINE
  5
3BF
100
AcDbEntity
  8
ASSI
100
AcDbLine
 62
253
  6
CONTINUOUS
 10
-2.9723066767
 20
-26.1382971343
 11
-2.9723066767
 21
-40.9382971343
  0
LINE
  5
3C0
100
AcDbEntity
  8
ASSI
100
AcDbLine
 62
253
  6
CONTINUOUS
 10
-2.7977517918
 20
-5.875521324
 11
-2.7977517918
 21
-20.7382971343
  0
LINE
  5
3C1
100
AcDbEntity
  8
ASSI
100
AcDbLine
 62
253
  6
CONTINUOUS
 10
-2.7977517918
 20
-26.1382971343
 11
-2.7977517918
 21
-40.9382971343
  0
LINE
  5
3C2
100
AcDbEntity
  8
ASSI
100
AcDbLine
 62
253
  6
CONTINUOUS
 10
-2.54
 20
-6.1116045254
 11
-2.54
 21
-20.7382971343
  0
LINE
  5
3C3
100
AcDbEntity
  8
ASSI
100
AcDbLine
 62
253
  6
CONTINUOUS
 10
-2.54
 20
-26.1382971343
 11
-2.54
 21
-40.9382971343
  0
LINE
  5
3C4
100
AcDbEntity
  8
0
100
AcDbLine
 62
7
  6
CONTINUOUS
 10
-2.1650292343
 20
-46.3882971343
 11
-2.1650292343
 21
-47.2882971343
  0
LINE
  5
3C5
100
AcDbEntity
  8
ASSI
100
AcDbLine
 62
253
  6
CONTINUOUS
 10
-1.9600584685
 20
-6.6705311851
 11
-1.9600584685
 21
-20.7382971343
  0
LINE
  5
3C6
100
AcDbEntity
  8
ASSI
100
AcDbLine
 62
253
  6
CONTINUOUS
 10
-1.9600584685
 20
-26.1382971343
 11
-1.9600584685
 21
-40.9382971343
  0
LWPOLYLINE
  5
3C7
100
AcDbEntity
  8
RACCORDO
100
AcDbPolyline
 62
253
  6
CONTINUOUS
 90
7
 70
0
 10
8.611180787
 20
-25.6470233375
 10
8.6068856552
 20
-25.648087144
 10
8.5941134643
 20
-25.6489835058
 10
8.5730826638
 20
-25.6496970916
 10
8.5441529555
 20
-25.6502156966
 10
8.507819142
 20
-25.6505304506
 10
8.464702666
 20
-25.6506359702
  0
LINE
  5
3C8
100
AcDbEntity
  8
ASSI
100
AcDbLine
 62
253
  6
CONTINUOUS
 10
-1.7023066767
 20
-6.9189430338
 11
-1.7023066767
 21
-20.7382971343
  0
LINE
  5
3C9
100
AcDbEntity
  8
ASSI
100
AcDbLine
 62
253
  6
CONTINUOUS
 10
-1.7023066767
 20
-26.1382971343
 11
-1.7023066767
 21
-40.9382971343
  0
LINE
  5
3CA
100
AcDbEntity
  8
ASSI
100
AcDbLine
 62
253
  6
CONTINUOUS
 10
-1.5277517918
 20
-7.0871727148
 11
-1.5277517918
 21
-20.7382971343
  0
LINE
  5
3CB
100
AcDbEntity
  8
ASSI
100
AcDbLine
 62
253
  6
CONTINUOUS
 10
-1.5277517918
 20
-26.1382971343
 11
-1.5277517918
 21
-40.9382971343
  0
LINE
  5
3CC
100
AcDbEntity
  8
ASSI
100
AcDbLine
 62
253
  6
CONTINUOUS
 10
-1.27
 20
-7.3313419421
 11
-1.27
 21
-20.7382971343
  0
LINE
  5
3CD
100
AcDbEntity
  8
ASSI
100
AcDbLine
 62
253
  6
CONTINUOUS
 10
-1.27
 20
-26.1382971343
 11
-1.27
 21
-40.9382971343
  0
LINE
  5
3CE
100
AcDbEntity
  8
0
100
AcDbLine
 62
7
  6
CONTINUOUS
 10
-1.1650292343
 20
-47.2882971343
 11
-1.1650292343
 21
-46.3882971343
  0
LINE
  5
3CF
100
AcDbEntity
  8
0
100
AcDbLine
 62
7
  6
CONTINUOUS
 10
-1.0850292343
 20
-45.7382971343
 11
-1.0850292343
 21
-46.3882971343
  0
LINE
  5
3D0
100
AcDbEntity
  8
ASSI
100
AcDbLine
 62
253
  6
CONTINUOUS
 10
-0.6900584685
 20
-7.8063148039
 11
-0.6900584685
 21
-20.7382971343
  0
LINE
  5
3D1
100
AcDbEntity
  8
ASSI
100
AcDbLine
 62
253
  6
CONTINUOUS
 10
-0.6900584685
 20
-26.1382971343
 11
-0.6900584685
 21
-40.9382971343
  0
LINE
  5
3D2
100
AcDbEntity
  8
ASSI
100
AcDbLine
 62
253
  6
CONTINUOUS
 10
-0.4323066767
 20
-8.0174138537
 11
-0.4323066767
 21
-20.7382971343
  0
LINE
  5
3D3
100
AcDbEntity
  8
ASSI
100
AcDbLine
 62
253
  6
CONTINUOUS
 10
-0.4323066767
 20
-26.1382971343
 11
-0.4323066767
 21
-40.9382971343
  0
LINE
  5
3D4
100
AcDbEntity
  8
ASSI
100
AcDbLine
 62
253
  6
CONTINUOUS
 10
-0.2577517918
 20
-8.1603745295
 11
-0.2577517918
 21
-20.7382971343
  0
LINE
  5
3D5
100
AcDbEntity
  8
ASSI
100
AcDbLine
 62
253
  6
CONTINUOUS
 10
-0.2577517918
 20
-26.1382971343
 11
-0.2577517918
 21
-40.9382971343
  0
LINE
  5
3D6
100
AcDbEntity
  8
RACCORDO
100
AcDbLine
 62
253
  6
CONTINUOUS
 10
-8.8013154079
 20
-25.6470233375
 11
-8.9306806964
 21
-25.6489835058
  0
LINE
  5
3D7
100
AcDbEntity
  8
RACCORDO
100
AcDbLine
 62
253
  6
CONTINUOUS
 10
-8.9306806964
 20
-25.6489835058
 11
-9.0512333687
 21
-25.6502156966
  0
LWPOLYLINE
  5
3D8
100
AcDbEntity
  8
RACCORDO
100
AcDbPolyline
 62
253
  6
CONTINUOUS
 90
8
 70
0
 10
-9.0512333687
 20
-25.6502156966
 10
-9.1547611201
 20
-25.6506359702
 10
-9.1978775971
 20
-25.6505304507
 10
-9.2342114118
 20
-25.6502156967
 10
-9.2631411233
 20
-25.6496970918
 10
-9.2841719279
 20
-25.648983506
 10
-9.2969441223
 20
-25.6480871442
 10
-9.3012392555
 20
-25.6470233375
  0
LINE
  5
3D9
100
AcDbEntity
  8
RACCORDO
100
AcDbLine
 62
7
  6
CONTINUOUS
 10
8.1112569394
 20
-26.1382971343
 11
-8.8013154079
 21
-26.1382971343
  0
LINE
  5
3DA
100
AcDbEntity
  8
RACCORDO
100
AcDbLine
 62
253
  6
CONTINUOUS
 10
8.1112569394
 20
-25.6470233375
 11
-8.8013154079
 21
-25.6470233375
  0
LINE
  5
3DB
100
AcDbEntity
  8
RACCORDO
100
AcDbLine
 62
253
  6
CONTINUOUS
 10
8.464702666
 20
-25.6506359702
 11
8.3611749213
 21
-25.6502156967
  0
LINE
  5
3DC
100
AcDbEntity
  8
RACCORDO
100
AcDbLine
 62
253
  6
CONTINUOUS
 10
8.3611749213
 20
-25.6502156967
 11
8.240622246
 21
-25.648983506
  0
LINE
  5
3DD
100
AcDbEntity
  8
RACCORDO
100
AcDbLine
 62
253
  6
CONTINUOUS
 10
8.240622246
 20
-25.648983506
 11
8.1112569394
 21
-25.6470233375
  0
LINE
  5
3DE
100
AcDbEntity
  8
ASSI
100
AcDbLine
 62
253
  6
CONTINUOUS
 10
0.0
 20
-8.3714735792
 11
0.0
 21
-20.7382971343
  0
LINE
  5
3DF
100
AcDbEntity
  8
ASSI
100
AcDbLine
 62
253
  6
CONTINUOUS
 10
0.0
 20
-26.1382971343
 11
0.0
 21
-40.9382971343
  0
LINE
  5
3E0
100
AcDbEntity
  8
0
100
AcDbLine
 62
7
  6
CONTINUOUS
 10
0.4149707657
 20
-46.3882971343
 11
0.4149707657
 21
-45.7382971343
  0
LINE
  5
3E1
100
AcDbEntity
  8
0
100
AcDbLine
 62
7
  6
CONTINUOUS
 10
0.5349707657
 20
-46.3882971343
 11
0.5349707657
 21
-47.2882971343
  0
LINE
  5
3E2
100
AcDbEntity
  8
ASSI
100
AcDbLine
 62
253
  6
CONTINUOUS
 10
0.5799415315
 20
-8.6353222505
 11
0.5799415315
 21
-20.7382971343
  0
LINE
  5
3E3
100
AcDbEntity
  8
ASSI
100
AcDbLine
 62
253
  6
CONTINUOUS
 10
0.5799415315
 20
-26.1382971343
 11
0.5799415315
 21
-40.9382971343
  0
LINE
  5
3E4
100
AcDbEntity
  8
ASSI
100
AcDbLine
 62
253
  6
CONTINUOUS
 10
0.8376933233
 20
-8.7269763042
 11
0.8376933233
 21
-20.7382971343
  0
LINE
  5
3E5
100
AcDbEntity
  8
ASSI
100
AcDbLine
 62
253
  6
CONTINUOUS
 10
0.8376933233
 20
-26.1382971343
 11
0.8376933233
 21
-40.9382971343
  0
LINE
  5
3E6
100
AcDbEntity
  8
ASSI
100
AcDbLine
 62
253
  6
CONTINUOUS
 10
1.0122482082
 20
-8.7890463395
 11
1.0122482082
 21
-20.7382971343
  0
LINE
  5
3E7
100
AcDbEntity
  8
ASSI
100
AcDbLine
 62
253
  6
CONTINUOUS
 10
1.0122482082
 20
-26.1382971343
 11
1.0122482082
 21
-40.9382971343
  0
LINE
  5
3E8
100
AcDbEntity
  8
ASSI
100
AcDbLine
 62
253
  6
CONTINUOUS
 10
1.27
 20
-8.8807003933
 11
1.27
 21
-20.7382971343
  0
LINE
  5
3E9
100
AcDbEntity
  8
ASSI
100
AcDbLine
 62
253
  6
CONTINUOUS
 10
1.27
 20
-26.1382971343
 11
1.27
 21
-40.9382971343
  0
LWPOLYLINE
  5
3EA
100
AcDbEntity
  8
RACCORDO
100
AcDbPolyline
 62
253
  6
CONTINUOUS
 90
5
 70
0
 10
9.6165086963
 20
-22.9417876156
 10
9.6137618275
 20
-22.9421263672
 10
9.6055657504
 20
-22.9424316416
 10
9.5920134431
 20
-22.9426951837
 10
9.5732594247
 20
-22.942907337
  0
LINE
  5
3EB
100
AcDbEntity
  8
0
100
AcDbLine
 62
7
  6
CONTINUOUS
 10
1.4949707657
 20
-45.7382971343
 11
1.4949707657
 21
-46.3882971343
  0
LINE
  5
3EC
100
AcDbEntity
  8
0
100
AcDbLine
 62
7
  6
CONTINUOUS
 10
1.5349707657
 20
-47.2882971343
 11
1.5349707657
 21
-46.3882971343
  0
LINE
  5
3ED
100
AcDbEntity
  8
ASSI
100
AcDbLine
 62
253
  6
CONTINUOUS
 10
1.8499415315
 20
-9.0869220142
 11
1.8499415315
 21
-20.7382971343
  0
LINE
  5
3EE
100
AcDbEntity
  8
ASSI
100
AcDbLine
 62
253
  6
CONTINUOUS
 10
1.8499415315
 20
-26.1382971343
 11
1.8499415315
 21
-40.9382971343
  0
LINE
  5
3EF
100
AcDbEntity
  8
ASSI
100
AcDbLine
 62
253
  6
CONTINUOUS
 10
2.1076933233
 20
-9.1482717078
 11
2.1076933233
 21
-20.7382971343
  0
LINE
  5
3F0
100
AcDbEntity
  8
ASSI
100
AcDbLine
 62
253
  6
CONTINUOUS
 10
2.1076933233
 20
-26.1382971343
 11
2.1076933233
 21
-40.9382971343
  0
LINE
  5
3F1
100
AcDbEntity
  8
ASSI
100
AcDbLine
 62
253
  6
CONTINUOUS
 10
2.2822482082
 20
-9.0689136657
 11
2.2822482082
 21
-20.7382971343
  0
LINE
  5
3F2
100
AcDbEntity
  8
ASSI
100
AcDbLine
 62
253
  6
CONTINUOUS
 10
2.2822482082
 20
-26.1382971343
 11
2.2822482082
 21
-40.9382971343
  0
LINE
  5
3F3
100
AcDbEntity
  8
ASSI
100
AcDbLine
 62
253
  6
CONTINUOUS
 10
2.54
 20
-8.95173174
 11
2.54
 21
-20.7382971343
  0
LINE
  5
3F4
100
AcDbEntity
  8
ASSI
100
AcDbLine
 62
253
  6
CONTINUOUS
 10
2.54
 20
-26.1382971343
 11
2.54
 21
-40.9382971343
  0
LINE
  5
3F5
100
AcDbEntity
  8
0
100
AcDbLine
 62
7
  6
CONTINUOUS
 10
2.9949707657
 20
-46.3882971343
 11
2.9949707657
 21
-45.7382971343
  0
LWPOLYLINE
  5
3F6
100
AcDbEntity
  8
RACCORDO
100
AcDbPolyline
 62
253
  6
CONTINUOUS
 90
4
 70
0
 10
-9.3172109304
 20
-23.3339002868
 10
-9.3307227957
 20
-23.3341454463
 10
-9.3388780361
 20
-23.3344447281
 10
-9.3415991478
 20
-23.334806653
  0
LINE
  5
3F7
100
AcDbEntity
  8
RACCORDO
100
AcDbLine
 62
253
  6
CONTINUOUS
 10
-9.2747013944
 20
-23.3335319581
 11
-9.3172109304
 21
-23.3339002868
  0
LINE
  5
3F8
100
AcDbEntity
  8
RACCORDO
100
AcDbLine
 62
253
  6
CONTINUOUS
 10
9.5732594247
 20
-22.942907337
 11
9.5210162017
 21
-22.9431720674
  0
LINE
  5
3F9
100
AcDbEntity
  8
RACCORDO
100
AcDbLine
 62
253
  6
CONTINUOUS
 10
8.4015224891
 20
-23.3335319581
 11
8.1516168318
 21
-23.334806653
  0
LINE
  5
3FA
100
AcDbEntity
  8
RACCORDO
100
AcDbLine
 62
253
  6
CONTINUOUS
 10
-9.8066433173
 20
-22.9417876156
 11
-10.1004755298
 21
-22.9431720674
  0
LINE
  5
3FB
100
AcDbEntity
  8
RACCORDO
100
AcDbLine
 62
253
  6
CONTINUOUS
 10
8.1516168318
 20
-23.334806653
 11
-8.8416753003
 21
-23.334806653
  0
LINE
  5
3FC
100
AcDbEntity
  8
RACCORDO
100
AcDbLine
 62
253
  6
CONTINUOUS
 10
-9.1762902782
 20
-23.3333721448
 11
-9.2747013944
 21
-23.3335319581
  0
LINE
  5
3FD
100
AcDbEntity
  8
RACCORDO
100
AcDbLine
 62
7
  6
CONTINUOUS
 10
9.4165391573
 20
-23.1382971343
 11
-10.1065976258
 21
-23.1382971343
  0
LINE
  5
3FE
100
AcDbEntity
  8
RACCORDO
100
AcDbLine
 62
253
  6
CONTINUOUS
 10
9.1165848487
 20
-22.9417876156
 11
-9.8066433173
 21
-22.9417876156
  0
LINE
  5
3FF
100
AcDbEntity
  8
RACCORDO
100
AcDbLine
 62
253
  6
CONTINUOUS
 10
8.556033643
 20
-23.3334228053
 11
8.4015224891
 21
-23.3335319581
  0
LINE
  5
400
100
AcDbEntity
  8
RACCORDO
100
AcDbLine
 62
253
  6
CONTINUOUS
 10
-10.1004755298
 20
-22.9431720674
 11
-10.2111055138
 21
-22.9431727514
  0
LINE
  5
401
100
AcDbEntity
  8
RACCORDO
100
AcDbLine
 62
253
  6
CONTINUOUS
 10
9.5210162017
 20
-22.9431720674
 11
9.3664896804
 21
-22.9430657215
  0
LINE
  5
402
100
AcDbEntity
  8
RACCORDO
100
AcDbLine
 62
253
  6
CONTINUOUS
 10
-8.9456730755
 20
-23.3341448842
 11
-9.1762902782
 21
-23.3333721448
  0
LINE
  5
403
100
AcDbEntity
  8
RACCORDO
100
AcDbLine
 62
253
  6
CONTINUOUS
 10
9.3664896804
 20
-22.9430657215
 11
9.1165848487
 21
-22.9417876156
  0
LWPOLYLINE
  5
404
100
AcDbEntity
  8
RACCORDO
100
AcDbPolyline
 62
253
  6
CONTINUOUS
 90
6
 70
0
 10
-10.2111055138
 20
-22.9431727514
 10
-10.2633475225
 20
-22.9429075983
 10
-10.2820946814
 20
-22.9426951005
 10
-10.2956366276
 20
-22.942431401
 10
-10.3038239693
 20
-22.942126136
 10
-10.3065671648
 20
-22.9417876156
  0
LINE
  5
405
100
AcDbEntity
  8
RACCORDO
100
AcDbLine
 62
253
  6
CONTINUOUS
 10
-8.8416753003
 20
-23.334806653
 11
-8.9456730755
 21
-23.3341448842
  0
LWPOLYLINE
  5
406
100
AcDbEntity
  8
RACCORDO
100
AcDbPolyline
 62
253
  6
CONTINUOUS
 90
5
 70
0
 10
-10.3361493853
 20
-21.2470233375
 10
-10.3318542522
 20
-21.2480871442
 10
-10.3190820578
 20
-21.248983506
 10
-10.2980512531
 20
-21.2496970918
 10
-10.2691215417
 20
-21.2502156967
  0
LINE
  5
407
100
AcDbEntity
  8
ASSI
100
AcDbLine
 62
253
  6
CONTINUOUS
 10
3.1199415315
 20
-8.6880724071
 11
3.1199415315
 21
-20.7382971343
  0
LINE
  5
408
100
AcDbEntity
  8
ASSI
100
AcDbLine
 62
253
  6
CONTINUOUS
 10
3.1199415315
 20
-26.1382971343
 11
3.1199415315
 21
-40.9382971343
  0
LINE
  5
409
100
AcDbEntity
  8
ASSI
100
AcDbLine
 62
253
  6
CONTINUOUS
 10
3.3776933233
 20
-8.5708904814
 11
3.3776933233
 21
-20.7382971343
  0
LINE
  5
40A
100
AcDbEntity
  8
ASSI
100
AcDbLine
 62
253
  6
CONTINUOUS
 10
3.3776933233
 20
-26.1382971343
 11
3.3776933233
 21
-40.9382971343
  0
LINE
  5
40B
100
AcDbEntity
  8
ASSI
100
AcDbLine
 62
253
  6
CONTINUOUS
 10
3.5522482082
 20
-8.4915324392
 11
3.5522482082
 21
-20.7382971343
  0
LINE
  5
40C
100
AcDbEntity
  8
ASSI
100
AcDbLine
 62
253
  6
CONTINUOUS
 10
3.5522482082
 20
-26.1382971343
 11
3.5522482082
 21
-40.9382971343
  0
LINE
  5
40D
100
AcDbEntity
  8
ASSI
100
AcDbLine
 62
253
  6
CONTINUOUS
 10
3.81
 20
-8.3743505135
 11
3.81
 21
-20.7382971343
  0
LINE
  5
40E
100
AcDbEntity
  8
ASSI
100
AcDbLine
 62
253
  6
CONTINUOUS
 10
3.81
 20
-26.1382971343
 11
3.81
 21
-40.9382971343
  0
LINE
  5
40F
100
AcDbEntity
  8
ASSI
100
AcDbLine
 62
7
  6
CONTINUOUS
 10
4.5499707658
 20
-7.6451123743
 11
4.5499707658
 21
-20.7382971343
  0
LINE
  5
410
100
AcDbEntity
  8
ASSI
100
AcDbLine
 62
7
  6
CONTINUOUS
 10
4.5499707658
 20
-26.1382971343
 11
4.5499707658
 21
-40.9382971343
  0
LWPOLYLINE
  5
411
100
AcDbEntity
  8
RACCORDO
100
AcDbPolyline
 62
253
  6
CONTINUOUS
 90
5
 70
0
 10
9.5790630854
 20
-21.2502156966
 10
9.6079927937
 20
-21.2496970916
 10
9.6290235941
 20
-21.2489835058
 10
9.6417957851
 20
-21.248087144
 10
9.6460909168
 20
-21.2470233375
  0
LINE
  5
412
100
AcDbEntity
  8
RACCORDO
100
AcDbLine
 62
253
  6
CONTINUOUS
 10
-9.9655908263
 20
-21.2489835058
 11
-9.8362255378
 21
-21.2470233375
  0
LINE
  5
413
100
AcDbEntity
  8
RACCORDO
100
AcDbLine
 62
253
  6
CONTINUOUS
 10
-10.0861434986
 20
-21.2502156966
 11
-9.9655908263
 21
-21.2489835058
  0
LWPOLYLINE
  5
414
100
AcDbEntity
  8
RACCORDO
100
AcDbPolyline
 62
253
  6
CONTINUOUS
 90
3
 70
0
 10
9.4996127959
 20
-21.2506359702
 10
9.5427292719
 20
-21.2505304506
 10
9.5790630854
 20
-21.2502156966
  0
LINE
  5
415
100
AcDbEntity
  8
RACCORDO
100
AcDbLine
 62
253
  6
CONTINUOUS
 10
-9.8362255378
 20
-21.2470233375
 11
9.1461670693
 21
-21.2470233375
  0
LINE
  5
416
100
AcDbEntity
  8
RACCORDO
100
AcDbLine
 62
7
  6
CONTINUOUS
 10
-9.8362255378
 20
-20.7382971343
 11
9.1461670693
 21
-20.7382971343
  0
LINE
  5
417
100
AcDbEntity
  8
RACCORDO
100
AcDbLine
 62
253
  6
CONTINUOUS
 10
9.3960850511
 20
-21.2502156967
 11
9.4996127959
 21
-21.2506359702
  0
LWPOLYLINE
  5
418
100
AcDbEntity
  8
RACCORDO
100
AcDbPolyline
 62
253
  6
CONTINUOUS
 90
4
 70
0
 10
-10.2691215417
 20
-21.2502156967
 10
-10.232787727
 20
-21.2505304507
 10
-10.1896712499
 20
-21.2506359702
 10
-10.0861434986
 20
-21.2502156966
  0
LINE
  5
419
100
AcDbEntity
  8
RACCORDO
100
AcDbLine
 62
253
  6
CONTINUOUS
 10
9.2755323759
 20
-21.248983506
 11
9.3960850511
 21
-21.2502156967
  0
LINE
  5
41A
100
AcDbEntity
  8
RACCORDO
100
AcDbLine
 62
253
  6
CONTINUOUS
 10
9.1461670693
 20
-21.2470233375
 11
9.2755323759
 21
-21.248983506
  0
LWPOLYLINE
  5
41B
100
AcDbEntity
  8
RACCORDO
100
AcDbPolyline
 62
253
  6
CONTINUOUS
 90
6
 70
0
 10
8.6515406793
 20
-23.334806653
 10
8.648806522
 20
-23.3344445764
 10
8.6406205662
 20
-23.3341448842
 10
8.6270730415
 20
-23.3338992631
 10
8.6083117314
 20
-23.3336946784
 10
8.556033643
 20
-23.3334228053
  0
LINE
  5
41C
100
AcDbEntity
  8
0
100
AcDbLine
 62
7
  6
CONTINUOUS
 10
5.0949707657
 20
-40.4382971343
 11
5.0949707657
 21
-40.9382971343
  0
LINE
  5
41D
100
AcDbEntity
  8
0
100
AcDbLine
 62
7
  6
CONTINUOUS
 10
5.0949707657
 20
-45.7382971343
 11
5.0949707657
 21
-46.2382971343
  0
LINE
  5
41E
100
AcDbEntity
  8
0
100
AcDbLine
 62
7
  6
CONTINUOUS
 10
5.5149707657
 20
-40.2882971343
 11
5.5149707657
 21
-40.4382971343
  0
LINE
  5
41F
100
AcDbEntity
  8
0
100
AcDbLine
 62
7
  6
CONTINUOUS
 10
5.5149707657
 20
-46.2382971343
 11
5.5149707657
 21
-46.3882971343
  0
LINE
  5
420
100
AcDbEntity
  8
0
100
AcDbLine
 62
7
  6
CONTINUOUS
 10
5.5349707657
 20
-41.8382971343
 11
5.5349707657
 21
-40.4382971343
  0
LINE
  5
421
100
AcDbEntity
  8
0
100
AcDbLine
 62
7
  6
CONTINUOUS
 10
5.5349707657
 20
-44.8382971343
 11
5.5349707657
 21
-46.2382971343
  0
LINE
  5
422
100
AcDbEntity
  8
0
100
AcDbLine
 62
7
  6
CONTINUOUS
 10
6.4349707657
 20
-41.8382971343
 11
6.4349707657
 21
-44.8382971343
  0
LINE
  5
423
100
AcDbEntity
  8
0
100
AcDbLine
 62
7
  6
CONTINUOUS
 10
6.5449707657
 20
-44.1682971343
 11
6.5449707657
 21
-42.4882971343
  0
LINE
  5
424
100
AcDbEntity
  8
0
100
AcDbLine
 62
7
  6
CONTINUOUS
 10
6.6604408196
 20
-44.1682971343
 11
6.6604408196
 21
-42.4882971343
  0
LINE
  5
425
100
AcDbEntity
  8
0
100
AcDbLine
 62
7
  6
CONTINUOUS
 10
6.9949707657
 20
-44.8382971343
 11
6.9949707657
 21
-41.8382971343
  0
LINE
  5
426
100
AcDbEntity
  8
RACCORDO
100
AcDbLine
 62
253
  6
CONTINUOUS
 10
8.1112569394
 20
-26.1382971343
 11
8.1112569394
 21
-25.6470233375
  0
LINE
  5
427
100
AcDbEntity
  8
RACCORDO
100
AcDbLine
 62
253
  6
CONTINUOUS
 10
8.1516168318
 20
-23.1382971343
 11
8.1516168318
 21
-23.334806653
  0
LINE
  5
428
100
AcDbEntity
  8
RACCORDO
100
AcDbLine
 62
253
  6
CONTINUOUS
 10
9.1165848487
 20
-23.1382971343
 11
9.1165848487
 21
-22.9417876156
  0
LINE
  5
429
100
AcDbEntity
  8
RACCORDO
100
AcDbLine
 62
253
  6
CONTINUOUS
 10
9.1461670693
 20
-20.7382971343
 11
9.1461670759
 21
-21.2470233377
  0
LINE
  5
42A
100
AcDbEntity
  8
RACCORDO
100
AcDbLine
 62
253
  6
CONTINUOUS
 10
8.1516168318
 20
-23.334806653
 11
8.1112569394
 21
-25.6470233375
  0
LINE
  5
42B
100
AcDbEntity
  8
RACCORDO
100
AcDbLine
 62
7
  6
CONTINUOUS
 10
8.6515406793
 20
-23.334806653
 11
8.611180787
 21
-25.6470233375
  0
LINE
  5
42C
100
AcDbEntity
  8
RACCORDO
100
AcDbLine
 62
253
  6
CONTINUOUS
 10
9.1461670693
 20
-21.2470233375
 11
9.1165848487
 21
-22.9417876156
  0
LINE
  5
42D
100
AcDbEntity
  8
RACCORDO
100
AcDbLine
 62
7
  6
CONTINUOUS
 10
9.646090942
 20
-21.2295723723
 11
9.6460909168
 21
-21.2470233375
  0
LINE
  5
42E
100
AcDbEntity
  8
RACCORDO
100
AcDbLine
 62
7
  6
CONTINUOUS
 10
9.6460909168
 20
-21.2470233375
 11
9.6165086963
 21
-22.9417876156
  0
LINE
  5
42F
100
AcDbEntity
  8
0
100
AcDbLine
 62
7
  6
CONTINUOUS
 10
-0.7350292343
 20
-45.8882971343
 11
-1.0850292343
 21
-46.3882971343
  0
LINE
  5
430
100
AcDbEntity
  8
0
100
AcDbLine
 62
7
  6
CONTINUOUS
 10
-1.2993074577
 20
-7.3073390964
 11
-2.6901652493
 21
-5.9668806926
  0
LINE
  5
431
100
AcDbEntity
  8
0
100
AcDbLine
 62
7
  6
CONTINUOUS
 10
1.8449707657
 20
-45.8882971343
 11
1.4949707657
 21
-46.3882971343
  0
LINE
  5
432
100
AcDbEntity
  8
0
100
AcDbLine
 62
7
  6
CONTINUOUS
 10
0.1243541043
 20
-8.4733197509
 11
-1.2993074577
 21
-7.3073390964
  0
LINE
  5
433
100
AcDbEntity
  8
0
100
AcDbLine
 62
7
  6
CONTINUOUS
 10
-2.6901652493
 20
-5.9668806926
 11
-4.071036503
 21
-4.7942849107
  0
LINE
  5
434
100
AcDbEntity
  8
0
100
AcDbLine
 62
7
  6
CONTINUOUS
 10
2.0702907495
 20
-9.1652760731
 11
0.1243541043
 21
-8.4733197509
  0
LINE
  5
435
100
AcDbEntity
  8
0
100
AcDbLine
 62
7
  6
CONTINUOUS
 10
-4.071036503
 20
-4.7942849107
 11
-5.2400292343
 21
-4.3760595069
  0
LINE
  5
436
100
AcDbEntity
  8
0
100
AcDbLine
 62
7
  6
CONTINUOUS
 10
-103.0758836771
 20
32.7813159182
 11
-103.7764976589
 21
32.4396036473
  0
LINE
  5
437
100
AcDbEntity
  8
0
100
AcDbLine
 62
7
  6
CONTINUOUS
 10
-100.1058823529
 20
-1.21486298
 11
-99.2058823529
 21
-1.5368520338
  0
LINE
  5
438
100
AcDbEntity
  8
0
100
AcDbLine
 62
7
  6
CONTINUOUS
 10
-97.5764976854
 20
29.5910164464
 11
-98.0764976854
 21
29.0910164464
  0
LINE
  5
439
100
AcDbEntity
  8
0
100
AcDbLine
 62
7
  6
CONTINUOUS
 10
-106.1558823529
 20
28.9410164464
 11
-106.1558823529
 21
35.9410164464
  0
LWPOLYLINE
  5
43A
100
AcDbEntity
  8
RACCORDO
100
AcDbPolyline
 62
253
  6
CONTINUOUS
 90
5
 70
0
 10
-102.8799746725
 20
9.9029350087
 10
-102.9089043809
 20
9.9024164037
 10
-102.9299351813
 20
9.9017028179
 10
-102.9427073723
 20
9.9008064562
 10
-102.947002504
 20
9.8997426496
  0
LINE
  5
43B
100
AcDbEntity
  8
RACCORDO
100
AcDbLine
 62
253
  6
CONTINUOUS
 10
-89.1353207609
 20
9.9017028179
 11
-89.2646860494
 21
9.8997426496
  0
LINE
  5
43C
100
AcDbEntity
  8
RACCORDO
100
AcDbLine
 62
253
  6
CONTINUOUS
 10
-89.0147680886
 20
9.9029350087
 11
-89.1353207609
 21
9.9017028179
  0
LWPOLYLINE
  5
43D
100
AcDbEntity
  8
RACCORDO
100
AcDbPolyline
 62
253
  6
CONTINUOUS
 90
3
 70
0
 10
-102.8005243831
 20
9.9033552823
 10
-102.8436408591
 20
9.9032497627
 10
-102.8799746725
 20
9.9029350087
  0
LINE
  5
43E
100
AcDbEntity
  8
RACCORDO
100
AcDbLine
 62
7
  6
CONTINUOUS
 10
-89.2646860494
 20
9.3910164464
 11
-102.4470786564
 21
9.3910164464
  0
LINE
  5
43F
100
AcDbEntity
  8
RACCORDO
100
AcDbLine
 62
253
  6
CONTINUOUS
 10
-89.2646860494
 20
9.8997426496
 11
-102.4470786564
 21
9.8997426496
  0
LINE
  5
440
100
AcDbEntity
  8
RACCORDO
100
AcDbLine
 62
253
  6
CONTINUOUS
 10
-102.6969966383
 20
9.9029350088
 11
-102.8005243831
 21
9.9033552823
  0
LWPOLYLINE
  5
441
100
AcDbEntity
  8
RACCORDO
100
AcDbPolyline
 62
253
  6
CONTINUOUS
 90
4
 70
0
 10
-88.8317900455
 20
9.9029350088
 10
-88.8681238602
 20
9.9032497628
 10
-88.9112403372
 20
9.9033552823
 10
-89.0147680886
 20
9.9029350087
  0
LINE
  5
442
100
AcDbEntity
  8
RACCORDO
100
AcDbLine
 62
253
  6
CONTINUOUS
 10
-102.5764439631
 20
9.9017028181
 11
-102.6969966383
 21
9.9029350088
  0
LINE
  5
443
100
AcDbEntity
  8
RACCORDO
100
AcDbLine
 62
253
  6
CONTINUOUS
 10
-102.4470786564
 20
9.8997426496
 11
-102.5764439631
 21
9.9017028181
  0
LINE
  5
444
100
AcDbEntity
  8
0
100
AcDbLine
 62
7
  6
CONTINUOUS
 10
-103.7764976052
 20
31.5424292193
 11
-103.7764976854
 21
32.4396036344
  0
LINE
  5
445
100
AcDbEntity
  8
0
100
AcDbLine
 62
7
  6
CONTINUOUS
 10
-103.7558823529
 20
31.1410164464
 11
-103.7558823529
 21
31.0910164464
  0
LINE
  5
446
100
AcDbEntity
  8
0
100
AcDbLine
 62
7
  6
CONTINUOUS
 10
-103.7558823529
 20
32.8210164464
 11
-103.7558823529
 21
32.8910164464
  0
LINE
  5
447
100
AcDbEntity
  8
0
100
AcDbLine
 62
7
  6
CONTINUOUS
 10
-103.0758823529
 20
32.781315373
 11
-103.0758823529
 21
32.0310164464
  0
LINE
  5
448
100
AcDbEntity
  8
RACCORDO
100
AcDbLine
 62
7
  6
CONTINUOUS
 10
-102.9470025292
 20
9.8822916844
 11
-102.947002504
 21
9.8997426496
  0
LINE
  5
449
100
AcDbEntity
  8
RACCORDO
100
AcDbLine
 62
7
  6
CONTINUOUS
 10
-102.947002504
 20
9.8997426496
 11
-102.9174202835
 21
11.5945069277
  0
LINE
  5
44A
100
AcDbEntity
  8
RACCORDO
100
AcDbLine
 62
253
  6
CONTINUOUS
 10
-102.8741710119
 20
11.5956266491
 11
-102.8219277888
 21
11.5958913795
  0
LINE
  5
44B
100
AcDbEntity
  8
RACCORDO
100
AcDbLine
 62
253
  6
CONTINUOUS
 10
-89.2942682699
 20
11.5945069277
 11
-89.0004360573
 21
11.5958913795
  0
LINE
  5
44C
100
AcDbEntity
  8
RACCORDO
100
AcDbLine
 62
253
  6
CONTINUOUS
 10
-102.4174964359
 20
11.5945069277
 11
-89.2942682699
 21
11.5945069277
  0
LINE
  5
44D
100
AcDbEntity
  8
RACCORDO
100
AcDbLine
 62
253
  6
CONTINUOUS
 10
-89.0004360573
 20
11.5958913795
 11
-88.8898060734
 21
11.5958920635
  0
LINE
  5
44E
100
AcDbEntity
  8
RACCORDO
100
AcDbLine
 62
253
  6
CONTINUOUS
 10
-102.8219277888
 20
11.5958913795
 11
-102.6674012675
 21
11.5957850336
  0
LINE
  5
44F
100
AcDbEntity
  8
RACCORDO
100
AcDbLine
 62
253
  6
CONTINUOUS
 10
-102.6674012675
 20
11.5957850336
 11
-102.4174964359
 21
11.5945069277
  0
LWPOLYLINE
  5
450
100
AcDbEntity
  8
RACCORDO
100
AcDbPolyline
 62
253
  6
CONTINUOUS
 90
6
 70
0
 10
-88.8898060734
 20
11.5958920635
 10
-88.8375640647
 20
11.5956269104
 10
-88.8188169058
 20
11.5954144126
 10
-88.8052749596
 20
11.5951507131
 10
-88.7970876179
 20
11.5948454481
 10
-88.7943444224
 20
11.5945069277
  0
LWPOLYLINE
  5
451
100
AcDbEntity
  8
RACCORDO
100
AcDbPolyline
 62
253
  6
CONTINUOUS
 90
6
 70
0
 10
-101.9524522665
 20
11.9875259651
 10
-101.9497181092
 20
11.9871638885
 10
-101.9415321534
 20
11.9868641963
 10
-101.9279846287
 20
11.9866185752
 10
-101.9092233186
 20
11.9864139905
 10
-101.8569452302
 20
11.9861421174
  0
LINE
  5
452
100
AcDbEntity
  8
RACCORDO
100
AcDbLine
 62
253
  6
CONTINUOUS
 10
-102.4470786564
 20
9.3910164464
 11
-102.4470786631
 21
9.8997426498
  0
LINE
  5
453
100
AcDbEntity
  8
RACCORDO
100
AcDbLine
 62
253
  6
CONTINUOUS
 10
-102.4174964359
 20
11.7910164464
 11
-102.4174964359
 21
11.5945069277
  0
LINE
  5
454
100
AcDbEntity
  8
RACCORDO
100
AcDbLine
 62
253
  6
CONTINUOUS
 10
-101.4525284189
 20
11.7910164464
 11
-101.4525284189
 21
11.9875259651
  0
LINE
  5
455
100
AcDbEntity
  8
RACCORDO
100
AcDbLine
 62
253
  6
CONTINUOUS
 10
-101.4121685266
 20
14.7910164464
 11
-101.4121685266
 21
14.2997426496
  0
LINE
  5
456
100
AcDbEntity
  8
0
100
AcDbLine
 62
7
  6
CONTINUOUS
 10
-101.2215745468
 20
31.2010164464
 11
-101.2215745468
 21
31.9510164464
  0
LINE
  5
457
100
AcDbEntity
  8
0
100
AcDbLine
 62
7
  6
CONTINUOUS
 10
-101.1558823529
 20
35.9410164464
 11
-101.1558823529
 21
35.0410164464
  0
LINE
  5
458
100
AcDbEntity
  8
RACCORDO
100
AcDbLine
 62
253
  6
CONTINUOUS
 10
-102.4470786564
 20
9.8997426496
 11
-102.4174964359
 21
11.5945069277
  0
LINE
  5
459
100
AcDbEntity
  8
RACCORDO
100
AcDbLine
 62
7
  6
CONTINUOUS
 10
-101.9524522665
 20
11.9875259651
 11
-101.9120923742
 21
14.2997426496
  0
LINE
  5
45A
100
AcDbEntity
  8
RACCORDO
100
AcDbLine
 62
253
  6
CONTINUOUS
 10
-101.4525284189
 20
11.9875259651
 11
-101.4121685266
 21
14.2997426496
  0
LWPOLYLINE
  5
45B
100
AcDbEntity
  8
RACCORDO
100
AcDbPolyline
 62
253
  6
CONTINUOUS
 90
5
 70
0
 10
-102.9174202835
 20
11.5945069277
 10
-102.9146734147
 20
11.5948456794
 10
-102.9064773376
 20
11.5951509537
 10
-102.8929250303
 20
11.5954144958
 10
-102.8741710119
 20
11.5956266491
  0
LWPOLYLINE
  5
45C
100
AcDbEntity
  8
RACCORDO
100
AcDbPolyline
 62
253
  6
CONTINUOUS
 90
4
 70
0
 10
-89.7837006568
 20
11.9866195989
 10
-89.7701887914
 20
11.9868647584
 10
-89.7620335511
 20
11.9871640402
 10
-89.7593124393
 20
11.9875259651
  0
LINE
  5
45D
100
AcDbEntity
  8
RACCORDO
100
AcDbLine
 62
253
  6
CONTINUOUS
 10
-89.8262101927
 20
11.9862512702
 11
-89.7837006568
 21
11.9866195989
  0
LINE
  5
45E
100
AcDbEntity
  8
RACCORDO
100
AcDbLine
 62
253
  6
CONTINUOUS
 10
-101.7024340763
 20
11.9862512702
 11
-101.4525284189
 21
11.9875259651
  0
LINE
  5
45F
100
AcDbEntity
  8
RACCORDO
100
AcDbLine
 62
7
  6
CONTINUOUS
 10
-102.7174507445
 20
11.7910164464
 11
-88.9943139614
 21
11.7910164464
  0
LINE
  5
460
100
AcDbEntity
  8
RACCORDO
100
AcDbLine
 62
253
  6
CONTINUOUS
 10
-89.924621309
 20
11.9860914569
 11
-89.8262101927
 21
11.9862512702
  0
LINE
  5
461
100
AcDbEntity
  8
RACCORDO
100
AcDbLine
 62
253
  6
CONTINUOUS
 10
-101.4525284189
 20
11.9875259651
 11
-90.2592362869
 21
11.9875259651
  0
LINE
  5
462
100
AcDbEntity
  8
RACCORDO
100
AcDbLine
 62
253
  6
CONTINUOUS
 10
-101.8569452302
 20
11.9861421174
 11
-101.7024340763
 21
11.9862512702
  0
LINE
  5
463
100
AcDbEntity
  8
RACCORDO
100
AcDbLine
 62
253
  6
CONTINUOUS
 10
-90.1552385117
 20
11.9868641963
 11
-89.924621309
 21
11.9860914569
  0
LINE
  5
464
100
AcDbEntity
  8
RACCORDO
100
AcDbLine
 62
253
  6
CONTINUOUS
 10
-90.2592362869
 20
11.9875259651
 11
-90.1552385117
 21
11.9868641963
  0
LWPOLYLINE
  5
465
100
AcDbEntity
  8
RACCORDO
100
AcDbPolyline
 62
253
  6
CONTINUOUS
 90
5
 70
0
 10
-88.7647622018
 20
9.8997426496
 10
-88.769057335
 20
9.9008064563
 10
-88.7818295294
 20
9.9017028181
 10
-88.802860334
 20
9.9024164039
 10
-88.8317900455
 20
9.9029350088
  0
LINE
  5
466
100
AcDbEntity
  8
0
100
AcDbLine
 62
7
  6
CONTINUOUS
 10
-100.3258823529
 20
31.2010164464
 11
-100.3258823529
 21
31.9510164464
  0
LINE
  5
467
100
AcDbEntity
  8
0
100
AcDbLine
 62
7
  6
CONTINUOUS
 10
-100.1758823529
 20
31.1410164464
 11
-100.1758823529
 21
32.8210164464
  0
LINE
  5
468
100
AcDbEntity
  8
ASSI
100
AcDbLine
 62
7
  6
CONTINUOUS
 10
-100.1058823529
 20
28.9410164464
 11
-100.1058823529
 21
14.7910164464
  0
LINE
  5
469
100
AcDbEntity
  8
ASSI
100
AcDbLine
 62
7
  6
CONTINUOUS
 10
-100.1058823529
 20
9.3910164464
 11
-100.1058823529
 21
-1.21486298
  0
LINE
  5
46A
100
AcDbEntity
  8
0
100
AcDbLine
 62
7
  6
CONTINUOUS
 10
-100.0764976854
 20
34.8910164464
 11
-100.0764976854
 21
33.4910164464
  0
LINE
  5
46B
100
AcDbEntity
  8
0
100
AcDbLine
 62
7
  6
CONTINUOUS
 10
-100.0764976854
 20
30.4910164464
 11
-100.0764976854
 21
29.0910164464
  0
LINE
  5
46C
100
AcDbEntity
  8
0
100
AcDbLine
 62
7
  6
CONTINUOUS
 10
-99.6558823529
 20
28.9410164464
 11
-99.6558823529
 21
29.0910164464
  0
LINE
  5
46D
100
AcDbEntity
  8
0
100
AcDbLine
 62
7
  6
CONTINUOUS
 10
-99.6558823529
 20
34.8910164464
 11
-99.6558823529
 21
35.0410164464
  0
LWPOLYLINE
  5
46E
100
AcDbEntity
  8
RACCORDO
100
AcDbPolyline
 62
253
  6
CONTINUOUS
 90
7
 70
0
 10
-101.9120923742
 20
14.2997426496
 10
-101.9077972424
 20
14.3008064562
 10
-101.8950250514
 20
14.3017028179
 10
-101.873994251
 20
14.3024164037
 10
-101.8450645427
 20
14.3029350087
 10
-101.8087307292
 20
14.3032497627
 10
-101.7656142532
 20
14.3033552823
  0
LINE
  5
46F
100
AcDbEntity
  8
RACCORDO
100
AcDbLine
 62
253
  6
CONTINUOUS
 10
-90.2995961793
 20
14.2997426496
 11
-90.1702308908
 21
14.3017028179
  0
LINE
  5
470
100
AcDbEntity
  8
RACCORDO
100
AcDbLine
 62
253
  6
CONTINUOUS
 10
-90.1702308908
 20
14.3017028179
 11
-90.0496782185
 21
14.3029350087
  0
LWPOLYLINE
  5
471
100
AcDbEntity
  8
RACCORDO
100
AcDbPolyline
 62
253
  6
CONTINUOUS
 90
8
 70
0
 10
-90.0496782185
 20
14.3029350087
 10
-89.9461504671
 20
14.3033552823
 10
-89.9030339901
 20
14.3032497628
 10
-89.8667001754
 20
14.3029350088
 10
-89.8377704639
 20
14.3024164039
 10
-89.8167396593
 20
14.3017028181
 10
-89.8039674649
 20
14.3008064563
 10
-89.7996723317
 20
14.2997426496
  0
LINE
  5
472
100
AcDbEntity
  8
RACCORDO
100
AcDbLine
 62
253
  6
CONTINUOUS
 10
-101.4121685266
 20
14.2997426496
 11
-90.2995961793
 21
14.2997426496
  0
LINE
  5
473
100
AcDbEntity
  8
RACCORDO
100
AcDbLine
 62
7
  6
CONTINUOUS
 10
-101.4121685266
 20
14.7910164464
 11
-90.2995961793
 21
14.7910164464
  0
LINE
  5
474
100
AcDbEntity
  8
RACCORDO
100
AcDbLine
 62
253
  6
CONTINUOUS
 10
-101.7656142532
 20
14.3033552823
 11
-101.6620865085
 21
14.3029350088
  0
LINE
  5
475
100
AcDbEntity
  8
RACCORDO
100
AcDbLine
 62
253
  6
CONTINUOUS
 10
-101.6620865085
 20
14.3029350088
 11
-101.5415338332
 21
14.3017028181
  0
LINE
  5
476
100
AcDbEntity
  8
RACCORDO
100
AcDbLine
 62
253
  6
CONTINUOUS
 10
-101.5415338332
 20
14.3017028181
 11
-101.4121685266
 21
14.2997426496
  0
LINE
  5
477
100
AcDbEntity
  8
ASSI
100
AcDbLine
 62
7
  6
CONTINUOUS
 10
-99.2058823529
 20
29.0910164464
 11
-99.2058823529
 21
14.7910164464
  0
LINE
  5
478
100
AcDbEntity
  8
ASSI
100
AcDbLine
 62
7
  6
CONTINUOUS
 10
-99.2058823529
 20
9.3910164464
 11
-99.2058823529
 21
-1.5368520338
  0
LINE
  5
479
100
AcDbEntity
  8
0
100
AcDbLine
 62
7
  6
CONTINUOUS
 10
-98.1758823529
 20
32.8210164464
 11
-98.1758823529
 21
31.1410164464
  0
LINE
  5
47A
100
AcDbEntity
  8
0
100
AcDbLine
 62
7
  6
CONTINUOUS
 10
-96.8758823529
 20
33.4910164464
 11
-96.8758823529
 21
32.8210164464
  0
LINE
  5
47B
100
AcDbEntity
  8
0
100
AcDbLine
 62
7
  6
CONTINUOUS
 10
-96.8758823529
 20
31.1410164464
 11
-96.8758823529
 21
30.4910164464
  0
LINE
  5
47C
100
AcDbEntity
  8
0
100
AcDbLine
 62
7
  6
CONTINUOUS
 10
-96.5764976854
 20
31.2010164464
 11
-96.5764976854
 21
30.4910164464
  0
LINE
  5
47D
100
AcDbEntity
  8
0
100
AcDbLine
 62
7
  6
CONTINUOUS
 10
-96.5764976854
 20
32.7810578412
 11
-96.5764976854
 21
33.4910164464
  0
LINE
  5
47E
100
AcDbEntity
  8
0
100
AcDbLine
 62
7
  6
CONTINUOUS
 10
-96.0264976854
 20
29.5910164464
 11
-96.0264976854
 21
34.3910164464
  0
LINE
  5
47F
100
AcDbEntity
  8
RACCORDO
100
AcDbLine
 62
253
  6
CONTINUOUS
 10
-90.2592362869
 20
11.9875259651
 11
-90.2995961793
 21
14.2997426496
  0
LINE
  5
480
100
AcDbEntity
  8
RACCORDO
100
AcDbLine
 62
253
  6
CONTINUOUS
 10
-90.2995961793
 20
14.7910164464
 11
-90.2995962044
 21
14.2997426498
  0
LINE
  5
481
100
AcDbEntity
  8
RACCORDO
100
AcDbLine
 62
253
  6
CONTINUOUS
 10
-90.2592362869
 20
11.7910164464
 11
-90.2592362869
 21
11.9875259651
  0
LINE
  5
482
100
AcDbEntity
  8
RACCORDO
100
AcDbLine
 62
7
  6
CONTINUOUS
 10
-89.7593124393
 20
11.9875259651
 11
-89.7996723317
 21
14.2997426496
  0
LINE
  5
483
100
AcDbEntity
  8
RACCORDO
100
AcDbLine
 62
253
  6
CONTINUOUS
 10
-89.2646860494
 20
9.8997426496
 11
-89.2942682699
 21
11.5945069277
  0
LINE
  5
484
100
AcDbEntity
  8
RACCORDO
100
AcDbLine
 62
7
  6
CONTINUOUS
 10
-88.7647622018
 20
9.8997426496
 11
-88.7943444224
 21
11.5945069277
  0
LINE
  5
485
100
AcDbEntity
  8
RACCORDO
100
AcDbLine
 62
253
  6
CONTINUOUS
 10
-89.2942682699
 20
11.7910164464
 11
-89.2942682999
 21
11.594506928
  0
LINE
  5
486
100
AcDbEntity
  8
RACCORDO
100
AcDbLine
 62
253
  6
CONTINUOUS
 10
-89.2646860494
 20
9.3910164464
 11
-89.2646860494
 21
9.8997426496
  0
LINE
  5
487
100
AcDbEntity
  8
RACCORDO
100
AcDbLine
 62
7
  6
CONTINUOUS
 10
-88.7647622085
 20
9.882289862
 11
-88.7647622018
 21
9.8997426498
  0
LINE
  5
488
100
AcDbEntity
  8
0
100
AcDbLine
 62
7
  6
CONTINUOUS
 10
-106.1558823529
 20
28.9410164464
 11
-99.6558823529
 21
28.9410164464
  0
LINE
  5
489
100
AcDbEntity
  8
0
100
AcDbLine
 62
7
  6
CONTINUOUS
 10
-100.0764976854
 20
29.0910164464
 11
-98.0764976854
 21
29.0910164464
  0
LINE
  5
48A
100
AcDbEntity
  8
0
100
AcDbLine
 62
7
  6
CONTINUOUS
 10
-103.0764976854
 20
31.2010164464
 11
-103.7764976052
 21
31.5424292193
  0
LINE
  5
48B
100
AcDbEntity
  8
0
100
AcDbLine
 62
7
  6
CONTINUOUS
 10
-96.0264976854
 20
29.5910164464
 11
-97.5764976854
 21
29.5910164464
  0
LINE
  5
48C
100
AcDbEntity
  8
0
100
AcDbLine
 62
7
  6
CONTINUOUS
 10
-103.1558823529
 20
30.4910164464
 11
-96.8758823529
 21
30.4910164464
  0
LINE
  5
48D
100
AcDbEntity
  8
0
100
AcDbLine
 62
7
  6
CONTINUOUS
 10
-96.5764976854
 20
30.4910164464
 11
-96.0264976854
 21
30.4910164464
  0
LINE
  5
48E
100
AcDbEntity
  8
0
100
AcDbLine
 62
7
  6
CONTINUOUS
 10
-98.0764976854
 20
34.8910164464
 11
-97.5764976854
 21
34.3910164464
  0
LINE
  5
48F
100
AcDbEntity
  8
0
100
AcDbLine
 62
7
  6
CONTINUOUS
 10
-96.8758823529
 20
31.1410164464
 11
-98.1758823529
 21
31.1410164464
  0
LINE
  5
490
100
AcDbEntity
  8
0
100
AcDbLine
 62
7
  6
CONTINUOUS
 10
-100.1758823529
 20
31.1410164464
 11
-103.7558823529
 21
31.1410164464
  0
LINE
  5
491
100
AcDbEntity
  8
0
100
AcDbLine
 62
7
  6
CONTINUOUS
 10
-103.0764976854
 20
31.2010164464
 11
-100.1758823529
 21
31.2010164464
  0
LINE
  5
492
100
AcDbEntity
  8
0
100
AcDbLine
 62
7
  6
CONTINUOUS
 10
-98.1758823529
 20
31.2010164464
 11
-96.5764976854
 21
31.2010164464
  0
LINE
  5
493
100
AcDbEntity
  8
0
100
AcDbLine
 62
7
  6
CONTINUOUS
 10
-100.1758823529
 20
31.9510164464
 11
-101.2215745468
 21
31.9510164464
  0
LINE
  5
494
100
AcDbEntity
  8
0
100
AcDbLine
 62
7
  6
CONTINUOUS
 10
-103.7764974724
 20
32.0310164464
 11
-103.0758826696
 21
32.0310164464
  0
LINE
  5
495
100
AcDbEntity
  8
0
100
AcDbLine
 62
7
  6
CONTINUOUS
 10
-96.5764976854
 20
32.7810164464
 11
-98.1758823529
 21
32.7810164464
  0
LINE
  5
496
100
AcDbEntity
  8
0
100
AcDbLine
 62
7
  6
CONTINUOUS
 10
-100.1758823529
 20
32.7810164464
 11
-103.0762397514
 21
32.7810164464
  0
LINE
  5
497
100
AcDbEntity
  8
0
100
AcDbLine
 62
7
  6
CONTINUOUS
 10
-96.8758823529
 20
32.8210164464
 11
-98.1758823529
 21
32.8210164464
  0
LINE
  5
498
100
AcDbEntity
  8
0
100
AcDbLine
 62
7
  6
CONTINUOUS
 10
-100.1758823529
 20
32.8210164464
 11
-103.7558823529
 21
32.8210164464
  0
LINE
  5
499
100
AcDbEntity
  8
0
100
AcDbLine
 62
7
  6
CONTINUOUS
 10
-96.0264976854
 20
33.4910164464
 11
-96.5764976854
 21
33.4910164464
  0
LINE
  5
49A
100
AcDbEntity
  8
0
100
AcDbLine
 62
7
  6
CONTINUOUS
 10
-96.8758823529
 20
33.4910164464
 11
-103.1558823529
 21
33.4910164464
  0
LINE
  5
49B
100
AcDbEntity
  8
0
100
AcDbLine
 62
7
  6
CONTINUOUS
 10
-96.0264976854
 20
34.3910164464
 11
-97.5764976854
 21
34.3910164464
  0
LINE
  5
49C
100
AcDbEntity
  8
0
100
AcDbLine
 62
7
  6
CONTINUOUS
 10
-98.0764976854
 20
34.8910164464
 11
-100.0764976854
 21
34.8910164464
  0
LINE
  5
49D
100
AcDbEntity
  8
0
100
AcDbLine
 62
7
  6
CONTINUOUS
 10
-106.1558823529
 20
35.0410164464
 11
-99.6558823529
 21
35.0410164464
  0
LINE
  5
49E
100
AcDbEntity
  8
0
100
AcDbLine
 62
7
  6
CONTINUOUS
 10
-106.1558823529
 20
35.9410164464
 11
-101.1558823529
 21
35.9410164464
  0
LINE
  5
49F
100
AcDbEntity
  8
0
100
AcDbLine
 62
7
  6
CONTINUOUS
 10
-93.1558823529
 20
-47.2882971343
 11
-98.1558823529
 21
-47.2882971343
  0
LINE
  5
4A0
100
AcDbEntity
  8
0
100
AcDbLine
 62
7
  6
CONTINUOUS
 10
-93.1558823529
 20
-46.3882971343
 11
-99.6558823529
 21
-46.3882971343
  0
LINE
  5
4A1
100
AcDbEntity
  8
0
100
AcDbLine
 62
7
  6
CONTINUOUS
 10
-101.2352670205
 20
-46.2382971343
 11
-99.2352670205
 21
-46.2382971343
  0
LINE
  5
4A2
100
AcDbEntity
  8
0
100
AcDbLine
 62
7
  6
CONTINUOUS
 10
-103.2852670205
 20
-45.7382971343
 11
-101.7352670205
 21
-45.7382971343
  0
LINE
  5
4A3
100
AcDbEntity
  8
0
100
AcDbLine
 62
7
  6
CONTINUOUS
 10
-103.2852670205
 20
-44.8382971343
 11
-102.7352670205
 21
-44.8382971343
  0
LINE
  5
4A4
100
AcDbEntity
  8
0
100
AcDbLine
 62
7
  6
CONTINUOUS
 10
-102.4358823529
 20
-44.8382971343
 11
-96.1558823529
 21
-44.8382971343
  0
LINE
  5
4A5
100
AcDbEntity
  8
0
100
AcDbLine
 62
7
  6
CONTINUOUS
 10
-102.4358823529
 20
-44.1682971343
 11
-101.1358823529
 21
-44.1682971343
  0
LINE
  5
4A6
100
AcDbEntity
  8
0
100
AcDbLine
 62
7
  6
CONTINUOUS
 10
-99.1358823529
 20
-44.1682971343
 11
-95.5558823529
 21
-44.1682971343
  0
LINE
  5
4A7
100
AcDbEntity
  8
0
100
AcDbLine
 62
7
  6
CONTINUOUS
 10
-102.7352670205
 20
-44.1282971343
 11
-101.1358823529
 21
-44.1282971343
  0
LINE
  5
4A8
100
AcDbEntity
  8
0
100
AcDbLine
 62
7
  6
CONTINUOUS
 10
-99.1358823529
 20
-44.1282971343
 11
-96.2355249545
 21
-44.1282971343
  0
LINE
  5
4A9
100
AcDbEntity
  8
0
100
AcDbLine
 62
7
  6
CONTINUOUS
 10
-95.5352672335
 20
-43.3782971343
 11
-96.2358820362
 21
-43.3782971343
  0
LINE
  5
4AA
100
AcDbEntity
  8
0
100
AcDbLine
 62
7
  6
CONTINUOUS
 10
-98.0901901591
 20
-43.2982971343
 11
-99.1358823529
 21
-43.2982971343
  0
LINE
  5
4AB
100
AcDbEntity
  8
0
100
AcDbLine
 62
7
  6
CONTINUOUS
 10
-96.2352670205
 20
-42.5482971343
 11
-99.1358823529
 21
-42.5482971343
  0
LINE
  5
4AC
100
AcDbEntity
  8
0
100
AcDbLine
 62
7
  6
CONTINUOUS
 10
-101.1358823529
 20
-42.5482971343
 11
-102.7352670205
 21
-42.5482971343
  0
LINE
  5
4AD
100
AcDbEntity
  8
0
100
AcDbLine
 62
7
  6
CONTINUOUS
 10
-102.4358823529
 20
-42.4882971343
 11
-101.1358823529
 21
-42.4882971343
  0
LINE
  5
4AE
100
AcDbEntity
  8
0
100
AcDbLine
 62
7
  6
CONTINUOUS
 10
-99.1358823529
 20
-42.4882971343
 11
-95.5558823529
 21
-42.4882971343
  0
LINE
  5
4AF
100
AcDbEntity
  8
0
100
AcDbLine
 62
7
  6
CONTINUOUS
 10
-96.1558823529
 20
-41.8382971343
 11
-102.4358823529
 21
-41.8382971343
  0
LINE
  5
4B0
100
AcDbEntity
  8
0
100
AcDbLine
 62
7
  6
CONTINUOUS
 10
-102.7352670205
 20
-41.8382971343
 11
-103.2852670205
 21
-41.8382971343
  0
LINE
  5
4B1
100
AcDbEntity
  8
0
100
AcDbLine
 62
7
  6
CONTINUOUS
 10
-103.2852670205
 20
-40.9382971343
 11
-101.7352670205
 21
-40.9382971343
  0
LINE
  5
4B2
100
AcDbEntity
  8
0
100
AcDbLine
 62
7
  6
CONTINUOUS
 10
-99.2352670205
 20
-40.4382971343
 11
-101.2352670205
 21
-40.4382971343
  0
LINE
  5
4B3
100
AcDbEntity
  8
0
100
AcDbLine
 62
7
  6
CONTINUOUS
 10
-93.1558823529
 20
-40.2882971343
 11
-99.6558823529
 21
-40.2882971343
  0
LINE
  5
4B4
100
AcDbEntity
  8
0
100
AcDbLine
 62
7
  6
CONTINUOUS
 10
-101.2352670205
 20
-46.2382971343
 11
-101.7352670205
 21
-45.7382971343
  0
LINE
  5
4B5
100
AcDbEntity
  8
0
100
AcDbLine
 62
7
  6
CONTINUOUS
 10
-96.2352670205
 20
-42.5482971343
 11
-95.5352671007
 21
-42.8897099072
  0
LINE
  5
4B6
100
AcDbEntity
  8
RACCORDO
100
AcDbLine
 62
7
  6
CONTINUOUS
 10
-110.547002504
 20
-21.2470233375
 11
-110.5174202835
 21
-22.9417876156
  0
LINE
  5
4B7
100
AcDbEntity
  8
RACCORDO
100
AcDbLine
 62
253
  6
CONTINUOUS
 10
-110.0470786564
 20
-21.2470233375
 11
-110.0174964359
 21
-22.9417876156
  0
LINE
  5
4B8
100
AcDbEntity
  8
RACCORDO
100
AcDbLine
 62
7
  6
CONTINUOUS
 10
-109.5524522665
 20
-23.334806653
 11
-109.5120923742
 21
-25.6470233375
  0
LINE
  5
4B9
100
AcDbEntity
  8
RACCORDO
100
AcDbLine
 62
7
  6
CONTINUOUS
 10
-110.5470024974
 20
-21.2295705499
 11
-110.547002504
 21
-21.2470233377
  0
LINE
  5
4BA
100
AcDbEntity
  8
RACCORDO
100
AcDbLine
 62
253
  6
CONTINUOUS
 10
-110.0470786564
 20
-20.7382971343
 11
-110.0470786564
 21
-21.2470233375
  0
LINE
  5
4BB
100
AcDbEntity
  8
RACCORDO
100
AcDbLine
 62
253
  6
CONTINUOUS
 10
-110.0174964359
 20
-23.1382971343
 11
-110.017496406
 21
-22.9417876159
  0
LINE
  5
4BC
100
AcDbEntity
  8
RACCORDO
100
AcDbLine
 62
253
  6
CONTINUOUS
 10
-109.0525284189
 20
-23.334806653
 11
-109.0121685266
 21
-25.6470233375
  0
LINE
  5
4BD
100
AcDbEntity
  8
RACCORDO
100
AcDbLine
 62
253
  6
CONTINUOUS
 10
-109.0525284189
 20
-23.1382971343
 11
-109.0525284189
 21
-23.334806653
  0
LINE
  5
4BE
100
AcDbEntity
  8
RACCORDO
100
AcDbLine
 62
253
  6
CONTINUOUS
 10
-109.0121685266
 20
-26.1382971343
 11
-109.0121685014
 21
-25.6470233376
  0
LINE
  5
4BF
100
AcDbEntity
  8
0
100
AcDbLine
 62
7
  6
CONTINUOUS
 10
-103.2852670205
 20
-40.9382971343
 11
-103.2852670205
 21
-45.7382971343
  0
LINE
  5
4C0
100
AcDbEntity
  8
0
100
AcDbLine
 62
7
  6
CONTINUOUS
 10
-102.7352670205
 20
-42.5482971343
 11
-102.7352670205
 21
-41.8382971343
  0
LINE
  5
4C1
100
AcDbEntity
  8
0
100
AcDbLine
 62
7
  6
CONTINUOUS
 10
-102.7352670205
 20
-44.1283385291
 11
-102.7352670205
 21
-44.8382971343
  0
LINE
  5
4C2
100
AcDbEntity
  8
0
100
AcDbLine
 62
7
  6
CONTINUOUS
 10
-102.4358823529
 20
-44.8382971343
 11
-102.4358823529
 21
-44.1682971343
  0
LINE
  5
4C3
100
AcDbEntity
  8
0
100
AcDbLine
 62
7
  6
CONTINUOUS
 10
-102.4358823529
 20
-42.4882971343
 11
-102.4358823529
 21
-41.8382971343
  0
LINE
  5
4C4
100
AcDbEntity
  8
0
100
AcDbLine
 62
7
  6
CONTINUOUS
 10
-101.1358823529
 20
-44.1682971343
 11
-101.1358823529
 21
-42.4882971343
  0
LINE
  5
4C5
100
AcDbEntity
  8
ASSI
100
AcDbLine
 62
7
  6
CONTINUOUS
 10
-100.1058823529
 20
-4.21506498
 11
-100.1058823529
 21
-20.7382971343
  0
LINE
  5
4C6
100
AcDbEntity
  8
ASSI
100
AcDbLine
 62
7
  6
CONTINUOUS
 10
-100.1058823529
 20
-26.1382971343
 11
-100.1058823529
 21
-40.4382971343
  0
LINE
  5
4C7
100
AcDbEntity
  8
0
100
AcDbLine
 62
7
  6
CONTINUOUS
 10
-99.6558823529
 20
-40.2882971343
 11
-99.6558823529
 21
-40.4382971343
  0
LINE
  5
4C8
100
AcDbEntity
  8
0
100
AcDbLine
 62
7
  6
CONTINUOUS
 10
-99.6558823529
 20
-46.2382971343
 11
-99.6558823529
 21
-46.3882971343
  0
LWPOLYLINE
  5
4C9
100
AcDbEntity
  8
RACCORDO
100
AcDbPolyline
 62
253
  6
CONTINUOUS
 90
7
 70
0
 10
-97.3996723317
 20
-25.6470233375
 10
-97.4039674635
 20
-25.648087144
 10
-97.4167396544
 20
-25.6489835058
 10
-97.4377704548
 20
-25.6496970916
 10
-97.4667001632
 20
-25.6502156966
 10
-97.5030339766
 20
-25.6505304506
 10
-97.5461504526
 20
-25.6506359702
  0
LINE
  5
4CA
100
AcDbEntity
  8
RACCORDO
100
AcDbLine
 62
253
  6
CONTINUOUS
 10
-109.0121685266
 20
-25.6470233375
 11
-109.1415338151
 21
-25.6489835058
  0
LINE
  5
4CB
100
AcDbEntity
  8
RACCORDO
100
AcDbLine
 62
253
  6
CONTINUOUS
 10
-109.1415338151
 20
-25.6489835058
 11
-109.2620864874
 21
-25.6502156966
  0
LWPOLYLINE
  5
4CC
100
AcDbEntity
  8
RACCORDO
100
AcDbPolyline
 62
253
  6
CONTINUOUS
 90
8
 70
0
 10
-109.2620864874
 20
-25.6502156966
 10
-109.3656142388
 20
-25.6506359702
 10
-109.4087307158
 20
-25.6505304507
 10
-109.4450645305
 20
-25.6502156967
 10
-109.473994242
 20
-25.6496970918
 10
-109.4950250466
 20
-25.648983506
 10
-109.507797241
 20
-25.6480871442
 10
-109.5120923742
 20
-25.6470233375
  0
LINE
  5
4CD
100
AcDbEntity
  8
RACCORDO
100
AcDbLine
 62
7
  6
CONTINUOUS
 10
-97.8995961793
 20
-26.1382971343
 11
-109.0121685266
 21
-26.1382971343
  0
LINE
  5
4CE
100
AcDbEntity
  8
RACCORDO
100
AcDbLine
 62
253
  6
CONTINUOUS
 10
-97.8995961793
 20
-25.6470233375
 11
-109.0121685266
 21
-25.6470233375
  0
LINE
  5
4CF
100
AcDbEntity
  8
RACCORDO
100
AcDbLine
 62
253
  6
CONTINUOUS
 10
-97.5461504526
 20
-25.6506359702
 11
-97.6496781974
 21
-25.6502156967
  0
LINE
  5
4D0
100
AcDbEntity
  8
RACCORDO
100
AcDbLine
 62
253
  6
CONTINUOUS
 10
-97.6496781974
 20
-25.6502156967
 11
-97.7702308727
 21
-25.648983506
  0
LINE
  5
4D1
100
AcDbEntity
  8
RACCORDO
100
AcDbLine
 62
253
  6
CONTINUOUS
 10
-97.7702308727
 20
-25.648983506
 11
-97.8995961793
 21
-25.6470233375
  0
LINE
  5
4D2
100
AcDbEntity
  8
0
100
AcDbLine
 62
7
  6
CONTINUOUS
 10
-99.2352670205
 20
-46.2382971343
 11
-99.2352670205
 21
-44.8382971343
  0
LINE
  5
4D3
100
AcDbEntity
  8
0
100
AcDbLine
 62
7
  6
CONTINUOUS
 10
-99.2352670205
 20
-41.8382971343
 11
-99.2352670205
 21
-40.4382971343
  0
LINE
  5
4D4
100
AcDbEntity
  8
ASSI
100
AcDbLine
 62
7
  6
CONTINUOUS
 10
-99.2058823529
 20
-4.5370540338
 11
-99.2058823529
 21
-20.7382971343
  0
LINE
  5
4D5
100
AcDbEntity
  8
ASSI
100
AcDbLine
 62
7
  6
CONTINUOUS
 10
-99.2058823529
 20
-26.1382971343
 11
-99.2058823529
 21
-40.2882971343
  0
LINE
  5
4D6
100
AcDbEntity
  8
0
100
AcDbLine
 62
7
  6
CONTINUOUS
 10
-99.1358823529
 20
-42.4882971343
 11
-99.1358823529
 21
-44.1682971343
  0
LINE
  5
4D7
100
AcDbEntity
  8
0
100
AcDbLine
 62
7
  6
CONTINUOUS
 10
-98.9858823529
 20
-42.5482971343
 11
-98.9858823529
 21
-43.2982971343
  0
LINE
  5
4D8
100
AcDbEntity
  8
0
100
AcDbLine
 62
7
  6
CONTINUOUS
 10
-98.1558823529
 20
-47.2882971343
 11
-98.1558823529
 21
-46.3882971343
  0
LINE
  5
4D9
100
AcDbEntity
  8
0
100
AcDbLine
 62
7
  6
CONTINUOUS
 10
-98.0901901591
 20
-42.5482971343
 11
-98.0901901591
 21
-43.2982971343
  0
LINE
  5
4DA
100
AcDbEntity
  8
RACCORDO
100
AcDbLine
 62
253
  6
CONTINUOUS
 10
-97.8995961793
 20
-26.1382971343
 11
-97.8995961793
 21
-25.6470233375
  0
LINE
  5
4DB
100
AcDbEntity
  8
RACCORDO
100
AcDbLine
 62
253
  6
CONTINUOUS
 10
-97.8592362869
 20
-23.1382971343
 11
-97.8592362869
 21
-23.334806653
  0
LINE
  5
4DC
100
AcDbEntity
  8
RACCORDO
100
AcDbLine
 62
253
  6
CONTINUOUS
 10
-97.8592362869
 20
-23.334806653
 11
-97.8995961793
 21
-25.6470233375
  0
LWPOLYLINE
  5
4DD
100
AcDbEntity
  8
RACCORDO
100
AcDbPolyline
 62
253
  6
CONTINUOUS
 90
5
 70
0
 10
-110.547002504
 20
-21.2470233375
 10
-110.5427073708
 20
-21.2480871442
 10
-110.5299351764
 20
-21.248983506
 10
-110.5089043718
 20
-21.2496970918
 10
-110.4799746604
 20
-21.2502156967
  0
LINE
  5
4DE
100
AcDbEntity
  8
RACCORDO
100
AcDbLine
 62
253
  6
CONTINUOUS
 10
-96.8942682699
 20
-23.1382971343
 11
-96.8942682699
 21
-22.9417876156
  0
LINE
  5
4DF
100
AcDbEntity
  8
RACCORDO
100
AcDbLine
 62
253
  6
CONTINUOUS
 10
-96.8646860494
 20
-20.7382971343
 11
-96.8646860428
 21
-21.2470233377
  0
LINE
  5
4E0
100
AcDbEntity
  8
RACCORDO
100
AcDbLine
 62
7
  6
CONTINUOUS
 10
-96.3647621767
 20
-21.2295723723
 11
-96.3647622018
 21
-21.2470233375
  0
LINE
  5
4E1
100
AcDbEntity
  8
0
100
AcDbLine
 62
7
  6
CONTINUOUS
 10
-96.2358823529
 20
-44.1285960609
 11
-96.2358823529
 21
-43.3782971343
  0
LINE
  5
4E2
100
AcDbEntity
  8
RACCORDO
100
AcDbLine
 62
7
  6
CONTINUOUS
 10
-97.3593124393
 20
-23.334806653
 11
-97.3996723317
 21
-25.6470233375
  0
LINE
  5
4E3
100
AcDbEntity
  8
RACCORDO
100
AcDbLine
 62
253
  6
CONTINUOUS
 10
-96.8646860494
 20
-21.2470233375
 11
-96.8942682699
 21
-22.9417876156
  0
LINE
  5
4E4
100
AcDbEntity
  8
RACCORDO
100
AcDbLine
 62
7
  6
CONTINUOUS
 10
-96.3647622018
 20
-21.2470233375
 11
-96.3943444224
 21
-22.9417876156
  0
LWPOLYLINE
  5
4E5
100
AcDbEntity
  8
RACCORDO
100
AcDbPolyline
 62
253
  6
CONTINUOUS
 90
5
 70
0
 10
-96.3943444224
 20
-22.9417876156
 10
-96.3970912912
 20
-22.9421263672
 10
-96.4052873682
 20
-22.9424316416
 10
-96.4188396755
 20
-22.9426951837
 10
-96.437593694
 20
-22.942907337
  0
LWPOLYLINE
  5
4E6
100
AcDbEntity
  8
RACCORDO
100
AcDbPolyline
 62
253
  6
CONTINUOUS
 90
4
 70
0
 10
-109.5280640491
 20
-23.3339002868
 10
-109.5415759144
 20
-23.3341454463
 10
-109.5497311548
 20
-23.3344447281
 10
-109.5524522665
 20
-23.334806653
  0
LINE
  5
4E7
100
AcDbEntity
  8
RACCORDO
100
AcDbLine
 62
253
  6
CONTINUOUS
 10
-109.4855545131
 20
-23.3335319581
 11
-109.5280640491
 21
-23.3339002868
  0
LINE
  5
4E8
100
AcDbEntity
  8
RACCORDO
100
AcDbLine
 62
253
  6
CONTINUOUS
 10
-96.437593694
 20
-22.942907337
 11
-96.489836917
 21
-22.9431720674
  0
LINE
  5
4E9
100
AcDbEntity
  8
RACCORDO
100
AcDbLine
 62
253
  6
CONTINUOUS
 10
-97.6093306296
 20
-23.3335319581
 11
-97.8592362869
 21
-23.334806653
  0
LINE
  5
4EA
100
AcDbEntity
  8
RACCORDO
100
AcDbLine
 62
253
  6
CONTINUOUS
 10
-110.0174964359
 20
-22.9417876156
 11
-110.3113286485
 21
-22.9431720674
  0
LINE
  5
4EB
100
AcDbEntity
  8
RACCORDO
100
AcDbLine
 62
253
  6
CONTINUOUS
 10
-97.8592362869
 20
-23.334806653
 11
-109.0525284189
 21
-23.334806653
  0
LINE
  5
4EC
100
AcDbEntity
  8
RACCORDO
100
AcDbLine
 62
253
  6
CONTINUOUS
 10
-109.3871433968
 20
-23.3333721448
 11
-109.4855545131
 21
-23.3335319581
  0
LINE
  5
4ED
100
AcDbEntity
  8
RACCORDO
100
AcDbLine
 62
7
  6
CONTINUOUS
 10
-96.5943139614
 20
-23.1382971343
 11
-110.3174507445
 21
-23.1382971343
  0
LINE
  5
4EE
100
AcDbEntity
  8
RACCORDO
100
AcDbLine
 62
253
  6
CONTINUOUS
 10
-96.8942682699
 20
-22.9417876156
 11
-110.0174964359
 21
-22.9417876156
  0
LINE
  5
4EF
100
AcDbEntity
  8
RACCORDO
100
AcDbLine
 62
253
  6
CONTINUOUS
 10
-97.4548194757
 20
-23.3334228053
 11
-97.6093306296
 21
-23.3335319581
  0
LINE
  5
4F0
100
AcDbEntity
  8
RACCORDO
100
AcDbLine
 62
253
  6
CONTINUOUS
 10
-110.3113286485
 20
-22.9431720674
 11
-110.4219586325
 21
-22.9431727514
  0
LINE
  5
4F1
100
AcDbEntity
  8
RACCORDO
100
AcDbLine
 62
253
  6
CONTINUOUS
 10
-96.489836917
 20
-22.9431720674
 11
-96.6443634383
 21
-22.9430657215
  0
LINE
  5
4F2
100
AcDbEntity
  8
RACCORDO
100
AcDbLine
 62
253
  6
CONTINUOUS
 10
-109.1565261941
 20
-23.3341448842
 11
-109.3871433968
 21
-23.3333721448
  0
LINE
  5
4F3
100
AcDbEntity
  8
RACCORDO
100
AcDbLine
 62
253
  6
CONTINUOUS
 10
-96.6443634383
 20
-22.9430657215
 11
-96.8942682699
 21
-22.9417876156
  0
LWPOLYLINE
  5
4F4
100
AcDbEntity
  8
RACCORDO
100
AcDbPolyline
 62
253
  6
CONTINUOUS
 90
6
 70
0
 10
-110.4219586325
 20
-22.9431727514
 10
-110.4742006412
 20
-22.9429075983
 10
-110.4929478001
 20
-22.9426951005
 10
-110.5064897463
 20
-22.942431401
 10
-110.514677088
 20
-22.942126136
 10
-110.5174202835
 20
-22.9417876156
  0
LINE
  5
4F5
100
AcDbEntity
  8
RACCORDO
100
AcDbLine
 62
253
  6
CONTINUOUS
 10
-109.0525284189
 20
-23.334806653
 11
-109.1565261941
 21
-23.3341448842
  0
LWPOLYLINE
  5
4F6
100
AcDbEntity
  8
RACCORDO
100
AcDbPolyline
 62
253
  6
CONTINUOUS
 90
6
 70
0
 10
-97.3593124393
 20
-23.334806653
 10
-97.3620465967
 20
-23.3344445764
 10
-97.3702325525
 20
-23.3341448842
 10
-97.3837800771
 20
-23.3338992631
 10
-97.4025413872
 20
-23.3336946784
 10
-97.4548194757
 20
-23.3334228053
  0
LINE
  5
4F7
100
AcDbEntity
  8
0
100
AcDbLine
 62
7
  6
CONTINUOUS
 10
-95.5558823529
 20
-42.4882971343
 11
-95.5558823529
 21
-42.4382971343
  0
LINE
  5
4F8
100
AcDbEntity
  8
0
100
AcDbLine
 62
7
  6
CONTINUOUS
 10
-95.5558823529
 20
-44.1682971343
 11
-95.5558823529
 21
-44.2382971343
  0
LINE
  5
4F9
100
AcDbEntity
  8
0
100
AcDbLine
 62
7
  6
CONTINUOUS
 10
-95.5352671007
 20
-42.8897099072
 11
-95.5352670205
 21
-43.7868843223
  0
LWPOLYLINE
  5
4FA
100
AcDbEntity
  8
RACCORDO
100
AcDbPolyline
 62
253
  6
CONTINUOUS
 90
5
 70
0
 10
-96.4317900333
 20
-21.2502156966
 10
-96.402860325
 20
-21.2496970916
 10
-96.3818295246
 20
-21.2489835058
 10
-96.3690573336
 20
-21.248087144
 10
-96.3647622018
 20
-21.2470233375
  0
LINE
  5
4FB
100
AcDbEntity
  8
RACCORDO
100
AcDbLine
 62
253
  6
CONTINUOUS
 10
-110.176443945
 20
-21.2489835058
 11
-110.0470786564
 21
-21.2470233375
  0
LINE
  5
4FC
100
AcDbEntity
  8
RACCORDO
100
AcDbLine
 62
253
  6
CONTINUOUS
 10
-110.2969966172
 20
-21.2502156966
 11
-110.176443945
 21
-21.2489835058
  0
LWPOLYLINE
  5
4FD
100
AcDbEntity
  8
RACCORDO
100
AcDbPolyline
 62
253
  6
CONTINUOUS
 90
3
 70
0
 10
-96.5112403228
 20
-21.2506359702
 10
-96.4681238468
 20
-21.2505304506
 10
-96.4317900333
 20
-21.2502156966
  0
LINE
  5
4FE
100
AcDbEntity
  8
RACCORDO
100
AcDbLine
 62
253
  6
CONTINUOUS
 10
-110.0470786564
 20
-21.2470233375
 11
-96.8646860494
 21
-21.2470233375
  0
LINE
  5
4FF
100
AcDbEntity
  8
RACCORDO
100
AcDbLine
 62
7
  6
CONTINUOUS
 10
-110.0470786564
 20
-20.7382971343
 11
-96.8646860494
 21
-20.7382971343
  0
LINE
  5
500
100
AcDbEntity
  8
RACCORDO
100
AcDbLine
 62
253
  6
CONTINUOUS
 10
-96.6147680675
 20
-21.2502156967
 11
-96.5112403228
 21
-21.2506359702
  0
LWPOLYLINE
  5
501
100
AcDbEntity
  8
RACCORDO
100
AcDbPolyline
 62
253
  6
CONTINUOUS
 90
4
 70
0
 10
-110.4799746604
 20
-21.2502156967
 10
-110.4436408457
 20
-21.2505304507
 10
-110.4005243686
 20
-21.2506359702
 10
-110.2969966172
 20
-21.2502156966
  0
LINE
  5
502
100
AcDbEntity
  8
RACCORDO
100
AcDbLine
 62
253
  6
CONTINUOUS
 10
-96.7353207428
 20
-21.248983506
 11
-96.6147680675
 21
-21.2502156967
  0
LINE
  5
503
100
AcDbEntity
  8
RACCORDO
100
AcDbLine
 62
253
  6
CONTINUOUS
 10
-96.8646860494
 20
-21.2470233375
 11
-96.7353207428
 21
-21.248983506
  0
LINE
  5
504
100
AcDbEntity
  8
0
100
AcDbLine
 62
7
  6
CONTINUOUS
 10
-93.1558823529
 20
-40.2882971343
 11
-93.1558823529
 21
-47.2882971343
  0
LINE
  5
505
100
AcDbEntity
  8
0
100
AcDbLine
 62
7
  6
CONTINUOUS
 10
-101.7352670205
 20
-40.9382971343
 11
-101.2352670205
 21
-40.4382971343
  0
LINE
  5
506
100
AcDbEntity
  8
0
100
AcDbLine
 62
7
  6
CONTINUOUS
 10
-96.2358810288
 20
-44.1285966061
 11
-95.535267047
 21
-43.7868843352
  0
LINE
  5
507
100
AcDbEntity
  8
0
100
AcDbLine
 62
7
  6
CONTINUOUS
 10
-99.2058823529
 20
-4.5370540338
 11
-100.1058823529
 21
-4.21506498
  0
ARC
  5
508
100
AcDbEntity
  8
RACCORDO
100
AcDbCircle
 62
7
  6
CONTINUOUS
 10
-9.8362255378
 20
9.8910164464
 40
0.5
100
AcDbArc
 50
180.9998348179
 51
269.9999999971
  0
ARC
  5
509
100
AcDbEntity
  8
RACCORDO
100
AcDbCircle
 62
7
  6
CONTINUOUS
 10
9.1461670693
 20
9.8910164464
 40
0.5
100
AcDbArc
 50
270.0000000029
 51
358.9999563168
  0
ARC
  5
50A
100
AcDbEntity
  8
RACCORDO
100
AcDbCircle
 62
7
  6
CONTINUOUS
 10
8.1112569394
 20
14.2910164464
 40
0.5
100
AcDbArc
 50
1.0
 51
90.0
  0
ARC
  5
50B
100
AcDbEntity
  8
RACCORDO
100
AcDbCircle
 62
7
  6
CONTINUOUS
 10
-8.8013154079
 20
14.2910164464
 40
0.5
100
AcDbArc
 50
90.0
 51
179.0
  0
ARC
  5
50C
100
AcDbEntity
  8
RACCORDO
100
AcDbCircle
 62
7
  6
CONTINUOUS
 10
9.4165391573
 20
11.5910164464
 40
0.2
100
AcDbArc
 50
1.0
 51
90.0
  0
ARC
  5
50D
100
AcDbEntity
  8
RACCORDO
100
AcDbCircle
 62
7
  6
CONTINUOUS
 10
-10.1065976258
 20
11.5910164464
 40
0.2
100
AcDbArc
 50
90.0
 51
179.0
  0
ARC
  5
50E
100
AcDbEntity
  8
RACCORDO
100
AcDbCircle
 62
7
  6
CONTINUOUS
 10
8.8514637981
 20
11.9910164464
 40
0.1999867391
100
AcDbArc
 50
181.0002321433
 51
270.0132984223
  0
ARC
  5
50F
100
AcDbEntity
  8
RACCORDO
100
AcDbCircle
 62
7
  6
CONTINUOUS
 10
-9.5415222666
 20
11.9910164464
 40
0.1999867391
100
AcDbArc
 50
269.9867015777
 51
358.9997678567
  0
ARC
  5
510
100
AcDbEntity
  8
RACCORDO
100
AcDbCircle
 62
7
  6
CONTINUOUS
 10
-9.8362255378
 20
-21.2382971343
 40
0.5
100
AcDbArc
 50
90.0000000029
 51
178.9999563168
  0
ARC
  5
511
100
AcDbEntity
  8
RACCORDO
100
AcDbCircle
 62
7
  6
CONTINUOUS
 10
9.1461670693
 20
-21.2382971343
 40
0.5
100
AcDbArc
 50
0.9998348179
 51
89.9999999971
  0
ARC
  5
512
100
AcDbEntity
  8
RACCORDO
100
AcDbCircle
 62
7
  6
CONTINUOUS
 10
8.1112569394
 20
-25.6382971343
 40
0.5
100
AcDbArc
 50
270.0
 51
359.0
  0
ARC
  5
513
100
AcDbEntity
  8
RACCORDO
100
AcDbCircle
 62
7
  6
CONTINUOUS
 10
-8.8013154079
 20
-25.6382971343
 40
0.5
100
AcDbArc
 50
181.0
 51
270.0
  0
ARC
  5
514
100
AcDbEntity
  8
RACCORDO
100
AcDbCircle
 62
7
  6
CONTINUOUS
 10
9.4165391573
 20
-22.9382971343
 40
0.2
100
AcDbArc
 50
270.0
 51
359.0
  0
ARC
  5
515
100
AcDbEntity
  8
RACCORDO
100
AcDbCircle
 62
7
  6
CONTINUOUS
 10
-10.1065976258
 20
-22.9382971343
 40
0.2
100
AcDbArc
 50
181.0
 51
270.0
  0
ARC
  5
516
100
AcDbEntity
  8
RACCORDO
100
AcDbCircle
 62
7
  6
CONTINUOUS
 10
8.8514637981
 20
-23.3382971343
 40
0.1999867391
100
AcDbArc
 50
89.9867015777
 51
178.9997678567
  0
ARC
  5
517
100
AcDbEntity
  8
RACCORDO
100
AcDbCircle
 62
7
  6
CONTINUOUS
 10
-9.5415222666
 20
-23.3382971343
 40
0.1999867391
100
AcDbArc
 50
1.0002321433
 51
90.0132984223
  0
ARC
  5
518
100
AcDbEntity
  8
0
100
AcDbCircle
 62
7
  6
CONTINUOUS
 10
-103.1558823529
 20
32.8910164464
 40
0.6
100
AcDbArc
 50
90.0
 51
180.0
  0
ARC
  5
519
100
AcDbEntity
  8
0
100
AcDbCircle
 62
7
  6
CONTINUOUS
 10
-103.1558823529
 20
31.0910164464
 40
0.6
100
AcDbArc
 50
180.0
 51
270.0
  0
ARC
  5
51A
100
AcDbEntity
  8
RACCORDO
100
AcDbCircle
 62
7
  6
CONTINUOUS
 10
-102.4470786564
 20
9.8910164464
 40
0.5
100
AcDbArc
 50
180.9998348179
 51
269.9999999971
  0
ARC
  5
51B
100
AcDbEntity
  8
RACCORDO
100
AcDbCircle
 62
7
  6
CONTINUOUS
 10
-89.2646860494
 20
9.8910164464
 40
0.5
100
AcDbArc
 50
270.0000000029
 51
358.9999563168
  0
ARC
  5
51C
100
AcDbEntity
  8
RACCORDO
100
AcDbCircle
 62
7
  6
CONTINUOUS
 10
-101.4121685266
 20
14.2910164464
 40
0.5
100
AcDbArc
 50
90.0
 51
179.0
  0
ARC
  5
51D
100
AcDbEntity
  8
RACCORDO
100
AcDbCircle
 62
7
  6
CONTINUOUS
 10
-90.2995961793
 20
14.2910164464
 40
0.5
100
AcDbArc
 50
1.0000000177
 51
90.0
  0
ARC
  5
51E
100
AcDbEntity
  8
RACCORDO
100
AcDbCircle
 62
7
  6
CONTINUOUS
 10
-102.7174507445
 20
11.5910164464
 40
0.2
100
AcDbArc
 50
90.0
 51
179.0
  0
ARC
  5
51F
100
AcDbEntity
  8
RACCORDO
100
AcDbCircle
 62
7
  6
CONTINUOUS
 10
-88.9943517131
 20
11.5910164464
 40
0.2
100
AcDbArc
 50
0.9998113935
 51
89.9891849304
  0
ARC
  5
520
100
AcDbEntity
  8
RACCORDO
100
AcDbCircle
 62
7
  6
CONTINUOUS
 10
-102.1523753853
 20
11.9910164464
 40
0.1999867391
100
AcDbArc
 50
269.9867015777
 51
358.9997678567
  0
ARC
  5
521
100
AcDbEntity
  8
RACCORDO
100
AcDbCircle
 62
7
  6
CONTINUOUS
 10
-89.5593893206
 20
11.9910164464
 40
0.1999867391
100
AcDbArc
 50
181.0002321433
 51
270.0
  0
ARC
  5
522
100
AcDbEntity
  8
0
100
AcDbCircle
 62
7
  6
CONTINUOUS
 10
-96.1558823529
 20
-44.2382971343
 40
0.6
100
AcDbArc
 50
270.0
 51
360.0
  0
ARC
  5
523
100
AcDbEntity
  8
0
100
AcDbCircle
 62
7
  6
CONTINUOUS
 10
-96.1558823529
 20
-42.4382971343
 40
0.6
100
AcDbArc
 50
0.0
 51
90.0
  0
ARC
  5
524
100
AcDbEntity
  8
RACCORDO
100
AcDbCircle
 62
7
  6
CONTINUOUS
 10
-96.8646860494
 20
-21.2382971343
 40
0.5
100
AcDbArc
 50
0.9998348179
 51
89.9999999971
  0
ARC
  5
525
100
AcDbEntity
  8
RACCORDO
100
AcDbCircle
 62
7
  6
CONTINUOUS
 10
-110.0470786564
 20
-21.2382971343
 40
0.5
100
AcDbArc
 50
90.0000000029
 51
178.9999563168
  0
ARC
  5
526
100
AcDbEntity
  8
RACCORDO
100
AcDbCircle
 62
7
  6
CONTINUOUS
 10
-109.0121685266
 20
-25.6382971343
 40
0.5
100
AcDbArc
 50
181.0
 51
270.0
  0
ARC
  5
527
100
AcDbEntity
  8
RACCORDO
100
AcDbCircle
 62
7
  6
CONTINUOUS
 10
-97.8995961793
 20
-25.6382971343
 40
0.5
100
AcDbArc
 50
270.0
 51
358.9999999823
  0
ARC
  5
528
100
AcDbEntity
  8
RACCORDO
100
AcDbCircle
 62
7
  6
CONTINUOUS
 10
-96.5943139614
 20
-22.9382971343
 40
0.2
100
AcDbArc
 50
270.0
 51
359.0
  0
ARC
  5
529
100
AcDbEntity
  8
RACCORDO
100
AcDbCircle
 62
7
  6
CONTINUOUS
 10
-110.3174129928
 20
-22.9382971343
 40
0.2
100
AcDbArc
 50
180.9998113935
 51
269.9891849304
  0
ARC
  5
52A
100
AcDbEntity
  8
RACCORDO
100
AcDbCircle
 62
7
  6
CONTINUOUS
 10
-97.1593893206
 20
-23.3382971343
 40
0.1999867391
100
AcDbArc
 50
89.9867015777
 51
178.9997678567
  0
ARC
  5
52B
100
AcDbEntity
  8
RACCORDO
100
AcDbCircle
 62
7
  6
CONTINUOUS
 10
-109.7523753853
 20
-23.3382971343
 40
0.1999867391
100
AcDbArc
 50
1.0002321434
 51
90.0
  0
ENDSEC
  0
SECTION
  2
OBJECTS
  0
DICTIONARY
  5
C
100
AcDbDictionary
280
0
281
1
  3
ACAD_GROUP
350
D
  3
ACAD_MLINESTYLE
350
17
  3
ACAD_LAYOUT
350
1A
  3
ACAD_PLOTSETTINGS
350
19
  3
ACAD_PLOTSTYLENAME
350
E
  0
DICTIONARY
  5
D
102
{ACAD_REACTORS
330
C
102
}
100
AcDbDictionary
280
0
281
1
  0
ACDBDICTIONARYWDFLT
  5
E
102
{ACAD_REACTORS
330
C
102
}
100
AcDbDictionary
281
1
  3
Normal
350
F
100
AcDbDictionaryWithDefault
340
F
  0
DICTIONARY
  5
17
102
{ACAD_REACTORS
330
C
102
}
100
AcDbDictionary
280
0
281
1
  3
Standard
350
18
  0
DICTIONARY
  5
19
102
{ACAD_REACTORS
330
C
102
}
100
AcDbDictionary
281
1
  0
DICTIONARY
  5
1A
102
{ACAD_REACTORS
330
C
102
}
100
AcDbDictionary
281
1
  3
Model
350
52C
  3
Layout1
350
52D
  0
ACDBPLACEHOLDER
  5
F
102
{ACAD_REACTORS
330
E
102
}
  0
MLINESTYLE
  5
18
102
{ACAD_REACTORS
330
17
102
}
100
AcDbMlineStyle
  2
STANDARD
 70
0
  3

 62
256
 51
90.0
 52
90.0
 71
2
 49
0.5
 62
256
  6
BYLAYER
 49
-0.5
 62
256
  6
BYLAYER
  0
LAYOUT
  5
52C
102
{ACAD_REACTORS
330
1A
102
}
100
AcDbPlotSettings
  1

  2
none_device
  4

  6

 40
0.0
 41
0.0
 42
0.0
 43
0.0
 44
210.0
 45
297.0
 46
0.0
 47
0.0
 48
0.0
 49
0.0
140
0.0
141
0.0
142
1.0
143
1.0
 70
1024
 72
1
 73
0
 74
0
  7

 75
0
147
1.0
148
0.0
149
0.0
100
AcDbLayout
  1
Model
 70
0
 71
0
 10
0.0
 20
0.0
 11
210.0
 21
297.0
 12
0.0
 22
0.0
 32
0.0
 14
0.0
 24
0.0
 34
0.0
 15
0.0
 25
0.0
 35
0.0
146
0.0
 13
0.0
 23
0.0
 33
0.0
 16
1.0
 26
0.0
 36
0.0
 17
0.0
 27
1.0
 37
0.0
 76
0
330
20F
345
0
346
0
  0
LAYOUT
  5
52D
102
{ACAD_REACTORS
330
1A
102
}
100
AcDbPlotSettings
  1

  2
none_device
  4

  6

 40
0.0
 41
0.0
 42
0.0
 43
0.0
 44
210.0
 45
297.0
 46
0.0
 47
0.0
 48
0.0
 49
0.0
140
0.0
141
0.0
142
1.0
143
1.0
 70
0
 72
1
 73
0
 74
0
  7

 75
0
147
1.0
148
0.0
149
0.0
100
AcDbLayout
  1
Layout1
 70
0
 71
1
 10
0.0
 20
0.0
 11
210.0
 21
297.0
 12
0.0
 22
0.0
 32
0.0
 14
0.0
 24
0.0
 34
0.0
 15
0.0
 25
0.0
 35
0.0
146
0.0
 13
0.0
 23
0.0
 33
0.0
 16
1.0
 26
0.0
 36
0.0
 17
0.0
 27
1.0
 37
0.0
 76
0
330
210
345
0
346
0
  0
ENDSEC
  0
EOF
