  0
SECTION
  2
HEADER
  9
$ACADVER
  1
AC1024
  9
$DWGCODEPAGE
  3
ANSI_1252
  9
$EXTMAX
 10
297.0
 20
210.0
 30
0.0
  9
$EXTMIN
 10
0.0
 20
0.0
 30
0.0
  9
$LIMMIN
 10
0.0
 20
0.0
  9
$LIMMAX
 10
297.0
 20
210.0
  9
$VIEWCTR
 10
148.5
 20
105.0
  9
$VIEWSIZE
 40
210.0
  9
$CLAYER
  8
0
  9
$LTSCALE
 40
16.335
  9
$CELTYPE
  6
BYLAYER
  9
$DIMSCALE
 40
1.0
  9
$DIMASZ
 40
3.0
  9
$DIMEXO
 40
0.5
  9
$DIMDLI
 40
11.286
  9
$DIMEXE
 40
1.5
  9
$DIMCEN
 40
2.673
  9
$DIMLFAC
 40
1.0
  9
$DIMBLK
  1
_FILLED
  9
$DIMALT
 70
0
  9
$DIMALTF
 40
0.0393700787
  9
$DIMTXT
 40
3.0
  9
$DIMTOL
 70
1
  9
$DIMLIM
 70
0
  9
$DIMTFAC
 40
1.0
  9
$DIMTP
 40
0.01
  9
$DIMTM
 40
0.01
  9
$DIMGAP
 40
0.625
  9
$DIMDSEP
 70
44
  9
$AUNITS
 70
0
  9
$PDMODE
 70
3
  9
$PDSIZE
 40
3.0
  9
$HANDSEED
  5
537
  9
$TILEMODE
 70
1
  9
$MEASUREMENT
 70
1
  9
$INSUNITS
 70
4
  0
ENDSEC
  0
SECTION
  2
CLASSES
  0
CLASS
  1
ACDBDICTIONARYWDFLT
  2
AcDbDictionaryWithDefault
  3
AutoCAD 2000
 90
0
 91
1
280
0
281
0
  0
CLASS
  1
ACDBPLACEHOLDER
  2
AcDbPlaceHolder
  3
AutoCAD 2000
 90
0
 91
1
280
0
281
0
  0
CLASS
  1
LAYOUT
  2
AcDbLayout
  3
AutoCAD 2000
 90
0
 91
0
280
0
281
0
  0
ENDSEC
  0
SECTION
  2
TABLES
  0
TABLE
  2
VPORT
  5
8
100
AcDbSymbolTable
 70
2
  0
VPORT
  5
1F4
100
AcDbSymbolTableRecord
100
AcDbViewportTableRecord
  2
*ACTIVE
 70
0
 10
0.0
 20
0.0
 11
1.0
 21
1.0
 12
148.5
 22
105.0
 13
0.0
 23
0.0
 14
1.0
 24
1.0
 15
0.0
 25
0.0
 16
0.0
 26
0.0
 36
1.0
 17
0.0
 27
0.0
 37
0.0
 40
210.0
 41
1.4142857143
 42
50.0
 43
0.0
 44
0.0
 50
0.0
 51
0.0
 71
0
 72
100
 73
1
 74
1
 75
0
 76
0
 77
0
 78
0
  0
ENDTAB
  0
TABLE
  2
LTYPE
  5
5
100
AcDbSymbolTable
 70
6
  0
LTYPE
  5
14
100
AcDbSymbolTableRecord
100
AcDbLinetypeTableRecord
  2
BYBLOCK
 70
0
  3

 72
65
 73
0
 40
0.0
  0
LTYPE
  5
15
100
AcDbSymbolTableRecord
100
AcDbLinetypeTableRecord
  2
BYLAYER
 70
0
  3

 72
65
 73
0
 40
0.0
  0
LTYPE
  5
16
100
AcDbSymbolTableRecord
100
AcDbLinetypeTableRecord
  2
CONTINUOUS
 70
64
  3
Solid line
 72
65
 73
0
 40
0.0
  0
LTYPE
  5
1F5
100
AcDbSymbolTableRecord
100
AcDbLinetypeTableRecord
  2
CENTER
 70
64
  3
____ _ ____ _ ____ _ ____ _ ____ _ ____ _ ____
 72
65
 73
4
 40
0.6
 49
0.375
 74
0
 49
-0.075
 74
0
 49
0.075
 74
0
 49
-0.075
 74
0
  0
LTYPE
  5
1F6
100
AcDbSymbolTableRecord
100
AcDbLinetypeTableRecord
  2
HIDDEN
 70
64
  3
- - - - - - - - - - - - - - - - - - - -
 72
65
 73
2
 40
0.2
 49
0.1
 74
0
 49
-0.1
 74
0
  0
LTYPE
  5
1F7
100
AcDbSymbolTableRecord
100
AcDbLinetypeTableRecord
  2
PHANTOM
 70
64
  3
_____ _ _ _____ _ _ _____ _ _ _____
 72
65
 73
6
 40
0.8
 49
0.45
 74
0
 49
-0.05
 74
0
 49
0.1
 74
0
 49
-0.05
 74
0
 49
0.1
 74
0
 49
-0.05
 74
0
  0
LTYPE
  5
1F8
100
AcDbSymbolTableRecord
100
AcDbLinetypeTableRecord
  2
DOT
 70
64
  3
. . . . . . . . . . . . . . . . . . . .
 72
65
 73
2
 40
0.2
 49
0.1
 74
0
 49
-0.1
 74
0
  0
LTYPE
  5
1F9
100
AcDbSymbolTableRecord
100
AcDbLinetypeTableRecord
  2
DASHED
 70
64
  3
- - - - - - - - - - - - - - - - - - - -
 72
65
 73
2
 40
0.2
 49
0.1
 74
0
 49
-0.1
 74
0
  0
ENDTAB
  0
TABLE
  2
LAYER
  5
2
100
AcDbSymbolTable
 70
36
  0
LAYER
  5
10
100
AcDbSymbolTableRecord
100
AcDbLayerTableRecord
  2
0
 70
0
 62
7
  6
CONTINUOUS
370
-3
390
F
  0
LAYER
  5
1FA
100
AcDbSymbolTableRecord
100
AcDbLayerTableRecord
  2
DEFAULT_1
 70
0
 62
7
  6
CENTER
370
-3
390
F
  0
LAYER
  5
1FB
100
AcDbSymbolTableRecord
100
AcDbLayerTableRecord
  2
DEFAULT_2
 70
0
 62
7
  6
HIDDEN
370
-3
390
F
  0
LAYER
  5
1FC
100
AcDbSymbolTableRecord
100
AcDbLayerTableRecord
  2
DEFAULT_3
 70
0
 62
7
  6
PHANTOM
370
-3
390
F
  0
LAYER
  5
1FD
100
AcDbSymbolTableRecord
100
AcDbLayerTableRecord
  2
ASSI
 70
0
 62
7
  6
CONTINUOUS
370
-3
390
F
  0
LAYER
  5
1FE
100
AcDbSymbolTableRecord
100
AcDbLayerTableRecord
  2
COLOR5
 70
0
 62
7
  6
CONTINUOUS
370
-3
390
F
  0
LAYER
  5
1FF
100
AcDbSymbolTableRecord
100
AcDbLayerTableRecord
  2
COORDINATE
 70
0
 62
7
  6
CONTINUOUS
370
-3
390
F
  0
LAYER
  5
200
100
AcDbSymbolTableRecord
100
AcDbLayerTableRecord
  2
COORD_ORIGINE
 70
0
 62
7
  6
CONTINUOUS
370
-3
390
F
  0
LAYER
  5
201
100
AcDbSymbolTableRecord
100
AcDbLayerTableRecord
  2
COPY_PUBLISH
 70
0
 62
7
  6
CONTINUOUS
370
-3
390
F
  0
LAYER
  5
202
100
AcDbSymbolTableRecord
100
AcDbLayerTableRecord
  2
COSMETICI
 70
0
 62
7
  6
CONTINUOUS
370
-3
390
F
  0
LAYER
  5
203
100
AcDbSymbolTableRecord
100
AcDbLayerTableRecord
  2
CURVE
 70
0
 62
7
  6
CONTINUOUS
370
-3
390
F
  0
LAYER
  5
204
100
AcDbSymbolTableRecord
100
AcDbLayerTableRecord
  2
DRAFT
 70
0
 62
7
  6
CONTINUOUS
370
-3
390
F
  0
LAYER
  5
205
100
AcDbSymbolTableRecord
100
AcDbLayerTableRecord
  2
IMPORT_IGES
 70
0
 62
7
  6
CONTINUOUS
370
-3
390
F
  0
LAYER
  5
206
100
AcDbSymbolTableRecord
100
AcDbLayerTableRecord
  2
NOTE
 70
0
 62
7
  6
CONTINUOUS
370
-3
390
F
  0
LAYER
  5
207
100
AcDbSymbolTableRecord
100
AcDbLayerTableRecord
  2
PIANI
 70
0
 62
7
  6
CONTINUOUS
370
-3
390
F
  0
LAYER
  5
208
100
AcDbSymbolTableRecord
100
AcDbLayerTableRecord
  2
PIANI_ORIGINE
 70
0
 62
7
  6
CONTINUOUS
370
-3
390
F
  0
LAYER
  5
209
100
AcDbSymbolTableRecord
100
AcDbLayerTableRecord
  2
PUNTI
 70
0
 62
7
  6
CONTINUOUS
370
-3
390
F
  0
LAYER
  5
20A
100
AcDbSymbolTableRecord
100
AcDbLayerTableRecord
  2
PUNTI_SALDATURA
 70
0
 62
7
  6
CONTINUOUS
370
-3
390
F
  0
LAYER
  5
20B
100
AcDbSymbolTableRecord
100
AcDbLayerTableRecord
  2
RACCORDO
 70
0
 62
7
  6
CONTINUOUS
370
-3
390
F
  0
LAYER
  5
20C
100
AcDbSymbolTableRecord
100
AcDbLayerTableRecord
  2
SIMBOLI
 70
0
 62
7
  6
CONTINUOUS
370
-3
390
F
  0
LAYER
  5
20D
100
AcDbSymbolTableRecord
100
AcDbLayerTableRecord
  2
SMUSSO
 70
0
 62
7
  6
CONTINUOUS
370
-3
390
F
  0
LAYER
  5
20E
100
AcDbSymbolTableRecord
100
AcDbLayerTableRecord
  2
SNAPLINE
 70
0
 62
7
  6
CONTINUOUS
370
-3
390
F
  0
LAYER
  5
20F
100
AcDbSymbolTableRecord
100
AcDbLayerTableRecord
  2
SUPERFICI
 70
0
 62
7
  6
CONTINUOUS
370
-3
390
F
  0
LAYER
  5
210
100
AcDbSymbolTableRecord
100
AcDbLayerTableRecord
  2
TRASH
 70
0
 62
7
  6
CONTINUOUS
370
-3
390
F
  0
ENDTAB
  0
TABLE
  2
STYLE
  5
3
100
AcDbSymbolTable
 70
1
  0
STYLE
  5
11
100
AcDbSymbolTableRecord
100
AcDbTextStyleTableRecord
  2
STANDARD
 70
0
 40
0.0
 41
0.8
 50
0.0
 71
0
 42
0.2
  3
txt
  4

  0
STYLE
  5
211
100
AcDbSymbolTableRecord
100
AcDbTextStyleTableRecord
  2
TEXTSTYLE_1
 70
0
 40
0.0
 41
0.8
 50
0.0
 71
0
 42
0.2
  3
gdt
  4

  0
ENDTAB
  0
TABLE
  2
VIEW
  5
6
100
AcDbSymbolTable
 70
0
  0
ENDTAB
  0
TABLE
  2
UCS
  5
7
100
AcDbSymbolTable
 70
0
  0
ENDTAB
  0
TABLE
  2
APPID
  5
9
100
AcDbSymbolTable
 70
1
  0
APPID
  5
212
100
AcDbSymbolTableRecord
100
AcDbRegAppTableRecord
  2
ACAD
 70
0
  0
ENDTAB
  0
TABLE
  2
BLOCK_RECORD
  5
1
100
AcDbSymbolTable
 70
0
  0
BLOCK_RECORD
  5
213
100
AcDbSymbolTableRecord
100
AcDbBlockTableRecord
  2
*Model_Space
  0
BLOCK_RECORD
  5
214
100
AcDbSymbolTableRecord
100
AcDbBlockTableRecord
  2
*Paper_Space
  0
BLOCK_RECORD
  5
215
100
AcDbSymbolTableRecord
100
AcDbBlockTableRecord
  2
_FILLED
  0
BLOCK_RECORD
  5
216
100
AcDbSymbolTableRecord
100
AcDbBlockTableRecord
  2
*D0
  0
BLOCK_RECORD
  5
217
100
AcDbSymbolTableRecord
100
AcDbBlockTableRecord
  2
*D1
  0
BLOCK_RECORD
  5
218
100
AcDbSymbolTableRecord
100
AcDbBlockTableRecord
  2
*D2
  0
BLOCK_RECORD
  5
219
100
AcDbSymbolTableRecord
100
AcDbBlockTableRecord
  2
*D3
  0
BLOCK_RECORD
  5
21A
100
AcDbSymbolTableRecord
100
AcDbBlockTableRecord
  2
*D4
  0
BLOCK_RECORD
  5
21B
100
AcDbSymbolTableRecord
100
AcDbBlockTableRecord
  2
*D5
  0
ENDTAB
  0
TABLE
  2
DIMSTYLE
  5
A
100
AcDbSymbolTable
 70
1
100
AcDbDimStyleTable
 71
0
  0
DIMSTYLE
105
21C
100
AcDbSymbolTableRecord
100
AcDbDimStyleTableRecord
  2
STANDARD
 70
0
  3

  4

 40
1.0
 41
3.0
 42
0.5
 43
0.38
 44
1.5
 45
0.0
 46
0.0
 47
0.01
 48
0.01
140
3.0
141
0.09
142
0.0
143
25.4
144
1.0
145
0.0
146
1.0
147
0.625
 71
1.0
 72
0.0
 73
0
 74
0
 75
0
 76
0
 77
1
 78
8
 79
2
170
0
171
1
172
0
173
0
174
0
175
0
176
0
177
0
178
0
270
2
179
2
271
2
272
2
273
2
274
2
275
0
280
0
281
0
282
0
283
1
284
8
285
0
286
0
287
3
288
0
340
11
278
44
341
215
342
215
343
215
344
215
  0
DIMSTYLE
105
21D
100
AcDbSymbolTableRecord
100
AcDbDimStyleTableRecord
  2
DIMSTYLE_1
 70
0
  3

  4

 40
1.0
 41
3.0
 42
0.5
 43
0.38
 44
1.5
 45
0.0
 46
0.0
 47
0.0
 48
0.0
140
3.0
141
0.09
142
0.0
143
25.4
144
1.0
145
0.0
146
1.0
147
0.75
 71
0.0
 72
0.0
 73
0
 74
0
 75
0
 76
0
 77
1
 78
8
 79
2
170
0
171
1
172
0
173
0
174
0
175
0
176
0
177
0
178
0
270
2
179
2
271
2
272
2
273
2
274
2
275
0
280
0
281
0
282
0
283
1
284
8
285
0
286
0
287
3
288
0
340
11
278
44
341
215
342
215
343
215
344
215
  0
ENDTAB
  0
ENDSEC
  0
SECTION
  2
BLOCKS
  0
BLOCK
  5
20
100
AcDbEntity
  8
0
100
AcDbBlockBegin
  2
*Model_Space
 70
0
 10
0.0
 20
0.0
 30
0.0
  3
*Model_Space
  1

  0
ENDBLK
  5
21
100
AcDbEntity
  8
0
100
AcDbBlockEnd
  0
BLOCK
  5
1C
100
AcDbEntity
  8
0
100
AcDbBlockBegin
  2
*Paper_Space
 70
0
 10
0.0
 20
0.0
 30
0.0
  3
*Paper_Space
  1

  0
ENDBLK
  5
1D
100
AcDbEntity
  8
0
100
AcDbBlockEnd
  0
BLOCK
  5
21E
100
AcDbEntity
  8
0
100
AcDbBlockBegin
  2
_FILLED
 70
64
 10
0.0
 20
0.0
  3
_FILLED
  1

  0
SOLID
  5
21F
100
AcDbEntity
  8
0
  6
BYBLOCK
 62
0
100
AcDbTrace
 10
0.0
 20
0.0
 11
-1.0
 21
0.3166666667
 12
-1.0
 22
-0.3166666667
 13
-1.0
 23
-0.3166666667
  0
ENDBLK
  5
220
100
AcDbEntity
  8
0
  6
BYBLOCK
 62
0
100
AcDbBlockEnd
  0
BLOCK
  5
221
100
AcDbEntity
  8
0
100
AcDbBlockBegin
 62
7
  6
CONTINUOUS
  2
*D0
 70
65
 10
0.0
 20
0.0
  3
*D0
  1

  0
LINE
  5
222
100
AcDbEntity
  8
0
100
AcDbLine
 62
7
  6
CONTINUOUS
 10
-67.475
 20
190.8
 11
-67.475
 21
205.9500915544
  0
LINE
  5
223
100
AcDbEntity
  8
0
100
AcDbLine
 62
7
  6
CONTINUOUS
 10
32.425
 20
190.8
 11
32.425
 21
205.9500915544
  0
LINE
  5
224
100
AcDbEntity
  8
0
100
AcDbLine
 62
7
  6
CONTINUOUS
 10
-67.475
 20
204.4500915544
 11
-17.525
 21
204.4500915544
  0
LINE
  5
225
100
AcDbEntity
  8
0
100
AcDbLine
 62
7
  6
CONTINUOUS
 10
32.425
 20
204.4500915544
 11
-17.525
 21
204.4500915544
  0
INSERT
  5
226
100
AcDbEntity
  8
0
100
AcDbBlockReference
 62
7
  6
CONTINUOUS
  2
_FILLED
 10
-67.475
 20
204.4500915544
 41
3.0
 42
3.0
 43
3.0
 50
180.0
  0
INSERT
  5
227
100
AcDbEntity
  8
0
100
AcDbBlockReference
 62
7
  6
CONTINUOUS
  2
_FILLED
 10
32.425
 20
204.4500915544
 41
3.0
 42
3.0
 43
3.0
  0
ENDBLK
  5
228
100
AcDbEntity
  8
0
  6
BYBLOCK
 62
0
100
AcDbBlockEnd
  0
BLOCK
  5
229
100
AcDbEntity
  8
0
100
AcDbBlockBegin
 62
7
  6
CONTINUOUS
  2
*D1
 70
65
 10
0.0
 20
0.0
  3
*D1
  1

  0
LINE
  5
22A
100
AcDbEntity
  8
0
100
AcDbLine
 62
7
  6
CONTINUOUS
 10
11.702796223
 20
192.35
 11
64.0693096397
 21
192.35
  0
LINE
  5
22B
100
AcDbEntity
  8
0
100
AcDbLine
 62
7
  6
CONTINUOUS
 10
18.5554381211
 20
-192.35
 11
64.0693096397
 21
-192.35
  0
LINE
  5
22C
100
AcDbEntity
  8
0
100
AcDbLine
 62
7
  6
CONTINUOUS
 10
62.5693096397
 20
192.35
 11
62.5693096397
 21
0.0
  0
LINE
  5
22D
100
AcDbEntity
  8
0
100
AcDbLine
 62
7
  6
CONTINUOUS
 10
62.5693096397
 20
-192.35
 11
62.5693096397
 21
0.0
  0
INSERT
  5
22E
100
AcDbEntity
  8
0
100
AcDbBlockReference
 62
7
  6
CONTINUOUS
  2
_FILLED
 10
62.5693096397
 20
192.35
 41
3.0
 42
3.0
 43
3.0
 50
90.0
  0
INSERT
  5
22F
100
AcDbEntity
  8
0
100
AcDbBlockReference
 62
7
  6
CONTINUOUS
  2
_FILLED
 10
62.5693096397
 20
-192.35
 41
3.0
 42
3.0
 43
3.0
 50
270.0
  0
ENDBLK
  5
230
100
AcDbEntity
  8
0
  6
BYBLOCK
 62
0
100
AcDbBlockEnd
  0
BLOCK
  5
231
100
AcDbEntity
  8
0
100
AcDbBlockBegin
 62
7
  6
CONTINUOUS
  2
*D2
 70
65
 10
0.0
 20
0.0
  3
*D2
  1

  0
LINE
  5
232
100
AcDbEntity
  8
0
100
AcDbLine
 62
7
  6
CONTINUOUS
 10
-105.5238763074
 20
190.8
 11
-105.5238763074
 21
215.9500915544
  0
LINE
  5
233
100
AcDbEntity
  8
0
100
AcDbLine
 62
7
  6
CONTINUOUS
 10
-166.1238763074
 20
190.8
 11
-166.1238763074
 21
215.9500915544
  0
LINE
  5
234
100
AcDbEntity
  8
0
100
AcDbLine
 62
7
  6
CONTINUOUS
 10
-105.5238763074
 20
214.4500915544
 11
-135.8238763074
 21
214.4500915544
  0
LINE
  5
235
100
AcDbEntity
  8
0
100
AcDbLine
 62
7
  6
CONTINUOUS
 10
-166.1238763074
 20
214.4500915544
 11
-135.8238763074
 21
214.4500915544
  0
INSERT
  5
236
100
AcDbEntity
  8
0
100
AcDbBlockReference
 62
7
  6
CONTINUOUS
  2
_FILLED
 10
-105.5238763074
 20
214.4500915544
 41
3.0
 42
3.0
 43
3.0
  0
INSERT
  5
237
100
AcDbEntity
  8
0
100
AcDbBlockReference
 62
7
  6
CONTINUOUS
  2
_FILLED
 10
-166.1238763074
 20
214.4500915544
 41
3.0
 42
3.0
 43
3.0
 50
180.0
  0
ENDBLK
  5
238
100
AcDbEntity
  8
0
  6
BYBLOCK
 62
0
100
AcDbBlockEnd
  0
BLOCK
  5
239
100
AcDbEntity
  8
0
100
AcDbBlockBegin
 62
7
  6
CONTINUOUS
  2
*D3
 70
65
 10
0.0
 20
0.0
  3
*D3
  1

  0
LINE
  5
23A
100
AcDbEntity
  8
0
100
AcDbLine
 62
7
  6
CONTINUOUS
 10
-105.5238763074
 20
190.8
 11
-105.5238763074
 21
205.9500915544
  0
LINE
  5
23B
100
AcDbEntity
  8
0
100
AcDbLine
 62
7
  6
CONTINUOUS
 10
-125.5238763074
 20
115.5
 11
-125.5238763074
 21
205.9500915544
  0
LINE
  5
23C
100
AcDbEntity
  8
0
100
AcDbLine
 62
7
  6
CONTINUOUS
 10
-105.5238763074
 20
204.4500915544
 11
-115.5238763074
 21
204.4500915544
  0
LINE
  5
23D
100
AcDbEntity
  8
0
100
AcDbLine
 62
7
  6
CONTINUOUS
 10
-125.5238763074
 20
204.4500915544
 11
-115.5238763074
 21
204.4500915544
  0
INSERT
  5
23E
100
AcDbEntity
  8
0
100
AcDbBlockReference
 62
7
  6
CONTINUOUS
  2
_FILLED
 10
-105.5238763074
 20
204.4500915544
 41
3.0
 42
3.0
 43
3.0
  0
INSERT
  5
23F
100
AcDbEntity
  8
0
100
AcDbBlockReference
 62
7
  6
CONTINUOUS
  2
_FILLED
 10
-125.5238763074
 20
204.4500915544
 41
3.0
 42
3.0
 43
3.0
 50
180.0
  0
ENDBLK
  5
240
100
AcDbEntity
  8
0
  6
BYBLOCK
 62
0
100
AcDbBlockEnd
  0
BLOCK
  5
241
100
AcDbEntity
  8
0
100
AcDbBlockBegin
 62
7
  6
CONTINUOUS
  2
*D4
 70
65
 10
0.0
 20
0.0
  3
*D4
  1

  0
LINE
  5
242
100
AcDbEntity
  8
0
100
AcDbLine
 62
7
  6
CONTINUOUS
 10
-126.0238763074
 20
115.0
 11
-179.3590506963
 21
115.0
  0
LINE
  5
243
100
AcDbEntity
  8
0
100
AcDbLine
 62
7
  6
CONTINUOUS
 10
-126.0238763074
 20
-115.0
 11
-179.3590506963
 21
-115.0
  0
LINE
  5
244
100
AcDbEntity
  8
0
100
AcDbLine
 62
7
  6
CONTINUOUS
 10
-177.8590506963
 20
115.0
 11
-177.8590506963
 21
0.0
  0
LINE
  5
245
100
AcDbEntity
  8
0
100
AcDbLine
 62
7
  6
CONTINUOUS
 10
-177.8590506963
 20
-115.0
 11
-177.8590506963
 21
0.0
  0
INSERT
  5
246
100
AcDbEntity
  8
0
100
AcDbBlockReference
 62
7
  6
CONTINUOUS
  2
_FILLED
 10
-177.8590506963
 20
115.0
 41
3.0
 42
3.0
 43
3.0
 50
90.0
  0
INSERT
  5
247
100
AcDbEntity
  8
0
100
AcDbBlockReference
 62
7
  6
CONTINUOUS
  2
_FILLED
 10
-177.8590506963
 20
-115.0
 41
3.0
 42
3.0
 43
3.0
 50
270.0
  0
ENDBLK
  5
248
100
AcDbEntity
  8
0
  6
BYBLOCK
 62
0
100
AcDbBlockEnd
  0
BLOCK
  5
249
100
AcDbEntity
  8
0
100
AcDbBlockBegin
 62
7
  6
CONTINUOUS
  2
*D5
 70
65
 10
0.0
 20
0.0
  3
*D5
  1

  0
LINE
  5
24A
100
AcDbEntity
  8
0
100
AcDbLine
 62
7
  6
CONTINUOUS
 10
-17.025
 20
183.3
 11
54.0693096397
 21
183.3
  0
LINE
  5
24B
100
AcDbEntity
  8
0
100
AcDbLine
 62
7
  6
CONTINUOUS
 10
-17.025
 20
-173.2
 11
54.0693096397
 21
-173.2
  0
LINE
  5
24C
100
AcDbEntity
  8
0
100
AcDbLine
 62
7
  6
CONTINUOUS
 10
52.5693096397
 20
183.3
 11
52.5693096397
 21
5.05
  0
LINE
  5
24D
100
AcDbEntity
  8
0
100
AcDbLine
 62
7
  6
CONTINUOUS
 10
52.5693096397
 20
-173.2
 11
52.5693096397
 21
5.05
  0
INSERT
  5
24E
100
AcDbEntity
  8
0
100
AcDbBlockReference
 62
7
  6
CONTINUOUS
  2
_FILLED
 10
52.5693096397
 20
183.3
 41
3.0
 42
3.0
 43
3.0
 50
90.0
  0
INSERT
  5
24F
100
AcDbEntity
  8
0
100
AcDbBlockReference
 62
7
  6
CONTINUOUS
  2
_FILLED
 10
52.5693096397
 20
-173.2
 41
3.0
 42
3.0
 43
3.0
 50
270.0
  0
ENDBLK
  5
250
100
AcDbEntity
  8
0
  6
BYBLOCK
 62
0
100
AcDbBlockEnd
  0
ENDSEC
  0
SECTION
  2
ENTITIES
  0
DIMENSION
  5
251
100
AcDbEntity
  8
0
100
AcDbDimension
 62
7
  6
CONTINUOUS
  2
*D0
 10
32.425
 20
204.4500915544
 11
-21.9178571429
 21
204.4500915544
 70
160
 71
2
 72
2
 41
0.9
 42
99.9
  3
DIMSTYLE_1
100
AcDbAlignedDimension
 13
-67.475
 23
190.3
 14
32.425
 24
190.3
100
AcDbRotatedDimension
  0
DIMENSION
  5
252
100
AcDbEntity
  8
0
100
AcDbDimension
 62
7
  6
CONTINUOUS
  2
*D1
 10
62.5693096397
 20
-192.35
 11
62.5693096397
 21
-5.4642857143
 70
160
 71
2
 72
2
 41
0.9
 42
384.7
  3
DIMSTYLE_1
100
AcDbAlignedDimension
 13
11.202796223
 23
192.35
 14
18.0554381211
 24
-192.35
 50
270.0
100
AcDbRotatedDimension
  0
DIMENSION
  5
253
100
AcDbEntity
  8
0
100
AcDbDimension
 62
7
  6
CONTINUOUS
  2
*D2
 10
-166.1238763074
 20
214.4500915544
 11
-140.2167334503
 21
214.4500915544
 70
160
 71
2
 72
2
 41
0.9
 42
60.6
  3
DIMSTYLE_1
100
AcDbAlignedDimension
 13
-105.5238763074
 23
190.3
 14
-166.1238763074
 24
190.3
 50
180.0
100
AcDbRotatedDimension
  0
DIMENSION
  5
254
100
AcDbEntity
  8
0
100
AcDbDimension
 62
7
  6
CONTINUOUS
  2
*D3
 10
-125.5238763074
 20
204.4500915544
 11
-117.8810191646
 21
204.4500915544
 70
160
 71
2
 72
2
 41
0.9
 42
20.0
  3
DIMSTYLE_1
100
AcDbAlignedDimension
 13
-105.5238763074
 23
190.3
 14
-125.5238763074
 24
115.0
 50
180.0
100
AcDbRotatedDimension
  0
DIMENSION
  5
255
100
AcDbEntity
  8
0
100
AcDbDimension
 62
7
  6
CONTINUOUS
  2
*D4
 10
-177.8590506963
 20
-115.0
 11
-177.8590506963
 21
-3.4285714286
 70
160
 71
2
 72
2
 41
0.9
 42
230.0
  3
DIMSTYLE_1
100
AcDbAlignedDimension
 13
-125.5238763074
 23
115.0
 14
-125.5238763074
 24
-115.0
 50
270.0
100
AcDbRotatedDimension
  0
DIMENSION
  5
256
100
AcDbEntity
  8
0
100
AcDbDimension
 62
7
  6
CONTINUOUS
  2
*D5
 10
52.5693096397
 20
-173.2
 11
52.5693096397
 21
-0.2
 70
160
 71
2
 72
2
 41
0.9
 42
356.5
  3
DIMSTYLE_1
100
AcDbAlignedDimension
 13
-17.525
 23
183.3
 14
-17.525
 24
-173.2
 50
270.0
100
AcDbRotatedDimension
  0
LINE
  5
257
100
AcDbEntity
  8
0
100
AcDbLine
 62
7
  6
CONTINUOUS
 10
-20.0001422616
 20
-192.35
 11
-15.0498577384
 21
-192.35
  0
LINE
  5
258
100
AcDbEntity
  8
0
100
AcDbLine
 62
7
  6
CONTINUOUS
 10
18.0554381211
 20
-192.35
 11
10.8945618789
 21
-192.35
  0
LINE
  5
259
100
AcDbEntity
  8
0
100
AcDbLine
 62
7
  6
CONTINUOUS
 10
-45.9445618789
 20
-192.35
 11
-53.1054381211
 21
-192.35
  0
LINE
  5
25A
100
AcDbEntity
  8
0
100
AcDbLine
 62
7
  6
CONTINUOUS
 10
31.375
 20
-191.35
 11
-66.425
 21
-191.35
  0
LINE
  5
25B
100
AcDbEntity
  8
0
100
AcDbLine
 62
7
  6
CONTINUOUS
 10
31.375
 20
-190.35
 11
-66.425
 21
-190.35
  0
LINE
  5
25C
100
AcDbEntity
  8
0
100
AcDbLine
 62
7
  6
CONTINUOUS
 10
-67.475
 20
-190.3
 11
-65.475
 21
-190.3
  0
LINE
  5
25D
100
AcDbEntity
  8
0
100
AcDbLine
 62
7
  6
CONTINUOUS
 10
32.425
 20
-190.3
 11
30.425
 21
-190.3
  0
LINE
  5
25E
100
AcDbEntity
  8
0
100
AcDbLine
 62
7
  6
CONTINUOUS
 10
4.1577026153
 20
-190.3
 11
2.375
 21
-190.3
  0
LINE
  5
25F
100
AcDbEntity
  8
0
100
AcDbLine
 62
7
  6
CONTINUOUS
 10
-12.425
 20
-190.3
 11
-14.2688376124
 21
-190.3
  0
LINE
  5
260
100
AcDbEntity
  8
0
100
AcDbLine
 62
7
  6
CONTINUOUS
 10
-20.7811623876
 20
-190.3
 11
-22.625
 21
-190.3
  0
LINE
  5
261
100
AcDbEntity
  8
0
100
AcDbLine
 62
7
  6
CONTINUOUS
 10
-37.425
 20
-190.3
 11
-39.2077026153
 21
-190.3
  0
LINE
  5
262
100
AcDbEntity
  8
0
100
AcDbLine
 62
7
  6
CONTINUOUS
 10
-67.475
 20
-188.85
 11
-66.475
 21
-188.85
  0
LINE
  5
263
100
AcDbEntity
  8
0
100
AcDbLine
 62
7
  6
CONTINUOUS
 10
32.425
 20
-188.85
 11
31.425
 21
-188.85
  0
LINE
  5
264
100
AcDbEntity
  8
0
100
AcDbLine
 62
7
  6
CONTINUOUS
 10
-38.925
 20
-188.35
 11
-37.425
 21
-188.35
  0
LINE
  5
265
100
AcDbEntity
  8
0
100
AcDbLine
 62
250
  6
CONTINUOUS
 10
-37.425
 20
-188.35
 11
-22.625
 21
-188.35
  0
LINE
  5
266
100
AcDbEntity
  8
0
100
AcDbLine
 62
7
  6
CONTINUOUS
 10
-13.5054501844
 20
-188.35
 11
-12.425
 21
-188.35
  0
LINE
  5
267
100
AcDbEntity
  8
0
100
AcDbLine
 62
7
  6
CONTINUOUS
 10
3.875
 20
-188.35
 11
2.375
 21
-188.35
  0
LINE
  5
268
100
AcDbEntity
  8
0
100
AcDbLine
 62
250
  6
CONTINUOUS
 10
2.375
 20
-188.35
 11
-12.425
 21
-188.35
  0
LINE
  5
269
100
AcDbEntity
  8
0
100
AcDbLine
 62
7
  6
CONTINUOUS
 10
-21.5445498156
 20
-188.35
 11
-22.625
 21
-188.35
  0
LINE
  5
26A
100
AcDbEntity
  8
0
100
AcDbLine
 62
7
  6
CONTINUOUS
 10
-42.2311037701
 20
-184.65
 11
-43.3321420803
 21
-184.65
  0
LINE
  5
26B
100
AcDbEntity
  8
RACCORDO
100
AcDbLine
 62
7
  6
CONTINUOUS
 10
-47.3126205218
 20
-184.6
 11
-45.7041004864
 21
-184.6
  0
LINE
  5
26C
100
AcDbEntity
  8
SMUSSO
100
AcDbLine
 62
7
  6
CONTINUOUS
 10
-44.4786725037
 20
-184.5
 11
-41.0713274963
 21
-184.5
  0
LINE
  5
26D
100
AcDbEntity
  8
RACCORDO
100
AcDbLine
 62
7
  6
CONTINUOUS
 10
-46.130219814
 20
-181.85
 11
-48.5488635245
 21
-181.85
  0
LINE
  5
26E
100
AcDbEntity
  8
RACCORDO
100
AcDbLine
 62
7
  6
CONTINUOUS
 10
-48.5488635245
 20
-181.15
 11
-46.130219814
 21
-181.15
  0
LINE
  5
26F
100
AcDbEntity
  8
SMUSSO
100
AcDbLine
 62
7
  6
CONTINUOUS
 10
-41.0713274963
 20
-178.5
 11
-44.4786725037
 21
-178.5
  0
LINE
  5
270
100
AcDbEntity
  8
RACCORDO
100
AcDbLine
 62
7
  6
CONTINUOUS
 10
-45.7041004864
 20
-178.4
 11
-47.3126205218
 21
-178.4
  0
LINE
  5
271
100
AcDbEntity
  8
0
100
AcDbLine
 62
7
  6
CONTINUOUS
 10
-43.3323261847
 20
-178.35
 11
-42.231177491
 21
-178.35
  0
LWPOLYLINE
  5
272
100
AcDbEntity
  8
0
100
AcDbPolyline
 62
7
  6
CONTINUOUS
 90
24
 70
0
 10
-42.6244951122
 20
-176.9215280385
 10
-42.4445792008
 20
-176.9351096631
 10
-42.271769199
 20
-176.9536587451
 10
-42.1060651069
 20
-176.9771752845
 10
-41.9476961145
 20
-177.0062193066
 10
-41.7964330317
 20
-177.0402307861
 10
-41.6515882884
 20
-177.077529647
 10
-41.5130950719
 20
-177.1180000875
 10
-41.3810201948
 20
-177.1617579093
 10
-41.2548765247
 20
-177.2074704415
 10
-41.1347253145
 20
-177.2550146014
 10
-41.0205053113
 20
-177.3045134717
 10
-40.9115456234
 20
-177.3550036296
 10
-40.8078862973
 20
-177.4063649486
 10
-40.7094872867
 20
-177.4587175551
 10
-40.6155575601
 20
-177.5114584059
 10
-40.5261203089
 20
-177.5644722974
 10
-40.4411523418
 20
-177.6178744333
 10
-40.3597930537
 20
-177.671407381
 10
-40.2819293688
 20
-177.7250684177
 10
-40.2076743628
 20
-177.7788602661
 10
-40.1365066578
 20
-177.8325336616
 10
-40.0683519492
 20
-177.886104902
 10
-40.0032845416
 20
-177.9395576894
  0
LWPOLYLINE
  5
273
100
AcDbEntity
  8
0
100
AcDbPolyline
 62
7
  6
CONTINUOUS
 90
25
 70
0
 10
-38.6545224214
 20
-180.4840474063
 10
-38.6591508834
 20
-180.4827930596
 10
-38.6638113986
 20
-180.4803146503
 10
-38.6682949525
 20
-180.4773120719
 10
-38.6725399312
 20
-180.4738835767
 10
-38.6766079485
 20
-180.4699309126
 10
-38.6804748307
 20
-180.4658592169
 10
-38.6840944638
 20
-180.4617915875
 10
-38.6875129618
 20
-180.4576049264
 10
-38.6908444941
 20
-180.4533350773
 10
-38.694111854
 20
-180.4489917972
 10
-38.6972922482
 20
-180.444565329
 10
-38.7004314661
 20
-180.4400622453
 10
-38.703534623
 20
-180.4354882014
 10
-38.7065966036
 20
-180.4308375419
 10
-38.7096478513
 20
-180.4260998734
 10
-38.71269071
 20
-180.421277749
 10
-38.7157228357
 20
-180.4163686154
 10
-38.7187676399
 20
-180.4113544199
 10
-38.7218263249
 20
-180.406236537
 10
-38.7248976884
 20
-180.4010135922
 10
-38.7280015348
 20
-180.3956634091
 10
-38.7311384992
 20
-180.3901868353
 10
-38.7343079465
 20
-180.3845830233
 10
-38.7375277764
 20
-180.3788272547
  0
LWPOLYLINE
  5
274
100
AcDbEntity
  8
0
100
AcDbPolyline
 62
7
  6
CONTINUOUS
 90
6
 70
0
 10
-41.0207420436
 20
-176.9783765059
 10
-41.3294676958
 20
-176.8704280589
 10
-41.6447666498
 20
-176.783531769
 10
-41.9652051393
 20
-176.7180827816
 10
-42.2893260274
 20
-176.6743787144
 10
-42.6156554317
 20
-176.6526183038
  0
LWPOLYLINE
  5
275
100
AcDbEntity
  8
0
100
AcDbPolyline
 62
7
  6
CONTINUOUS
 90
47
 70
0
 10
-44.6569410346
 20
-185.9699885841
 10
-44.3514050347
 20
-186.0866596959
 10
-44.0387006126
 20
-186.1824737865
 10
-43.7202497362
 20
-186.2569951583
 10
-43.3975005043
 20
-186.3098849386
 10
-43.0719205618
 20
-186.3409026204
 10
-42.7449904257
 20
-186.3499071564
 10
-42.4181967528
 20
-186.3368576
 10
-42.0930255794
 20
-186.3018132918
 10
-41.7709555636
 20
-186.2449335896
 10
-41.4534512618
 20
-186.1664771437
 10
-41.1419564685
 20
-186.0668007209
 10
-40.8378876509
 20
-185.946357582
 10
-40.542627508
 20
-185.8056954208
 10
-40.257518683
 20
-185.6454538736
 10
-39.9838576576
 20
-185.4663616104
 10
-39.7228888568
 20
-185.2692330214
 10
-39.47579899
 20
-185.054964514
 10
-39.2437116545
 20
-184.8245304361
 10
-39.0276822262
 20
-184.5789786459
 10
-38.8286930607
 20
-184.3194257466
 10
-38.6476490258
 20
-184.0470520088
 10
-38.4853733873
 20
-183.763096004
 10
-38.3426040647
 20
-183.4688489716
 10
-38.2199902763
 20
-183.1656489477
 10
-38.1180895865
 20
-182.8548746808
 10
-38.0373653706
 20
-182.5379393617
 10
-37.9781847077
 20
-182.2162841974
 10
-37.9408167113
 20
-181.8913718578
 10
-37.9254313057
 20
-181.5646798242
 10
-37.9320984535
 20
-181.2376936705
 10
-37.9607878368
 20
-180.9119003083
 10
-38.0113689958
 20
-180.5887812251
 10
-38.0836119217
 20
-180.2698057477
 10
-38.1771881025
 20
-179.9564243603
 10
-38.2916720173
 20
-179.6500621094
 10
-38.4265430706
 20
-179.3521121227
 10
-38.5811879604
 20
-179.0639292752
 10
-38.7549034664
 20
-178.7868240271
 10
-38.9468996481
 20
-178.5220564653
 10
-39.156303437
 20
-178.2708305735
 10
-39.3821626066
 20
-178.0342887567
 10
-39.6234501023
 20
-177.8135066469
 10
-39.879068712
 20
-177.6094882117
 10
-40.1478560555
 20
-177.4231611885
 10
-40.4285898699
 20
-177.2553728666
 10
-40.7199935682
 20
-177.1068862335
  0
LINE
  5
276
100
AcDbEntity
  8
0
100
AcDbLine
 62
7
  6
CONTINUOUS
 10
-40.7199935682
 20
-177.1068862335
 11
-41.0207420436
 21
-176.9783765059
  0
LINE
  5
277
100
AcDbEntity
  8
0
100
AcDbLine
 62
7
  6
CONTINUOUS
 10
-19.525
 20
-177.2
 11
-15.525
 21
-177.2
  0
LINE
  5
278
100
AcDbEntity
  8
0
100
AcDbLine
 62
7
  6
CONTINUOUS
 10
-1.3965728753
 20
-176.65
 11
30.425
 21
-176.65
  0
LINE
  5
279
100
AcDbEntity
  8
0
100
AcDbLine
 62
7
  6
CONTINUOUS
 10
-33.6534271247
 20
-176.65
 11
-65.475
 21
-176.65
  0
LINE
  5
27A
100
AcDbEntity
  8
0
100
AcDbLine
 62
250
  6
CONTINUOUS
 10
-19.525
 20
-176.0
 11
-15.525
 21
-176.0
  0
LINE
  5
27B
100
AcDbEntity
  8
0
100
AcDbLine
 62
7
  6
CONTINUOUS
 10
-14.775
 20
-175.95
 11
-15.525
 21
-175.95
  0
LINE
  5
27C
100
AcDbEntity
  8
0
100
AcDbLine
 62
7
  6
CONTINUOUS
 10
-19.525
 20
-175.95
 11
-20.275
 21
-175.95
  0
LINE
  5
27D
100
AcDbEntity
  8
0
100
AcDbLine
 62
7
  6
CONTINUOUS
 10
-19.525
 20
-175.4
 11
-15.525
 21
-175.4
  0
LINE
  5
27E
100
AcDbEntity
  8
0
100
AcDbLine
 62
7
  6
CONTINUOUS
 10
-67.475
 20
-171.35
 11
-66.475
 21
-171.35
  0
LINE
  5
27F
100
AcDbEntity
  8
0
100
AcDbLine
 62
7
  6
CONTINUOUS
 10
32.425
 20
-171.35
 11
31.425
 21
-171.35
  0
LINE
  5
280
100
AcDbEntity
  8
0
100
AcDbLine
 62
7
  6
CONTINUOUS
 10
-19.525
 20
-171.0
 11
-15.525
 21
-171.0
  0
LINE
  5
281
100
AcDbEntity
  8
0
100
AcDbLine
 62
250
  6
CONTINUOUS
 10
-65.475
 20
-170.85
 11
-63.975
 21
-170.85
  0
LINE
  5
282
100
AcDbEntity
  8
0
100
AcDbLine
 62
250
  6
CONTINUOUS
 10
30.425
 20
-170.85
 11
28.925
 21
-170.85
  0
LINE
  5
283
100
AcDbEntity
  8
0
100
AcDbLine
 62
7
  6
CONTINUOUS
 10
-20.275
 20
-170.45
 11
-19.525
 21
-170.45
  0
LINE
  5
284
100
AcDbEntity
  8
0
100
AcDbLine
 62
7
  6
CONTINUOUS
 10
-15.525
 20
-170.45
 11
-14.775
 21
-170.45
  0
LINE
  5
285
100
AcDbEntity
  8
0
100
AcDbLine
 62
250
  6
CONTINUOUS
 10
-19.525
 20
-170.4
 11
-15.525
 21
-170.4
  0
LINE
  5
286
100
AcDbEntity
  8
0
100
AcDbLine
 62
7
  6
CONTINUOUS
 10
-65.475
 20
-170.35
 11
-63.975
 21
-170.35
  0
LINE
  5
287
100
AcDbEntity
  8
0
100
AcDbLine
 62
7
  6
CONTINUOUS
 10
30.425
 20
-170.35
 11
28.925
 21
-170.35
  0
LINE
  5
288
100
AcDbEntity
  8
0
100
AcDbLine
 62
7
  6
CONTINUOUS
 10
31.425
 20
-169.35
 11
32.425
 21
-169.35
  0
LINE
  5
289
100
AcDbEntity
  8
0
100
AcDbLine
 62
7
  6
CONTINUOUS
 10
-66.475
 20
-169.35
 11
-67.475
 21
-169.35
  0
LINE
  5
28A
100
AcDbEntity
  8
0
100
AcDbLine
 62
7
  6
CONTINUOUS
 10
-19.525
 20
-169.2
 11
-15.525
 21
-169.2
  0
LINE
  5
28B
100
AcDbEntity
  8
0
100
AcDbLine
 62
7
  6
CONTINUOUS
 10
-11.3534271247
 20
-168.35
 11
-23.6965728753
 21
-168.35
  0
LINE
  5
28C
100
AcDbEntity
  8
0
100
AcDbLine
 62
250
  6
CONTINUOUS
 10
31.425
 20
-168.35
 11
32.425
 21
-168.35
  0
LINE
  5
28D
100
AcDbEntity
  8
0
100
AcDbLine
 62
250
  6
CONTINUOUS
 10
-66.475
 20
-168.35
 11
-67.475
 21
-168.35
  0
LWPOLYLINE
  5
28E
100
AcDbEntity
  8
0
100
AcDbPolyline
 62
7
  6
CONTINUOUS
 90
10
 70
0
 43
0.3500000006
 10
-21.4892864456
 20
205.2000849609
 10
-20.6321439743
 20
206.0572410278
 10
-20.4178572235
 20
206.9143789673
 10
-20.4178572235
 20
207.7715169067
 10
-20.8464284592
 20
208.2000858765
 10
-21.4892864456
 20
208.2000858765
 10
-21.9178576813
 20
207.7715169067
 10
-21.9178576813
 20
206.9143789673
 10
-21.4892864456
 20
206.4858099976
 10
-20.5607150574
 20
206.4858099976
  0
LWPOLYLINE
  5
28F
100
AcDbEntity
  8
0
100
AcDbPolyline
 62
7
  6
CONTINUOUS
 90
10
 70
0
 43
0.3500000006
 10
-19.1321435165
 20
205.2000849609
 10
-18.2749999123
 20
206.0572410278
 10
-18.0607142944
 20
206.9143789673
 10
-18.0607142944
 20
207.7715169067
 10
-18.4892855301
 20
208.2000858765
 10
-19.1321435165
 20
208.2000858765
 10
-19.5607147522
 20
207.7715169067
 10
-19.5607147522
 20
206.9143789673
 10
-19.1321435165
 20
206.4858099976
 10
-18.2035709953
 20
206.4858099976
  0
LWPOLYLINE
  5
290
100
AcDbEntity
  8
0
100
AcDbPolyline
 62
7
  6
CONTINUOUS
 90
10
 70
0
 43
0.3500000006
 10
-15.0607145119
 20
205.2000849609
 10
-14.2035709076
 20
206.0572410278
 10
-13.9892852898
 20
206.9143789673
 10
-13.9892852898
 20
207.7715169067
 10
-14.4178576584
 20
208.2000858765
 10
-15.0607145119
 20
208.2000858765
 10
-15.4892857475
 20
207.7715169067
 10
-15.4892857475
 20
206.9143789673
 10
-15.0607145119
 20
206.4858099976
 10
-14.1321431236
 20
206.4858099976
  0
LWPOLYLINE
  5
291
100
AcDbEntity
  8
0
100
AcDbPolyline
 62
7
  6
CONTINUOUS
 90
36
 70
0
 10
9.3580435315
 20
173.4331992791
 10
9.6621123491
 20
173.553642418
 10
9.957372492
 20
173.6943045792
 10
10.2424813171
 20
173.8545461264
 10
10.5161423424
 20
174.0336383896
 10
10.7771111432
 20
174.2307669786
 10
11.02420101
 20
174.445035486
 10
11.2562883455
 20
174.6754695639
 10
11.4723177738
 20
174.9210213541
 10
11.6713069393
 20
175.1805742534
 10
11.8523509742
 20
175.4529479912
 10
12.0146266127
 20
175.736903996
 10
12.1573959353
 20
176.0311510284
 10
12.2800097237
 20
176.3343510523
 10
12.3819104135
 20
176.6451253192
 10
12.4626346294
 20
176.9620606383
 10
12.5218152923
 20
177.2837158026
 10
12.5591832887
 20
177.6086281422
 10
12.5745686943
 20
177.9353201758
 10
12.5679015465
 20
178.2623063295
 10
12.5392121632
 20
178.5880996917
 10
12.4886310042
 20
178.9112187749
 10
12.4163880783
 20
179.2301942523
 10
12.3228118975
 20
179.5435756397
 10
12.2083279827
 20
179.8499378906
 10
12.0734569294
 20
180.1478878773
 10
11.9188120396
 20
180.4360707248
 10
11.7450965336
 20
180.7131759729
 10
11.5531003519
 20
180.9779435347
 10
11.343696563
 20
181.2291694265
 10
11.1178373934
 20
181.4657112433
 10
10.8765498977
 20
181.6864933531
 10
10.620931288
 20
181.8905117883
 10
10.3521439445
 20
182.0768388115
 10
10.0714101301
 20
182.2446271334
 10
9.7800064318
 20
182.3931137665
  0
LINE
  5
292
100
AcDbEntity
  8
0
100
AcDbLine
 62
250
  6
CONTINUOUS
 10
31.425
 20
-160.35
 11
32.425
 21
-160.35
  0
LINE
  5
293
100
AcDbEntity
  8
0
100
AcDbLine
 62
250
  6
CONTINUOUS
 10
-66.475
 20
-160.35
 11
-67.475
 21
-160.35
  0
LINE
  5
294
100
AcDbEntity
  8
0
100
AcDbLine
 62
7
  6
CONTINUOUS
 10
31.425
 20
-159.35
 11
32.425
 21
-159.35
  0
LINE
  5
295
100
AcDbEntity
  8
0
100
AcDbLine
 62
7
  6
CONTINUOUS
 10
-66.475
 20
-159.35
 11
-67.475
 21
-159.35
  0
LINE
  5
296
100
AcDbEntity
  8
0
100
AcDbLine
 62
7
  6
CONTINUOUS
 10
-65.475
 20
-153.9
 11
-65.425
 21
-153.9
  0
LINE
  5
297
100
AcDbEntity
  8
0
100
AcDbLine
 62
7
  6
CONTINUOUS
 10
30.425
 20
-153.9
 11
30.375
 21
-153.9
  0
LINE
  5
298
100
AcDbEntity
  8
0
100
AcDbLine
 62
7
  6
CONTINUOUS
 10
-65.475
 20
-152.1
 11
-65.425
 21
-152.1
  0
LINE
  5
299
100
AcDbEntity
  8
0
100
AcDbLine
 62
7
  6
CONTINUOUS
 10
30.425
 20
-152.1
 11
30.375
 21
-152.1
  0
LWPOLYLINE
  5
29A
100
AcDbEntity
  8
0
100
AcDbPolyline
 62
7
  6
CONTINUOUS
 90
3
 70
0
 10
-40.0032845416
 20
-177.9395576894
 10
-39.9410059707
 20
-177.9925938655
 10
-39.8815244944
 20
-178.0451785578
  0
LWPOLYLINE
  5
29B
100
AcDbEntity
  8
0
100
AcDbPolyline
 62
7
  6
CONTINUOUS
 90
6
 70
0
 10
-39.8815244944
 20
-178.0451785578
 10
-39.8248318549
 20
-178.0973466388
 10
-39.7706048137
 20
-178.1489045675
 10
-39.7188415851
 20
-178.19982466
 10
-39.6695439549
 20
-178.2501346002
 10
-39.6223940425
 20
-178.2997238992
  0
LINE
  5
29C
100
AcDbEntity
  8
0
100
AcDbLine
 62
7
  6
CONTINUOUS
 10
-31.9392135624
 20
174.0357864376
 11
-30.1107864376
 21
175.8642135624
  0
LWPOLYLINE
  5
29D
100
AcDbEntity
  8
0
100
AcDbPolyline
 62
7
  6
CONTINUOUS
 90
112
 70
0
 10
-39.6223940425
 20
-178.2997238992
 10
-39.5773863324
 20
-178.3485693214
 10
-39.5345263401
 20
-178.3966941024
 10
-39.4935127313
 20
-178.444057461
 10
-39.4543377381
 20
-178.4906404157
 10
-39.4170091283
 20
-178.5364619479
 10
-39.3812488716
 20
-178.5815382207
 10
-39.3470482479
 20
-178.6258537268
 10
-39.3144159774
 20
-178.6694239735
 10
-39.2831001896
 20
-178.7123116453
 10
-39.2530914693
 20
-178.7545047475
 10
-39.2243992317
 20
-178.7960152747
 10
-39.1967998523
 20
-178.8369418962
 10
-39.1702659679
 20
-178.8773066719
 10
-39.1448249417
 20
-178.9170875418
 10
-39.1203352384
 20
-178.9563169946
 10
-39.0967745873
 20
-178.9950222591
 10
-39.074165259
 20
-179.0331761064
 10
-39.0524325306
 20
-179.070729339
 10
-39.0315764524
 20
-179.1076776239
 10
-39.011596974
 20
-179.1440252941
 10
-38.9924192219
 20
-179.1797361501
 10
-38.9740424335
 20
-179.2148069006
 10
-38.9564673714
 20
-179.2492408369
 10
-38.9396214493
 20
-179.2830116335
 10
-38.9235036934
 20
-179.3161162268
 10
-38.9081150776
 20
-179.3485576804
 10
-38.8933859369
 20
-179.3803188596
 10
-38.8793165989
 20
-179.4113932444
 10
-38.865906736
 20
-179.4417873548
 10
-38.8530857004
 20
-179.4715036167
 10
-38.8408531676
 20
-179.5005358336
 10
-38.829209462
 20
-179.528890202
 10
-38.8180849093
 20
-179.5565877368
 10
-38.8074767638
 20
-179.5836281734
 10
-38.7973877712
 20
-179.6100117765
 10
-38.7877564938
 20
-179.6357603552
 10
-38.7785811484
 20
-179.6608718857
 10
-38.7698635183
 20
-179.6853483917
 10
-38.7615475161
 20
-179.7092177547
 10
-38.7536316734
 20
-179.7324773214
 10
-38.7461174586
 20
-179.7551297449
 10
-38.7389531897
 20
-179.7772108667
 10
-38.7321370839
 20
-179.7987193027
 10
-38.725670924
 20
-179.8196564369
 10
-38.7195083757
 20
-179.8400622622
 10
-38.7136460535
 20
-179.8599422154
 10
-38.708087343
 20
-179.8792908596
 10
-38.7027960663
 20
-179.8981318767
 10
-38.6977712198
 20
-179.9164639325
 10
-38.6930138072
 20
-179.9342883612
 10
-38.6884906615
 20
-179.9516328465
 10
-38.6842008118
 20
-179.9684961015
 10
-38.680145229
 20
-179.9848794132
 10
-38.6762936592
 20
-180.000814326
 10
-38.6726450966
 20
-180.0162999084
 10
-38.6692005471
 20
-180.0313370919
 10
-38.6659327741
 20
-180.0459602159
 10
-38.6628407777
 20
-180.060168614
 10
-38.6599255579
 20
-180.0739629524
 10
-38.6571628781
 20
-180.0873795695
 10
-38.654551765
 20
-180.1004179951
 10
-38.6520931919
 20
-180.1130786992
 10
-38.6497658429
 20
-180.1253994301
 10
-38.6475687777
 20
-180.1373798561
 10
-38.6455029366
 20
-180.1490203089
 10
-38.6435498238
 20
-180.1603595313
 10
-38.6417085269
 20
-180.1713972861
 10
-38.6399799584
 20
-180.1821338104
 10
-38.6383483599
 20
-180.192608559
 10
-38.6368128287
 20
-180.2028213577
 10
-38.6353742676
 20
-180.2127723807
 10
-38.6340196261
 20
-180.2225016052
 10
-38.6327479788
 20
-180.232008903
 10
-38.6315602511
 20
-180.2412944024
 10
-38.6304461685
 20
-180.2503984647
 10
-38.6294047381
 20
-180.2593209
 10
-38.6284369527
 20
-180.2680618982
 10
-38.6275355161
 20
-180.2766623913
 10
-38.6266995496
 20
-180.2851175333
 10
-38.625929932
 20
-180.2934321702
 10
-38.6252220032
 20
-180.3016617718
 10
-38.6245736913
 20
-180.3098089178
 10
-38.6239870683
 20
-180.3178710284
 10
-38.6234636902
 20
-180.3258958347
 10
-38.623000723
 20
-180.3339171481
 10
-38.6226010007
 20
-180.3419011572
 10
-38.6222745806
 20
-180.3497941587
 10
-38.6220221533
 20
-180.3575944442
 10
-38.6218430281
 20
-180.3653037222
 10
-38.6217451904
 20
-180.3728734147
 10
-38.621728814
 20
-180.3802963337
 10
-38.621793725
 20
-180.3875796673
 10
-38.6219473867
 20
-180.3946964014
 10
-38.622188099
 20
-180.4016390002
 10
-38.6225175621
 20
-180.4084149996
 10
-38.6229483399
 20
-180.4150199931
 10
-38.6234750827
 20
-180.4214501146
 10
-38.6241031403
 20
-180.4277092302
 10
-38.6248611257
 20
-180.4338045315
 10
-38.6257360149
 20
-180.4397431878
 10
-38.6267408319
 20
-180.4455180298
 10
-38.6279432626
 20
-180.4511147412
 10
-38.629306785
 20
-180.456571493
 10
-38.6308679211
 20
-180.4618501142
 10
-38.6328039225
 20
-180.466821776
 10
-38.6351043984
 20
-180.4716620739
 10
-38.6377797397
 20
-180.4761954124
 10
-38.6410383702
 20
-180.4797661764
 10
-38.6451335099
 20
-180.4822429903
 10
-38.649811939
 20
-180.4837572296
 10
-38.6545224214
 20
-180.4840474063
  0
LINE
  5
29E
100
AcDbEntity
  8
0
100
AcDbLine
 62
7
  6
CONTINUOUS
 10
-65.475
 20
-123.3
 11
-65.425
 21
-123.3
  0
LINE
  5
29F
100
AcDbEntity
  8
0
100
AcDbLine
 62
7
  6
CONTINUOUS
 10
30.425
 20
-123.3
 11
30.375
 21
-123.3
  0
LINE
  5
2A0
100
AcDbEntity
  8
0
100
AcDbLine
 62
7
  6
CONTINUOUS
 10
-2.8107864376
 20
-176.0642135624
 11
-9.9392135624
 21
-168.9357864376
  0
LWPOLYLINE
  5
2A1
100
AcDbEntity
  8
0
100
AcDbPolyline
 62
7
  6
CONTINUOUS
 90
65
 70
0
 10
-39.0756778904
 20
-179.7412444008
 10
-39.0889958821
 20
-179.7187394131
 10
-39.1027513305
 20
-179.6957506378
 10
-39.1169462633
 20
-179.6722787267
 10
-39.1316376962
 20
-179.6483004614
 10
-39.1468239524
 20
-179.6238140464
 10
-39.1625067088
 20
-179.5988212772
 10
-39.1787480111
 20
-179.5733043215
 10
-39.1955460907
 20
-179.5472610366
 10
-39.2129027163
 20
-179.5206935652
 10
-39.2308852398
 20
-179.4935905029
 10
-39.24949183
 20
-179.4659493247
 10
-39.2687243182
 20
-179.4377725555
 10
-39.2886555495
 20
-179.4090563657
 10
-39.3092836729
 20
-179.3797978077
 10
-39.3306105395
 20
-179.3499998291
 10
-39.3527145481
 20
-179.3196674419
 10
-39.3755942186
 20
-179.288796826
 10
-39.3992510311
 20
-179.2573918016
 10
-39.4237678241
 20
-179.2254688414
 10
-39.4491355147
 20
-179.1930325848
 10
-39.4753631859
 20
-179.1600783926
 10
-39.5025609251
 20
-179.1266088197
 10
-39.5307000515
 20
-179.0926465051
 10
-39.5598092459
 20
-179.0581688099
 10
-39.5900846387
 20
-179.0231103724
 10
-39.6215178747
 20
-178.9874631014
 10
-39.6541173092
 20
-178.951235088
 10
-39.688104138
 20
-178.9143852442
 10
-39.7234718764
 20
-178.8769006098
 10
-39.7602270091
 20
-178.8387941451
 10
-39.7986101858
 20
-178.8000636425
 10
-39.8386153379
 20
-178.7606932681
 10
-39.8802485341
 20
-178.7206988558
 10
-39.9237686297
 20
-178.6801257
 10
-39.9691709442
 20
-178.6389544345
 10
-40.0164601581
 20
-178.5972044255
 10
-40.0659091682
 20
-178.5549790649
 10
-40.1175157247
 20
-178.5122552011
 10
-40.1712820773
 20
-178.4690559856
 10
-40.2274878725
 20
-178.4255542651
 10
-40.2861351593
 20
-178.381722802
 10
-40.3472218885
 20
-178.3375888339
 10
-40.4110215595
 20
-178.2934069191
 10
-40.4775351965
 20
-178.249149991
 10
-40.5467617753
 20
-178.2048451162
 10
-40.6189717224
 20
-178.1608280533
 10
-40.6940285942
 20
-178.1171283786
 10
-40.7720688344
 20
-178.0737165157
 10
-40.8537722007
 20
-178.0308394944
 10
-40.9391036423
 20
-177.9884275441
 10
-41.0280982101
 20
-177.9465504355
 10
-41.1215408149
 20
-177.9056645101
 10
-41.21946524
 20
-177.8656546584
 10
-41.3218377021
 20
-177.8266359901
 10
-41.4293417625
 20
-177.7894101752
 10
-41.5420439782
 20
-177.7538527147
 10
-41.6598777922
 20
-177.7200881077
 10
-41.7833270943
 20
-177.6892915225
 10
-41.9124300227
 20
-177.6613409805
 10
-42.047148439
 20
-177.6363584603
 10
-42.1878518186
 20
-177.6158850659
 10
-42.3346633197
 20
-177.6004344986
 10
-42.4874597839
 20
-177.5894930571
 10
-42.6462412113
 20
-177.5830607414
  0
LWPOLYLINE
  5
2A2
100
AcDbEntity
  8
0
100
AcDbPolyline
 62
7
  6
CONTINUOUS
 90
3
 70
0
 10
-39.0382036659
 20
-179.8059403108
 10
-39.0503094266
 20
-179.7848301431
 10
-39.0756778904
 20
-179.7412444008
  0
LINE
  5
2A3
100
AcDbEntity
  8
0
100
AcDbLine
 62
7
  6
CONTINUOUS
 10
-65.475
 20
-121.5
 11
-65.425
 21
-121.5
  0
LINE
  5
2A4
100
AcDbEntity
  8
0
100
AcDbLine
 62
7
  6
CONTINUOUS
 10
30.425
 20
-121.5
 11
30.375
 21
-121.5
  0
LINE
  5
2A5
100
AcDbEntity
  8
0
100
AcDbLine
 62
7
  6
CONTINUOUS
 10
-39.0151199304
 20
-179.8467992186
 11
-39.0382036659
 21
-179.8059403108
  0
LINE
  5
2A6
100
AcDbEntity
  8
0
100
AcDbLine
 62
7
  6
CONTINUOUS
 10
-38.9934353386
 20
-179.8858771802
 11
-39.0151199304
 21
-179.8467992186
  0
LINE
  5
2A7
100
AcDbEntity
  8
0
100
AcDbLine
 62
7
  6
CONTINUOUS
 10
-38.7375277764
 20
-180.3788272547
 11
-38.7441192387
 21
-180.3668609368
  0
LINE
  5
2A8
100
AcDbEntity
  8
0
100
AcDbLine
 62
7
  6
CONTINUOUS
 10
-38.9730551566
 20
-179.9232048777
 11
-38.9934353386
 21
-179.8858771802
  0
LINE
  5
2A9
100
AcDbEntity
  8
0
100
AcDbLine
 62
7
  6
CONTINUOUS
 10
-38.7441192387
 20
-180.3668609368
 11
-38.750963152
 21
-180.3542080178
  0
LINE
  5
2AA
100
AcDbEntity
  8
0
100
AcDbLine
 62
7
  6
CONTINUOUS
 10
-38.9539170715
 20
-179.9588063859
 11
-38.9730551566
 21
-179.9232048777
  0
LINE
  5
2AB
100
AcDbEntity
  8
0
100
AcDbLine
 62
7
  6
CONTINUOUS
 10
-38.750963152
 20
-180.3542080178
 11
-38.7580928454
 21
-180.3408149482
  0
LINE
  5
2AC
100
AcDbEntity
  8
0
100
AcDbLine
 62
7
  6
CONTINUOUS
 10
-38.9359307751
 20
-179.9927208937
 11
-38.9539170715
 21
-179.9588063859
  0
LINE
  5
2AD
100
AcDbEntity
  8
0
100
AcDbLine
 62
7
  6
CONTINUOUS
 10
-38.7580928454
 20
-180.3408149482
 11
-38.7655576241
 21
-180.32659977
  0
LINE
  5
2AE
100
AcDbEntity
  8
0
100
AcDbLine
 62
7
  6
CONTINUOUS
 10
-38.919015314
 20
-180.0249945633
 11
-38.9359307751
 21
-179.9927208937
  0
LINE
  5
2AF
100
AcDbEntity
  8
0
100
AcDbLine
 62
7
  6
CONTINUOUS
 10
-38.7655576241
 20
-180.32659977
 11
-38.7774792876
 21
-180.3035723003
  0
LINE
  5
2B0
100
AcDbEntity
  8
0
100
AcDbLine
 62
7
  6
CONTINUOUS
 10
-38.8955239138
 20
-180.0704061748
 11
-38.919015314
 21
-180.0249945633
  0
LINE
  5
2B1
100
AcDbEntity
  8
0
100
AcDbLine
 62
7
  6
CONTINUOUS
 10
-38.7774792876
 20
-180.3035723003
 11
-38.7949428309
 21
-180.2693304819
  0
LINE
  5
2B2
100
AcDbEntity
  8
0
100
AcDbLine
 62
7
  6
CONTINUOUS
 10
-38.8673674852
 20
-180.1256095291
 11
-38.8955239138
 21
-180.0704061748
  0
LWPOLYLINE
  5
2B3
100
AcDbEntity
  8
0
100
AcDbPolyline
 62
7
  6
CONTINUOUS
 90
4
 70
0
 10
-38.7949428309
 20
-180.2693304819
 10
-38.8251185321
 20
-180.2094486237
 10
-38.8306676656
 20
-180.1984061016
 10
-38.8673674852
 20
-180.1256095291
  0
LINE
  5
2B4
100
AcDbEntity
  8
0
100
AcDbLine
 62
7
  6
CONTINUOUS
 10
-53.7570508076
 20
-191.35
 11
-53.5884010343
 21
-191.9794095226
  0
LINE
  5
2B5
100
AcDbEntity
  8
0
100
AcDbLine
 62
7
  6
CONTINUOUS
 10
-65.475
 20
-92.7
 11
-65.425
 21
-92.7
  0
LINE
  5
2B6
100
AcDbEntity
  8
0
100
AcDbLine
 62
7
  6
CONTINUOUS
 10
30.425
 20
-92.7
 11
30.375
 21
-92.7
  0
LINE
  5
2B7
100
AcDbEntity
  8
0
100
AcDbLine
 62
7
  6
CONTINUOUS
 10
-65.475
 20
-90.9
 11
-65.425
 21
-90.9
  0
LINE
  5
2B8
100
AcDbEntity
  8
0
100
AcDbLine
 62
7
  6
CONTINUOUS
 10
30.425
 20
-90.9
 11
30.375
 21
-90.9
  0
LINE
  5
2B9
100
AcDbEntity
  8
0
100
AcDbLine
 62
7
  6
CONTINUOUS
 10
-67.475
 20
-159.35
 11
-67.475
 21
-190.3
  0
LINE
  5
2BA
100
AcDbEntity
  8
0
100
AcDbLine
 62
7
  6
CONTINUOUS
 10
-67.475
 20
159.35
 11
-67.475
 21
190.3
  0
LINE
  5
2BB
100
AcDbEntity
  8
0
100
AcDbLine
 62
7
  6
CONTINUOUS
 10
-46.7452000995
 20
191.9368240888
 11
-46.8486730193
 21
191.35
  0
LWPOLYLINE
  5
2BC
100
AcDbEntity
  8
0
100
AcDbPolyline
 62
7
  6
CONTINUOUS
 90
3
 70
0
 43
0.3500000006
 10
-16.4892860527
 20
205.4858096924
 10
-16.5607138367
 20
205.2715252075
 10
-16.7035716705
 20
204.9858004761
  0
LINE
  5
2BD
100
AcDbEntity
  8
ASSI
100
AcDbLine
 62
7
  6
CONTINUOUS
 10
-30.6571252104
 20
87.725
 11
-27.6549038106
 21
92.925
  0
LINE
  5
2BE
100
AcDbEntity
  8
ASSI
100
AcDbLine
 62
7
  6
CONTINUOUS
 10
-27.525
 20
92.55
 11
-30.3973175892
 21
87.575
  0
LINE
  5
2BF
100
AcDbEntity
  8
0
100
AcDbLine
 62
7
  6
CONTINUOUS
 10
-66.475
 20
-190.3
 11
-66.475
 21
190.3
  0
LINE
  5
2C0
100
AcDbEntity
  8
0
100
AcDbLine
 62
7
  6
CONTINUOUS
 10
-66.425
 20
-190.35
 11
-66.425
 21
-191.35
  0
LINE
  5
2C1
100
AcDbEntity
  8
0
100
AcDbLine
 62
7
  6
CONTINUOUS
 10
-66.425
 20
190.35
 11
-66.425
 21
191.35
  0
LINE
  5
2C2
100
AcDbEntity
  8
0
100
AcDbLine
 62
7
  6
CONTINUOUS
 10
-65.475
 20
-190.35
 11
-65.475
 21
190.35
  0
LINE
  5
2C3
100
AcDbEntity
  8
0
100
AcDbLine
 62
250
  6
CONTINUOUS
 10
-65.425
 20
153.9
 11
-65.425
 21
152.1
  0
LINE
  5
2C4
100
AcDbEntity
  8
0
100
AcDbLine
 62
7
  6
CONTINUOUS
 10
-65.425
 20
152.1
 11
-65.425
 21
123.3
  0
LINE
  5
2C5
100
AcDbEntity
  8
0
100
AcDbLine
 62
250
  6
CONTINUOUS
 10
-65.425
 20
123.3
 11
-65.425
 21
121.5
  0
LINE
  5
2C6
100
AcDbEntity
  8
0
100
AcDbLine
 62
7
  6
CONTINUOUS
 10
-65.425
 20
-170.35
 11
-65.425
 21
-153.9
  0
LINE
  5
2C7
100
AcDbEntity
  8
0
100
AcDbLine
 62
250
  6
CONTINUOUS
 10
-65.425
 20
92.7
 11
-65.425
 21
90.9
  0
LINE
  5
2C8
100
AcDbEntity
  8
0
100
AcDbLine
 62
7
  6
CONTINUOUS
 10
-65.425
 20
-152.1
 11
-65.425
 21
-123.3
  0
LINE
  5
2C9
100
AcDbEntity
  8
0
100
AcDbLine
 62
250
  6
CONTINUOUS
 10
-65.425
 20
62.1
 11
-65.425
 21
60.3
  0
LINE
  5
2CA
100
AcDbEntity
  8
0
100
AcDbLine
 62
7
  6
CONTINUOUS
 10
-65.425
 20
-121.5
 11
-65.425
 21
-92.7
  0
LINE
  5
2CB
100
AcDbEntity
  8
0
100
AcDbLine
 62
250
  6
CONTINUOUS
 10
-65.425
 20
31.5
 11
-65.425
 21
29.7
  0
LINE
  5
2CC
100
AcDbEntity
  8
0
100
AcDbLine
 62
7
  6
CONTINUOUS
 10
-65.425
 20
-90.9
 11
-65.425
 21
-62.1
  0
LINE
  5
2CD
100
AcDbEntity
  8
0
100
AcDbLine
 62
250
  6
CONTINUOUS
 10
-65.425
 20
0.9
 11
-65.425
 21
-0.9
  0
LINE
  5
2CE
100
AcDbEntity
  8
0
100
AcDbLine
 62
7
  6
CONTINUOUS
 10
-65.425
 20
-60.3
 11
-65.425
 21
-31.5
  0
LINE
  5
2CF
100
AcDbEntity
  8
0
100
AcDbLine
 62
250
  6
CONTINUOUS
 10
-65.425
 20
-29.7
 11
-65.425
 21
-31.5
  0
LINE
  5
2D0
100
AcDbEntity
  8
0
100
AcDbLine
 62
7
  6
CONTINUOUS
 10
-65.425
 20
-29.7
 11
-65.425
 21
-0.9
  0
LINE
  5
2D1
100
AcDbEntity
  8
0
100
AcDbLine
 62
250
  6
CONTINUOUS
 10
-65.425
 20
-60.3
 11
-65.425
 21
-62.1
  0
LINE
  5
2D2
100
AcDbEntity
  8
0
100
AcDbLine
 62
7
  6
CONTINUOUS
 10
-65.425
 20
0.9
 11
-65.425
 21
29.7
  0
LINE
  5
2D3
100
AcDbEntity
  8
0
100
AcDbLine
 62
250
  6
CONTINUOUS
 10
-65.425
 20
-90.9
 11
-65.425
 21
-92.7
  0
LINE
  5
2D4
100
AcDbEntity
  8
0
100
AcDbLine
 62
7
  6
CONTINUOUS
 10
-65.425
 20
31.5
 11
-65.425
 21
60.3
  0
LINE
  5
2D5
100
AcDbEntity
  8
0
100
AcDbLine
 62
250
  6
CONTINUOUS
 10
-65.425
 20
-121.5
 11
-65.425
 21
-123.3
  0
LINE
  5
2D6
100
AcDbEntity
  8
0
100
AcDbLine
 62
7
  6
CONTINUOUS
 10
-65.425
 20
62.1
 11
-65.425
 21
90.9
  0
LINE
  5
2D7
100
AcDbEntity
  8
0
100
AcDbLine
 62
250
  6
CONTINUOUS
 10
-65.425
 20
-152.1
 11
-65.425
 21
-153.9
  0
LINE
  5
2D8
100
AcDbEntity
  8
0
100
AcDbLine
 62
7
  6
CONTINUOUS
 10
-65.425
 20
92.7
 11
-65.425
 21
121.5
  0
LINE
  5
2D9
100
AcDbEntity
  8
0
100
AcDbLine
 62
7
  6
CONTINUOUS
 10
-65.425
 20
153.9
 11
-65.425
 21
170.35
  0
LINE
  5
2DA
100
AcDbEntity
  8
0
100
AcDbLine
 62
7
  6
CONTINUOUS
 10
-63.975
 20
-170.35
 11
-63.975
 21
-176.65
  0
LINE
  5
2DB
100
AcDbEntity
  8
0
100
AcDbLine
 62
7
  6
CONTINUOUS
 10
-63.975
 20
170.35
 11
-63.975
 21
173.45
  0
LINE
  5
2DC
100
AcDbEntity
  8
0
100
AcDbLine
 62
250
  6
CONTINUOUS
 10
-63.475
 20
190.35
 11
-63.475
 21
173.45
  0
LINE
  5
2DD
100
AcDbEntity
  8
0
100
AcDbLine
 62
250
  6
CONTINUOUS
 10
-63.475
 20
-190.35
 11
-63.475
 21
-176.65
  0
LINE
  5
2DE
100
AcDbEntity
  8
0
100
AcDbLine
 62
7
  6
CONTINUOUS
 10
-21.3925461381
 20
191.9368240888
 11
-21.4960190579
 21
191.35
  0
LINE
  5
2DF
100
AcDbEntity
  8
0
100
AcDbLine
 62
7
  6
CONTINUOUS
 10
-21.6723460386
 20
190.35
 11
-21.9521459391
 21
188.7631759112
  0
LINE
  5
2E0
100
AcDbEntity
  8
0
100
AcDbLine
 62
7
  6
CONTINUOUS
 10
-65.475
 20
-62.1
 11
-65.425
 21
-62.1
  0
LINE
  5
2E1
100
AcDbEntity
  8
0
100
AcDbLine
 62
7
  6
CONTINUOUS
 10
30.425
 20
-62.1
 11
30.375
 21
-62.1
  0
LINE
  5
2E2
100
AcDbEntity
  8
0
100
AcDbLine
 62
7
  6
CONTINUOUS
 10
-65.475
 20
-60.3
 11
-65.425
 21
-60.3
  0
LINE
  5
2E3
100
AcDbEntity
  8
0
100
AcDbLine
 62
7
  6
CONTINUOUS
 10
30.425
 20
-60.3
 11
30.375
 21
-60.3
  0
LINE
  5
2E4
100
AcDbEntity
  8
0
100
AcDbLine
 62
7
  6
CONTINUOUS
 10
-45.925
 20
-182.054238927
 11
-45.925
 21
-180.9457626042
  0
LINE
  5
2E5
100
AcDbEntity
  8
SMUSSO
100
AcDbLine
 62
7
  6
CONTINUOUS
 10
-45.775
 20
-179.7963274963
 11
-45.775
 21
-183.2036725037
  0
LINE
  5
2E6
100
AcDbEntity
  8
SMUSSO
100
AcDbLine
 62
7
  6
CONTINUOUS
 10
-39.775
 20
-183.2036725037
 11
-39.775
 21
-179.7963274963
  0
LINE
  5
2E7
100
AcDbEntity
  8
0
100
AcDbLine
 62
7
  6
CONTINUOUS
 10
-21.0521459391
 20
-188.7631759112
 11
-20.7723460386
 21
-190.35
  0
LINE
  5
2E8
100
AcDbEntity
  8
0
100
AcDbLine
 62
7
  6
CONTINUOUS
 10
-20.5960190579
 20
-191.35
 11
-20.4925461381
 21
-191.9368240888
  0
LINE
  5
2E9
100
AcDbEntity
  8
0
100
AcDbLine
 62
7
  6
CONTINUOUS
 10
-39.625
 20
-180.9548861444
 11
-39.625
 21
-182.0451870199
  0
LINE
  5
2EA
100
AcDbEntity
  8
0
100
AcDbLine
 62
7
  6
CONTINUOUS
 10
-38.925
 20
-188.35
 11
-38.925
 21
-189.85
  0
LINE
  5
2EB
100
AcDbEntity
  8
0
100
AcDbLine
 62
7
  6
CONTINUOUS
 10
-37.425
 20
-190.35
 11
-37.425
 21
-188.35
  0
LINE
  5
2EC
100
AcDbEntity
  8
0
100
AcDbLine
 62
7
  6
CONTINUOUS
 10
-36.525
 20
190.35
 11
-36.525
 21
188.35
  0
LINE
  5
2ED
100
AcDbEntity
  8
ASSI
100
AcDbLine
 62
7
  6
CONTINUOUS
 10
-27.675
 20
75.15
 11
-27.675
 21
87.85
  0
LINE
  5
2EE
100
AcDbEntity
  8
ASSI
100
AcDbLine
 62
7
  6
CONTINUOUS
 10
-27.375
 20
87.85
 11
-27.375
 21
75.15
  0
LINE
  5
2EF
100
AcDbEntity
  8
0
100
AcDbLine
 62
7
  6
CONTINUOUS
 10
-42.6156554317
 20
-176.6526183038
 11
-42.6462412113
 21
-177.5830607414
  0
LINE
  5
2F0
100
AcDbEntity
  8
0
100
AcDbLine
 62
7
  6
CONTINUOUS
 10
3.6074538619
 20
191.9368240888
 11
3.5039809421
 21
191.35
  0
LINE
  5
2F1
100
AcDbEntity
  8
0
100
AcDbLine
 62
7
  6
CONTINUOUS
 10
3.3276539614
 20
190.35
 11
3.0478540609
 21
188.7631759112
  0
LINE
  5
2F2
100
AcDbEntity
  8
0
100
AcDbLine
 62
7
  6
CONTINUOUS
 10
-65.475
 20
-31.5
 11
-65.425
 21
-31.5
  0
LINE
  5
2F3
100
AcDbEntity
  8
0
100
AcDbLine
 62
7
  6
CONTINUOUS
 10
30.425
 20
-31.5
 11
30.375
 21
-31.5
  0
LINE
  5
2F4
100
AcDbEntity
  8
0
100
AcDbLine
 62
7
  6
CONTINUOUS
 10
-65.475
 20
-29.7
 11
-65.425
 21
-29.7
  0
LINE
  5
2F5
100
AcDbEntity
  8
0
100
AcDbLine
 62
7
  6
CONTINUOUS
 10
30.425
 20
-29.7
 11
30.375
 21
-29.7
  0
LINE
  5
2F6
100
AcDbEntity
  8
0
100
AcDbLine
 62
7
  6
CONTINUOUS
 10
10.2429491924
 20
-191.35
 11
10.4115989657
 21
-191.9794095226
  0
LINE
  5
2F7
100
AcDbEntity
  8
0
100
AcDbLine
 62
7
  6
CONTINUOUS
 10
-23.525
 20
190.35
 11
-23.525
 21
188.35
  0
LINE
  5
2F8
100
AcDbEntity
  8
0
100
AcDbLine
 62
7
  6
CONTINUOUS
 10
-22.625
 20
-190.35
 11
-22.625
 21
-188.35
  0
LINE
  5
2F9
100
AcDbEntity
  8
0
100
AcDbLine
 62
7
  6
CONTINUOUS
 10
-20.775
 20
-175.45
 11
-20.775
 21
-170.95
  0
LINE
  5
2FA
100
AcDbEntity
  8
0
100
AcDbLine
 62
7
  6
CONTINUOUS
 10
-20.775
 20
181.05
 11
-20.775
 21
185.55
  0
LINE
  5
2FB
100
AcDbEntity
  8
ASSI
100
AcDbLine
 62
7
  6
CONTINUOUS
 10
-20.525
 20
78.2212375356
 11
-20.525
 21
84.85
  0
LINE
  5
2FC
100
AcDbEntity
  8
ASSI
100
AcDbLine
 62
7
  6
CONTINUOUS
 10
-20.225
 20
84.85
 11
-20.225
 21
78.2212375356
  0
LINE
  5
2FD
100
AcDbEntity
  8
0
100
AcDbLine
 62
7
  6
CONTINUOUS
 10
-19.525
 20
187.3
 11
-19.525
 21
185.5
  0
LINE
  5
2FE
100
AcDbEntity
  8
0
100
AcDbLine
 62
7
  6
CONTINUOUS
 10
-19.525
 20
181.1
 11
-19.525
 21
179.3
  0
LINE
  5
2FF
100
AcDbEntity
  8
0
100
AcDbLine
 62
7
  6
CONTINUOUS
 10
-19.525
 20
-169.2
 11
-19.525
 21
-171.0
  0
LINE
  5
300
100
AcDbEntity
  8
0
100
AcDbLine
 62
7
  6
CONTINUOUS
 10
-19.525
 20
-175.4
 11
-19.525
 21
-177.2
  0
LINE
  5
301
100
AcDbEntity
  8
ASSI
100
AcDbLine
 62
7
  6
CONTINUOUS
 10
-18.225
 20
127.6306175621
 11
-18.225
 21
127.1298186301
  0
LINE
  5
302
100
AcDbEntity
  8
ASSI
100
AcDbLine
 62
7
  6
CONTINUOUS
 10
-18.225
 20
102.8701813699
 11
-18.225
 21
102.3693824379
  0
LINE
  5
303
100
AcDbEntity
  8
ASSI
100
AcDbLine
 62
7
  6
CONTINUOUS
 10
-18.225
 20
-102.3693824379
 11
-18.225
 21
-102.8701813699
  0
LINE
  5
304
100
AcDbEntity
  8
ASSI
100
AcDbLine
 62
7
  6
CONTINUOUS
 10
-18.225
 20
-127.1298186301
 11
-18.225
 21
-127.6306175621
  0
LINE
  5
305
100
AcDbEntity
  8
ASSI
100
AcDbLine
 62
7
  6
CONTINUOUS
 10
-16.825
 20
-127.6306175621
 11
-16.825
 21
-127.1298186301
  0
LINE
  5
306
100
AcDbEntity
  8
ASSI
100
AcDbLine
 62
7
  6
CONTINUOUS
 10
-16.825
 20
-102.8701813699
 11
-16.825
 21
-102.3693824379
  0
LINE
  5
307
100
AcDbEntity
  8
ASSI
100
AcDbLine
 62
7
  6
CONTINUOUS
 10
-16.825
 20
102.3693824379
 11
-16.825
 21
102.8701813699
  0
LINE
  5
308
100
AcDbEntity
  8
ASSI
100
AcDbLine
 62
7
  6
CONTINUOUS
 10
-16.825
 20
127.1298186301
 11
-16.825
 21
127.6306175621
  0
LINE
  5
309
100
AcDbEntity
  8
0
100
AcDbLine
 62
7
  6
CONTINUOUS
 10
-15.525
 20
187.3
 11
-15.525
 21
185.5
  0
LINE
  5
30A
100
AcDbEntity
  8
0
100
AcDbLine
 62
7
  6
CONTINUOUS
 10
-15.525
 20
181.1
 11
-15.525
 21
179.3
  0
LINE
  5
30B
100
AcDbEntity
  8
0
100
AcDbLine
 62
7
  6
CONTINUOUS
 10
-15.525
 20
-169.2
 11
-15.525
 21
-171.0
  0
LINE
  5
30C
100
AcDbEntity
  8
0
100
AcDbLine
 62
7
  6
CONTINUOUS
 10
-15.525
 20
-175.4
 11
-15.525
 21
-177.2
  0
LINE
  5
30D
100
AcDbEntity
  8
0
100
AcDbLine
 62
7
  6
CONTINUOUS
 10
-14.275
 20
185.55
 11
-14.275
 21
181.05
  0
LINE
  5
30E
100
AcDbEntity
  8
0
100
AcDbLine
 62
7
  6
CONTINUOUS
 10
-14.275
 20
-170.95
 11
-14.275
 21
-175.45
  0
LINE
  5
30F
100
AcDbEntity
  8
ASSI
100
AcDbLine
 62
7
  6
CONTINUOUS
 10
-13.825
 20
78.2212375356
 11
-13.825
 21
84.85
  0
LINE
  5
310
100
AcDbEntity
  8
ASSI
100
AcDbLine
 62
7
  6
CONTINUOUS
 10
-13.525
 20
84.85
 11
-13.525
 21
78.2212375356
  0
LINE
  5
311
100
AcDbEntity
  8
0
100
AcDbLine
 62
7
  6
CONTINUOUS
 10
-12.425
 20
-190.35
 11
-12.425
 21
-188.35
  0
LINE
  5
312
100
AcDbEntity
  8
0
100
AcDbLine
 62
7
  6
CONTINUOUS
 10
-11.525
 20
190.35
 11
-11.525
 21
188.35
  0
LINE
  5
313
100
AcDbEntity
  8
ASSI
100
AcDbLine
 62
7
  6
CONTINUOUS
 10
-11.525
 20
75.15
 11
-11.525
 21
84.85
  0
LINE
  5
314
100
AcDbEntity
  8
ASSI
100
AcDbLine
 62
7
  6
CONTINUOUS
 10
-11.225
 20
84.85
 11
-11.225
 21
75.15
  0
LINE
  5
315
100
AcDbEntity
  8
0
100
AcDbLine
 62
7
  6
CONTINUOUS
 10
1.475
 20
190.35
 11
1.475
 21
188.35
  0
LWPOLYLINE
  5
316
100
AcDbEntity
  8
0
100
AcDbPolyline
 62
7
  6
CONTINUOUS
 90
4
 70
0
 43
0.3500000006
 10
61.3907374878
 20
-3.3214290962
 10
60.5335950165
 20
-3.3214290962
 10
60.1050260468
 20
-2.8928567276
 10
60.1050260468
 20
-2.2499998741
  0
LINE
  5
317
100
AcDbEntity
  8
0
100
AcDbLine
 62
7
  6
CONTINUOUS
 10
-65.475
 20
-0.9
 11
-65.425
 21
-0.9
  0
LINE
  5
318
100
AcDbEntity
  8
0
100
AcDbLine
 62
7
  6
CONTINUOUS
 10
30.425
 20
-0.9
 11
30.375
 21
-0.9
  0
LWPOLYLINE
  5
319
100
AcDbEntity
  8
0
100
AcDbPolyline
 62
7
  6
CONTINUOUS
 90
2
 70
0
 43
0.3500000006
 10
61.8193109894
 20
0.035715271
 10
60.3193105316
 20
0.035715271
  0
LINE
  5
31A
100
AcDbEntity
  8
0
100
AcDbLine
 62
7
  6
CONTINUOUS
 10
-65.475
 20
0.9
 11
-65.425
 21
0.9
  0
LINE
  5
31B
100
AcDbEntity
  8
0
100
AcDbLine
 62
7
  6
CONTINUOUS
 10
30.425
 20
0.9
 11
30.375
 21
0.9
  0
LINE
  5
31C
100
AcDbEntity
  8
0
100
AcDbLine
 62
7
  6
CONTINUOUS
 10
-38.0978540609
 20
188.7631759112
 11
-38.3776539614
 21
190.35
  0
LINE
  5
31D
100
AcDbEntity
  8
0
100
AcDbLine
 62
7
  6
CONTINUOUS
 10
-38.5539809421
 20
191.35
 11
-38.6574538619
 21
191.9368240888
  0
LINE
  5
31E
100
AcDbEntity
  8
0
100
AcDbLine
 62
7
  6
CONTINUOUS
 10
2.375
 20
-190.35
 11
2.375
 21
-188.35
  0
LINE
  5
31F
100
AcDbEntity
  8
0
100
AcDbLine
 62
7
  6
CONTINUOUS
 10
3.875
 20
-188.35
 11
3.875
 21
-189.85
  0
LINE
  5
320
100
AcDbEntity
  8
0
100
AcDbLine
 62
7
  6
CONTINUOUS
 10
4.575
 20
177.445761073
 11
4.575
 21
178.5542373958
  0
LINE
  5
321
100
AcDbEntity
  8
SMUSSO
100
AcDbLine
 62
7
  6
CONTINUOUS
 10
4.725
 20
179.7036725037
 11
4.725
 21
176.2963274963
  0
LINE
  5
322
100
AcDbEntity
  8
SMUSSO
100
AcDbLine
 62
7
  6
CONTINUOUS
 10
10.725
 20
176.2963274963
 11
10.725
 21
179.7036725037
  0
LINE
  5
323
100
AcDbEntity
  8
0
100
AcDbLine
 62
7
  6
CONTINUOUS
 10
10.875
 20
178.5451138556
 11
10.875
 21
177.4548129801
  0
LINE
  5
324
100
AcDbEntity
  8
0
100
AcDbLine
 62
7
  6
CONTINUOUS
 10
7.8537587887
 20
181.9169392586
 11
7.8843445683
 21
182.8473816962
  0
LINE
  5
325
100
AcDbEntity
  8
0
100
AcDbLine
 62
7
  6
CONTINUOUS
 10
-45.4615989657
 20
-191.9794095226
 11
-45.2929491924
 21
-191.35
  0
LWPOLYLINE
  5
326
100
AcDbEntity
  8
0
100
AcDbPolyline
 62
7
  6
CONTINUOUS
 90
4
 70
0
 43
0.3500000006
 10
59.4621680603
 20
3.1071428375
 10
58.8193100739
 20
3.1071428375
 10
58.8193100739
 20
4.6071432953
 10
61.8193109894
 20
3.750000824
  0
LINE
  5
327
100
AcDbEntity
  8
0
100
AcDbLine
 62
250
  6
CONTINUOUS
 10
28.425
 20
190.35
 11
28.425
 21
173.45
  0
LINE
  5
328
100
AcDbEntity
  8
0
100
AcDbLine
 62
250
  6
CONTINUOUS
 10
28.425
 20
-190.35
 11
28.425
 21
-176.65
  0
LINE
  5
329
100
AcDbEntity
  8
0
100
AcDbLine
 62
7
  6
CONTINUOUS
 10
28.925
 20
-170.35
 11
28.925
 21
-176.65
  0
LINE
  5
32A
100
AcDbEntity
  8
0
100
AcDbLine
 62
7
  6
CONTINUOUS
 10
28.925
 20
170.35
 11
28.925
 21
173.45
  0
LINE
  5
32B
100
AcDbEntity
  8
0
100
AcDbLine
 62
7
  6
CONTINUOUS
 10
-14.5574538619
 20
-191.9368240888
 11
-14.4539809421
 21
-191.35
  0
LINE
  5
32C
100
AcDbEntity
  8
0
100
AcDbLine
 62
7
  6
CONTINUOUS
 10
-14.2776539614
 20
-190.35
 11
-13.9978540609
 21
-188.7631759112
  0
LWPOLYLINE
  5
32D
100
AcDbEntity
  8
0
100
AcDbPolyline
 62
7
  6
CONTINUOUS
 90
10
 70
0
 43
0.3500000006
 10
51.319307785
 20
7.0857151566
 10
51.4621656189
 20
7.1571418076
 10
51.5335968018
 20
7.1571418076
 10
51.6764546356
 20
7.0142862396
 10
51.6764546356
 20
6.9428573227
 10
51.6050234528
 20
6.8714284058
 10
51.5335968018
 20
6.8714284058
 10
51.3907389679
 20
6.9428573227
 10
51.319307785
 20
7.0142862396
 10
51.319307785
 20
7.0857151566
  0
LWPOLYLINE
  5
32E
100
AcDbEntity
  8
0
100
AcDbPolyline
 62
7
  6
CONTINUOUS
 90
10
 70
0
 43
0.3500000006
 10
61.3193108368
 20
2.0357136154
 10
61.4621686707
 20
2.1071425323
 10
61.5335953217
 20
2.1071425323
 10
61.6764531555
 20
1.9642846985
 10
61.6764531555
 20
1.8928580475
 10
61.6050219727
 20
1.8214291306
 10
61.5335953217
 20
1.8214291306
 10
61.3907374878
 20
1.8928580475
 10
61.3193108368
 20
1.9642846985
 10
61.3193108368
 20
2.0357136154
  0
LWPOLYLINE
  5
32F
100
AcDbEntity
  8
0
100
AcDbPolyline
 62
7
  6
CONTINUOUS
 90
3
 70
0
 43
0.3500000006
 10
61.5335953217
 20
2.1071425323
 10
61.7478798065
 20
2.0357136154
 10
62.0335954742
 20
1.8928580475
  0
LWPOLYLINE
  5
330
100
AcDbEntity
  8
0
100
AcDbPolyline
 62
7
  6
CONTINUOUS
 90
3
 70
0
 43
0.3500000006
 10
51.5335968018
 20
7.1571418076
 10
51.7478812866
 20
7.0857151566
 10
52.0335969543
 20
6.9428573227
  0
LINE
  5
331
100
AcDbEntity
  8
ASSI
100
AcDbLine
 62
7
  6
CONTINUOUS
 10
-24.6526824108
 20
87.575
 11
-27.525
 21
92.55
  0
LINE
  5
332
100
AcDbEntity
  8
ASSI
100
AcDbLine
 62
7
  6
CONTINUOUS
 10
-27.3950961894
 20
92.925
 11
-24.3928747896
 21
87.725
  0
LINE
  5
333
100
AcDbEntity
  8
0
100
AcDbLine
 62
7
  6
CONTINUOUS
 10
-13.0978540609
 20
188.7631759112
 11
-13.3776539614
 21
190.35
  0
LINE
  5
334
100
AcDbEntity
  8
0
100
AcDbLine
 62
7
  6
CONTINUOUS
 10
-13.5539809421
 20
191.35
 11
-13.6574538619
 21
191.9368240888
  0
LINE
  5
335
100
AcDbEntity
  8
0
100
AcDbLine
 62
7
  6
CONTINUOUS
 10
30.375
 20
170.35
 11
30.375
 21
153.9
  0
LINE
  5
336
100
AcDbEntity
  8
0
100
AcDbLine
 62
7
  6
CONTINUOUS
 10
30.375
 20
152.1
 11
30.375
 21
123.3
  0
LINE
  5
337
100
AcDbEntity
  8
0
100
AcDbLine
 62
7
  6
CONTINUOUS
 10
30.375
 20
121.5
 11
30.375
 21
92.7
  0
LINE
  5
338
100
AcDbEntity
  8
0
100
AcDbLine
 62
250
  6
CONTINUOUS
 10
30.375
 20
-153.9
 11
30.375
 21
-152.1
  0
LINE
  5
339
100
AcDbEntity
  8
0
100
AcDbLine
 62
7
  6
CONTINUOUS
 10
30.375
 20
90.9
 11
30.375
 21
62.1
  0
LINE
  5
33A
100
AcDbEntity
  8
0
100
AcDbLine
 62
7
  6
CONTINUOUS
 10
30.375
 20
-152.1
 11
30.375
 21
-123.3
  0
LINE
  5
33B
100
AcDbEntity
  8
0
100
AcDbLine
 62
250
  6
CONTINUOUS
 10
30.375
 20
-123.3
 11
30.375
 21
-121.5
  0
LINE
  5
33C
100
AcDbEntity
  8
0
100
AcDbLine
 62
7
  6
CONTINUOUS
 10
30.375
 20
60.3
 11
30.375
 21
31.5
  0
LINE
  5
33D
100
AcDbEntity
  8
0
100
AcDbLine
 62
250
  6
CONTINUOUS
 10
30.375
 20
-92.7
 11
30.375
 21
-90.9
  0
LINE
  5
33E
100
AcDbEntity
  8
0
100
AcDbLine
 62
7
  6
CONTINUOUS
 10
30.375
 20
29.7
 11
30.375
 21
0.9
  0
LINE
  5
33F
100
AcDbEntity
  8
0
100
AcDbLine
 62
250
  6
CONTINUOUS
 10
30.375
 20
-62.1
 11
30.375
 21
-60.3
  0
LINE
  5
340
100
AcDbEntity
  8
0
100
AcDbLine
 62
7
  6
CONTINUOUS
 10
30.375
 20
-0.9
 11
30.375
 21
-29.7
  0
LINE
  5
341
100
AcDbEntity
  8
0
100
AcDbLine
 62
250
  6
CONTINUOUS
 10
30.375
 20
-31.5
 11
30.375
 21
-29.7
  0
LINE
  5
342
100
AcDbEntity
  8
0
100
AcDbLine
 62
7
  6
CONTINUOUS
 10
30.375
 20
-31.5
 11
30.375
 21
-60.3
  0
LINE
  5
343
100
AcDbEntity
  8
0
100
AcDbLine
 62
250
  6
CONTINUOUS
 10
30.375
 20
-0.9
 11
30.375
 21
0.9
  0
LINE
  5
344
100
AcDbEntity
  8
0
100
AcDbLine
 62
7
  6
CONTINUOUS
 10
30.375
 20
-62.1
 11
30.375
 21
-90.9
  0
LINE
  5
345
100
AcDbEntity
  8
0
100
AcDbLine
 62
250
  6
CONTINUOUS
 10
30.375
 20
29.7
 11
30.375
 21
31.5
  0
LINE
  5
346
100
AcDbEntity
  8
0
100
AcDbLine
 62
7
  6
CONTINUOUS
 10
30.375
 20
-92.7
 11
30.375
 21
-121.5
  0
LINE
  5
347
100
AcDbEntity
  8
0
100
AcDbLine
 62
250
  6
CONTINUOUS
 10
30.375
 20
60.3
 11
30.375
 21
62.1
  0
LINE
  5
348
100
AcDbEntity
  8
0
100
AcDbLine
 62
250
  6
CONTINUOUS
 10
30.375
 20
90.9
 11
30.375
 21
92.7
  0
LINE
  5
349
100
AcDbEntity
  8
0
100
AcDbLine
 62
7
  6
CONTINUOUS
 10
30.375
 20
-153.9
 11
30.375
 21
-170.35
  0
LINE
  5
34A
100
AcDbEntity
  8
0
100
AcDbLine
 62
250
  6
CONTINUOUS
 10
30.375
 20
121.5
 11
30.375
 21
123.3
  0
LINE
  5
34B
100
AcDbEntity
  8
0
100
AcDbLine
 62
250
  6
CONTINUOUS
 10
30.375
 20
152.1
 11
30.375
 21
153.9
  0
LINE
  5
34C
100
AcDbEntity
  8
0
100
AcDbLine
 62
7
  6
CONTINUOUS
 10
30.425
 20
-190.35
 11
30.425
 21
190.35
  0
LINE
  5
34D
100
AcDbEntity
  8
0
100
AcDbLine
 62
7
  6
CONTINUOUS
 10
31.375
 20
-190.35
 11
31.375
 21
-191.35
  0
LINE
  5
34E
100
AcDbEntity
  8
0
100
AcDbLine
 62
7
  6
CONTINUOUS
 10
31.375
 20
190.35
 11
31.375
 21
191.35
  0
LINE
  5
34F
100
AcDbEntity
  8
0
100
AcDbLine
 62
7
  6
CONTINUOUS
 10
31.425
 20
190.3
 11
31.425
 21
-190.3
  0
LINE
  5
350
100
AcDbEntity
  8
0
100
AcDbLine
 62
7
  6
CONTINUOUS
 10
32.425
 20
-159.35
 11
32.425
 21
-190.3
  0
LINE
  5
351
100
AcDbEntity
  8
0
100
AcDbLine
 62
7
  6
CONTINUOUS
 10
32.425
 20
159.35
 11
32.425
 21
190.3
  0
LINE
  5
352
100
AcDbEntity
  8
0
100
AcDbLine
 62
7
  6
CONTINUOUS
 10
-65.475
 20
29.7
 11
-65.425
 21
29.7
  0
LINE
  5
353
100
AcDbEntity
  8
0
100
AcDbLine
 62
7
  6
CONTINUOUS
 10
30.425
 20
29.7
 11
30.375
 21
29.7
  0
LINE
  5
354
100
AcDbEntity
  8
0
100
AcDbLine
 62
7
  6
CONTINUOUS
 10
-65.475
 20
31.5
 11
-65.425
 21
31.5
  0
LINE
  5
355
100
AcDbEntity
  8
0
100
AcDbLine
 62
7
  6
CONTINUOUS
 10
30.425
 20
31.5
 11
30.375
 21
31.5
  0
LWPOLYLINE
  5
356
100
AcDbEntity
  8
0
100
AcDbPolyline
 62
7
  6
CONTINUOUS
 90
10
 70
0
 43
0.3500000006
 10
48.819311554
 20
5.1571434631
 10
49.4621650085
 20
4.5142854767
 10
50.3193074799
 20
4.085714241
 10
51.3907389679
 20
4.085714241
 10
51.8193079376
 20
4.5142854767
 10
51.8193079376
 20
5.1571434631
 10
51.3907389679
 20
5.5857146988
 10
50.5335964966
 20
5.5857146988
 10
50.105022995
 20
5.1571434631
 10
50.105022995
 20
4.2285720749
  0
LWPOLYLINE
  5
357
100
AcDbEntity
  8
0
100
AcDbPolyline
 62
7
  6
CONTINUOUS
 90
5
 70
0
 43
0.3500000006
 10
50.105022995
 20
0.6571420898
 10
49.8907385101
 20
1.0142866745
 10
49.2478805237
 20
1.0142866745
 10
48.819311554
 20
0.6571420898
 10
48.819311554
 20
-0.2000003815
  0
LWPOLYLINE
  5
358
100
AcDbEntity
  8
0
100
AcDbPolyline
 62
7
  6
CONTINUOUS
 90
6
 70
0
 43
0.3500000006
 10
51.8193079376
 20
-0.2000003815
 10
51.8193079376
 20
0.8714288406
 10
51.6050234528
 20
1.0857133255
 10
50.5335964966
 20
1.0857133255
 10
50.105022995
 20
0.6571420898
 10
50.105022995
 20
0.2285708542
  0
LWPOLYLINE
  5
359
100
AcDbEntity
  8
0
100
AcDbPolyline
 62
7
  6
CONTINUOUS
 90
8
 70
0
 43
0.3500000006
 10
51.8193079376
 20
1.9428580627
 10
51.8193079376
 20
2.8000005341
 10
51.3907389679
 20
3.2285717697
 10
50.5335964966
 20
3.2285717697
 10
50.105022995
 20
2.8000005341
 10
50.105022995
 20
1.9428580627
 10
48.819311554
 20
1.9428580627
 10
48.819311554
 20
3.2285717697
  0
LWPOLYLINE
  5
35A
100
AcDbEntity
  8
0
100
AcDbPolyline
 62
7
  6
CONTINUOUS
 90
8
 70
0
 43
0.3500000006
 10
51.8193079376
 20
8.1571421127
 10
51.8193079376
 20
9.014284584
 10
51.3907389679
 20
9.4428580856
 10
50.5335964966
 20
9.4428580856
 10
50.105022995
 20
9.014284584
 10
50.105022995
 20
8.1571421127
 10
48.819311554
 20
8.1571421127
 10
48.819311554
 20
9.4428580856
  0
LWPOLYLINE
  5
35B
100
AcDbEntity
  8
0
100
AcDbPolyline
 62
7
  6
CONTINUOUS
 90
13
 70
0
 43
0.3500000006
 10
60.1050260468
 20
-2.8928567276
 10
59.89073703
 20
-3.1785712624
 10
59.2478790436
 20
-3.1785712624
 10
58.8193100739
 20
-2.8928567276
 10
58.8193100739
 20
-2.2499998741
 10
59.2478790436
 20
-1.9642853394
 10
59.89073703
 20
-1.9642853394
 10
60.1050260468
 20
-2.2499998741
 10
60.5335950165
 20
-1.8214286385
 10
61.3907374878
 20
-1.8214286385
 10
61.8193109894
 20
-2.2499998741
 10
61.8193109894
 20
-2.8928567276
 10
61.3907374878
 20
-3.3214290962
  0
LWPOLYLINE
  5
35C
100
AcDbEntity
  8
0
100
AcDbPolyline
 62
7
  6
CONTINUOUS
 90
5
 70
0
 43
0.3500000006
 10
60.1050260468
 20
-4.6071428032
 10
59.89073703
 20
-4.2500004845
 10
59.2478790436
 20
-4.2500004845
 10
58.8193100739
 20
-4.6071428032
 10
58.8193100739
 20
-5.4642852745
  0
LINE
  5
35D
100
AcDbEntity
  8
0
100
AcDbLine
 62
7
  6
CONTINUOUS
 10
11.7986730193
 20
191.35
 11
11.6952000995
 21
191.9368240888
  0
LWPOLYLINE
  5
35E
100
AcDbEntity
  8
0
100
AcDbPolyline
 62
7
  6
CONTINUOUS
 90
3
 70
0
 43
0.3500000006
 10
61.1764530029
 20
0.5357131577
 10
61.1764530029
 20
-0.9642850342
 10
58.8193100739
 20
-0.3214293137
  0
LWPOLYLINE
  5
35F
100
AcDbEntity
  8
0
100
AcDbPolyline
 62
7
  6
CONTINUOUS
 90
6
 70
0
 43
0.3500000006
 10
61.8193109894
 20
-5.4642852745
 10
61.8193109894
 20
-4.3928571854
 10
61.6050219727
 20
-4.1785715675
 10
60.5335950165
 20
-4.1785715675
 10
60.1050260468
 20
-4.6071428032
 10
60.1050260468
 20
-5.0357140388
  0
LINE
  5
360
100
AcDbEntity
  8
0
100
AcDbLine
 62
7
  6
CONTINUOUS
 10
18.5384010343
 20
-191.9794095226
 11
18.7070508076
 21
-191.35
  0
LINE
  5
361
100
AcDbEntity
  8
0
100
AcDbLine
 62
7
  6
CONTINUOUS
 10
-65.475
 20
60.3
 11
-65.425
 21
60.3
  0
LINE
  5
362
100
AcDbEntity
  8
0
100
AcDbLine
 62
7
  6
CONTINUOUS
 10
30.425
 20
60.3
 11
30.375
 21
60.3
  0
LINE
  5
363
100
AcDbEntity
  8
0
100
AcDbLine
 62
7
  6
CONTINUOUS
 10
-65.475
 20
62.1
 11
-65.425
 21
62.1
  0
LINE
  5
364
100
AcDbEntity
  8
0
100
AcDbLine
 62
7
  6
CONTINUOUS
 10
30.425
 20
62.1
 11
30.375
 21
62.1
  0
LINE
  5
365
100
AcDbEntity
  8
ASSI
100
AcDbLine
 62
7
  6
CONTINUOUS
 10
-7.2376223327
 20
79.45
 11
-10.075
 21
79.45
  0
LINE
  5
366
100
AcDbEntity
  8
ASSI
100
AcDbLine
 62
7
  6
CONTINUOUS
 10
-10.075
 20
79.75
 11
-7.2376223327
 21
79.75
  0
LINE
  5
367
100
AcDbEntity
  8
ASSI
100
AcDbLine
 62
7
  6
CONTINUOUS
 10
-7.2376223327
 20
84.7
 11
-10.075
 21
84.7
  0
LWPOLYLINE
  5
368
100
AcDbEntity
  8
0
100
AcDbPolyline
 62
7
  6
CONTINUOUS
 90
10
 70
0
 43
0.3500000006
 10
-16.5607138367
 20
205.7000941772
 10
-16.4892860527
 20
205.5572318115
 10
-16.4892860527
 20
205.4858096924
 10
-16.6321427536
 20
205.3429473267
 10
-16.7035716705
 20
205.3429473267
 10
-16.7749994545
 20
205.4143694458
 10
-16.7749994545
 20
205.4858096924
 10
-16.7035716705
 20
205.6286539307
 10
-16.6321427536
 20
205.7000941772
 10
-16.5607138367
 20
205.7000941772
  0
LINE
  5
369
100
AcDbEntity
  8
ASSI
100
AcDbLine
 62
7
  6
CONTINUOUS
 10
-10.075
 20
85.0
 11
-7.2376223327
 21
85.0
  0
LINE
  5
36A
100
AcDbEntity
  8
0
100
AcDbLine
 62
7
  6
CONTINUOUS
 10
-65.475
 20
90.9
 11
-65.425
 21
90.9
  0
LINE
  5
36B
100
AcDbEntity
  8
0
100
AcDbLine
 62
7
  6
CONTINUOUS
 10
30.425
 20
90.9
 11
30.375
 21
90.9
  0
LINE
  5
36C
100
AcDbEntity
  8
0
100
AcDbLine
 62
7
  6
CONTINUOUS
 10
-65.475
 20
92.7
 11
-65.425
 21
92.7
  0
LINE
  5
36D
100
AcDbEntity
  8
0
100
AcDbLine
 62
7
  6
CONTINUOUS
 10
30.425
 20
92.7
 11
30.375
 21
92.7
  0
LINE
  5
36E
100
AcDbEntity
  8
0
100
AcDbLine
 62
7
  6
CONTINUOUS
 10
11.4848800696
 20
179.6532007814
 11
11.4617963341
 21
179.6940596892
  0
LINE
  5
36F
100
AcDbEntity
  8
0
100
AcDbLine
 62
7
  6
CONTINUOUS
 10
11.5065646614
 20
179.6141228198
 11
11.4848800696
 21
179.6532007814
  0
LINE
  5
370
100
AcDbEntity
  8
0
100
AcDbLine
 62
7
  6
CONTINUOUS
 10
11.7624722236
 20
179.1211727453
 11
11.7558807613
 21
179.1331390632
  0
LINE
  5
371
100
AcDbEntity
  8
0
100
AcDbLine
 62
7
  6
CONTINUOUS
 10
11.5269448434
 20
179.5767951223
 11
11.5065646614
 21
179.6141228198
  0
LINE
  5
372
100
AcDbEntity
  8
0
100
AcDbLine
 62
7
  6
CONTINUOUS
 10
11.7558807613
 20
179.1331390632
 11
11.749036848
 21
179.1457919822
  0
LINE
  5
373
100
AcDbEntity
  8
0
100
AcDbLine
 62
7
  6
CONTINUOUS
 10
11.5460829285
 20
179.5411936141
 11
11.5269448434
 21
179.5767951223
  0
LINE
  5
374
100
AcDbEntity
  8
0
100
AcDbLine
 62
7
  6
CONTINUOUS
 10
11.749036848
 20
179.1457919822
 11
11.7419071546
 21
179.1591850518
  0
LINE
  5
375
100
AcDbEntity
  8
0
100
AcDbLine
 62
7
  6
CONTINUOUS
 10
11.5640692249
 20
179.5072791063
 11
11.5460829285
 21
179.5411936141
  0
LINE
  5
376
100
AcDbEntity
  8
0
100
AcDbLine
 62
7
  6
CONTINUOUS
 10
11.7419071546
 20
179.1591850518
 11
11.7344423759
 21
179.17340023
  0
LINE
  5
377
100
AcDbEntity
  8
0
100
AcDbLine
 62
7
  6
CONTINUOUS
 10
11.580984686
 20
179.4750054367
 11
11.5640692249
 21
179.5072791063
  0
LINE
  5
378
100
AcDbEntity
  8
0
100
AcDbLine
 62
7
  6
CONTINUOUS
 10
11.6044760862
 20
179.4295938252
 11
11.580984686
 21
179.4750054367
  0
LINE
  5
379
100
AcDbEntity
  8
0
100
AcDbLine
 62
7
  6
CONTINUOUS
 10
11.7344423759
 20
179.17340023
 11
11.7225207124
 21
179.1964276997
  0
LINE
  5
37A
100
AcDbEntity
  8
0
100
AcDbLine
 62
7
  6
CONTINUOUS
 10
11.7225207124
 20
179.1964276997
 11
11.7050571691
 21
179.2306695181
  0
LINE
  5
37B
100
AcDbEntity
  8
0
100
AcDbLine
 62
7
  6
CONTINUOUS
 10
11.6326325148
 20
179.3743904709
 11
11.6044760862
 21
179.4295938252
  0
LWPOLYLINE
  5
37C
100
AcDbEntity
  8
0
100
AcDbPolyline
 62
7
  6
CONTINUOUS
 90
4
 70
0
 10
11.7050571691
 20
179.2306695181
 10
11.6748814679
 20
179.2905513763
 10
11.6693323344
 20
179.3015938984
 10
11.6326325148
 20
179.3743904709
  0
LINE
  5
37D
100
AcDbEntity
  8
0
100
AcDbLine
 62
7
  6
CONTINUOUS
 10
-25.1107864376
 20
-168.9357864376
 11
-32.2392135624
 21
-176.0642135624
  0
LWPOLYLINE
  5
37E
100
AcDbEntity
  8
0
100
AcDbPolyline
 62
7
  6
CONTINUOUS
 90
65
 70
0
 10
11.4243221096
 20
179.7587555992
 10
11.4110041179
 20
179.7812605869
 10
11.3972486695
 20
179.8042493622
 10
11.3830537367
 20
179.8277212733
 10
11.3683623038
 20
179.8516995386
 10
11.3531760476
 20
179.8761859536
 10
11.3374932912
 20
179.9011787228
 10
11.3212519889
 20
179.9266956785
 10
11.3044539093
 20
179.9527389634
 10
11.2870972837
 20
179.9793064348
 10
11.2691147602
 20
180.0064094971
 10
11.25050817
 20
180.0340506753
 10
11.2312756818
 20
180.0622274445
 10
11.2113444505
 20
180.0909436343
 10
11.1907163271
 20
180.1202021923
 10
11.1693894605
 20
180.1500001709
 10
11.1472854519
 20
180.1803325581
 10
11.1244057814
 20
180.211203174
 10
11.1007489689
 20
180.2426081984
 10
11.0762321759
 20
180.2745311586
 10
11.0508644853
 20
180.3069674152
 10
11.0246368141
 20
180.3399216074
 10
10.9974390749
 20
180.3733911803
 10
10.9692999485
 20
180.4073534949
 10
10.9401907541
 20
180.4418311901
 10
10.9099153613
 20
180.4768896276
 10
10.8784821253
 20
180.5125368986
 10
10.8458826908
 20
180.548764912
 10
10.811895862
 20
180.5856147558
 10
10.7765281236
 20
180.6230993902
 10
10.7397729909
 20
180.6612058549
 10
10.7013898142
 20
180.6999363575
 10
10.6613846621
 20
180.7393067319
 10
10.6197514659
 20
180.7793011442
 10
10.5762313703
 20
180.8198743
 10
10.5308290558
 20
180.8610455655
 10
10.4835398419
 20
180.9027955745
 10
10.4340908318
 20
180.9450209351
 10
10.3824842753
 20
180.9877447989
 10
10.3287179227
 20
181.0309440144
 10
10.2725121275
 20
181.0744457349
 10
10.2138648407
 20
181.118277198
 10
10.1527781115
 20
181.1624111661
 10
10.0889784405
 20
181.2065930809
 10
10.0224648035
 20
181.250850009
 10
9.9532382247
 20
181.2951548838
 10
9.8810282776
 20
181.3391719467
 10
9.8059714058
 20
181.3828716214
 10
9.7279311656
 20
181.4262834843
 10
9.6462277993
 20
181.4691605056
 10
9.5608963577
 20
181.5115724559
 10
9.4719017899
 20
181.5534495645
 10
9.3784591851
 20
181.5943354899
 10
9.28053476
 20
181.6343453416
 10
9.1781622979
 20
181.6733640099
 10
9.0706582375
 20
181.7105898248
 10
8.9579560218
 20
181.7461472853
 10
8.8401222078
 20
181.7799118923
 10
8.7166729057
 20
181.8107084775
 10
8.5875699773
 20
181.8386590195
 10
8.452851561
 20
181.8636415397
 10
8.3121481814
 20
181.8841149341
 10
8.1653366803
 20
181.8995655014
 10
8.0125402161
 20
181.9105069429
 10
7.8537587887
 20
181.9169392586
  0
LWPOLYLINE
  5
37F
100
AcDbEntity
  8
0
100
AcDbPolyline
 62
7
  6
CONTINUOUS
 90
3
 70
0
 10
11.4617963341
 20
179.6940596892
 10
11.4496905734
 20
179.7151698569
 10
11.4243221096
 20
179.7587555992
  0
LINE
  5
380
100
AcDbEntity
  8
0
100
AcDbLine
 62
7
  6
CONTINUOUS
 10
-65.475
 20
121.5
 11
-65.425
 21
121.5
  0
LINE
  5
381
100
AcDbEntity
  8
0
100
AcDbLine
 62
7
  6
CONTINUOUS
 10
30.425
 20
121.5
 11
30.375
 21
121.5
  0
LINE
  5
382
100
AcDbEntity
  8
0
100
AcDbLine
 62
7
  6
CONTINUOUS
 10
-65.475
 20
123.3
 11
-65.425
 21
123.3
  0
LINE
  5
383
100
AcDbEntity
  8
0
100
AcDbLine
 62
7
  6
CONTINUOUS
 10
30.425
 20
123.3
 11
30.375
 21
123.3
  0
LINE
  5
384
100
AcDbEntity
  8
0
100
AcDbLine
 62
7
  6
CONTINUOUS
 10
-4.9392135624
 20
175.8642135624
 11
-3.1107864376
 21
174.0357864376
  0
LWPOLYLINE
  5
385
100
AcDbEntity
  8
0
100
AcDbPolyline
 62
7
  6
CONTINUOUS
 90
112
 70
0
 10
10.8776059575
 20
181.2002761008
 10
10.9226136676
 20
181.1514306786
 10
10.9654736599
 20
181.1033058976
 10
11.0064872687
 20
181.055942539
 10
11.0456622619
 20
181.0093595843
 10
11.0829908717
 20
180.9635380521
 10
11.1187511284
 20
180.9184617793
 10
11.1529517521
 20
180.8741462732
 10
11.1855840226
 20
180.8305760265
 10
11.2168998104
 20
180.7876883547
 10
11.2469085307
 20
180.7454952525
 10
11.2756007683
 20
180.7039847253
 10
11.3032001477
 20
180.6630581038
 10
11.3297340321
 20
180.6226933281
 10
11.3551750583
 20
180.5829124582
 10
11.3796647616
 20
180.5436830054
 10
11.4032254127
 20
180.5049777409
 10
11.425834741
 20
180.4668238936
 10
11.4475674694
 20
180.429270661
 10
11.4684235476
 20
180.3923223761
 10
11.488403026
 20
180.3559747059
 10
11.5075807781
 20
180.3202638499
 10
11.5259575665
 20
180.2851930994
 10
11.5435326286
 20
180.2507591631
 10
11.5603785507
 20
180.2169883665
 10
11.5764963066
 20
180.1838837732
 10
11.5918849224
 20
180.1514423196
 10
11.6066140631
 20
180.1196811404
 10
11.6206834011
 20
180.0886067556
 10
11.634093264
 20
180.0582126452
 10
11.6469142996
 20
180.0284963833
 10
11.6591468324
 20
179.9994641664
 10
11.670790538
 20
179.971109798
 10
11.6819150907
 20
179.9434122632
 10
11.6925232362
 20
179.9163718266
 10
11.7026122288
 20
179.8899882235
 10
11.7122435062
 20
179.8642396448
 10
11.7214188516
 20
179.8391281143
 10
11.7301364817
 20
179.8146516083
 10
11.7384524839
 20
179.7907822453
 10
11.7463683266
 20
179.7675226786
 10
11.7538825414
 20
179.7448702551
 10
11.7610468103
 20
179.7227891333
 10
11.7678629161
 20
179.7012806973
 10
11.774329076
 20
179.6803435631
 10
11.7804916243
 20
179.6599377378
 10
11.7863539465
 20
179.6400577846
 10
11.791912657
 20
179.6207091404
 10
11.7972039337
 20
179.6018681233
 10
11.8022287802
 20
179.5835360675
 10
11.8069861928
 20
179.5657116388
 10
11.8115093385
 20
179.5483671535
 10
11.8157991882
 20
179.5315038985
 10
11.819854771
 20
179.5151205868
 10
11.8237063408
 20
179.499185674
 10
11.8273549034
 20
179.4837000916
 10
11.8307994529
 20
179.4686629081
 10
11.8340672259
 20
179.4540397841
 10
11.8371592223
 20
179.439831386
 10
11.8400744421
 20
179.4260370476
 10
11.8428371219
 20
179.4126204305
 10
11.845448235
 20
179.3995820049
 10
11.8479068081
 20
179.3869213008
 10
11.8502341571
 20
179.3746005699
 10
11.8524312223
 20
179.3626201439
 10
11.8544970634
 20
179.3509796911
 10
11.8564501762
 20
179.3396404687
 10
11.8582914731
 20
179.3286027139
 10
11.8600200416
 20
179.3178661896
 10
11.8616516401
 20
179.307391441
 10
11.8631871713
 20
179.2971786423
 10
11.8646257324
 20
179.2872276193
 10
11.8659803739
 20
179.2774983948
 10
11.8672520212
 20
179.267991097
 10
11.8684397489
 20
179.2587055976
 10
11.8695538315
 20
179.2496015353
 10
11.8705952619
 20
179.2406791
 10
11.8715630473
 20
179.2319381018
 10
11.8724644839
 20
179.2233376087
 10
11.8733004504
 20
179.2148824667
 10
11.874070068
 20
179.2065678298
 10
11.8747779968
 20
179.1983382282
 10
11.8754263087
 20
179.1901910822
 10
11.8760129317
 20
179.1821289716
 10
11.8765363098
 20
179.1741041653
 10
11.876999277
 20
179.1660828519
 10
11.8773989993
 20
179.1580988428
 10
11.8777254194
 20
179.1502058413
 10
11.8779778467
 20
179.1424055558
 10
11.8781569719
 20
179.1346962778
 10
11.8782548096
 20
179.1271265853
 10
11.878271186
 20
179.1197036663
 10
11.878206275
 20
179.1124203327
 10
11.8780526133
 20
179.1053035986
 10
11.877811901
 20
179.0983609998
 10
11.8774824379
 20
179.0915850004
 10
11.8770516601
 20
179.0849800069
 10
11.8765249173
 20
179.0785498854
 10
11.8758968597
 20
179.0722907698
 10
11.8751388743
 20
179.0661954685
 10
11.8742639851
 20
179.0602568122
 10
11.8732591681
 20
179.0544819702
 10
11.8720567374
 20
179.0488852588
 10
11.870693215
 20
179.043428507
 10
11.8691320789
 20
179.0381498858
 10
11.8671960775
 20
179.033178224
 10
11.8648956016
 20
179.0283379261
 10
11.8622202603
 20
179.0238045876
 10
11.8589616298
 20
179.0202338236
 10
11.8548664901
 20
179.0177570097
 10
11.850188061
 20
179.0162427704
 10
11.8454775786
 20
179.0159525937
  0
LINE
  5
386
100
AcDbEntity
  8
0
100
AcDbLine
 62
7
  6
CONTINUOUS
 10
-65.475
 20
152.1
 11
-65.425
 21
152.1
  0
LINE
  5
387
100
AcDbEntity
  8
0
100
AcDbLine
 62
7
  6
CONTINUOUS
 10
30.425
 20
152.1
 11
30.375
 21
152.1
  0
LINE
  5
388
100
AcDbEntity
  8
0
100
AcDbLine
 62
7
  6
CONTINUOUS
 10
-65.475
 20
153.9
 11
-65.425
 21
153.9
  0
LINE
  5
389
100
AcDbEntity
  8
0
100
AcDbLine
 62
7
  6
CONTINUOUS
 10
30.425
 20
153.9
 11
30.375
 21
153.9
  0
LWPOLYLINE
  5
38A
100
AcDbEntity
  8
0
100
AcDbPolyline
 62
7
  6
CONTINUOUS
 90
3
 70
0
 10
10.4967154584
 20
181.5604423106
 10
10.5589940293
 20
181.5074061345
 10
10.6184755056
 20
181.4548214422
  0
LWPOLYLINE
  5
38B
100
AcDbEntity
  8
0
100
AcDbPolyline
 62
7
  6
CONTINUOUS
 90
6
 70
0
 10
10.6184755056
 20
181.4548214422
 10
10.6751681451
 20
181.4026533612
 10
10.7293951863
 20
181.3510954325
 10
10.7811584149
 20
181.30017534
 10
10.8304560451
 20
181.2498653998
 10
10.8776059575
 20
181.2002761008
  0
LINE
  5
38C
100
AcDbEntity
  8
0
100
AcDbLine
 62
7
  6
CONTINUOUS
 10
31.425
 20
159.35
 11
32.425
 21
159.35
  0
LINE
  5
38D
100
AcDbEntity
  8
0
100
AcDbLine
 62
7
  6
CONTINUOUS
 10
-66.475
 20
159.35
 11
-67.475
 21
159.35
  0
LINE
  5
38E
100
AcDbEntity
  8
0
100
AcDbLine
 62
250
  6
CONTINUOUS
 10
31.425
 20
160.35
 11
32.425
 21
160.35
  0
LINE
  5
38F
100
AcDbEntity
  8
0
100
AcDbLine
 62
250
  6
CONTINUOUS
 10
-66.475
 20
160.35
 11
-67.475
 21
160.35
  0
LWPOLYLINE
  5
390
100
AcDbEntity
  8
0
100
AcDbPolyline
 62
7
  6
CONTINUOUS
 90
12
 70
0
 10
6.0525912786
 20
173.45
 10
6.1485949653
 20
173.4133403041
 10
6.4612993874
 20
173.3175262135
 10
6.7797502638
 20
173.2430048417
 10
7.1024994957
 20
173.1901150614
 10
7.4280794382
 20
173.1590973796
 10
7.7550095743
 20
173.1500928436
 10
8.0818032472
 20
173.1631424
 10
8.4069744206
 20
173.1981867082
 10
8.7290444364
 20
173.2550664104
 10
9.0465487382
 20
173.3335228563
 10
9.3580435315
 20
173.4331992791
  0
LINE
  5
391
100
AcDbEntity
  8
0
100
AcDbLine
 62
250
  6
CONTINUOUS
 10
31.425
 20
168.35
 11
32.425
 21
168.35
  0
LINE
  5
392
100
AcDbEntity
  8
0
100
AcDbLine
 62
250
  6
CONTINUOUS
 10
-66.475
 20
168.35
 11
-67.475
 21
168.35
  0
LINE
  5
393
100
AcDbEntity
  8
0
100
AcDbLine
 62
7
  6
CONTINUOUS
 10
31.425
 20
169.35
 11
32.425
 21
169.35
  0
LINE
  5
394
100
AcDbEntity
  8
0
100
AcDbLine
 62
7
  6
CONTINUOUS
 10
-66.475
 20
169.35
 11
-67.475
 21
169.35
  0
LINE
  5
395
100
AcDbEntity
  8
0
100
AcDbLine
 62
7
  6
CONTINUOUS
 10
-65.475
 20
170.35
 11
-63.975
 21
170.35
  0
LINE
  5
396
100
AcDbEntity
  8
0
100
AcDbLine
 62
7
  6
CONTINUOUS
 10
30.425
 20
170.35
 11
28.925
 21
170.35
  0
LINE
  5
397
100
AcDbEntity
  8
0
100
AcDbLine
 62
250
  6
CONTINUOUS
 10
-65.475
 20
170.85
 11
-63.975
 21
170.85
  0
LINE
  5
398
100
AcDbEntity
  8
0
100
AcDbLine
 62
250
  6
CONTINUOUS
 10
30.425
 20
170.85
 11
28.925
 21
170.85
  0
LINE
  5
399
100
AcDbEntity
  8
0
100
AcDbLine
 62
7
  6
CONTINUOUS
 10
-67.475
 20
171.35
 11
-66.475
 21
171.35
  0
LINE
  5
39A
100
AcDbEntity
  8
0
100
AcDbLine
 62
7
  6
CONTINUOUS
 10
32.425
 20
171.35
 11
31.425
 21
171.35
  0
LINE
  5
39B
100
AcDbEntity
  8
0
100
AcDbLine
 62
7
  6
CONTINUOUS
 10
-1.6965728753
 20
173.45
 11
6.0525912786
 21
173.45
  0
LINE
  5
39C
100
AcDbEntity
  8
0
100
AcDbLine
 62
7
  6
CONTINUOUS
 10
9.4004583621
 20
173.45
 11
30.425
 21
173.45
  0
LINE
  5
39D
100
AcDbEntity
  8
0
100
AcDbLine
 62
7
  6
CONTINUOUS
 10
-33.3534271247
 20
173.45
 11
-65.475
 21
173.45
  0
LINE
  5
39E
100
AcDbEntity
  8
0
100
AcDbLine
 62
7
  6
CONTINUOUS
 10
8.2688962299
 20
174.85
 11
7.1678579197
 21
174.85
  0
LINE
  5
39F
100
AcDbEntity
  8
RACCORDO
100
AcDbLine
 62
7
  6
CONTINUOUS
 10
3.1873794782
 20
174.9
 11
4.7958995136
 21
174.9
  0
LINE
  5
3A0
100
AcDbEntity
  8
SMUSSO
100
AcDbLine
 62
7
  6
CONTINUOUS
 10
6.0213274963
 20
175.0
 11
9.4286725037
 21
175.0
  0
LINE
  5
3A1
100
AcDbEntity
  8
0
100
AcDbLine
 62
7
  6
CONTINUOUS
 10
-28.6965728753
 20
176.45
 11
-6.3534271247
 21
176.45
  0
LINE
  5
3A2
100
AcDbEntity
  8
RACCORDO
100
AcDbLine
 62
7
  6
CONTINUOUS
 10
4.369780186
 20
177.65
 11
1.9511364755
 21
177.65
  0
LINE
  5
3A3
100
AcDbEntity
  8
RACCORDO
100
AcDbLine
 62
7
  6
CONTINUOUS
 10
1.9511364755
 20
178.35
 11
4.369780186
 21
178.35
  0
LINE
  5
3A4
100
AcDbEntity
  8
0
100
AcDbLine
 62
7
  6
CONTINUOUS
 10
-19.525
 20
179.3
 11
-15.525
 21
179.3
  0
LINE
  5
3A5
100
AcDbEntity
  8
0
100
AcDbLine
 62
250
  6
CONTINUOUS
 10
-19.525
 20
180.5
 11
-15.525
 21
180.5
  0
LINE
  5
3A6
100
AcDbEntity
  8
0
100
AcDbLine
 62
7
  6
CONTINUOUS
 10
-14.775
 20
180.55
 11
-15.525
 21
180.55
  0
LINE
  5
3A7
100
AcDbEntity
  8
0
100
AcDbLine
 62
7
  6
CONTINUOUS
 10
-19.525
 20
180.55
 11
-20.275
 21
180.55
  0
LINE
  5
3A8
100
AcDbEntity
  8
SMUSSO
100
AcDbLine
 62
7
  6
CONTINUOUS
 10
9.4286725037
 20
181.0
 11
6.0213274963
 21
181.0
  0
LINE
  5
3A9
100
AcDbEntity
  8
0
100
AcDbLine
 62
7
  6
CONTINUOUS
 10
-19.525
 20
181.1
 11
-15.525
 21
181.1
  0
LINE
  5
3AA
100
AcDbEntity
  8
RACCORDO
100
AcDbLine
 62
7
  6
CONTINUOUS
 10
4.7958995136
 20
181.1
 11
3.1873794782
 21
181.1
  0
LINE
  5
3AB
100
AcDbEntity
  8
0
100
AcDbLine
 62
7
  6
CONTINUOUS
 10
7.1676738153
 20
181.15
 11
8.268822509
 21
181.15
  0
LWPOLYLINE
  5
3AC
100
AcDbEntity
  8
0
100
AcDbPolyline
 62
7
  6
CONTINUOUS
 90
3
 70
0
 10
7.6828741704
 20
173.1528647043
 10
7.8148154456
 20
173.1508317016
 10
8.1108664861
 20
173.1663728199
  0
LWPOLYLINE
  5
3AD
100
AcDbEntity
  8
0
100
AcDbPolyline
 62
7
  6
CONTINUOUS
 90
25
 70
0
 10
11.8454775786
 20
179.0159525937
 10
11.8408491166
 20
179.0172069404
 10
11.8361886014
 20
179.0196853497
 10
11.8317050475
 20
179.0226879281
 10
11.8274600688
 20
179.0261164233
 10
11.8233920515
 20
179.0300690874
 10
11.8195251693
 20
179.0341407831
 10
11.8159055362
 20
179.0382084125
 10
11.8124870382
 20
179.0423950736
 10
11.8091555059
 20
179.0466649227
 10
11.805888146
 20
179.0510082028
 10
11.8027077518
 20
179.055434671
 10
11.7995685339
 20
179.0599377547
 10
11.796465377
 20
179.0645117986
 10
11.7934033964
 20
179.0691624581
 10
11.7903521487
 20
179.0739001266
 10
11.78730929
 20
179.078722251
 10
11.7842771643
 20
179.0836313846
 10
11.7812323601
 20
179.0886455801
 10
11.7781736751
 20
179.093763463
 10
11.7751023116
 20
179.0989864078
 10
11.7719984652
 20
179.1043365909
 10
11.7688615008
 20
179.1098131647
 10
11.7656920535
 20
179.1154169767
 10
11.7624722236
 20
179.1211727453
  0
LWPOLYLINE
  5
3AE
100
AcDbEntity
  8
0
100
AcDbPolyline
 62
7
  6
CONTINUOUS
 90
6
 70
0
 10
9.4792579564
 20
182.5216234941
 10
9.1705323042
 20
182.6295719411
 10
8.8552333502
 20
182.716468231
 10
8.5347948607
 20
182.7819172184
 10
8.2106739726
 20
182.8256212856
 10
7.8843445683
 20
182.8473816962
  0
LINE
  5
3AF
100
AcDbEntity
  8
0
100
AcDbLine
 62
7
  6
CONTINUOUS
 10
9.7800064318
 20
182.3931137665
 11
9.4792579564
 21
182.5216234941
  0
LINE
  5
3B0
100
AcDbEntity
  8
0
100
AcDbLine
 62
7
  6
CONTINUOUS
 10
-19.525
 20
185.5
 11
-15.525
 21
185.5
  0
LINE
  5
3B1
100
AcDbEntity
  8
0
100
AcDbLine
 62
7
  6
CONTINUOUS
 10
-20.275
 20
186.05
 11
-19.525
 21
186.05
  0
LINE
  5
3B2
100
AcDbEntity
  8
0
100
AcDbLine
 62
7
  6
CONTINUOUS
 10
-15.525
 20
186.05
 11
-14.775
 21
186.05
  0
LINE
  5
3B3
100
AcDbEntity
  8
0
100
AcDbLine
 62
250
  6
CONTINUOUS
 10
-19.525
 20
186.1
 11
-15.525
 21
186.1
  0
LINE
  5
3B4
100
AcDbEntity
  8
0
100
AcDbLine
 62
7
  6
CONTINUOUS
 10
-19.525
 20
187.3
 11
-15.525
 21
187.3
  0
LINE
  5
3B5
100
AcDbEntity
  8
0
100
AcDbLine
 62
7
  6
CONTINUOUS
 10
-37.6054501844
 20
188.35
 11
-36.525
 21
188.35
  0
LINE
  5
3B6
100
AcDbEntity
  8
0
100
AcDbLine
 62
250
  6
CONTINUOUS
 10
-36.525
 20
188.35
 11
-23.525
 21
188.35
  0
LINE
  5
3B7
100
AcDbEntity
  8
0
100
AcDbLine
 62
7
  6
CONTINUOUS
 10
-12.6054501844
 20
188.35
 11
-11.525
 21
188.35
  0
LINE
  5
3B8
100
AcDbEntity
  8
0
100
AcDbLine
 62
7
  6
CONTINUOUS
 10
2.5554501844
 20
188.35
 11
1.475
 21
188.35
  0
LINE
  5
3B9
100
AcDbEntity
  8
0
100
AcDbLine
 62
250
  6
CONTINUOUS
 10
1.475
 20
188.35
 11
-11.525
 21
188.35
  0
LINE
  5
3BA
100
AcDbEntity
  8
0
100
AcDbLine
 62
7
  6
CONTINUOUS
 10
-22.4445498156
 20
188.35
 11
-23.525
 21
188.35
  0
LINE
  5
3BB
100
AcDbEntity
  8
0
100
AcDbLine
 62
7
  6
CONTINUOUS
 10
-67.475
 20
188.85
 11
-66.475
 21
188.85
  0
LINE
  5
3BC
100
AcDbEntity
  8
0
100
AcDbLine
 62
7
  6
CONTINUOUS
 10
32.425
 20
188.85
 11
31.425
 21
188.85
  0
LINE
  5
3BD
100
AcDbEntity
  8
0
100
AcDbLine
 62
7
  6
CONTINUOUS
 10
-67.475
 20
190.3
 11
-65.475
 21
190.3
  0
LINE
  5
3BE
100
AcDbEntity
  8
0
100
AcDbLine
 62
7
  6
CONTINUOUS
 10
-38.3688376124
 20
190.3
 11
-36.525
 21
190.3
  0
LINE
  5
3BF
100
AcDbEntity
  8
0
100
AcDbLine
 62
7
  6
CONTINUOUS
 10
32.425
 20
190.3
 11
30.425
 21
190.3
  0
LINE
  5
3C0
100
AcDbEntity
  8
0
100
AcDbLine
 62
7
  6
CONTINUOUS
 10
-23.525
 20
190.3
 11
-21.6811623876
 21
190.3
  0
LINE
  5
3C1
100
AcDbEntity
  8
0
100
AcDbLine
 62
7
  6
CONTINUOUS
 10
-13.3688376124
 20
190.3
 11
-11.525
 21
190.3
  0
LINE
  5
3C2
100
AcDbEntity
  8
0
100
AcDbLine
 62
7
  6
CONTINUOUS
 10
1.475
 20
190.3
 11
3.3188376124
 21
190.3
  0
LINE
  5
3C3
100
AcDbEntity
  8
0
100
AcDbLine
 62
7
  6
CONTINUOUS
 10
-66.425
 20
190.35
 11
31.375
 21
190.35
  0
LINE
  5
3C4
100
AcDbEntity
  8
0
100
AcDbLine
 62
7
  6
CONTINUOUS
 10
31.375
 20
191.35
 11
-66.425
 21
191.35
  0
LINE
  5
3C5
100
AcDbEntity
  8
0
100
AcDbLine
 62
7
  6
CONTINUOUS
 10
-46.252796223
 20
192.35
 11
-39.1498577384
 21
192.35
  0
LINE
  5
3C6
100
AcDbEntity
  8
0
100
AcDbLine
 62
7
  6
CONTINUOUS
 10
4.0998577384
 20
192.35
 11
11.202796223
 21
192.35
  0
LINE
  5
3C7
100
AcDbEntity
  8
0
100
AcDbLine
 62
7
  6
CONTINUOUS
 10
-14.1498577384
 20
192.35
 11
-20.9001422616
 21
192.35
  0
LWPOLYLINE
  5
3C8
100
AcDbEntity
  8
0
100
AcDbPolyline
 62
7
  6
CONTINUOUS
 90
24
 70
0
 10
7.8755048878
 20
182.5784719615
 10
8.0554207992
 20
182.5648903369
 10
8.228230801
 20
182.5463412549
 10
8.3939348931
 20
182.5228247155
 10
8.5523038855
 20
182.4937806934
 10
8.7035669683
 20
182.4597692139
 10
8.8484117116
 20
182.422470353
 10
8.9869049281
 20
182.3819999125
 10
9.1189798052
 20
182.3382420907
 10
9.2451234753
 20
182.2925295585
 10
9.3652746855
 20
182.2449853986
 10
9.4794946887
 20
182.1954865283
 10
9.5884543766
 20
182.1449963704
 10
9.6921137027
 20
182.0936350514
 10
9.7905127133
 20
182.0412824449
 10
9.8844424399
 20
181.9885415941
 10
9.9738796911
 20
181.9355277026
 10
10.0588476582
 20
181.8821255667
 10
10.1402069463
 20
181.828592619
 10
10.2180706312
 20
181.7749315823
 10
10.2923256372
 20
181.7211397339
 10
10.3634933422
 20
181.6674663384
 10
10.4316480508
 20
181.613895098
 10
10.4967154584
 20
181.5604423106
  0
LWPOLYLINE
  5
3C9
100
AcDbEntity
  8
0
100
AcDbPolyline
 62
7
  6
CONTINUOUS
 90
12
 70
0
 10
-136.5735822706
 20
-186.3499991171
 10
-136.5171434095
 20
-186.3475562488
 10
-136.4431916438
 20
-186.3369191638
 10
-136.3685836094
 20
-186.3175093745
 10
-136.2954483866
 20
-186.289522705
 10
-136.2279103048
 20
-186.2549540023
 10
-136.1668033565
 20
-186.2153602863
 10
-136.1112853419
 20
-186.1712524278
 10
-136.0619580411
 20
-186.1241915944
 10
-136.0184438369
 20
-186.0752813515
 10
-135.9796810091
 20
-186.0248948857
 10
-135.9697584186
 20
-186.0108419692
  0
LINE
  5
3CA
100
AcDbEntity
  8
0
100
AcDbLine
 62
7
  6
CONTINUOUS
 10
-159.2738763074
 20
-192.35
 11
-160.7738763074
 21
-192.35
  0
LINE
  5
3CB
100
AcDbEntity
  8
0
100
AcDbLine
 62
250
  6
CONTINUOUS
 10
-159.2738763074
 20
-191.9794095226
 11
-160.7738763074
 21
-191.9794095226
  0
LINE
  5
3CC
100
AcDbEntity
  8
0
100
AcDbLine
 62
7
  6
CONTINUOUS
 10
-106.5738763074
 20
-191.35
 11
-166.1238763074
 21
-191.35
  0
LINE
  5
3CD
100
AcDbEntity
  8
0
100
AcDbLine
 62
7
  6
CONTINUOUS
 10
-166.1238763074
 20
-190.35
 11
-146.6238763074
 21
-190.35
  0
LINE
  5
3CE
100
AcDbEntity
  8
0
100
AcDbLine
 62
7
  6
CONTINUOUS
 10
-106.5738763074
 20
-190.35
 11
-110.0238763074
 21
-190.35
  0
LINE
  5
3CF
100
AcDbEntity
  8
0
100
AcDbLine
 62
7
  6
CONTINUOUS
 10
-111.8238763074
 20
-190.35
 11
-127.4238763074
 21
-190.35
  0
LINE
  5
3D0
100
AcDbEntity
  8
0
100
AcDbLine
 62
7
  6
CONTINUOUS
 10
-129.2238763074
 20
-190.35
 11
-144.8238763074
 21
-190.35
  0
LINE
  5
3D1
100
AcDbEntity
  8
0
100
AcDbLine
 62
7
  6
CONTINUOUS
 10
-166.1238763074
 20
-190.3
 11
-146.6238763074
 21
-190.3
  0
LINE
  5
3D2
100
AcDbEntity
  8
0
100
AcDbLine
 62
250
  6
CONTINUOUS
 10
-146.6238763074
 20
-190.3
 11
-144.8238763074
 21
-190.3
  0
LINE
  5
3D3
100
AcDbEntity
  8
0
100
AcDbLine
 62
7
  6
CONTINUOUS
 10
-144.8238763074
 20
-190.3
 11
-129.2238763074
 21
-190.3
  0
LINE
  5
3D4
100
AcDbEntity
  8
0
100
AcDbLine
 62
250
  6
CONTINUOUS
 10
-129.2238763074
 20
-190.3
 11
-127.4238763074
 21
-190.3
  0
LINE
  5
3D5
100
AcDbEntity
  8
0
100
AcDbLine
 62
250
  6
CONTINUOUS
 10
-111.8238763074
 20
-190.3
 11
-110.0238763074
 21
-190.3
  0
LINE
  5
3D6
100
AcDbEntity
  8
0
100
AcDbLine
 62
250
  6
CONTINUOUS
 10
-105.5238763074
 20
-190.3
 11
-106.5238763074
 21
-190.3
  0
LINE
  5
3D7
100
AcDbEntity
  8
0
100
AcDbLine
 62
7
  6
CONTINUOUS
 10
-106.5738763074
 20
-190.3
 11
-110.0238763074
 21
-190.3
  0
LINE
  5
3D8
100
AcDbEntity
  8
0
100
AcDbLine
 62
7
  6
CONTINUOUS
 10
-111.8238763074
 20
-190.3
 11
-127.4238763074
 21
-190.3
  0
LINE
  5
3D9
100
AcDbEntity
  8
0
100
AcDbLine
 62
7
  6
CONTINUOUS
 10
-106.5738763074
 20
-184.5
 11
-105.5238763074
 21
-184.5
  0
LINE
  5
3DA
100
AcDbEntity
  8
0
100
AcDbLine
 62
7
  6
CONTINUOUS
 10
-106.5738763074
 20
-182.7
 11
-105.5238763074
 21
-182.7
  0
LINE
  5
3DB
100
AcDbEntity
  8
0
100
AcDbLine
 62
7
  6
CONTINUOUS
 10
-133.1238763074
 20
-171.35
 11
-142.7543972078
 21
-171.35
  0
LINE
  5
3DC
100
AcDbEntity
  8
0
100
AcDbLine
 62
7
  6
CONTINUOUS
 10
-161.1238763074
 20
-169.35
 11
-133.1238763074
 21
-169.35
  0
LINE
  5
3DD
100
AcDbEntity
  8
0
100
AcDbLine
 62
7
  6
CONTINUOUS
 10
-162.1238763074
 20
-167.85
 11
-162.3238763074
 21
-167.85
  0
LINE
  5
3DE
100
AcDbEntity
  8
0
100
AcDbLine
 62
7
  6
CONTINUOUS
 10
-133.9238763074
 20
-166.85
 11
-134.3238763074
 21
-166.85
  0
LINE
  5
3DF
100
AcDbEntity
  8
0
100
AcDbLine
 62
7
  6
CONTINUOUS
 10
-134.3238763074
 20
-161.85
 11
-133.9238763074
 21
-161.85
  0
LINE
  5
3E0
100
AcDbEntity
  8
0
100
AcDbLine
 62
7
  6
CONTINUOUS
 10
-162.3238763074
 20
-160.85
 11
-162.1238763074
 21
-160.85
  0
LINE
  5
3E1
100
AcDbEntity
  8
0
100
AcDbLine
 62
7
  6
CONTINUOUS
 10
-110.3235135403
 20
-159.35
 11
-161.1238763074
 21
-159.35
  0
LWPOLYLINE
  5
3E2
100
AcDbEntity
  8
0
100
AcDbPolyline
 62
7
  6
CONTINUOUS
 90
10
 70
0
 43
0.3500000006
 10
-139.1453066711
 20
218.2000889282
 10
-139.7881601257
 20
217.5572354736
 10
-140.2167290955
 20
216.7000975342
 10
-140.2167290955
 20
215.6286569824
 10
-139.7881601257
 20
215.2000880127
 10
-139.1453066711
 20
215.2000880127
 10
-138.7167377014
 20
215.6286569824
 10
-138.7167377014
 20
216.4858130493
 10
-139.1453066711
 20
216.914382019
 10
-140.0738757935
 20
216.914382019
  0
LWPOLYLINE
  5
3E3
100
AcDbEntity
  8
0
100
AcDbPolyline
 62
7
  6
CONTINUOUS
 90
10
 70
0
 43
0.3500000006
 10
-132.7167358704
 20
218.2000889282
 10
-133.359589325
 20
217.5572354736
 10
-133.7881582947
 20
216.7000975342
 10
-133.7881582947
 20
215.6286569824
 10
-133.359589325
 20
215.2000880127
 10
-132.7167358704
 20
215.2000880127
 10
-132.2881578369
 20
215.6286569824
 10
-132.2881578369
 20
216.4858130493
 10
-132.7167358704
 20
216.914382019
 10
-133.6453049927
 20
216.914382019
  0
LINE
  5
3E4
100
AcDbEntity
  8
0
100
AcDbLine
 62
7
  6
CONTINUOUS
 10
-106.5738763074
 20
-153.9
 11
-105.5238763074
 21
-153.9
  0
LINE
  5
3E5
100
AcDbEntity
  8
0
100
AcDbLine
 62
7
  6
CONTINUOUS
 10
-106.5738763074
 20
-152.1
 11
-105.5238763074
 21
-152.1
  0
LWPOLYLINE
  5
3E6
100
AcDbEntity
  8
0
100
AcDbPolyline
 62
7
  6
CONTINUOUS
 90
7
 70
0
 10
-137.0217840186
 20
-186.18267795
 10
-136.9602131061
 20
-186.22889499
 10
-136.8900571609
 20
-186.2706285736
 10
-136.8122956095
 20
-186.3054879321
 10
-136.7319003196
 20
-186.3305180933
 10
-136.6515303635
 20
-186.3452450151
 10
-136.572690359
 20
-186.3499979864
  0
LINE
  5
3E7
100
AcDbEntity
  8
0
100
AcDbLine
 62
7
  6
CONTINUOUS
 10
-137.0764547045
 20
-186.132433711
 11
-137.0217840186
 21
-186.18267795
  0
LINE
  5
3E8
100
AcDbEntity
  8
0
100
AcDbLine
 62
7
  6
CONTINUOUS
 10
-106.5738763074
 20
-123.3
 11
-105.5238763074
 21
-123.3
  0
LINE
  5
3E9
100
AcDbEntity
  8
0
100
AcDbLine
 62
7
  6
CONTINUOUS
 10
-106.5738763074
 20
-121.5
 11
-105.5238763074
 21
-121.5
  0
LINE
  5
3EA
100
AcDbEntity
  8
0
100
AcDbLine
 62
7
  6
CONTINUOUS
 10
-137.0926390932
 20
-186.1146053667
 11
-137.0764547045
 21
-186.132433711
  0
LINE
  5
3EB
100
AcDbEntity
  8
ASSI
100
AcDbLine
 62
7
  6
CONTINUOUS
 10
-112.8932587453
 20
-115.7
 11
-113.3940576773
 21
-115.7
  0
LINE
  5
3EC
100
AcDbEntity
  8
ASSI
100
AcDbLine
 62
7
  6
CONTINUOUS
 10
-137.6536949376
 20
-115.7
 11
-138.1544938695
 21
-115.7
  0
LINE
  5
3ED
100
AcDbEntity
  8
ASSI
100
AcDbLine
 62
7
  6
CONTINUOUS
 10
-138.1544938695
 20
-114.3
 11
-137.6536949376
 21
-114.3
  0
LINE
  5
3EE
100
AcDbEntity
  8
ASSI
100
AcDbLine
 62
7
  6
CONTINUOUS
 10
-113.3940576773
 20
-114.3
 11
-112.8932587453
 21
-114.3
  0
LINE
  5
3EF
100
AcDbEntity
  8
0
100
AcDbLine
 62
7
  6
CONTINUOUS
 10
-106.5738763074
 20
-92.7
 11
-105.5238763074
 21
-92.7
  0
LINE
  5
3F0
100
AcDbEntity
  8
0
100
AcDbLine
 62
7
  6
CONTINUOUS
 10
-106.5738763074
 20
-90.9
 11
-105.5238763074
 21
-90.9
  0
LWPOLYLINE
  5
3F1
100
AcDbEntity
  8
0
100
AcDbPolyline
 62
7
  6
CONTINUOUS
 90
13
 70
0
 10
-136.204262322
 20
-185.3225188106
 10
-136.2045662492
 20
-185.3219661438
 10
-136.2083707459
 20
-185.314804332
 10
-136.2155559855
 20
-185.2998526371
 10
-136.2249409294
 20
-185.2783913316
 10
-136.2361771551
 20
-185.2503922088
 10
-136.2491040818
 20
-185.2154976941
 10
-136.2631447453
 20
-185.174672034
 10
-136.2781379546
 20
-185.1279741776
 10
-136.294031983
 20
-185.0751892615
 10
-136.3105589294
 20
-185.0169082797
 10
-136.3276459881
 20
-184.9531797294
 10
-136.3402443883
 20
-184.9036574498
  0
LWPOLYLINE
  5
3F2
100
AcDbEntity
  8
0
100
AcDbPolyline
 62
7
  6
CONTINUOUS
 90
3
 70
0
 43
0.3500000006
 10
-134.7881585999
 20
215.4858127441
 10
-134.8595897827
 20
215.2715282593
 10
-135.0024521484
 20
214.9858035278
  0
LINE
  5
3F3
100
AcDbEntity
  8
0
100
AcDbLine
 62
7
  6
CONTINUOUS
 10
-106.5738763074
 20
-62.1
 11
-105.5238763074
 21
-62.1
  0
LINE
  5
3F4
100
AcDbEntity
  8
0
100
AcDbLine
 62
7
  6
CONTINUOUS
 10
-106.5738763074
 20
-60.3
 11
-105.5238763074
 21
-60.3
  0
LWPOLYLINE
  5
3F5
100
AcDbEntity
  8
0
100
AcDbPolyline
 62
7
  6
CONTINUOUS
 90
7
 70
0
 43
0.3500000006
 10
-178.6090457153
 20
-1.9285708809
 10
-178.6090457153
 20
-3.4285713387
 10
-180.7519086914
 20
-1.9285708809
 10
-181.1804776611
 20
-1.9285708809
 10
-181.6090466309
 20
-2.3571432495
 10
-181.6090466309
 20
-3.000000103
 10
-180.9661931763
 20
-3.4285713387
  0
LWPOLYLINE
  5
3F6
100
AcDbEntity
  8
0
100
AcDbPolyline
 62
7
  6
CONTINUOUS
 90
6
 70
0
 43
0.3500000006
 10
-178.6090457153
 20
-1.0714295425
 10
-178.6090457153
 20
-0.0000003204
 10
-178.8233302002
 20
0.2142864304
 10
-179.894770752
 20
0.2142864304
 10
-180.3233397217
 20
-0.2142848053
 10
-180.3233397217
 20
-0.642856041
  0
LWPOLYLINE
  5
3F7
100
AcDbEntity
  8
0
100
AcDbPolyline
 62
7
  6
CONTINUOUS
 90
5
 70
0
 43
0.3500000006
 10
-180.3233397217
 20
-0.2142848053
 10
-180.5376242065
 20
0.1428575134
 10
-181.1804776611
 20
0.1428575134
 10
-181.6090466309
 20
-0.2142848053
 10
-181.6090466309
 20
-1.0714295425
  0
LWPOLYLINE
  5
3F8
100
AcDbEntity
  8
0
100
AcDbPolyline
 62
7
  6
CONTINUOUS
 90
16
 70
0
 10
-126.3738152391
 20
-185.5243463606
 10
-126.3732760956
 20
-185.5261417634
 10
-126.37262201
 20
-185.5284484077
 10
-126.3729469158
 20
-185.5271850689
 10
-126.3738705283
 20
-185.5233175401
 10
-126.3752938058
 20
-185.5169258892
 10
-126.3771939925
 20
-185.5077969424
 10
-126.37939726
 20
-185.4965146447
 10
-126.3818597268
 20
-185.4831350618
 10
-126.3845729751
 20
-185.4675451157
 10
-126.3874501795
 20
-185.4501188206
 10
-126.3904648466
 20
-185.4309366326
 10
-126.393619269
 20
-185.4099093426
 10
-126.3968842189
 20
-185.3871654045
 10
-126.4002512888
 20
-185.3627111007
 10
-126.4006883404
 20
-185.3594085407
  0
LINE
  5
3F9
100
AcDbEntity
  8
0
100
AcDbLine
 62
7
  6
CONTINUOUS
 10
-166.1238763074
 20
190.3
 11
-166.1238763074
 21
-190.3
  0
LINE
  5
3FA
100
AcDbEntity
  8
0
100
AcDbLine
 62
7
  6
CONTINUOUS
 10
-166.1238763074
 20
-190.35
 11
-166.1238763074
 21
-191.35
  0
LINE
  5
3FB
100
AcDbEntity
  8
0
100
AcDbLine
 62
7
  6
CONTINUOUS
 10
-166.1238763074
 20
190.35
 11
-166.1238763074
 21
191.35
  0
LINE
  5
3FC
100
AcDbEntity
  8
0
100
AcDbLine
 62
7
  6
CONTINUOUS
 10
-163.3238763074
 20
-166.85
 11
-163.3238763074
 21
-161.85
  0
LINE
  5
3FD
100
AcDbEntity
  8
0
100
AcDbLine
 62
7
  6
CONTINUOUS
 10
-163.3238763074
 20
161.85
 11
-163.3238763074
 21
166.85
  0
LINE
  5
3FE
100
AcDbEntity
  8
0
100
AcDbLine
 62
7
  6
CONTINUOUS
 10
-162.1238763074
 20
-160.35
 11
-162.1238763074
 21
-168.35
  0
LINE
  5
3FF
100
AcDbEntity
  8
0
100
AcDbLine
 62
7
  6
CONTINUOUS
 10
-162.1238763074
 20
160.35
 11
-162.1238763074
 21
168.35
  0
LINE
  5
400
100
AcDbEntity
  8
0
100
AcDbLine
 62
7
  6
CONTINUOUS
 10
-160.7738763074
 20
190.35
 11
-160.7738763074
 21
190.3
  0
LINE
  5
401
100
AcDbEntity
  8
0
100
AcDbLine
 62
7
  6
CONTINUOUS
 10
-160.7738763074
 20
-192.35
 11
-160.7738763074
 21
-191.35
  0
LINE
  5
402
100
AcDbEntity
  8
0
100
AcDbLine
 62
7
  6
CONTINUOUS
 10
-160.7738763074
 20
-190.35
 11
-160.7738763074
 21
-190.3
  0
LINE
  5
403
100
AcDbEntity
  8
0
100
AcDbLine
 62
7
  6
CONTINUOUS
 10
-160.7738763074
 20
191.35
 11
-160.7738763074
 21
192.35
  0
LINE
  5
404
100
AcDbEntity
  8
0
100
AcDbLine
 62
7
  6
CONTINUOUS
 10
-106.5738763074
 20
-31.5
 11
-105.5238763074
 21
-31.5
  0
LINE
  5
405
100
AcDbEntity
  8
0
100
AcDbLine
 62
7
  6
CONTINUOUS
 10
-106.5738763074
 20
-29.7
 11
-105.5238763074
 21
-29.7
  0
LINE
  5
406
100
AcDbEntity
  8
0
100
AcDbLine
 62
7
  6
CONTINUOUS
 10
-159.2738763074
 20
192.35
 11
-159.2738763074
 21
191.35
  0
LINE
  5
407
100
AcDbEntity
  8
0
100
AcDbLine
 62
7
  6
CONTINUOUS
 10
-159.2738763074
 20
-191.35
 11
-159.2738763074
 21
-192.35
  0
LINE
  5
408
100
AcDbEntity
  8
0
100
AcDbLine
 62
250
  6
CONTINUOUS
 10
-158.7738763074
 20
190.35
 11
-158.7738763074
 21
190.3
  0
LINE
  5
409
100
AcDbEntity
  8
0
100
AcDbLine
 62
250
  6
CONTINUOUS
 10
-158.7738763074
 20
-190.35
 11
-158.7738763074
 21
-190.3
  0
LINE
  5
40A
100
AcDbEntity
  8
0
100
AcDbLine
 62
250
  6
CONTINUOUS
 10
-149.1238763074
 20
191.35
 11
-149.1238763074
 21
190.35
  0
LINE
  5
40B
100
AcDbEntity
  8
0
100
AcDbLine
 62
250
  6
CONTINUOUS
 10
-149.1238763074
 20
-191.35
 11
-149.1238763074
 21
-190.35
  0
LINE
  5
40C
100
AcDbEntity
  8
0
100
AcDbLine
 62
7
  6
CONTINUOUS
 10
-149.1238763074
 20
-188.85
 11
-149.1238763074
 21
-190.3
  0
LINE
  5
40D
100
AcDbEntity
  8
0
100
AcDbLine
 62
7
  6
CONTINUOUS
 10
-149.1238763074
 20
188.85
 11
-149.1238763074
 21
190.3
  0
LINE
  5
40E
100
AcDbEntity
  8
0
100
AcDbLine
 62
7
  6
CONTINUOUS
 10
-146.6238763074
 20
-190.3
 11
-146.6238763074
 21
-191.35
  0
LINE
  5
40F
100
AcDbEntity
  8
0
100
AcDbLine
 62
7
  6
CONTINUOUS
 10
-146.3238763074
 20
190.3
 11
-146.3238763074
 21
191.35
  0
LINE
  5
410
100
AcDbEntity
  8
0
100
AcDbLine
 62
7
  6
CONTINUOUS
 10
-144.8238763074
 20
-190.3
 11
-144.8238763074
 21
-191.35
  0
LINE
  5
411
100
AcDbEntity
  8
0
100
AcDbLine
 62
7
  6
CONTINUOUS
 10
-144.5238763074
 20
190.3
 11
-144.5238763074
 21
191.35
  0
LWPOLYLINE
  5
412
100
AcDbEntity
  8
0
100
AcDbPolyline
 62
7
  6
CONTINUOUS
 90
13
 70
0
 43
0.3500000006
 10
-137.8595906982
 20
216.0572259521
 10
-137.8595906982
 20
217.3429509888
 10
-137.6453062134
 20
217.7715199585
 10
-137.2167372437
 20
218.2000889282
 10
-137.0024436951
 20
218.2000889282
 10
-136.5738747253
 20
217.7715199585
 10
-136.3595902405
 20
217.3429509888
 10
-136.3595902405
 20
216.0572259521
 10
-136.5738747253
 20
215.6286569824
 10
-137.0024436951
 20
215.2000880127
 10
-137.2167372437
 20
215.2000880127
 10
-137.6453062134
 20
215.6286569824
 10
-137.8595906982
 20
216.0572259521
  0
LINE
  5
413
100
AcDbEntity
  8
0
100
AcDbLine
 62
7
  6
CONTINUOUS
 10
-135.1238763074
 20
-166.05
 11
-135.1238763074
 21
-162.65
  0
LINE
  5
414
100
AcDbEntity
  8
0
100
AcDbLine
 62
7
  6
CONTINUOUS
 10
-135.1238763074
 20
162.65
 11
-135.1238763074
 21
166.05
  0
LINE
  5
415
100
AcDbEntity
  8
0
100
AcDbLine
 62
7
  6
CONTINUOUS
 10
-106.5738763074
 20
-0.9
 11
-105.5238763074
 21
-0.9
  0
LINE
  5
416
100
AcDbEntity
  8
0
100
AcDbLine
 62
7
  6
CONTINUOUS
 10
-106.5738763074
 20
0.9
 11
-105.5238763074
 21
0.9
  0
LWPOLYLINE
  5
417
100
AcDbEntity
  8
0
100
AcDbPolyline
 62
7
  6
CONTINUOUS
 90
13
 70
0
 43
0.3500000006
 10
-179.4662017822
 20
1.0714289017
 10
-180.7519086914
 20
1.0714289017
 10
-181.1804776611
 20
1.2857133865
 10
-181.6090466309
 20
1.7142846222
 10
-181.6090466309
 20
1.928571373
 10
-181.1804776611
 20
2.3571426086
 10
-180.7519086914
 20
2.5714293594
 10
-179.4662017822
 20
2.5714293594
 10
-179.0376146851
 20
2.3571426086
 10
-178.6090457153
 20
1.928571373
 10
-178.6090457153
 20
1.7142846222
 10
-179.0376146851
 20
1.2857133865
 10
-179.4662017822
 20
1.0714289017
  0
LINE
  5
418
100
AcDbEntity
  8
0
100
AcDbLine
 62
7
  6
CONTINUOUS
 10
-107.6157394041
 20
-190.3
 11
-110.3235135403
 21
-159.35
  0
LINE
  5
419
100
AcDbEntity
  8
0
100
AcDbLine
 62
7
  6
CONTINUOUS
 10
-133.1238763074
 20
171.35
 11
-133.1238763074
 21
169.35
  0
LINE
  5
41A
100
AcDbEntity
  8
0
100
AcDbLine
 62
7
  6
CONTINUOUS
 10
-133.1238763074
 20
166.05
 11
-133.1238763074
 21
162.65
  0
LINE
  5
41B
100
AcDbEntity
  8
0
100
AcDbLine
 62
7
  6
CONTINUOUS
 10
-133.1238763074
 20
-162.65
 11
-133.1238763074
 21
-166.05
  0
LINE
  5
41C
100
AcDbEntity
  8
0
100
AcDbLine
 62
7
  6
CONTINUOUS
 10
-133.1238763074
 20
-169.35
 11
-133.1238763074
 21
-171.35
  0
LINE
  5
41D
100
AcDbEntity
  8
0
100
AcDbLine
 62
7
  6
CONTINUOUS
 10
-129.2238763074
 20
-190.3
 11
-129.2238763074
 21
-191.35
  0
LINE
  5
41E
100
AcDbEntity
  8
0
100
AcDbLine
 62
7
  6
CONTINUOUS
 10
-129.2238763074
 20
190.3
 11
-129.2238763074
 21
191.35
  0
LINE
  5
41F
100
AcDbEntity
  8
0
100
AcDbLine
 62
7
  6
CONTINUOUS
 10
-127.4238763074
 20
-190.3
 11
-127.4238763074
 21
-191.35
  0
LINE
  5
420
100
AcDbEntity
  8
0
100
AcDbLine
 62
7
  6
CONTINUOUS
 10
-127.4238763074
 20
190.3
 11
-127.4238763074
 21
191.35
  0
LINE
  5
421
100
AcDbEntity
  8
0
100
AcDbLine
 62
7
  6
CONTINUOUS
 10
-107.6157394041
 20
190.3
 11
-110.3235135403
 21
159.35
  0
LWPOLYLINE
  5
422
100
AcDbEntity
  8
0
100
AcDbPolyline
 62
7
  6
CONTINUOUS
 90
13
 70
0
 43
0.3500000006
 10
-115.5238728333
 20
206.0572410278
 10
-115.5238728333
 20
207.342947937
 10
-115.3095883484
 20
207.7715169067
 10
-114.8810193787
 20
208.2000858765
 10
-114.6667348938
 20
208.2000858765
 10
-114.2381659241
 20
207.7715169067
 10
-114.0238723755
 20
207.342947937
 10
-114.0238723755
 20
206.0572410278
 10
-114.2381659241
 20
205.6286539307
 10
-114.6667348938
 20
205.2000849609
 10
-114.8810193787
 20
205.2000849609
 10
-115.3095883484
 20
205.6286539307
 10
-115.5238728333
 20
206.0572410278
  0
LINE
  5
423
100
AcDbEntity
  8
0
100
AcDbLine
 62
7
  6
CONTINUOUS
 10
-112.1238763074
 20
190.3
 11
-112.1238763074
 21
191.35
  0
LINE
  5
424
100
AcDbEntity
  8
0
100
AcDbLine
 62
7
  6
CONTINUOUS
 10
-111.8238763074
 20
-190.3
 11
-111.8238763074
 21
-191.35
  0
LINE
  5
425
100
AcDbEntity
  8
0
100
AcDbLine
 62
7
  6
CONTINUOUS
 10
-110.3238763074
 20
190.3
 11
-110.3238763074
 21
191.35
  0
LINE
  5
426
100
AcDbEntity
  8
0
100
AcDbLine
 62
7
  6
CONTINUOUS
 10
-110.0238763074
 20
-190.3
 11
-110.0238763074
 21
-191.35
  0
LINE
  5
427
100
AcDbEntity
  8
0
100
AcDbLine
 62
7
  6
CONTINUOUS
 10
-126.2268328416
 20
-185.2618550415
 11
-126.2230868172
 21
-185.2143258001
  0
LINE
  5
428
100
AcDbEntity
  8
0
100
AcDbLine
 62
7
  6
CONTINUOUS
 10
-126.2336371141
 20
-185.3426386747
 11
-126.2268328416
 21
-185.2618550415
  0
LINE
  5
429
100
AcDbEntity
  8
0
100
AcDbLine
 62
7
  6
CONTINUOUS
 10
-107.5238763074
 20
191.35
 11
-107.5238763074
 21
190.35
  0
LINE
  5
42A
100
AcDbEntity
  8
0
100
AcDbLine
 62
7
  6
CONTINUOUS
 10
-107.5238763074
 20
-191.35
 11
-107.5238763074
 21
-190.35
  0
LINE
  5
42B
100
AcDbEntity
  8
0
100
AcDbLine
 62
250
  6
CONTINUOUS
 10
-106.5738763074
 20
191.35
 11
-106.5738763074
 21
190.35
  0
LINE
  5
42C
100
AcDbEntity
  8
0
100
AcDbLine
 62
250
  6
CONTINUOUS
 10
-106.5738763074
 20
-191.35
 11
-106.5738763074
 21
-190.35
  0
LINE
  5
42D
100
AcDbEntity
  8
0
100
AcDbLine
 62
7
  6
CONTINUOUS
 10
-106.5738763074
 20
-190.3
 11
-106.5738763074
 21
-184.5
  0
LINE
  5
42E
100
AcDbEntity
  8
0
100
AcDbLine
 62
250
  6
CONTINUOUS
 10
-106.5738763074
 20
-184.5
 11
-106.5738763074
 21
-182.7
  0
LINE
  5
42F
100
AcDbEntity
  8
0
100
AcDbLine
 62
7
  6
CONTINUOUS
 10
-106.5738763074
 20
-182.7
 11
-106.5738763074
 21
-153.9
  0
LINE
  5
430
100
AcDbEntity
  8
0
100
AcDbLine
 62
250
  6
CONTINUOUS
 10
-106.5738763074
 20
-153.9
 11
-106.5738763074
 21
-152.1
  0
LINE
  5
431
100
AcDbEntity
  8
0
100
AcDbLine
 62
7
  6
CONTINUOUS
 10
-106.5738763074
 20
-152.1
 11
-106.5738763074
 21
-123.3
  0
LINE
  5
432
100
AcDbEntity
  8
0
100
AcDbLine
 62
250
  6
CONTINUOUS
 10
-106.5738763074
 20
-123.3
 11
-106.5738763074
 21
-121.5
  0
LINE
  5
433
100
AcDbEntity
  8
0
100
AcDbLine
 62
7
  6
CONTINUOUS
 10
-106.5738763074
 20
-121.5
 11
-106.5738763074
 21
-92.7
  0
LINE
  5
434
100
AcDbEntity
  8
0
100
AcDbLine
 62
250
  6
CONTINUOUS
 10
-106.5738763074
 20
-92.7
 11
-106.5738763074
 21
-90.9
  0
LINE
  5
435
100
AcDbEntity
  8
0
100
AcDbLine
 62
7
  6
CONTINUOUS
 10
-106.5738763074
 20
-90.9
 11
-106.5738763074
 21
-62.1
  0
LINE
  5
436
100
AcDbEntity
  8
0
100
AcDbLine
 62
250
  6
CONTINUOUS
 10
-106.5738763074
 20
-62.1
 11
-106.5738763074
 21
-60.3
  0
LINE
  5
437
100
AcDbEntity
  8
0
100
AcDbLine
 62
7
  6
CONTINUOUS
 10
-106.5738763074
 20
-60.3
 11
-106.5738763074
 21
-31.5
  0
LINE
  5
438
100
AcDbEntity
  8
0
100
AcDbLine
 62
250
  6
CONTINUOUS
 10
-106.5738763074
 20
-31.5
 11
-106.5738763074
 21
-29.7
  0
LINE
  5
439
100
AcDbEntity
  8
0
100
AcDbLine
 62
7
  6
CONTINUOUS
 10
-106.5738763074
 20
-29.7
 11
-106.5738763074
 21
-0.9
  0
LINE
  5
43A
100
AcDbEntity
  8
0
100
AcDbLine
 62
250
  6
CONTINUOUS
 10
-106.5738763074
 20
-0.9
 11
-106.5738763074
 21
0.9
  0
LINE
  5
43B
100
AcDbEntity
  8
0
100
AcDbLine
 62
7
  6
CONTINUOUS
 10
-106.5738763074
 20
0.9
 11
-106.5738763074
 21
29.7
  0
LINE
  5
43C
100
AcDbEntity
  8
0
100
AcDbLine
 62
250
  6
CONTINUOUS
 10
-106.5738763074
 20
29.7
 11
-106.5738763074
 21
31.5
  0
LINE
  5
43D
100
AcDbEntity
  8
0
100
AcDbLine
 62
7
  6
CONTINUOUS
 10
-106.5738763074
 20
31.5
 11
-106.5738763074
 21
60.3
  0
LINE
  5
43E
100
AcDbEntity
  8
0
100
AcDbLine
 62
250
  6
CONTINUOUS
 10
-106.5738763074
 20
60.3
 11
-106.5738763074
 21
62.1
  0
LINE
  5
43F
100
AcDbEntity
  8
0
100
AcDbLine
 62
7
  6
CONTINUOUS
 10
-106.5738763074
 20
62.1
 11
-106.5738763074
 21
90.9
  0
LINE
  5
440
100
AcDbEntity
  8
0
100
AcDbLine
 62
250
  6
CONTINUOUS
 10
-106.5738763074
 20
90.9
 11
-106.5738763074
 21
92.7
  0
LINE
  5
441
100
AcDbEntity
  8
0
100
AcDbLine
 62
7
  6
CONTINUOUS
 10
-106.5738763074
 20
92.7
 11
-106.5738763074
 21
121.5
  0
LINE
  5
442
100
AcDbEntity
  8
0
100
AcDbLine
 62
250
  6
CONTINUOUS
 10
-106.5738763074
 20
121.5
 11
-106.5738763074
 21
123.3
  0
LINE
  5
443
100
AcDbEntity
  8
0
100
AcDbLine
 62
7
  6
CONTINUOUS
 10
-106.5738763074
 20
123.3
 11
-106.5738763074
 21
152.1
  0
LINE
  5
444
100
AcDbEntity
  8
0
100
AcDbLine
 62
250
  6
CONTINUOUS
 10
-106.5738763074
 20
152.1
 11
-106.5738763074
 21
153.9
  0
LINE
  5
445
100
AcDbEntity
  8
0
100
AcDbLine
 62
7
  6
CONTINUOUS
 10
-106.5738763074
 20
153.9
 11
-106.5738763074
 21
182.7
  0
LINE
  5
446
100
AcDbEntity
  8
0
100
AcDbLine
 62
250
  6
CONTINUOUS
 10
-106.5738763074
 20
182.7
 11
-106.5738763074
 21
184.5
  0
LINE
  5
447
100
AcDbEntity
  8
0
100
AcDbLine
 62
7
  6
CONTINUOUS
 10
-106.5738763074
 20
184.5
 11
-106.5738763074
 21
190.3
  0
LINE
  5
448
100
AcDbEntity
  8
0
100
AcDbLine
 62
7
  6
CONTINUOUS
 10
-106.5238763074
 20
190.3
 11
-106.5238763074
 21
184.5
  0
LINE
  5
449
100
AcDbEntity
  8
0
100
AcDbLine
 62
7
  6
CONTINUOUS
 10
-106.5238763074
 20
182.7
 11
-106.5238763074
 21
153.9
  0
LINE
  5
44A
100
AcDbEntity
  8
0
100
AcDbLine
 62
7
  6
CONTINUOUS
 10
-106.5238763074
 20
152.1
 11
-106.5238763074
 21
123.3
  0
LINE
  5
44B
100
AcDbEntity
  8
0
100
AcDbLine
 62
7
  6
CONTINUOUS
 10
-106.5238763074
 20
-190.3
 11
-106.5238763074
 21
-184.5
  0
LINE
  5
44C
100
AcDbEntity
  8
0
100
AcDbLine
 62
7
  6
CONTINUOUS
 10
-106.5238763074
 20
121.5
 11
-106.5238763074
 21
92.7
  0
LINE
  5
44D
100
AcDbEntity
  8
0
100
AcDbLine
 62
7
  6
CONTINUOUS
 10
-106.5238763074
 20
90.9
 11
-106.5238763074
 21
62.1
  0
LINE
  5
44E
100
AcDbEntity
  8
0
100
AcDbLine
 62
7
  6
CONTINUOUS
 10
-106.5238763074
 20
-152.1
 11
-106.5238763074
 21
-123.3
  0
LINE
  5
44F
100
AcDbEntity
  8
0
100
AcDbLine
 62
7
  6
CONTINUOUS
 10
-106.5238763074
 20
60.3
 11
-106.5238763074
 21
31.5
  0
LINE
  5
450
100
AcDbEntity
  8
0
100
AcDbLine
 62
7
  6
CONTINUOUS
 10
-106.5238763074
 20
29.7
 11
-106.5238763074
 21
0.9
  0
LINE
  5
451
100
AcDbEntity
  8
0
100
AcDbLine
 62
7
  6
CONTINUOUS
 10
-106.5238763074
 20
-0.9
 11
-106.5238763074
 21
-29.7
  0
LINE
  5
452
100
AcDbEntity
  8
0
100
AcDbLine
 62
7
  6
CONTINUOUS
 10
-106.5238763074
 20
-31.5
 11
-106.5238763074
 21
-60.3
  0
LINE
  5
453
100
AcDbEntity
  8
0
100
AcDbLine
 62
7
  6
CONTINUOUS
 10
-106.5238763074
 20
-62.1
 11
-106.5238763074
 21
-90.9
  0
LINE
  5
454
100
AcDbEntity
  8
0
100
AcDbLine
 62
7
  6
CONTINUOUS
 10
-106.5238763074
 20
-92.7
 11
-106.5238763074
 21
-121.5
  0
LINE
  5
455
100
AcDbEntity
  8
0
100
AcDbLine
 62
7
  6
CONTINUOUS
 10
-106.5238763074
 20
-153.9
 11
-106.5238763074
 21
-182.7
  0
LINE
  5
456
100
AcDbEntity
  8
0
100
AcDbLine
 62
7
  6
CONTINUOUS
 10
-105.5238763074
 20
-190.3
 11
-105.5238763074
 21
190.3
  0
LINE
  5
457
100
AcDbEntity
  8
0
100
AcDbLine
 62
7
  6
CONTINUOUS
 10
-106.5738763074
 20
29.7
 11
-105.5238763074
 21
29.7
  0
LINE
  5
458
100
AcDbEntity
  8
0
100
AcDbLine
 62
7
  6
CONTINUOUS
 10
-106.5738763074
 20
31.5
 11
-105.5238763074
 21
31.5
  0
LINE
  5
459
100
AcDbEntity
  8
0
100
AcDbLine
 62
7
  6
CONTINUOUS
 10
-149.1238763074
 20
-188.85
 11
-142.7543972078
 21
-171.35
  0
LINE
  5
45A
100
AcDbEntity
  8
0
100
AcDbLine
 62
7
  6
CONTINUOUS
 10
-142.7543972078
 20
171.35
 11
-149.1238763074
 21
188.85
  0
LINE
  5
45B
100
AcDbEntity
  8
0
100
AcDbLine
 62
7
  6
CONTINUOUS
 10
-106.5738763074
 20
60.3
 11
-105.5238763074
 21
60.3
  0
LINE
  5
45C
100
AcDbEntity
  8
0
100
AcDbLine
 62
7
  6
CONTINUOUS
 10
-106.5738763074
 20
62.1
 11
-105.5238763074
 21
62.1
  0
LINE
  5
45D
100
AcDbEntity
  8
0
100
AcDbLine
 62
7
  6
CONTINUOUS
 10
-106.5738763074
 20
90.9
 11
-105.5238763074
 21
90.9
  0
LINE
  5
45E
100
AcDbEntity
  8
0
100
AcDbLine
 62
7
  6
CONTINUOUS
 10
-106.5738763074
 20
92.7
 11
-105.5238763074
 21
92.7
  0
LWPOLYLINE
  5
45F
100
AcDbEntity
  8
0
100
AcDbPolyline
 62
250
  6
CONTINUOUS
 90
18
 70
0
 10
-135.9697584186
 20
-186.0108419692
 10
-135.9447250025
 20
-185.9714986559
 10
-135.9135598011
 20
-185.910184375
 10
-135.8896474962
 20
-185.845858494
 10
-135.8733124379
 20
-185.7792747825
 10
-135.864941665
 20
-185.7112177469
 10
-135.8649416633
 20
-185.6426521979
 10
-135.873312457
 20
-185.5745950314
 10
-135.8896476424
 20
-185.508010949
 10
-135.9135602116
 20
-185.4436846063
 10
-135.9447256608
 20
-185.3823701322
 10
-135.9828392939
 20
-185.3248939088
 10
-136.0275174611
 20
-185.2722197838
 10
-136.0782927025
 20
-185.2252717436
 10
-136.1343917581
 20
-185.1845927992
 10
-136.1949397238
 20
-185.1505119009
 10
-136.2590557818
 20
-185.1233767284
 10
-136.2815315091
 20
-185.1167040019
  0
LWPOLYLINE
  5
460
100
AcDbEntity
  8
0
100
AcDbPolyline
 62
7
  6
CONTINUOUS
 90
12
 70
0
 10
-135.9714813756
 20
-186.0133150702
 10
-135.9374467639
 20
-185.9614571993
 10
-135.8857233032
 20
-185.8694798623
 10
-135.8392354876
 20
-185.7710188194
 10
-135.7969220714
 20
-185.6665199611
 10
-135.7571409733
 20
-185.5541483409
 10
-135.7182696585
 20
-185.4303918274
 10
-135.67972195
 20
-185.2936838195
 10
-135.641414962
 20
-185.1439647025
 10
-135.6032130053
 20
-184.9810436226
 10
-135.5650419908
 20
-184.8050131444
 10
-135.538859093
 20
-184.6755057396
  0
LINE
  5
461
100
AcDbEntity
  8
0
100
AcDbLine
 62
7
  6
CONTINUOUS
 10
-135.9714813756
 20
-186.0133150702
 11
-135.9697584186
 21
-186.0108419692
  0
LWPOLYLINE
  5
462
100
AcDbEntity
  8
0
100
AcDbPolyline
 62
7
  6
CONTINUOUS
 90
10
 70
0
 43
0.3500000006
 10
-134.8595897827
 20
215.700097229
 10
-134.7881585999
 20
215.5572348633
 10
-134.7881585999
 20
215.4858127441
 10
-134.9310209656
 20
215.3429503784
 10
-135.0024521484
 20
215.3429503784
 10
-135.0738742676
 20
215.4143724976
 10
-135.0738742676
 20
215.4858127441
 10
-135.0024521484
 20
215.6286569824
 10
-134.9310209656
 20
215.700097229
 10
-134.8595897827
 20
215.700097229
  0
LINE
  5
463
100
AcDbEntity
  8
ASSI
100
AcDbLine
 62
7
  6
CONTINUOUS
 10
-112.8932587453
 20
114.3
 11
-113.3940576773
 21
114.3
  0
LINE
  5
464
100
AcDbEntity
  8
ASSI
100
AcDbLine
 62
7
  6
CONTINUOUS
 10
-137.6536949376
 20
114.3
 11
-138.1544938695
 21
114.3
  0
LINE
  5
465
100
AcDbEntity
  8
ASSI
100
AcDbLine
 62
7
  6
CONTINUOUS
 10
-138.1544938695
 20
115.7
 11
-137.6536949376
 21
115.7
  0
LINE
  5
466
100
AcDbEntity
  8
ASSI
100
AcDbLine
 62
7
  6
CONTINUOUS
 10
-113.3940576773
 20
115.7
 11
-112.8932587453
 21
115.7
  0
LINE
  5
467
100
AcDbEntity
  8
0
100
AcDbLine
 62
7
  6
CONTINUOUS
 10
-106.5738763074
 20
121.5
 11
-105.5238763074
 21
121.5
  0
LINE
  5
468
100
AcDbEntity
  8
0
100
AcDbLine
 62
7
  6
CONTINUOUS
 10
-106.5738763074
 20
123.3
 11
-105.5238763074
 21
123.3
  0
LINE
  5
469
100
AcDbEntity
  8
0
100
AcDbLine
 62
7
  6
CONTINUOUS
 10
-106.5738763074
 20
152.1
 11
-105.5238763074
 21
152.1
  0
LINE
  5
46A
100
AcDbEntity
  8
0
100
AcDbLine
 62
7
  6
CONTINUOUS
 10
-106.5738763074
 20
153.9
 11
-105.5238763074
 21
153.9
  0
LINE
  5
46B
100
AcDbEntity
  8
0
100
AcDbLine
 62
7
  6
CONTINUOUS
 10
-110.3235135403
 20
159.35
 11
-161.1238763074
 21
159.35
  0
LINE
  5
46C
100
AcDbEntity
  8
0
100
AcDbLine
 62
7
  6
CONTINUOUS
 10
-162.1238763074
 20
160.85
 11
-162.3238763074
 21
160.85
  0
LINE
  5
46D
100
AcDbEntity
  8
0
100
AcDbLine
 62
7
  6
CONTINUOUS
 10
-133.9238763074
 20
161.85
 11
-134.3238763074
 21
161.85
  0
LINE
  5
46E
100
AcDbEntity
  8
0
100
AcDbLine
 62
7
  6
CONTINUOUS
 10
-134.3238763074
 20
166.85
 11
-133.9238763074
 21
166.85
  0
LINE
  5
46F
100
AcDbEntity
  8
0
100
AcDbLine
 62
7
  6
CONTINUOUS
 10
-162.3238763074
 20
167.85
 11
-162.1238763074
 21
167.85
  0
LINE
  5
470
100
AcDbEntity
  8
0
100
AcDbLine
 62
7
  6
CONTINUOUS
 10
-133.1238763074
 20
169.35
 11
-161.1238763074
 21
169.35
  0
LINE
  5
471
100
AcDbEntity
  8
0
100
AcDbLine
 62
7
  6
CONTINUOUS
 10
-142.7543972078
 20
171.35
 11
-133.1238763074
 21
171.35
  0
LWPOLYLINE
  5
472
100
AcDbEntity
  8
0
100
AcDbPolyline
 62
7
  6
CONTINUOUS
 90
29
 70
0
 10
-126.716838732
 20
-186.3158194631
 10
-126.654974621
 20
-186.2904868587
 10
-126.5978874994
 20
-186.2597701408
 10
-126.5456332257
 20
-186.2242771667
 10
-126.498776341
 20
-186.1849190602
 10
-126.4582867812
 20
-186.1433652101
 10
-126.4236429005
 20
-186.1004727958
 10
-126.3943396224
 20
-186.0571677141
 10
-126.3705507018
 20
-186.0155674035
 10
-126.351710132
 20
-185.9769787583
 10
-126.3365981463
 20
-185.9410836469
 10
-126.3243023212
 20
-185.9074944958
 10
-126.3144187774
 20
-185.8767436906
 10
-126.3063418129
 20
-185.8484596316
 10
-126.2992658659
 20
-185.8208222594
 10
-126.2929527742
 20
-185.7934888805
 10
-126.2873255797
 20
-185.7666698886
 10
-126.2820923038
 20
-185.7393878263
 10
-126.2771572808
 20
-185.7113801577
 10
-126.2725034874
 20
-185.6827675502
 10
-126.2680475322
 20
-185.6532275285
 10
-126.263753897
 20
-185.622662973
 10
-126.2596108751
 20
-185.5911195708
 10
-126.2556014233
 20
-185.5585944957
 10
-126.2517224405
 20
-185.5251895254
 10
-126.2479545988
 20
-185.4908597467
 10
-126.2442690181
 20
-185.4554360591
 10
-126.2406577413
 20
-185.4189152365
 10
-126.2336371141
 20
-185.3426386747
  0
LINE
  5
473
100
AcDbEntity
  8
0
100
AcDbLine
 62
7
  6
CONTINUOUS
 10
-126.770891305
 20
-186.3313820707
 11
-126.716838732
 21
-186.3158194631
  0
LINE
  5
474
100
AcDbEntity
  8
0
100
AcDbLine
 62
7
  6
CONTINUOUS
 10
-106.5738763074
 20
182.7
 11
-105.5238763074
 21
182.7
  0
LINE
  5
475
100
AcDbEntity
  8
0
100
AcDbLine
 62
7
  6
CONTINUOUS
 10
-106.5738763074
 20
184.5
 11
-105.5238763074
 21
184.5
  0
LINE
  5
476
100
AcDbEntity
  8
0
100
AcDbLine
 62
250
  6
CONTINUOUS
 10
-146.3238763074
 20
190.3
 11
-144.5238763074
 21
190.3
  0
LINE
  5
477
100
AcDbEntity
  8
0
100
AcDbLine
 62
7
  6
CONTINUOUS
 10
-144.5238763074
 20
190.3
 11
-129.2238763074
 21
190.3
  0
LINE
  5
478
100
AcDbEntity
  8
0
100
AcDbLine
 62
250
  6
CONTINUOUS
 10
-129.2238763074
 20
190.3
 11
-127.4238763074
 21
190.3
  0
LINE
  5
479
100
AcDbEntity
  8
0
100
AcDbLine
 62
250
  6
CONTINUOUS
 10
-112.1238763074
 20
190.3
 11
-110.3238763074
 21
190.3
  0
LINE
  5
47A
100
AcDbEntity
  8
0
100
AcDbLine
 62
250
  6
CONTINUOUS
 10
-105.5238763074
 20
190.3
 11
-106.5238763074
 21
190.3
  0
LINE
  5
47B
100
AcDbEntity
  8
0
100
AcDbLine
 62
7
  6
CONTINUOUS
 10
-106.5738763074
 20
190.3
 11
-110.3238763074
 21
190.3
  0
LINE
  5
47C
100
AcDbEntity
  8
0
100
AcDbLine
 62
7
  6
CONTINUOUS
 10
-112.1238763074
 20
190.3
 11
-127.4238763074
 21
190.3
  0
LINE
  5
47D
100
AcDbEntity
  8
0
100
AcDbLine
 62
7
  6
CONTINUOUS
 10
-146.3238763074
 20
190.3
 11
-166.1238763074
 21
190.3
  0
LINE
  5
47E
100
AcDbEntity
  8
0
100
AcDbLine
 62
7
  6
CONTINUOUS
 10
-166.1238763074
 20
190.35
 11
-146.3238763074
 21
190.35
  0
LINE
  5
47F
100
AcDbEntity
  8
0
100
AcDbLine
 62
7
  6
CONTINUOUS
 10
-144.5238763074
 20
190.35
 11
-129.2238763074
 21
190.35
  0
LINE
  5
480
100
AcDbEntity
  8
0
100
AcDbLine
 62
7
  6
CONTINUOUS
 10
-127.4238763074
 20
190.35
 11
-112.1238763074
 21
190.35
  0
LINE
  5
481
100
AcDbEntity
  8
0
100
AcDbLine
 62
7
  6
CONTINUOUS
 10
-110.3238763074
 20
190.35
 11
-106.5738763074
 21
190.35
  0
LINE
  5
482
100
AcDbEntity
  8
0
100
AcDbLine
 62
7
  6
CONTINUOUS
 10
-106.5738763074
 20
191.35
 11
-166.1238763074
 21
191.35
  0
LINE
  5
483
100
AcDbEntity
  8
0
100
AcDbLine
 62
250
  6
CONTINUOUS
 10
-160.7738763074
 20
191.9368240888
 11
-159.2738763074
 21
191.9368240888
  0
LINE
  5
484
100
AcDbEntity
  8
0
100
AcDbLine
 62
7
  6
CONTINUOUS
 10
-160.7738763074
 20
192.35
 11
-159.2738763074
 21
192.35
  0
LWPOLYLINE
  5
485
100
AcDbEntity
  8
0
100
AcDbPolyline
 62
7
  6
CONTINUOUS
 90
7
 70
0
 43
0.3500000006
 10
-116.3810198364
 20
205.2000849609
 10
-117.8810202942
 20
205.2000849609
 10
-116.3810198364
 20
207.342947937
 10
-116.3810198364
 20
207.7715169067
 10
-116.8095888062
 20
208.2000858765
 10
-117.4524513245
 20
208.2000858765
 10
-117.8810202942
 20
207.5572324219
  0
ARC
  5
486
100
AcDbEntity
  8
0
100
AcDbCircle
 62
7
  6
CONTINUOUS
 10
-66.425
 20
-190.3
 40
1.05
100
AcDbArc
 50
180.0
 51
270.0
  0
ARC
  5
487
100
AcDbEntity
  8
RACCORDO
100
AcDbCircle
 62
7
  6
CONTINUOUS
 10
-45.7041004864
 20
-185.6
 40
1.0
100
AcDbArc
 50
51.3478573985
 51
90.0
  0
ARC
  5
488
100
AcDbEntity
  8
RACCORDO
100
AcDbCircle
 62
7
  6
CONTINUOUS
 10
-47.3126205218
 20
-183.6
 40
1.0
100
AcDbArc
 50
204.8345874897
 51
270.0
  0
CIRCLE
  5
489
100
AcDbEntity
  8
ASSI
100
AcDbCircle
 62
7
  6
CONTINUOUS
 10
-47.075
 20
-183.15
 40
0.6
  0
ARC
  5
48A
100
AcDbEntity
  8
0
100
AcDbCircle
 62
7
  6
CONTINUOUS
 10
-53.1054381211
 20
-191.85
 40
0.5
100
AcDbArc
 50
195.0
 51
270.0
  0
ARC
  5
48B
100
AcDbEntity
  8
0
100
AcDbCircle
 62
7
  6
CONTINUOUS
 10
-45.9445618789
 20
-191.85
 40
0.5
100
AcDbArc
 50
270.0
 51
345.0
  0
ARC
  5
48C
100
AcDbEntity
  8
RACCORDO
100
AcDbCircle
 62
7
  6
CONTINUOUS
 10
-46.130219814
 20
-182.05
 40
0.2
100
AcDbArc
 50
9.3093409216
 51
90.0
  0
ARC
  5
48D
100
AcDbEntity
  8
RACCORDO
100
AcDbCircle
 62
7
  6
CONTINUOUS
 10
-48.5488635245
 20
-182.05
 40
0.2
100
AcDbArc
 50
90.0
 51
185.4413964306
  0
ARC
  5
48E
100
AcDbEntity
  8
0
100
AcDbCircle
 62
7
  6
CONTINUOUS
 10
-66.425
 20
-190.3
 40
0.05
100
AcDbArc
 50
180.0
 51
270.0
  0
ARC
  5
48F
100
AcDbEntity
  8
RACCORDO
100
AcDbCircle
 62
7
  6
CONTINUOUS
 10
-45.7041004864
 20
-177.4
 40
1.0
100
AcDbArc
 50
270.0
 51
308.6521426015
  0
ARC
  5
490
100
AcDbEntity
  8
RACCORDO
100
AcDbCircle
 62
7
  6
CONTINUOUS
 10
-47.3126205218
 20
-179.4
 40
1.0
100
AcDbArc
 50
90.0
 51
155.1654125103
  0
CIRCLE
  5
491
100
AcDbEntity
  8
ASSI
100
AcDbCircle
 62
7
  6
CONTINUOUS
 10
-47.075
 20
-179.85
 40
0.6
  0
ARC
  5
492
100
AcDbEntity
  8
RACCORDO
100
AcDbCircle
 62
7
  6
CONTINUOUS
 10
-46.130219814
 20
-180.95
 40
0.2
100
AcDbArc
 50
270.0
 51
350.6906590784
  0
ARC
  5
493
100
AcDbEntity
  8
RACCORDO
100
AcDbCircle
 62
7
  6
CONTINUOUS
 10
-48.5488635245
 20
-180.95
 40
0.2
100
AcDbArc
 50
174.5586035694
 51
270.0
  0
ARC
  5
494
100
AcDbEntity
  8
RACCORDO
100
AcDbCircle
 62
7
  6
CONTINUOUS
 10
-42.775
 20
-181.5
 40
6.0
100
AcDbArc
 50
185.4413964306
 51
204.8345874897
  0
ARC
  5
495
100
AcDbEntity
  8
RACCORDO
100
AcDbCircle
 62
7
  6
CONTINUOUS
 10
-42.775
 20
-181.5
 40
6.0
100
AcDbArc
 50
155.1654125103
 51
174.5586035694
  0
ARC
  5
496
100
AcDbEntity
  8
RACCORDO
100
AcDbCircle
 62
7
  6
CONTINUOUS
 10
-42.425
 20
-181.5
 40
4.25
100
AcDbArc
 50
231.3478573985
 51
128.6521426015
  0
ARC
  5
497
100
AcDbEntity
  8
SMUSSO
100
AcDbCircle
 62
7
  6
CONTINUOUS
 10
-42.775
 20
-181.5
 40
3.45
100
AcDbArc
 50
209.591845794
 51
240.408154206
  0
ARC
  5
498
100
AcDbEntity
  8
SMUSSO
100
AcDbCircle
 62
7
  6
CONTINUOUS
 10
-42.775
 20
-181.5
 40
3.45
100
AcDbArc
 50
299.591845794
 51
330.408154206
  0
ARC
  5
499
100
AcDbEntity
  8
SMUSSO
100
AcDbCircle
 62
7
  6
CONTINUOUS
 10
-42.775
 20
-181.5
 40
3.45
100
AcDbArc
 50
119.591845794
 51
150.408154206
  0
ARC
  5
49A
100
AcDbEntity
  8
SMUSSO
100
AcDbCircle
 62
7
  6
CONTINUOUS
 10
-42.775
 20
-181.5
 40
3.45
100
AcDbArc
 50
29.591845794
 51
60.408154206
  0
ARC
  5
49B
100
AcDbEntity
  8
RACCORDO
100
AcDbCircle
 62
7
  6
CONTINUOUS
 10
-42.775
 20
-181.5
 40
3.2
100
AcDbArc
 50
159.6606480692
 51
170.6906590784
  0
ARC
  5
49C
100
AcDbEntity
  8
RACCORDO
100
AcDbCircle
 62
7
  6
CONTINUOUS
 10
-42.775
 20
-181.5
 40
3.2
100
AcDbArc
 50
69.8205807249
 51
110.249745345
  0
ARC
  5
49D
100
AcDbEntity
  8
RACCORDO
100
AcDbCircle
 62
7
  6
CONTINUOUS
 10
-42.775
 20
-181.5
 40
3.2
100
AcDbArc
 50
339.7629460951
 51
20.2363047083
  0
ARC
  5
49E
100
AcDbEntity
  8
RACCORDO
100
AcDbCircle
 62
7
  6
CONTINUOUS
 10
-42.775
 20
-181.5
 40
3.2
100
AcDbArc
 50
249.7511491045
 51
290.1798380683
  0
ARC
  5
49F
100
AcDbEntity
  8
RACCORDO
100
AcDbCircle
 62
7
  6
CONTINUOUS
 10
-42.775
 20
-181.5
 40
3.2
100
AcDbArc
 50
189.3093409216
 51
200.3391799669
  0
CIRCLE
  5
4A0
100
AcDbEntity
  8
SMUSSO
100
AcDbCircle
 62
7
  6
CONTINUOUS
 10
-42.775
 20
-181.5
 40
2.8726497308
  0
CIRCLE
  5
4A1
100
AcDbEntity
  8
0
100
AcDbCircle
 62
7
  6
CONTINUOUS
 10
-42.775
 20
-181.5
 40
1.75
  0
ARC
  5
4A2
100
AcDbEntity
  8
0
100
AcDbCircle
 62
7
  6
CONTINUOUS
 10
-42.775
 20
-181.5
 40
1.5
100
AcDbArc
 50
255.0
 51
195.0
  0
CIRCLE
  5
4A3
100
AcDbEntity
  8
0
100
AcDbCircle
 62
7
  6
CONTINUOUS
 10
-42.775
 20
-181.5
 40
1.25
  0
ARC
  5
4A4
100
AcDbEntity
  8
0
100
AcDbCircle
 62
7
  6
CONTINUOUS
 10
-39.425
 20
-189.85
 40
0.5
100
AcDbArc
 50
270.0
 51
360.0
  0
ARC
  5
4A5
100
AcDbEntity
  8
0
100
AcDbCircle
 62
7
  6
CONTINUOUS
 10
-20.0001422616
 20
-191.85
 40
0.5
100
AcDbArc
 50
190.0
 51
270.0
  0
ARC
  5
4A6
100
AcDbEntity
  8
0
100
AcDbCircle
 62
7
  6
CONTINUOUS
 10
-21.5445498156
 20
-188.85
 40
0.5
100
AcDbArc
 50
10.0
 51
90.0
  0
ARC
  5
4A7
100
AcDbEntity
  8
0
100
AcDbCircle
 62
7
  6
CONTINUOUS
 10
-33.6534271247
 20
-174.65
 40
2.0
100
AcDbArc
 50
270.0
 51
315.0
  0
ARC
  5
4A8
100
AcDbEntity
  8
0
100
AcDbCircle
 62
7
  6
CONTINUOUS
 10
-23.6965728753
 20
-170.35
 40
2.0
100
AcDbArc
 50
90.0
 51
135.0
  0
ARC
  5
4A9
100
AcDbEntity
  8
0
100
AcDbCircle
 62
7
  6
CONTINUOUS
 10
-20.275
 20
-170.95
 40
0.5
100
AcDbArc
 50
90.0
 51
180.0
  0
ARC
  5
4AA
100
AcDbEntity
  8
0
100
AcDbCircle
 62
7
  6
CONTINUOUS
 10
-20.275
 20
-175.45
 40
0.5
100
AcDbArc
 50
180.0
 51
270.0
  0
ARC
  5
4AB
100
AcDbEntity
  8
0
100
AcDbCircle
 62
7
  6
CONTINUOUS
 10
-28.6965728753
 20
174.45
 40
2.0
100
AcDbArc
 50
90.0
 51
135.0
  0
ARC
  5
4AC
100
AcDbEntity
  8
0
100
AcDbCircle
 62
7
  6
CONTINUOUS
 10
-33.3534271247
 20
175.45
 40
2.0
100
AcDbArc
 50
270.0
 51
315.0
  0
ARC
  5
4AD
100
AcDbEntity
  8
0
100
AcDbCircle
 62
7
  6
CONTINUOUS
 10
-66.425
 20
190.3
 40
1.05
100
AcDbArc
 50
90.0
 51
180.0
  0
ARC
  5
4AE
100
AcDbEntity
  8
0
100
AcDbCircle
 62
7
  6
CONTINUOUS
 10
-20.275
 20
181.05
 40
0.5
100
AcDbArc
 50
180.0
 51
270.0
  0
ARC
  5
4AF
100
AcDbEntity
  8
0
100
AcDbCircle
 62
7
  6
CONTINUOUS
 10
-20.275
 20
185.55
 40
0.5
100
AcDbArc
 50
90.0
 51
180.0
  0
ARC
  5
4B0
100
AcDbEntity
  8
0
100
AcDbCircle
 62
7
  6
CONTINUOUS
 10
-20.9001422616
 20
191.85
 40
0.5
100
AcDbArc
 50
90.0
 51
170.0
  0
ARC
  5
4B1
100
AcDbEntity
  8
0
100
AcDbCircle
 62
7
  6
CONTINUOUS
 10
-39.1498577384
 20
191.85
 40
0.5
100
AcDbArc
 50
10.0
 51
90.0
  0
ARC
  5
4B2
100
AcDbEntity
  8
0
100
AcDbCircle
 62
7
  6
CONTINUOUS
 10
-46.252796223
 20
191.85
 40
0.5
100
AcDbArc
 50
90.0
 51
170.0
  0
ARC
  5
4B3
100
AcDbEntity
  8
0
100
AcDbCircle
 62
7
  6
CONTINUOUS
 10
-37.6054501844
 20
188.85
 40
0.5
100
AcDbArc
 50
190.0
 51
270.0
  0
ARC
  5
4B4
100
AcDbEntity
  8
0
100
AcDbCircle
 62
7
  6
CONTINUOUS
 10
-22.4445498156
 20
188.85
 40
0.5
100
AcDbArc
 50
270.0
 51
350.0
  0
ARC
  5
4B5
100
AcDbEntity
  8
ASSI
100
AcDbCircle
 62
7
  6
CONTINUOUS
 10
-30.5272213998
 20
87.65
 40
0.15
100
AcDbArc
 50
150.0
 51
330.0
  0
ARC
  5
4B6
100
AcDbEntity
  8
ASSI
100
AcDbCircle
 62
7
  6
CONTINUOUS
 10
-27.525
 20
92.85
 40
0.15
100
AcDbArc
 50
30.0
 51
150.0
  0
ARC
  5
4B7
100
AcDbEntity
  8
ASSI
100
AcDbCircle
 62
7
  6
CONTINUOUS
 10
-24.5227786002
 20
87.65
 40
0.15
100
AcDbArc
 50
210.0
 51
30.0
  0
ARC
  5
4B8
100
AcDbEntity
  8
ASSI
100
AcDbCircle
 62
7
  6
CONTINUOUS
 10
-27.525
 20
87.85
 40
0.15
100
AcDbArc
 50
0.0
 51
180.0
  0
ARC
  5
4B9
100
AcDbEntity
  8
ASSI
100
AcDbCircle
 62
7
  6
CONTINUOUS
 10
-27.525
 20
75.15
 40
0.15
100
AcDbArc
 50
180.0
 51
360.0
  0
ARC
  5
4BA
100
AcDbEntity
  8
ASSI
100
AcDbCircle
 62
7
  6
CONTINUOUS
 10
-17.925
 20
75.15
 40
0.15
100
AcDbArc
 50
257.1604115931
 51
77.1604115931
  0
ARC
  5
4BB
100
AcDbEntity
  8
ASSI
100
AcDbCircle
 62
7
  6
CONTINUOUS
 10
-20.375
 20
84.85
 40
0.15
100
AcDbArc
 50
0.0
 51
180.0
  0
ARC
  5
4BC
100
AcDbEntity
  8
0
100
AcDbCircle
 62
7
  6
CONTINUOUS
 10
-66.425
 20
190.3
 40
0.05
100
AcDbArc
 50
90.0
 51
180.0
  0
ARC
  5
4BD
100
AcDbEntity
  8
ASSI
100
AcDbCircle
 62
7
  6
CONTINUOUS
 10
-17.525
 20
-115.0
 40
12.65
100
AcDbArc
 50
93.1721377345
 51
266.8278622655
  0
ARC
  5
4BE
100
AcDbEntity
  8
ASSI
100
AcDbCircle
 62
7
  6
CONTINUOUS
 10
-17.525
 20
-115.0
 40
12.65
100
AcDbArc
 50
273.1721377345
 51
86.8278622655
  0
ARC
  5
4BF
100
AcDbEntity
  8
ASSI
100
AcDbCircle
 62
7
  6
CONTINUOUS
 10
-17.525
 20
-115.0
 40
12.15
100
AcDbArc
 50
93.3028202963
 51
266.6971797037
  0
ARC
  5
4C0
100
AcDbEntity
  8
ASSI
100
AcDbCircle
 62
7
  6
CONTINUOUS
 10
-17.525
 20
-115.0
 40
12.15
100
AcDbArc
 50
273.3028202963
 51
86.6971797037
  0
ARC
  5
4C1
100
AcDbEntity
  8
0
100
AcDbCircle
 62
7
  6
CONTINUOUS
 10
-17.525
 20
-173.2
 40
2.0
100
AcDbArc
 50
255.0
 51
195.0
  0
ARC
  5
4C2
100
AcDbEntity
  8
0
100
AcDbCircle
 62
7
  6
CONTINUOUS
 10
-1.3965728753
 20
-174.65
 40
2.0
100
AcDbArc
 50
225.0
 51
270.0
  0
ARC
  5
4C3
100
AcDbEntity
  8
0
100
AcDbCircle
 62
7
  6
CONTINUOUS
 10
-11.3534271247
 20
-170.35
 40
2.0
100
AcDbArc
 50
45.0
 51
90.0
  0
CIRCLE
  5
4C4
100
AcDbEntity
  8
SMUSSO
100
AcDbCircle
 62
7
  6
CONTINUOUS
 10
-17.525
 20
-173.2
 40
1.85
  0
CIRCLE
  5
4C5
100
AcDbEntity
  8
SMUSSO
100
AcDbCircle
 62
7
  6
CONTINUOUS
 10
-17.525
 20
-173.2
 40
1.65
  0
ARC
  5
4C6
100
AcDbEntity
  8
0
100
AcDbCircle
 62
7
  6
CONTINUOUS
 10
31.375
 20
-190.3
 40
1.05
100
AcDbArc
 50
270.0
 51
360.0
  0
CIRCLE
  5
4C7
100
AcDbEntity
  8
0
100
AcDbCircle
 62
7
  6
CONTINUOUS
 10
-17.525
 20
-115.0
 40
0.75
  0
ARC
  5
4C8
100
AcDbEntity
  8
0
100
AcDbCircle
 62
7
  6
CONTINUOUS
 10
-14.775
 20
-170.95
 40
0.5
100
AcDbArc
 50
0.0
 51
90.0
  0
ARC
  5
4C9
100
AcDbEntity
  8
0
100
AcDbCircle
 62
7
  6
CONTINUOUS
 10
-14.775
 20
-175.45
 40
0.5
100
AcDbArc
 50
270.0
 51
360.0
  0
ARC
  5
4CA
100
AcDbEntity
  8
0
100
AcDbCircle
 62
7
  6
CONTINUOUS
 10
-15.0498577384
 20
-191.85
 40
0.5
100
AcDbArc
 50
270.0
 51
350.0
  0
ARC
  5
4CB
100
AcDbEntity
  8
0
100
AcDbCircle
 62
7
  6
CONTINUOUS
 10
4.375
 20
-189.85
 40
0.5
100
AcDbArc
 50
180.0
 51
270.0
  0
ARC
  5
4CC
100
AcDbEntity
  8
0
100
AcDbCircle
 62
7
  6
CONTINUOUS
 10
10.8945618789
 20
-191.85
 40
0.5
100
AcDbArc
 50
195.0
 51
270.0
  0
ARC
  5
4CD
100
AcDbEntity
  8
0
100
AcDbCircle
 62
7
  6
CONTINUOUS
 10
18.0554381211
 20
-191.85
 40
0.5
100
AcDbArc
 50
270.0
 51
345.0
  0
ARC
  5
4CE
100
AcDbEntity
  8
0
100
AcDbCircle
 62
7
  6
CONTINUOUS
 10
-13.5054501844
 20
-188.85
 40
0.5
100
AcDbArc
 50
90.0
 51
170.0
  0
ARC
  5
4CF
100
AcDbEntity
  8
0
100
AcDbCircle
 62
7
  6
CONTINUOUS
 10
31.375
 20
-190.3
 40
0.05
100
AcDbArc
 50
270.0
 51
360.0
  0
ARC
  5
4D0
100
AcDbEntity
  8
ASSI
100
AcDbCircle
 62
7
  6
CONTINUOUS
 10
-17.525
 20
115.0
 40
12.65
100
AcDbArc
 50
93.1721377345
 51
266.8278622655
  0
ARC
  5
4D1
100
AcDbEntity
  8
ASSI
100
AcDbCircle
 62
7
  6
CONTINUOUS
 10
-17.525
 20
115.0
 40
12.65
100
AcDbArc
 50
273.1721377345
 51
86.8278622655
  0
ARC
  5
4D2
100
AcDbEntity
  8
ASSI
100
AcDbCircle
 62
7
  6
CONTINUOUS
 10
-17.525
 20
115.0
 40
12.15
100
AcDbArc
 50
93.3028202963
 51
266.6971797037
  0
ARC
  5
4D3
100
AcDbEntity
  8
ASSI
100
AcDbCircle
 62
7
  6
CONTINUOUS
 10
-17.525
 20
115.0
 40
12.15
100
AcDbArc
 50
273.3028202963
 51
86.6971797037
  0
ARC
  5
4D4
100
AcDbEntity
  8
ASSI
100
AcDbCircle
 62
7
  6
CONTINUOUS
 10
-17.225
 20
78.2212375356
 40
3.3
100
AcDbArc
 50
180.0
 51
257.1604115931
  0
ARC
  5
4D5
100
AcDbEntity
  8
ASSI
100
AcDbCircle
 62
7
  6
CONTINUOUS
 10
-16.825
 20
78.2212375356
 40
3.3
100
AcDbArc
 50
282.8395884069
 51
360.0
  0
ARC
  5
4D6
100
AcDbEntity
  8
ASSI
100
AcDbCircle
 62
7
  6
CONTINUOUS
 10
-17.225
 20
78.2212375356
 40
3.0
100
AcDbArc
 50
180.0
 51
257.1604115931
  0
ARC
  5
4D7
100
AcDbEntity
  8
ASSI
100
AcDbCircle
 62
7
  6
CONTINUOUS
 10
-16.825
 20
78.2212375356
 40
3.0
100
AcDbArc
 50
282.8395884069
 51
360.0
  0
ARC
  5
4D8
100
AcDbEntity
  8
ASSI
100
AcDbCircle
 62
7
  6
CONTINUOUS
 10
-7.2376223327
 20
82.2
 40
2.8
100
AcDbArc
 50
14.7541949732
 51
90.0
  0
ARC
  5
4D9
100
AcDbEntity
  8
ASSI
100
AcDbCircle
 62
7
  6
CONTINUOUS
 10
-7.2376223327
 20
82.25
 40
2.8
100
AcDbArc
 50
270.0
 51
345.2458050268
  0
ARC
  5
4DA
100
AcDbEntity
  8
ASSI
100
AcDbCircle
 62
7
  6
CONTINUOUS
 10
-7.2376223327
 20
82.2
 40
2.5
100
AcDbArc
 50
14.7541949732
 51
90.0
  0
ARC
  5
4DB
100
AcDbEntity
  8
ASSI
100
AcDbCircle
 62
7
  6
CONTINUOUS
 10
-7.2376223327
 20
82.25
 40
2.5
100
AcDbArc
 50
270.0
 51
345.2458050268
  0
CIRCLE
  5
4DC
100
AcDbEntity
  8
0
100
AcDbCircle
 62
7
  6
CONTINUOUS
 10
-17.525
 20
115.0
 40
0.75
  0
ARC
  5
4DD
100
AcDbEntity
  8
ASSI
100
AcDbCircle
 62
7
  6
CONTINUOUS
 10
-13.675
 20
84.85
 40
0.15
100
AcDbArc
 50
0.0
 51
180.0
  0
ARC
  5
4DE
100
AcDbEntity
  8
ASSI
100
AcDbCircle
 62
7
  6
CONTINUOUS
 10
-16.125
 20
75.15
 40
0.15
100
AcDbArc
 50
102.8395884069
 51
282.8395884069
  0
ARC
  5
4DF
100
AcDbEntity
  8
ASSI
100
AcDbCircle
 62
7
  6
CONTINUOUS
 10
-11.375
 20
84.85
 40
0.15
100
AcDbArc
 50
0.0
 51
180.0
  0
ARC
  5
4E0
100
AcDbEntity
  8
ASSI
100
AcDbCircle
 62
7
  6
CONTINUOUS
 10
-11.375
 20
75.15
 40
0.15
100
AcDbArc
 50
180.0
 51
360.0
  0
ARC
  5
4E1
100
AcDbEntity
  8
ASSI
100
AcDbCircle
 62
7
  6
CONTINUOUS
 10
-10.075
 20
84.85
 40
0.15
100
AcDbArc
 50
90.0000000001
 51
270.0
  0
ARC
  5
4E2
100
AcDbEntity
  8
ASSI
100
AcDbCircle
 62
7
  6
CONTINUOUS
 10
-4.675
 20
82.8748827898
 40
0.15
100
AcDbArc
 50
194.7541949732
 51
14.7541949732
  0
ARC
  5
4E3
100
AcDbEntity
  8
ASSI
100
AcDbCircle
 62
7
  6
CONTINUOUS
 10
-4.675
 20
81.5751172102
 40
0.15
100
AcDbArc
 50
345.2458050268
 51
165.2458050268
  0
ARC
  5
4E4
100
AcDbEntity
  8
ASSI
100
AcDbCircle
 62
7
  6
CONTINUOUS
 10
-10.075
 20
79.6
 40
0.15
100
AcDbArc
 50
90.0
 51
270.0
  0
ARC
  5
4E5
100
AcDbEntity
  8
0
100
AcDbCircle
 62
7
  6
CONTINUOUS
 10
-17.525
 20
183.3
 40
2.0
100
AcDbArc
 50
255.0
 51
195.0
  0
ARC
  5
4E6
100
AcDbEntity
  8
0
100
AcDbCircle
 62
7
  6
CONTINUOUS
 10
-6.3534271247
 20
174.45
 40
2.0
100
AcDbArc
 50
45.0
 51
90.0
  0
ARC
  5
4E7
100
AcDbEntity
  8
0
100
AcDbCircle
 62
7
  6
CONTINUOUS
 10
-1.6965728753
 20
175.45
 40
2.0
100
AcDbArc
 50
225.0
 51
270.0
  0
CIRCLE
  5
4E8
100
AcDbEntity
  8
SMUSSO
100
AcDbCircle
 62
7
  6
CONTINUOUS
 10
-17.525
 20
183.3
 40
1.85
  0
CIRCLE
  5
4E9
100
AcDbEntity
  8
SMUSSO
100
AcDbCircle
 62
7
  6
CONTINUOUS
 10
-17.525
 20
183.3
 40
1.65
  0
ARC
  5
4EA
100
AcDbEntity
  8
RACCORDO
100
AcDbCircle
 62
7
  6
CONTINUOUS
 10
4.7958995136
 20
173.9
 40
1.0
100
AcDbArc
 50
51.3478573985
 51
90.0
  0
ARC
  5
4EB
100
AcDbEntity
  8
RACCORDO
100
AcDbCircle
 62
7
  6
CONTINUOUS
 10
4.7958995136
 20
182.1
 40
1.0
100
AcDbArc
 50
270.0
 51
308.6521426015
  0
ARC
  5
4EC
100
AcDbEntity
  8
RACCORDO
100
AcDbCircle
 62
7
  6
CONTINUOUS
 10
3.1873794782
 20
175.9
 40
1.0
100
AcDbArc
 50
204.8345874897
 51
270.0
  0
ARC
  5
4ED
100
AcDbEntity
  8
RACCORDO
100
AcDbCircle
 62
7
  6
CONTINUOUS
 10
3.1873794782
 20
180.1
 40
1.0
100
AcDbArc
 50
90.0
 51
155.1654125103
  0
CIRCLE
  5
4EE
100
AcDbEntity
  8
ASSI
100
AcDbCircle
 62
7
  6
CONTINUOUS
 10
3.425
 20
179.65
 40
0.6
  0
CIRCLE
  5
4EF
100
AcDbEntity
  8
ASSI
100
AcDbCircle
 62
7
  6
CONTINUOUS
 10
3.425
 20
176.35
 40
0.6
  0
ARC
  5
4F0
100
AcDbEntity
  8
0
100
AcDbCircle
 62
7
  6
CONTINUOUS
 10
-14.775
 20
181.05
 40
0.5
100
AcDbArc
 50
270.0
 51
360.0
  0
ARC
  5
4F1
100
AcDbEntity
  8
0
100
AcDbCircle
 62
7
  6
CONTINUOUS
 10
-14.775
 20
185.55
 40
0.5
100
AcDbArc
 50
0.0
 51
90.0
  0
ARC
  5
4F2
100
AcDbEntity
  8
0
100
AcDbCircle
 62
7
  6
CONTINUOUS
 10
4.0998577384
 20
191.85
 40
0.5
100
AcDbArc
 50
90.0
 51
170.0
  0
ARC
  5
4F3
100
AcDbEntity
  8
0
100
AcDbCircle
 62
7
  6
CONTINUOUS
 10
-14.1498577384
 20
191.85
 40
0.5
100
AcDbArc
 50
10.0
 51
90.0
  0
ARC
  5
4F4
100
AcDbEntity
  8
0
100
AcDbCircle
 62
7
  6
CONTINUOUS
 10
-12.6054501844
 20
188.85
 40
0.5
100
AcDbArc
 50
190.0
 51
270.0
  0
ARC
  5
4F5
100
AcDbEntity
  8
0
100
AcDbCircle
 62
7
  6
CONTINUOUS
 10
2.5554501844
 20
188.85
 40
0.5
100
AcDbArc
 50
270.0
 51
350.0
  0
ARC
  5
4F6
100
AcDbEntity
  8
RACCORDO
100
AcDbCircle
 62
7
  6
CONTINUOUS
 10
4.369780186
 20
178.55
 40
0.2
100
AcDbArc
 50
270.0
 51
350.6906590784
  0
ARC
  5
4F7
100
AcDbEntity
  8
RACCORDO
100
AcDbCircle
 62
7
  6
CONTINUOUS
 10
4.369780186
 20
177.45
 40
0.2
100
AcDbArc
 50
9.3093409216
 51
90.0
  0
ARC
  5
4F8
100
AcDbEntity
  8
RACCORDO
100
AcDbCircle
 62
7
  6
CONTINUOUS
 10
1.9511364755
 20
177.45
 40
0.2
100
AcDbArc
 50
90.0
 51
185.4413964306
  0
ARC
  5
4F9
100
AcDbEntity
  8
RACCORDO
100
AcDbCircle
 62
7
  6
CONTINUOUS
 10
1.9511364755
 20
178.55
 40
0.2
100
AcDbArc
 50
174.5586035694
 51
270.0
  0
ARC
  5
4FA
100
AcDbEntity
  8
RACCORDO
100
AcDbCircle
 62
7
  6
CONTINUOUS
 10
7.725
 20
178.0
 40
6.0
100
AcDbArc
 50
185.4413964306
 51
204.8345874897
  0
ARC
  5
4FB
100
AcDbEntity
  8
RACCORDO
100
AcDbCircle
 62
7
  6
CONTINUOUS
 10
7.725
 20
178.0
 40
6.0
100
AcDbArc
 50
155.1654125103
 51
174.5586035694
  0
ARC
  5
4FC
100
AcDbEntity
  8
RACCORDO
100
AcDbCircle
 62
7
  6
CONTINUOUS
 10
8.075
 20
178.0
 40
4.25
100
AcDbArc
 50
231.3478573985
 51
128.6521426015
  0
ARC
  5
4FD
100
AcDbEntity
  8
SMUSSO
100
AcDbCircle
 62
7
  6
CONTINUOUS
 10
7.725
 20
178.0
 40
3.45
100
AcDbArc
 50
209.591845794
 51
240.408154206
  0
ARC
  5
4FE
100
AcDbEntity
  8
SMUSSO
100
AcDbCircle
 62
7
  6
CONTINUOUS
 10
7.725
 20
178.0
 40
3.45
100
AcDbArc
 50
299.591845794
 51
330.408154206
  0
ARC
  5
4FF
100
AcDbEntity
  8
SMUSSO
100
AcDbCircle
 62
7
  6
CONTINUOUS
 10
7.725
 20
178.0
 40
3.45
100
AcDbArc
 50
119.591845794
 51
150.408154206
  0
ARC
  5
500
100
AcDbEntity
  8
SMUSSO
100
AcDbCircle
 62
7
  6
CONTINUOUS
 10
7.725
 20
178.0
 40
3.45
100
AcDbArc
 50
29.591845794
 51
60.408154206
  0
ARC
  5
501
100
AcDbEntity
  8
RACCORDO
100
AcDbCircle
 62
7
  6
CONTINUOUS
 10
7.725
 20
178.0
 40
3.2
100
AcDbArc
 50
159.6606480692
 51
170.6906590784
  0
ARC
  5
502
100
AcDbEntity
  8
RACCORDO
100
AcDbCircle
 62
7
  6
CONTINUOUS
 10
7.725
 20
178.0
 40
3.2
100
AcDbArc
 50
69.8205807249
 51
110.249745345
  0
ARC
  5
503
100
AcDbEntity
  8
RACCORDO
100
AcDbCircle
 62
7
  6
CONTINUOUS
 10
7.725
 20
178.0
 40
3.2
100
AcDbArc
 50
339.7629460951
 51
20.2363047083
  0
ARC
  5
504
100
AcDbEntity
  8
RACCORDO
100
AcDbCircle
 62
7
  6
CONTINUOUS
 10
7.725
 20
178.0
 40
3.2
100
AcDbArc
 50
249.7511491045
 51
290.1798380683
  0
ARC
  5
505
100
AcDbEntity
  8
RACCORDO
100
AcDbCircle
 62
7
  6
CONTINUOUS
 10
7.725
 20
178.0
 40
3.2
100
AcDbArc
 50
189.3093409216
 51
200.3391799669
  0
CIRCLE
  5
506
100
AcDbEntity
  8
SMUSSO
100
AcDbCircle
 62
7
  6
CONTINUOUS
 10
7.725
 20
178.0
 40
2.8726497308
  0
CIRCLE
  5
507
100
AcDbEntity
  8
0
100
AcDbCircle
 62
7
  6
CONTINUOUS
 10
7.725
 20
178.0
 40
1.75
  0
ARC
  5
508
100
AcDbEntity
  8
0
100
AcDbCircle
 62
7
  6
CONTINUOUS
 10
7.725
 20
178.0
 40
1.5
100
AcDbArc
 50
255.0
 51
195.0
  0
CIRCLE
  5
509
100
AcDbEntity
  8
0
100
AcDbCircle
 62
7
  6
CONTINUOUS
 10
7.725
 20
178.0
 40
1.25
  0
ARC
  5
50A
100
AcDbEntity
  8
0
100
AcDbCircle
 62
7
  6
CONTINUOUS
 10
31.375
 20
190.3
 40
1.05
100
AcDbArc
 50
0.0
 51
90.0
  0
ARC
  5
50B
100
AcDbEntity
  8
0
100
AcDbCircle
 62
7
  6
CONTINUOUS
 10
11.202796223
 20
191.85
 40
0.5
100
AcDbArc
 50
10.0
 51
90.0
  0
ARC
  5
50C
100
AcDbEntity
  8
0
100
AcDbCircle
 62
7
  6
CONTINUOUS
 10
31.375
 20
190.3
 40
0.05
100
AcDbArc
 50
0.0
 51
90.0
  0
CIRCLE
  5
50D
100
AcDbEntity
  8
PUNTI_SALDATURA
100
AcDbCircle
 62
7
  6
HIDDEN
 10
-140.0238763074
 20
-175.35
 40
2.5
  0
CIRCLE
  5
50E
100
AcDbEntity
  8
ASSI
100
AcDbCircle
 62
7
  6
CONTINUOUS
 10
-135.5238763074
 20
-186.25
 40
1.575
  0
ARC
  5
50F
100
AcDbEntity
  8
0
100
AcDbCircle
 62
7
  6
CONTINUOUS
 10
-161.1238763074
 20
-168.35
 40
1.0
100
AcDbArc
 50
180.0
 51
270.0
  0
ARC
  5
510
100
AcDbEntity
  8
0
100
AcDbCircle
 62
7
  6
CONTINUOUS
 10
-161.1238763074
 20
-160.35
 40
1.0
100
AcDbArc
 50
90.0
 51
180.0
  0
ARC
  5
511
100
AcDbEntity
  8
0
100
AcDbCircle
 62
7
  6
CONTINUOUS
 10
-162.3238763074
 20
-166.85
 40
1.0
100
AcDbArc
 50
180.0
 51
270.0
  0
ARC
  5
512
100
AcDbEntity
  8
0
100
AcDbCircle
 62
7
  6
CONTINUOUS
 10
-162.3238763074
 20
-161.85
 40
1.0
100
AcDbArc
 50
90.0
 51
180.0
  0
CIRCLE
  5
513
100
AcDbEntity
  8
PUNTI_SALDATURA
100
AcDbCircle
 62
7
  6
HIDDEN
 10
-140.0238763074
 20
175.35
 40
2.5
  0
CIRCLE
  5
514
100
AcDbEntity
  8
ASSI
100
AcDbCircle
 62
7
  6
CONTINUOUS
 10
-135.5238763074
 20
186.25
 40
1.575
  0
ARC
  5
515
100
AcDbEntity
  8
0
100
AcDbCircle
 62
7
  6
CONTINUOUS
 10
-161.1238763074
 20
160.35
 40
1.0
100
AcDbArc
 50
180.0
 51
270.0
  0
ARC
  5
516
100
AcDbEntity
  8
0
100
AcDbCircle
 62
7
  6
CONTINUOUS
 10
-161.1238763074
 20
168.35
 40
1.0
100
AcDbArc
 50
90.0
 51
180.0
  0
ARC
  5
517
100
AcDbEntity
  8
0
100
AcDbCircle
 62
7
  6
CONTINUOUS
 10
-162.3238763074
 20
161.85
 40
1.0
100
AcDbArc
 50
180.0
 51
270.0
  0
ARC
  5
518
100
AcDbEntity
  8
0
100
AcDbCircle
 62
7
  6
CONTINUOUS
 10
-162.3238763074
 20
166.85
 40
1.0
100
AcDbArc
 50
90.0
 51
180.0
  0
ARC
  5
519
100
AcDbEntity
  8
ASSI
100
AcDbCircle
 62
7
  6
CONTINUOUS
 10
-125.5238763074
 20
-115.0
 40
12.65
100
AcDbArc
 50
183.1721377345
 51
356.8278622655
  0
ARC
  5
51A
100
AcDbEntity
  8
ASSI
100
AcDbCircle
 62
7
  6
CONTINUOUS
 10
-125.5238763074
 20
-115.0
 40
12.65
100
AcDbArc
 50
3.1721377345
 51
176.8278622655
  0
ARC
  5
51B
100
AcDbEntity
  8
ASSI
100
AcDbCircle
 62
7
  6
CONTINUOUS
 10
-125.5238763074
 20
-115.0
 40
12.15
100
AcDbArc
 50
183.3028202963
 51
356.6971797037
  0
ARC
  5
51C
100
AcDbEntity
  8
ASSI
100
AcDbCircle
 62
7
  6
CONTINUOUS
 10
-125.5238763074
 20
-115.0
 40
12.15
100
AcDbArc
 50
3.3028202963
 51
176.6971797037
  0
CIRCLE
  5
51D
100
AcDbEntity
  8
PUNTI_SALDATURA
100
AcDbCircle
 62
7
  6
HIDDEN
 10
-114.0238763074
 20
-163.35
 40
2.5
  0
CIRCLE
  5
51E
100
AcDbEntity
  8
ASSI
100
AcDbCircle
 62
7
  6
CONTINUOUS
 10
-115.5238763074
 20
-186.25
 40
1.575
  0
CIRCLE
  5
51F
100
AcDbEntity
  8
ASSI
100
AcDbCircle
 62
7
  6
CONTINUOUS
 10
-125.5238763074
 20
-186.25
 40
1.5
  0
CIRCLE
  5
520
100
AcDbEntity
  8
ASSI
100
AcDbCircle
 62
7
  6
CONTINUOUS
 10
-125.5238763074
 20
-186.25
 40
1.25
  0
ARC
  5
521
100
AcDbEntity
  8
0
100
AcDbCircle
 62
7
  6
CONTINUOUS
 10
-106.5738763074
 20
-190.3
 40
1.05
100
AcDbArc
 50
270.0
 51
360.0
  0
ARC
  5
522
100
AcDbEntity
  8
0
100
AcDbCircle
 62
7
  6
CONTINUOUS
 10
-133.9238763074
 20
-162.65
 40
0.8
100
AcDbArc
 50
0.0
 51
90.0
  0
ARC
  5
523
100
AcDbEntity
  8
0
100
AcDbCircle
 62
7
  6
CONTINUOUS
 10
-133.9238763074
 20
-166.05
 40
0.8
100
AcDbArc
 50
270.0
 51
360.0
  0
ARC
  5
524
100
AcDbEntity
  8
0
100
AcDbCircle
 62
7
  6
CONTINUOUS
 10
-134.3238763074
 20
-166.05
 40
0.8
100
AcDbArc
 50
180.0
 51
270.0
  0
ARC
  5
525
100
AcDbEntity
  8
0
100
AcDbCircle
 62
7
  6
CONTINUOUS
 10
-134.3238763074
 20
-162.65
 40
0.8
100
AcDbArc
 50
90.0
 51
180.0
  0
ARC
  5
526
100
AcDbEntity
  8
0
100
AcDbCircle
 62
7
  6
CONTINUOUS
 10
-106.5738763074
 20
-190.3
 40
0.05
100
AcDbArc
 50
270.0
 51
360.0
  0
ARC
  5
527
100
AcDbEntity
  8
ASSI
100
AcDbCircle
 62
7
  6
CONTINUOUS
 10
-125.5238763074
 20
115.0
 40
12.65
100
AcDbArc
 50
3.1721377345
 51
176.8278622655
  0
ARC
  5
528
100
AcDbEntity
  8
ASSI
100
AcDbCircle
 62
7
  6
CONTINUOUS
 10
-125.5238763074
 20
115.0
 40
12.65
100
AcDbArc
 50
183.1721377345
 51
356.8278622655
  0
ARC
  5
529
100
AcDbEntity
  8
ASSI
100
AcDbCircle
 62
7
  6
CONTINUOUS
 10
-125.5238763074
 20
115.0
 40
12.15
100
AcDbArc
 50
3.3028202963
 51
176.6971797037
  0
ARC
  5
52A
100
AcDbEntity
  8
ASSI
100
AcDbCircle
 62
7
  6
CONTINUOUS
 10
-125.5238763074
 20
115.0
 40
12.15
100
AcDbArc
 50
183.3028202963
 51
356.6971797037
  0
CIRCLE
  5
52B
100
AcDbEntity
  8
PUNTI_SALDATURA
100
AcDbCircle
 62
7
  6
HIDDEN
 10
-114.0238763074
 20
163.35
 40
2.5
  0
CIRCLE
  5
52C
100
AcDbEntity
  8
ASSI
100
AcDbCircle
 62
7
  6
CONTINUOUS
 10
-115.5238763074
 20
186.25
 40
1.575
  0
CIRCLE
  5
52D
100
AcDbEntity
  8
ASSI
100
AcDbCircle
 62
7
  6
CONTINUOUS
 10
-125.5238763074
 20
186.25
 40
1.5
  0
CIRCLE
  5
52E
100
AcDbEntity
  8
ASSI
100
AcDbCircle
 62
7
  6
CONTINUOUS
 10
-125.5238763074
 20
186.25
 40
1.25
  0
ARC
  5
52F
100
AcDbEntity
  8
0
100
AcDbCircle
 62
7
  6
CONTINUOUS
 10
-106.5738763074
 20
190.3
 40
1.05
100
AcDbArc
 50
0.0
 51
90.0
  0
ARC
  5
530
100
AcDbEntity
  8
0
100
AcDbCircle
 62
7
  6
CONTINUOUS
 10
-133.9238763074
 20
166.05
 40
0.8
100
AcDbArc
 50
0.0
 51
90.0
  0
ARC
  5
531
100
AcDbEntity
  8
0
100
AcDbCircle
 62
7
  6
CONTINUOUS
 10
-133.9238763074
 20
162.65
 40
0.8
100
AcDbArc
 50
270.0
 51
360.0
  0
ARC
  5
532
100
AcDbEntity
  8
0
100
AcDbCircle
 62
7
  6
CONTINUOUS
 10
-134.3238763074
 20
162.65
 40
0.8
100
AcDbArc
 50
180.0
 51
270.0
  0
ARC
  5
533
100
AcDbEntity
  8
0
100
AcDbCircle
 62
7
  6
CONTINUOUS
 10
-134.3238763074
 20
166.05
 40
0.8
100
AcDbArc
 50
90.0
 51
180.0
  0
ARC
  5
534
100
AcDbEntity
  8
0
100
AcDbCircle
 62
7
  6
CONTINUOUS
 10
-106.5738763074
 20
190.3
 40
0.05
100
AcDbArc
 50
0.0
 51
90.0
  0
ENDSEC
  0
SECTION
  2
OBJECTS
  0
DICTIONARY
  5
C
100
AcDbDictionary
280
0
281
1
  3
ACAD_GROUP
350
D
  3
ACAD_MLINESTYLE
350
17
  3
ACAD_LAYOUT
350
1A
  3
ACAD_PLOTSETTINGS
350
19
  3
ACAD_PLOTSTYLENAME
350
E
  0
DICTIONARY
  5
D
102
{ACAD_REACTORS
330
C
102
}
100
AcDbDictionary
280
0
281
1
  0
ACDBDICTIONARYWDFLT
  5
E
102
{ACAD_REACTORS
330
C
102
}
100
AcDbDictionary
281
1
  3
Normal
350
F
100
AcDbDictionaryWithDefault
340
F
  0
DICTIONARY
  5
17
102
{ACAD_REACTORS
330
C
102
}
100
AcDbDictionary
280
0
281
1
  3
Standard
350
18
  0
DICTIONARY
  5
19
102
{ACAD_REACTORS
330
C
102
}
100
AcDbDictionary
281
1
  0
DICTIONARY
  5
1A
102
{ACAD_REACTORS
330
C
102
}
100
AcDbDictionary
281
1
  3
Model
350
535
  3
Layout1
350
536
  0
ACDBPLACEHOLDER
  5
F
102
{ACAD_REACTORS
330
E
102
}
  0
MLINESTYLE
  5
18
102
{ACAD_REACTORS
330
17
102
}
100
AcDbMlineStyle
  2
STANDARD
 70
0
  3

 62
256
 51
90.0
 52
90.0
 71
2
 49
0.5
 62
256
  6
BYLAYER
 49
-0.5
 62
256
  6
BYLAYER
  0
LAYOUT
  5
535
102
{ACAD_REACTORS
330
1A
102
}
100
AcDbPlotSettings
  1

  2
none_device
  4
ISO_A4_(297.00_x_210.00_MM)
  6

 40
0.0
 41
0.0
 42
0.0
 43
0.0
 44
297.0
 45
210.0
 46
0.0
 47
0.0
 48
0.0
 49
0.0
140
0.0
141
0.0
142
1.0
143
1.0
 70
1024
 72
1
 73
0
 74
0
  7

 75
0
147
1.0
148
0.0
149
0.0
100
AcDbLayout
  1
Model
 70
0
 71
0
 10
0.0
 20
0.0
 11
297.0
 21
210.0
 12
0.0
 22
0.0
 32
0.0
 14
0.0
 24
0.0
 34
0.0
 15
0.0
 25
0.0
 35
0.0
146
0.0
 13
0.0
 23
0.0
 33
0.0
 16
1.0
 26
0.0
 36
0.0
 17
0.0
 27
1.0
 37
0.0
 76
0
330
213
345
0
346
0
  0
LAYOUT
  5
536
102
{ACAD_REACTORS
330
1A
102
}
100
AcDbPlotSettings
  1

  2
none_device
  4
ISO_A4_(297.00_x_210.00_MM)
  6

 40
0.0
 41
0.0
 42
0.0
 43
0.0
 44
297.0
 45
210.0
 46
0.0
 47
0.0
 48
0.0
 49
0.0
140
0.0
141
0.0
142
1.0
143
1.0
 70
0
 72
1
 73
0
 74
0
  7

 75
0
147
1.0
148
0.0
149
0.0
100
AcDbLayout
  1
Layout1
 70
0
 71
1
 10
0.0
 20
0.0
 11
297.0
 21
210.0
 12
0.0
 22
0.0
 32
0.0
 14
0.0
 24
0.0
 34
0.0
 15
0.0
 25
0.0
 35
0.0
146
0.0
 13
0.0
 23
0.0
 33
0.0
 16
1.0
 26
0.0
 36
0.0
 17
0.0
 27
1.0
 37
0.0
 76
0
330
214
345
0
346
0
  0
ENDSEC
  0
EOF
