  0
SECTION
  2
HEADER
  9
$ACADVER
  1
AC1024
  9
$DWGCODEPAGE
  3
ANSI_1252
  9
$EXTMAX
 10
297.0
 20
210.0
 30
0.0
  9
$EXTMIN
 10
0.0
 20
0.0
 30
0.0
  9
$LIMMIN
 10
0.0
 20
0.0
  9
$LIMMAX
 10
297.0
 20
210.0
  9
$VIEWCTR
 10
148.5
 20
105.0
  9
$VIEWSIZE
 40
210.0
  9
$CLAYER
  8
0
  9
$LTSCALE
 40
16.335
  9
$CELTYPE
  6
BYLAYER
  9
$DIMSCALE
 40
1.0
  9
$DIMASZ
 40
3.0
  9
$DIMEXO
 40
0.5
  9
$DIMDLI
 40
11.286
  9
$DIMEXE
 40
1.5
  9
$DIMCEN
 40
2.673
  9
$DIMLFAC
 40
1.0
  9
$DIMBLK
  1
_FILLED
  9
$DIMALT
 70
0
  9
$DIMALTF
 40
0.0393700787
  9
$DIMTXT
 40
3.0
  9
$DIMTOL
 70
1
  9
$DIMLIM
 70
0
  9
$DIMTFAC
 40
1.0
  9
$DIMTP
 40
0.01
  9
$DIMTM
 40
0.01
  9
$DIMGAP
 40
0.625
  9
$DIMDSEP
 70
44
  9
$AUNITS
 70
0
  9
$PDMODE
 70
3
  9
$PDSIZE
 40
3.0
  9
$HANDSEED
  5
582
  9
$TILEMODE
 70
1
  9
$MEASUREMENT
 70
1
  9
$INSUNITS
 70
4
  0
ENDSEC
  0
SECTION
  2
CLASSES
  0
CLASS
  1
ACDBDICTIONARYWDFLT
  2
AcDbDictionaryWithDefault
  3
AutoCAD 2000
 90
0
 91
1
280
0
281
0
  0
CLASS
  1
ACDBPLACEHOLDER
  2
AcDbPlaceHolder
  3
AutoCAD 2000
 90
0
 91
1
280
0
281
0
  0
CLASS
  1
LAYOUT
  2
AcDbLayout
  3
AutoCAD 2000
 90
0
 91
0
280
0
281
0
  0
ENDSEC
  0
SECTION
  2
TABLES
  0
TABLE
  2
VPORT
  5
8
100
AcDbSymbolTable
 70
2
  0
VPORT
  5
1F4
100
AcDbSymbolTableRecord
100
AcDbViewportTableRecord
  2
*ACTIVE
 70
0
 10
0.0
 20
0.0
 11
1.0
 21
1.0
 12
148.5
 22
105.0
 13
0.0
 23
0.0
 14
1.0
 24
1.0
 15
0.0
 25
0.0
 16
0.0
 26
0.0
 36
1.0
 17
0.0
 27
0.0
 37
0.0
 40
210.0
 41
1.4142857143
 42
50.0
 43
0.0
 44
0.0
 50
0.0
 51
0.0
 71
0
 72
100
 73
1
 74
1
 75
0
 76
0
 77
0
 78
0
  0
ENDTAB
  0
TABLE
  2
LTYPE
  5
5
100
AcDbSymbolTable
 70
6
  0
LTYPE
  5
14
100
AcDbSymbolTableRecord
100
AcDbLinetypeTableRecord
  2
BYBLOCK
 70
0
  3

 72
65
 73
0
 40
0.0
  0
LTYPE
  5
15
100
AcDbSymbolTableRecord
100
AcDbLinetypeTableRecord
  2
BYLAYER
 70
0
  3

 72
65
 73
0
 40
0.0
  0
LTYPE
  5
16
100
AcDbSymbolTableRecord
100
AcDbLinetypeTableRecord
  2
CONTINUOUS
 70
64
  3
Solid line
 72
65
 73
0
 40
0.0
  0
LTYPE
  5
1F5
100
AcDbSymbolTableRecord
100
AcDbLinetypeTableRecord
  2
CENTER
 70
64
  3
____ _ ____ _ ____ _ ____ _ ____ _ ____ _ ____
 72
65
 73
4
 40
0.6
 49
0.375
 74
0
 49
-0.075
 74
0
 49
0.075
 74
0
 49
-0.075
 74
0
  0
LTYPE
  5
1F6
100
AcDbSymbolTableRecord
100
AcDbLinetypeTableRecord
  2
HIDDEN
 70
64
  3
- - - - - - - - - - - - - - - - - - - -
 72
65
 73
2
 40
0.2
 49
0.1
 74
0
 49
-0.1
 74
0
  0
LTYPE
  5
1F7
100
AcDbSymbolTableRecord
100
AcDbLinetypeTableRecord
  2
PHANTOM
 70
64
  3
_____ _ _ _____ _ _ _____ _ _ _____
 72
65
 73
6
 40
0.8
 49
0.45
 74
0
 49
-0.05
 74
0
 49
0.1
 74
0
 49
-0.05
 74
0
 49
0.1
 74
0
 49
-0.05
 74
0
  0
LTYPE
  5
1F8
100
AcDbSymbolTableRecord
100
AcDbLinetypeTableRecord
  2
DOT
 70
64
  3
. . . . . . . . . . . . . . . . . . . .
 72
65
 73
2
 40
0.2
 49
0.1
 74
0
 49
-0.1
 74
0
  0
LTYPE
  5
1F9
100
AcDbSymbolTableRecord
100
AcDbLinetypeTableRecord
  2
DASHED
 70
64
  3
- - - - - - - - - - - - - - - - - - - -
 72
65
 73
2
 40
0.2
 49
0.1
 74
0
 49
-0.1
 74
0
  0
ENDTAB
  0
TABLE
  2
LAYER
  5
2
100
AcDbSymbolTable
 70
36
  0
LAYER
  5
10
100
AcDbSymbolTableRecord
100
AcDbLayerTableRecord
  2
0
 70
0
 62
7
  6
CONTINUOUS
370
-3
390
F
  0
LAYER
  5
1FA
100
AcDbSymbolTableRecord
100
AcDbLayerTableRecord
  2
DEFAULT_1
 70
0
 62
7
  6
CENTER
370
-3
390
F
  0
LAYER
  5
1FB
100
AcDbSymbolTableRecord
100
AcDbLayerTableRecord
  2
DEFAULT_2
 70
0
 62
7
  6
HIDDEN
370
-3
390
F
  0
LAYER
  5
1FC
100
AcDbSymbolTableRecord
100
AcDbLayerTableRecord
  2
DEFAULT_3
 70
0
 62
7
  6
PHANTOM
370
-3
390
F
  0
LAYER
  5
1FD
100
AcDbSymbolTableRecord
100
AcDbLayerTableRecord
  2
ASSI
 70
0
 62
7
  6
CONTINUOUS
370
-3
390
F
  0
LAYER
  5
1FE
100
AcDbSymbolTableRecord
100
AcDbLayerTableRecord
  2
COLOR5
 70
0
 62
7
  6
CONTINUOUS
370
-3
390
F
  0
LAYER
  5
1FF
100
AcDbSymbolTableRecord
100
AcDbLayerTableRecord
  2
COORDINATE
 70
0
 62
7
  6
CONTINUOUS
370
-3
390
F
  0
LAYER
  5
200
100
AcDbSymbolTableRecord
100
AcDbLayerTableRecord
  2
COORD_ORIGINE
 70
0
 62
7
  6
CONTINUOUS
370
-3
390
F
  0
LAYER
  5
201
100
AcDbSymbolTableRecord
100
AcDbLayerTableRecord
  2
COPY_PUBLISH
 70
0
 62
7
  6
CONTINUOUS
370
-3
390
F
  0
LAYER
  5
202
100
AcDbSymbolTableRecord
100
AcDbLayerTableRecord
  2
COSMETICI
 70
0
 62
7
  6
CONTINUOUS
370
-3
390
F
  0
LAYER
  5
203
100
AcDbSymbolTableRecord
100
AcDbLayerTableRecord
  2
CURVE
 70
0
 62
7
  6
CONTINUOUS
370
-3
390
F
  0
LAYER
  5
204
100
AcDbSymbolTableRecord
100
AcDbLayerTableRecord
  2
DRAFT
 70
0
 62
7
  6
CONTINUOUS
370
-3
390
F
  0
LAYER
  5
205
100
AcDbSymbolTableRecord
100
AcDbLayerTableRecord
  2
IMPORT_IGES
 70
0
 62
7
  6
CONTINUOUS
370
-3
390
F
  0
LAYER
  5
206
100
AcDbSymbolTableRecord
100
AcDbLayerTableRecord
  2
NOTE
 70
0
 62
7
  6
CONTINUOUS
370
-3
390
F
  0
LAYER
  5
207
100
AcDbSymbolTableRecord
100
AcDbLayerTableRecord
  2
PIANI
 70
0
 62
7
  6
CONTINUOUS
370
-3
390
F
  0
LAYER
  5
208
100
AcDbSymbolTableRecord
100
AcDbLayerTableRecord
  2
PIANI_ORIGINE
 70
0
 62
7
  6
CONTINUOUS
370
-3
390
F
  0
LAYER
  5
209
100
AcDbSymbolTableRecord
100
AcDbLayerTableRecord
  2
PUNTI
 70
0
 62
7
  6
CONTINUOUS
370
-3
390
F
  0
LAYER
  5
20A
100
AcDbSymbolTableRecord
100
AcDbLayerTableRecord
  2
PUNTI_SALDATURA
 70
0
 62
7
  6
CONTINUOUS
370
-3
390
F
  0
LAYER
  5
20B
100
AcDbSymbolTableRecord
100
AcDbLayerTableRecord
  2
RACCORDO
 70
0
 62
7
  6
CONTINUOUS
370
-3
390
F
  0
LAYER
  5
20C
100
AcDbSymbolTableRecord
100
AcDbLayerTableRecord
  2
SIMBOLI
 70
0
 62
7
  6
CONTINUOUS
370
-3
390
F
  0
LAYER
  5
20D
100
AcDbSymbolTableRecord
100
AcDbLayerTableRecord
  2
SMUSSO
 70
0
 62
7
  6
CONTINUOUS
370
-3
390
F
  0
LAYER
  5
20E
100
AcDbSymbolTableRecord
100
AcDbLayerTableRecord
  2
SNAPLINE
 70
0
 62
7
  6
CONTINUOUS
370
-3
390
F
  0
LAYER
  5
20F
100
AcDbSymbolTableRecord
100
AcDbLayerTableRecord
  2
SUPERFICI
 70
0
 62
7
  6
CONTINUOUS
370
-3
390
F
  0
LAYER
  5
210
100
AcDbSymbolTableRecord
100
AcDbLayerTableRecord
  2
TRASH
 70
0
 62
7
  6
CONTINUOUS
370
-3
390
F
  0
ENDTAB
  0
TABLE
  2
STYLE
  5
3
100
AcDbSymbolTable
 70
1
  0
STYLE
  5
11
100
AcDbSymbolTableRecord
100
AcDbTextStyleTableRecord
  2
STANDARD
 70
0
 40
0.0
 41
0.8
 50
0.0
 71
0
 42
0.2
  3
txt
  4

  0
STYLE
  5
211
100
AcDbSymbolTableRecord
100
AcDbTextStyleTableRecord
  2
TEXTSTYLE_1
 70
0
 40
0.0
 41
0.8
 50
0.0
 71
0
 42
0.2
  3
gdt
  4

  0
ENDTAB
  0
TABLE
  2
VIEW
  5
6
100
AcDbSymbolTable
 70
0
  0
ENDTAB
  0
TABLE
  2
UCS
  5
7
100
AcDbSymbolTable
 70
0
  0
ENDTAB
  0
TABLE
  2
APPID
  5
9
100
AcDbSymbolTable
 70
1
  0
APPID
  5
212
100
AcDbSymbolTableRecord
100
AcDbRegAppTableRecord
  2
ACAD
 70
0
  0
ENDTAB
  0
TABLE
  2
BLOCK_RECORD
  5
1
100
AcDbSymbolTable
 70
0
  0
BLOCK_RECORD
  5
213
100
AcDbSymbolTableRecord
100
AcDbBlockTableRecord
  2
*Model_Space
  0
BLOCK_RECORD
  5
214
100
AcDbSymbolTableRecord
100
AcDbBlockTableRecord
  2
*Paper_Space
  0
BLOCK_RECORD
  5
215
100
AcDbSymbolTableRecord
100
AcDbBlockTableRecord
  2
_FILLED
  0
BLOCK_RECORD
  5
216
100
AcDbSymbolTableRecord
100
AcDbBlockTableRecord
  2
*D0
  0
BLOCK_RECORD
  5
217
100
AcDbSymbolTableRecord
100
AcDbBlockTableRecord
  2
*D1
  0
BLOCK_RECORD
  5
218
100
AcDbSymbolTableRecord
100
AcDbBlockTableRecord
  2
*D2
  0
BLOCK_RECORD
  5
219
100
AcDbSymbolTableRecord
100
AcDbBlockTableRecord
  2
*D3
  0
BLOCK_RECORD
  5
21A
100
AcDbSymbolTableRecord
100
AcDbBlockTableRecord
  2
*D4
  0
BLOCK_RECORD
  5
21B
100
AcDbSymbolTableRecord
100
AcDbBlockTableRecord
  2
*D5
  0
BLOCK_RECORD
  5
21C
100
AcDbSymbolTableRecord
100
AcDbBlockTableRecord
  2
*D6
  0
ENDTAB
  0
TABLE
  2
DIMSTYLE
  5
A
100
AcDbSymbolTable
 70
1
100
AcDbDimStyleTable
 71
0
  0
DIMSTYLE
105
21D
100
AcDbSymbolTableRecord
100
AcDbDimStyleTableRecord
  2
STANDARD
 70
0
  3

  4

 40
1.0
 41
3.0
 42
0.5
 43
0.38
 44
1.5
 45
0.0
 46
0.0
 47
0.01
 48
0.01
140
3.0
141
0.09
142
0.0
143
25.4
144
1.0
145
0.0
146
1.0
147
0.625
 71
1.0
 72
0.0
 73
0
 74
0
 75
0
 76
0
 77
1
 78
8
 79
2
170
0
171
1
172
0
173
0
174
0
175
0
176
0
177
0
178
0
270
2
179
2
271
2
272
2
273
2
274
2
275
0
280
0
281
0
282
0
283
1
284
8
285
0
286
0
287
3
288
0
340
11
278
44
341
215
342
215
343
215
344
215
  0
DIMSTYLE
105
21E
100
AcDbSymbolTableRecord
100
AcDbDimStyleTableRecord
  2
DIMSTYLE_1
 70
0
  3

  4

 40
1.0
 41
3.0
 42
0.5
 43
0.38
 44
1.5
 45
0.0
 46
0.0
 47
0.0
 48
0.0
140
3.0
141
0.09
142
0.0
143
25.4
144
1.0
145
0.0
146
1.0
147
0.75
 71
0.0
 72
0.0
 73
0
 74
0
 75
0
 76
0
 77
1
 78
8
 79
2
170
0
171
1
172
0
173
0
174
0
175
0
176
0
177
0
178
0
270
2
179
2
271
2
272
2
273
2
274
2
275
0
280
0
281
0
282
0
283
1
284
8
285
0
286
0
287
3
288
0
340
11
278
44
341
215
342
215
343
215
344
215
  0
ENDTAB
  0
ENDSEC
  0
SECTION
  2
BLOCKS
  0
BLOCK
  5
20
100
AcDbEntity
  8
0
100
AcDbBlockBegin
  2
*Model_Space
 70
0
 10
0.0
 20
0.0
 30
0.0
  3
*Model_Space
  1

  0
ENDBLK
  5
21
100
AcDbEntity
  8
0
100
AcDbBlockEnd
  0
BLOCK
  5
1C
100
AcDbEntity
  8
0
100
AcDbBlockBegin
  2
*Paper_Space
 70
0
 10
0.0
 20
0.0
 30
0.0
  3
*Paper_Space
  1

  0
ENDBLK
  5
1D
100
AcDbEntity
  8
0
100
AcDbBlockEnd
  0
BLOCK
  5
21F
100
AcDbEntity
  8
0
100
AcDbBlockBegin
  2
_FILLED
 70
64
 10
0.0
 20
0.0
  3
_FILLED
  1

  0
SOLID
  5
220
100
AcDbEntity
  8
0
  6
BYBLOCK
 62
0
100
AcDbTrace
 10
0.0
 20
0.0
 11
-1.0
 21
0.3166666667
 12
-1.0
 22
-0.3166666667
 13
-1.0
 23
-0.3166666667
  0
ENDBLK
  5
221
100
AcDbEntity
  8
0
  6
BYBLOCK
 62
0
100
AcDbBlockEnd
  0
BLOCK
  5
222
100
AcDbEntity
  8
0
100
AcDbBlockBegin
 62
7
  6
CONTINUOUS
  2
*D0
 70
65
 10
0.0
 20
0.0
  3
*D0
  1

  0
LINE
  5
223
100
AcDbEntity
  8
0
100
AcDbLine
 62
7
  6
CONTINUOUS
 10
-67.475
 20
248.05
 11
-67.475
 21
263.2000915544
  0
LINE
  5
224
100
AcDbEntity
  8
0
100
AcDbLine
 62
7
  6
CONTINUOUS
 10
32.425
 20
248.05
 11
32.425
 21
263.2000915544
  0
LINE
  5
225
100
AcDbEntity
  8
0
100
AcDbLine
 62
7
  6
CONTINUOUS
 10
-67.475
 20
261.7000915544
 11
-17.525
 21
261.7000915544
  0
LINE
  5
226
100
AcDbEntity
  8
0
100
AcDbLine
 62
7
  6
CONTINUOUS
 10
32.425
 20
261.7000915544
 11
-17.525
 21
261.7000915544
  0
INSERT
  5
227
100
AcDbEntity
  8
0
100
AcDbBlockReference
 62
7
  6
CONTINUOUS
  2
_FILLED
 10
-67.475
 20
261.7000915544
 41
3.0
 42
3.0
 43
3.0
 50
180.0
  0
INSERT
  5
228
100
AcDbEntity
  8
0
100
AcDbBlockReference
 62
7
  6
CONTINUOUS
  2
_FILLED
 10
32.425
 20
261.7000915544
 41
3.0
 42
3.0
 43
3.0
  0
ENDBLK
  5
229
100
AcDbEntity
  8
0
  6
BYBLOCK
 62
0
100
AcDbBlockEnd
  0
BLOCK
  5
22A
100
AcDbEntity
  8
0
100
AcDbBlockBegin
 62
7
  6
CONTINUOUS
  2
*D1
 70
65
 10
0.0
 20
0.0
  3
*D1
  1

  0
LINE
  5
22B
100
AcDbEntity
  8
0
100
AcDbLine
 62
7
  6
CONTINUOUS
 10
11.702796223
 20
249.6
 11
63.9730904309
 21
249.6
  0
LINE
  5
22C
100
AcDbEntity
  8
0
100
AcDbLine
 62
7
  6
CONTINUOUS
 10
18.5554381211
 20
-249.6
 11
63.9730904309
 21
-249.6
  0
LINE
  5
22D
100
AcDbEntity
  8
0
100
AcDbLine
 62
7
  6
CONTINUOUS
 10
62.4730904309
 20
249.6
 11
62.4730904309
 21
0.0
  0
LINE
  5
22E
100
AcDbEntity
  8
0
100
AcDbLine
 62
7
  6
CONTINUOUS
 10
62.4730904309
 20
-249.6
 11
62.4730904309
 21
0.0
  0
INSERT
  5
22F
100
AcDbEntity
  8
0
100
AcDbBlockReference
 62
7
  6
CONTINUOUS
  2
_FILLED
 10
62.4730904309
 20
249.6
 41
3.0
 42
3.0
 43
3.0
 50
90.0
  0
INSERT
  5
230
100
AcDbEntity
  8
0
100
AcDbBlockReference
 62
7
  6
CONTINUOUS
  2
_FILLED
 10
62.4730904309
 20
-249.6
 41
3.0
 42
3.0
 43
3.0
 50
270.0
  0
ENDBLK
  5
231
100
AcDbEntity
  8
0
  6
BYBLOCK
 62
0
100
AcDbBlockEnd
  0
BLOCK
  5
232
100
AcDbEntity
  8
0
100
AcDbBlockBegin
 62
7
  6
CONTINUOUS
  2
*D2
 70
65
 10
0.0
 20
0.0
  3
*D2
  1

  0
LINE
  5
233
100
AcDbEntity
  8
0
100
AcDbLine
 62
7
  6
CONTINUOUS
 10
-104.142735672
 20
248.05
 11
-104.142735672
 21
273.2000915544
  0
LINE
  5
234
100
AcDbEntity
  8
0
100
AcDbLine
 62
7
  6
CONTINUOUS
 10
-164.742735672
 20
248.05
 11
-164.742735672
 21
273.2000915544
  0
LINE
  5
235
100
AcDbEntity
  8
0
100
AcDbLine
 62
7
  6
CONTINUOUS
 10
-104.142735672
 20
271.7000915544
 11
-134.442735672
 21
271.7000915544
  0
LINE
  5
236
100
AcDbEntity
  8
0
100
AcDbLine
 62
7
  6
CONTINUOUS
 10
-164.742735672
 20
271.7000915544
 11
-134.442735672
 21
271.7000915544
  0
INSERT
  5
237
100
AcDbEntity
  8
0
100
AcDbBlockReference
 62
7
  6
CONTINUOUS
  2
_FILLED
 10
-104.142735672
 20
271.7000915544
 41
3.0
 42
3.0
 43
3.0
  0
INSERT
  5
238
100
AcDbEntity
  8
0
100
AcDbBlockReference
 62
7
  6
CONTINUOUS
  2
_FILLED
 10
-164.742735672
 20
271.7000915544
 41
3.0
 42
3.0
 43
3.0
 50
180.0
  0
ENDBLK
  5
239
100
AcDbEntity
  8
0
  6
BYBLOCK
 62
0
100
AcDbBlockEnd
  0
BLOCK
  5
23A
100
AcDbEntity
  8
0
100
AcDbBlockBegin
 62
7
  6
CONTINUOUS
  2
*D3
 70
65
 10
0.0
 20
0.0
  3
*D3
  1

  0
LINE
  5
23B
100
AcDbEntity
  8
0
100
AcDbLine
 62
7
  6
CONTINUOUS
 10
-104.142735672
 20
248.05
 11
-104.142735672
 21
263.2000915544
  0
LINE
  5
23C
100
AcDbEntity
  8
0
100
AcDbLine
 62
7
  6
CONTINUOUS
 10
-124.142735672
 20
170.5
 11
-124.142735672
 21
263.2000915544
  0
LINE
  5
23D
100
AcDbEntity
  8
0
100
AcDbLine
 62
7
  6
CONTINUOUS
 10
-104.142735672
 20
261.7000915544
 11
-114.142735672
 21
261.7000915544
  0
LINE
  5
23E
100
AcDbEntity
  8
0
100
AcDbLine
 62
7
  6
CONTINUOUS
 10
-124.142735672
 20
261.7000915544
 11
-114.142735672
 21
261.7000915544
  0
INSERT
  5
23F
100
AcDbEntity
  8
0
100
AcDbBlockReference
 62
7
  6
CONTINUOUS
  2
_FILLED
 10
-104.142735672
 20
261.7000915544
 41
3.0
 42
3.0
 43
3.0
  0
INSERT
  5
240
100
AcDbEntity
  8
0
100
AcDbBlockReference
 62
7
  6
CONTINUOUS
  2
_FILLED
 10
-124.142735672
 20
261.7000915544
 41
3.0
 42
3.0
 43
3.0
 50
180.0
  0
ENDBLK
  5
241
100
AcDbEntity
  8
0
  6
BYBLOCK
 62
0
100
AcDbBlockEnd
  0
BLOCK
  5
242
100
AcDbEntity
  8
0
100
AcDbBlockBegin
 62
7
  6
CONTINUOUS
  2
*D4
 70
65
 10
0.0
 20
0.0
  3
*D4
  1

  0
LINE
  5
243
100
AcDbEntity
  8
0
100
AcDbLine
 62
7
  6
CONTINUOUS
 10
-124.642735672
 20
170.0
 11
-179.6873143315
 21
170.0
  0
LINE
  5
244
100
AcDbEntity
  8
0
100
AcDbLine
 62
7
  6
CONTINUOUS
 10
-124.642735672
 20
0.0
 11
-179.6873143315
 21
0.0
  0
LINE
  5
245
100
AcDbEntity
  8
0
100
AcDbLine
 62
7
  6
CONTINUOUS
 10
-178.1873143315
 20
170.0
 11
-178.1873143315
 21
85.0
  0
LINE
  5
246
100
AcDbEntity
  8
0
100
AcDbLine
 62
7
  6
CONTINUOUS
 10
-178.1873143315
 20
0.0
 11
-178.1873143315
 21
85.0
  0
INSERT
  5
247
100
AcDbEntity
  8
0
100
AcDbBlockReference
 62
7
  6
CONTINUOUS
  2
_FILLED
 10
-178.1873143315
 20
170.0
 41
3.0
 42
3.0
 43
3.0
 50
90.0
  0
INSERT
  5
248
100
AcDbEntity
  8
0
100
AcDbBlockReference
 62
7
  6
CONTINUOUS
  2
_FILLED
 10
-178.1873143315
 20
0.0
 41
3.0
 42
3.0
 43
3.0
 50
270.0
  0
ENDBLK
  5
249
100
AcDbEntity
  8
0
  6
BYBLOCK
 62
0
100
AcDbBlockEnd
  0
BLOCK
  5
24A
100
AcDbEntity
  8
0
100
AcDbBlockBegin
 62
7
  6
CONTINUOUS
  2
*D5
 70
65
 10
0.0
 20
0.0
  3
*D5
  1

  0
LINE
  5
24B
100
AcDbEntity
  8
0
100
AcDbLine
 62
7
  6
CONTINUOUS
 10
-124.642735672
 20
0.0
 11
-179.6873143315
 21
0.0
  0
LINE
  5
24C
100
AcDbEntity
  8
0
100
AcDbLine
 62
7
  6
CONTINUOUS
 10
-124.642735672
 20
-170.0
 11
-179.6873143315
 21
-170.0
  0
LINE
  5
24D
100
AcDbEntity
  8
0
100
AcDbLine
 62
7
  6
CONTINUOUS
 10
-178.1873143315
 20
0.0
 11
-178.1873143315
 21
-85.0
  0
LINE
  5
24E
100
AcDbEntity
  8
0
100
AcDbLine
 62
7
  6
CONTINUOUS
 10
-178.1873143315
 20
-170.0
 11
-178.1873143315
 21
-85.0
  0
INSERT
  5
24F
100
AcDbEntity
  8
0
100
AcDbBlockReference
 62
7
  6
CONTINUOUS
  2
_FILLED
 10
-178.1873143315
 20
0.0
 41
3.0
 42
3.0
 43
3.0
 50
90.0
  0
INSERT
  5
250
100
AcDbEntity
  8
0
100
AcDbBlockReference
 62
7
  6
CONTINUOUS
  2
_FILLED
 10
-178.1873143315
 20
-170.0
 41
3.0
 42
3.0
 43
3.0
 50
270.0
  0
ENDBLK
  5
251
100
AcDbEntity
  8
0
  6
BYBLOCK
 62
0
100
AcDbBlockEnd
  0
BLOCK
  5
252
100
AcDbEntity
  8
0
100
AcDbBlockBegin
 62
7
  6
CONTINUOUS
  2
*D6
 70
65
 10
0.0
 20
0.0
  3
*D6
  1

  0
LINE
  5
253
100
AcDbEntity
  8
0
100
AcDbLine
 62
7
  6
CONTINUOUS
 10
-17.025
 20
240.55
 11
53.9730904309
 21
240.55
  0
LINE
  5
254
100
AcDbEntity
  8
0
100
AcDbLine
 62
7
  6
CONTINUOUS
 10
-17.025
 20
-230.45
 11
53.9730904309
 21
-230.45
  0
LINE
  5
255
100
AcDbEntity
  8
0
100
AcDbLine
 62
7
  6
CONTINUOUS
 10
52.4730904309
 20
240.55
 11
52.4730904309
 21
5.05
  0
LINE
  5
256
100
AcDbEntity
  8
0
100
AcDbLine
 62
7
  6
CONTINUOUS
 10
52.4730904309
 20
-230.45
 11
52.4730904309
 21
5.05
  0
INSERT
  5
257
100
AcDbEntity
  8
0
100
AcDbBlockReference
 62
7
  6
CONTINUOUS
  2
_FILLED
 10
52.4730904309
 20
240.55
 41
3.0
 42
3.0
 43
3.0
 50
90.0
  0
INSERT
  5
258
100
AcDbEntity
  8
0
100
AcDbBlockReference
 62
7
  6
CONTINUOUS
  2
_FILLED
 10
52.4730904309
 20
-230.45
 41
3.0
 42
3.0
 43
3.0
 50
270.0
  0
ENDBLK
  5
259
100
AcDbEntity
  8
0
  6
BYBLOCK
 62
0
100
AcDbBlockEnd
  0
ENDSEC
  0
SECTION
  2
ENTITIES
  0
DIMENSION
  5
25A
100
AcDbEntity
  8
0
100
AcDbDimension
 62
7
  6
CONTINUOUS
  2
*D0
 10
32.425
 20
261.7000915544
 11
-21.9178571429
 21
261.7000915544
 70
160
 71
2
 72
2
 41
0.9
 42
99.9
  3
DIMSTYLE_1
100
AcDbAlignedDimension
 13
-67.475
 23
247.55
 14
32.425
 24
247.55
100
AcDbRotatedDimension
  0
DIMENSION
  5
25B
100
AcDbEntity
  8
0
100
AcDbDimension
 62
7
  6
CONTINUOUS
  2
*D1
 10
62.4730904309
 20
-249.6
 11
62.4730904309
 21
-5.5714285714
 70
160
 71
2
 72
2
 41
0.9
 42
499.2
  3
DIMSTYLE_1
100
AcDbAlignedDimension
 13
11.202796223
 23
249.6
 14
18.0554381211
 24
-249.6
 50
270.0
100
AcDbRotatedDimension
  0
DIMENSION
  5
25C
100
AcDbEntity
  8
0
100
AcDbDimension
 62
7
  6
CONTINUOUS
  2
*D2
 10
-164.742735672
 20
271.7000915544
 11
-138.8355928149
 21
271.7000915544
 70
160
 71
2
 72
2
 41
0.9
 42
60.6
  3
DIMSTYLE_1
100
AcDbAlignedDimension
 13
-104.142735672
 23
247.55
 14
-164.742735672
 24
247.55
 50
180.0
100
AcDbRotatedDimension
  0
DIMENSION
  5
25D
100
AcDbEntity
  8
0
100
AcDbDimension
 62
7
  6
CONTINUOUS
  2
*D3
 10
-124.142735672
 20
261.7000915544
 11
-116.4998785291
 21
261.7000915544
 70
160
 71
2
 72
2
 41
0.9
 42
20.0
  3
DIMSTYLE_1
100
AcDbAlignedDimension
 13
-104.142735672
 23
247.55
 14
-124.142735672
 24
170.0
 50
180.0
100
AcDbRotatedDimension
  0
DIMENSION
  5
25E
100
AcDbEntity
  8
0
100
AcDbDimension
 62
7
  6
CONTINUOUS
  2
*D4
 10
-178.1873143315
 20
0.0
 11
-178.1873143315
 21
81.7857142857
 70
160
 71
2
 72
2
 41
0.9
 42
170.0
  3
DIMSTYLE_1
100
AcDbAlignedDimension
 13
-124.142735672
 23
170.0
 14
-124.142735672
 24
0.0
 50
270.0
100
AcDbRotatedDimension
  0
DIMENSION
  5
25F
100
AcDbEntity
  8
0
100
AcDbDimension
 62
7
  6
CONTINUOUS
  2
*D5
 10
-178.1873143315
 20
-170.0
 11
-178.1873143315
 21
-88.2142857143
 70
160
 71
2
 72
2
 41
0.9
 42
170.0
  3
DIMSTYLE_1
100
AcDbAlignedDimension
 13
-124.142735672
 23
0.0
 14
-124.142735672
 24
-170.0
 50
270.0
100
AcDbRotatedDimension
  0
DIMENSION
  5
260
100
AcDbEntity
  8
0
100
AcDbDimension
 62
7
  6
CONTINUOUS
  2
*D6
 10
52.4730904309
 20
-230.45
 11
52.4730904309
 21
1.8357142857
 70
160
 71
2
 72
2
 41
0.9
 42
471.0
  3
DIMSTYLE_1
100
AcDbAlignedDimension
 13
-17.525
 23
240.55
 14
-17.525
 24
-230.45
 50
270.0
100
AcDbRotatedDimension
  0
LINE
  5
261
100
AcDbEntity
  8
0
100
AcDbLine
 62
7
  6
CONTINUOUS
 10
-20.0001422616
 20
-249.6
 11
-15.0498577384
 21
-249.6
  0
LINE
  5
262
100
AcDbEntity
  8
0
100
AcDbLine
 62
7
  6
CONTINUOUS
 10
18.0554381211
 20
-249.6
 11
10.8945618789
 21
-249.6
  0
LINE
  5
263
100
AcDbEntity
  8
0
100
AcDbLine
 62
7
  6
CONTINUOUS
 10
-45.9445618789
 20
-249.6
 11
-53.1054381211
 21
-249.6
  0
LINE
  5
264
100
AcDbEntity
  8
0
100
AcDbLine
 62
7
  6
CONTINUOUS
 10
31.375
 20
-248.6
 11
-66.425
 21
-248.6
  0
LINE
  5
265
100
AcDbEntity
  8
0
100
AcDbLine
 62
7
  6
CONTINUOUS
 10
31.375
 20
-247.6
 11
-66.425
 21
-247.6
  0
LINE
  5
266
100
AcDbEntity
  8
0
100
AcDbLine
 62
7
  6
CONTINUOUS
 10
-67.475
 20
-247.55
 11
-65.475
 21
-247.55
  0
LINE
  5
267
100
AcDbEntity
  8
0
100
AcDbLine
 62
7
  6
CONTINUOUS
 10
32.425
 20
-247.55
 11
30.425
 21
-247.55
  0
LINE
  5
268
100
AcDbEntity
  8
0
100
AcDbLine
 62
7
  6
CONTINUOUS
 10
4.1577026153
 20
-247.55
 11
2.375
 21
-247.55
  0
LINE
  5
269
100
AcDbEntity
  8
0
100
AcDbLine
 62
7
  6
CONTINUOUS
 10
-12.425
 20
-247.55
 11
-14.2688376124
 21
-247.55
  0
LINE
  5
26A
100
AcDbEntity
  8
0
100
AcDbLine
 62
7
  6
CONTINUOUS
 10
-20.7811623876
 20
-247.55
 11
-22.625
 21
-247.55
  0
LINE
  5
26B
100
AcDbEntity
  8
0
100
AcDbLine
 62
7
  6
CONTINUOUS
 10
-37.425
 20
-247.55
 11
-39.2077026153
 21
-247.55
  0
LINE
  5
26C
100
AcDbEntity
  8
0
100
AcDbLine
 62
7
  6
CONTINUOUS
 10
-67.475
 20
-246.1
 11
-66.475
 21
-246.1
  0
LINE
  5
26D
100
AcDbEntity
  8
0
100
AcDbLine
 62
7
  6
CONTINUOUS
 10
32.425
 20
-246.1
 11
31.425
 21
-246.1
  0
LINE
  5
26E
100
AcDbEntity
  8
0
100
AcDbLine
 62
7
  6
CONTINUOUS
 10
-38.925
 20
-245.6
 11
-37.425
 21
-245.6
  0
LINE
  5
26F
100
AcDbEntity
  8
0
100
AcDbLine
 62
250
  6
CONTINUOUS
 10
-37.425
 20
-245.6
 11
-22.625
 21
-245.6
  0
LINE
  5
270
100
AcDbEntity
  8
0
100
AcDbLine
 62
7
  6
CONTINUOUS
 10
-13.5054501844
 20
-245.6
 11
-12.425
 21
-245.6
  0
LINE
  5
271
100
AcDbEntity
  8
0
100
AcDbLine
 62
7
  6
CONTINUOUS
 10
3.875
 20
-245.6
 11
2.375
 21
-245.6
  0
LINE
  5
272
100
AcDbEntity
  8
0
100
AcDbLine
 62
250
  6
CONTINUOUS
 10
2.375
 20
-245.6
 11
-12.425
 21
-245.6
  0
LINE
  5
273
100
AcDbEntity
  8
0
100
AcDbLine
 62
7
  6
CONTINUOUS
 10
-21.5445498156
 20
-245.6
 11
-22.625
 21
-245.6
  0
LWPOLYLINE
  5
274
100
AcDbEntity
  8
0
100
AcDbPolyline
 62
7
  6
CONTINUOUS
 90
47
 70
0
 10
-44.6569410346
 20
-243.2199885841
 10
-44.3514050347
 20
-243.3366596959
 10
-44.0387006126
 20
-243.4324737865
 10
-43.7202497362
 20
-243.5069951583
 10
-43.3975005043
 20
-243.5598849386
 10
-43.0719205618
 20
-243.5909026204
 10
-42.7449904257
 20
-243.5999071564
 10
-42.4181967528
 20
-243.5868576
 10
-42.0930255794
 20
-243.5518132918
 10
-41.7709555636
 20
-243.4949335896
 10
-41.4534512618
 20
-243.4164771437
 10
-41.1419564685
 20
-243.3168007209
 10
-40.8378876509
 20
-243.196357582
 10
-40.542627508
 20
-243.0556954208
 10
-40.257518683
 20
-242.8954538736
 10
-39.9838576576
 20
-242.7163616104
 10
-39.7228888568
 20
-242.5192330214
 10
-39.47579899
 20
-242.304964514
 10
-39.2437116545
 20
-242.0745304361
 10
-39.0276822262
 20
-241.8289786459
 10
-38.8286930607
 20
-241.5694257466
 10
-38.6476490258
 20
-241.2970520088
 10
-38.4853733873
 20
-241.013096004
 10
-38.3426040647
 20
-240.7188489716
 10
-38.2199902763
 20
-240.4156489477
 10
-38.1180895865
 20
-240.1048746808
 10
-38.0373653706
 20
-239.7879393617
 10
-37.9781847077
 20
-239.4662841974
 10
-37.9408167113
 20
-239.1413718578
 10
-37.9254313057
 20
-238.8146798242
 10
-37.9320984535
 20
-238.4876936705
 10
-37.9607878368
 20
-238.1619003083
 10
-38.0113689958
 20
-237.8387812251
 10
-38.0836119217
 20
-237.5198057477
 10
-38.1771881025
 20
-237.2064243603
 10
-38.2916720173
 20
-236.9000621094
 10
-38.4265430706
 20
-236.6021121227
 10
-38.5811879604
 20
-236.3139292752
 10
-38.7549034664
 20
-236.0368240271
 10
-38.9468996481
 20
-235.7720564653
 10
-39.156303437
 20
-235.5208305735
 10
-39.3821626066
 20
-235.2842887567
 10
-39.6234501023
 20
-235.0635066469
 10
-39.879068712
 20
-234.8594882117
 10
-40.1478560555
 20
-234.6731611885
 10
-40.4285898699
 20
-234.5053728666
 10
-40.7199935682
 20
-234.3568862335
  0
LINE
  5
275
100
AcDbEntity
  8
0
100
AcDbLine
 62
7
  6
CONTINUOUS
 10
-42.2311037701
 20
-241.9
 11
-43.3321420803
 21
-241.9
  0
LINE
  5
276
100
AcDbEntity
  8
RACCORDO
100
AcDbLine
 62
7
  6
CONTINUOUS
 10
-47.3126205218
 20
-241.85
 11
-45.7041004864
 21
-241.85
  0
LINE
  5
277
100
AcDbEntity
  8
SMUSSO
100
AcDbLine
 62
7
  6
CONTINUOUS
 10
-44.4786725037
 20
-241.75
 11
-41.0713274963
 21
-241.75
  0
LINE
  5
278
100
AcDbEntity
  8
RACCORDO
100
AcDbLine
 62
7
  6
CONTINUOUS
 10
-46.130219814
 20
-239.1
 11
-48.5488635245
 21
-239.1
  0
LINE
  5
279
100
AcDbEntity
  8
RACCORDO
100
AcDbLine
 62
7
  6
CONTINUOUS
 10
-48.5488635245
 20
-238.4
 11
-46.130219814
 21
-238.4
  0
LINE
  5
27A
100
AcDbEntity
  8
SMUSSO
100
AcDbLine
 62
7
  6
CONTINUOUS
 10
-41.0713274963
 20
-235.75
 11
-44.4786725037
 21
-235.75
  0
LINE
  5
27B
100
AcDbEntity
  8
RACCORDO
100
AcDbLine
 62
7
  6
CONTINUOUS
 10
-45.7041004864
 20
-235.65
 11
-47.3126205218
 21
-235.65
  0
LINE
  5
27C
100
AcDbEntity
  8
0
100
AcDbLine
 62
7
  6
CONTINUOUS
 10
-43.3323261847
 20
-235.6
 11
-42.231177491
 21
-235.6
  0
LINE
  5
27D
100
AcDbEntity
  8
0
100
AcDbLine
 62
7
  6
CONTINUOUS
 10
-19.525
 20
-234.45
 11
-15.525
 21
-234.45
  0
LINE
  5
27E
100
AcDbEntity
  8
0
100
AcDbLine
 62
7
  6
CONTINUOUS
 10
-1.3965728753
 20
-233.9
 11
30.425
 21
-233.9
  0
LINE
  5
27F
100
AcDbEntity
  8
0
100
AcDbLine
 62
7
  6
CONTINUOUS
 10
-33.6534271247
 20
-233.9
 11
-65.475
 21
-233.9
  0
LINE
  5
280
100
AcDbEntity
  8
0
100
AcDbLine
 62
250
  6
CONTINUOUS
 10
-19.525
 20
-233.25
 11
-15.525
 21
-233.25
  0
LINE
  5
281
100
AcDbEntity
  8
0
100
AcDbLine
 62
7
  6
CONTINUOUS
 10
-14.775
 20
-233.2
 11
-15.525
 21
-233.2
  0
LINE
  5
282
100
AcDbEntity
  8
0
100
AcDbLine
 62
7
  6
CONTINUOUS
 10
-19.525
 20
-233.2
 11
-20.275
 21
-233.2
  0
LINE
  5
283
100
AcDbEntity
  8
0
100
AcDbLine
 62
7
  6
CONTINUOUS
 10
-19.525
 20
-232.65
 11
-15.525
 21
-232.65
  0
LINE
  5
284
100
AcDbEntity
  8
0
100
AcDbLine
 62
7
  6
CONTINUOUS
 10
-67.475
 20
-228.6
 11
-66.475
 21
-228.6
  0
LINE
  5
285
100
AcDbEntity
  8
0
100
AcDbLine
 62
7
  6
CONTINUOUS
 10
32.425
 20
-228.6
 11
31.425
 21
-228.6
  0
LINE
  5
286
100
AcDbEntity
  8
0
100
AcDbLine
 62
7
  6
CONTINUOUS
 10
-19.525
 20
-228.25
 11
-15.525
 21
-228.25
  0
LINE
  5
287
100
AcDbEntity
  8
0
100
AcDbLine
 62
250
  6
CONTINUOUS
 10
-65.475
 20
-228.1
 11
-63.975
 21
-228.1
  0
LINE
  5
288
100
AcDbEntity
  8
0
100
AcDbLine
 62
250
  6
CONTINUOUS
 10
30.425
 20
-228.1
 11
28.925
 21
-228.1
  0
LINE
  5
289
100
AcDbEntity
  8
0
100
AcDbLine
 62
7
  6
CONTINUOUS
 10
-20.275
 20
-227.7
 11
-19.525
 21
-227.7
  0
LINE
  5
28A
100
AcDbEntity
  8
0
100
AcDbLine
 62
7
  6
CONTINUOUS
 10
-15.525
 20
-227.7
 11
-14.775
 21
-227.7
  0
LINE
  5
28B
100
AcDbEntity
  8
0
100
AcDbLine
 62
250
  6
CONTINUOUS
 10
-19.525
 20
-227.65
 11
-15.525
 21
-227.65
  0
LINE
  5
28C
100
AcDbEntity
  8
0
100
AcDbLine
 62
7
  6
CONTINUOUS
 10
-65.475
 20
-227.6
 11
-63.975
 21
-227.6
  0
LINE
  5
28D
100
AcDbEntity
  8
0
100
AcDbLine
 62
7
  6
CONTINUOUS
 10
30.425
 20
-227.6
 11
28.925
 21
-227.6
  0
LINE
  5
28E
100
AcDbEntity
  8
0
100
AcDbLine
 62
7
  6
CONTINUOUS
 10
31.425
 20
-226.6
 11
32.425
 21
-226.6
  0
LINE
  5
28F
100
AcDbEntity
  8
0
100
AcDbLine
 62
7
  6
CONTINUOUS
 10
-66.475
 20
-226.6
 11
-67.475
 21
-226.6
  0
LINE
  5
290
100
AcDbEntity
  8
0
100
AcDbLine
 62
7
  6
CONTINUOUS
 10
-19.525
 20
-226.45
 11
-15.525
 21
-226.45
  0
LINE
  5
291
100
AcDbEntity
  8
0
100
AcDbLine
 62
7
  6
CONTINUOUS
 10
-11.3534271247
 20
-225.6
 11
-23.6965728753
 21
-225.6
  0
LINE
  5
292
100
AcDbEntity
  8
0
100
AcDbLine
 62
250
  6
CONTINUOUS
 10
31.425
 20
-225.6
 11
32.425
 21
-225.6
  0
LINE
  5
293
100
AcDbEntity
  8
0
100
AcDbLine
 62
250
  6
CONTINUOUS
 10
-66.475
 20
-225.6
 11
-67.475
 21
-225.6
  0
LWPOLYLINE
  5
294
100
AcDbEntity
  8
0
100
AcDbPolyline
 62
7
  6
CONTINUOUS
 90
24
 70
0
 10
-42.6244951122
 20
-234.1715280385
 10
-42.4445792008
 20
-234.1851096631
 10
-42.271769199
 20
-234.2036587451
 10
-42.1060651069
 20
-234.2271752845
 10
-41.9476961145
 20
-234.2562193066
 10
-41.7964330317
 20
-234.2902307861
 10
-41.6515882884
 20
-234.327529647
 10
-41.5130950719
 20
-234.3680000875
 10
-41.3810201948
 20
-234.4117579093
 10
-41.2548765247
 20
-234.4574704415
 10
-41.1347253145
 20
-234.5050146014
 10
-41.0205053113
 20
-234.5545134717
 10
-40.9115456234
 20
-234.6050036296
 10
-40.8078862973
 20
-234.6563649486
 10
-40.7094872867
 20
-234.7087175551
 10
-40.6155575601
 20
-234.7614584059
 10
-40.5261203089
 20
-234.8144722974
 10
-40.4411523418
 20
-234.8678744333
 10
-40.3597930537
 20
-234.921407381
 10
-40.2819293688
 20
-234.9750684177
 10
-40.2076743628
 20
-235.0288602661
 10
-40.1365066578
 20
-235.0825336616
 10
-40.0683519492
 20
-235.136104902
 10
-40.0032845416
 20
-235.1895576894
  0
LWPOLYLINE
  5
295
100
AcDbEntity
  8
0
100
AcDbPolyline
 62
7
  6
CONTINUOUS
 90
25
 70
0
 10
-38.6545224214
 20
-237.7340474063
 10
-38.6591508834
 20
-237.7327930596
 10
-38.6638113986
 20
-237.7303146503
 10
-38.6682949525
 20
-237.7273120719
 10
-38.6725399312
 20
-237.7238835767
 10
-38.6766079485
 20
-237.7199309126
 10
-38.6804748307
 20
-237.7158592169
 10
-38.6840944638
 20
-237.7117915875
 10
-38.6875129618
 20
-237.7076049264
 10
-38.6908444941
 20
-237.7033350773
 10
-38.694111854
 20
-237.6989917972
 10
-38.6972922482
 20
-237.694565329
 10
-38.7004314661
 20
-237.6900622453
 10
-38.703534623
 20
-237.6854882014
 10
-38.7065966036
 20
-237.6808375419
 10
-38.7096478513
 20
-237.6760998734
 10
-38.71269071
 20
-237.671277749
 10
-38.7157228357
 20
-237.6663686154
 10
-38.7187676399
 20
-237.6613544199
 10
-38.7218263249
 20
-237.656236537
 10
-38.7248976884
 20
-237.6510135922
 10
-38.7280015348
 20
-237.6456634091
 10
-38.7311384992
 20
-237.6401868353
 10
-38.7343079465
 20
-237.6345830233
 10
-38.7375277764
 20
-237.6288272547
  0
LWPOLYLINE
  5
296
100
AcDbEntity
  8
0
100
AcDbPolyline
 62
7
  6
CONTINUOUS
 90
6
 70
0
 10
-41.0207420436
 20
-234.2283765059
 10
-41.3294676958
 20
-234.1204280589
 10
-41.6447666498
 20
-234.033531769
 10
-41.9652051393
 20
-233.9680827816
 10
-42.2893260274
 20
-233.9243787144
 10
-42.6156554317
 20
-233.9026183038
  0
LINE
  5
297
100
AcDbEntity
  8
0
100
AcDbLine
 62
7
  6
CONTINUOUS
 10
-40.7199935682
 20
-234.3568862335
 11
-41.0207420436
 21
-234.2283765059
  0
LWPOLYLINE
  5
298
100
AcDbEntity
  8
0
100
AcDbPolyline
 62
7
  6
CONTINUOUS
 90
36
 70
0
 10
9.3580435315
 20
230.6831992791
 10
9.6621123491
 20
230.803642418
 10
9.957372492
 20
230.9443045792
 10
10.2424813171
 20
231.1045461264
 10
10.5161423424
 20
231.2836383896
 10
10.7771111432
 20
231.4807669786
 10
11.02420101
 20
231.695035486
 10
11.2562883455
 20
231.9254695639
 10
11.4723177738
 20
232.1710213541
 10
11.6713069393
 20
232.4305742534
 10
11.8523509742
 20
232.7029479912
 10
12.0146266127
 20
232.986903996
 10
12.1573959353
 20
233.2811510284
 10
12.2800097237
 20
233.5843510523
 10
12.3819104135
 20
233.8951253192
 10
12.4626346294
 20
234.2120606383
 10
12.5218152923
 20
234.5337158026
 10
12.5591832887
 20
234.8586281422
 10
12.5745686943
 20
235.1853201758
 10
12.5679015465
 20
235.5123063295
 10
12.5392121632
 20
235.8380996917
 10
12.4886310042
 20
236.1612187749
 10
12.4163880783
 20
236.4801942523
 10
12.3228118975
 20
236.7935756397
 10
12.2083279827
 20
237.0999378906
 10
12.0734569294
 20
237.3978878773
 10
11.9188120396
 20
237.6860707248
 10
11.7450965336
 20
237.9631759729
 10
11.5531003519
 20
238.2279435347
 10
11.343696563
 20
238.4791694265
 10
11.1178373934
 20
238.7157112433
 10
10.8765498977
 20
238.9364933531
 10
10.620931288
 20
239.1405117883
 10
10.3521439445
 20
239.3268388115
 10
10.0714101301
 20
239.4946271334
 10
9.7800064318
 20
239.6431137665
  0
LINE
  5
299
100
AcDbEntity
  8
0
100
AcDbLine
 62
250
  6
CONTINUOUS
 10
31.425
 20
-217.6
 11
32.425
 21
-217.6
  0
LINE
  5
29A
100
AcDbEntity
  8
0
100
AcDbLine
 62
250
  6
CONTINUOUS
 10
-66.475
 20
-217.6
 11
-67.475
 21
-217.6
  0
LINE
  5
29B
100
AcDbEntity
  8
0
100
AcDbLine
 62
7
  6
CONTINUOUS
 10
31.425
 20
-216.6
 11
32.425
 21
-216.6
  0
LINE
  5
29C
100
AcDbEntity
  8
0
100
AcDbLine
 62
7
  6
CONTINUOUS
 10
-66.475
 20
-216.6
 11
-67.475
 21
-216.6
  0
LINE
  5
29D
100
AcDbEntity
  8
0
100
AcDbLine
 62
7
  6
CONTINUOUS
 10
-65.475
 20
-215.1
 11
-65.425
 21
-215.1
  0
LINE
  5
29E
100
AcDbEntity
  8
0
100
AcDbLine
 62
7
  6
CONTINUOUS
 10
30.425
 20
-215.1
 11
30.375
 21
-215.1
  0
LINE
  5
29F
100
AcDbEntity
  8
0
100
AcDbLine
 62
7
  6
CONTINUOUS
 10
-65.475
 20
-213.3
 11
-65.425
 21
-213.3
  0
LINE
  5
2A0
100
AcDbEntity
  8
0
100
AcDbLine
 62
7
  6
CONTINUOUS
 10
30.425
 20
-213.3
 11
30.375
 21
-213.3
  0
LWPOLYLINE
  5
2A1
100
AcDbEntity
  8
0
100
AcDbPolyline
 62
7
  6
CONTINUOUS
 90
10
 70
0
 43
0.3500000006
 10
-21.4892864456
 20
262.4500979004
 10
-20.6321439743
 20
263.3072358398
 10
-20.4178572235
 20
264.1643737793
 10
-20.4178572235
 20
265.0215117188
 10
-20.8464284592
 20
265.4500988159
 10
-21.4892864456
 20
265.4500988159
 10
-21.9178576813
 20
265.0215117188
 10
-21.9178576813
 20
264.1643737793
 10
-21.4892864456
 20
263.7358048096
 10
-20.5607150574
 20
263.7358048096
  0
LWPOLYLINE
  5
2A2
100
AcDbEntity
  8
0
100
AcDbPolyline
 62
7
  6
CONTINUOUS
 90
10
 70
0
 43
0.3500000006
 10
-19.1321435165
 20
262.4500979004
 10
-18.2749999123
 20
263.3072358398
 10
-18.0607142944
 20
264.1643737793
 10
-18.0607142944
 20
265.0215117188
 10
-18.4892855301
 20
265.4500988159
 10
-19.1321435165
 20
265.4500988159
 10
-19.5607147522
 20
265.0215117188
 10
-19.5607147522
 20
264.1643737793
 10
-19.1321435165
 20
263.7358048096
 10
-18.2035709953
 20
263.7358048096
  0
LWPOLYLINE
  5
2A3
100
AcDbEntity
  8
0
100
AcDbPolyline
 62
7
  6
CONTINUOUS
 90
10
 70
0
 43
0.3500000006
 10
-15.0607145119
 20
262.4500979004
 10
-14.2035709076
 20
263.3072358398
 10
-13.9892852898
 20
264.1643737793
 10
-13.9892852898
 20
265.0215117188
 10
-14.4178576584
 20
265.4500988159
 10
-15.0607145119
 20
265.4500988159
 10
-15.4892857475
 20
265.0215117188
 10
-15.4892857475
 20
264.1643737793
 10
-15.0607145119
 20
263.7358048096
 10
-14.1321431236
 20
263.7358048096
  0
LWPOLYLINE
  5
2A4
100
AcDbEntity
  8
0
100
AcDbPolyline
 62
7
  6
CONTINUOUS
 90
3
 70
0
 10
-40.0032845416
 20
-235.1895576894
 10
-39.9410059707
 20
-235.2425938655
 10
-39.8815244944
 20
-235.2951785578
  0
LWPOLYLINE
  5
2A5
100
AcDbEntity
  8
0
100
AcDbPolyline
 62
7
  6
CONTINUOUS
 90
6
 70
0
 10
-39.8815244944
 20
-235.2951785578
 10
-39.8248318549
 20
-235.3473466388
 10
-39.7706048137
 20
-235.3989045675
 10
-39.7188415851
 20
-235.44982466
 10
-39.6695439549
 20
-235.5001346002
 10
-39.6223940425
 20
-235.5497238992
  0
LINE
  5
2A6
100
AcDbEntity
  8
0
100
AcDbLine
 62
7
  6
CONTINUOUS
 10
-31.9392135624
 20
231.2857864376
 11
-30.1107864376
 21
233.1142135624
  0
LINE
  5
2A7
100
AcDbEntity
  8
0
100
AcDbLine
 62
7
  6
CONTINUOUS
 10
-65.475
 20
-184.5
 11
-65.425
 21
-184.5
  0
LINE
  5
2A8
100
AcDbEntity
  8
0
100
AcDbLine
 62
7
  6
CONTINUOUS
 10
30.425
 20
-184.5
 11
30.375
 21
-184.5
  0
LINE
  5
2A9
100
AcDbEntity
  8
0
100
AcDbLine
 62
7
  6
CONTINUOUS
 10
-65.475
 20
-182.7
 11
-65.425
 21
-182.7
  0
LINE
  5
2AA
100
AcDbEntity
  8
0
100
AcDbLine
 62
7
  6
CONTINUOUS
 10
30.425
 20
-182.7
 11
30.375
 21
-182.7
  0
LWPOLYLINE
  5
2AB
100
AcDbEntity
  8
0
100
AcDbPolyline
 62
7
  6
CONTINUOUS
 90
112
 70
0
 10
-39.6223940425
 20
-235.5497238992
 10
-39.5773863324
 20
-235.5985693214
 10
-39.5345263401
 20
-235.6466941024
 10
-39.4935127313
 20
-235.694057461
 10
-39.4543377381
 20
-235.7406404157
 10
-39.4170091283
 20
-235.7864619479
 10
-39.3812488716
 20
-235.8315382207
 10
-39.3470482479
 20
-235.8758537268
 10
-39.3144159774
 20
-235.9194239735
 10
-39.2831001896
 20
-235.9623116453
 10
-39.2530914693
 20
-236.0045047475
 10
-39.2243992317
 20
-236.0460152747
 10
-39.1967998523
 20
-236.0869418962
 10
-39.1702659679
 20
-236.1273066719
 10
-39.1448249417
 20
-236.1670875418
 10
-39.1203352384
 20
-236.2063169946
 10
-39.0967745873
 20
-236.2450222591
 10
-39.074165259
 20
-236.2831761064
 10
-39.0524325306
 20
-236.320729339
 10
-39.0315764524
 20
-236.3576776239
 10
-39.011596974
 20
-236.3940252941
 10
-38.9924192219
 20
-236.4297361501
 10
-38.9740424335
 20
-236.4648069006
 10
-38.9564673714
 20
-236.4992408369
 10
-38.9396214493
 20
-236.5330116335
 10
-38.9235036934
 20
-236.5661162268
 10
-38.9081150776
 20
-236.5985576804
 10
-38.8933859369
 20
-236.6303188596
 10
-38.8793165989
 20
-236.6613932444
 10
-38.865906736
 20
-236.6917873548
 10
-38.8530857004
 20
-236.7215036167
 10
-38.8408531676
 20
-236.7505358336
 10
-38.829209462
 20
-236.778890202
 10
-38.8180849093
 20
-236.8065877368
 10
-38.8074767638
 20
-236.8336281734
 10
-38.7973877712
 20
-236.8600117765
 10
-38.7877564938
 20
-236.8857603552
 10
-38.7785811484
 20
-236.9108718857
 10
-38.7698635183
 20
-236.9353483917
 10
-38.7615475161
 20
-236.9592177547
 10
-38.7536316734
 20
-236.9824773214
 10
-38.7461174586
 20
-237.0051297449
 10
-38.7389531897
 20
-237.0272108667
 10
-38.7321370839
 20
-237.0487193027
 10
-38.725670924
 20
-237.0696564369
 10
-38.7195083757
 20
-237.0900622622
 10
-38.7136460535
 20
-237.1099422154
 10
-38.708087343
 20
-237.1292908596
 10
-38.7027960663
 20
-237.1481318767
 10
-38.6977712198
 20
-237.1664639325
 10
-38.6930138072
 20
-237.1842883612
 10
-38.6884906615
 20
-237.2016328465
 10
-38.6842008118
 20
-237.2184961015
 10
-38.680145229
 20
-237.2348794132
 10
-38.6762936592
 20
-237.250814326
 10
-38.6726450966
 20
-237.2662999084
 10
-38.6692005471
 20
-237.2813370919
 10
-38.6659327741
 20
-237.2959602159
 10
-38.6628407777
 20
-237.310168614
 10
-38.6599255579
 20
-237.3239629524
 10
-38.6571628781
 20
-237.3373795695
 10
-38.654551765
 20
-237.3504179951
 10
-38.6520931919
 20
-237.3630786992
 10
-38.6497658429
 20
-237.3753994301
 10
-38.6475687777
 20
-237.3873798561
 10
-38.6455029366
 20
-237.3990203089
 10
-38.6435498238
 20
-237.4103595313
 10
-38.6417085269
 20
-237.4213972861
 10
-38.6399799584
 20
-237.4321338104
 10
-38.6383483599
 20
-237.442608559
 10
-38.6368128287
 20
-237.4528213577
 10
-38.6353742676
 20
-237.4627723807
 10
-38.6340196261
 20
-237.4725016052
 10
-38.6327479788
 20
-237.482008903
 10
-38.6315602511
 20
-237.4912944024
 10
-38.6304461685
 20
-237.5003984647
 10
-38.6294047381
 20
-237.5093209
 10
-38.6284369527
 20
-237.5180618982
 10
-38.6275355161
 20
-237.5266623913
 10
-38.6266995496
 20
-237.5351175333
 10
-38.625929932
 20
-237.5434321702
 10
-38.6252220032
 20
-237.5516617718
 10
-38.6245736913
 20
-237.5598089178
 10
-38.6239870683
 20
-237.5678710284
 10
-38.6234636902
 20
-237.5758958347
 10
-38.623000723
 20
-237.5839171481
 10
-38.6226010007
 20
-237.5919011572
 10
-38.6222745806
 20
-237.5997941587
 10
-38.6220221533
 20
-237.6075944442
 10
-38.6218430281
 20
-237.6153037222
 10
-38.6217451904
 20
-237.6228734147
 10
-38.621728814
 20
-237.6302963337
 10
-38.621793725
 20
-237.6375796673
 10
-38.6219473867
 20
-237.6446964014
 10
-38.622188099
 20
-237.6516390002
 10
-38.6225175621
 20
-237.6584149996
 10
-38.6229483399
 20
-237.6650199931
 10
-38.6234750827
 20
-237.6714501146
 10
-38.6241031403
 20
-237.6777092302
 10
-38.6248611257
 20
-237.6838045315
 10
-38.6257360149
 20
-237.6897431878
 10
-38.6267408319
 20
-237.6955180298
 10
-38.6279432626
 20
-237.7011147412
 10
-38.629306785
 20
-237.706571493
 10
-38.6308679211
 20
-237.7118501142
 10
-38.6328039225
 20
-237.716821776
 10
-38.6351043984
 20
-237.7216620739
 10
-38.6377797397
 20
-237.7261954124
 10
-38.6410383702
 20
-237.7297661764
 10
-38.6451335099
 20
-237.7322429903
 10
-38.649811939
 20
-237.7337572296
 10
-38.6545224214
 20
-237.7340474063
  0
LINE
  5
2AC
100
AcDbEntity
  8
0
100
AcDbLine
 62
7
  6
CONTINUOUS
 10
-2.8107864376
 20
-233.3142135624
 11
-9.9392135624
 21
-226.1857864376
  0
LINE
  5
2AD
100
AcDbEntity
  8
0
100
AcDbLine
 62
7
  6
CONTINUOUS
 10
-65.475
 20
-153.9
 11
-65.425
 21
-153.9
  0
LINE
  5
2AE
100
AcDbEntity
  8
0
100
AcDbLine
 62
7
  6
CONTINUOUS
 10
30.425
 20
-153.9
 11
30.375
 21
-153.9
  0
LINE
  5
2AF
100
AcDbEntity
  8
0
100
AcDbLine
 62
7
  6
CONTINUOUS
 10
-65.475
 20
-152.1
 11
-65.425
 21
-152.1
  0
LINE
  5
2B0
100
AcDbEntity
  8
0
100
AcDbLine
 62
7
  6
CONTINUOUS
 10
30.425
 20
-152.1
 11
30.375
 21
-152.1
  0
LWPOLYLINE
  5
2B1
100
AcDbEntity
  8
0
100
AcDbPolyline
 62
7
  6
CONTINUOUS
 90
65
 70
0
 10
-39.0756778904
 20
-236.9912444008
 10
-39.0889958821
 20
-236.9687394131
 10
-39.1027513305
 20
-236.9457506378
 10
-39.1169462633
 20
-236.9222787267
 10
-39.1316376962
 20
-236.8983004614
 10
-39.1468239524
 20
-236.8738140464
 10
-39.1625067088
 20
-236.8488212772
 10
-39.1787480111
 20
-236.8233043215
 10
-39.1955460907
 20
-236.7972610366
 10
-39.2129027163
 20
-236.7706935652
 10
-39.2308852398
 20
-236.7435905029
 10
-39.24949183
 20
-236.7159493247
 10
-39.2687243182
 20
-236.6877725555
 10
-39.2886555495
 20
-236.6590563657
 10
-39.3092836729
 20
-236.6297978077
 10
-39.3306105395
 20
-236.5999998291
 10
-39.3527145481
 20
-236.5696674419
 10
-39.3755942186
 20
-236.538796826
 10
-39.3992510311
 20
-236.5073918016
 10
-39.4237678241
 20
-236.4754688414
 10
-39.4491355147
 20
-236.4430325848
 10
-39.4753631859
 20
-236.4100783926
 10
-39.5025609251
 20
-236.3766088197
 10
-39.5307000515
 20
-236.3426465051
 10
-39.5598092459
 20
-236.3081688099
 10
-39.5900846387
 20
-236.2731103724
 10
-39.6215178747
 20
-236.2374631014
 10
-39.6541173092
 20
-236.201235088
 10
-39.688104138
 20
-236.1643852442
 10
-39.7234718764
 20
-236.1269006098
 10
-39.7602270091
 20
-236.0887941451
 10
-39.7986101858
 20
-236.0500636425
 10
-39.8386153379
 20
-236.0106932681
 10
-39.8802485341
 20
-235.9706988558
 10
-39.9237686297
 20
-235.9301257
 10
-39.9691709442
 20
-235.8889544345
 10
-40.0164601581
 20
-235.8472044255
 10
-40.0659091682
 20
-235.8049790649
 10
-40.1175157247
 20
-235.7622552011
 10
-40.1712820773
 20
-235.7190559856
 10
-40.2274878725
 20
-235.6755542651
 10
-40.2861351593
 20
-235.631722802
 10
-40.3472218885
 20
-235.5875888339
 10
-40.4110215595
 20
-235.5434069191
 10
-40.4775351965
 20
-235.499149991
 10
-40.5467617753
 20
-235.4548451162
 10
-40.6189717224
 20
-235.4108280533
 10
-40.6940285942
 20
-235.3671283786
 10
-40.7720688344
 20
-235.3237165157
 10
-40.8537722007
 20
-235.2808394944
 10
-40.9391036423
 20
-235.2384275441
 10
-41.0280982101
 20
-235.1965504355
 10
-41.1215408149
 20
-235.1556645101
 10
-41.21946524
 20
-235.1156546584
 10
-41.3218377021
 20
-235.0766359901
 10
-41.4293417625
 20
-235.0394101752
 10
-41.5420439782
 20
-235.0038527147
 10
-41.6598777922
 20
-234.9700881077
 10
-41.7833270943
 20
-234.9392915225
 10
-41.9124300227
 20
-234.9113409805
 10
-42.047148439
 20
-234.8863584603
 10
-42.1878518186
 20
-234.8658850659
 10
-42.3346633197
 20
-234.8504344986
 10
-42.4874597839
 20
-234.8394930571
 10
-42.6462412113
 20
-234.8330607414
  0
LWPOLYLINE
  5
2B2
100
AcDbEntity
  8
0
100
AcDbPolyline
 62
7
  6
CONTINUOUS
 90
3
 70
0
 10
-39.0382036659
 20
-237.0559403108
 10
-39.0503094266
 20
-237.0348301431
 10
-39.0756778904
 20
-236.9912444008
  0
LINE
  5
2B3
100
AcDbEntity
  8
0
100
AcDbLine
 62
7
  6
CONTINUOUS
 10
-39.0151199304
 20
-237.0967992186
 11
-39.0382036659
 21
-237.0559403108
  0
LINE
  5
2B4
100
AcDbEntity
  8
0
100
AcDbLine
 62
7
  6
CONTINUOUS
 10
-38.9934353386
 20
-237.1358771802
 11
-39.0151199304
 21
-237.0967992186
  0
LINE
  5
2B5
100
AcDbEntity
  8
0
100
AcDbLine
 62
7
  6
CONTINUOUS
 10
-38.7375277764
 20
-237.6288272547
 11
-38.7441192387
 21
-237.6168609368
  0
LINE
  5
2B6
100
AcDbEntity
  8
0
100
AcDbLine
 62
7
  6
CONTINUOUS
 10
-38.9730551566
 20
-237.1732048777
 11
-38.9934353386
 21
-237.1358771802
  0
LINE
  5
2B7
100
AcDbEntity
  8
0
100
AcDbLine
 62
7
  6
CONTINUOUS
 10
-38.7441192387
 20
-237.6168609368
 11
-38.750963152
 21
-237.6042080178
  0
LINE
  5
2B8
100
AcDbEntity
  8
0
100
AcDbLine
 62
7
  6
CONTINUOUS
 10
-38.9539170715
 20
-237.2088063859
 11
-38.9730551566
 21
-237.1732048777
  0
LINE
  5
2B9
100
AcDbEntity
  8
0
100
AcDbLine
 62
7
  6
CONTINUOUS
 10
-38.750963152
 20
-237.6042080178
 11
-38.7580928454
 21
-237.5908149482
  0
LINE
  5
2BA
100
AcDbEntity
  8
0
100
AcDbLine
 62
7
  6
CONTINUOUS
 10
-38.9359307751
 20
-237.2427208937
 11
-38.9539170715
 21
-237.2088063859
  0
LINE
  5
2BB
100
AcDbEntity
  8
0
100
AcDbLine
 62
7
  6
CONTINUOUS
 10
-38.7580928454
 20
-237.5908149482
 11
-38.7655576241
 21
-237.57659977
  0
LINE
  5
2BC
100
AcDbEntity
  8
0
100
AcDbLine
 62
7
  6
CONTINUOUS
 10
-38.919015314
 20
-237.2749945633
 11
-38.9359307751
 21
-237.2427208937
  0
LINE
  5
2BD
100
AcDbEntity
  8
0
100
AcDbLine
 62
7
  6
CONTINUOUS
 10
-38.7655576241
 20
-237.57659977
 11
-38.7774792876
 21
-237.5535723003
  0
LINE
  5
2BE
100
AcDbEntity
  8
0
100
AcDbLine
 62
7
  6
CONTINUOUS
 10
-38.8955239138
 20
-237.3204061748
 11
-38.919015314
 21
-237.2749945633
  0
LINE
  5
2BF
100
AcDbEntity
  8
0
100
AcDbLine
 62
7
  6
CONTINUOUS
 10
-38.7774792876
 20
-237.5535723003
 11
-38.7949428309
 21
-237.5193304819
  0
LINE
  5
2C0
100
AcDbEntity
  8
0
100
AcDbLine
 62
7
  6
CONTINUOUS
 10
-38.8673674852
 20
-237.3756095291
 11
-38.8955239138
 21
-237.3204061748
  0
LWPOLYLINE
  5
2C1
100
AcDbEntity
  8
0
100
AcDbPolyline
 62
7
  6
CONTINUOUS
 90
4
 70
0
 10
-38.7949428309
 20
-237.5193304819
 10
-38.8251185321
 20
-237.4594486237
 10
-38.8306676656
 20
-237.4484061016
 10
-38.8673674852
 20
-237.3756095291
  0
LINE
  5
2C2
100
AcDbEntity
  8
0
100
AcDbLine
 62
7
  6
CONTINUOUS
 10
-65.475
 20
-123.3
 11
-65.425
 21
-123.3
  0
LINE
  5
2C3
100
AcDbEntity
  8
0
100
AcDbLine
 62
7
  6
CONTINUOUS
 10
30.425
 20
-123.3
 11
30.375
 21
-123.3
  0
LINE
  5
2C4
100
AcDbEntity
  8
0
100
AcDbLine
 62
7
  6
CONTINUOUS
 10
-65.475
 20
-121.5
 11
-65.425
 21
-121.5
  0
LINE
  5
2C5
100
AcDbEntity
  8
0
100
AcDbLine
 62
7
  6
CONTINUOUS
 10
30.425
 20
-121.5
 11
30.375
 21
-121.5
  0
LINE
  5
2C6
100
AcDbEntity
  8
0
100
AcDbLine
 62
7
  6
CONTINUOUS
 10
-53.7570508076
 20
-248.6
 11
-53.5884010343
 21
-249.2294095226
  0
LINE
  5
2C7
100
AcDbEntity
  8
0
100
AcDbLine
 62
7
  6
CONTINUOUS
 10
-46.7452000995
 20
249.1868240888
 11
-46.8486730193
 21
248.6
  0
LWPOLYLINE
  5
2C8
100
AcDbEntity
  8
0
100
AcDbPolyline
 62
7
  6
CONTINUOUS
 90
3
 70
0
 43
0.3500000006
 10
-16.4892860527
 20
262.7358045044
 10
-16.5607138367
 20
262.5215200195
 10
-16.7035716705
 20
262.2358134155
  0
LINE
  5
2C9
100
AcDbEntity
  8
0
100
AcDbLine
 62
7
  6
CONTINUOUS
 10
-65.475
 20
-92.7
 11
-65.425
 21
-92.7
  0
LINE
  5
2CA
100
AcDbEntity
  8
0
100
AcDbLine
 62
7
  6
CONTINUOUS
 10
30.425
 20
-92.7
 11
30.375
 21
-92.7
  0
LINE
  5
2CB
100
AcDbEntity
  8
0
100
AcDbLine
 62
7
  6
CONTINUOUS
 10
-65.475
 20
-90.9
 11
-65.425
 21
-90.9
  0
LINE
  5
2CC
100
AcDbEntity
  8
0
100
AcDbLine
 62
7
  6
CONTINUOUS
 10
30.425
 20
-90.9
 11
30.375
 21
-90.9
  0
LINE
  5
2CD
100
AcDbEntity
  8
ASSI
100
AcDbLine
 62
7
  6
CONTINUOUS
 10
-30.6571252104
 20
92.725
 11
-27.6549038106
 21
97.925
  0
LINE
  5
2CE
100
AcDbEntity
  8
ASSI
100
AcDbLine
 62
7
  6
CONTINUOUS
 10
-27.525
 20
97.55
 11
-30.3973175892
 21
92.575
  0
LINE
  5
2CF
100
AcDbEntity
  8
0
100
AcDbLine
 62
7
  6
CONTINUOUS
 10
-67.475
 20
-216.6
 11
-67.475
 21
-247.55
  0
LINE
  5
2D0
100
AcDbEntity
  8
0
100
AcDbLine
 62
7
  6
CONTINUOUS
 10
-67.475
 20
216.6
 11
-67.475
 21
247.55
  0
LINE
  5
2D1
100
AcDbEntity
  8
0
100
AcDbLine
 62
7
  6
CONTINUOUS
 10
-66.475
 20
-247.55
 11
-66.475
 21
247.55
  0
LINE
  5
2D2
100
AcDbEntity
  8
0
100
AcDbLine
 62
7
  6
CONTINUOUS
 10
-66.425
 20
-247.6
 11
-66.425
 21
-248.6
  0
LINE
  5
2D3
100
AcDbEntity
  8
0
100
AcDbLine
 62
7
  6
CONTINUOUS
 10
-66.425
 20
247.6
 11
-66.425
 21
248.6
  0
LINE
  5
2D4
100
AcDbEntity
  8
0
100
AcDbLine
 62
7
  6
CONTINUOUS
 10
-65.475
 20
-247.6
 11
-65.475
 21
247.6
  0
LINE
  5
2D5
100
AcDbEntity
  8
0
100
AcDbLine
 62
250
  6
CONTINUOUS
 10
-65.425
 20
215.1
 11
-65.425
 21
213.3
  0
LINE
  5
2D6
100
AcDbEntity
  8
0
100
AcDbLine
 62
250
  6
CONTINUOUS
 10
-65.425
 20
184.5
 11
-65.425
 21
182.7
  0
LINE
  5
2D7
100
AcDbEntity
  8
0
100
AcDbLine
 62
7
  6
CONTINUOUS
 10
-65.425
 20
-227.6
 11
-65.425
 21
-215.1
  0
LINE
  5
2D8
100
AcDbEntity
  8
0
100
AcDbLine
 62
250
  6
CONTINUOUS
 10
-65.425
 20
153.9
 11
-65.425
 21
152.1
  0
LINE
  5
2D9
100
AcDbEntity
  8
0
100
AcDbLine
 62
7
  6
CONTINUOUS
 10
-65.425
 20
152.1
 11
-65.425
 21
123.3
  0
LINE
  5
2DA
100
AcDbEntity
  8
0
100
AcDbLine
 62
7
  6
CONTINUOUS
 10
-65.425
 20
-213.3
 11
-65.425
 21
-184.5
  0
LINE
  5
2DB
100
AcDbEntity
  8
0
100
AcDbLine
 62
250
  6
CONTINUOUS
 10
-65.425
 20
123.3
 11
-65.425
 21
121.5
  0
LINE
  5
2DC
100
AcDbEntity
  8
0
100
AcDbLine
 62
7
  6
CONTINUOUS
 10
-65.425
 20
-182.7
 11
-65.425
 21
-153.9
  0
LINE
  5
2DD
100
AcDbEntity
  8
0
100
AcDbLine
 62
250
  6
CONTINUOUS
 10
-65.425
 20
92.7
 11
-65.425
 21
90.9
  0
LINE
  5
2DE
100
AcDbEntity
  8
0
100
AcDbLine
 62
7
  6
CONTINUOUS
 10
-65.425
 20
-152.1
 11
-65.425
 21
-123.3
  0
LINE
  5
2DF
100
AcDbEntity
  8
0
100
AcDbLine
 62
250
  6
CONTINUOUS
 10
-65.425
 20
62.1
 11
-65.425
 21
60.3
  0
LINE
  5
2E0
100
AcDbEntity
  8
0
100
AcDbLine
 62
7
  6
CONTINUOUS
 10
-65.425
 20
-121.5
 11
-65.425
 21
-92.7
  0
LINE
  5
2E1
100
AcDbEntity
  8
0
100
AcDbLine
 62
250
  6
CONTINUOUS
 10
-65.425
 20
31.5
 11
-65.425
 21
29.7
  0
LINE
  5
2E2
100
AcDbEntity
  8
0
100
AcDbLine
 62
7
  6
CONTINUOUS
 10
-65.425
 20
-90.9
 11
-65.425
 21
-62.1
  0
LINE
  5
2E3
100
AcDbEntity
  8
0
100
AcDbLine
 62
250
  6
CONTINUOUS
 10
-65.425
 20
0.9
 11
-65.425
 21
-0.9
  0
LINE
  5
2E4
100
AcDbEntity
  8
0
100
AcDbLine
 62
7
  6
CONTINUOUS
 10
-65.425
 20
-60.3
 11
-65.425
 21
-31.5
  0
LINE
  5
2E5
100
AcDbEntity
  8
0
100
AcDbLine
 62
250
  6
CONTINUOUS
 10
-65.425
 20
-29.7
 11
-65.425
 21
-31.5
  0
LINE
  5
2E6
100
AcDbEntity
  8
0
100
AcDbLine
 62
7
  6
CONTINUOUS
 10
-65.425
 20
-29.7
 11
-65.425
 21
-0.9
  0
LINE
  5
2E7
100
AcDbEntity
  8
0
100
AcDbLine
 62
250
  6
CONTINUOUS
 10
-65.425
 20
-60.3
 11
-65.425
 21
-62.1
  0
LINE
  5
2E8
100
AcDbEntity
  8
0
100
AcDbLine
 62
7
  6
CONTINUOUS
 10
-65.425
 20
0.9
 11
-65.425
 21
29.7
  0
LINE
  5
2E9
100
AcDbEntity
  8
0
100
AcDbLine
 62
250
  6
CONTINUOUS
 10
-65.425
 20
-90.9
 11
-65.425
 21
-92.7
  0
LINE
  5
2EA
100
AcDbEntity
  8
0
100
AcDbLine
 62
7
  6
CONTINUOUS
 10
-65.425
 20
31.5
 11
-65.425
 21
60.3
  0
LINE
  5
2EB
100
AcDbEntity
  8
0
100
AcDbLine
 62
250
  6
CONTINUOUS
 10
-65.425
 20
-121.5
 11
-65.425
 21
-123.3
  0
LINE
  5
2EC
100
AcDbEntity
  8
0
100
AcDbLine
 62
7
  6
CONTINUOUS
 10
-65.425
 20
62.1
 11
-65.425
 21
90.9
  0
LINE
  5
2ED
100
AcDbEntity
  8
0
100
AcDbLine
 62
250
  6
CONTINUOUS
 10
-65.425
 20
-152.1
 11
-65.425
 21
-153.9
  0
LINE
  5
2EE
100
AcDbEntity
  8
0
100
AcDbLine
 62
7
  6
CONTINUOUS
 10
-65.425
 20
92.7
 11
-65.425
 21
121.5
  0
LINE
  5
2EF
100
AcDbEntity
  8
0
100
AcDbLine
 62
250
  6
CONTINUOUS
 10
-65.425
 20
-182.7
 11
-65.425
 21
-184.5
  0
LINE
  5
2F0
100
AcDbEntity
  8
0
100
AcDbLine
 62
250
  6
CONTINUOUS
 10
-65.425
 20
-213.3
 11
-65.425
 21
-215.1
  0
LINE
  5
2F1
100
AcDbEntity
  8
0
100
AcDbLine
 62
7
  6
CONTINUOUS
 10
-65.425
 20
153.9
 11
-65.425
 21
182.7
  0
LINE
  5
2F2
100
AcDbEntity
  8
0
100
AcDbLine
 62
7
  6
CONTINUOUS
 10
-65.425
 20
184.5
 11
-65.425
 21
213.3
  0
LINE
  5
2F3
100
AcDbEntity
  8
0
100
AcDbLine
 62
7
  6
CONTINUOUS
 10
-65.425
 20
215.1
 11
-65.425
 21
227.6
  0
LINE
  5
2F4
100
AcDbEntity
  8
0
100
AcDbLine
 62
7
  6
CONTINUOUS
 10
-63.975
 20
-227.6
 11
-63.975
 21
-233.9
  0
LINE
  5
2F5
100
AcDbEntity
  8
0
100
AcDbLine
 62
7
  6
CONTINUOUS
 10
-63.975
 20
227.6
 11
-63.975
 21
230.7
  0
LINE
  5
2F6
100
AcDbEntity
  8
0
100
AcDbLine
 62
250
  6
CONTINUOUS
 10
-63.475
 20
247.6
 11
-63.475
 21
230.7
  0
LINE
  5
2F7
100
AcDbEntity
  8
0
100
AcDbLine
 62
250
  6
CONTINUOUS
 10
-63.475
 20
-247.6
 11
-63.475
 21
-233.9
  0
LINE
  5
2F8
100
AcDbEntity
  8
0
100
AcDbLine
 62
7
  6
CONTINUOUS
 10
-21.3925461381
 20
249.1868240888
 11
-21.4960190579
 21
248.6
  0
LINE
  5
2F9
100
AcDbEntity
  8
0
100
AcDbLine
 62
7
  6
CONTINUOUS
 10
-21.6723460386
 20
247.6
 11
-21.9521459391
 21
246.0131759112
  0
LINE
  5
2FA
100
AcDbEntity
  8
0
100
AcDbLine
 62
7
  6
CONTINUOUS
 10
-65.475
 20
-62.1
 11
-65.425
 21
-62.1
  0
LINE
  5
2FB
100
AcDbEntity
  8
0
100
AcDbLine
 62
7
  6
CONTINUOUS
 10
30.425
 20
-62.1
 11
30.375
 21
-62.1
  0
LINE
  5
2FC
100
AcDbEntity
  8
0
100
AcDbLine
 62
7
  6
CONTINUOUS
 10
-65.475
 20
-60.3
 11
-65.425
 21
-60.3
  0
LINE
  5
2FD
100
AcDbEntity
  8
0
100
AcDbLine
 62
7
  6
CONTINUOUS
 10
30.425
 20
-60.3
 11
30.375
 21
-60.3
  0
LINE
  5
2FE
100
AcDbEntity
  8
0
100
AcDbLine
 62
7
  6
CONTINUOUS
 10
10.2429491924
 20
-248.6
 11
10.4115989657
 21
-249.2294095226
  0
LINE
  5
2FF
100
AcDbEntity
  8
0
100
AcDbLine
 62
7
  6
CONTINUOUS
 10
-21.0521459391
 20
-246.0131759112
 11
-20.7723460386
 21
-247.6
  0
LINE
  5
300
100
AcDbEntity
  8
0
100
AcDbLine
 62
7
  6
CONTINUOUS
 10
-20.5960190579
 20
-248.6
 11
-20.4925461381
 21
-249.1868240888
  0
LINE
  5
301
100
AcDbEntity
  8
0
100
AcDbLine
 62
7
  6
CONTINUOUS
 10
-45.925
 20
-239.304238927
 11
-45.925
 21
-238.1957626042
  0
LINE
  5
302
100
AcDbEntity
  8
SMUSSO
100
AcDbLine
 62
7
  6
CONTINUOUS
 10
-45.775
 20
-237.0463274963
 11
-45.775
 21
-240.4536725037
  0
LINE
  5
303
100
AcDbEntity
  8
SMUSSO
100
AcDbLine
 62
7
  6
CONTINUOUS
 10
-39.775
 20
-240.4536725037
 11
-39.775
 21
-237.0463274963
  0
LINE
  5
304
100
AcDbEntity
  8
0
100
AcDbLine
 62
7
  6
CONTINUOUS
 10
-39.625
 20
-238.2048861444
 11
-39.625
 21
-239.2951870199
  0
LINE
  5
305
100
AcDbEntity
  8
0
100
AcDbLine
 62
7
  6
CONTINUOUS
 10
-38.925
 20
-245.6
 11
-38.925
 21
-247.1
  0
LINE
  5
306
100
AcDbEntity
  8
0
100
AcDbLine
 62
7
  6
CONTINUOUS
 10
-37.425
 20
-247.6
 11
-37.425
 21
-245.6
  0
LINE
  5
307
100
AcDbEntity
  8
0
100
AcDbLine
 62
7
  6
CONTINUOUS
 10
-36.525
 20
247.6
 11
-36.525
 21
245.6
  0
LINE
  5
308
100
AcDbEntity
  8
0
100
AcDbLine
 62
7
  6
CONTINUOUS
 10
-42.6156554317
 20
-233.9026183038
 11
-42.6462412113
 21
-234.8330607414
  0
LINE
  5
309
100
AcDbEntity
  8
0
100
AcDbLine
 62
7
  6
CONTINUOUS
 10
3.6074538619
 20
249.1868240888
 11
3.5039809421
 21
248.6
  0
LINE
  5
30A
100
AcDbEntity
  8
0
100
AcDbLine
 62
7
  6
CONTINUOUS
 10
3.3276539614
 20
247.6
 11
3.0478540609
 21
246.0131759112
  0
LINE
  5
30B
100
AcDbEntity
  8
ASSI
100
AcDbLine
 62
7
  6
CONTINUOUS
 10
-27.675
 20
80.15
 11
-27.675
 21
92.85
  0
LINE
  5
30C
100
AcDbEntity
  8
ASSI
100
AcDbLine
 62
7
  6
CONTINUOUS
 10
-27.375
 20
92.85
 11
-27.375
 21
80.15
  0
LINE
  5
30D
100
AcDbEntity
  8
0
100
AcDbLine
 62
7
  6
CONTINUOUS
 10
-23.525
 20
247.6
 11
-23.525
 21
245.6
  0
LINE
  5
30E
100
AcDbEntity
  8
0
100
AcDbLine
 62
7
  6
CONTINUOUS
 10
-22.625
 20
-247.6
 11
-22.625
 21
-245.6
  0
LINE
  5
30F
100
AcDbEntity
  8
0
100
AcDbLine
 62
7
  6
CONTINUOUS
 10
-20.775
 20
-232.7
 11
-20.775
 21
-228.2
  0
LINE
  5
310
100
AcDbEntity
  8
0
100
AcDbLine
 62
7
  6
CONTINUOUS
 10
-20.775
 20
238.3
 11
-20.775
 21
242.8
  0
LINE
  5
311
100
AcDbEntity
  8
ASSI
100
AcDbLine
 62
7
  6
CONTINUOUS
 10
-20.525
 20
83.2212375356
 11
-20.525
 21
89.85
  0
LINE
  5
312
100
AcDbEntity
  8
ASSI
100
AcDbLine
 62
7
  6
CONTINUOUS
 10
-20.225
 20
89.85
 11
-20.225
 21
83.2212375356
  0
LINE
  5
313
100
AcDbEntity
  8
0
100
AcDbLine
 62
7
  6
CONTINUOUS
 10
-19.525
 20
244.55
 11
-19.525
 21
242.75
  0
LINE
  5
314
100
AcDbEntity
  8
0
100
AcDbLine
 62
7
  6
CONTINUOUS
 10
-19.525
 20
238.35
 11
-19.525
 21
236.55
  0
LINE
  5
315
100
AcDbEntity
  8
0
100
AcDbLine
 62
7
  6
CONTINUOUS
 10
-19.525
 20
-226.45
 11
-19.525
 21
-228.25
  0
LINE
  5
316
100
AcDbEntity
  8
0
100
AcDbLine
 62
7
  6
CONTINUOUS
 10
-19.525
 20
-232.65
 11
-19.525
 21
-234.45
  0
LINE
  5
317
100
AcDbEntity
  8
ASSI
100
AcDbLine
 62
7
  6
CONTINUOUS
 10
-18.225
 20
182.6306175621
 11
-18.225
 21
182.1298186301
  0
LINE
  5
318
100
AcDbEntity
  8
ASSI
100
AcDbLine
 62
7
  6
CONTINUOUS
 10
-18.225
 20
157.8701813699
 11
-18.225
 21
157.3693824379
  0
LINE
  5
319
100
AcDbEntity
  8
ASSI
100
AcDbLine
 62
7
  6
CONTINUOUS
 10
-18.225
 20
12.6306175621
 11
-18.225
 21
12.1298186301
  0
LINE
  5
31A
100
AcDbEntity
  8
ASSI
100
AcDbLine
 62
7
  6
CONTINUOUS
 10
-18.225
 20
-12.1298186301
 11
-18.225
 21
-12.6306175621
  0
LINE
  5
31B
100
AcDbEntity
  8
ASSI
100
AcDbLine
 62
7
  6
CONTINUOUS
 10
-18.225
 20
-157.3693824379
 11
-18.225
 21
-157.8701813699
  0
LINE
  5
31C
100
AcDbEntity
  8
ASSI
100
AcDbLine
 62
7
  6
CONTINUOUS
 10
-18.225
 20
-182.1298186301
 11
-18.225
 21
-182.6306175621
  0
LINE
  5
31D
100
AcDbEntity
  8
ASSI
100
AcDbLine
 62
7
  6
CONTINUOUS
 10
-16.825
 20
-182.6306175621
 11
-16.825
 21
-182.1298186301
  0
LINE
  5
31E
100
AcDbEntity
  8
ASSI
100
AcDbLine
 62
7
  6
CONTINUOUS
 10
-16.825
 20
-157.8701813699
 11
-16.825
 21
-157.3693824379
  0
LINE
  5
31F
100
AcDbEntity
  8
ASSI
100
AcDbLine
 62
7
  6
CONTINUOUS
 10
-16.825
 20
-12.6306175621
 11
-16.825
 21
-12.1298186301
  0
LINE
  5
320
100
AcDbEntity
  8
ASSI
100
AcDbLine
 62
7
  6
CONTINUOUS
 10
-16.825
 20
12.1298186301
 11
-16.825
 21
12.6306175621
  0
LINE
  5
321
100
AcDbEntity
  8
ASSI
100
AcDbLine
 62
7
  6
CONTINUOUS
 10
-16.825
 20
157.3693824379
 11
-16.825
 21
157.8701813699
  0
LINE
  5
322
100
AcDbEntity
  8
ASSI
100
AcDbLine
 62
7
  6
CONTINUOUS
 10
-16.825
 20
182.1298186301
 11
-16.825
 21
182.6306175621
  0
LINE
  5
323
100
AcDbEntity
  8
0
100
AcDbLine
 62
7
  6
CONTINUOUS
 10
-15.525
 20
244.55
 11
-15.525
 21
242.75
  0
LINE
  5
324
100
AcDbEntity
  8
0
100
AcDbLine
 62
7
  6
CONTINUOUS
 10
-15.525
 20
238.35
 11
-15.525
 21
236.55
  0
LINE
  5
325
100
AcDbEntity
  8
0
100
AcDbLine
 62
7
  6
CONTINUOUS
 10
-15.525
 20
-226.45
 11
-15.525
 21
-228.25
  0
LINE
  5
326
100
AcDbEntity
  8
0
100
AcDbLine
 62
7
  6
CONTINUOUS
 10
-15.525
 20
-232.65
 11
-15.525
 21
-234.45
  0
LINE
  5
327
100
AcDbEntity
  8
0
100
AcDbLine
 62
7
  6
CONTINUOUS
 10
-65.475
 20
-31.5
 11
-65.425
 21
-31.5
  0
LINE
  5
328
100
AcDbEntity
  8
0
100
AcDbLine
 62
7
  6
CONTINUOUS
 10
30.425
 20
-31.5
 11
30.375
 21
-31.5
  0
LINE
  5
329
100
AcDbEntity
  8
0
100
AcDbLine
 62
7
  6
CONTINUOUS
 10
-65.475
 20
-29.7
 11
-65.425
 21
-29.7
  0
LINE
  5
32A
100
AcDbEntity
  8
0
100
AcDbLine
 62
7
  6
CONTINUOUS
 10
30.425
 20
-29.7
 11
30.375
 21
-29.7
  0
LINE
  5
32B
100
AcDbEntity
  8
0
100
AcDbLine
 62
7
  6
CONTINUOUS
 10
-14.275
 20
242.8
 11
-14.275
 21
238.3
  0
LINE
  5
32C
100
AcDbEntity
  8
0
100
AcDbLine
 62
7
  6
CONTINUOUS
 10
-14.275
 20
-228.2
 11
-14.275
 21
-232.7
  0
LINE
  5
32D
100
AcDbEntity
  8
ASSI
100
AcDbLine
 62
7
  6
CONTINUOUS
 10
-13.825
 20
83.2212375356
 11
-13.825
 21
89.85
  0
LINE
  5
32E
100
AcDbEntity
  8
ASSI
100
AcDbLine
 62
7
  6
CONTINUOUS
 10
-13.525
 20
89.85
 11
-13.525
 21
83.2212375356
  0
LINE
  5
32F
100
AcDbEntity
  8
0
100
AcDbLine
 62
7
  6
CONTINUOUS
 10
-12.425
 20
-247.6
 11
-12.425
 21
-245.6
  0
LINE
  5
330
100
AcDbEntity
  8
0
100
AcDbLine
 62
7
  6
CONTINUOUS
 10
-11.525
 20
247.6
 11
-11.525
 21
245.6
  0
LINE
  5
331
100
AcDbEntity
  8
ASSI
100
AcDbLine
 62
7
  6
CONTINUOUS
 10
-11.525
 20
80.15
 11
-11.525
 21
89.85
  0
LINE
  5
332
100
AcDbEntity
  8
ASSI
100
AcDbLine
 62
7
  6
CONTINUOUS
 10
-11.225
 20
89.85
 11
-11.225
 21
80.15
  0
LINE
  5
333
100
AcDbEntity
  8
0
100
AcDbLine
 62
7
  6
CONTINUOUS
 10
1.475
 20
247.6
 11
1.475
 21
245.6
  0
LINE
  5
334
100
AcDbEntity
  8
0
100
AcDbLine
 62
7
  6
CONTINUOUS
 10
7.8537587887
 20
239.1669392586
 11
7.8843445683
 21
240.0973816962
  0
LWPOLYLINE
  5
335
100
AcDbEntity
  8
0
100
AcDbPolyline
 62
7
  6
CONTINUOUS
 90
2
 70
0
 43
0.3500000006
 10
61.7230905304
 20
-4.5714283447
 10
60.2230900726
 20
-4.5714283447
  0
LINE
  5
336
100
AcDbEntity
  8
0
100
AcDbLine
 62
7
  6
CONTINUOUS
 10
-65.475
 20
-0.9
 11
-65.425
 21
-0.9
  0
LINE
  5
337
100
AcDbEntity
  8
0
100
AcDbLine
 62
7
  6
CONTINUOUS
 10
30.425
 20
-0.9
 11
30.375
 21
-0.9
  0
LINE
  5
338
100
AcDbEntity
  8
0
100
AcDbLine
 62
7
  6
CONTINUOUS
 10
-65.475
 20
0.9
 11
-65.425
 21
0.9
  0
LINE
  5
339
100
AcDbEntity
  8
0
100
AcDbLine
 62
7
  6
CONTINUOUS
 10
30.425
 20
0.9
 11
30.375
 21
0.9
  0
LINE
  5
33A
100
AcDbEntity
  8
0
100
AcDbLine
 62
7
  6
CONTINUOUS
 10
2.375
 20
-247.6
 11
2.375
 21
-245.6
  0
LINE
  5
33B
100
AcDbEntity
  8
0
100
AcDbLine
 62
7
  6
CONTINUOUS
 10
3.875
 20
-245.6
 11
3.875
 21
-247.1
  0
LINE
  5
33C
100
AcDbEntity
  8
0
100
AcDbLine
 62
7
  6
CONTINUOUS
 10
4.575
 20
234.695761073
 11
4.575
 21
235.8042373958
  0
LINE
  5
33D
100
AcDbEntity
  8
SMUSSO
100
AcDbLine
 62
7
  6
CONTINUOUS
 10
4.725
 20
236.9536725037
 11
4.725
 21
233.5463274963
  0
LINE
  5
33E
100
AcDbEntity
  8
SMUSSO
100
AcDbLine
 62
7
  6
CONTINUOUS
 10
10.725
 20
233.5463274963
 11
10.725
 21
236.9536725037
  0
LINE
  5
33F
100
AcDbEntity
  8
0
100
AcDbLine
 62
7
  6
CONTINUOUS
 10
10.875
 20
235.7951138556
 11
10.875
 21
234.7048129801
  0
LWPOLYLINE
  5
340
100
AcDbEntity
  8
0
100
AcDbPolyline
 62
7
  6
CONTINUOUS
 90
2
 70
0
 43
0.3500000006
 10
51.7230920105
 20
2.8357138596
 10
50.2230915527
 20
2.8357138596
  0
LWPOLYLINE
  5
341
100
AcDbEntity
  8
0
100
AcDbPolyline
 62
7
  6
CONTINUOUS
 90
4
 70
0
 43
0.3500000006
 10
49.3659490814
 20
4.1928564835
 10
48.723091095
 20
4.1928564835
 10
48.723091095
 20
5.6928569412
 10
51.7230920105
 20
4.8357144699
  0
LINE
  5
342
100
AcDbEntity
  8
0
100
AcDbLine
 62
7
  6
CONTINUOUS
 10
-38.0978540609
 20
246.0131759112
 11
-38.3776539614
 21
247.6
  0
LINE
  5
343
100
AcDbEntity
  8
0
100
AcDbLine
 62
7
  6
CONTINUOUS
 10
-38.5539809421
 20
248.6
 11
-38.6574538619
 21
249.1868240888
  0
LINE
  5
344
100
AcDbEntity
  8
0
100
AcDbLine
 62
250
  6
CONTINUOUS
 10
28.425
 20
247.6
 11
28.425
 21
230.7
  0
LINE
  5
345
100
AcDbEntity
  8
0
100
AcDbLine
 62
250
  6
CONTINUOUS
 10
28.425
 20
-247.6
 11
28.425
 21
-233.9
  0
LINE
  5
346
100
AcDbEntity
  8
0
100
AcDbLine
 62
7
  6
CONTINUOUS
 10
28.925
 20
-227.6
 11
28.925
 21
-233.9
  0
LINE
  5
347
100
AcDbEntity
  8
0
100
AcDbLine
 62
7
  6
CONTINUOUS
 10
28.925
 20
227.6
 11
28.925
 21
230.7
  0
LINE
  5
348
100
AcDbEntity
  8
0
100
AcDbLine
 62
7
  6
CONTINUOUS
 10
30.375
 20
227.6
 11
30.375
 21
215.1
  0
LINE
  5
349
100
AcDbEntity
  8
0
100
AcDbLine
 62
7
  6
CONTINUOUS
 10
30.375
 20
213.3
 11
30.375
 21
184.5
  0
LINE
  5
34A
100
AcDbEntity
  8
0
100
AcDbLine
 62
7
  6
CONTINUOUS
 10
30.375
 20
182.7
 11
30.375
 21
153.9
  0
LINE
  5
34B
100
AcDbEntity
  8
0
100
AcDbLine
 62
250
  6
CONTINUOUS
 10
30.375
 20
-215.1
 11
30.375
 21
-213.3
  0
LINE
  5
34C
100
AcDbEntity
  8
0
100
AcDbLine
 62
7
  6
CONTINUOUS
 10
30.375
 20
152.1
 11
30.375
 21
123.3
  0
LINE
  5
34D
100
AcDbEntity
  8
0
100
AcDbLine
 62
250
  6
CONTINUOUS
 10
30.375
 20
-184.5
 11
30.375
 21
-182.7
  0
LINE
  5
34E
100
AcDbEntity
  8
0
100
AcDbLine
 62
7
  6
CONTINUOUS
 10
30.375
 20
121.5
 11
30.375
 21
92.7
  0
LINE
  5
34F
100
AcDbEntity
  8
0
100
AcDbLine
 62
250
  6
CONTINUOUS
 10
30.375
 20
-153.9
 11
30.375
 21
-152.1
  0
LINE
  5
350
100
AcDbEntity
  8
0
100
AcDbLine
 62
7
  6
CONTINUOUS
 10
30.375
 20
90.9
 11
30.375
 21
62.1
  0
LINE
  5
351
100
AcDbEntity
  8
0
100
AcDbLine
 62
7
  6
CONTINUOUS
 10
30.375
 20
-152.1
 11
30.375
 21
-123.3
  0
LINE
  5
352
100
AcDbEntity
  8
0
100
AcDbLine
 62
250
  6
CONTINUOUS
 10
30.375
 20
-123.3
 11
30.375
 21
-121.5
  0
LINE
  5
353
100
AcDbEntity
  8
0
100
AcDbLine
 62
7
  6
CONTINUOUS
 10
30.375
 20
60.3
 11
30.375
 21
31.5
  0
LINE
  5
354
100
AcDbEntity
  8
0
100
AcDbLine
 62
250
  6
CONTINUOUS
 10
30.375
 20
-92.7
 11
30.375
 21
-90.9
  0
LINE
  5
355
100
AcDbEntity
  8
0
100
AcDbLine
 62
7
  6
CONTINUOUS
 10
30.375
 20
29.7
 11
30.375
 21
0.9
  0
LINE
  5
356
100
AcDbEntity
  8
0
100
AcDbLine
 62
250
  6
CONTINUOUS
 10
30.375
 20
-62.1
 11
30.375
 21
-60.3
  0
LINE
  5
357
100
AcDbEntity
  8
0
100
AcDbLine
 62
7
  6
CONTINUOUS
 10
30.375
 20
-0.9
 11
30.375
 21
-29.7
  0
LINE
  5
358
100
AcDbEntity
  8
0
100
AcDbLine
 62
250
  6
CONTINUOUS
 10
30.375
 20
-31.5
 11
30.375
 21
-29.7
  0
LINE
  5
359
100
AcDbEntity
  8
0
100
AcDbLine
 62
7
  6
CONTINUOUS
 10
30.375
 20
-31.5
 11
30.375
 21
-60.3
  0
LINE
  5
35A
100
AcDbEntity
  8
0
100
AcDbLine
 62
250
  6
CONTINUOUS
 10
30.375
 20
-0.9
 11
30.375
 21
0.9
  0
LINE
  5
35B
100
AcDbEntity
  8
0
100
AcDbLine
 62
7
  6
CONTINUOUS
 10
30.375
 20
-62.1
 11
30.375
 21
-90.9
  0
LINE
  5
35C
100
AcDbEntity
  8
0
100
AcDbLine
 62
250
  6
CONTINUOUS
 10
30.375
 20
29.7
 11
30.375
 21
31.5
  0
LINE
  5
35D
100
AcDbEntity
  8
0
100
AcDbLine
 62
7
  6
CONTINUOUS
 10
30.375
 20
-92.7
 11
30.375
 21
-121.5
  0
LINE
  5
35E
100
AcDbEntity
  8
0
100
AcDbLine
 62
250
  6
CONTINUOUS
 10
30.375
 20
60.3
 11
30.375
 21
62.1
  0
LINE
  5
35F
100
AcDbEntity
  8
0
100
AcDbLine
 62
250
  6
CONTINUOUS
 10
30.375
 20
90.9
 11
30.375
 21
92.7
  0
LINE
  5
360
100
AcDbEntity
  8
0
100
AcDbLine
 62
7
  6
CONTINUOUS
 10
30.375
 20
-153.9
 11
30.375
 21
-182.7
  0
LINE
  5
361
100
AcDbEntity
  8
0
100
AcDbLine
 62
250
  6
CONTINUOUS
 10
30.375
 20
121.5
 11
30.375
 21
123.3
  0
LINE
  5
362
100
AcDbEntity
  8
0
100
AcDbLine
 62
7
  6
CONTINUOUS
 10
30.375
 20
-184.5
 11
30.375
 21
-213.3
  0
LINE
  5
363
100
AcDbEntity
  8
0
100
AcDbLine
 62
250
  6
CONTINUOUS
 10
30.375
 20
152.1
 11
30.375
 21
153.9
  0
LINE
  5
364
100
AcDbEntity
  8
0
100
AcDbLine
 62
7
  6
CONTINUOUS
 10
30.375
 20
-215.1
 11
30.375
 21
-227.6
  0
LINE
  5
365
100
AcDbEntity
  8
0
100
AcDbLine
 62
250
  6
CONTINUOUS
 10
30.375
 20
182.7
 11
30.375
 21
184.5
  0
LINE
  5
366
100
AcDbEntity
  8
0
100
AcDbLine
 62
250
  6
CONTINUOUS
 10
30.375
 20
213.3
 11
30.375
 21
215.1
  0
LINE
  5
367
100
AcDbEntity
  8
0
100
AcDbLine
 62
7
  6
CONTINUOUS
 10
30.425
 20
-247.6
 11
30.425
 21
247.6
  0
LINE
  5
368
100
AcDbEntity
  8
0
100
AcDbLine
 62
7
  6
CONTINUOUS
 10
31.375
 20
-247.6
 11
31.375
 21
-248.6
  0
LINE
  5
369
100
AcDbEntity
  8
0
100
AcDbLine
 62
7
  6
CONTINUOUS
 10
31.375
 20
247.6
 11
31.375
 21
248.6
  0
LINE
  5
36A
100
AcDbEntity
  8
0
100
AcDbLine
 62
7
  6
CONTINUOUS
 10
31.425
 20
247.55
 11
31.425
 21
-247.55
  0
LINE
  5
36B
100
AcDbEntity
  8
0
100
AcDbLine
 62
7
  6
CONTINUOUS
 10
32.425
 20
-216.6
 11
32.425
 21
-247.55
  0
LINE
  5
36C
100
AcDbEntity
  8
0
100
AcDbLine
 62
7
  6
CONTINUOUS
 10
32.425
 20
216.6
 11
32.425
 21
247.55
  0
LINE
  5
36D
100
AcDbEntity
  8
0
100
AcDbLine
 62
7
  6
CONTINUOUS
 10
-14.5574538619
 20
-249.1868240888
 11
-14.4539809421
 21
-248.6
  0
LINE
  5
36E
100
AcDbEntity
  8
0
100
AcDbLine
 62
7
  6
CONTINUOUS
 10
-14.2776539614
 20
-247.6
 11
-13.9978540609
 21
-246.0131759112
  0
LINE
  5
36F
100
AcDbEntity
  8
0
100
AcDbLine
 62
7
  6
CONTINUOUS
 10
-45.4615989657
 20
-249.2294095226
 11
-45.2929491924
 21
-248.6
  0
LWPOLYLINE
  5
370
100
AcDbEntity
  8
0
100
AcDbPolyline
 62
7
  6
CONTINUOUS
 90
10
 70
0
 43
0.3500000006
 10
61.2230903778
 20
2.1428581238
 10
61.3659482117
 20
2.2142847748
 10
61.4373748627
 20
2.2142847748
 10
61.5802326965
 20
2.0714292068
 10
61.5802326965
 20
2.0000002899
 10
61.5088060455
 20
1.928571373
 10
61.4373748627
 20
1.928571373
 10
61.2945170288
 20
2.0000002899
 10
61.2230903778
 20
2.0714292068
 10
61.2230903778
 20
2.1428581238
  0
LINE
  5
371
100
AcDbEntity
  8
0
100
AcDbLine
 62
7
  6
CONTINUOUS
 10
-65.475
 20
29.7
 11
-65.425
 21
29.7
  0
LINE
  5
372
100
AcDbEntity
  8
0
100
AcDbLine
 62
7
  6
CONTINUOUS
 10
30.425
 20
29.7
 11
30.375
 21
29.7
  0
LINE
  5
373
100
AcDbEntity
  8
0
100
AcDbLine
 62
7
  6
CONTINUOUS
 10
-65.475
 20
31.5
 11
-65.425
 21
31.5
  0
LINE
  5
374
100
AcDbEntity
  8
0
100
AcDbLine
 62
7
  6
CONTINUOUS
 10
30.425
 20
31.5
 11
30.375
 21
31.5
  0
LWPOLYLINE
  5
375
100
AcDbEntity
  8
0
100
AcDbPolyline
 62
7
  6
CONTINUOUS
 90
3
 70
0
 43
0.3500000006
 10
61.4373748627
 20
2.2142847748
 10
61.6516638794
 20
2.1428581238
 10
61.9373750153
 20
2.0000002899
  0
LINE
  5
376
100
AcDbEntity
  8
ASSI
100
AcDbLine
 62
7
  6
CONTINUOUS
 10
-24.6526824108
 20
92.575
 11
-27.525
 21
97.55
  0
LINE
  5
377
100
AcDbEntity
  8
ASSI
100
AcDbLine
 62
7
  6
CONTINUOUS
 10
-27.3950961894
 20
97.925
 11
-24.3928747896
 21
92.725
  0
LINE
  5
378
100
AcDbEntity
  8
0
100
AcDbLine
 62
7
  6
CONTINUOUS
 10
-13.0978540609
 20
246.0131759112
 11
-13.3776539614
 21
247.6
  0
LINE
  5
379
100
AcDbEntity
  8
0
100
AcDbLine
 62
7
  6
CONTINUOUS
 10
-13.5539809421
 20
248.6
 11
-13.6574538619
 21
249.1868240888
  0
LWPOLYLINE
  5
37A
100
AcDbEntity
  8
0
100
AcDbPolyline
 62
7
  6
CONTINUOUS
 90
3
 70
0
 43
0.3500000006
 10
51.080234024
 20
3.3357140121
 10
51.080234024
 20
1.8357135544
 10
48.723091095
 20
2.4785715408
  0
LWPOLYLINE
  5
37B
100
AcDbEntity
  8
0
100
AcDbPolyline
 62
7
  6
CONTINUOUS
 90
3
 70
0
 43
0.3500000006
 10
49.5802335663
 20
6.5499994125
 10
48.723091095
 20
7.4071418839
 10
51.7230920105
 20
7.4071418839
  0
LWPOLYLINE
  5
37C
100
AcDbEntity
  8
0
100
AcDbPolyline
 62
7
  6
CONTINUOUS
 90
10
 70
0
 43
0.3500000006
 10
61.7230905304
 20
-2.7857144852
 10
60.8659480591
 20
-1.9285708809
 10
60.0088055878
 20
-1.7142852631
 10
59.1516631165
 20
-1.7142852631
 10
58.7230896149
 20
-2.1428576317
 10
58.7230896149
 20
-2.7857144852
 10
59.1516631165
 20
-3.2142857208
 10
60.0088055878
 20
-3.2142857208
 10
60.4373745575
 20
-2.7857144852
 10
60.4373745575
 20
-1.8571430969
  0
LWPOLYLINE
  5
37D
100
AcDbEntity
  8
0
100
AcDbPolyline
 62
7
  6
CONTINUOUS
 90
10
 70
0
 43
0.3500000006
 10
61.7230905304
 20
-0.4285715561
 10
60.8659480591
 20
0.4285709152
 10
60.0088055878
 20
0.642857666
 10
59.1516631165
 20
0.642857666
 10
58.7230896149
 20
0.2142864304
 10
58.7230896149
 20
-0.4285715561
 10
59.1516631165
 20
-0.8571427917
 10
60.0088055878
 20
-0.8571427917
 10
60.4373745575
 20
-0.4285715561
 10
60.4373745575
 20
0.4999998322
  0
LINE
  5
37E
100
AcDbEntity
  8
0
100
AcDbLine
 62
7
  6
CONTINUOUS
 10
11.7986730193
 20
248.6
 11
11.6952000995
 21
249.1868240888
  0
LWPOLYLINE
  5
37F
100
AcDbEntity
  8
0
100
AcDbPolyline
 62
7
  6
CONTINUOUS
 90
3
 70
0
 43
0.3500000006
 10
61.0802325439
 20
-4.0714281921
 10
61.0802325439
 20
-5.5714286499
 10
58.7230896149
 20
-4.9285717964
  0
LWPOLYLINE
  5
380
100
AcDbEntity
  8
0
100
AcDbPolyline
 62
7
  6
CONTINUOUS
 90
7
 70
0
 43
0.3500000006
 10
61.7230905304
 20
4.7142855377
 10
61.7230905304
 20
3.21428508
 10
59.5802320862
 20
4.7142855377
 10
59.1516631165
 20
4.7142855377
 10
58.7230896149
 20
4.2857143021
 10
58.7230896149
 20
3.6428563156
 10
59.3659476013
 20
3.21428508
  0
LINE
  5
381
100
AcDbEntity
  8
0
100
AcDbLine
 62
7
  6
CONTINUOUS
 10
-65.475
 20
60.3
 11
-65.425
 21
60.3
  0
LINE
  5
382
100
AcDbEntity
  8
0
100
AcDbLine
 62
7
  6
CONTINUOUS
 10
30.425
 20
60.3
 11
30.375
 21
60.3
  0
LINE
  5
383
100
AcDbEntity
  8
0
100
AcDbLine
 62
7
  6
CONTINUOUS
 10
-65.475
 20
62.1
 11
-65.425
 21
62.1
  0
LINE
  5
384
100
AcDbEntity
  8
0
100
AcDbLine
 62
7
  6
CONTINUOUS
 10
30.425
 20
62.1
 11
30.375
 21
62.1
  0
LINE
  5
385
100
AcDbEntity
  8
0
100
AcDbLine
 62
7
  6
CONTINUOUS
 10
18.5384010343
 20
-249.2294095226
 11
18.7070508076
 21
-248.6
  0
LINE
  5
386
100
AcDbEntity
  8
ASSI
100
AcDbLine
 62
7
  6
CONTINUOUS
 10
-7.2376223327
 20
84.45
 11
-10.075
 21
84.45
  0
LINE
  5
387
100
AcDbEntity
  8
ASSI
100
AcDbLine
 62
7
  6
CONTINUOUS
 10
-10.075
 20
84.75
 11
-7.2376223327
 21
84.75
  0
LINE
  5
388
100
AcDbEntity
  8
ASSI
100
AcDbLine
 62
7
  6
CONTINUOUS
 10
-7.2376223327
 20
89.7
 11
-10.075
 21
89.7
  0
LINE
  5
389
100
AcDbEntity
  8
ASSI
100
AcDbLine
 62
7
  6
CONTINUOUS
 10
-10.075
 20
90.0
 11
-7.2376223327
 21
90.0
  0
LINE
  5
38A
100
AcDbEntity
  8
0
100
AcDbLine
 62
7
  6
CONTINUOUS
 10
-65.475
 20
90.9
 11
-65.425
 21
90.9
  0
LINE
  5
38B
100
AcDbEntity
  8
0
100
AcDbLine
 62
7
  6
CONTINUOUS
 10
30.425
 20
90.9
 11
30.375
 21
90.9
  0
LINE
  5
38C
100
AcDbEntity
  8
0
100
AcDbLine
 62
7
  6
CONTINUOUS
 10
-65.475
 20
92.7
 11
-65.425
 21
92.7
  0
LINE
  5
38D
100
AcDbEntity
  8
0
100
AcDbLine
 62
7
  6
CONTINUOUS
 10
30.425
 20
92.7
 11
30.375
 21
92.7
  0
LWPOLYLINE
  5
38E
100
AcDbEntity
  8
0
100
AcDbPolyline
 62
7
  6
CONTINUOUS
 90
10
 70
0
 43
0.3500000006
 10
-16.5607138367
 20
262.9500889893
 10
-16.4892860527
 20
262.8072266235
 10
-16.4892860527
 20
262.7358045044
 10
-16.6321427536
 20
262.5929421387
 10
-16.7035716705
 20
262.5929421387
 10
-16.7749994545
 20
262.6643823853
 10
-16.7749994545
 20
262.7358045044
 10
-16.7035716705
 20
262.8786668701
 10
-16.6321427536
 20
262.9500889893
 10
-16.5607138367
 20
262.9500889893
  0
LINE
  5
38F
100
AcDbEntity
  8
0
100
AcDbLine
 62
7
  6
CONTINUOUS
 10
-65.475
 20
121.5
 11
-65.425
 21
121.5
  0
LINE
  5
390
100
AcDbEntity
  8
0
100
AcDbLine
 62
7
  6
CONTINUOUS
 10
30.425
 20
121.5
 11
30.375
 21
121.5
  0
LINE
  5
391
100
AcDbEntity
  8
0
100
AcDbLine
 62
7
  6
CONTINUOUS
 10
-65.475
 20
123.3
 11
-65.425
 21
123.3
  0
LINE
  5
392
100
AcDbEntity
  8
0
100
AcDbLine
 62
7
  6
CONTINUOUS
 10
30.425
 20
123.3
 11
30.375
 21
123.3
  0
LINE
  5
393
100
AcDbEntity
  8
0
100
AcDbLine
 62
7
  6
CONTINUOUS
 10
11.7624722236
 20
236.3711727453
 11
11.7558807613
 21
236.3831390632
  0
LINE
  5
394
100
AcDbEntity
  8
0
100
AcDbLine
 62
7
  6
CONTINUOUS
 10
11.5169134125
 20
236.8452412471
 11
11.4958977073
 21
236.8834390483
  0
LINE
  5
395
100
AcDbEntity
  8
0
100
AcDbLine
 62
7
  6
CONTINUOUS
 10
11.5366580712
 20
236.8087836532
 11
11.5169134125
 21
236.8452412471
  0
LINE
  5
396
100
AcDbEntity
  8
0
100
AcDbLine
 62
7
  6
CONTINUOUS
 10
11.7558807613
 20
236.3831390632
 11
11.749036848
 21
236.3957919822
  0
LINE
  5
397
100
AcDbEntity
  8
0
100
AcDbLine
 62
7
  6
CONTINUOUS
 10
11.555220262
 20
236.7740256452
 11
11.5366580712
 21
236.8087836532
  0
LINE
  5
398
100
AcDbEntity
  8
0
100
AcDbLine
 62
7
  6
CONTINUOUS
 10
11.749036848
 20
236.3957919822
 11
11.7419071546
 21
236.4091850518
  0
LINE
  5
399
100
AcDbEntity
  8
0
100
AcDbLine
 62
7
  6
CONTINUOUS
 10
11.5726571084
 20
236.7409388502
 11
11.555220262
 21
236.7740256452
  0
LINE
  5
39A
100
AcDbEntity
  8
0
100
AcDbLine
 62
7
  6
CONTINUOUS
 10
11.7419071546
 20
236.4091850518
 11
11.7344423759
 21
236.42340023
  0
LINE
  5
39B
100
AcDbEntity
  8
0
100
AcDbLine
 62
7
  6
CONTINUOUS
 10
11.5968815737
 20
236.6943406322
 11
11.5726571084
 21
236.7409388502
  0
LINE
  5
39C
100
AcDbEntity
  8
0
100
AcDbLine
 62
7
  6
CONTINUOUS
 10
11.7344423759
 20
236.42340023
 11
11.7225207124
 21
236.4464276997
  0
LINE
  5
39D
100
AcDbEntity
  8
0
100
AcDbLine
 62
7
  6
CONTINUOUS
 10
11.6189810601
 20
236.6512475249
 11
11.5968815737
 21
236.6943406322
  0
LINE
  5
39E
100
AcDbEntity
  8
0
100
AcDbLine
 62
7
  6
CONTINUOUS
 10
11.7225207124
 20
236.4464276997
 11
11.7050571691
 21
236.4806695181
  0
LINE
  5
39F
100
AcDbEntity
  8
0
100
AcDbLine
 62
7
  6
CONTINUOUS
 10
11.6517346238
 20
236.5865790823
 11
11.6189810601
 21
236.6512475249
  0
LWPOLYLINE
  5
3A0
100
AcDbEntity
  8
0
100
AcDbPolyline
 62
7
  6
CONTINUOUS
 90
4
 70
0
 10
11.7050571691
 20
236.4806695181
 10
11.6748814679
 20
236.5405513763
 10
11.6693323344
 20
236.5515938984
 10
11.6517346238
 20
236.5865790823
  0
LINE
  5
3A1
100
AcDbEntity
  8
0
100
AcDbLine
 62
7
  6
CONTINUOUS
 10
-25.1107864376
 20
-226.1857864376
 11
-32.2392135624
 21
-233.3142135624
  0
LWPOLYLINE
  5
3A2
100
AcDbEntity
  8
0
100
AcDbPolyline
 62
7
  6
CONTINUOUS
 90
65
 70
0
 10
11.4243221096
 20
237.0087555992
 10
11.4110041179
 20
237.0312605869
 10
11.3972486695
 20
237.0542493622
 10
11.3830537367
 20
237.0777212733
 10
11.3683623038
 20
237.1016995386
 10
11.3531760476
 20
237.1261859536
 10
11.3374932912
 20
237.1511787228
 10
11.3212519889
 20
237.1766956785
 10
11.3044539093
 20
237.2027389634
 10
11.2870972837
 20
237.2293064348
 10
11.2691147602
 20
237.2564094971
 10
11.25050817
 20
237.2840506753
 10
11.2312756818
 20
237.3122274445
 10
11.2113444505
 20
237.3409436343
 10
11.1907163271
 20
237.3702021923
 10
11.1693894605
 20
237.4000001709
 10
11.1472854519
 20
237.4303325581
 10
11.1244057814
 20
237.461203174
 10
11.1007489689
 20
237.4926081984
 10
11.0762321759
 20
237.5245311586
 10
11.0508644853
 20
237.5569674152
 10
11.0246368141
 20
237.5899216074
 10
10.9974390749
 20
237.6233911803
 10
10.9692999485
 20
237.6573534949
 10
10.9401907541
 20
237.6918311901
 10
10.9099153613
 20
237.7268896276
 10
10.8784821253
 20
237.7625368986
 10
10.8458826908
 20
237.798764912
 10
10.811895862
 20
237.8356147558
 10
10.7765281236
 20
237.8730993902
 10
10.7397729909
 20
237.9112058549
 10
10.7013898142
 20
237.9499363575
 10
10.6613846621
 20
237.9893067319
 10
10.6197514659
 20
238.0293011442
 10
10.5762313703
 20
238.0698743
 10
10.5308290558
 20
238.1110455655
 10
10.4835398419
 20
238.1527955745
 10
10.4340908318
 20
238.1950209351
 10
10.3824842753
 20
238.2377447989
 10
10.3287179227
 20
238.2809440144
 10
10.2725121275
 20
238.3244457349
 10
10.2138648407
 20
238.368277198
 10
10.1527781115
 20
238.4124111661
 10
10.0889784405
 20
238.4565930809
 10
10.0224648035
 20
238.500850009
 10
9.9532382247
 20
238.5451548838
 10
9.8810282776
 20
238.5891719467
 10
9.8059714058
 20
238.6328716214
 10
9.7279311656
 20
238.6762834843
 10
9.6462277993
 20
238.7191605056
 10
9.5608963577
 20
238.7615724559
 10
9.4719017899
 20
238.8034495645
 10
9.3784591851
 20
238.8443354899
 10
9.28053476
 20
238.8843453416
 10
9.1781622979
 20
238.9233640099
 10
9.0706582375
 20
238.9605898248
 10
8.9579560218
 20
238.9961472853
 10
8.8401222078
 20
239.0299118923
 10
8.7166729057
 20
239.0607084775
 10
8.5875699773
 20
239.0886590195
 10
8.452851561
 20
239.1136415397
 10
8.3121481814
 20
239.1341149341
 10
8.1653366803
 20
239.1495655014
 10
8.0125402161
 20
239.1605069429
 10
7.8537587887
 20
239.1669392586
  0
LWPOLYLINE
  5
3A3
100
AcDbEntity
  8
0
100
AcDbPolyline
 62
7
  6
CONTINUOUS
 90
3
 70
0
 10
11.4617963341
 20
236.9440596892
 10
11.4496905734
 20
236.9651698569
 10
11.4243221096
 20
237.0087555992
  0
LWPOLYLINE
  5
3A4
100
AcDbEntity
  8
0
100
AcDbPolyline
 62
7
  6
CONTINUOUS
 90
3
 70
0
 10
11.4958977073
 20
236.8834390483
 10
11.4848800696
 20
236.9032007814
 10
11.4617963341
 20
236.9440596892
  0
LINE
  5
3A5
100
AcDbEntity
  8
0
100
AcDbLine
 62
7
  6
CONTINUOUS
 10
-65.475
 20
152.1
 11
-65.425
 21
152.1
  0
LINE
  5
3A6
100
AcDbEntity
  8
0
100
AcDbLine
 62
7
  6
CONTINUOUS
 10
30.425
 20
152.1
 11
30.375
 21
152.1
  0
LINE
  5
3A7
100
AcDbEntity
  8
0
100
AcDbLine
 62
7
  6
CONTINUOUS
 10
-65.475
 20
153.9
 11
-65.425
 21
153.9
  0
LINE
  5
3A8
100
AcDbEntity
  8
0
100
AcDbLine
 62
7
  6
CONTINUOUS
 10
30.425
 20
153.9
 11
30.375
 21
153.9
  0
LINE
  5
3A9
100
AcDbEntity
  8
0
100
AcDbLine
 62
7
  6
CONTINUOUS
 10
-4.9392135624
 20
233.1142135624
 11
-3.1107864376
 21
231.2857864376
  0
LWPOLYLINE
  5
3AA
100
AcDbEntity
  8
0
100
AcDbPolyline
 62
7
  6
CONTINUOUS
 90
112
 70
0
 10
10.8776059575
 20
238.4502761008
 10
10.9226136676
 20
238.4014306786
 10
10.9654736599
 20
238.3533058976
 10
11.0064872687
 20
238.305942539
 10
11.0456622619
 20
238.2593595843
 10
11.0829908717
 20
238.2135380521
 10
11.1187511284
 20
238.1684617793
 10
11.1529517521
 20
238.1241462732
 10
11.1855840226
 20
238.0805760265
 10
11.2168998104
 20
238.0376883547
 10
11.2469085307
 20
237.9954952525
 10
11.2756007683
 20
237.9539847253
 10
11.3032001477
 20
237.9130581038
 10
11.3297340321
 20
237.8726933281
 10
11.3551750583
 20
237.8329124582
 10
11.3796647616
 20
237.7936830054
 10
11.4032254127
 20
237.7549777409
 10
11.425834741
 20
237.7168238936
 10
11.4475674694
 20
237.679270661
 10
11.4684235476
 20
237.6423223761
 10
11.488403026
 20
237.6059747059
 10
11.5075807781
 20
237.5702638499
 10
11.5259575665
 20
237.5351930994
 10
11.5435326286
 20
237.5007591631
 10
11.5603785507
 20
237.4669883665
 10
11.5764963066
 20
237.4338837732
 10
11.5918849224
 20
237.4014423196
 10
11.6066140631
 20
237.3696811404
 10
11.6206834011
 20
237.3386067556
 10
11.634093264
 20
237.3082126452
 10
11.6469142996
 20
237.2784963833
 10
11.6591468324
 20
237.2494641664
 10
11.670790538
 20
237.221109798
 10
11.6819150907
 20
237.1934122632
 10
11.6925232362
 20
237.1663718266
 10
11.7026122288
 20
237.1399882235
 10
11.7122435062
 20
237.1142396448
 10
11.7214188516
 20
237.0891281143
 10
11.7301364817
 20
237.0646516083
 10
11.7384524839
 20
237.0407822453
 10
11.7463683266
 20
237.0175226786
 10
11.7538825414
 20
236.9948702551
 10
11.7610468103
 20
236.9727891333
 10
11.7678629161
 20
236.9512806973
 10
11.774329076
 20
236.9303435631
 10
11.7804916243
 20
236.9099377378
 10
11.7863539465
 20
236.8900577846
 10
11.791912657
 20
236.8707091404
 10
11.7972039337
 20
236.8518681233
 10
11.8022287802
 20
236.8335360675
 10
11.8069861928
 20
236.8157116388
 10
11.8115093385
 20
236.7983671535
 10
11.8157991882
 20
236.7815038985
 10
11.819854771
 20
236.7651205868
 10
11.8237063408
 20
236.749185674
 10
11.8273549034
 20
236.7337000916
 10
11.8307994529
 20
236.7186629081
 10
11.8340672259
 20
236.7040397841
 10
11.8371592223
 20
236.689831386
 10
11.8400744421
 20
236.6760370476
 10
11.8428371219
 20
236.6626204305
 10
11.845448235
 20
236.6495820049
 10
11.8479068081
 20
236.6369213008
 10
11.8502341571
 20
236.6246005699
 10
11.8524312223
 20
236.6126201439
 10
11.8544970634
 20
236.6009796911
 10
11.8564501762
 20
236.5896404687
 10
11.8582914731
 20
236.5786027139
 10
11.8600200416
 20
236.5678661896
 10
11.8616516401
 20
236.557391441
 10
11.8631871713
 20
236.5471786423
 10
11.8646257324
 20
236.5372276193
 10
11.8659803739
 20
236.5274983948
 10
11.8672520212
 20
236.517991097
 10
11.8684397489
 20
236.5087055976
 10
11.8695538315
 20
236.4996015353
 10
11.8705952619
 20
236.4906791
 10
11.8715630473
 20
236.4819381018
 10
11.8724644839
 20
236.4733376087
 10
11.8733004504
 20
236.4648824667
 10
11.874070068
 20
236.4565678298
 10
11.8747779968
 20
236.4483382282
 10
11.8754263087
 20
236.4401910822
 10
11.8760129317
 20
236.4321289716
 10
11.8765363098
 20
236.4241041653
 10
11.876999277
 20
236.4160828519
 10
11.8773989993
 20
236.4080988428
 10
11.8777254194
 20
236.4002058413
 10
11.8779778467
 20
236.3924055558
 10
11.8781569719
 20
236.3846962778
 10
11.8782548096
 20
236.3771265853
 10
11.878271186
 20
236.3697036663
 10
11.878206275
 20
236.3624203327
 10
11.8780526133
 20
236.3553035986
 10
11.877811901
 20
236.3483609998
 10
11.8774824379
 20
236.3415850004
 10
11.8770516601
 20
236.3349800069
 10
11.8765249173
 20
236.3285498854
 10
11.8758968597
 20
236.3222907698
 10
11.8751388743
 20
236.3161954685
 10
11.8742639851
 20
236.3102568122
 10
11.8732591681
 20
236.3044819702
 10
11.8720567374
 20
236.2988852588
 10
11.870693215
 20
236.293428507
 10
11.8691320789
 20
236.2881498858
 10
11.8671960775
 20
236.283178224
 10
11.8648956016
 20
236.2783379261
 10
11.8622202603
 20
236.2738045876
 10
11.8589616298
 20
236.2702338236
 10
11.8548664901
 20
236.2677570097
 10
11.850188061
 20
236.2662427704
 10
11.8454775786
 20
236.2659525937
  0
LINE
  5
3AB
100
AcDbEntity
  8
0
100
AcDbLine
 62
7
  6
CONTINUOUS
 10
-65.475
 20
182.7
 11
-65.425
 21
182.7
  0
LINE
  5
3AC
100
AcDbEntity
  8
0
100
AcDbLine
 62
7
  6
CONTINUOUS
 10
30.425
 20
182.7
 11
30.375
 21
182.7
  0
LINE
  5
3AD
100
AcDbEntity
  8
0
100
AcDbLine
 62
7
  6
CONTINUOUS
 10
-65.475
 20
184.5
 11
-65.425
 21
184.5
  0
LINE
  5
3AE
100
AcDbEntity
  8
0
100
AcDbLine
 62
7
  6
CONTINUOUS
 10
30.425
 20
184.5
 11
30.375
 21
184.5
  0
LWPOLYLINE
  5
3AF
100
AcDbEntity
  8
0
100
AcDbPolyline
 62
7
  6
CONTINUOUS
 90
3
 70
0
 10
10.4967154584
 20
238.8104423106
 10
10.5589940293
 20
238.7574061345
 10
10.6184755056
 20
238.7048214422
  0
LWPOLYLINE
  5
3B0
100
AcDbEntity
  8
0
100
AcDbPolyline
 62
7
  6
CONTINUOUS
 90
6
 70
0
 10
10.6184755056
 20
238.7048214422
 10
10.6751681451
 20
238.6526533612
 10
10.7293951863
 20
238.6010954325
 10
10.7811584149
 20
238.55017534
 10
10.8304560451
 20
238.4998653998
 10
10.8776059575
 20
238.4502761008
  0
LINE
  5
3B1
100
AcDbEntity
  8
0
100
AcDbLine
 62
7
  6
CONTINUOUS
 10
-65.475
 20
213.3
 11
-65.425
 21
213.3
  0
LINE
  5
3B2
100
AcDbEntity
  8
0
100
AcDbLine
 62
7
  6
CONTINUOUS
 10
30.425
 20
213.3
 11
30.375
 21
213.3
  0
LINE
  5
3B3
100
AcDbEntity
  8
0
100
AcDbLine
 62
7
  6
CONTINUOUS
 10
-65.475
 20
215.1
 11
-65.425
 21
215.1
  0
LINE
  5
3B4
100
AcDbEntity
  8
0
100
AcDbLine
 62
7
  6
CONTINUOUS
 10
30.425
 20
215.1
 11
30.375
 21
215.1
  0
LINE
  5
3B5
100
AcDbEntity
  8
0
100
AcDbLine
 62
7
  6
CONTINUOUS
 10
31.425
 20
216.6
 11
32.425
 21
216.6
  0
LINE
  5
3B6
100
AcDbEntity
  8
0
100
AcDbLine
 62
7
  6
CONTINUOUS
 10
-66.475
 20
216.6
 11
-67.475
 21
216.6
  0
LINE
  5
3B7
100
AcDbEntity
  8
0
100
AcDbLine
 62
250
  6
CONTINUOUS
 10
31.425
 20
217.6
 11
32.425
 21
217.6
  0
LINE
  5
3B8
100
AcDbEntity
  8
0
100
AcDbLine
 62
250
  6
CONTINUOUS
 10
-66.475
 20
217.6
 11
-67.475
 21
217.6
  0
LINE
  5
3B9
100
AcDbEntity
  8
0
100
AcDbLine
 62
250
  6
CONTINUOUS
 10
31.425
 20
225.6
 11
32.425
 21
225.6
  0
LINE
  5
3BA
100
AcDbEntity
  8
0
100
AcDbLine
 62
250
  6
CONTINUOUS
 10
-66.475
 20
225.6
 11
-67.475
 21
225.6
  0
LINE
  5
3BB
100
AcDbEntity
  8
0
100
AcDbLine
 62
7
  6
CONTINUOUS
 10
31.425
 20
226.6
 11
32.425
 21
226.6
  0
LINE
  5
3BC
100
AcDbEntity
  8
0
100
AcDbLine
 62
7
  6
CONTINUOUS
 10
-66.475
 20
226.6
 11
-67.475
 21
226.6
  0
LINE
  5
3BD
100
AcDbEntity
  8
0
100
AcDbLine
 62
7
  6
CONTINUOUS
 10
-65.475
 20
227.6
 11
-63.975
 21
227.6
  0
LINE
  5
3BE
100
AcDbEntity
  8
0
100
AcDbLine
 62
7
  6
CONTINUOUS
 10
30.425
 20
227.6
 11
28.925
 21
227.6
  0
LINE
  5
3BF
100
AcDbEntity
  8
0
100
AcDbLine
 62
250
  6
CONTINUOUS
 10
-65.475
 20
228.1
 11
-63.975
 21
228.1
  0
LINE
  5
3C0
100
AcDbEntity
  8
0
100
AcDbLine
 62
250
  6
CONTINUOUS
 10
30.425
 20
228.1
 11
28.925
 21
228.1
  0
LINE
  5
3C1
100
AcDbEntity
  8
0
100
AcDbLine
 62
7
  6
CONTINUOUS
 10
-67.475
 20
228.6
 11
-66.475
 21
228.6
  0
LINE
  5
3C2
100
AcDbEntity
  8
0
100
AcDbLine
 62
7
  6
CONTINUOUS
 10
32.425
 20
228.6
 11
31.425
 21
228.6
  0
LWPOLYLINE
  5
3C3
100
AcDbEntity
  8
0
100
AcDbPolyline
 62
7
  6
CONTINUOUS
 90
6
 70
0
 10
9.4792579564
 20
239.7716234941
 10
9.1705323042
 20
239.8795719411
 10
8.8552333502
 20
239.966468231
 10
8.5347948607
 20
240.0319172184
 10
8.2106739726
 20
240.0756212856
 10
7.8843445683
 20
240.0973816962
  0
LWPOLYLINE
  5
3C4
100
AcDbEntity
  8
0
100
AcDbPolyline
 62
7
  6
CONTINUOUS
 90
12
 70
0
 10
6.0525912786
 20
230.7
 10
6.1485949653
 20
230.6633403041
 10
6.4612993874
 20
230.5675262135
 10
6.7797502638
 20
230.4930048417
 10
7.1024994957
 20
230.4401150614
 10
7.4280794382
 20
230.4090973796
 10
7.7550095743
 20
230.4000928436
 10
8.0818032472
 20
230.4131424
 10
8.4069744206
 20
230.4481867082
 10
8.7290444364
 20
230.5050664104
 10
9.0465487382
 20
230.5835228563
 10
9.3580435315
 20
230.6831992791
  0
LINE
  5
3C5
100
AcDbEntity
  8
0
100
AcDbLine
 62
7
  6
CONTINUOUS
 10
9.7800064318
 20
239.6431137665
 11
9.4792579564
 21
239.7716234941
  0
LINE
  5
3C6
100
AcDbEntity
  8
0
100
AcDbLine
 62
7
  6
CONTINUOUS
 10
-1.6965728753
 20
230.7
 11
6.0525912786
 21
230.7
  0
LINE
  5
3C7
100
AcDbEntity
  8
0
100
AcDbLine
 62
7
  6
CONTINUOUS
 10
9.4004583621
 20
230.7
 11
30.425
 21
230.7
  0
LINE
  5
3C8
100
AcDbEntity
  8
0
100
AcDbLine
 62
7
  6
CONTINUOUS
 10
-33.3534271247
 20
230.7
 11
-65.475
 21
230.7
  0
LINE
  5
3C9
100
AcDbEntity
  8
0
100
AcDbLine
 62
7
  6
CONTINUOUS
 10
8.2688962299
 20
232.1
 11
7.1678579197
 21
232.1
  0
LINE
  5
3CA
100
AcDbEntity
  8
RACCORDO
100
AcDbLine
 62
7
  6
CONTINUOUS
 10
3.1873794782
 20
232.15
 11
4.7958995136
 21
232.15
  0
LINE
  5
3CB
100
AcDbEntity
  8
SMUSSO
100
AcDbLine
 62
7
  6
CONTINUOUS
 10
6.0213274963
 20
232.25
 11
9.4286725037
 21
232.25
  0
LINE
  5
3CC
100
AcDbEntity
  8
0
100
AcDbLine
 62
7
  6
CONTINUOUS
 10
-28.6965728753
 20
233.7
 11
-6.3534271247
 21
233.7
  0
LINE
  5
3CD
100
AcDbEntity
  8
RACCORDO
100
AcDbLine
 62
7
  6
CONTINUOUS
 10
4.369780186
 20
234.9
 11
1.9511364755
 21
234.9
  0
LINE
  5
3CE
100
AcDbEntity
  8
RACCORDO
100
AcDbLine
 62
7
  6
CONTINUOUS
 10
1.9511364755
 20
235.6
 11
4.369780186
 21
235.6
  0
LINE
  5
3CF
100
AcDbEntity
  8
0
100
AcDbLine
 62
7
  6
CONTINUOUS
 10
-19.525
 20
236.55
 11
-15.525
 21
236.55
  0
LINE
  5
3D0
100
AcDbEntity
  8
0
100
AcDbLine
 62
250
  6
CONTINUOUS
 10
-19.525
 20
237.75
 11
-15.525
 21
237.75
  0
LINE
  5
3D1
100
AcDbEntity
  8
0
100
AcDbLine
 62
7
  6
CONTINUOUS
 10
-14.775
 20
237.8
 11
-15.525
 21
237.8
  0
LINE
  5
3D2
100
AcDbEntity
  8
0
100
AcDbLine
 62
7
  6
CONTINUOUS
 10
-19.525
 20
237.8
 11
-20.275
 21
237.8
  0
LINE
  5
3D3
100
AcDbEntity
  8
SMUSSO
100
AcDbLine
 62
7
  6
CONTINUOUS
 10
9.4286725037
 20
238.25
 11
6.0213274963
 21
238.25
  0
LINE
  5
3D4
100
AcDbEntity
  8
0
100
AcDbLine
 62
7
  6
CONTINUOUS
 10
-19.525
 20
238.35
 11
-15.525
 21
238.35
  0
LINE
  5
3D5
100
AcDbEntity
  8
RACCORDO
100
AcDbLine
 62
7
  6
CONTINUOUS
 10
4.7958995136
 20
238.35
 11
3.1873794782
 21
238.35
  0
LINE
  5
3D6
100
AcDbEntity
  8
0
100
AcDbLine
 62
7
  6
CONTINUOUS
 10
7.1676738153
 20
238.4
 11
8.268822509
 21
238.4
  0
LINE
  5
3D7
100
AcDbEntity
  8
0
100
AcDbLine
 62
7
  6
CONTINUOUS
 10
-19.525
 20
242.75
 11
-15.525
 21
242.75
  0
LINE
  5
3D8
100
AcDbEntity
  8
0
100
AcDbLine
 62
7
  6
CONTINUOUS
 10
-20.275
 20
243.3
 11
-19.525
 21
243.3
  0
LINE
  5
3D9
100
AcDbEntity
  8
0
100
AcDbLine
 62
7
  6
CONTINUOUS
 10
-15.525
 20
243.3
 11
-14.775
 21
243.3
  0
LINE
  5
3DA
100
AcDbEntity
  8
0
100
AcDbLine
 62
250
  6
CONTINUOUS
 10
-19.525
 20
243.35
 11
-15.525
 21
243.35
  0
LINE
  5
3DB
100
AcDbEntity
  8
0
100
AcDbLine
 62
7
  6
CONTINUOUS
 10
-19.525
 20
244.55
 11
-15.525
 21
244.55
  0
LINE
  5
3DC
100
AcDbEntity
  8
0
100
AcDbLine
 62
7
  6
CONTINUOUS
 10
-37.6054501844
 20
245.6
 11
-36.525
 21
245.6
  0
LINE
  5
3DD
100
AcDbEntity
  8
0
100
AcDbLine
 62
250
  6
CONTINUOUS
 10
-36.525
 20
245.6
 11
-23.525
 21
245.6
  0
LINE
  5
3DE
100
AcDbEntity
  8
0
100
AcDbLine
 62
7
  6
CONTINUOUS
 10
-12.6054501844
 20
245.6
 11
-11.525
 21
245.6
  0
LINE
  5
3DF
100
AcDbEntity
  8
0
100
AcDbLine
 62
7
  6
CONTINUOUS
 10
2.5554501844
 20
245.6
 11
1.475
 21
245.6
  0
LINE
  5
3E0
100
AcDbEntity
  8
0
100
AcDbLine
 62
250
  6
CONTINUOUS
 10
1.475
 20
245.6
 11
-11.525
 21
245.6
  0
LINE
  5
3E1
100
AcDbEntity
  8
0
100
AcDbLine
 62
7
  6
CONTINUOUS
 10
-22.4445498156
 20
245.6
 11
-23.525
 21
245.6
  0
LINE
  5
3E2
100
AcDbEntity
  8
0
100
AcDbLine
 62
7
  6
CONTINUOUS
 10
-67.475
 20
246.1
 11
-66.475
 21
246.1
  0
LINE
  5
3E3
100
AcDbEntity
  8
0
100
AcDbLine
 62
7
  6
CONTINUOUS
 10
32.425
 20
246.1
 11
31.425
 21
246.1
  0
LINE
  5
3E4
100
AcDbEntity
  8
0
100
AcDbLine
 62
7
  6
CONTINUOUS
 10
-67.475
 20
247.55
 11
-65.475
 21
247.55
  0
LINE
  5
3E5
100
AcDbEntity
  8
0
100
AcDbLine
 62
7
  6
CONTINUOUS
 10
-38.3688376124
 20
247.55
 11
-36.525
 21
247.55
  0
LINE
  5
3E6
100
AcDbEntity
  8
0
100
AcDbLine
 62
7
  6
CONTINUOUS
 10
32.425
 20
247.55
 11
30.425
 21
247.55
  0
LINE
  5
3E7
100
AcDbEntity
  8
0
100
AcDbLine
 62
7
  6
CONTINUOUS
 10
-23.525
 20
247.55
 11
-21.6811623876
 21
247.55
  0
LINE
  5
3E8
100
AcDbEntity
  8
0
100
AcDbLine
 62
7
  6
CONTINUOUS
 10
-13.3688376124
 20
247.55
 11
-11.525
 21
247.55
  0
LINE
  5
3E9
100
AcDbEntity
  8
0
100
AcDbLine
 62
7
  6
CONTINUOUS
 10
1.475
 20
247.55
 11
3.3188376124
 21
247.55
  0
LINE
  5
3EA
100
AcDbEntity
  8
0
100
AcDbLine
 62
7
  6
CONTINUOUS
 10
-66.425
 20
247.6
 11
31.375
 21
247.6
  0
LINE
  5
3EB
100
AcDbEntity
  8
0
100
AcDbLine
 62
7
  6
CONTINUOUS
 10
31.375
 20
248.6
 11
-66.425
 21
248.6
  0
LINE
  5
3EC
100
AcDbEntity
  8
0
100
AcDbLine
 62
7
  6
CONTINUOUS
 10
-46.252796223
 20
249.6
 11
-39.1498577384
 21
249.6
  0
LINE
  5
3ED
100
AcDbEntity
  8
0
100
AcDbLine
 62
7
  6
CONTINUOUS
 10
4.0998577384
 20
249.6
 11
11.202796223
 21
249.6
  0
LINE
  5
3EE
100
AcDbEntity
  8
0
100
AcDbLine
 62
7
  6
CONTINUOUS
 10
-14.1498577384
 20
249.6
 11
-20.9001422616
 21
249.6
  0
LWPOLYLINE
  5
3EF
100
AcDbEntity
  8
0
100
AcDbPolyline
 62
7
  6
CONTINUOUS
 90
3
 70
0
 10
7.6828741704
 20
230.4028647043
 10
7.8148154456
 20
230.4008317016
 10
8.1108664861
 20
230.4163728199
  0
LWPOLYLINE
  5
3F0
100
AcDbEntity
  8
0
100
AcDbPolyline
 62
7
  6
CONTINUOUS
 90
24
 70
0
 10
7.8755048878
 20
239.8284719615
 10
8.0554207992
 20
239.8148903369
 10
8.228230801
 20
239.7963412549
 10
8.3939348931
 20
239.7728247155
 10
8.5523038855
 20
239.7437806934
 10
8.7035669683
 20
239.7097692139
 10
8.8484117116
 20
239.672470353
 10
8.9869049281
 20
239.6319999125
 10
9.1189798052
 20
239.5882420907
 10
9.2451234753
 20
239.5425295585
 10
9.3652746855
 20
239.4949853986
 10
9.4794946887
 20
239.4454865283
 10
9.5884543766
 20
239.3949963704
 10
9.6921137027
 20
239.3436350514
 10
9.7905127133
 20
239.2912824449
 10
9.8844424399
 20
239.2385415941
 10
9.9738796911
 20
239.1855277026
 10
10.0588476582
 20
239.1321255667
 10
10.1402069463
 20
239.078592619
 10
10.2180706312
 20
239.0249315823
 10
10.2923256372
 20
238.9711397339
 10
10.3634933422
 20
238.9174663384
 10
10.4316480508
 20
238.863895098
 10
10.4967154584
 20
238.8104423106
  0
LWPOLYLINE
  5
3F1
100
AcDbEntity
  8
0
100
AcDbPolyline
 62
7
  6
CONTINUOUS
 90
25
 70
0
 10
11.8454775786
 20
236.2659525937
 10
11.8408491166
 20
236.2672069404
 10
11.8361886014
 20
236.2696853497
 10
11.8317050475
 20
236.2726879281
 10
11.8274600688
 20
236.2761164233
 10
11.8233920515
 20
236.2800690874
 10
11.8195251693
 20
236.2841407831
 10
11.8159055362
 20
236.2882084125
 10
11.8124870382
 20
236.2923950736
 10
11.8091555059
 20
236.2966649227
 10
11.805888146
 20
236.3010082028
 10
11.8027077518
 20
236.305434671
 10
11.7995685339
 20
236.3099377547
 10
11.796465377
 20
236.3145117986
 10
11.7934033964
 20
236.3191624581
 10
11.7903521487
 20
236.3239001266
 10
11.78730929
 20
236.328722251
 10
11.7842771643
 20
236.3336313846
 10
11.7812323601
 20
236.3386455801
 10
11.7781736751
 20
236.343763463
 10
11.7751023116
 20
236.3489864078
 10
11.7719984652
 20
236.3543365909
 10
11.7688615008
 20
236.3598131647
 10
11.7656920535
 20
236.3654169767
 10
11.7624722236
 20
236.3711727453
  0
LWPOLYLINE
  5
3F2
100
AcDbEntity
  8
0
100
AcDbPolyline
 62
7
  6
CONTINUOUS
 90
12
 70
0
 10
-135.1924416351
 20
-243.5999991171
 10
-135.136002774
 20
-243.5975562488
 10
-135.0620510084
 20
-243.5869191638
 10
-134.9874429739
 20
-243.5675093745
 10
-134.9143077511
 20
-243.539522705
 10
-134.8467696693
 20
-243.5049540023
 10
-134.7856627211
 20
-243.4653602863
 10
-134.7301447065
 20
-243.4212524278
 10
-134.6808174057
 20
-243.3741915944
 10
-134.6373032014
 20
-243.3252813515
 10
-134.5985403736
 20
-243.2748948857
 10
-134.5886177831
 20
-243.2608419692
  0
LINE
  5
3F3
100
AcDbEntity
  8
0
100
AcDbLine
 62
7
  6
CONTINUOUS
 10
-157.892735672
 20
-249.6
 11
-159.392735672
 21
-249.6
  0
LINE
  5
3F4
100
AcDbEntity
  8
0
100
AcDbLine
 62
250
  6
CONTINUOUS
 10
-157.892735672
 20
-249.2294095226
 11
-159.392735672
 21
-249.2294095226
  0
LINE
  5
3F5
100
AcDbEntity
  8
0
100
AcDbLine
 62
7
  6
CONTINUOUS
 10
-105.192735672
 20
-248.6
 11
-164.742735672
 21
-248.6
  0
LINE
  5
3F6
100
AcDbEntity
  8
0
100
AcDbLine
 62
7
  6
CONTINUOUS
 10
-164.742735672
 20
-247.6
 11
-145.242735672
 21
-247.6
  0
LINE
  5
3F7
100
AcDbEntity
  8
0
100
AcDbLine
 62
7
  6
CONTINUOUS
 10
-105.192735672
 20
-247.6
 11
-108.642735672
 21
-247.6
  0
LINE
  5
3F8
100
AcDbEntity
  8
0
100
AcDbLine
 62
7
  6
CONTINUOUS
 10
-110.442735672
 20
-247.6
 11
-126.042735672
 21
-247.6
  0
LINE
  5
3F9
100
AcDbEntity
  8
0
100
AcDbLine
 62
7
  6
CONTINUOUS
 10
-127.842735672
 20
-247.6
 11
-143.442735672
 21
-247.6
  0
LINE
  5
3FA
100
AcDbEntity
  8
0
100
AcDbLine
 62
7
  6
CONTINUOUS
 10
-164.742735672
 20
-247.55
 11
-145.242735672
 21
-247.55
  0
LINE
  5
3FB
100
AcDbEntity
  8
0
100
AcDbLine
 62
250
  6
CONTINUOUS
 10
-145.242735672
 20
-247.55
 11
-143.442735672
 21
-247.55
  0
LINE
  5
3FC
100
AcDbEntity
  8
0
100
AcDbLine
 62
7
  6
CONTINUOUS
 10
-143.442735672
 20
-247.55
 11
-127.842735672
 21
-247.55
  0
LINE
  5
3FD
100
AcDbEntity
  8
0
100
AcDbLine
 62
250
  6
CONTINUOUS
 10
-127.842735672
 20
-247.55
 11
-126.042735672
 21
-247.55
  0
LINE
  5
3FE
100
AcDbEntity
  8
0
100
AcDbLine
 62
250
  6
CONTINUOUS
 10
-110.442735672
 20
-247.55
 11
-108.642735672
 21
-247.55
  0
LINE
  5
3FF
100
AcDbEntity
  8
0
100
AcDbLine
 62
250
  6
CONTINUOUS
 10
-104.142735672
 20
-247.55
 11
-105.142735672
 21
-247.55
  0
LINE
  5
400
100
AcDbEntity
  8
0
100
AcDbLine
 62
7
  6
CONTINUOUS
 10
-105.192735672
 20
-247.55
 11
-108.642735672
 21
-247.55
  0
LINE
  5
401
100
AcDbEntity
  8
0
100
AcDbLine
 62
7
  6
CONTINUOUS
 10
-110.442735672
 20
-247.55
 11
-126.042735672
 21
-247.55
  0
LINE
  5
402
100
AcDbEntity
  8
0
100
AcDbLine
 62
7
  6
CONTINUOUS
 10
-105.192735672
 20
-245.7
 11
-104.142735672
 21
-245.7
  0
LINE
  5
403
100
AcDbEntity
  8
0
100
AcDbLine
 62
7
  6
CONTINUOUS
 10
-105.192735672
 20
-243.9
 11
-104.142735672
 21
-243.9
  0
LINE
  5
404
100
AcDbEntity
  8
0
100
AcDbLine
 62
7
  6
CONTINUOUS
 10
-131.742735672
 20
-228.6
 11
-141.3732565723
 21
-228.6
  0
LINE
  5
405
100
AcDbEntity
  8
0
100
AcDbLine
 62
7
  6
CONTINUOUS
 10
-159.742735672
 20
-226.6
 11
-131.742735672
 21
-226.6
  0
LINE
  5
406
100
AcDbEntity
  8
0
100
AcDbLine
 62
7
  6
CONTINUOUS
 10
-160.742735672
 20
-225.1
 11
-160.942735672
 21
-225.1
  0
LINE
  5
407
100
AcDbEntity
  8
0
100
AcDbLine
 62
7
  6
CONTINUOUS
 10
-132.542735672
 20
-224.1
 11
-132.942735672
 21
-224.1
  0
LINE
  5
408
100
AcDbEntity
  8
0
100
AcDbLine
 62
7
  6
CONTINUOUS
 10
-132.942735672
 20
-219.1
 11
-132.542735672
 21
-219.1
  0
LINE
  5
409
100
AcDbEntity
  8
0
100
AcDbLine
 62
7
  6
CONTINUOUS
 10
-160.942735672
 20
-218.1
 11
-160.742735672
 21
-218.1
  0
LINE
  5
40A
100
AcDbEntity
  8
0
100
AcDbLine
 62
7
  6
CONTINUOUS
 10
-108.9423729048
 20
-216.6
 11
-159.742735672
 21
-216.6
  0
LINE
  5
40B
100
AcDbEntity
  8
0
100
AcDbLine
 62
7
  6
CONTINUOUS
 10
-105.192735672
 20
-215.1
 11
-104.142735672
 21
-215.1
  0
LINE
  5
40C
100
AcDbEntity
  8
0
100
AcDbLine
 62
7
  6
CONTINUOUS
 10
-105.192735672
 20
-213.3
 11
-104.142735672
 21
-213.3
  0
LWPOLYLINE
  5
40D
100
AcDbEntity
  8
0
100
AcDbPolyline
 62
7
  6
CONTINUOUS
 90
10
 70
0
 43
0.3500000006
 10
-137.7641678467
 20
275.4500837402
 10
-138.4070213013
 20
274.8072302856
 10
-138.835590271
 20
273.9500923462
 10
-138.835590271
 20
272.8786699219
 10
-138.4070213013
 20
272.4500828247
 10
-137.7641678467
 20
272.4500828247
 10
-137.3355898132
 20
272.8786699219
 10
-137.3355898132
 20
273.7358078613
 10
-137.7641678467
 20
274.1643768311
 10
-138.692736969
 20
274.1643768311
  0
LWPOLYLINE
  5
40E
100
AcDbEntity
  8
0
100
AcDbPolyline
 62
7
  6
CONTINUOUS
 90
10
 70
0
 43
0.3500000006
 10
-131.3355970459
 20
275.4500837402
 10
-131.9784505005
 20
274.8072302856
 10
-132.4070194702
 20
273.9500923462
 10
-132.4070194702
 20
272.8786699219
 10
-131.9784505005
 20
272.4500828247
 10
-131.3355970459
 20
272.4500828247
 10
-130.9070190125
 20
272.8786699219
 10
-130.9070190125
 20
273.7358078613
 10
-131.3355970459
 20
274.1643768311
 10
-132.2641661682
 20
274.1643768311
  0
LWPOLYLINE
  5
40F
100
AcDbEntity
  8
0
100
AcDbPolyline
 62
7
  6
CONTINUOUS
 90
7
 70
0
 10
-135.6406433832
 20
-243.43267795
 10
-135.5790724707
 20
-243.47889499
 10
-135.5089165254
 20
-243.5206285736
 10
-135.4311549741
 20
-243.5554879321
 10
-135.3507596841
 20
-243.5805180933
 10
-135.270389728
 20
-243.5952450151
 10
-135.1915497236
 20
-243.5999979864
  0
LINE
  5
410
100
AcDbEntity
  8
0
100
AcDbLine
 62
7
  6
CONTINUOUS
 10
-105.192735672
 20
-184.5
 11
-104.142735672
 21
-184.5
  0
LINE
  5
411
100
AcDbEntity
  8
0
100
AcDbLine
 62
7
  6
CONTINUOUS
 10
-105.192735672
 20
-182.7
 11
-104.142735672
 21
-182.7
  0
LINE
  5
412
100
AcDbEntity
  8
ASSI
100
AcDbLine
 62
7
  6
CONTINUOUS
 10
-111.5121181099
 20
-170.7
 11
-112.0129170419
 21
-170.7
  0
LINE
  5
413
100
AcDbEntity
  8
ASSI
100
AcDbLine
 62
7
  6
CONTINUOUS
 10
-136.2725543021
 20
-170.7
 11
-136.7733532341
 21
-170.7
  0
LINE
  5
414
100
AcDbEntity
  8
ASSI
100
AcDbLine
 62
7
  6
CONTINUOUS
 10
-136.7733532341
 20
-169.3
 11
-136.2725543021
 21
-169.3
  0
LINE
  5
415
100
AcDbEntity
  8
ASSI
100
AcDbLine
 62
7
  6
CONTINUOUS
 10
-112.0129170419
 20
-169.3
 11
-111.5121181099
 21
-169.3
  0
LINE
  5
416
100
AcDbEntity
  8
0
100
AcDbLine
 62
7
  6
CONTINUOUS
 10
-135.6953140691
 20
-243.382433711
 11
-135.6406433832
 21
-243.43267795
  0
LINE
  5
417
100
AcDbEntity
  8
0
100
AcDbLine
 62
7
  6
CONTINUOUS
 10
-105.192735672
 20
-153.9
 11
-104.142735672
 21
-153.9
  0
LINE
  5
418
100
AcDbEntity
  8
0
100
AcDbLine
 62
7
  6
CONTINUOUS
 10
-105.192735672
 20
-152.1
 11
-104.142735672
 21
-152.1
  0
LINE
  5
419
100
AcDbEntity
  8
0
100
AcDbLine
 62
7
  6
CONTINUOUS
 10
-135.7117178156
 20
-243.3643637271
 11
-135.6953140691
 21
-243.382433711
  0
LINE
  5
41A
100
AcDbEntity
  8
0
100
AcDbLine
 62
7
  6
CONTINUOUS
 10
-105.192735672
 20
-123.3
 11
-104.142735672
 21
-123.3
  0
LINE
  5
41B
100
AcDbEntity
  8
0
100
AcDbLine
 62
7
  6
CONTINUOUS
 10
-105.192735672
 20
-121.5
 11
-104.142735672
 21
-121.5
  0
LWPOLYLINE
  5
41C
100
AcDbEntity
  8
0
100
AcDbPolyline
 62
7
  6
CONTINUOUS
 90
13
 70
0
 10
-134.8231216866
 20
-242.5725188106
 10
-134.8234256138
 20
-242.5719661438
 10
-134.8272301104
 20
-242.564804332
 10
-134.8344153501
 20
-242.5498526371
 10
-134.843800294
 20
-242.5283913316
 10
-134.8550365197
 20
-242.5003922088
 10
-134.8679634463
 20
-242.4654976941
 10
-134.8820041099
 20
-242.424672034
 10
-134.8969973191
 20
-242.3779741776
 10
-134.9128913475
 20
-242.3251892615
 10
-134.9294182939
 20
-242.2669082797
 10
-134.9465053527
 20
-242.2031797294
 10
-134.959121204
 20
-242.1535888521
  0
LWPOLYLINE
  5
41D
100
AcDbEntity
  8
0
100
AcDbPolyline
 62
7
  6
CONTINUOUS
 90
3
 70
0
 43
0.3500000006
 10
-133.4070197754
 20
272.7358075562
 10
-133.4784509583
 20
272.5215230713
 10
-133.6213042603
 20
272.2357983398
  0
LINE
  5
41E
100
AcDbEntity
  8
0
100
AcDbLine
 62
7
  6
CONTINUOUS
 10
-105.192735672
 20
-92.7
 11
-104.142735672
 21
-92.7
  0
LINE
  5
41F
100
AcDbEntity
  8
0
100
AcDbLine
 62
7
  6
CONTINUOUS
 10
-105.192735672
 20
-90.9
 11
-104.142735672
 21
-90.9
  0
LWPOLYLINE
  5
420
100
AcDbEntity
  8
0
100
AcDbPolyline
 62
7
  6
CONTINUOUS
 90
4
 70
0
 43
0.3500000006
 10
-181.2944630127
 20
-86.499999527
 10
-181.9373164673
 20
-86.499999527
 10
-181.9373164673
 20
-84.9999990692
 10
-178.9373155518
 20
-85.8571415405
  0
LWPOLYLINE
  5
421
100
AcDbEntity
  8
0
100
AcDbPolyline
 62
7
  6
CONTINUOUS
 90
13
 70
0
 43
0.3500000006
 10
-179.7944534912
 20
-84.1428565979
 10
-181.0801785278
 20
-84.1428565979
 10
-181.5087474976
 20
-83.928572113
 10
-181.9373164673
 20
-83.4999986115
 10
-181.9373164673
 20
-83.2857141266
 10
-181.5087474976
 20
-82.857140625
 10
-181.0801785278
 20
-82.6428561401
 10
-179.7944534912
 20
-82.6428561401
 10
-179.3658845215
 20
-82.857140625
 10
-178.9373155518
 20
-83.2857141266
 10
-178.9373155518
 20
-83.4999986115
 10
-179.3658845215
 20
-83.928572113
 10
-179.7944534912
 20
-84.1428565979
  0
LWPOLYLINE
  5
422
100
AcDbEntity
  8
0
100
AcDbPolyline
 62
7
  6
CONTINUOUS
 90
3
 70
0
 43
0.3500000006
 10
-181.0801785278
 20
-88.2142844696
 10
-181.9373164673
 20
-87.3571419983
 10
-178.9373155518
 20
-87.3571419983
  0
LINE
  5
423
100
AcDbEntity
  8
0
100
AcDbLine
 62
7
  6
CONTINUOUS
 10
-105.192735672
 20
-62.1
 11
-104.142735672
 21
-62.1
  0
LINE
  5
424
100
AcDbEntity
  8
0
100
AcDbLine
 62
7
  6
CONTINUOUS
 10
-105.192735672
 20
-60.3
 11
-104.142735672
 21
-60.3
  0
LWPOLYLINE
  5
425
100
AcDbEntity
  8
0
100
AcDbPolyline
 62
7
  6
CONTINUOUS
 90
16
 70
0
 10
-124.9926746037
 20
-242.7743463606
 10
-124.9921354601
 20
-242.7761417634
 10
-124.9914813746
 20
-242.7784484077
 10
-124.9918062804
 20
-242.7771850689
 10
-124.9927298928
 20
-242.7733175401
 10
-124.9941531704
 20
-242.7669258892
 10
-124.996053357
 20
-242.7577969424
 10
-124.9982566245
 20
-242.7465146447
 10
-125.0007190913
 20
-242.7331350618
 10
-125.0034323397
 20
-242.7175451157
 10
-125.0063095441
 20
-242.7001188206
 10
-125.0093242112
 20
-242.6809366326
 10
-125.0124786336
 20
-242.6599093426
 10
-125.0157435835
 20
-242.6371654045
 10
-125.0191106533
 20
-242.6127111007
 10
-125.0195606774
 20
-242.6093105153
  0
LINE
  5
426
100
AcDbEntity
  8
0
100
AcDbLine
 62
7
  6
CONTINUOUS
 10
-164.742735672
 20
247.55
 11
-164.742735672
 21
-247.55
  0
LINE
  5
427
100
AcDbEntity
  8
0
100
AcDbLine
 62
7
  6
CONTINUOUS
 10
-164.742735672
 20
-247.6
 11
-164.742735672
 21
-248.6
  0
LINE
  5
428
100
AcDbEntity
  8
0
100
AcDbLine
 62
7
  6
CONTINUOUS
 10
-164.742735672
 20
247.6
 11
-164.742735672
 21
248.6
  0
LINE
  5
429
100
AcDbEntity
  8
0
100
AcDbLine
 62
7
  6
CONTINUOUS
 10
-161.942735672
 20
-224.1
 11
-161.942735672
 21
-219.1
  0
LINE
  5
42A
100
AcDbEntity
  8
0
100
AcDbLine
 62
7
  6
CONTINUOUS
 10
-161.942735672
 20
219.1
 11
-161.942735672
 21
224.1
  0
LINE
  5
42B
100
AcDbEntity
  8
0
100
AcDbLine
 62
7
  6
CONTINUOUS
 10
-160.742735672
 20
-217.6
 11
-160.742735672
 21
-225.6
  0
LINE
  5
42C
100
AcDbEntity
  8
0
100
AcDbLine
 62
7
  6
CONTINUOUS
 10
-160.742735672
 20
217.6
 11
-160.742735672
 21
225.6
  0
LINE
  5
42D
100
AcDbEntity
  8
0
100
AcDbLine
 62
7
  6
CONTINUOUS
 10
-159.392735672
 20
247.6
 11
-159.392735672
 21
247.55
  0
LINE
  5
42E
100
AcDbEntity
  8
0
100
AcDbLine
 62
7
  6
CONTINUOUS
 10
-159.392735672
 20
-249.6
 11
-159.392735672
 21
-248.6
  0
LINE
  5
42F
100
AcDbEntity
  8
0
100
AcDbLine
 62
7
  6
CONTINUOUS
 10
-159.392735672
 20
-247.6
 11
-159.392735672
 21
-247.55
  0
LINE
  5
430
100
AcDbEntity
  8
0
100
AcDbLine
 62
7
  6
CONTINUOUS
 10
-159.392735672
 20
248.6
 11
-159.392735672
 21
249.6
  0
LINE
  5
431
100
AcDbEntity
  8
0
100
AcDbLine
 62
7
  6
CONTINUOUS
 10
-157.892735672
 20
249.6
 11
-157.892735672
 21
248.6
  0
LINE
  5
432
100
AcDbEntity
  8
0
100
AcDbLine
 62
7
  6
CONTINUOUS
 10
-157.892735672
 20
-248.6
 11
-157.892735672
 21
-249.6
  0
LINE
  5
433
100
AcDbEntity
  8
0
100
AcDbLine
 62
250
  6
CONTINUOUS
 10
-157.392735672
 20
247.6
 11
-157.392735672
 21
247.55
  0
LINE
  5
434
100
AcDbEntity
  8
0
100
AcDbLine
 62
250
  6
CONTINUOUS
 10
-157.392735672
 20
-247.6
 11
-157.392735672
 21
-247.55
  0
LINE
  5
435
100
AcDbEntity
  8
0
100
AcDbLine
 62
7
  6
CONTINUOUS
 10
-105.192735672
 20
-31.5
 11
-104.142735672
 21
-31.5
  0
LINE
  5
436
100
AcDbEntity
  8
0
100
AcDbLine
 62
7
  6
CONTINUOUS
 10
-105.192735672
 20
-29.7
 11
-104.142735672
 21
-29.7
  0
LINE
  5
437
100
AcDbEntity
  8
0
100
AcDbLine
 62
250
  6
CONTINUOUS
 10
-147.742735672
 20
248.6
 11
-147.742735672
 21
247.6
  0
LINE
  5
438
100
AcDbEntity
  8
0
100
AcDbLine
 62
250
  6
CONTINUOUS
 10
-147.742735672
 20
-248.6
 11
-147.742735672
 21
-247.6
  0
LINE
  5
439
100
AcDbEntity
  8
0
100
AcDbLine
 62
7
  6
CONTINUOUS
 10
-147.742735672
 20
-246.1
 11
-147.742735672
 21
-247.55
  0
LINE
  5
43A
100
AcDbEntity
  8
0
100
AcDbLine
 62
7
  6
CONTINUOUS
 10
-147.742735672
 20
246.1
 11
-147.742735672
 21
247.55
  0
LINE
  5
43B
100
AcDbEntity
  8
0
100
AcDbLine
 62
7
  6
CONTINUOUS
 10
-145.242735672
 20
-247.55
 11
-145.242735672
 21
-248.6
  0
LINE
  5
43C
100
AcDbEntity
  8
0
100
AcDbLine
 62
7
  6
CONTINUOUS
 10
-144.942735672
 20
247.55
 11
-144.942735672
 21
248.6
  0
LINE
  5
43D
100
AcDbEntity
  8
0
100
AcDbLine
 62
7
  6
CONTINUOUS
 10
-143.442735672
 20
-247.55
 11
-143.442735672
 21
-248.6
  0
LINE
  5
43E
100
AcDbEntity
  8
0
100
AcDbLine
 62
7
  6
CONTINUOUS
 10
-143.142735672
 20
247.55
 11
-143.142735672
 21
248.6
  0
LWPOLYLINE
  5
43F
100
AcDbEntity
  8
0
100
AcDbPolyline
 62
7
  6
CONTINUOUS
 90
13
 70
0
 43
0.3500000006
 10
-136.4784518738
 20
273.3072388916
 10
-136.4784518738
 20
274.5929458008
 10
-136.2641673889
 20
275.0215147705
 10
-135.8355893555
 20
275.4500837402
 10
-135.6213048706
 20
275.4500837402
 10
-135.1927359009
 20
275.0215147705
 10
-134.978451416
 20
274.5929458008
 10
-134.978451416
 20
273.3072388916
 10
-135.1927359009
 20
272.8786699219
 10
-135.6213048706
 20
272.4500828247
 10
-135.8355893555
 20
272.4500828247
 10
-136.2641673889
 20
272.8786699219
 10
-136.4784518738
 20
273.3072388916
  0
LINE
  5
440
100
AcDbEntity
  8
0
100
AcDbLine
 62
7
  6
CONTINUOUS
 10
-133.742735672
 20
-223.3
 11
-133.742735672
 21
-219.9
  0
LINE
  5
441
100
AcDbEntity
  8
0
100
AcDbLine
 62
7
  6
CONTINUOUS
 10
-133.742735672
 20
219.9
 11
-133.742735672
 21
223.3
  0
LINE
  5
442
100
AcDbEntity
  8
0
100
AcDbLine
 62
7
  6
CONTINUOUS
 10
-105.192735672
 20
-0.9
 11
-104.142735672
 21
-0.9
  0
LINE
  5
443
100
AcDbEntity
  8
ASSI
100
AcDbLine
 62
7
  6
CONTINUOUS
 10
-111.5121181099
 20
-0.7
 11
-112.0129170419
 21
-0.7
  0
LINE
  5
444
100
AcDbEntity
  8
ASSI
100
AcDbLine
 62
7
  6
CONTINUOUS
 10
-136.2725543021
 20
-0.7
 11
-136.7733532341
 21
-0.7
  0
LINE
  5
445
100
AcDbEntity
  8
ASSI
100
AcDbLine
 62
7
  6
CONTINUOUS
 10
-136.7733532341
 20
0.7
 11
-136.2725543021
 21
0.7
  0
LINE
  5
446
100
AcDbEntity
  8
ASSI
100
AcDbLine
 62
7
  6
CONTINUOUS
 10
-112.0129170419
 20
0.7
 11
-111.5121181099
 21
0.7
  0
LINE
  5
447
100
AcDbEntity
  8
0
100
AcDbLine
 62
7
  6
CONTINUOUS
 10
-105.192735672
 20
0.9
 11
-104.142735672
 21
0.9
  0
LINE
  5
448
100
AcDbEntity
  8
0
100
AcDbLine
 62
7
  6
CONTINUOUS
 10
-106.2345987687
 20
-247.55
 11
-108.9423729048
 21
-216.6
  0
LINE
  5
449
100
AcDbEntity
  8
0
100
AcDbLine
 62
7
  6
CONTINUOUS
 10
-131.742735672
 20
228.6
 11
-131.742735672
 21
226.6
  0
LINE
  5
44A
100
AcDbEntity
  8
0
100
AcDbLine
 62
7
  6
CONTINUOUS
 10
-131.742735672
 20
223.3
 11
-131.742735672
 21
219.9
  0
LINE
  5
44B
100
AcDbEntity
  8
0
100
AcDbLine
 62
7
  6
CONTINUOUS
 10
-131.742735672
 20
-219.9
 11
-131.742735672
 21
-223.3
  0
LINE
  5
44C
100
AcDbEntity
  8
0
100
AcDbLine
 62
7
  6
CONTINUOUS
 10
-131.742735672
 20
-226.6
 11
-131.742735672
 21
-228.6
  0
LINE
  5
44D
100
AcDbEntity
  8
0
100
AcDbLine
 62
7
  6
CONTINUOUS
 10
-127.842735672
 20
-247.55
 11
-127.842735672
 21
-248.6
  0
LINE
  5
44E
100
AcDbEntity
  8
0
100
AcDbLine
 62
7
  6
CONTINUOUS
 10
-127.842735672
 20
247.55
 11
-127.842735672
 21
248.6
  0
LINE
  5
44F
100
AcDbEntity
  8
0
100
AcDbLine
 62
7
  6
CONTINUOUS
 10
-126.042735672
 20
-247.55
 11
-126.042735672
 21
-248.6
  0
LINE
  5
450
100
AcDbEntity
  8
0
100
AcDbLine
 62
7
  6
CONTINUOUS
 10
-126.042735672
 20
247.55
 11
-126.042735672
 21
248.6
  0
LINE
  5
451
100
AcDbEntity
  8
0
100
AcDbLine
 62
7
  6
CONTINUOUS
 10
-106.2345987687
 20
247.55
 11
-108.9423729048
 21
216.6
  0
LWPOLYLINE
  5
452
100
AcDbEntity
  8
0
100
AcDbPolyline
 62
7
  6
CONTINUOUS
 90
13
 70
0
 43
0.3500000006
 10
-114.1427340088
 20
263.3072358398
 10
-114.1427340088
 20
264.592942749
 10
-113.9284495239
 20
265.0215117188
 10
-113.4998805542
 20
265.4500988159
 10
-113.2855960693
 20
265.4500988159
 10
-112.8570180359
 20
265.0215117188
 10
-112.642733551
 20
264.592942749
 10
-112.642733551
 20
263.3072358398
 10
-112.8570180359
 20
262.8786668701
 10
-113.2855960693
 20
262.4500979004
 10
-113.4998805542
 20
262.4500979004
 10
-113.9284495239
 20
262.8786668701
 10
-114.1427340088
 20
263.3072358398
  0
LINE
  5
453
100
AcDbEntity
  8
0
100
AcDbLine
 62
7
  6
CONTINUOUS
 10
-110.742735672
 20
247.55
 11
-110.742735672
 21
248.6
  0
LINE
  5
454
100
AcDbEntity
  8
0
100
AcDbLine
 62
7
  6
CONTINUOUS
 10
-110.442735672
 20
-247.55
 11
-110.442735672
 21
-248.6
  0
LINE
  5
455
100
AcDbEntity
  8
0
100
AcDbLine
 62
7
  6
CONTINUOUS
 10
-108.942735672
 20
247.55
 11
-108.942735672
 21
248.6
  0
LINE
  5
456
100
AcDbEntity
  8
0
100
AcDbLine
 62
7
  6
CONTINUOUS
 10
-108.642735672
 20
-247.55
 11
-108.642735672
 21
-248.6
  0
LINE
  5
457
100
AcDbEntity
  8
0
100
AcDbLine
 62
7
  6
CONTINUOUS
 10
-106.142735672
 20
248.6
 11
-106.142735672
 21
247.6
  0
LINE
  5
458
100
AcDbEntity
  8
0
100
AcDbLine
 62
7
  6
CONTINUOUS
 10
-106.142735672
 20
-248.6
 11
-106.142735672
 21
-247.6
  0
LINE
  5
459
100
AcDbEntity
  8
0
100
AcDbLine
 62
250
  6
CONTINUOUS
 10
-105.192735672
 20
248.6
 11
-105.192735672
 21
247.6
  0
LINE
  5
45A
100
AcDbEntity
  8
0
100
AcDbLine
 62
250
  6
CONTINUOUS
 10
-105.192735672
 20
-248.6
 11
-105.192735672
 21
-247.6
  0
LINE
  5
45B
100
AcDbEntity
  8
0
100
AcDbLine
 62
7
  6
CONTINUOUS
 10
-105.192735672
 20
-247.55
 11
-105.192735672
 21
-245.7
  0
LINE
  5
45C
100
AcDbEntity
  8
0
100
AcDbLine
 62
250
  6
CONTINUOUS
 10
-105.192735672
 20
-245.7
 11
-105.192735672
 21
-243.9
  0
LINE
  5
45D
100
AcDbEntity
  8
0
100
AcDbLine
 62
7
  6
CONTINUOUS
 10
-105.192735672
 20
-243.9
 11
-105.192735672
 21
-215.1
  0
LINE
  5
45E
100
AcDbEntity
  8
0
100
AcDbLine
 62
250
  6
CONTINUOUS
 10
-105.192735672
 20
-215.1
 11
-105.192735672
 21
-213.3
  0
LINE
  5
45F
100
AcDbEntity
  8
0
100
AcDbLine
 62
7
  6
CONTINUOUS
 10
-105.192735672
 20
-213.3
 11
-105.192735672
 21
-184.5
  0
LINE
  5
460
100
AcDbEntity
  8
0
100
AcDbLine
 62
250
  6
CONTINUOUS
 10
-105.192735672
 20
-184.5
 11
-105.192735672
 21
-182.7
  0
LINE
  5
461
100
AcDbEntity
  8
0
100
AcDbLine
 62
7
  6
CONTINUOUS
 10
-105.192735672
 20
-182.7
 11
-105.192735672
 21
-153.9
  0
LINE
  5
462
100
AcDbEntity
  8
0
100
AcDbLine
 62
250
  6
CONTINUOUS
 10
-105.192735672
 20
-153.9
 11
-105.192735672
 21
-152.1
  0
LINE
  5
463
100
AcDbEntity
  8
0
100
AcDbLine
 62
7
  6
CONTINUOUS
 10
-105.192735672
 20
-152.1
 11
-105.192735672
 21
-123.3
  0
LINE
  5
464
100
AcDbEntity
  8
0
100
AcDbLine
 62
250
  6
CONTINUOUS
 10
-105.192735672
 20
-123.3
 11
-105.192735672
 21
-121.5
  0
LINE
  5
465
100
AcDbEntity
  8
0
100
AcDbLine
 62
7
  6
CONTINUOUS
 10
-105.192735672
 20
-121.5
 11
-105.192735672
 21
-92.7
  0
LINE
  5
466
100
AcDbEntity
  8
0
100
AcDbLine
 62
250
  6
CONTINUOUS
 10
-105.192735672
 20
-92.7
 11
-105.192735672
 21
-90.9
  0
LINE
  5
467
100
AcDbEntity
  8
0
100
AcDbLine
 62
7
  6
CONTINUOUS
 10
-105.192735672
 20
-90.9
 11
-105.192735672
 21
-62.1
  0
LINE
  5
468
100
AcDbEntity
  8
0
100
AcDbLine
 62
250
  6
CONTINUOUS
 10
-105.192735672
 20
-62.1
 11
-105.192735672
 21
-60.3
  0
LINE
  5
469
100
AcDbEntity
  8
0
100
AcDbLine
 62
7
  6
CONTINUOUS
 10
-105.192735672
 20
-60.3
 11
-105.192735672
 21
-31.5
  0
LINE
  5
46A
100
AcDbEntity
  8
0
100
AcDbLine
 62
250
  6
CONTINUOUS
 10
-105.192735672
 20
-31.5
 11
-105.192735672
 21
-29.7
  0
LINE
  5
46B
100
AcDbEntity
  8
0
100
AcDbLine
 62
7
  6
CONTINUOUS
 10
-105.192735672
 20
-29.7
 11
-105.192735672
 21
-0.9
  0
LINE
  5
46C
100
AcDbEntity
  8
0
100
AcDbLine
 62
250
  6
CONTINUOUS
 10
-105.192735672
 20
-0.9
 11
-105.192735672
 21
0.9
  0
LINE
  5
46D
100
AcDbEntity
  8
0
100
AcDbLine
 62
7
  6
CONTINUOUS
 10
-105.192735672
 20
0.9
 11
-105.192735672
 21
29.7
  0
LINE
  5
46E
100
AcDbEntity
  8
0
100
AcDbLine
 62
250
  6
CONTINUOUS
 10
-105.192735672
 20
29.7
 11
-105.192735672
 21
31.5
  0
LINE
  5
46F
100
AcDbEntity
  8
0
100
AcDbLine
 62
7
  6
CONTINUOUS
 10
-105.192735672
 20
31.5
 11
-105.192735672
 21
60.3
  0
LINE
  5
470
100
AcDbEntity
  8
0
100
AcDbLine
 62
250
  6
CONTINUOUS
 10
-105.192735672
 20
60.3
 11
-105.192735672
 21
62.1
  0
LINE
  5
471
100
AcDbEntity
  8
0
100
AcDbLine
 62
7
  6
CONTINUOUS
 10
-105.192735672
 20
62.1
 11
-105.192735672
 21
90.9
  0
LINE
  5
472
100
AcDbEntity
  8
0
100
AcDbLine
 62
250
  6
CONTINUOUS
 10
-105.192735672
 20
90.9
 11
-105.192735672
 21
92.7
  0
LINE
  5
473
100
AcDbEntity
  8
0
100
AcDbLine
 62
7
  6
CONTINUOUS
 10
-105.192735672
 20
92.7
 11
-105.192735672
 21
121.5
  0
LINE
  5
474
100
AcDbEntity
  8
0
100
AcDbLine
 62
250
  6
CONTINUOUS
 10
-105.192735672
 20
121.5
 11
-105.192735672
 21
123.3
  0
LINE
  5
475
100
AcDbEntity
  8
0
100
AcDbLine
 62
7
  6
CONTINUOUS
 10
-105.192735672
 20
123.3
 11
-105.192735672
 21
152.1
  0
LINE
  5
476
100
AcDbEntity
  8
0
100
AcDbLine
 62
250
  6
CONTINUOUS
 10
-105.192735672
 20
152.1
 11
-105.192735672
 21
153.9
  0
LINE
  5
477
100
AcDbEntity
  8
0
100
AcDbLine
 62
7
  6
CONTINUOUS
 10
-105.192735672
 20
153.9
 11
-105.192735672
 21
182.7
  0
LINE
  5
478
100
AcDbEntity
  8
0
100
AcDbLine
 62
250
  6
CONTINUOUS
 10
-105.192735672
 20
182.7
 11
-105.192735672
 21
184.5
  0
LINE
  5
479
100
AcDbEntity
  8
0
100
AcDbLine
 62
7
  6
CONTINUOUS
 10
-105.192735672
 20
184.5
 11
-105.192735672
 21
213.3
  0
LINE
  5
47A
100
AcDbEntity
  8
0
100
AcDbLine
 62
250
  6
CONTINUOUS
 10
-105.192735672
 20
213.3
 11
-105.192735672
 21
215.1
  0
LINE
  5
47B
100
AcDbEntity
  8
0
100
AcDbLine
 62
7
  6
CONTINUOUS
 10
-105.192735672
 20
215.1
 11
-105.192735672
 21
243.9
  0
LINE
  5
47C
100
AcDbEntity
  8
0
100
AcDbLine
 62
250
  6
CONTINUOUS
 10
-105.192735672
 20
243.9
 11
-105.192735672
 21
245.7
  0
LINE
  5
47D
100
AcDbEntity
  8
0
100
AcDbLine
 62
7
  6
CONTINUOUS
 10
-105.192735672
 20
245.7
 11
-105.192735672
 21
247.55
  0
LINE
  5
47E
100
AcDbEntity
  8
0
100
AcDbLine
 62
7
  6
CONTINUOUS
 10
-105.142735672
 20
247.55
 11
-105.142735672
 21
245.7
  0
LINE
  5
47F
100
AcDbEntity
  8
0
100
AcDbLine
 62
7
  6
CONTINUOUS
 10
-105.142735672
 20
243.9
 11
-105.142735672
 21
215.1
  0
LINE
  5
480
100
AcDbEntity
  8
0
100
AcDbLine
 62
7
  6
CONTINUOUS
 10
-105.142735672
 20
213.3
 11
-105.142735672
 21
184.5
  0
LINE
  5
481
100
AcDbEntity
  8
0
100
AcDbLine
 62
7
  6
CONTINUOUS
 10
-105.142735672
 20
-247.55
 11
-105.142735672
 21
-245.7
  0
LINE
  5
482
100
AcDbEntity
  8
0
100
AcDbLine
 62
7
  6
CONTINUOUS
 10
-105.142735672
 20
182.7
 11
-105.142735672
 21
153.9
  0
LINE
  5
483
100
AcDbEntity
  8
0
100
AcDbLine
 62
7
  6
CONTINUOUS
 10
-105.142735672
 20
152.1
 11
-105.142735672
 21
123.3
  0
LINE
  5
484
100
AcDbEntity
  8
0
100
AcDbLine
 62
7
  6
CONTINUOUS
 10
-105.142735672
 20
121.5
 11
-105.142735672
 21
92.7
  0
LINE
  5
485
100
AcDbEntity
  8
0
100
AcDbLine
 62
7
  6
CONTINUOUS
 10
-105.142735672
 20
90.9
 11
-105.142735672
 21
62.1
  0
LINE
  5
486
100
AcDbEntity
  8
0
100
AcDbLine
 62
7
  6
CONTINUOUS
 10
-105.142735672
 20
-152.1
 11
-105.142735672
 21
-123.3
  0
LINE
  5
487
100
AcDbEntity
  8
0
100
AcDbLine
 62
7
  6
CONTINUOUS
 10
-105.142735672
 20
60.3
 11
-105.142735672
 21
31.5
  0
LINE
  5
488
100
AcDbEntity
  8
0
100
AcDbLine
 62
7
  6
CONTINUOUS
 10
-105.142735672
 20
29.7
 11
-105.142735672
 21
0.9
  0
LINE
  5
489
100
AcDbEntity
  8
0
100
AcDbLine
 62
7
  6
CONTINUOUS
 10
-105.142735672
 20
-0.9
 11
-105.142735672
 21
-29.7
  0
LINE
  5
48A
100
AcDbEntity
  8
0
100
AcDbLine
 62
7
  6
CONTINUOUS
 10
-105.142735672
 20
-31.5
 11
-105.142735672
 21
-60.3
  0
LINE
  5
48B
100
AcDbEntity
  8
0
100
AcDbLine
 62
7
  6
CONTINUOUS
 10
-105.142735672
 20
-62.1
 11
-105.142735672
 21
-90.9
  0
LINE
  5
48C
100
AcDbEntity
  8
0
100
AcDbLine
 62
7
  6
CONTINUOUS
 10
-105.142735672
 20
-92.7
 11
-105.142735672
 21
-121.5
  0
LINE
  5
48D
100
AcDbEntity
  8
0
100
AcDbLine
 62
7
  6
CONTINUOUS
 10
-105.142735672
 20
-153.9
 11
-105.142735672
 21
-182.7
  0
LINE
  5
48E
100
AcDbEntity
  8
0
100
AcDbLine
 62
7
  6
CONTINUOUS
 10
-105.142735672
 20
-184.5
 11
-105.142735672
 21
-213.3
  0
LINE
  5
48F
100
AcDbEntity
  8
0
100
AcDbLine
 62
7
  6
CONTINUOUS
 10
-105.142735672
 20
-215.1
 11
-105.142735672
 21
-243.9
  0
LINE
  5
490
100
AcDbEntity
  8
0
100
AcDbLine
 62
7
  6
CONTINUOUS
 10
-104.142735672
 20
-247.55
 11
-104.142735672
 21
247.55
  0
LINE
  5
491
100
AcDbEntity
  8
0
100
AcDbLine
 62
7
  6
CONTINUOUS
 10
-124.8456922062
 20
-242.5118550415
 11
-124.841945683
 21
-242.4643192477
  0
LINE
  5
492
100
AcDbEntity
  8
0
100
AcDbLine
 62
7
  6
CONTINUOUS
 10
-124.8524964787
 20
-242.5926386747
 11
-124.8456922062
 21
-242.5118550415
  0
LINE
  5
493
100
AcDbEntity
  8
0
100
AcDbLine
 62
7
  6
CONTINUOUS
 10
-105.192735672
 20
29.7
 11
-104.142735672
 21
29.7
  0
LINE
  5
494
100
AcDbEntity
  8
0
100
AcDbLine
 62
7
  6
CONTINUOUS
 10
-105.192735672
 20
31.5
 11
-104.142735672
 21
31.5
  0
LWPOLYLINE
  5
495
100
AcDbEntity
  8
0
100
AcDbPolyline
 62
7
  6
CONTINUOUS
 90
3
 70
0
 43
0.3500000006
 10
-181.0801785278
 20
81.7857175598
 10
-181.9373164673
 20
82.6428554993
 10
-178.9373155518
 20
82.6428554993
  0
LINE
  5
496
100
AcDbEntity
  8
0
100
AcDbLine
 62
7
  6
CONTINUOUS
 10
-105.192735672
 20
60.3
 11
-104.142735672
 21
60.3
  0
LINE
  5
497
100
AcDbEntity
  8
0
100
AcDbLine
 62
7
  6
CONTINUOUS
 10
-105.192735672
 20
62.1
 11
-104.142735672
 21
62.1
  0
LINE
  5
498
100
AcDbEntity
  8
0
100
AcDbLine
 62
7
  6
CONTINUOUS
 10
-147.742735672
 20
-246.1
 11
-141.3732565723
 21
-228.6
  0
LWPOLYLINE
  5
499
100
AcDbEntity
  8
0
100
AcDbPolyline
 62
7
  6
CONTINUOUS
 90
4
 70
0
 43
0.3500000006
 10
-181.2944630127
 20
83.5000025024
 10
-181.9373164673
 20
83.5000025024
 10
-181.9373164673
 20
85.0000029602
 10
-178.9373155518
 20
84.142855957
  0
LWPOLYLINE
  5
49A
100
AcDbEntity
  8
0
100
AcDbPolyline
 62
7
  6
CONTINUOUS
 90
13
 70
0
 43
0.3500000006
 10
-179.7944534912
 20
85.8571408997
 10
-181.0801785278
 20
85.8571408997
 10
-181.5087474976
 20
86.0714253845
 10
-181.9373164673
 20
86.500003418
 10
-181.9373164673
 20
86.7142879028
 10
-181.5087474976
 20
87.1428568726
 10
-181.0801785278
 20
87.3571413574
 10
-179.7944534912
 20
87.3571413574
 10
-179.3658845215
 20
87.1428568726
 10
-178.9373155518
 20
86.7142879028
 10
-178.9373155518
 20
86.500003418
 10
-179.3658845215
 20
86.0714253845
 10
-179.7944534912
 20
85.8571408997
  0
LINE
  5
49B
100
AcDbEntity
  8
0
100
AcDbLine
 62
7
  6
CONTINUOUS
 10
-141.3732565723
 20
228.6
 11
-147.742735672
 21
246.1
  0
LINE
  5
49C
100
AcDbEntity
  8
0
100
AcDbLine
 62
7
  6
CONTINUOUS
 10
-105.192735672
 20
90.9
 11
-104.142735672
 21
90.9
  0
LINE
  5
49D
100
AcDbEntity
  8
0
100
AcDbLine
 62
7
  6
CONTINUOUS
 10
-105.192735672
 20
92.7
 11
-104.142735672
 21
92.7
  0
LINE
  5
49E
100
AcDbEntity
  8
0
100
AcDbLine
 62
7
  6
CONTINUOUS
 10
-105.192735672
 20
121.5
 11
-104.142735672
 21
121.5
  0
LWPOLYLINE
  5
49F
100
AcDbEntity
  8
0
100
AcDbPolyline
 62
250
  6
CONTINUOUS
 90
18
 70
0
 10
-134.5886177831
 20
-243.2608419692
 10
-134.5635843671
 20
-243.2214986559
 10
-134.5324191657
 20
-243.160184375
 10
-134.5085068608
 20
-243.095858494
 10
-134.4921718024
 20
-243.0292747825
 10
-134.4838010295
 20
-242.9612177469
 10
-134.4838010278
 20
-242.8926521979
 10
-134.4921718216
 20
-242.8245950314
 10
-134.508507007
 20
-242.758010949
 10
-134.5324195762
 20
-242.6936846063
 10
-134.5635850253
 20
-242.6323701322
 10
-134.6016986584
 20
-242.5748939088
 10
-134.6463768256
 20
-242.5222197838
 10
-134.6971520671
 20
-242.4752717436
 10
-134.7532511227
 20
-242.4345927992
 10
-134.8137990883
 20
-242.4005119009
 10
-134.8779151463
 20
-242.3733767284
 10
-134.9003908737
 20
-242.3667040019
  0
LWPOLYLINE
  5
4A0
100
AcDbEntity
  8
0
100
AcDbPolyline
 62
7
  6
CONTINUOUS
 90
12
 70
0
 10
-134.5903407402
 20
-243.2633150702
 10
-134.5563061285
 20
-243.2114571993
 10
-134.5045826678
 20
-243.1194798623
 10
-134.4580948522
 20
-243.0210188194
 10
-134.4157814359
 20
-242.9165199611
 10
-134.3760003379
 20
-242.8041483409
 10
-134.3371290231
 20
-242.6803918274
 10
-134.2985813146
 20
-242.5436838195
 10
-134.2602743266
 20
-242.3939647025
 10
-134.2220723698
 20
-242.2310436226
 10
-134.1839013554
 20
-242.0550131444
 10
-134.1577009958
 20
-241.9254193693
  0
LINE
  5
4A1
100
AcDbEntity
  8
0
100
AcDbLine
 62
7
  6
CONTINUOUS
 10
-105.192735672
 20
123.3
 11
-104.142735672
 21
123.3
  0
LWPOLYLINE
  5
4A2
100
AcDbEntity
  8
0
100
AcDbPolyline
 62
7
  6
CONTINUOUS
 90
10
 70
0
 43
0.3500000006
 10
-133.4784509583
 20
272.950092041
 10
-133.4070197754
 20
272.8072296753
 10
-133.4070197754
 20
272.7358075562
 10
-133.5498821411
 20
272.5929451904
 10
-133.6213042603
 20
272.5929451904
 10
-133.6927354431
 20
272.664385437
 10
-133.6927354431
 20
272.7358075562
 10
-133.6213042603
 20
272.8786699219
 10
-133.5498821411
 20
272.950092041
 10
-133.4784509583
 20
272.950092041
  0
LINE
  5
4A3
100
AcDbEntity
  8
0
100
AcDbLine
 62
7
  6
CONTINUOUS
 10
-134.5903407402
 20
-243.2633150702
 11
-134.5886177831
 21
-243.2608419692
  0
LINE
  5
4A4
100
AcDbEntity
  8
0
100
AcDbLine
 62
7
  6
CONTINUOUS
 10
-105.192735672
 20
152.1
 11
-104.142735672
 21
152.1
  0
LINE
  5
4A5
100
AcDbEntity
  8
0
100
AcDbLine
 62
7
  6
CONTINUOUS
 10
-105.192735672
 20
153.9
 11
-104.142735672
 21
153.9
  0
LINE
  5
4A6
100
AcDbEntity
  8
ASSI
100
AcDbLine
 62
7
  6
CONTINUOUS
 10
-111.5121181099
 20
169.3
 11
-112.0129170419
 21
169.3
  0
LINE
  5
4A7
100
AcDbEntity
  8
ASSI
100
AcDbLine
 62
7
  6
CONTINUOUS
 10
-136.2725543021
 20
169.3
 11
-136.7733532341
 21
169.3
  0
LINE
  5
4A8
100
AcDbEntity
  8
ASSI
100
AcDbLine
 62
7
  6
CONTINUOUS
 10
-136.7733532341
 20
170.7
 11
-136.2725543021
 21
170.7
  0
LINE
  5
4A9
100
AcDbEntity
  8
ASSI
100
AcDbLine
 62
7
  6
CONTINUOUS
 10
-112.0129170419
 20
170.7
 11
-111.5121181099
 21
170.7
  0
LINE
  5
4AA
100
AcDbEntity
  8
0
100
AcDbLine
 62
7
  6
CONTINUOUS
 10
-105.192735672
 20
182.7
 11
-104.142735672
 21
182.7
  0
LINE
  5
4AB
100
AcDbEntity
  8
0
100
AcDbLine
 62
7
  6
CONTINUOUS
 10
-105.192735672
 20
184.5
 11
-104.142735672
 21
184.5
  0
LINE
  5
4AC
100
AcDbEntity
  8
0
100
AcDbLine
 62
7
  6
CONTINUOUS
 10
-105.192735672
 20
213.3
 11
-104.142735672
 21
213.3
  0
LINE
  5
4AD
100
AcDbEntity
  8
0
100
AcDbLine
 62
7
  6
CONTINUOUS
 10
-105.192735672
 20
215.1
 11
-104.142735672
 21
215.1
  0
LINE
  5
4AE
100
AcDbEntity
  8
0
100
AcDbLine
 62
7
  6
CONTINUOUS
 10
-108.9423729048
 20
216.6
 11
-159.742735672
 21
216.6
  0
LINE
  5
4AF
100
AcDbEntity
  8
0
100
AcDbLine
 62
7
  6
CONTINUOUS
 10
-160.742735672
 20
218.1
 11
-160.942735672
 21
218.1
  0
LINE
  5
4B0
100
AcDbEntity
  8
0
100
AcDbLine
 62
7
  6
CONTINUOUS
 10
-132.542735672
 20
219.1
 11
-132.942735672
 21
219.1
  0
LWPOLYLINE
  5
4B1
100
AcDbEntity
  8
0
100
AcDbPolyline
 62
7
  6
CONTINUOUS
 90
29
 70
0
 10
-125.3356980966
 20
-243.5658194631
 10
-125.2738339855
 20
-243.5404868587
 10
-125.216746864
 20
-243.5097701408
 10
-125.1644925902
 20
-243.4742771667
 10
-125.1176357055
 20
-243.4349190602
 10
-125.0771461458
 20
-243.3933652101
 10
-125.042502265
 20
-243.3504727958
 10
-125.0131989869
 20
-243.3071677141
 10
-124.9894100663
 20
-243.2655674035
 10
-124.9705694965
 20
-243.2269787583
 10
-124.9554575109
 20
-243.1910836469
 10
-124.9431616857
 20
-243.1574944958
 10
-124.933278142
 20
-243.1267436906
 10
-124.9252011775
 20
-243.0984596316
 10
-124.9181252304
 20
-243.0708222594
 10
-124.9118121388
 20
-243.0434888805
 10
-124.9061849442
 20
-243.0166698886
 10
-124.9009516684
 20
-242.9893878263
 10
-124.8960166454
 20
-242.9613801577
 10
-124.8913628519
 20
-242.9327675502
 10
-124.8869068967
 20
-242.9032275285
 10
-124.8826132616
 20
-242.872662973
 10
-124.8784702396
 20
-242.8411195708
 10
-124.8744607878
 20
-242.8085944957
 10
-124.8705818051
 20
-242.7751895254
 10
-124.8668139634
 20
-242.7408597467
 10
-124.8631283826
 20
-242.7054360591
 10
-124.8595171058
 20
-242.6689152365
 10
-124.8524964787
 20
-242.5926386747
  0
LINE
  5
4B2
100
AcDbEntity
  8
0
100
AcDbLine
 62
7
  6
CONTINUOUS
 10
-125.3897397136
 20
-243.5813789163
 11
-125.3356980966
 21
-243.5658194631
  0
LINE
  5
4B3
100
AcDbEntity
  8
0
100
AcDbLine
 62
7
  6
CONTINUOUS
 10
-132.942735672
 20
224.1
 11
-132.542735672
 21
224.1
  0
LINE
  5
4B4
100
AcDbEntity
  8
0
100
AcDbLine
 62
7
  6
CONTINUOUS
 10
-160.942735672
 20
225.1
 11
-160.742735672
 21
225.1
  0
LINE
  5
4B5
100
AcDbEntity
  8
0
100
AcDbLine
 62
7
  6
CONTINUOUS
 10
-131.742735672
 20
226.6
 11
-159.742735672
 21
226.6
  0
LINE
  5
4B6
100
AcDbEntity
  8
0
100
AcDbLine
 62
7
  6
CONTINUOUS
 10
-141.3732565723
 20
228.6
 11
-131.742735672
 21
228.6
  0
LINE
  5
4B7
100
AcDbEntity
  8
0
100
AcDbLine
 62
7
  6
CONTINUOUS
 10
-105.192735672
 20
243.9
 11
-104.142735672
 21
243.9
  0
LINE
  5
4B8
100
AcDbEntity
  8
0
100
AcDbLine
 62
7
  6
CONTINUOUS
 10
-105.192735672
 20
245.7
 11
-104.142735672
 21
245.7
  0
LINE
  5
4B9
100
AcDbEntity
  8
0
100
AcDbLine
 62
250
  6
CONTINUOUS
 10
-144.942735672
 20
247.55
 11
-143.142735672
 21
247.55
  0
LINE
  5
4BA
100
AcDbEntity
  8
0
100
AcDbLine
 62
7
  6
CONTINUOUS
 10
-143.142735672
 20
247.55
 11
-127.842735672
 21
247.55
  0
LINE
  5
4BB
100
AcDbEntity
  8
0
100
AcDbLine
 62
250
  6
CONTINUOUS
 10
-127.842735672
 20
247.55
 11
-126.042735672
 21
247.55
  0
LINE
  5
4BC
100
AcDbEntity
  8
0
100
AcDbLine
 62
250
  6
CONTINUOUS
 10
-110.742735672
 20
247.55
 11
-108.942735672
 21
247.55
  0
LINE
  5
4BD
100
AcDbEntity
  8
0
100
AcDbLine
 62
250
  6
CONTINUOUS
 10
-104.142735672
 20
247.55
 11
-105.142735672
 21
247.55
  0
LINE
  5
4BE
100
AcDbEntity
  8
0
100
AcDbLine
 62
7
  6
CONTINUOUS
 10
-105.192735672
 20
247.55
 11
-108.942735672
 21
247.55
  0
LINE
  5
4BF
100
AcDbEntity
  8
0
100
AcDbLine
 62
7
  6
CONTINUOUS
 10
-110.742735672
 20
247.55
 11
-126.042735672
 21
247.55
  0
LINE
  5
4C0
100
AcDbEntity
  8
0
100
AcDbLine
 62
7
  6
CONTINUOUS
 10
-144.942735672
 20
247.55
 11
-164.742735672
 21
247.55
  0
LINE
  5
4C1
100
AcDbEntity
  8
0
100
AcDbLine
 62
7
  6
CONTINUOUS
 10
-164.742735672
 20
247.6
 11
-144.942735672
 21
247.6
  0
LINE
  5
4C2
100
AcDbEntity
  8
0
100
AcDbLine
 62
7
  6
CONTINUOUS
 10
-143.142735672
 20
247.6
 11
-127.842735672
 21
247.6
  0
LINE
  5
4C3
100
AcDbEntity
  8
0
100
AcDbLine
 62
7
  6
CONTINUOUS
 10
-126.042735672
 20
247.6
 11
-110.742735672
 21
247.6
  0
LINE
  5
4C4
100
AcDbEntity
  8
0
100
AcDbLine
 62
7
  6
CONTINUOUS
 10
-108.942735672
 20
247.6
 11
-105.192735672
 21
247.6
  0
LINE
  5
4C5
100
AcDbEntity
  8
0
100
AcDbLine
 62
7
  6
CONTINUOUS
 10
-105.192735672
 20
248.6
 11
-164.742735672
 21
248.6
  0
LINE
  5
4C6
100
AcDbEntity
  8
0
100
AcDbLine
 62
250
  6
CONTINUOUS
 10
-159.392735672
 20
249.1868240888
 11
-157.892735672
 21
249.1868240888
  0
LINE
  5
4C7
100
AcDbEntity
  8
0
100
AcDbLine
 62
7
  6
CONTINUOUS
 10
-159.392735672
 20
249.6
 11
-157.892735672
 21
249.6
  0
LWPOLYLINE
  5
4C8
100
AcDbEntity
  8
0
100
AcDbPolyline
 62
7
  6
CONTINUOUS
 90
7
 70
0
 43
0.3500000006
 10
-114.999881012
 20
262.4500979004
 10
-116.4998814697
 20
262.4500979004
 10
-114.999881012
 20
264.592942749
 10
-114.999881012
 20
265.0215117188
 10
-115.4284499817
 20
265.4500988159
 10
-116.0713034363
 20
265.4500988159
 10
-116.4998814697
 20
264.8072272339
  0
ARC
  5
4C9
100
AcDbEntity
  8
0
100
AcDbCircle
 62
7
  6
CONTINUOUS
 10
-66.425
 20
-247.55
 40
1.05
100
AcDbArc
 50
180.0
 51
270.0
  0
ARC
  5
4CA
100
AcDbEntity
  8
RACCORDO
100
AcDbCircle
 62
7
  6
CONTINUOUS
 10
-45.7041004864
 20
-242.85
 40
1.0
100
AcDbArc
 50
51.3478573985
 51
90.0
  0
ARC
  5
4CB
100
AcDbEntity
  8
RACCORDO
100
AcDbCircle
 62
7
  6
CONTINUOUS
 10
-47.3126205218
 20
-240.85
 40
1.0
100
AcDbArc
 50
204.8345874897
 51
270.0
  0
CIRCLE
  5
4CC
100
AcDbEntity
  8
ASSI
100
AcDbCircle
 62
7
  6
CONTINUOUS
 10
-47.075
 20
-240.4
 40
0.6
  0
ARC
  5
4CD
100
AcDbEntity
  8
0
100
AcDbCircle
 62
7
  6
CONTINUOUS
 10
-53.1054381211
 20
-249.1
 40
0.5
100
AcDbArc
 50
195.0
 51
270.0
  0
ARC
  5
4CE
100
AcDbEntity
  8
0
100
AcDbCircle
 62
7
  6
CONTINUOUS
 10
-45.9445618789
 20
-249.1
 40
0.5
100
AcDbArc
 50
270.0
 51
345.0
  0
ARC
  5
4CF
100
AcDbEntity
  8
RACCORDO
100
AcDbCircle
 62
7
  6
CONTINUOUS
 10
-46.130219814
 20
-239.3
 40
0.2
100
AcDbArc
 50
9.3093409216
 51
90.0
  0
ARC
  5
4D0
100
AcDbEntity
  8
RACCORDO
100
AcDbCircle
 62
7
  6
CONTINUOUS
 10
-48.5488635245
 20
-239.3
 40
0.2
100
AcDbArc
 50
90.0
 51
185.4413964306
  0
ARC
  5
4D1
100
AcDbEntity
  8
0
100
AcDbCircle
 62
7
  6
CONTINUOUS
 10
-66.425
 20
-247.55
 40
0.05
100
AcDbArc
 50
180.0
 51
270.0
  0
ARC
  5
4D2
100
AcDbEntity
  8
RACCORDO
100
AcDbCircle
 62
7
  6
CONTINUOUS
 10
-45.7041004864
 20
-234.65
 40
1.0
100
AcDbArc
 50
270.0
 51
308.6521426015
  0
ARC
  5
4D3
100
AcDbEntity
  8
RACCORDO
100
AcDbCircle
 62
7
  6
CONTINUOUS
 10
-47.3126205218
 20
-236.65
 40
1.0
100
AcDbArc
 50
90.0
 51
155.1654125103
  0
CIRCLE
  5
4D4
100
AcDbEntity
  8
ASSI
100
AcDbCircle
 62
7
  6
CONTINUOUS
 10
-47.075
 20
-237.1
 40
0.6
  0
ARC
  5
4D5
100
AcDbEntity
  8
RACCORDO
100
AcDbCircle
 62
7
  6
CONTINUOUS
 10
-46.130219814
 20
-238.2
 40
0.2
100
AcDbArc
 50
270.0
 51
350.6906590784
  0
ARC
  5
4D6
100
AcDbEntity
  8
RACCORDO
100
AcDbCircle
 62
7
  6
CONTINUOUS
 10
-48.5488635245
 20
-238.2
 40
0.2
100
AcDbArc
 50
174.5586035694
 51
270.0
  0
ARC
  5
4D7
100
AcDbEntity
  8
RACCORDO
100
AcDbCircle
 62
7
  6
CONTINUOUS
 10
-42.775
 20
-238.75
 40
6.0
100
AcDbArc
 50
185.4413964306
 51
204.8345874897
  0
ARC
  5
4D8
100
AcDbEntity
  8
RACCORDO
100
AcDbCircle
 62
7
  6
CONTINUOUS
 10
-42.775
 20
-238.75
 40
6.0
100
AcDbArc
 50
155.1654125103
 51
174.5586035694
  0
ARC
  5
4D9
100
AcDbEntity
  8
RACCORDO
100
AcDbCircle
 62
7
  6
CONTINUOUS
 10
-42.425
 20
-238.75
 40
4.25
100
AcDbArc
 50
231.3478573985
 51
128.6521426015
  0
ARC
  5
4DA
100
AcDbEntity
  8
SMUSSO
100
AcDbCircle
 62
7
  6
CONTINUOUS
 10
-42.775
 20
-238.75
 40
3.45
100
AcDbArc
 50
209.591845794
 51
240.408154206
  0
ARC
  5
4DB
100
AcDbEntity
  8
SMUSSO
100
AcDbCircle
 62
7
  6
CONTINUOUS
 10
-42.775
 20
-238.75
 40
3.45
100
AcDbArc
 50
299.591845794
 51
330.408154206
  0
ARC
  5
4DC
100
AcDbEntity
  8
SMUSSO
100
AcDbCircle
 62
7
  6
CONTINUOUS
 10
-42.775
 20
-238.75
 40
3.45
100
AcDbArc
 50
119.591845794
 51
150.408154206
  0
ARC
  5
4DD
100
AcDbEntity
  8
SMUSSO
100
AcDbCircle
 62
7
  6
CONTINUOUS
 10
-42.775
 20
-238.75
 40
3.45
100
AcDbArc
 50
29.591845794
 51
60.408154206
  0
ARC
  5
4DE
100
AcDbEntity
  8
RACCORDO
100
AcDbCircle
 62
7
  6
CONTINUOUS
 10
-42.775
 20
-238.75
 40
3.2
100
AcDbArc
 50
159.6606480692
 51
170.6906590784
  0
ARC
  5
4DF
100
AcDbEntity
  8
RACCORDO
100
AcDbCircle
 62
7
  6
CONTINUOUS
 10
-42.775
 20
-238.75
 40
3.2
100
AcDbArc
 50
69.8205807249
 51
110.249745345
  0
ARC
  5
4E0
100
AcDbEntity
  8
RACCORDO
100
AcDbCircle
 62
7
  6
CONTINUOUS
 10
-42.775
 20
-238.75
 40
3.2
100
AcDbArc
 50
339.7629460951
 51
20.2363047083
  0
ARC
  5
4E1
100
AcDbEntity
  8
RACCORDO
100
AcDbCircle
 62
7
  6
CONTINUOUS
 10
-42.775
 20
-238.75
 40
3.2
100
AcDbArc
 50
249.7511491045
 51
290.1798380683
  0
ARC
  5
4E2
100
AcDbEntity
  8
RACCORDO
100
AcDbCircle
 62
7
  6
CONTINUOUS
 10
-42.775
 20
-238.75
 40
3.2
100
AcDbArc
 50
189.3093409216
 51
200.3391799669
  0
CIRCLE
  5
4E3
100
AcDbEntity
  8
SMUSSO
100
AcDbCircle
 62
7
  6
CONTINUOUS
 10
-42.775
 20
-238.75
 40
2.8726497308
  0
CIRCLE
  5
4E4
100
AcDbEntity
  8
0
100
AcDbCircle
 62
7
  6
CONTINUOUS
 10
-42.775
 20
-238.75
 40
1.75
  0
ARC
  5
4E5
100
AcDbEntity
  8
0
100
AcDbCircle
 62
7
  6
CONTINUOUS
 10
-42.775
 20
-238.75
 40
1.5
100
AcDbArc
 50
255.0
 51
195.0
  0
CIRCLE
  5
4E6
100
AcDbEntity
  8
0
100
AcDbCircle
 62
7
  6
CONTINUOUS
 10
-42.775
 20
-238.75
 40
1.25
  0
ARC
  5
4E7
100
AcDbEntity
  8
0
100
AcDbCircle
 62
7
  6
CONTINUOUS
 10
-39.425
 20
-247.1
 40
0.5
100
AcDbArc
 50
270.0
 51
360.0
  0
ARC
  5
4E8
100
AcDbEntity
  8
0
100
AcDbCircle
 62
7
  6
CONTINUOUS
 10
-20.0001422616
 20
-249.1
 40
0.5
100
AcDbArc
 50
190.0
 51
270.0
  0
ARC
  5
4E9
100
AcDbEntity
  8
0
100
AcDbCircle
 62
7
  6
CONTINUOUS
 10
-21.5445498156
 20
-246.1
 40
0.5
100
AcDbArc
 50
10.0
 51
90.0
  0
ARC
  5
4EA
100
AcDbEntity
  8
0
100
AcDbCircle
 62
7
  6
CONTINUOUS
 10
-33.6534271247
 20
-231.9
 40
2.0
100
AcDbArc
 50
270.0
 51
315.0
  0
ARC
  5
4EB
100
AcDbEntity
  8
0
100
AcDbCircle
 62
7
  6
CONTINUOUS
 10
-23.6965728753
 20
-227.6
 40
2.0
100
AcDbArc
 50
90.0
 51
135.0
  0
ARC
  5
4EC
100
AcDbEntity
  8
0
100
AcDbCircle
 62
7
  6
CONTINUOUS
 10
-20.275
 20
-228.2
 40
0.5
100
AcDbArc
 50
90.0
 51
180.0
  0
ARC
  5
4ED
100
AcDbEntity
  8
0
100
AcDbCircle
 62
7
  6
CONTINUOUS
 10
-20.275
 20
-232.7
 40
0.5
100
AcDbArc
 50
180.0
 51
270.0
  0
ARC
  5
4EE
100
AcDbEntity
  8
0
100
AcDbCircle
 62
7
  6
CONTINUOUS
 10
-28.6965728753
 20
231.7
 40
2.0
100
AcDbArc
 50
90.0
 51
135.0
  0
ARC
  5
4EF
100
AcDbEntity
  8
0
100
AcDbCircle
 62
7
  6
CONTINUOUS
 10
-33.3534271247
 20
232.7
 40
2.0
100
AcDbArc
 50
270.0
 51
315.0
  0
ARC
  5
4F0
100
AcDbEntity
  8
0
100
AcDbCircle
 62
7
  6
CONTINUOUS
 10
-66.425
 20
247.55
 40
1.05
100
AcDbArc
 50
90.0
 51
180.0
  0
ARC
  5
4F1
100
AcDbEntity
  8
0
100
AcDbCircle
 62
7
  6
CONTINUOUS
 10
-20.275
 20
238.3
 40
0.5
100
AcDbArc
 50
180.0
 51
270.0
  0
ARC
  5
4F2
100
AcDbEntity
  8
0
100
AcDbCircle
 62
7
  6
CONTINUOUS
 10
-20.275
 20
242.8
 40
0.5
100
AcDbArc
 50
90.0
 51
180.0
  0
ARC
  5
4F3
100
AcDbEntity
  8
0
100
AcDbCircle
 62
7
  6
CONTINUOUS
 10
-20.9001422616
 20
249.1
 40
0.5
100
AcDbArc
 50
90.0
 51
170.0
  0
ARC
  5
4F4
100
AcDbEntity
  8
0
100
AcDbCircle
 62
7
  6
CONTINUOUS
 10
-39.1498577384
 20
249.1
 40
0.5
100
AcDbArc
 50
10.0
 51
90.0
  0
ARC
  5
4F5
100
AcDbEntity
  8
0
100
AcDbCircle
 62
7
  6
CONTINUOUS
 10
-46.252796223
 20
249.1
 40
0.5
100
AcDbArc
 50
90.0
 51
170.0
  0
ARC
  5
4F6
100
AcDbEntity
  8
0
100
AcDbCircle
 62
7
  6
CONTINUOUS
 10
-37.6054501844
 20
246.1
 40
0.5
100
AcDbArc
 50
190.0
 51
270.0
  0
ARC
  5
4F7
100
AcDbEntity
  8
0
100
AcDbCircle
 62
7
  6
CONTINUOUS
 10
-22.4445498156
 20
246.1
 40
0.5
100
AcDbArc
 50
270.0
 51
350.0
  0
ARC
  5
4F8
100
AcDbEntity
  8
ASSI
100
AcDbCircle
 62
7
  6
CONTINUOUS
 10
-30.5272213998
 20
92.65
 40
0.15
100
AcDbArc
 50
150.0
 51
330.0
  0
ARC
  5
4F9
100
AcDbEntity
  8
ASSI
100
AcDbCircle
 62
7
  6
CONTINUOUS
 10
-27.525
 20
97.85
 40
0.15
100
AcDbArc
 50
30.0
 51
150.0
  0
ARC
  5
4FA
100
AcDbEntity
  8
ASSI
100
AcDbCircle
 62
7
  6
CONTINUOUS
 10
-24.5227786002
 20
92.65
 40
0.15
100
AcDbArc
 50
210.0
 51
30.0
  0
ARC
  5
4FB
100
AcDbEntity
  8
ASSI
100
AcDbCircle
 62
7
  6
CONTINUOUS
 10
-27.525
 20
92.85
 40
0.15
100
AcDbArc
 50
0.0
 51
180.0
  0
ARC
  5
4FC
100
AcDbEntity
  8
ASSI
100
AcDbCircle
 62
7
  6
CONTINUOUS
 10
-27.525
 20
80.15
 40
0.15
100
AcDbArc
 50
180.0
 51
360.0
  0
ARC
  5
4FD
100
AcDbEntity
  8
ASSI
100
AcDbCircle
 62
7
  6
CONTINUOUS
 10
-17.925
 20
80.15
 40
0.15
100
AcDbArc
 50
257.1604115931
 51
77.160411593
  0
ARC
  5
4FE
100
AcDbEntity
  8
ASSI
100
AcDbCircle
 62
7
  6
CONTINUOUS
 10
-20.375
 20
89.85
 40
0.15
100
AcDbArc
 50
0.0
 51
180.0
  0
ARC
  5
4FF
100
AcDbEntity
  8
0
100
AcDbCircle
 62
7
  6
CONTINUOUS
 10
-66.425
 20
247.55
 40
0.05
100
AcDbArc
 50
90.0
 51
180.0
  0
ARC
  5
500
100
AcDbEntity
  8
ASSI
100
AcDbCircle
 62
7
  6
CONTINUOUS
 10
-17.525
 20
-170.0
 40
12.65
100
AcDbArc
 50
93.1721377345
 51
266.8278622655
  0
ARC
  5
501
100
AcDbEntity
  8
ASSI
100
AcDbCircle
 62
7
  6
CONTINUOUS
 10
-17.525
 20
-170.0
 40
12.65
100
AcDbArc
 50
273.1721377345
 51
86.8278622655
  0
ARC
  5
502
100
AcDbEntity
  8
ASSI
100
AcDbCircle
 62
7
  6
CONTINUOUS
 10
-17.525
 20
-170.0
 40
12.15
100
AcDbArc
 50
93.3028202963
 51
266.6971797037
  0
ARC
  5
503
100
AcDbEntity
  8
ASSI
100
AcDbCircle
 62
7
  6
CONTINUOUS
 10
-17.525
 20
-170.0
 40
12.15
100
AcDbArc
 50
273.3028202963
 51
86.6971797037
  0
ARC
  5
504
100
AcDbEntity
  8
0
100
AcDbCircle
 62
7
  6
CONTINUOUS
 10
-17.525
 20
-230.45
 40
2.0
100
AcDbArc
 50
255.0
 51
195.0
  0
ARC
  5
505
100
AcDbEntity
  8
0
100
AcDbCircle
 62
7
  6
CONTINUOUS
 10
-1.3965728753
 20
-231.9
 40
2.0
100
AcDbArc
 50
225.0
 51
270.0
  0
ARC
  5
506
100
AcDbEntity
  8
0
100
AcDbCircle
 62
7
  6
CONTINUOUS
 10
-11.3534271247
 20
-227.6
 40
2.0
100
AcDbArc
 50
45.0
 51
90.0
  0
CIRCLE
  5
507
100
AcDbEntity
  8
SMUSSO
100
AcDbCircle
 62
7
  6
CONTINUOUS
 10
-17.525
 20
-230.45
 40
1.85
  0
CIRCLE
  5
508
100
AcDbEntity
  8
SMUSSO
100
AcDbCircle
 62
7
  6
CONTINUOUS
 10
-17.525
 20
-230.45
 40
1.65
  0
ARC
  5
509
100
AcDbEntity
  8
0
100
AcDbCircle
 62
7
  6
CONTINUOUS
 10
31.375
 20
-247.55
 40
1.05
100
AcDbArc
 50
270.0
 51
360.0
  0
CIRCLE
  5
50A
100
AcDbEntity
  8
0
100
AcDbCircle
 62
7
  6
CONTINUOUS
 10
-17.525
 20
-170.0
 40
0.75
  0
ARC
  5
50B
100
AcDbEntity
  8
0
100
AcDbCircle
 62
7
  6
CONTINUOUS
 10
-14.775
 20
-228.2
 40
0.5
100
AcDbArc
 50
0.0
 51
90.0
  0
ARC
  5
50C
100
AcDbEntity
  8
0
100
AcDbCircle
 62
7
  6
CONTINUOUS
 10
-14.775
 20
-232.7
 40
0.5
100
AcDbArc
 50
270.0
 51
360.0
  0
ARC
  5
50D
100
AcDbEntity
  8
0
100
AcDbCircle
 62
7
  6
CONTINUOUS
 10
-15.0498577384
 20
-249.1
 40
0.5
100
AcDbArc
 50
270.0
 51
350.0
  0
ARC
  5
50E
100
AcDbEntity
  8
0
100
AcDbCircle
 62
7
  6
CONTINUOUS
 10
4.375
 20
-247.1
 40
0.5
100
AcDbArc
 50
180.0
 51
270.0
  0
ARC
  5
50F
100
AcDbEntity
  8
0
100
AcDbCircle
 62
7
  6
CONTINUOUS
 10
10.8945618789
 20
-249.1
 40
0.5
100
AcDbArc
 50
195.0
 51
270.0
  0
ARC
  5
510
100
AcDbEntity
  8
0
100
AcDbCircle
 62
7
  6
CONTINUOUS
 10
18.0554381211
 20
-249.1
 40
0.5
100
AcDbArc
 50
270.0
 51
345.0
  0
ARC
  5
511
100
AcDbEntity
  8
0
100
AcDbCircle
 62
7
  6
CONTINUOUS
 10
-13.5054501844
 20
-246.1
 40
0.5
100
AcDbArc
 50
90.0
 51
170.0
  0
ARC
  5
512
100
AcDbEntity
  8
0
100
AcDbCircle
 62
7
  6
CONTINUOUS
 10
31.375
 20
-247.55
 40
0.05
100
AcDbArc
 50
270.0
 51
360.0
  0
ARC
  5
513
100
AcDbEntity
  8
ASSI
100
AcDbCircle
 62
7
  6
CONTINUOUS
 10
-17.525
 20
0.0
 40
12.65
100
AcDbArc
 50
93.1721377345
 51
266.8278622655
  0
ARC
  5
514
100
AcDbEntity
  8
ASSI
100
AcDbCircle
 62
7
  6
CONTINUOUS
 10
-17.525
 20
0.0
 40
12.65
100
AcDbArc
 50
273.1721377345
 51
86.8278622655
  0
ARC
  5
515
100
AcDbEntity
  8
ASSI
100
AcDbCircle
 62
7
  6
CONTINUOUS
 10
-17.525
 20
0.0
 40
12.15
100
AcDbArc
 50
93.3028202963
 51
266.6971797037
  0
ARC
  5
516
100
AcDbEntity
  8
ASSI
100
AcDbCircle
 62
7
  6
CONTINUOUS
 10
-17.525
 20
0.0
 40
12.15
100
AcDbArc
 50
273.3028202963
 51
86.6971797037
  0
ARC
  5
517
100
AcDbEntity
  8
ASSI
100
AcDbCircle
 62
7
  6
CONTINUOUS
 10
-17.225
 20
83.2212375356
 40
3.3
100
AcDbArc
 50
180.0
 51
257.1604115931
  0
ARC
  5
518
100
AcDbEntity
  8
ASSI
100
AcDbCircle
 62
7
  6
CONTINUOUS
 10
-16.825
 20
83.2212375356
 40
3.3
100
AcDbArc
 50
282.8395884069
 51
360.0
  0
ARC
  5
519
100
AcDbEntity
  8
ASSI
100
AcDbCircle
 62
7
  6
CONTINUOUS
 10
-17.225
 20
83.2212375356
 40
3.0
100
AcDbArc
 50
180.0
 51
257.1604115931
  0
ARC
  5
51A
100
AcDbEntity
  8
ASSI
100
AcDbCircle
 62
7
  6
CONTINUOUS
 10
-16.825
 20
83.2212375356
 40
3.0
100
AcDbArc
 50
282.8395884069
 51
360.0
  0
ARC
  5
51B
100
AcDbEntity
  8
ASSI
100
AcDbCircle
 62
7
  6
CONTINUOUS
 10
-7.2376223327
 20
87.2
 40
2.8
100
AcDbArc
 50
14.7541949732
 51
90.0
  0
ARC
  5
51C
100
AcDbEntity
  8
ASSI
100
AcDbCircle
 62
7
  6
CONTINUOUS
 10
-7.2376223327
 20
87.25
 40
2.8
100
AcDbArc
 50
270.0
 51
345.2458050268
  0
ARC
  5
51D
100
AcDbEntity
  8
ASSI
100
AcDbCircle
 62
7
  6
CONTINUOUS
 10
-7.2376223327
 20
87.2
 40
2.5
100
AcDbArc
 50
14.7541949732
 51
90.0
  0
ARC
  5
51E
100
AcDbEntity
  8
ASSI
100
AcDbCircle
 62
7
  6
CONTINUOUS
 10
-7.2376223327
 20
87.25
 40
2.5
100
AcDbArc
 50
270.0
 51
345.2458050268
  0
ARC
  5
51F
100
AcDbEntity
  8
ASSI
100
AcDbCircle
 62
7
  6
CONTINUOUS
 10
-13.675
 20
89.85
 40
0.15
100
AcDbArc
 50
0.0
 51
180.0
  0
ARC
  5
520
100
AcDbEntity
  8
ASSI
100
AcDbCircle
 62
7
  6
CONTINUOUS
 10
-16.125
 20
80.15
 40
0.15
100
AcDbArc
 50
102.839588407
 51
282.8395884069
  0
ARC
  5
521
100
AcDbEntity
  8
ASSI
100
AcDbCircle
 62
7
  6
CONTINUOUS
 10
-11.375
 20
89.85
 40
0.15
100
AcDbArc
 50
0.0
 51
180.0
  0
ARC
  5
522
100
AcDbEntity
  8
ASSI
100
AcDbCircle
 62
7
  6
CONTINUOUS
 10
-11.375
 20
80.15
 40
0.15
100
AcDbArc
 50
180.0
 51
360.0
  0
ARC
  5
523
100
AcDbEntity
  8
ASSI
100
AcDbCircle
 62
7
  6
CONTINUOUS
 10
-10.075
 20
89.85
 40
0.15
100
AcDbArc
 50
90.0
 51
270.0
  0
ARC
  5
524
100
AcDbEntity
  8
ASSI
100
AcDbCircle
 62
7
  6
CONTINUOUS
 10
-4.675
 20
87.8748827898
 40
0.15
100
AcDbArc
 50
194.7541949732
 51
14.7541949732
  0
ARC
  5
525
100
AcDbEntity
  8
ASSI
100
AcDbCircle
 62
7
  6
CONTINUOUS
 10
-4.675
 20
86.5751172102
 40
0.15
100
AcDbArc
 50
345.2458050268
 51
165.2458050268
  0
ARC
  5
526
100
AcDbEntity
  8
ASSI
100
AcDbCircle
 62
7
  6
CONTINUOUS
 10
-10.075
 20
84.6
 40
0.15
100
AcDbArc
 50
90.0
 51
270.0
  0
ARC
  5
527
100
AcDbEntity
  8
ASSI
100
AcDbCircle
 62
7
  6
CONTINUOUS
 10
-17.525
 20
170.0
 40
12.65
100
AcDbArc
 50
93.1721377345
 51
266.8278622655
  0
ARC
  5
528
100
AcDbEntity
  8
ASSI
100
AcDbCircle
 62
7
  6
CONTINUOUS
 10
-17.525
 20
170.0
 40
12.65
100
AcDbArc
 50
273.1721377345
 51
86.8278622655
  0
ARC
  5
529
100
AcDbEntity
  8
ASSI
100
AcDbCircle
 62
7
  6
CONTINUOUS
 10
-17.525
 20
170.0
 40
12.15
100
AcDbArc
 50
93.3028202963
 51
266.6971797037
  0
ARC
  5
52A
100
AcDbEntity
  8
ASSI
100
AcDbCircle
 62
7
  6
CONTINUOUS
 10
-17.525
 20
170.0
 40
12.15
100
AcDbArc
 50
273.3028202963
 51
86.6971797037
  0
ARC
  5
52B
100
AcDbEntity
  8
0
100
AcDbCircle
 62
7
  6
CONTINUOUS
 10
-17.525
 20
240.55
 40
2.0
100
AcDbArc
 50
255.0
 51
195.0
  0
ARC
  5
52C
100
AcDbEntity
  8
0
100
AcDbCircle
 62
7
  6
CONTINUOUS
 10
-6.3534271247
 20
231.7
 40
2.0
100
AcDbArc
 50
45.0
 51
90.0
  0
ARC
  5
52D
100
AcDbEntity
  8
0
100
AcDbCircle
 62
7
  6
CONTINUOUS
 10
-1.6965728753
 20
232.7
 40
2.0
100
AcDbArc
 50
225.0
 51
270.0
  0
CIRCLE
  5
52E
100
AcDbEntity
  8
SMUSSO
100
AcDbCircle
 62
7
  6
CONTINUOUS
 10
-17.525
 20
240.55
 40
1.85
  0
CIRCLE
  5
52F
100
AcDbEntity
  8
SMUSSO
100
AcDbCircle
 62
7
  6
CONTINUOUS
 10
-17.525
 20
240.55
 40
1.65
  0
ARC
  5
530
100
AcDbEntity
  8
RACCORDO
100
AcDbCircle
 62
7
  6
CONTINUOUS
 10
4.7958995136
 20
231.15
 40
1.0
100
AcDbArc
 50
51.3478573985
 51
90.0
  0
ARC
  5
531
100
AcDbEntity
  8
RACCORDO
100
AcDbCircle
 62
7
  6
CONTINUOUS
 10
4.7958995136
 20
239.35
 40
1.0
100
AcDbArc
 50
270.0
 51
308.6521426015
  0
ARC
  5
532
100
AcDbEntity
  8
RACCORDO
100
AcDbCircle
 62
7
  6
CONTINUOUS
 10
3.1873794782
 20
233.15
 40
1.0
100
AcDbArc
 50
204.8345874897
 51
270.0
  0
ARC
  5
533
100
AcDbEntity
  8
RACCORDO
100
AcDbCircle
 62
7
  6
CONTINUOUS
 10
3.1873794782
 20
237.35
 40
1.0
100
AcDbArc
 50
90.0
 51
155.1654125103
  0
CIRCLE
  5
534
100
AcDbEntity
  8
0
100
AcDbCircle
 62
7
  6
CONTINUOUS
 10
-17.525
 20
170.0
 40
0.75
  0
CIRCLE
  5
535
100
AcDbEntity
  8
ASSI
100
AcDbCircle
 62
7
  6
CONTINUOUS
 10
3.425
 20
236.9
 40
0.6
  0
CIRCLE
  5
536
100
AcDbEntity
  8
ASSI
100
AcDbCircle
 62
7
  6
CONTINUOUS
 10
3.425
 20
233.6
 40
0.6
  0
ARC
  5
537
100
AcDbEntity
  8
0
100
AcDbCircle
 62
7
  6
CONTINUOUS
 10
-14.775
 20
238.3
 40
0.5
100
AcDbArc
 50
270.0
 51
360.0
  0
ARC
  5
538
100
AcDbEntity
  8
0
100
AcDbCircle
 62
7
  6
CONTINUOUS
 10
-14.775
 20
242.8
 40
0.5
100
AcDbArc
 50
0.0
 51
90.0
  0
ARC
  5
539
100
AcDbEntity
  8
0
100
AcDbCircle
 62
7
  6
CONTINUOUS
 10
4.0998577384
 20
249.1
 40
0.5
100
AcDbArc
 50
90.0
 51
170.0
  0
ARC
  5
53A
100
AcDbEntity
  8
0
100
AcDbCircle
 62
7
  6
CONTINUOUS
 10
-14.1498577384
 20
249.1
 40
0.5
100
AcDbArc
 50
10.0
 51
90.0
  0
ARC
  5
53B
100
AcDbEntity
  8
0
100
AcDbCircle
 62
7
  6
CONTINUOUS
 10
-12.6054501844
 20
246.1
 40
0.5
100
AcDbArc
 50
190.0
 51
270.0
  0
ARC
  5
53C
100
AcDbEntity
  8
0
100
AcDbCircle
 62
7
  6
CONTINUOUS
 10
2.5554501844
 20
246.1
 40
0.5
100
AcDbArc
 50
270.0
 51
350.0
  0
ARC
  5
53D
100
AcDbEntity
  8
RACCORDO
100
AcDbCircle
 62
7
  6
CONTINUOUS
 10
4.369780186
 20
235.8
 40
0.2
100
AcDbArc
 50
270.0
 51
350.6906590784
  0
ARC
  5
53E
100
AcDbEntity
  8
RACCORDO
100
AcDbCircle
 62
7
  6
CONTINUOUS
 10
4.369780186
 20
234.7
 40
0.2
100
AcDbArc
 50
9.3093409216
 51
90.0
  0
ARC
  5
53F
100
AcDbEntity
  8
RACCORDO
100
AcDbCircle
 62
7
  6
CONTINUOUS
 10
1.9511364755
 20
234.7
 40
0.2
100
AcDbArc
 50
90.0
 51
185.4413964306
  0
ARC
  5
540
100
AcDbEntity
  8
RACCORDO
100
AcDbCircle
 62
7
  6
CONTINUOUS
 10
1.9511364755
 20
235.8
 40
0.2
100
AcDbArc
 50
174.5586035694
 51
270.0
  0
ARC
  5
541
100
AcDbEntity
  8
RACCORDO
100
AcDbCircle
 62
7
  6
CONTINUOUS
 10
7.725
 20
235.25
 40
6.0
100
AcDbArc
 50
185.4413964306
 51
204.8345874897
  0
ARC
  5
542
100
AcDbEntity
  8
RACCORDO
100
AcDbCircle
 62
7
  6
CONTINUOUS
 10
7.725
 20
235.25
 40
6.0
100
AcDbArc
 50
155.1654125103
 51
174.5586035694
  0
ARC
  5
543
100
AcDbEntity
  8
RACCORDO
100
AcDbCircle
 62
7
  6
CONTINUOUS
 10
8.075
 20
235.25
 40
4.25
100
AcDbArc
 50
231.3478573985
 51
128.6521426015
  0
ARC
  5
544
100
AcDbEntity
  8
SMUSSO
100
AcDbCircle
 62
7
  6
CONTINUOUS
 10
7.725
 20
235.25
 40
3.45
100
AcDbArc
 50
209.591845794
 51
240.408154206
  0
ARC
  5
545
100
AcDbEntity
  8
SMUSSO
100
AcDbCircle
 62
7
  6
CONTINUOUS
 10
7.725
 20
235.25
 40
3.45
100
AcDbArc
 50
299.591845794
 51
330.408154206
  0
ARC
  5
546
100
AcDbEntity
  8
SMUSSO
100
AcDbCircle
 62
7
  6
CONTINUOUS
 10
7.725
 20
235.25
 40
3.45
100
AcDbArc
 50
119.591845794
 51
150.408154206
  0
ARC
  5
547
100
AcDbEntity
  8
SMUSSO
100
AcDbCircle
 62
7
  6
CONTINUOUS
 10
7.725
 20
235.25
 40
3.45
100
AcDbArc
 50
29.591845794
 51
60.408154206
  0
ARC
  5
548
100
AcDbEntity
  8
RACCORDO
100
AcDbCircle
 62
7
  6
CONTINUOUS
 10
7.725
 20
235.25
 40
3.2
100
AcDbArc
 50
159.6606480692
 51
170.6906590784
  0
ARC
  5
549
100
AcDbEntity
  8
RACCORDO
100
AcDbCircle
 62
7
  6
CONTINUOUS
 10
7.725
 20
235.25
 40
3.2
100
AcDbArc
 50
69.8205807249
 51
110.249745345
  0
ARC
  5
54A
100
AcDbEntity
  8
RACCORDO
100
AcDbCircle
 62
7
  6
CONTINUOUS
 10
7.725
 20
235.25
 40
3.2
100
AcDbArc
 50
339.7629460951
 51
20.2363047083
  0
ARC
  5
54B
100
AcDbEntity
  8
RACCORDO
100
AcDbCircle
 62
7
  6
CONTINUOUS
 10
7.725
 20
235.25
 40
3.2
100
AcDbArc
 50
249.7511491045
 51
290.1798380683
  0
ARC
  5
54C
100
AcDbEntity
  8
RACCORDO
100
AcDbCircle
 62
7
  6
CONTINUOUS
 10
7.725
 20
235.25
 40
3.2
100
AcDbArc
 50
189.3093409216
 51
200.3391799669
  0
CIRCLE
  5
54D
100
AcDbEntity
  8
SMUSSO
100
AcDbCircle
 62
7
  6
CONTINUOUS
 10
7.725
 20
235.25
 40
2.8726497308
  0
CIRCLE
  5
54E
100
AcDbEntity
  8
0
100
AcDbCircle
 62
7
  6
CONTINUOUS
 10
7.725
 20
235.25
 40
1.75
  0
ARC
  5
54F
100
AcDbEntity
  8
0
100
AcDbCircle
 62
7
  6
CONTINUOUS
 10
7.725
 20
235.25
 40
1.5
100
AcDbArc
 50
255.0
 51
195.0
  0
CIRCLE
  5
550
100
AcDbEntity
  8
0
100
AcDbCircle
 62
7
  6
CONTINUOUS
 10
7.725
 20
235.25
 40
1.25
  0
ARC
  5
551
100
AcDbEntity
  8
0
100
AcDbCircle
 62
7
  6
CONTINUOUS
 10
31.375
 20
247.55
 40
1.05
100
AcDbArc
 50
0.0
 51
90.0
  0
ARC
  5
552
100
AcDbEntity
  8
0
100
AcDbCircle
 62
7
  6
CONTINUOUS
 10
11.202796223
 20
249.1
 40
0.5
100
AcDbArc
 50
10.0
 51
90.0
  0
ARC
  5
553
100
AcDbEntity
  8
0
100
AcDbCircle
 62
7
  6
CONTINUOUS
 10
31.375
 20
247.55
 40
0.05
100
AcDbArc
 50
0.0
 51
90.0
  0
CIRCLE
  5
554
100
AcDbEntity
  8
PUNTI_SALDATURA
100
AcDbCircle
 62
7
  6
HIDDEN
 10
-138.642735672
 20
-232.6
 40
2.5
  0
CIRCLE
  5
555
100
AcDbEntity
  8
ASSI
100
AcDbCircle
 62
7
  6
CONTINUOUS
 10
-134.142735672
 20
-243.5
 40
1.575
  0
ARC
  5
556
100
AcDbEntity
  8
0
100
AcDbCircle
 62
7
  6
CONTINUOUS
 10
-159.742735672
 20
-225.6
 40
1.0
100
AcDbArc
 50
180.0
 51
270.0
  0
ARC
  5
557
100
AcDbEntity
  8
0
100
AcDbCircle
 62
7
  6
CONTINUOUS
 10
-159.742735672
 20
-217.6
 40
1.0
100
AcDbArc
 50
90.0
 51
180.0
  0
ARC
  5
558
100
AcDbEntity
  8
0
100
AcDbCircle
 62
7
  6
CONTINUOUS
 10
-160.942735672
 20
-224.1
 40
1.0
100
AcDbArc
 50
180.0
 51
270.0
  0
ARC
  5
559
100
AcDbEntity
  8
0
100
AcDbCircle
 62
7
  6
CONTINUOUS
 10
-160.942735672
 20
-219.1
 40
1.0
100
AcDbArc
 50
90.0
 51
180.0
  0
CIRCLE
  5
55A
100
AcDbEntity
  8
PUNTI_SALDATURA
100
AcDbCircle
 62
7
  6
HIDDEN
 10
-138.642735672
 20
232.6
 40
2.5
  0
CIRCLE
  5
55B
100
AcDbEntity
  8
ASSI
100
AcDbCircle
 62
7
  6
CONTINUOUS
 10
-134.142735672
 20
243.5
 40
1.575
  0
ARC
  5
55C
100
AcDbEntity
  8
0
100
AcDbCircle
 62
7
  6
CONTINUOUS
 10
-159.742735672
 20
217.6
 40
1.0
100
AcDbArc
 50
180.0
 51
270.0
  0
ARC
  5
55D
100
AcDbEntity
  8
0
100
AcDbCircle
 62
7
  6
CONTINUOUS
 10
-159.742735672
 20
225.6
 40
1.0
100
AcDbArc
 50
90.0
 51
180.0
  0
ARC
  5
55E
100
AcDbEntity
  8
0
100
AcDbCircle
 62
7
  6
CONTINUOUS
 10
-160.942735672
 20
219.1
 40
1.0
100
AcDbArc
 50
180.0
 51
270.0
  0
ARC
  5
55F
100
AcDbEntity
  8
0
100
AcDbCircle
 62
7
  6
CONTINUOUS
 10
-160.942735672
 20
224.1
 40
1.0
100
AcDbArc
 50
90.0
 51
180.0
  0
ARC
  5
560
100
AcDbEntity
  8
ASSI
100
AcDbCircle
 62
7
  6
CONTINUOUS
 10
-124.142735672
 20
-170.0
 40
12.65
100
AcDbArc
 50
183.1721377345
 51
356.8278622655
  0
ARC
  5
561
100
AcDbEntity
  8
ASSI
100
AcDbCircle
 62
7
  6
CONTINUOUS
 10
-124.142735672
 20
-170.0
 40
12.65
100
AcDbArc
 50
3.1721377345
 51
176.8278622655
  0
ARC
  5
562
100
AcDbEntity
  8
ASSI
100
AcDbCircle
 62
7
  6
CONTINUOUS
 10
-124.142735672
 20
-170.0
 40
12.15
100
AcDbArc
 50
183.3028202963
 51
356.6971797037
  0
ARC
  5
563
100
AcDbEntity
  8
ASSI
100
AcDbCircle
 62
7
  6
CONTINUOUS
 10
-124.142735672
 20
-170.0
 40
12.15
100
AcDbArc
 50
3.3028202963
 51
176.6971797037
  0
CIRCLE
  5
564
100
AcDbEntity
  8
PUNTI_SALDATURA
100
AcDbCircle
 62
7
  6
HIDDEN
 10
-112.642735672
 20
-220.6
 40
2.5
  0
CIRCLE
  5
565
100
AcDbEntity
  8
ASSI
100
AcDbCircle
 62
7
  6
CONTINUOUS
 10
-114.142735672
 20
-243.5
 40
1.575
  0
CIRCLE
  5
566
100
AcDbEntity
  8
ASSI
100
AcDbCircle
 62
7
  6
CONTINUOUS
 10
-124.142735672
 20
-243.5
 40
1.5
  0
CIRCLE
  5
567
100
AcDbEntity
  8
ASSI
100
AcDbCircle
 62
7
  6
CONTINUOUS
 10
-124.142735672
 20
-243.5
 40
1.25
  0
ARC
  5
568
100
AcDbEntity
  8
0
100
AcDbCircle
 62
7
  6
CONTINUOUS
 10
-105.192735672
 20
-247.55
 40
1.05
100
AcDbArc
 50
270.0
 51
360.0
  0
ARC
  5
569
100
AcDbEntity
  8
0
100
AcDbCircle
 62
7
  6
CONTINUOUS
 10
-132.542735672
 20
-219.9
 40
0.8
100
AcDbArc
 50
0.0
 51
90.0
  0
ARC
  5
56A
100
AcDbEntity
  8
0
100
AcDbCircle
 62
7
  6
CONTINUOUS
 10
-132.542735672
 20
-223.3
 40
0.8
100
AcDbArc
 50
270.0
 51
360.0
  0
ARC
  5
56B
100
AcDbEntity
  8
0
100
AcDbCircle
 62
7
  6
CONTINUOUS
 10
-132.942735672
 20
-223.3
 40
0.8
100
AcDbArc
 50
180.0
 51
270.0
  0
ARC
  5
56C
100
AcDbEntity
  8
0
100
AcDbCircle
 62
7
  6
CONTINUOUS
 10
-132.942735672
 20
-219.9
 40
0.8
100
AcDbArc
 50
90.0
 51
180.0
  0
ARC
  5
56D
100
AcDbEntity
  8
0
100
AcDbCircle
 62
7
  6
CONTINUOUS
 10
-105.192735672
 20
-247.55
 40
0.05
100
AcDbArc
 50
270.0
 51
359.9999999999
  0
ARC
  5
56E
100
AcDbEntity
  8
ASSI
100
AcDbCircle
 62
7
  6
CONTINUOUS
 10
-124.142735672
 20
170.0
 40
12.65
100
AcDbArc
 50
3.1721377345
 51
176.8278622655
  0
ARC
  5
56F
100
AcDbEntity
  8
ASSI
100
AcDbCircle
 62
7
  6
CONTINUOUS
 10
-124.142735672
 20
170.0
 40
12.65
100
AcDbArc
 50
183.1721377345
 51
356.8278622655
  0
ARC
  5
570
100
AcDbEntity
  8
ASSI
100
AcDbCircle
 62
7
  6
CONTINUOUS
 10
-124.142735672
 20
0.0
 40
12.65
100
AcDbArc
 50
3.1721377345
 51
176.8278622655
  0
ARC
  5
571
100
AcDbEntity
  8
ASSI
100
AcDbCircle
 62
7
  6
CONTINUOUS
 10
-124.142735672
 20
0.0
 40
12.65
100
AcDbArc
 50
183.1721377345
 51
356.8278622655
  0
ARC
  5
572
100
AcDbEntity
  8
ASSI
100
AcDbCircle
 62
7
  6
CONTINUOUS
 10
-124.142735672
 20
170.0
 40
12.15
100
AcDbArc
 50
3.3028202963
 51
176.6971797037
  0
ARC
  5
573
100
AcDbEntity
  8
ASSI
100
AcDbCircle
 62
7
  6
CONTINUOUS
 10
-124.142735672
 20
170.0
 40
12.15
100
AcDbArc
 50
183.3028202963
 51
356.6971797037
  0
ARC
  5
574
100
AcDbEntity
  8
ASSI
100
AcDbCircle
 62
7
  6
CONTINUOUS
 10
-124.142735672
 20
0.0
 40
12.15
100
AcDbArc
 50
3.3028202963
 51
176.6971797037
  0
ARC
  5
575
100
AcDbEntity
  8
ASSI
100
AcDbCircle
 62
7
  6
CONTINUOUS
 10
-124.142735672
 20
0.0
 40
12.15
100
AcDbArc
 50
183.3028202963
 51
356.6971797037
  0
CIRCLE
  5
576
100
AcDbEntity
  8
PUNTI_SALDATURA
100
AcDbCircle
 62
7
  6
HIDDEN
 10
-112.642735672
 20
220.6
 40
2.5
  0
CIRCLE
  5
577
100
AcDbEntity
  8
ASSI
100
AcDbCircle
 62
7
  6
CONTINUOUS
 10
-114.142735672
 20
243.5
 40
1.575
  0
CIRCLE
  5
578
100
AcDbEntity
  8
ASSI
100
AcDbCircle
 62
7
  6
CONTINUOUS
 10
-124.142735672
 20
243.5
 40
1.5
  0
CIRCLE
  5
579
100
AcDbEntity
  8
ASSI
100
AcDbCircle
 62
7
  6
CONTINUOUS
 10
-124.142735672
 20
243.5
 40
1.25
  0
ARC
  5
57A
100
AcDbEntity
  8
0
100
AcDbCircle
 62
7
  6
CONTINUOUS
 10
-105.192735672
 20
247.55
 40
1.05
100
AcDbArc
 50
0.0
 51
90.0
  0
ARC
  5
57B
100
AcDbEntity
  8
0
100
AcDbCircle
 62
7
  6
CONTINUOUS
 10
-132.542735672
 20
223.3
 40
0.8
100
AcDbArc
 50
0.0
 51
90.0
  0
ARC
  5
57C
100
AcDbEntity
  8
0
100
AcDbCircle
 62
7
  6
CONTINUOUS
 10
-132.542735672
 20
219.9
 40
0.8
100
AcDbArc
 50
270.0
 51
360.0
  0
ARC
  5
57D
100
AcDbEntity
  8
0
100
AcDbCircle
 62
7
  6
CONTINUOUS
 10
-132.942735672
 20
219.9
 40
0.8
100
AcDbArc
 50
180.0
 51
270.0
  0
ARC
  5
57E
100
AcDbEntity
  8
0
100
AcDbCircle
 62
7
  6
CONTINUOUS
 10
-132.942735672
 20
223.3
 40
0.8
100
AcDbArc
 50
90.0
 51
180.0
  0
ARC
  5
57F
100
AcDbEntity
  8
0
100
AcDbCircle
 62
7
  6
CONTINUOUS
 10
-105.192735672
 20
247.55
 40
0.05
100
AcDbArc
 50
0.0000000001
 51
90.0
  0
ENDSEC
  0
SECTION
  2
OBJECTS
  0
DICTIONARY
  5
C
100
AcDbDictionary
280
0
281
1
  3
ACAD_GROUP
350
D
  3
ACAD_MLINESTYLE
350
17
  3
ACAD_LAYOUT
350
1A
  3
ACAD_PLOTSETTINGS
350
19
  3
ACAD_PLOTSTYLENAME
350
E
  0
DICTIONARY
  5
D
102
{ACAD_REACTORS
330
C
102
}
100
AcDbDictionary
280
0
281
1
  0
ACDBDICTIONARYWDFLT
  5
E
102
{ACAD_REACTORS
330
C
102
}
100
AcDbDictionary
281
1
  3
Normal
350
F
100
AcDbDictionaryWithDefault
340
F
  0
DICTIONARY
  5
17
102
{ACAD_REACTORS
330
C
102
}
100
AcDbDictionary
280
0
281
1
  3
Standard
350
18
  0
DICTIONARY
  5
19
102
{ACAD_REACTORS
330
C
102
}
100
AcDbDictionary
281
1
  0
DICTIONARY
  5
1A
102
{ACAD_REACTORS
330
C
102
}
100
AcDbDictionary
281
1
  3
Model
350
580
  3
Layout1
350
581
  0
ACDBPLACEHOLDER
  5
F
102
{ACAD_REACTORS
330
E
102
}
  0
MLINESTYLE
  5
18
102
{ACAD_REACTORS
330
17
102
}
100
AcDbMlineStyle
  2
STANDARD
 70
0
  3

 62
256
 51
90.0
 52
90.0
 71
2
 49
0.5
 62
256
  6
BYLAYER
 49
-0.5
 62
256
  6
BYLAYER
  0
LAYOUT
  5
580
102
{ACAD_REACTORS
330
1A
102
}
100
AcDbPlotSettings
  1

  2
none_device
  4
ISO_A4_(297.00_x_210.00_MM)
  6

 40
0.0
 41
0.0
 42
0.0
 43
0.0
 44
297.0
 45
210.0
 46
0.0
 47
0.0
 48
0.0
 49
0.0
140
0.0
141
0.0
142
1.0
143
1.0
 70
1024
 72
1
 73
0
 74
0
  7

 75
0
147
1.0
148
0.0
149
0.0
100
AcDbLayout
  1
Model
 70
0
 71
0
 10
0.0
 20
0.0
 11
297.0
 21
210.0
 12
0.0
 22
0.0
 32
0.0
 14
0.0
 24
0.0
 34
0.0
 15
0.0
 25
0.0
 35
0.0
146
0.0
 13
0.0
 23
0.0
 33
0.0
 16
1.0
 26
0.0
 36
0.0
 17
0.0
 27
1.0
 37
0.0
 76
0
330
213
345
0
346
0
  0
LAYOUT
  5
581
102
{ACAD_REACTORS
330
1A
102
}
100
AcDbPlotSettings
  1

  2
none_device
  4
ISO_A4_(297.00_x_210.00_MM)
  6

 40
0.0
 41
0.0
 42
0.0
 43
0.0
 44
297.0
 45
210.0
 46
0.0
 47
0.0
 48
0.0
 49
0.0
140
0.0
141
0.0
142
1.0
143
1.0
 70
0
 72
1
 73
0
 74
0
  7

 75
0
147
1.0
148
0.0
149
0.0
100
AcDbLayout
  1
Layout1
 70
0
 71
1
 10
0.0
 20
0.0
 11
297.0
 21
210.0
 12
0.0
 22
0.0
 32
0.0
 14
0.0
 24
0.0
 34
0.0
 15
0.0
 25
0.0
 35
0.0
146
0.0
 13
0.0
 23
0.0
 33
0.0
 16
1.0
 26
0.0
 36
0.0
 17
0.0
 27
1.0
 37
0.0
 76
0
330
214
345
0
346
0
  0
ENDSEC
  0
EOF
