  0
SECTION
  2
HEADER
  9
$ACADVER
  1
AC1024
  9
$DWGCODEPAGE
  3
ANSI_1252
  9
$EXTMAX
 10
210.0
 20
297.0
 30
0.0
  9
$EXTMIN
 10
0.0
 20
0.0
 30
0.0
  9
$LIMMIN
 10
0.0
 20
0.0
  9
$LIMMAX
 10
210.0
 20
297.0
  9
$VIEWCTR
 10
105.0
 20
148.5
  9
$VIEWSIZE
 40
297.0
  9
$CLAYER
  8
0
  9
$LTSCALE
 40
19.36
  9
$CELTYPE
  6
BYLAYER
  9
$DIMSCALE
 40
1.0
  9
$DIMASZ
 40
3.0
  9
$DIMEXO
 40
0.5
  9
$DIMDLI
 40
13.376
  9
$DIMEXE
 40
1.5
  9
$DIMCEN
 40
3.168
  9
$DIMLFAC
 40
1.0
  9
$DIMBLK
  1
_FILLED
  9
$DIMALT
 70
0
  9
$DIMALTF
 40
0.0393700787
  9
$DIMTXT
 40
3.0
  9
$DIMTOL
 70
1
  9
$DIMLIM
 70
0
  9
$DIMTFAC
 40
1.0
  9
$DIMTP
 40
0.01
  9
$DIMTM
 40
0.01
  9
$DIMGAP
 40
0.625
  9
$DIMDSEP
 70
44
  9
$AUNITS
 70
0
  9
$PDMODE
 70
3
  9
$PDSIZE
 40
3.0
  9
$HANDSEED
  5
47B
  9
$TILEMODE
 70
1
  9
$MEASUREMENT
 70
1
  9
$INSUNITS
 70
4
  0
ENDSEC
  0
SECTION
  2
CLASSES
  0
CLASS
  1
ACDBDICTIONARYWDFLT
  2
AcDbDictionaryWithDefault
  3
AutoCAD 2000
 90
0
 91
1
280
0
281
0
  0
CLASS
  1
ACDBPLACEHOLDER
  2
AcDbPlaceHolder
  3
AutoCAD 2000
 90
0
 91
1
280
0
281
0
  0
CLASS
  1
LAYOUT
  2
AcDbLayout
  3
AutoCAD 2000
 90
0
 91
0
280
0
281
0
  0
ENDSEC
  0
SECTION
  2
TABLES
  0
TABLE
  2
VPORT
  5
8
100
AcDbSymbolTable
 70
2
  0
VPORT
  5
1F4
100
AcDbSymbolTableRecord
100
AcDbViewportTableRecord
  2
*ACTIVE
 70
0
 10
0.0
 20
0.0
 11
1.0
 21
1.0
 12
105.0
 22
148.5
 13
0.0
 23
0.0
 14
1.0
 24
1.0
 15
0.0
 25
0.0
 16
0.0
 26
0.0
 36
1.0
 17
0.0
 27
0.0
 37
0.0
 40
297.0
 41
0.7070707071
 42
50.0
 43
0.0
 44
0.0
 50
0.0
 51
0.0
 71
0
 72
100
 73
1
 74
1
 75
0
 76
0
 77
0
 78
0
  0
ENDTAB
  0
TABLE
  2
LTYPE
  5
5
100
AcDbSymbolTable
 70
6
  0
LTYPE
  5
14
100
AcDbSymbolTableRecord
100
AcDbLinetypeTableRecord
  2
BYBLOCK
 70
0
  3

 72
65
 73
0
 40
0.0
  0
LTYPE
  5
15
100
AcDbSymbolTableRecord
100
AcDbLinetypeTableRecord
  2
BYLAYER
 70
0
  3

 72
65
 73
0
 40
0.0
  0
LTYPE
  5
16
100
AcDbSymbolTableRecord
100
AcDbLinetypeTableRecord
  2
CONTINUOUS
 70
64
  3
Solid line
 72
65
 73
0
 40
0.0
  0
LTYPE
  5
1F5
100
AcDbSymbolTableRecord
100
AcDbLinetypeTableRecord
  2
CENTER
 70
64
  3
____ _ ____ _ ____ _ ____ _ ____ _ ____ _ ____
 72
65
 73
4
 40
0.6
 49
0.375
 74
0
 49
-0.075
 74
0
 49
0.075
 74
0
 49
-0.075
 74
0
  0
LTYPE
  5
1F6
100
AcDbSymbolTableRecord
100
AcDbLinetypeTableRecord
  2
HIDDEN
 70
64
  3
- - - - - - - - - - - - - - - - - - - -
 72
65
 73
2
 40
0.2
 49
0.1
 74
0
 49
-0.1
 74
0
  0
LTYPE
  5
1F7
100
AcDbSymbolTableRecord
100
AcDbLinetypeTableRecord
  2
PHANTOM
 70
64
  3
_____ _ _ _____ _ _ _____ _ _ _____
 72
65
 73
6
 40
0.8
 49
0.45
 74
0
 49
-0.05
 74
0
 49
0.1
 74
0
 49
-0.05
 74
0
 49
0.1
 74
0
 49
-0.05
 74
0
  0
LTYPE
  5
1F8
100
AcDbSymbolTableRecord
100
AcDbLinetypeTableRecord
  2
DOT
 70
64
  3
. . . . . . . . . . . . . . . . . . . .
 72
65
 73
2
 40
0.2
 49
0.1
 74
0
 49
-0.1
 74
0
  0
LTYPE
  5
1F9
100
AcDbSymbolTableRecord
100
AcDbLinetypeTableRecord
  2
DASHED
 70
64
  3
- - - - - - - - - - - - - - - - - - - -
 72
65
 73
2
 40
0.2
 49
0.1
 74
0
 49
-0.1
 74
0
  0
ENDTAB
  0
TABLE
  2
LAYER
  5
2
100
AcDbSymbolTable
 70
36
  0
LAYER
  5
10
100
AcDbSymbolTableRecord
100
AcDbLayerTableRecord
  2
0
 70
0
 62
7
  6
CONTINUOUS
370
-3
390
F
  0
LAYER
  5
1FA
100
AcDbSymbolTableRecord
100
AcDbLayerTableRecord
  2
DEFAULT_1
 70
0
 62
7
  6
CENTER
370
-3
390
F
  0
LAYER
  5
1FB
100
AcDbSymbolTableRecord
100
AcDbLayerTableRecord
  2
DEFAULT_2
 70
0
 62
7
  6
HIDDEN
370
-3
390
F
  0
LAYER
  5
1FC
100
AcDbSymbolTableRecord
100
AcDbLayerTableRecord
  2
DEFAULT_3
 70
0
 62
7
  6
PHANTOM
370
-3
390
F
  0
LAYER
  5
1FD
100
AcDbSymbolTableRecord
100
AcDbLayerTableRecord
  2
ASSI
 70
0
 62
7
  6
CONTINUOUS
370
-3
390
F
  0
LAYER
  5
1FE
100
AcDbSymbolTableRecord
100
AcDbLayerTableRecord
  2
COORDINATE
 70
0
 62
7
  6
CONTINUOUS
370
-3
390
F
  0
LAYER
  5
1FF
100
AcDbSymbolTableRecord
100
AcDbLayerTableRecord
  2
COPY_PUBLISH
 70
0
 62
7
  6
CONTINUOUS
370
-3
390
F
  0
LAYER
  5
200
100
AcDbSymbolTableRecord
100
AcDbLayerTableRecord
  2
COSMETIC
 70
0
 62
7
  6
CONTINUOUS
370
-3
390
F
  0
LAYER
  5
201
100
AcDbSymbolTableRecord
100
AcDbLayerTableRecord
  2
COSMETICI
 70
0
 62
7
  6
CONTINUOUS
370
-3
390
F
  0
LAYER
  5
202
100
AcDbSymbolTableRecord
100
AcDbLayerTableRecord
  2
CURVE
 70
0
 62
7
  6
CONTINUOUS
370
-3
390
F
  0
LAYER
  5
203
100
AcDbSymbolTableRecord
100
AcDbLayerTableRecord
  2
DRAFT
 70
0
 62
7
  6
CONTINUOUS
370
-3
390
F
  0
LAYER
  5
204
100
AcDbSymbolTableRecord
100
AcDbLayerTableRecord
  2
IMPORT_IGES
 70
0
 62
7
  6
CONTINUOUS
370
-3
390
F
  0
LAYER
  5
205
100
AcDbSymbolTableRecord
100
AcDbLayerTableRecord
  2
NOTE
 70
0
 62
7
  6
CONTINUOUS
370
-3
390
F
  0
LAYER
  5
206
100
AcDbSymbolTableRecord
100
AcDbLayerTableRecord
  2
PIANI
 70
0
 62
7
  6
CONTINUOUS
370
-3
390
F
  0
LAYER
  5
207
100
AcDbSymbolTableRecord
100
AcDbLayerTableRecord
  2
PUNTI
 70
0
 62
7
  6
CONTINUOUS
370
-3
390
F
  0
LAYER
  5
208
100
AcDbSymbolTableRecord
100
AcDbLayerTableRecord
  2
RACCORDO
 70
0
 62
7
  6
CONTINUOUS
370
-3
390
F
  0
LAYER
  5
209
100
AcDbSymbolTableRecord
100
AcDbLayerTableRecord
  2
SIMBOLI
 70
0
 62
7
  6
CONTINUOUS
370
-3
390
F
  0
LAYER
  5
20A
100
AcDbSymbolTableRecord
100
AcDbLayerTableRecord
  2
SMUSSO
 70
0
 62
7
  6
CONTINUOUS
370
-3
390
F
  0
LAYER
  5
20B
100
AcDbSymbolTableRecord
100
AcDbLayerTableRecord
  2
SNAPLINE
 70
0
 62
7
  6
CONTINUOUS
370
-3
390
F
  0
LAYER
  5
20C
100
AcDbSymbolTableRecord
100
AcDbLayerTableRecord
  2
SUPERFICI
 70
0
 62
7
  6
CONTINUOUS
370
-3
390
F
  0
LAYER
  5
20D
100
AcDbSymbolTableRecord
100
AcDbLayerTableRecord
  2
TRASH
 70
0
 62
7
  6
CONTINUOUS
370
-3
390
F
  0
ENDTAB
  0
TABLE
  2
STYLE
  5
3
100
AcDbSymbolTable
 70
1
  0
STYLE
  5
11
100
AcDbSymbolTableRecord
100
AcDbTextStyleTableRecord
  2
STANDARD
 70
0
 40
0.0
 41
0.8
 50
0.0
 71
0
 42
0.2
  3
txt
  4

  0
STYLE
  5
20E
100
AcDbSymbolTableRecord
100
AcDbTextStyleTableRecord
  2
TEXTSTYLE_1
 70
0
 40
0.0
 41
0.8
 50
0.0
 71
0
 42
0.2
  3
gdt
  4

  0
ENDTAB
  0
TABLE
  2
VIEW
  5
6
100
AcDbSymbolTable
 70
0
  0
ENDTAB
  0
TABLE
  2
UCS
  5
7
100
AcDbSymbolTable
 70
0
  0
ENDTAB
  0
TABLE
  2
APPID
  5
9
100
AcDbSymbolTable
 70
1
  0
APPID
  5
20F
100
AcDbSymbolTableRecord
100
AcDbRegAppTableRecord
  2
ACAD
 70
0
  0
ENDTAB
  0
TABLE
  2
BLOCK_RECORD
  5
1
100
AcDbSymbolTable
 70
0
  0
BLOCK_RECORD
  5
210
100
AcDbSymbolTableRecord
100
AcDbBlockTableRecord
  2
*Model_Space
  0
BLOCK_RECORD
  5
211
100
AcDbSymbolTableRecord
100
AcDbBlockTableRecord
  2
*Paper_Space
  0
BLOCK_RECORD
  5
212
100
AcDbSymbolTableRecord
100
AcDbBlockTableRecord
  2
_FILLED
  0
BLOCK_RECORD
  5
213
100
AcDbSymbolTableRecord
100
AcDbBlockTableRecord
  2
*D0
  0
BLOCK_RECORD
  5
214
100
AcDbSymbolTableRecord
100
AcDbBlockTableRecord
  2
*D1
  0
BLOCK_RECORD
  5
215
100
AcDbSymbolTableRecord
100
AcDbBlockTableRecord
  2
*D2
  0
BLOCK_RECORD
  5
216
100
AcDbSymbolTableRecord
100
AcDbBlockTableRecord
  2
*D3
  0
BLOCK_RECORD
  5
217
100
AcDbSymbolTableRecord
100
AcDbBlockTableRecord
  2
*D4
  0
BLOCK_RECORD
  5
218
100
AcDbSymbolTableRecord
100
AcDbBlockTableRecord
  2
*D5
  0
BLOCK_RECORD
  5
219
100
AcDbSymbolTableRecord
100
AcDbBlockTableRecord
  2
*D6
  0
ENDTAB
  0
TABLE
  2
DIMSTYLE
  5
A
100
AcDbSymbolTable
 70
1
100
AcDbDimStyleTable
 71
0
  0
DIMSTYLE
105
21A
100
AcDbSymbolTableRecord
100
AcDbDimStyleTableRecord
  2
STANDARD
 70
0
  3

  4

 40
1.0
 41
3.0
 42
0.5
 43
0.38
 44
1.5
 45
0.0
 46
0.0
 47
0.01
 48
0.01
140
3.0
141
0.09
142
0.0
143
25.4
144
1.0
145
0.0
146
1.0
147
0.625
 71
1.0
 72
0.0
 73
0
 74
0
 75
0
 76
0
 77
1
 78
8
 79
2
170
0
171
1
172
0
173
0
174
0
175
0
176
0
177
0
178
0
270
2
179
2
271
2
272
2
273
2
274
2
275
0
280
0
281
0
282
0
283
1
284
8
285
0
286
0
287
3
288
0
340
11
278
44
341
212
342
212
343
212
344
212
  0
DIMSTYLE
105
21B
100
AcDbSymbolTableRecord
100
AcDbDimStyleTableRecord
  2
DIMSTYLE_1
 70
0
  3

  4

 40
1.0
 41
3.0
 42
0.5
 43
0.38
 44
1.5
 45
0.0
 46
0.0
 47
0.0
 48
0.0
140
3.0
141
0.09
142
0.0
143
25.4
144
1.0
145
0.0
146
1.0
147
0.75
 71
0.0
 72
0.0
 73
0
 74
0
 75
0
 76
0
 77
1
 78
8
 79
2
170
0
171
1
172
0
173
0
174
0
175
0
176
0
177
0
178
0
270
2
179
2
271
2
272
2
273
2
274
2
275
0
280
0
281
0
282
0
283
1
284
8
285
0
286
0
287
3
288
0
340
11
278
44
341
212
342
212
343
212
344
212
  0
ENDTAB
  0
ENDSEC
  0
SECTION
  2
BLOCKS
  0
BLOCK
  5
20
100
AcDbEntity
  8
0
100
AcDbBlockBegin
  2
*Model_Space
 70
0
 10
0.0
 20
0.0
 30
0.0
  3
*Model_Space
  1

  0
ENDBLK
  5
21
100
AcDbEntity
  8
0
100
AcDbBlockEnd
  0
BLOCK
  5
1C
100
AcDbEntity
  8
0
100
AcDbBlockBegin
  2
*Paper_Space
 70
0
 10
0.0
 20
0.0
 30
0.0
  3
*Paper_Space
  1

  0
ENDBLK
  5
1D
100
AcDbEntity
  8
0
100
AcDbBlockEnd
  0
BLOCK
  5
21C
100
AcDbEntity
  8
0
100
AcDbBlockBegin
  2
_FILLED
 70
64
 10
0.0
 20
0.0
  3
_FILLED
  1

  0
SOLID
  5
21D
100
AcDbEntity
  8
0
  6
BYBLOCK
 62
0
100
AcDbTrace
 10
0.0
 20
0.0
 11
-1.0
 21
0.3166666667
 12
-1.0
 22
-0.3166666667
 13
-1.0
 23
-0.3166666667
  0
ENDBLK
  5
21E
100
AcDbEntity
  8
0
  6
BYBLOCK
 62
0
100
AcDbBlockEnd
  0
BLOCK
  5
21F
100
AcDbEntity
  8
0
100
AcDbBlockBegin
 62
7
  6
CONTINUOUS
  2
*D0
 70
65
 10
0.0
 20
0.0
  3
*D0
  1

  0
LINE
  5
220
100
AcDbEntity
  8
0
100
AcDbLine
 62
7
  6
CONTINUOUS
 10
-59.9
 20
84.0639902226
 11
-59.9
 21
103.1
  0
LINE
  5
221
100
AcDbEntity
  8
0
100
AcDbLine
 62
7
  6
CONTINUOUS
 10
59.9
 20
84.1815500058
 11
59.9
 21
103.1
  0
LINE
  5
222
100
AcDbEntity
  8
0
100
AcDbLine
 62
7
  6
CONTINUOUS
 10
-59.9
 20
101.6
 11
0.0
 21
101.6
  0
LINE
  5
223
100
AcDbEntity
  8
0
100
AcDbLine
 62
7
  6
CONTINUOUS
 10
59.9
 20
101.6
 11
0.0
 21
101.6
  0
INSERT
  5
224
100
AcDbEntity
  8
0
100
AcDbBlockReference
 62
7
  6
CONTINUOUS
  2
_FILLED
 10
-59.9
 20
101.6
 41
3.0
 42
3.0
 43
3.0
 50
180.0
  0
INSERT
  5
225
100
AcDbEntity
  8
0
100
AcDbBlockReference
 62
7
  6
CONTINUOUS
  2
_FILLED
 10
59.9
 20
101.6
 41
3.0
 42
3.0
 43
3.0
  0
ENDBLK
  5
226
100
AcDbEntity
  8
0
  6
BYBLOCK
 62
0
100
AcDbBlockEnd
  0
BLOCK
  5
227
100
AcDbEntity
  8
0
100
AcDbBlockBegin
 62
7
  6
CONTINUOUS
  2
*D1
 70
65
 10
0.0
 20
0.0
  3
*D1
  1

  0
LINE
  5
228
100
AcDbEntity
  8
0
100
AcDbLine
 62
7
  6
CONTINUOUS
 10
-60.5285739191
 20
83.6
 11
-89.4
 21
83.6
  0
LINE
  5
229
100
AcDbEntity
  8
0
100
AcDbLine
 62
7
  6
CONTINUOUS
 10
-60.5388604002
 20
-83.6
 11
-89.4
 21
-83.6
  0
LINE
  5
22A
100
AcDbEntity
  8
0
100
AcDbLine
 62
7
  6
CONTINUOUS
 10
-87.9
 20
83.6
 11
-87.9
 21
0.0
  0
LINE
  5
22B
100
AcDbEntity
  8
0
100
AcDbLine
 62
7
  6
CONTINUOUS
 10
-87.9
 20
-83.6
 11
-87.9
 21
0.0
  0
INSERT
  5
22C
100
AcDbEntity
  8
0
100
AcDbBlockReference
 62
7
  6
CONTINUOUS
  2
_FILLED
 10
-87.9
 20
83.6
 41
3.0
 42
3.0
 43
3.0
 50
90.0
  0
INSERT
  5
22D
100
AcDbEntity
  8
0
100
AcDbBlockReference
 62
7
  6
CONTINUOUS
  2
_FILLED
 10
-87.9
 20
-83.6
 41
3.0
 42
3.0
 43
3.0
 50
270.0
  0
ENDBLK
  5
22E
100
AcDbEntity
  8
0
  6
BYBLOCK
 62
0
100
AcDbBlockEnd
  0
BLOCK
  5
22F
100
AcDbEntity
  8
0
100
AcDbBlockBegin
 62
7
  6
CONTINUOUS
  2
*D2
 70
65
 10
0.0
 20
0.0
  3
*D2
  1

  0
LINE
  5
230
100
AcDbEntity
  8
0
100
AcDbLine
 62
7
  6
CONTINUOUS
 10
-0.5
 20
66.25
 11
-79.4
 21
66.25
  0
LINE
  5
231
100
AcDbEntity
  8
0
100
AcDbLine
 62
7
  6
CONTINUOUS
 10
-0.5
 20
-66.25
 11
-79.4
 21
-66.25
  0
LINE
  5
232
100
AcDbEntity
  8
0
100
AcDbLine
 62
7
  6
CONTINUOUS
 10
-77.9
 20
66.25
 11
-77.9
 21
0.0
  0
LINE
  5
233
100
AcDbEntity
  8
0
100
AcDbLine
 62
7
  6
CONTINUOUS
 10
-77.9
 20
-66.25
 11
-77.9
 21
0.0
  0
INSERT
  5
234
100
AcDbEntity
  8
0
100
AcDbBlockReference
 62
7
  6
CONTINUOUS
  2
_FILLED
 10
-77.9
 20
66.25
 41
3.0
 42
3.0
 43
3.0
 50
90.0
  0
INSERT
  5
235
100
AcDbEntity
  8
0
100
AcDbBlockReference
 62
7
  6
CONTINUOUS
  2
_FILLED
 10
-77.9
 20
-66.25
 41
3.0
 42
3.0
 43
3.0
 50
270.0
  0
ENDBLK
  5
236
100
AcDbEntity
  8
0
  6
BYBLOCK
 62
0
100
AcDbBlockEnd
  0
BLOCK
  5
237
100
AcDbEntity
  8
0
100
AcDbBlockBegin
 62
7
  6
CONTINUOUS
  2
*D3
 70
65
 10
0.0
 20
0.0
  3
*D3
  1

  0
LINE
  5
238
100
AcDbEntity
  8
0
100
AcDbLine
 62
7
  6
CONTINUOUS
 10
-20.5
 20
21.2095908516
 11
-20.5
 21
93.1
  0
LINE
  5
239
100
AcDbEntity
  8
0
100
AcDbLine
 62
7
  6
CONTINUOUS
 10
20.5
 20
21.5672224072
 11
20.5
 21
93.1
  0
LINE
  5
23A
100
AcDbEntity
  8
0
100
AcDbLine
 62
7
  6
CONTINUOUS
 10
-20.5
 20
91.6
 11
0.0
 21
91.6
  0
LINE
  5
23B
100
AcDbEntity
  8
0
100
AcDbLine
 62
7
  6
CONTINUOUS
 10
20.5
 20
91.6
 11
0.0
 21
91.6
  0
INSERT
  5
23C
100
AcDbEntity
  8
0
100
AcDbBlockReference
 62
7
  6
CONTINUOUS
  2
_FILLED
 10
-20.5
 20
91.6
 41
3.0
 42
3.0
 43
3.0
 50
180.0
  0
INSERT
  5
23D
100
AcDbEntity
  8
0
100
AcDbBlockReference
 62
7
  6
CONTINUOUS
  2
_FILLED
 10
20.5
 20
91.6
 41
3.0
 42
3.0
 43
3.0
  0
ENDBLK
  5
23E
100
AcDbEntity
  8
0
  6
BYBLOCK
 62
0
100
AcDbBlockEnd
  0
BLOCK
  5
23F
100
AcDbEntity
  8
0
100
AcDbBlockBegin
 62
7
  6
CONTINUOUS
  2
*D4
 70
65
 10
0.0
 20
0.0
  3
*D4
  1

  0
LINE
  5
240
100
AcDbEntity
  8
0
100
AcDbLine
 62
7
  6
CONTINUOUS
 10
-21.1561246622
 20
20.5
 11
-69.4
 21
20.5
  0
LINE
  5
241
100
AcDbEntity
  8
0
100
AcDbLine
 62
7
  6
CONTINUOUS
 10
-21.5286481034
 20
-20.5
 11
-69.4
 21
-20.5
  0
LINE
  5
242
100
AcDbEntity
  8
0
100
AcDbLine
 62
7
  6
CONTINUOUS
 10
-67.9
 20
20.5
 11
-67.9
 21
0.0
  0
LINE
  5
243
100
AcDbEntity
  8
0
100
AcDbLine
 62
7
  6
CONTINUOUS
 10
-67.9
 20
-20.5
 11
-67.9
 21
0.0
  0
INSERT
  5
244
100
AcDbEntity
  8
0
100
AcDbBlockReference
 62
7
  6
CONTINUOUS
  2
_FILLED
 10
-67.9
 20
20.5
 41
3.0
 42
3.0
 43
3.0
 50
90.0
  0
INSERT
  5
245
100
AcDbEntity
  8
0
100
AcDbBlockReference
 62
7
  6
CONTINUOUS
  2
_FILLED
 10
-67.9
 20
-20.5
 41
3.0
 42
3.0
 43
3.0
 50
270.0
  0
ENDBLK
  5
246
100
AcDbEntity
  8
0
  6
BYBLOCK
 62
0
100
AcDbBlockEnd
  0
BLOCK
  5
247
100
AcDbEntity
  8
0
100
AcDbBlockBegin
 62
7
  6
CONTINUOUS
  2
*D5
 70
65
 10
0.0
 20
0.0
  3
*D5
  1

  0
LINE
  5
248
100
AcDbEntity
  8
0
100
AcDbLine
 62
7
  6
CONTINUOUS
 10
88.2847048845
 20
24.25
 11
115.9346407137
 21
24.25
  0
LINE
  5
249
100
AcDbEntity
  8
0
100
AcDbLine
 62
7
  6
CONTINUOUS
 10
88.2729489062
 20
-24.25
 11
115.9346407137
 21
-24.25
  0
LINE
  5
24A
100
AcDbEntity
  8
0
100
AcDbLine
 62
7
  6
CONTINUOUS
 10
114.4346407137
 20
24.25
 11
114.4346407137
 21
0.0
  0
LINE
  5
24B
100
AcDbEntity
  8
0
100
AcDbLine
 62
7
  6
CONTINUOUS
 10
114.4346407137
 20
-24.25
 11
114.4346407137
 21
0.0
  0
INSERT
  5
24C
100
AcDbEntity
  8
0
100
AcDbBlockReference
 62
7
  6
CONTINUOUS
  2
_FILLED
 10
114.4346407137
 20
24.25
 41
3.0
 42
3.0
 43
3.0
 50
90.0
  0
INSERT
  5
24D
100
AcDbEntity
  8
0
100
AcDbBlockReference
 62
7
  6
CONTINUOUS
  2
_FILLED
 10
114.4346407137
 20
-24.25
 41
3.0
 42
3.0
 43
3.0
 50
270.0
  0
ENDBLK
  5
24E
100
AcDbEntity
  8
0
  6
BYBLOCK
 62
0
100
AcDbBlockEnd
  0
BLOCK
  5
24F
100
AcDbEntity
  8
0
100
AcDbBlockBegin
 62
7
  6
CONTINUOUS
  2
*D6
 70
65
 10
0.0
 20
0.0
  3
*D6
  1

  0
LINE
  5
250
100
AcDbEntity
  8
0
100
AcDbLine
 62
7
  6
CONTINUOUS
 10
106.4346219834
 20
-84.13809024
 11
106.4346219834
 21
-93.1
  0
LINE
  5
251
100
AcDbEntity
  8
0
100
AcDbLine
 62
7
  6
CONTINUOUS
 10
102.4346219834
 20
-84.1
 11
102.4346219834
 21
-93.1
  0
LINE
  5
252
100
AcDbEntity
  8
0
100
AcDbLine
 62
7
  6
CONTINUOUS
 10
106.4346219834
 20
-91.6
 11
113.895215219
 21
-91.6
  0
LINE
  5
253
100
AcDbEntity
  8
0
100
AcDbLine
 62
7
  6
CONTINUOUS
 10
113.895215219
 20
-91.6
 11
104.4346219834
 21
-91.6
  0
LINE
  5
254
100
AcDbEntity
  8
0
100
AcDbLine
 62
7
  6
CONTINUOUS
 10
102.4346219834
 20
-91.6
 11
98.4346219834
 21
-91.6
  0
LINE
  5
255
100
AcDbEntity
  8
0
100
AcDbLine
 62
7
  6
CONTINUOUS
 10
98.4346219834
 20
-91.6
 11
104.4346219834
 21
-91.6
  0
INSERT
  5
256
100
AcDbEntity
  8
0
100
AcDbBlockReference
 62
7
  6
CONTINUOUS
  2
_FILLED
 10
106.4346219834
 20
-91.6
 41
3.0
 42
3.0
 43
3.0
 50
180.0
  0
INSERT
  5
257
100
AcDbEntity
  8
0
100
AcDbBlockReference
 62
7
  6
CONTINUOUS
  2
_FILLED
 10
102.4346219834
 20
-91.6
 41
3.0
 42
3.0
 43
3.0
  0
ENDBLK
  5
258
100
AcDbEntity
  8
0
  6
BYBLOCK
 62
0
100
AcDbBlockEnd
  0
ENDSEC
  0
SECTION
  2
ENTITIES
  0
DIMENSION
  5
259
100
AcDbEntity
  8
0
100
AcDbDimension
 62
7
  6
CONTINUOUS
  2
*D0
 10
59.9
 20
101.6
 11
-4.9285714286
 21
101.6
 70
160
 71
2
 72
2
 41
0.9
 42
119.8
  3
DIMSTYLE_1
100
AcDbAlignedDimension
 13
-59.9
 23
83.5639902226
 14
59.9
 24
83.6815500058
100
AcDbRotatedDimension
  0
DIMENSION
  5
25A
100
AcDbEntity
  8
0
100
AcDbDimension
 62
7
  6
CONTINUOUS
  2
*D1
 10
-87.9
 20
-83.6
 11
-87.9
 21
-5.25
 70
160
 71
2
 72
2
 41
0.9
 42
167.2
  3
DIMSTYLE_1
100
AcDbAlignedDimension
 13
-60.0285739191
 23
83.6
 14
-60.0388604002
 24
-83.6
 50
270.0
100
AcDbRotatedDimension
  0
DIMENSION
  5
25B
100
AcDbEntity
  8
0
100
AcDbDimension
 62
7
  6
CONTINUOUS
  2
*D2
 10
-77.9
 20
-66.25
 11
-77.9
 21
-5.0357142857
 70
160
 71
2
 72
2
 41
0.9
 42
132.5
  3
DIMSTYLE_1
100
AcDbAlignedDimension
 13
0.0
 23
66.25
 14
0.0
 24
-66.25
 50
270.0
100
AcDbRotatedDimension
  0
DIMENSION
  5
25C
100
AcDbEntity
  8
0
100
AcDbDimension
 62
7
  6
CONTINUOUS
  2
*D3
 10
20.5
 20
91.6
 11
-2.0357142857
 21
91.6
 70
160
 71
2
 72
2
 41
0.9
 42
41.0
  3
DIMSTYLE_1
100
AcDbAlignedDimension
 13
-20.5
 23
20.7095908516
 14
20.5
 24
21.0672224072
100
AcDbRotatedDimension
  0
DIMENSION
  5
25D
100
AcDbEntity
  8
0
100
AcDbDimension
 62
7
  6
CONTINUOUS
  2
*D4
 10
-67.9
 20
-20.5
 11
-67.9
 21
-2.0357142857
 70
160
 71
2
 72
2
 41
0.9
 42
41.0
  3
DIMSTYLE_1
100
AcDbAlignedDimension
 13
-20.6561246622
 23
20.5
 14
-21.0286481034
 24
-20.5
 50
270.0
100
AcDbRotatedDimension
  0
DIMENSION
  5
25E
100
AcDbEntity
  8
0
100
AcDbDimension
 62
7
  6
CONTINUOUS
  2
*D5
 10
114.4346407137
 20
-24.25
 11
114.4346407137
 21
-4.2857142857
 70
160
 71
2
 72
2
 41
0.9
 42
48.5
  3
DIMSTYLE_1
100
AcDbAlignedDimension
 13
87.7847048845
 23
24.25
 14
87.7729489062
 24
-24.25
 50
270.0
100
AcDbRotatedDimension
  0
DIMENSION
  5
25F
100
AcDbEntity
  8
0
100
AcDbDimension
 62
7
  6
CONTINUOUS
  2
*D6
 10
102.4346219834
 20
-91.6
 11
111.5380723618
 21
-91.6
 70
160
 71
1
 72
2
 41
0.9
 42
4.0
  3
DIMSTYLE_1
100
AcDbAlignedDimension
 13
106.4346219834
 23
-83.63809024
 14
102.4346219834
 24
-83.6
 50
180.0
100
AcDbRotatedDimension
  0
LWPOLYLINE
  5
260
100
AcDbEntity
  8
0
100
AcDbPolyline
 62
7
  6
CONTINUOUS
 90
7
 70
0
 43
0.3500000019
 10
-88.6499995117
 20
4.3928571167
 10
-88.6499995117
 20
2.8928569946
 10
-90.7928577881
 20
4.3928571167
 10
-91.2214281006
 20
4.3928571167
 10
-91.6499997559
 20
3.9642857971
 10
-91.6499997559
 20
3.3214286499
 10
-91.0071429443
 20
2.8928569946
  0
LINE
  5
261
100
AcDbEntity
  8
RACCORDO
100
AcDbLine
 62
7
  6
CONTINUOUS
 10
-58.9
 20
-83.6
 11
58.9
 21
-83.6
  0
LWPOLYLINE
  5
262
100
AcDbEntity
  8
0
100
AcDbPolyline
 62
7
  6
CONTINUOUS
 90
6
 70
0
 43
0.3500000019
 10
-78.6499998169
 20
-3.3214286499
 10
-78.6499998169
 20
-2.2500000153
 10
-78.8642856445
 20
-2.0357143555
 10
-79.9357141113
 20
-2.0357143555
 10
-80.3642857666
 20
-2.464285675
 10
-80.3642857666
 20
-2.8928569946
  0
LWPOLYLINE
  5
263
100
AcDbEntity
  8
0
100
AcDbPolyline
 62
7
  6
CONTINUOUS
 90
7
 70
0
 43
0.3500000019
 10
-78.6499998169
 20
0.3214285736
 10
-78.6499998169
 20
-1.1785714645
 10
-80.7928574219
 20
0.3214285736
 10
-81.2214284058
 20
0.3214285736
 10
-81.650000061
 20
-0.1071428614
 10
-81.650000061
 20
-0.7499999771
 10
-81.0071425781
 20
-1.1785714645
  0
LWPOLYLINE
  5
264
100
AcDbEntity
  8
0
100
AcDbPolyline
 62
7
  6
CONTINUOUS
 90
8
 70
0
 43
0.3500000019
 10
-78.6499998169
 20
2.8928569946
 10
-78.6499998169
 20
3.7499999695
 10
-79.0785714722
 20
4.1785712891
 10
-79.9357141113
 20
4.1785712891
 10
-80.3642857666
 20
3.7499999695
 10
-80.3642857666
 20
2.8928569946
 10
-81.650000061
 20
2.8928569946
 10
-81.650000061
 20
4.1785712891
  0
LWPOLYLINE
  5
265
100
AcDbEntity
  8
0
100
AcDbPolyline
 62
7
  6
CONTINUOUS
 90
3
 70
0
 43
0.3500000019
 10
-4.9285698242
 20
104.4928564453
 10
-4.0714291992
 20
105.3499970703
 10
-4.0714291992
 20
102.3500048828
  0
LWPOLYLINE
  5
266
100
AcDbEntity
  8
0
100
AcDbPolyline
 62
7
  6
CONTINUOUS
 90
3
 70
0
 43
0.3500000019
 10
-3.2142832031
 20
104.4928564453
 10
-2.3571425781
 20
105.3499970703
 10
-2.3571425781
 20
102.3500048828
  0
LWPOLYLINE
  5
267
100
AcDbEntity
  8
0
100
AcDbPolyline
 62
7
  6
CONTINUOUS
 90
3
 70
0
 43
0.3500000019
 10
-69.2928571014
 20
-0.5357142754
 10
-69.2928571014
 20
-2.0357143555
 10
-71.6499999886
 20
-1.3928571243
  0
LWPOLYLINE
  5
268
100
AcDbEntity
  8
0
100
AcDbPolyline
 62
7
  6
CONTINUOUS
 90
10
 70
0
 43
0.3500000019
 10
-1.0714262695
 20
102.3500048828
 10
-0.2142856445
 20
103.2071455078
 10
-0.0000004883
 20
104.0642861328
 10
-0.0000004883
 20
104.9214267578
 10
-0.4285708008
 20
105.3499970703
 10
-1.0714262695
 20
105.3499970703
 10
-1.5000019531
 20
104.9214267578
 10
-1.5000019531
 20
104.0642861328
 10
-1.0714262695
 20
103.6357158203
 10
-0.1428554687
 20
103.6357158203
  0
LWPOLYLINE
  5
269
100
AcDbEntity
  8
RACCORDO
100
AcDbPolyline
 62
7
  6
CONTINUOUS
 90
7
 70
0
 10
0.0870691767
 20
-68.2526772267
 10
0.100093893
 20
-68.2509719256
 10
0.1127241743
 20
-68.249189147
 10
0.1250261526
 20
-68.2475383635
 10
0.1370218721
 20
-68.2460893992
 10
0.1486892887
 20
-68.24477243
 10
0.1600284024
 20
-68.2435874558
  0
LWPOLYLINE
  5
26A
100
AcDbEntity
  8
RACCORDO
100
AcDbPolyline
 62
7
  6
CONTINUOUS
 90
4
 70
0
 10
0.0455622859
 20
-68.2571187921
 10
0.05982892
 20
-68.2558550852
 10
0.0736462658
 20
-68.2543048947
 10
0.0870691767
 20
-68.2526772267
  0
LINE
  5
26B
100
AcDbEntity
  8
RACCORDO
100
AcDbLine
 62
250
  6
CONTINUOUS
 10
-0.4752990756
 20
-67.6995908163
 11
-0.4862925649
 21
-67.6999121944
  0
LWPOLYLINE
  5
26C
100
AcDbEntity
  8
RACCORDO
100
AcDbPolyline
 62
7
  6
CONTINUOUS
 90
4
 70
0
 10
0.0000118004
 20
-68.2589820047
 10
0.0156445839
 20
-68.2586474175
 10
0.030828079
 20
-68.2580263466
 10
0.0455622859
 20
-68.2571187921
  0
LINE
  5
26D
100
AcDbEntity
  8
RACCORDO
100
AcDbLine
 62
250
  6
CONTINUOUS
 10
0.4752990919
 20
-67.6995908196
 11
0.4862925649
 21
-67.6999121944
  0
LWPOLYLINE
  5
26E
100
AcDbEntity
  8
RACCORDO
100
AcDbPolyline
 62
7
  6
CONTINUOUS
 90
7
 70
0
 10
-0.1600284055
 20
-68.2435874555
 10
-0.1487269245
 20
-68.2447673684
 10
-0.1370866241
 20
-68.2460807163
 10
-0.1251075044
 20
-68.2475274992
 10
-0.1128089042
 20
-68.2491778718
 10
-0.1001714846
 20
-68.2509616793
 10
-0.0871372292
 20
-68.2526684579
  0
LWPOLYLINE
  5
26F
100
AcDbEntity
  8
RACCORDO
100
AcDbPolyline
 62
7
  6
CONTINUOUS
 90
7
 70
0
 10
-0.0871372292
 20
-68.2526684579
 10
-0.0737050922
 20
-68.2542980004
 10
-0.0598761194
 20
-68.255850514
 10
-0.0455954317
 20
-68.2571161555
 10
-0.030844736
 20
-68.2580249773
 10
-0.0156423253
 20
-68.258646927
 10
0.0000118004
 20
-68.2589820047
  0
LWPOLYLINE
  5
270
100
AcDbEntity
  8
0
100
AcDbPolyline
 62
7
  6
CONTINUOUS
 90
3
 70
0
 43
0.3500000019
 10
-90.7928577881
 20
-5.2500000916
 10
-91.6499997559
 20
-4.3928571167
 10
-88.6499995117
 20
-4.3928571167
  0
LWPOLYLINE
  5
271
100
AcDbEntity
  8
0
100
AcDbPolyline
 62
7
  6
CONTINUOUS
 90
5
 70
0
 43
0.3500000019
 10
-80.3642857666
 20
-2.464285675
 10
-80.5785715942
 20
-2.1071428528
 10
-81.2214284058
 20
-2.1071428528
 10
-81.650000061
 20
-2.464285675
 10
-81.650000061
 20
-3.3214286499
  0
LWPOLYLINE
  5
272
100
AcDbEntity
  8
0
100
AcDbPolyline
 62
7
  6
CONTINUOUS
 90
3
 70
0
 43
0.3500000019
 10
0.3214272461
 20
94.4928574219
 10
1.1785732422
 20
95.3499980469
 10
1.1785732422
 20
92.3499951172
  0
LWPOLYLINE
  5
273
100
AcDbEntity
  8
RACCORDO
100
AcDbPolyline
 62
250
  6
CONTINUOUS
 90
12
 70
0
 10
-0.1600485477
 20
68.2435858337
 10
-0.1704758143
 20
68.2385256777
 10
-0.1808989911
 20
68.2330325209
 10
-0.1913110545
 20
68.2271060751
 10
-0.2017095553
 20
68.2207635521
 10
-0.2120827906
 20
68.2139873565
 10
-0.2224089163
 20
68.2067253419
 10
-0.23268838
 20
68.1989753837
 10
-0.2429041638
 20
68.190740191
 10
-0.2530069002
 20
68.1819758996
 10
-0.2629956258
 20
68.172679693
 10
-0.272853521
 20
68.1628569191
  0
LWPOLYLINE
  5
274
100
AcDbEntity
  8
RACCORDO
100
AcDbPolyline
 62
250
  6
CONTINUOUS
 90
6
 70
0
 10
-1.5274569652
 20
67.440723929
 10
-1.5528483312
 20
67.432948342
 10
-1.5775821114
 20
67.4234953868
 10
-1.6013066589
 20
67.4124282666
 10
-1.6242883854
 20
67.3997186623
 10
-1.6464826475
 20
67.385382819
  0
LWPOLYLINE
  5
275
100
AcDbEntity
  8
RACCORDO
100
AcDbPolyline
 62
250
  6
CONTINUOUS
 90
11
 70
0
 10
1.5320657794
 20
65.0604626612
 10
1.5451264763
 20
65.0644113019
 10
1.5577939202
 20
65.0687286871
 10
1.5700781914
 20
65.073416331
 10
1.5820100692
 20
65.0784242565
 10
1.5935800645
 20
65.0837380084
 10
1.6047885178
 20
65.0893597298
 10
1.6156821376
 20
65.0952657829
 10
1.6262740132
 20
65.1014452529
 10
1.636543189
 20
65.1078988702
 10
1.6464857934
 20
65.1146213939
  0
LINE
  5
276
100
AcDbEntity
  8
RACCORDO
100
AcDbLine
 62
250
  6
CONTINUOUS
 10
1.4701015579
 20
-65.9520043468
 11
1.498807076
 21
-65.9461856177
  0
LINE
  5
277
100
AcDbEntity
  8
RACCORDO
100
AcDbLine
 62
250
  6
CONTINUOUS
 10
-1.4701015579
 20
-66.5479956532
 11
-1.498807076
 21
-66.5538143823
  0
LINE
  5
278
100
AcDbEntity
  8
RACCORDO
100
AcDbLine
 62
250
  6
CONTINUOUS
 10
-1.0938508866
 20
-67.4087048921
 11
-1.0125145111
 21
-67.396097812
  0
LINE
  5
279
100
AcDbEntity
  8
RACCORDO
100
AcDbLine
 62
250
  6
CONTINUOUS
 10
1.0938508866
 20
-65.0912951079
 11
1.0125145111
 21
-65.103902188
  0
LWPOLYLINE
  5
27A
100
AcDbEntity
  8
RACCORDO
100
AcDbPolyline
 62
250
  6
CONTINUOUS
 90
4
 70
0
 10
-1.3668926661
 20
-67.449928874
 10
-1.2918101112
 20
-67.4385595836
 10
-1.2532845762
 20
-67.4328606247
 10
-1.0938508866
 20
-67.4087048921
  0
LWPOLYLINE
  5
27B
100
AcDbEntity
  8
RACCORDO
100
AcDbPolyline
 62
250
  6
CONTINUOUS
 90
4
 70
0
 10
1.3668926661
 20
-65.050071126
 10
1.2918101112
 20
-65.0614404164
 10
1.2532845762
 20
-65.0671393753
 10
1.0938508866
 20
-65.0912951079
  0
LINE
  5
27C
100
AcDbEntity
  8
RACCORDO
100
AcDbLine
 62
7
  6
CONTINUOUS
 10
-1.4330853288
 20
-67.3974334584
 11
-1.0723833781
 21
-67.3499461457
  0
LINE
  5
27D
100
AcDbEntity
  8
RACCORDO
100
AcDbLine
 62
7
  6
CONTINUOUS
 10
1.4330853288
 20
-65.1025665416
 11
1.0723833781
 21
-65.1500538543
  0
LWPOLYLINE
  5
27E
100
AcDbEntity
  8
RACCORDO
100
AcDbPolyline
 62
7
  6
CONTINUOUS
 90
7
 70
0
 10
-0.0870693421
 20
-64.2473227939
 10
-0.1000939757
 20
-64.249028083
 10
-0.1127241471
 20
-64.2508108454
 10
-0.1250260489
 20
-64.2524616182
 10
-0.1370217452
 20
-64.2539105804
 10
-0.1486891718
 20
-64.2552275529
 10
-0.1600283289
 20
-64.2564125359
  0
LWPOLYLINE
  5
27F
100
AcDbEntity
  8
RACCORDO
100
AcDbPolyline
 62
7
  6
CONTINUOUS
 90
4
 70
0
 10
-0.045562476
 20
-64.2428812299
 10
-0.0598291427
 20
-64.2441449401
 10
-0.0736464735
 20
-64.2456951303
 10
-0.0870693421
 20
-64.2473227939
  0
LWPOLYLINE
  5
280
100
AcDbEntity
  8
RACCORDO
100
AcDbPolyline
 62
250
  6
CONTINUOUS
 90
9
 70
0
 10
-1.0723833779
 20
-67.3499461457
 10
-1.0649520478
 20
-67.349694748
 10
-1.0575990698
 20
-67.350918917
 10
-1.0503551016
 20
-67.3536062842
 10
-1.0431633499
 20
-67.3576692453
 10
-1.036120042
 20
-67.363033264
 10
-1.0294942186
 20
-67.3696874019
 10
-1.0233908248
 20
-67.377548227
 10
-1.0177329289
 20
-67.3864164978
  0
LWPOLYLINE
  5
281
100
AcDbEntity
  8
RACCORDO
100
AcDbPolyline
 62
250
  6
CONTINUOUS
 90
9
 70
0
 10
1.0723833779
 20
-65.1500538543
 10
1.0649520478
 20
-65.150305252
 10
1.0575990698
 20
-65.149081083
 10
1.0503551016
 20
-65.1463937158
 10
1.0431633499
 20
-65.1423307547
 10
1.036120042
 20
-65.136966736
 10
1.0294942186
 20
-65.1303125981
 10
1.0233908248
 20
-65.122451773
 10
1.0177329289
 20
-65.1135835022
  0
LWPOLYLINE
  5
282
100
AcDbEntity
  8
RACCORDO
100
AcDbPolyline
 62
250
  6
CONTINUOUS
 90
10
 70
0
 10
-1.433085338
 20
-67.3974333882
 10
-1.4247829892
 20
-67.3971868228
 10
-1.4164009242
 20
-67.3986083127
 10
-1.408079817
 20
-67.4016740015
 10
-1.3999593186
 20
-67.4063324386
 10
-1.3921757133
 20
-67.4125054426
 10
-1.3848596314
 20
-67.4200894137
 10
-1.3781338569
 20
-67.4289570722
 10
-1.3721112666
 20
-67.4389595946
 10
-1.3668929364
 20
-67.4499291112
  0
LWPOLYLINE
  5
283
100
AcDbEntity
  8
RACCORDO
100
AcDbPolyline
 62
250
  6
CONTINUOUS
 90
10
 70
0
 10
1.433085338
 20
-65.1025666118
 10
1.4247829892
 20
-65.1028131772
 10
1.4164009242
 20
-65.1013916873
 10
1.408079817
 20
-65.0983259985
 10
1.3999593186
 20
-65.0936675614
 10
1.3921757133
 20
-65.0874945574
 10
1.3848596314
 20
-65.0799105863
 10
1.3781338569
 20
-65.0710429278
 10
1.3721112666
 20
-65.0610404054
 10
1.3668929364
 20
-65.0500708888
  0
LINE
  5
284
100
AcDbEntity
  8
RACCORDO
100
AcDbLine
 62
250
  6
CONTINUOUS
 10
0.4752990756
 20
-64.8004091837
 11
0.4862925649
 21
-64.8000878056
  0
LWPOLYLINE
  5
285
100
AcDbEntity
  8
RACCORDO
100
AcDbPolyline
 62
7
  6
CONTINUOUS
 90
4
 70
0
 10
-0.0000115854
 20
-64.2410179864
 10
-0.0156445517
 20
-64.2413525875
 10
-0.0308281818
 20
-64.2419736687
 10
-0.045562476
 20
-64.2428812299
  0
LINE
  5
286
100
AcDbEntity
  8
RACCORDO
100
AcDbLine
 62
250
  6
CONTINUOUS
 10
-0.4752990919
 20
-64.8004091804
 11
-0.4862925648
 21
-64.8000878056
  0
LWPOLYLINE
  5
287
100
AcDbEntity
  8
RACCORDO
100
AcDbPolyline
 62
250
  6
CONTINUOUS
 90
10
 70
0
 10
1.4330853157
 20
-67.3974335577
 10
1.4247829412
 20
-67.3971869101
 10
1.4164008465
 20
-67.3986083294
 10
1.4080797071
 20
-67.4016739583
 10
1.3999591746
 20
-67.4063323455
 10
1.3921755348
 20
-67.4125053082
 10
1.3848594199
 20
-67.4200892437
 10
1.3781336144
 20
-67.4289568695
 10
1.3721109943
 20
-67.4389593607
 10
1.3668926344
 20
-67.4499288461
  0
LWPOLYLINE
  5
288
100
AcDbEntity
  8
RACCORDO
100
AcDbPolyline
 62
250
  6
CONTINUOUS
 90
10
 70
0
 10
-1.4330853242
 20
-65.1025665085
 10
-1.4247828576
 20
-65.1028131465
 10
-1.4164006909
 20
-65.1013916831
 10
-1.4080795038
 20
-65.0983259892
 10
-1.3999589461
 20
-65.0936675275
 10
-1.3921753071
 20
-65.0874944954
 10
-1.3848592262
 20
-65.0799105195
 10
-1.3781334839
 20
-65.0710429025
 10
-1.3721109429
 20
-65.0610404783
 10
-1.3668926662
 20
-65.0500711258
  0
LWPOLYLINE
  5
289
100
AcDbEntity
  8
RACCORDO
100
AcDbPolyline
 62
250
  6
CONTINUOUS
 90
9
 70
0
 10
1.0723833781
 20
-67.3499461457
 10
1.0649520516
 20
-67.3496947471
 10
1.0575990764
 20
-67.3509189126
 10
1.0503551103
 20
-67.3536062746
 10
1.0431633612
 20
-67.3576692292
 10
1.0361200554
 20
-67.3630332412
 10
1.0294942316
 20
-67.3696873755
 10
1.0233908346
 20
-67.3775482026
 10
1.0177329342
 20
-67.386416482
  0
LWPOLYLINE
  5
28A
100
AcDbEntity
  8
RACCORDO
100
AcDbPolyline
 62
250
  6
CONTINUOUS
 90
9
 70
0
 10
-1.0723833781
 20
-65.1500538543
 10
-1.0649520516
 20
-65.1503052529
 10
-1.0575990764
 20
-65.1490810874
 10
-1.0503551103
 20
-65.1463937254
 10
-1.0431633612
 20
-65.1423307708
 10
-1.0361200554
 20
-65.1369667588
 10
-1.0294942316
 20
-65.1303126245
 10
-1.0233908346
 20
-65.1224517974
 10
-1.0177329342
 20
-65.113583518
  0
LWPOLYLINE
  5
28B
100
AcDbEntity
  8
RACCORDO
100
AcDbPolyline
 62
7
  6
CONTINUOUS
 90
7
 70
0
 10
0.1600284458
 20
-64.2564125491
 10
0.1487295664
 20
-64.2552329796
 10
0.1370898868
 20
-64.2539197166
 10
0.125109407
 20
-64.2524727602
 10
0.1128061103
 20
-64.2508217591
 10
0.1001620134
 20
-64.2490370645
 10
0.0871231663
 20
-64.2473297301
  0
LWPOLYLINE
  5
28C
100
AcDbEntity
  8
RACCORDO
100
AcDbPolyline
 62
7
  6
CONTINUOUS
 90
7
 70
0
 10
0.0871231663
 20
-64.2473297301
 10
0.0736902532
 20
-64.2457002705
 10
0.0598625901
 20
-64.2441481711
 10
0.0455841748
 20
-64.242882942
 10
0.0308363402
 20
-64.2419744199
 10
0.0156377534
 20
-64.241352768
 10
-0.0000115854
 20
-64.2410179864
  0
LWPOLYLINE
  5
28D
100
AcDbEntity
  8
RACCORDO
100
AcDbPolyline
 62
250
  6
CONTINUOUS
 90
12
 70
0
 10
1.3668926661
 20
-67.449928874
 10
1.383324815
 20
-67.4519838451
 10
1.3994955088
 20
-67.4533968585
 10
1.4153984066
 20
-67.4541694635
 10
1.4310257911
 20
-67.4542766755
 10
1.4463717771
 20
-67.4537471726
 10
1.4614330052
 20
-67.4526641671
 10
1.4762165262
 20
-67.4510335583
 10
1.4907019561
 20
-67.4488560556
 10
1.5048456801
 20
-67.4462097563
 10
1.5186329927
 20
-67.4431023982
 10
1.5320657794
 20
-67.4395373388
  0
LINE
  5
28E
100
AcDbEntity
  8
RACCORDO
100
AcDbLine
 62
7
  6
CONTINUOUS
 10
1.0723833781
 20
-67.3499461457
 11
1.4330853288
 21
-67.3974334584
  0
LINE
  5
28F
100
AcDbEntity
  8
RACCORDO
100
AcDbLine
 62
7
  6
CONTINUOUS
 10
-1.0723833781
 20
-65.1500538543
 11
-1.4330853288
 21
-65.1025665416
  0
LWPOLYLINE
  5
290
100
AcDbEntity
  8
RACCORDO
100
AcDbPolyline
 62
250
  6
CONTINUOUS
 90
8
 70
0
 10
-1.3668926661
 20
-65.050071126
 10
-1.3869718553
 20
-65.0473846332
 10
-1.4080527254
 20
-65.0459198788
 10
-1.4301367719
 20
-65.0457253491
 10
-1.4534292783
 20
-65.0467556546
 10
-1.4777201071
 20
-65.0491651119
 10
-1.5023715013
 20
-65.0532847532
 10
-1.5274569652
 20
-65.059276071
  0
LWPOLYLINE
  5
291
100
AcDbEntity
  8
RACCORDO
100
AcDbPolyline
 62
250
  6
CONTINUOUS
 90
3
 70
0
 10
1.0533005679
 20
-67.4025027872
 10
1.2140851922
 20
-67.426964055
 10
1.3296993031
 20
-67.4442246098
  0
LWPOLYLINE
  5
292
100
AcDbEntity
  8
RACCORDO
100
AcDbPolyline
 62
250
  6
CONTINUOUS
 90
3
 70
0
 10
-1.0533005679
 20
-65.0974972128
 10
-1.2140851922
 20
-65.073035945
 10
-1.3296993031
 20
-65.0557753902
  0
LINE
  5
293
100
AcDbEntity
  8
RACCORDO
100
AcDbLine
 62
250
  6
CONTINUOUS
 10
1.3296993031
 20
-67.4442246098
 11
1.3668926661
 21
-67.449928874
  0
LINE
  5
294
100
AcDbEntity
  8
RACCORDO
100
AcDbLine
 62
250
  6
CONTINUOUS
 10
-1.3296993031
 20
-65.0557753902
 11
-1.3668926661
 21
-65.050071126
  0
LINE
  5
295
100
AcDbEntity
  8
RACCORDO
100
AcDbLine
 62
250
  6
CONTINUOUS
 10
1.0125145111
 20
-67.396097812
 11
1.0533005679
 21
-67.4025027872
  0
LINE
  5
296
100
AcDbEntity
  8
RACCORDO
100
AcDbLine
 62
250
  6
CONTINUOUS
 10
-1.0125145111
 20
-65.103902188
 11
-1.0533005679
 21
-65.0974972128
  0
LWPOLYLINE
  5
297
100
AcDbEntity
  8
RACCORDO
100
AcDbPolyline
 62
250
  6
CONTINUOUS
 90
6
 70
0
 10
1.5169946533
 20
-65.0563487688
 10
1.4853014637
 20
-65.0502746526
 10
1.4543855539
 20
-65.0467542625
 10
1.4243802136
 20
-65.0454881759
 10
1.3952105193
 20
-65.0466193115
 10
1.3668926661
 20
-65.050071126
  0
LINE
  5
298
100
AcDbEntity
  8
RACCORDO
100
AcDbLine
 62
250
  6
CONTINUOUS
 10
-1.4701015575
 20
-65.9520043448
 11
-1.498807076
 21
-65.9461856177
  0
LINE
  5
299
100
AcDbEntity
  8
RACCORDO
100
AcDbLine
 62
250
  6
CONTINUOUS
 10
1.4701015575
 20
-66.5479956552
 11
1.498807076
 21
-66.5538143823
  0
LWPOLYLINE
  5
29A
100
AcDbEntity
  8
RACCORDO
100
AcDbPolyline
 62
250
  6
CONTINUOUS
 90
11
 70
0
 10
-1.5197041868
 20
-67.4428381745
 10
-1.5058720477
 20
-67.4459958189
 10
-1.4916783671
 20
-67.4486906038
 10
-1.4771331834
 20
-67.4509146617
 10
-1.4622662223
 20
-67.4525870866
 10
-1.447086842
 20
-67.4537073231
 10
-1.4315995946
 20
-67.4542679519
 10
-1.4158279329
 20
-67.4541806872
 10
-1.3997845063
 20
-67.4534154063
 10
-1.3834705858
 20
-67.4519986494
 10
-1.3668926661
 20
-67.449928874
  0
LWPOLYLINE
  5
29B
100
AcDbEntity
  8
0
100
AcDbPolyline
 62
7
  6
CONTINUOUS
 90
10
 70
0
 43
0.3500000019
 10
-91.6499997559
 20
-2.464285675
 10
-91.0071429443
 20
-3.1071428223
 10
-90.1499996338
 20
-3.5357141418
 10
-89.078571167
 20
-3.5357141418
 10
-88.6499995117
 20
-3.1071428223
 10
-88.6499995117
 20
-2.464285675
 10
-89.078571167
 20
-2.0357143555
 10
-89.9357144775
 20
-2.0357143555
 10
-90.3642861328
 20
-2.464285675
 10
-90.3642861328
 20
-3.3928571472
  0
LINE
  5
29C
100
AcDbEntity
  8
RACCORDO
100
AcDbLine
 62
7
  6
CONTINUOUS
 10
-59.9
 20
82.6
 11
-59.9
 21
-82.6
  0
LWPOLYLINE
  5
29D
100
AcDbEntity
  8
RACCORDO
100
AcDbPolyline
 62
250
  6
CONTINUOUS
 90
12
 70
0
 10
0.1600471609
 20
64.2564140574
 10
0.1704795758
 20
64.2614774174
 10
0.1809026582
 20
64.2669703282
 10
0.1913094789
 20
64.2728929968
 10
0.2016961304
 20
64.2792275055
 10
0.2120525966
 20
64.2859919783
 10
0.2223617861
 20
64.2932404068
 10
0.2326246085
 20
64.3009746054
 10
0.2428236836
 20
64.309192173
 10
0.2529130025
 20
64.3179398749
 10
0.262892213
 20
64.3272206217
 10
0.2727437904
 20
64.3370290782
  0
LWPOLYLINE
  5
29E
100
AcDbEntity
  8
RACCORDO
100
AcDbPolyline
 62
250
  6
CONTINUOUS
 90
5
 70
0
 10
1.6466814461
 20
-65.1149122835
 10
1.6140003197
 20
-65.0950406007
 10
1.5814359766
 20
-65.0786622558
 10
1.5491024998
 20
-65.0657142446
 10
1.5169946533
 20
-65.0563487688
  0
LWPOLYLINE
  5
29F
100
AcDbEntity
  8
RACCORDO
100
AcDbPolyline
 62
250
  6
CONTINUOUS
 90
12
 70
0
 10
-1.6464830389
 20
-67.3853825907
 10
-1.6368711572
 20
-67.3918989496
 10
-1.6268775174
 20
-67.398196585
 10
-1.6165053913
 20
-67.4042690755
 10
-1.6057683899
 20
-67.4101241188
 10
-1.5946596781
 20
-67.415741118
 10
-1.5831526781
 20
-67.421070742
 10
-1.5712449003
 20
-67.4261117648
 10
-1.55894776
 20
-67.4308512806
 10
-1.5462571236
 20
-67.4352222092
 10
-1.5331718121
 20
-67.439221338
 10
-1.5197041868
 20
-67.4428381745
  0
LWPOLYLINE
  5
2A0
100
AcDbEntity
  8
0
100
AcDbPolyline
 62
7
  6
CONTINUOUS
 90
3
 70
0
 43
0.3500000019
 10
-80.7928574219
 20
-5.0357142639
 10
-81.650000061
 20
-4.1785712891
 10
-78.6499998169
 20
-4.1785712891
  0
LWPOLYLINE
  5
2A1
100
AcDbEntity
  8
RACCORDO
100
AcDbPolyline
 62
250
  6
CONTINUOUS
 90
10
 70
0
 10
-1.7931060705
 20
-67.1388597421
 10
-1.7877907089
 20
-67.1435411411
 10
-1.7828550218
 20
-67.1482204822
 10
-1.7783281169
 20
-67.1528982029
 10
-1.7742368729
 20
-67.1575759859
 10
-1.7706057217
 20
-67.162256796
 10
-1.7674563611
 20
-67.1669448665
 10
-1.7648074547
 20
-67.1716456456
 10
-1.7626744549
 20
-67.1763657376
 10
-1.7610694736
 20
-67.1811128279
  0
LWPOLYLINE
  5
2A2
100
AcDbEntity
  8
RACCORDO
100
AcDbPolyline
 62
250
  6
CONTINUOUS
 90
12
 70
0
 10
-0.2712491017
 20
-68.1645168586
 10
-0.2614427642
 20
-68.17417026
 10
-0.251547475
 20
-68.183278812
 10
-0.2415837736
 20
-68.1918440996
 10
-0.2315501584
 20
-68.1998633336
 10
-0.2214533952
 20
-68.2074179417
 10
-0.2112966521
 20
-68.2145182537
 10
-0.2010920427
 20
-68.221153185
 10
-0.1908573707
 20
-68.2273723345
 10
-0.1806027016
 20
-68.2331923563
 10
-0.1703312208
 20
-68.2385967688
 10
-0.1600495207
 20
-68.2435857524
  0
LWPOLYLINE
  5
2A3
100
AcDbEntity
  8
0
100
AcDbPolyline
 62
7
  6
CONTINUOUS
 90
3
 70
0
 43
0.3500000019
 10
-70.7928571396
 20
0.3214285736
 10
-71.6499999886
 20
1.1785714645
 10
-68.6499999542
 20
1.1785714645
  0
LINE
  5
2A4
100
AcDbEntity
  8
RACCORDO
100
AcDbLine
 62
7
  6
CONTINUOUS
 10
-1.6789386667
 20
67.3421695879
 11
-1.6464867221
 21
67.3853776775
  0
LINE
  5
2A5
100
AcDbEntity
  8
RACCORDO
100
AcDbLine
 62
7
  6
CONTINUOUS
 10
-1.7021370248
 20
67.3117204614
 11
-1.6789386667
 21
67.3421695879
  0
LINE
  5
2A6
100
AcDbEntity
  8
RACCORDO
100
AcDbLine
 62
7
  6
CONTINUOUS
 10
-1.488772994
 20
65.8712618249
 11
-1.7102491885
 21
65.5826284287
  0
LWPOLYLINE
  5
2A7
100
AcDbEntity
  8
RACCORDO
100
AcDbPolyline
 62
250
  6
CONTINUOUS
 90
4
 70
0
 10
-1.7226152207
 20
65.6662006639
 10
-1.7337860379
 20
65.6518335449
 10
-1.7446411596
 20
65.6359765461
 10
-1.7551429498
 20
65.6186026351
  0
LINE
  5
2A8
100
AcDbEntity
  8
RACCORDO
100
AcDbLine
 62
250
  6
CONTINUOUS
 10
1.6752384478
 20
66.7744741415
 11
1.7226152207
 21
66.8337993361
  0
LINE
  5
2A9
100
AcDbEntity
  8
RACCORDO
100
AcDbLine
 62
250
  6
CONTINUOUS
 10
-1.6995757522
 20
65.6949288811
 11
-1.7226152207
 21
65.6662006639
  0
LWPOLYLINE
  5
2AA
100
AcDbEntity
  8
RACCORDO
100
AcDbPolyline
 62
250
  6
CONTINUOUS
 90
3
 70
0
 10
-1.525909226
 20
65.9127353768
 10
-1.6281255893
 20
65.7847629912
 10
-1.6995757522
 20
65.6949288811
  0
LINE
  5
2AB
100
AcDbEntity
  8
RACCORDO
100
AcDbLine
 62
250
  6
CONTINUOUS
 10
1.498807076
 20
66.5538143823
 11
1.6510430927
 21
66.7439627396
  0
LINE
  5
2AC
100
AcDbEntity
  8
RACCORDO
100
AcDbLine
 62
250
  6
CONTINUOUS
 10
-1.498807076
 20
65.9461856177
 11
-1.525909226
 21
65.9127353768
  0
LINE
  5
2AD
100
AcDbEntity
  8
RACCORDO
100
AcDbLine
 62
250
  6
CONTINUOUS
 10
-0.9931225864
 20
65.1258525326
 11
-1.0125145111
 21
65.103902188
  0
LINE
  5
2AE
100
AcDbEntity
  8
RACCORDO
100
AcDbLine
 62
250
  6
CONTINUOUS
 10
0.9931225864
 20
67.3741474673
 11
1.0125145112
 21
67.396097812
  0
LWPOLYLINE
  5
2AF
100
AcDbEntity
  8
RACCORDO
100
AcDbPolyline
 62
250
  6
CONTINUOUS
 90
10
 70
0
 10
-0.272853521
 20
68.1628569191
 10
-0.2825072021
 20
68.1524777787
 10
-0.2919534715
 20
68.1415414563
 10
-0.3011782624
 20
68.1300539328
 10
-0.3100930247
 20
68.1179979305
 10
-0.3186937067
 20
68.1053782319
 10
-0.3269696132
 20
68.0921979535
 10
-0.3348245381
 20
68.0784397616
 10
-0.3422234129
 20
68.0641017978
 10
-0.3491909953
 20
68.0491963117
  0
LWPOLYLINE
  5
2B0
100
AcDbEntity
  8
RACCORDO
100
AcDbPolyline
 62
250
  6
CONTINUOUS
 90
10
 70
0
 10
0.2727437904
 20
64.3370290782
 10
0.2823955718
 20
64.347397895
 10
0.2918449561
 20
64.3583284356
 10
0.3010769976
 20
64.3698143044
 10
0.3100020592
 20
64.3818741863
 10
0.3186165246
 20
64.3945043579
 10
0.3269089074
 20
64.4077007188
 10
0.3347801385
 20
64.4214788841
 10
0.3421941729
 20
64.4358401139
 10
0.3491765847
 20
64.4507727231
  0
LWPOLYLINE
  5
2B1
100
AcDbEntity
  8
0
100
AcDbPolyline
 62
7
  6
CONTINUOUS
 90
10
 70
0
 43
0.3500000019
 10
-89.15
 20
1.8214285278
 10
-89.007142334
 20
1.892857193
 10
-88.9357148438
 20
1.892857193
 10
-88.7928571777
 20
1.7500000305
 10
-88.7928571777
 20
1.6785713654
 10
-88.8642860107
 20
1.607142868
 10
-88.9357148438
 20
1.607142868
 10
-89.078571167
 20
1.6785713654
 10
-89.15
 20
1.7500000305
 10
-89.15
 20
1.8214285278
  0
LWPOLYLINE
  5
2B2
100
AcDbEntity
  8
RACCORDO
100
AcDbPolyline
 62
250
  6
CONTINUOUS
 90
12
 70
0
 10
0.2722643113
 20
-64.3365308524
 10
0.2624622726
 20
-64.3268053532
 10
0.2525365142
 20
-64.3176026998
 10
0.2425018186
 20
-64.3089228376
 10
0.2323609724
 20
-64.3007681575
 10
0.2221486791
 20
-64.2930856263
 10
0.2118741409
 20
-64.2858724668
 10
0.2015438884
 20
-64.2791323843
 10
0.1911872095
 20
-64.2728211566
 10
0.1808182976
 20
-64.2669237926
 10
0.1704369111
 20
-64.2614549221
 10
0.1600499566
 20
-64.2564142833
  0
LINE
  5
2B3
100
AcDbEntity
  8
RACCORDO
100
AcDbLine
 62
250
  6
CONTINUOUS
 10
-0.9931225849
 20
-65.1258525313
 11
-1.0125145111
 21
-65.103902188
  0
LINE
  5
2B4
100
AcDbEntity
  8
RACCORDO
100
AcDbLine
 62
250
  6
CONTINUOUS
 10
0.9931225849
 20
-67.3741474687
 11
1.0125145111
 21
-67.396097812
  0
LINE
  5
2B5
100
AcDbEntity
  8
RACCORDO
100
AcDbLine
 62
250
  6
CONTINUOUS
 10
-1.5251919894
 20
-65.9135587665
 11
-1.498807076
 21
-65.9461856177
  0
LWPOLYLINE
  5
2B6
100
AcDbEntity
  8
RACCORDO
100
AcDbPolyline
 62
7
  6
CONTINUOUS
 90
6
 70
0
 10
-1.6464833138
 20
-67.385382218
 10
-1.6640110939
 20
-67.3636940701
 10
-1.6815524562
 20
-67.3404901833
 10
-1.6991074006
 20
-67.3157705575
 10
-1.7171061575
 20
-67.2894152868
 10
-1.7351184965
 20
-67.2615442772
  0
LINE
  5
2B7
100
AcDbEntity
  8
RACCORDO
100
AcDbLine
 62
250
  6
CONTINUOUS
 10
1.5503933154
 20
-66.6179502097
 11
1.498807076
 21
-66.5538143823
  0
LINE
  5
2B8
100
AcDbEntity
  8
RACCORDO
100
AcDbLine
 62
250
  6
CONTINUOUS
 10
-1.6514243699
 20
-65.7555593367
 11
-1.5251919894
 21
-65.9135587665
  0
LWPOLYLINE
  5
2B9
100
AcDbEntity
  8
RACCORDO
100
AcDbPolyline
 62
250
  6
CONTINUOUS
 90
3
 70
0
 10
-1.7226152207
 20
-65.6662006639
 10
-1.6754850097
 20
-65.7252204639
 10
-1.6514243699
 20
-65.7555593367
  0
LWPOLYLINE
  5
2BA
100
AcDbEntity
  8
RACCORDO
100
AcDbPolyline
 62
250
  6
CONTINUOUS
 90
4
 70
0
 10
1.7226152207
 20
-66.8337993361
 10
1.6752278489
 20
-66.7744605814
 10
1.6510296382
 20
-66.7439459688
 10
1.5503933154
 20
-66.6179502097
  0
LINE
  5
2BB
100
AcDbEntity
  8
RACCORDO
100
AcDbLine
 62
7
  6
CONTINUOUS
 10
-1.7102491885
 20
-65.5826284287
 11
-1.488772994
 21
-65.8712618249
  0
LINE
  5
2BC
100
AcDbEntity
  8
RACCORDO
100
AcDbLine
 62
250
  6
CONTINUOUS
 10
-1.7326959257
 20
-65.6528797187
 11
-1.7226152207
 21
-65.6662006639
  0
LINE
  5
2BD
100
AcDbEntity
  8
RACCORDO
100
AcDbLine
 62
7
  6
CONTINUOUS
 10
-1.7466194637
 20
67.2423756173
 11
-1.7358318427
 21
67.260842084
  0
LINE
  5
2BE
100
AcDbEntity
  8
RACCORDO
100
AcDbLine
 62
250
  6
CONTINUOUS
 10
-1.4930320208
 20
66.5631743218
 11
-1.498807076
 21
66.5538143823
  0
LWPOLYLINE
  5
2BF
100
AcDbEntity
  8
RACCORDO
100
AcDbPolyline
 62
250
  6
CONTINUOUS
 90
10
 70
0
 10
-1.7102492318
 20
65.5826284621
 10
-1.7058844035
 20
65.5896952879
 10
-1.7029243426
 20
65.5976651864
 10
-1.7014187162
 20
65.6064043905
 10
-1.7013927812
 20
65.6157662284
 10
-1.7028469616
 20
65.6255935717
 10
-1.7057568339
 20
65.6357214702
 10
-1.7100735413
 20
65.6459799418
 10
-1.7157246214
 20
65.6561968275
 10
-1.7226152184
 20
65.6662006647
  0
LWPOLYLINE
  5
2C0
100
AcDbEntity
  8
RACCORDO
100
AcDbPolyline
 62
250
  6
CONTINUOUS
 90
10
 70
0
 10
1.710249202
 20
66.9173715607
 10
1.7058843745
 20
66.9103047299
 10
1.7029243143
 20
66.902334827
 10
1.7014186886
 20
66.893595619
 10
1.7013927543
 20
66.8842337778
 10
1.7028469355
 20
66.8744064318
 10
1.705756809
 20
66.8642785308
 10
1.7100735183
 20
66.8540200567
 10
1.7157246011
 20
66.8438031688
 10
1.722615202
 20
66.8337993297
  0
LWPOLYLINE
  5
2C1
100
AcDbEntity
  8
RACCORDO
100
AcDbPolyline
 62
7
  6
CONTINUOUS
 90
4
 70
0
 10
-1.7358318427
 20
67.260842084
 10
-1.724847217
 20
67.2785748953
 10
-1.7136655866
 20
67.2955740514
 10
-1.7021370248
 20
67.3117204614
  0
LWPOLYLINE
  5
2C2
100
AcDbEntity
  8
RACCORDO
100
AcDbPolyline
 62
250
  6
CONTINUOUS
 90
9
 70
0
 10
-1.488772994
 20
65.8712618249
 10
-1.4848396193
 20
65.8775718309
 10
-1.4822232901
 20
65.8845517662
 10
-1.4809286268
 20
65.8921688977
 10
-1.4808513683
 20
65.9004286078
 10
-1.4819750808
 20
65.9092102948
 10
-1.4844248149
 20
65.918275497
 10
-1.4881807921
 20
65.9274916145
 10
-1.4930320011
 20
65.9368256507
  0
LWPOLYLINE
  5
2C3
100
AcDbEntity
  8
RACCORDO
100
AcDbPolyline
 62
250
  6
CONTINUOUS
 90
9
 70
0
 10
1.488772994
 20
66.6287381751
 10
1.4848396132
 20
66.6224281569
 10
1.482223284
 20
66.6154482109
 10
1.4809286248
 20
66.6078310713
 10
1.4808513721
 20
66.5995713565
 10
1.4819750898
 20
66.5907896688
 10
1.4844248272
 20
66.5817244699
 10
1.4881808047
 20
66.5725083594
 10
1.4930320098
 20
66.5631743343
  0
LWPOLYLINE
  5
2C4
100
AcDbEntity
  8
RACCORDO
100
AcDbPolyline
 62
7
  6
CONTINUOUS
 90
5
 70
0
 10
1.6464833027
 20
65.1146177768
 10
1.652877098
 20
65.1234547641
 10
1.6595320448
 20
65.1324856865
 10
1.6664481428
 20
65.1417105441
 10
1.6736709638
 20
65.1510851633
  0
LINE
  5
2C5
100
AcDbEntity
  8
RACCORDO
100
AcDbLine
 62
7
  6
CONTINUOUS
 10
1.488772994
 20
66.6287381751
 11
1.7102491885
 21
66.9173715713
  0
LWPOLYLINE
  5
2C6
100
AcDbEntity
  8
RACCORDO
100
AcDbPolyline
 62
250
  6
CONTINUOUS
 90
4
 70
0
 10
1.7226152207
 20
66.8337993361
 10
1.7336914012
 20
66.8480642359
 10
1.744442531
 20
66.8637451982
 10
1.7548332584
 20
66.8808673073
  0
LWPOLYLINE
  5
2C7
100
AcDbEntity
  8
RACCORDO
100
AcDbPolyline
 62
7
  6
CONTINUOUS
 90
9
 70
0
 10
1.6736709638
 20
65.1510851633
 10
1.6811549362
 20
65.1606537177
 10
1.6887633447
 20
65.1705487283
 10
1.6964951061
 20
65.1807701891
 10
1.7043513036
 20
65.1913181062
 10
1.712198472
 20
65.2023250178
 10
1.7199921229
 20
65.2138351036
 10
1.7277767447
 20
65.2258041841
 10
1.7355523374
 20
65.2382322591
  0
LINE
  5
2C8
100
AcDbEntity
  8
RACCORDO
100
AcDbLine
 62
250
  6
CONTINUOUS
 10
1.6510430927
 20
66.7439627396
 11
1.6752384478
 21
66.7744741415
  0
LWPOLYLINE
  5
2C9
100
AcDbEntity
  8
0
100
AcDbPolyline
 62
7
  6
CONTINUOUS
 90
10
 70
0
 43
0.3500000019
 10
-79.1500003052
 20
1.8214285278
 10
-79.0071426392
 20
1.892857193
 10
-78.9357144775
 20
1.892857193
 10
-78.7928568115
 20
1.7500000305
 10
-78.7928568115
 20
1.6785713654
 10
-78.8642856445
 20
1.607142868
 10
-78.9357144775
 20
1.607142868
 10
-79.0785714722
 20
1.6785713654
 10
-79.1500003052
 20
1.7500000305
 10
-79.1500003052
 20
1.8214285278
  0
LWPOLYLINE
  5
2CA
100
AcDbEntity
  8
RACCORDO
100
AcDbPolyline
 62
7
  6
CONTINUOUS
 90
5
 70
0
 10
1.6737647199
 20
-65.1511973346
 10
1.6665094366
 20
-65.1417808771
 10
1.6595617815
 20
-65.132515899
 10
1.6528778927
 20
-65.1234499882
 10
1.6464577701
 20
-65.1145831447
  0
LINE
  5
2CB
100
AcDbEntity
  8
RACCORDO
100
AcDbLine
 62
7
  6
CONTINUOUS
 10
1.7102491885
 20
-66.9173715713
 11
1.488772994
 21
-66.6287381751
  0
LINE
  5
2CC
100
AcDbEntity
  8
RACCORDO
100
AcDbLine
 62
250
  6
CONTINUOUS
 10
1.7357886037
 20
-66.8514893207
 11
1.7226152207
 21
-66.8337993361
  0
LWPOLYLINE
  5
2CD
100
AcDbEntity
  8
RACCORDO
100
AcDbPolyline
 62
7
  6
CONTINUOUS
 90
6
 70
0
 10
1.7125501809
 20
-65.2028360317
 10
1.7046371301
 20
-65.1917150519
 10
1.6967199745
 20
-65.181071718
 10
1.688934999
 20
-65.1707702151
 10
1.6812837694
 20
-65.1608128594
 10
1.6737647199
 20
-65.1511973346
  0
LWPOLYLINE
  5
2CE
100
AcDbEntity
  8
RACCORDO
100
AcDbPolyline
 62
250
  6
CONTINUOUS
 90
6
 70
0
 10
-0.3178781661
 20
-68.1066005439
 10
-0.309012796
 20
-68.1195098869
 10
-0.299884908
 20
-68.1317273699
 10
-0.2904814883
 20
-68.1432939619
 10
-0.2809237478
 20
-68.1542313043
 10
-0.2712491017
 20
-68.1645168586
  0
LWPOLYLINE
  5
2CF
100
AcDbEntity
  8
RACCORDO
100
AcDbPolyline
 62
250
  6
CONTINUOUS
 90
6
 70
0
 10
0.3182411295
 20
-64.3939366275
 10
0.3095565678
 20
-64.3812492938
 10
0.3005898293
 20
-64.3691804361
 10
0.2913375173
 20
-64.3577205642
 10
0.2818886452
 20
-64.3468346134
 10
0.2722643113
 20
-64.3365308524
  0
LWPOLYLINE
  5
2D0
100
AcDbEntity
  8
RACCORDO
100
AcDbPolyline
 62
250
  6
CONTINUOUS
 90
9
 70
0
 10
-1.4887729939
 20
-65.871261825
 10
-1.4848396121
 20
-65.8775718468
 10
-1.4822232846
 20
-65.884551797
 10
-1.4809286287
 20
-65.8921689411
 10
-1.4808513804
 20
-65.9004286613
 10
-1.4819751029
 20
-65.9092103542
 10
-1.4844248437
 20
-65.9182755546
 10
-1.4881808209
 20
-65.9274916612
 10
-1.4930320208
 20
-65.9368256782
  0
LWPOLYLINE
  5
2D1
100
AcDbEntity
  8
RACCORDO
100
AcDbPolyline
 62
250
  6
CONTINUOUS
 90
9
 70
0
 10
1.4887729939
 20
-66.628738175
 10
1.4848396121
 20
-66.6224281532
 10
1.4822232846
 20
-66.615448203
 10
1.4809286287
 20
-66.6078310589
 10
1.4808513804
 20
-66.5995713387
 10
1.4819751029
 20
-66.5907896458
 10
1.4844248437
 20
-66.5817244454
 10
1.4881808209
 20
-66.5725083388
 10
1.4930320208
 20
-66.5631743218
  0
LWPOLYLINE
  5
2D2
100
AcDbEntity
  8
RACCORDO
100
AcDbPolyline
 62
250
  6
CONTINUOUS
 90
10
 70
0
 10
-1.7102491334
 20
-65.5826283864
 10
-1.7058844254
 20
-65.589695148
 10
-1.7029244377
 20
-65.5976649739
 10
-1.7014188471
 20
-65.6064041084
 10
-1.7013929215
 20
-65.6157658849
 10
-1.7028470962
 20
-65.6255931871
 10
-1.7057569661
 20
-65.6357210859
 10
-1.7100736957
 20
-65.6459796074
 10
-1.7157248387
 20
-65.6561965854
 10
-1.7226155534
 20
-65.6662005511
  0
LWPOLYLINE
  5
2D3
100
AcDbEntity
  8
RACCORDO
100
AcDbPolyline
 62
250
  6
CONTINUOUS
 90
10
 70
0
 10
1.7102491323
 20
-66.9173716144
 10
1.705884426
 20
-66.9103048522
 10
1.7029244399
 20
-66.9023350259
 10
1.7014188507
 20
-66.8935958913
 10
1.7013929263
 20
-66.8842341149
 10
1.702847102
 20
-66.874406813
 10
1.7057569727
 20
-66.8642789146
 10
1.7100737029
 20
-66.8540203938
 10
1.7157248463
 20
-66.8438034164
 10
1.7226155612
 20
-66.8337994515
  0
LINE
  5
2D4
100
AcDbEntity
  8
RACCORDO
100
AcDbLine
 62
250
  6
CONTINUOUS
 10
-1.4930320011
 20
-66.5631743493
 11
-1.498807076
 21
-66.5538143823
  0
LWPOLYLINE
  5
2D5
100
AcDbEntity
  8
RACCORDO
100
AcDbPolyline
 62
7
  6
CONTINUOUS
 90
4
 70
0
 10
-1.7351184965
 20
-67.2615442772
 10
-1.7518537264
 20
-67.2325172462
 10
-1.7668816168
 20
-67.2024540996
 10
-1.7806323982
 20
-67.1712349316
  0
LWPOLYLINE
  5
2D6
100
AcDbEntity
  8
0
100
AcDbPolyline
 62
7
  6
CONTINUOUS
 90
3
 70
0
 43
0.3500000019
 10
1.5714311523
 20
102.6357148438
 10
1.5000009766
 20
102.4214296875
 10
1.357140625
 20
102.1357089844
  0
LINE
  5
2D7
100
AcDbEntity
  8
RACCORDO
100
AcDbLine
 62
250
  6
CONTINUOUS
 10
-0.3491909953
 20
68.0491963117
 11
-0.3557225545
 21
68.0337282101
  0
LWPOLYLINE
  5
2D8
100
AcDbEntity
  8
RACCORDO
100
AcDbPolyline
 62
7
  6
CONTINUOUS
 90
3
 70
0
 10
-1.7944909561
 20
67.1360414846
 10
-1.788359948
 20
67.1504425479
 10
-1.7760983298
 20
67.1803018401
  0
LINE
  5
2D9
100
AcDbEntity
  8
RACCORDO
100
AcDbLine
 62
7
  6
CONTINUOUS
 10
-1.8065115546
 20
67.1082051348
 11
-1.7944909561
 21
67.1360414846
  0
LWPOLYLINE
  5
2DA
100
AcDbEntity
  8
RACCORDO
100
AcDbPolyline
 62
7
  6
CONTINUOUS
 90
4
 70
0
 10
-1.7760983298
 20
67.1803018401
 10
-1.7694840883
 20
67.1955772915
 10
-1.7623057429
 20
67.210991891
 10
-1.7546842014
 20
67.2265913329
  0
LINE
  5
2DB
100
AcDbEntity
  8
RACCORDO
100
AcDbLine
 62
7
  6
CONTINUOUS
 10
-1.7546842014
 20
67.2265913329
 11
-1.7466194637
 21
67.2423756173
  0
LWPOLYLINE
  5
2DC
100
AcDbEntity
  8
RACCORDO
100
AcDbPolyline
 62
250
  6
CONTINUOUS
 90
9
 70
0
 10
-0.416389616
 20
67.7286843207
 10
-0.4198875643
 20
67.7221229012
 10
-0.4246242147
 20
67.71636712
 10
-0.4305735271
 20
67.7114373431
 10
-0.4376880305
 20
67.707240584
 10
-0.4458550608
 20
67.7038229098
 10
-0.4549306251
 20
67.7014118473
 10
-0.4647899962
 20
67.7000565657
 10
-0.4752990919
 20
67.6995908196
  0
LWPOLYLINE
  5
2DD
100
AcDbEntity
  8
RACCORDO
100
AcDbPolyline
 62
250
  6
CONTINUOUS
 90
9
 70
0
 10
0.416389616
 20
64.7713156793
 10
0.4198875643
 20
64.7778770988
 10
0.4246242147
 20
64.78363288
 10
0.4305735271
 20
64.7885626569
 10
0.4376880305
 20
64.792759416
 10
0.4458550608
 20
64.7961770902
 10
0.4549306251
 20
64.7985881527
 10
0.4647899962
 20
64.7999434343
 10
0.4752990919
 20
64.8004091804
  0
LWPOLYLINE
  5
2DE
100
AcDbEntity
  8
RACCORDO
100
AcDbPolyline
 62
250
  6
CONTINUOUS
 90
10
 70
0
 10
-0.2771637943
 20
68.0648050026
 10
-0.2811014368
 20
68.057491675
 10
-0.2865235157
 20
68.0509433387
 10
-0.2933390337
 20
68.0452698928
 10
-0.3014336077
 20
68.0405665535
 10
-0.3106713887
 20
68.0369122556
 10
-0.3208973413
 20
68.0343683283
 10
-0.3319398461
 20
68.032977466
 10
-0.3436135797
 20
68.032763011
 10
-0.3557226248
 20
68.0337285627
  0
LWPOLYLINE
  5
2DF
100
AcDbEntity
  8
RACCORDO
100
AcDbPolyline
 62
250
  6
CONTINUOUS
 90
10
 70
0
 10
0.2771637943
 20
64.4351949974
 10
0.2811014368
 20
64.442508325
 10
0.2865235157
 20
64.4490566613
 10
0.2933390337
 20
64.4547301072
 10
0.3014336077
 20
64.4594334465
 10
0.3106713887
 20
64.4630877444
 10
0.3208973413
 20
64.4656316717
 10
0.3319398461
 20
64.467022534
 10
0.3436135797
 20
64.467236989
 10
0.3557226248
 20
64.4662714373
  0
LINE
  5
2E0
100
AcDbEntity
  8
RACCORDO
100
AcDbLine
 62
250
  6
CONTINUOUS
 10
-1.0177329342
 20
67.386416482
 11
-1.0125145111
 21
67.396097812
  0
LINE
  5
2E1
100
AcDbEntity
  8
RACCORDO
100
AcDbLine
 62
250
  6
CONTINUOUS
 10
1.0177329342
 20
65.113583518
 11
1.0125145111
 21
65.103902188
  0
LWPOLYLINE
  5
2E2
100
AcDbEntity
  8
RACCORDO
100
AcDbPolyline
 62
250
  6
CONTINUOUS
 90
6
 70
0
 10
-1.7551429498
 20
65.6186026351
 10
-1.7654045826
 20
65.5997379011
 10
-1.7752272932
 20
65.5793032526
 10
-1.7840928022
 20
65.5571192052
 10
-1.7920153544
 20
65.5329324277
 10
-1.7988466183
 20
65.5069606747
  0
LWPOLYLINE
  5
2E3
100
AcDbEntity
  8
RACCORDO
100
AcDbPolyline
 62
250
  6
CONTINUOUS
 90
7
 70
0
 10
1.7548332584
 20
66.8808673073
 10
1.7649607257
 20
66.8993804581
 10
1.7746483442
 20
66.9193831951
 10
1.7834361481
 20
66.9411207347
 10
1.7913592016
 20
66.964698961
 10
1.7982560887
 20
66.9900475865
 10
1.8033554377
 20
67.0171229436
  0
LWPOLYLINE
  5
2E4
100
AcDbEntity
  8
RACCORDO
100
AcDbPolyline
 62
7
  6
CONTINUOUS
 90
4
 70
0
 10
1.7355523374
 20
65.2382322591
 10
1.7437312241
 20
65.2526259205
 10
1.7513692962
 20
65.266763113
 10
1.7584665535
 20
65.2806438365
  0
LINE
  5
2E5
100
AcDbEntity
  8
RACCORDO
100
AcDbLine
 62
250
  6
CONTINUOUS
 10
1.4930320208
 20
65.9368256782
 11
1.498807076
 21
65.9461856177
  0
LWPOLYLINE
  5
2E6
100
AcDbEntity
  8
RACCORDO
100
AcDbPolyline
 62
7
  6
CONTINUOUS
 90
4
 70
0
 10
1.7361284205
 20
-65.2392006616
 10
1.728273112
 20
-65.2266014724
 10
1.7204136988
 20
-65.2144799291
 10
1.7125501809
 20
-65.2028360317
  0
LINE
  5
2E7
100
AcDbEntity
  8
RACCORDO
100
AcDbLine
 62
250
  6
CONTINUOUS
 10
1.4930320098
 20
-65.9368256657
 11
1.498807076
 21
-65.9461856177
  0
LINE
  5
2E8
100
AcDbEntity
  8
RACCORDO
100
AcDbLine
 62
250
  6
CONTINUOUS
 10
-1.0177329289
 20
-67.3864164978
 11
-1.0125145111
 21
-67.396097812
  0
LINE
  5
2E9
100
AcDbEntity
  8
RACCORDO
100
AcDbLine
 62
250
  6
CONTINUOUS
 10
1.0177329289
 20
-65.1135835022
 11
1.0125145111
 21
-65.103902188
  0
LWPOLYLINE
  5
2EA
100
AcDbEntity
  8
RACCORDO
100
AcDbPolyline
 62
250
  6
CONTINUOUS
 90
10
 70
0
 10
-0.2771640195
 20
-68.0648050956
 10
-0.2811016563
 20
-68.0574916222
 10
-0.2865237577
 20
-68.0509431769
 10
-0.2933393108
 20
-68.0452696556
 10
-0.3014339227
 20
-68.0405662669
 10
-0.3106717281
 20
-68.0369119416
 10
-0.3208976639
 20
-68.0343680032
 10
-0.3319400933
 20
-68.0329771308
 10
-0.3436136916
 20
-68.0327626493
 10
-0.355722541
 20
-68.0337281421
  0
LWPOLYLINE
  5
2EB
100
AcDbEntity
  8
RACCORDO
100
AcDbPolyline
 62
250
  6
CONTINUOUS
 90
10
 70
0
 10
0.2771642492
 20
-64.4351948092
 10
0.2811018708
 20
-64.4425082773
 10
0.2865239469
 20
-64.4490567264
 10
0.2933394673
 20
-64.4547302606
 10
0.3014340416
 20
-64.4594336707
 10
0.3106718072
 20
-64.4630880254
 10
0.3208977058
 20
-64.4656320004
 10
0.3319401038
 20
-64.4670229147
 10
0.3436136785
 20
-64.467237441
 10
0.355722514
 20
-64.4662719934
  0
LWPOLYLINE
  5
2EC
100
AcDbEntity
  8
RACCORDO
100
AcDbPolyline
 62
250
  6
CONTINUOUS
 90
9
 70
0
 10
-0.416389616
 20
-67.7286843208
 10
-0.4198875616
 20
-67.722122904
 10
-0.4246242076
 20
-67.7163671235
 10
-0.4305735144
 20
-67.7114373459
 10
-0.4376880109
 20
-67.7072405857
 10
-0.4458550344
 20
-67.70382291
 10
-0.4549305957
 20
-67.7014118453
 10
-0.4647899701
 20
-67.700056562
 10
-0.4752990756
 20
-67.6995908163
  0
LWPOLYLINE
  5
2ED
100
AcDbEntity
  8
RACCORDO
100
AcDbPolyline
 62
250
  6
CONTINUOUS
 90
9
 70
0
 10
0.416389616
 20
-64.7713156792
 10
0.4198875616
 20
-64.777877096
 10
0.4246242076
 20
-64.7836328765
 10
0.4305735144
 20
-64.7885626541
 10
0.4376880109
 20
-64.7927594143
 10
0.4458550344
 20
-64.79617709
 10
0.4549305957
 20
-64.7985881547
 10
0.4647899701
 20
-64.799943438
 10
0.4752990756
 20
-64.8004091837
  0
LWPOLYLINE
  5
2EE
100
AcDbEntity
  8
RACCORDO
100
AcDbPolyline
 62
7
  6
CONTINUOUS
 90
6
 70
0
 10
-1.7989596013
 20
-67.1249717161
 10
-1.8004416796
 20
-67.1215596811
 10
-1.8019353847
 20
-67.1181808567
 10
-1.803441974
 20
-67.1148380374
 10
-1.8049601902
 20
-67.1115284287
 10
-1.8064900332
 20
-67.1082520305
  0
LINE
  5
2EF
100
AcDbEntity
  8
RACCORDO
100
AcDbLine
 62
7
  6
CONTINUOUS
 10
-1.7960177537
 20
-67.1318674724
 11
-1.7989596013
 21
-67.1249717161
  0
LWPOLYLINE
  5
2F0
100
AcDbEntity
  8
RACCORDO
100
AcDbPolyline
 62
250
  6
CONTINUOUS
 90
6
 70
0
 10
-0.3557225545
 20
-68.0337282101
 10
-0.3491479644
 20
-68.049319547
 10
-0.3420851914
 20
-68.064400714
 10
-0.3345369271
 20
-68.0789661641
 10
-0.3264475453
 20
-68.0930473136
 10
-0.3178781661
 20
-68.1066005439
  0
LINE
  5
2F1
100
AcDbEntity
  8
RACCORDO
100
AcDbLine
 62
7
  6
CONTINUOUS
 10
-1.7931060705
 20
-67.1388597421
 11
-1.7960177537
 21
-67.1318674724
  0
LINE
  5
2F2
100
AcDbEntity
  8
RACCORDO
100
AcDbLine
 62
7
  6
CONTINUOUS
 10
-20.5
 20
20.0
 11
-20.5
 21
-20.0
  0
LINE
  5
2F3
100
AcDbEntity
  8
RACCORDO
100
AcDbLine
 62
250
  6
CONTINUOUS
 10
-0.4769789731
 20
64.8278568781
 11
-0.4862925649
 21
64.8000878056
  0
LINE
  5
2F4
100
AcDbEntity
  8
RACCORDO
100
AcDbLine
 62
250
  6
CONTINUOUS
 10
0.4769789731
 20
67.6721431219
 11
0.4862925649
 21
67.6999121944
  0
LINE
  5
2F5
100
AcDbEntity
  8
RACCORDO
100
AcDbLine
 62
250
  6
CONTINUOUS
 10
-0.4565424288
 20
67.7766551018
 11
-0.4862925649
 21
67.6999121944
  0
LINE
  5
2F6
100
AcDbEntity
  8
RACCORDO
100
AcDbLine
 62
250
  6
CONTINUOUS
 10
0.4565424288
 20
64.7233448982
 11
0.4862925649
 21
64.8000878056
  0
LWPOLYLINE
  5
2F7
100
AcDbEntity
  8
RACCORDO
100
AcDbPolyline
 62
250
  6
CONTINUOUS
 90
4
 70
0
 10
-0.3557225545
 20
68.0337282101
 10
-0.3834177377
 20
67.963020165
 10
-0.397745062
 20
67.9268065935
 10
-0.4565424288
 20
67.7766551018
  0
LWPOLYLINE
  5
2F8
100
AcDbEntity
  8
RACCORDO
100
AcDbPolyline
 62
250
  6
CONTINUOUS
 90
4
 70
0
 10
0.3557225545
 20
64.4662717899
 10
0.3834177377
 20
64.536979835
 10
0.397745062
 20
64.5731934065
 10
0.4565424288
 20
64.7233448982
  0
LWPOLYLINE
  5
2F9
100
AcDbEntity
  8
RACCORDO
100
AcDbPolyline
 62
7
  6
CONTINUOUS
 90
6
 70
0
 10
1.7818335054
 20
65.3334911023
 10
1.7868464678
 20
65.345913984
 10
1.7917963695
 20
65.3579613012
 10
1.7967645588
 20
65.3696148752
 10
1.8016696873
 20
65.3808928847
 10
1.8065117551
 20
65.3917953298
  0
LINE
  5
2FA
100
AcDbEntity
  8
RACCORDO
100
AcDbLine
 62
7
  6
CONTINUOUS
 10
-0.2771638598
 20
68.0648050297
 11
-0.416389616
 21
67.7286843208
  0
LINE
  5
2FB
100
AcDbEntity
  8
RACCORDO
100
AcDbLine
 62
7
  6
CONTINUOUS
 10
0.2771638598
 20
64.4351949703
 11
0.416389616
 21
64.7713156792
  0
LINE
  5
2FC
100
AcDbEntity
  8
RACCORDO
100
AcDbLine
 62
250
  6
CONTINUOUS
 10
0.3491765847
 20
64.4507727231
 11
0.3557225545
 21
64.4662717899
  0
LWPOLYLINE
  5
2FD
100
AcDbEntity
  8
RACCORDO
100
AcDbPolyline
 62
7
  6
CONTINUOUS
 90
5
 70
0
 10
1.7584665535
 20
65.2806438365
 10
1.7649450931
 20
65.2942896105
 10
1.770882818
 20
65.3076789156
 10
1.7765134372
 20
65.3207471931
 10
1.7818335054
 20
65.3334911023
  0
LINE
  5
2FE
100
AcDbEntity
  8
RACCORDO
100
AcDbLine
 62
7
  6
CONTINUOUS
 10
-20.0
 20
-20.5
 11
20.0
 21
-20.5
  0
LWPOLYLINE
  5
2FF
100
AcDbEntity
  8
0
100
AcDbPolyline
 62
7
  6
CONTINUOUS
 90
3
 70
0
 43
0.3500000019
 10
-88.9357148438
 20
1.892857193
 10
-88.7214283447
 20
1.8214285278
 10
-88.4357143555
 20
1.6785713654
  0
LWPOLYLINE
  5
300
100
AcDbEntity
  8
0
100
AcDbPolyline
 62
7
  6
CONTINUOUS
 90
3
 70
0
 43
0.3500000019
 10
-78.9357144775
 20
1.892857193
 10
-78.7214286499
 20
1.8214285278
 10
-78.4357139893
 20
1.6785713654
  0
LWPOLYLINE
  5
301
100
AcDbEntity
  8
RACCORDO
100
AcDbPolyline
 62
7
  6
CONTINUOUS
 90
6
 70
0
 10
1.8065080523
 20
-65.3917868171
 10
1.8016482945
 20
-65.3808460112
 10
1.7967317196
 20
-65.3695428523
 10
1.7917583276
 20
-65.3578773403
 10
1.7868066108
 20
-65.3458248336
 10
1.781798077
 20
-65.3334099739
  0
LWPOLYLINE
  5
302
100
AcDbEntity
  8
RACCORDO
100
AcDbPolyline
 62
250
  6
CONTINUOUS
 90
6
 70
0
 10
0.3557225545
 20
-64.4662717899
 10
0.3491143619
 20
-64.4506370793
 10
0.3420645938
 20
-64.4355812871
 10
0.3345783054
 20
-64.4211094385
 10
0.3266225904
 20
-64.4072257116
 10
0.3182411295
 20
-64.3939366275
  0
LWPOLYLINE
  5
303
100
AcDbEntity
  8
RACCORDO
100
AcDbPolyline
 62
7
  6
CONTINUOUS
 90
8
 70
0
 10
1.781798077
 20
-65.3334099739
 10
1.7764972493
 20
-65.3207066863
 10
1.7708980329
 20
-65.3077165446
 10
1.7650065227
 20
-65.294437975
 10
1.7586055256
 20
-65.2809401816
 10
1.7516226441
 20
-65.2672462322
 10
1.7441302757
 20
-65.2533330588
 10
1.7361284205
 20
-65.2392006616
  0
LINE
  5
304
100
AcDbEntity
  8
RACCORDO
100
AcDbLine
 62
7
  6
CONTINUOUS
 10
-0.416389616
 20
-67.7286843208
 11
-0.2771638598
 21
-68.0648050297
  0
LINE
  5
305
100
AcDbEntity
  8
RACCORDO
100
AcDbLine
 62
7
  6
CONTINUOUS
 10
0.416389616
 20
-64.7713156792
 11
0.2771638598
 21
-64.4351949703
  0
LWPOLYLINE
  5
306
100
AcDbEntity
  8
RACCORDO
100
AcDbPolyline
 62
250
  6
CONTINUOUS
 90
3
 70
0
 10
-0.4714464077
 20
-67.7384364432
 10
-0.4122381749
 20
-67.8899106463
 10
-0.3693791984
 20
-67.9986656808
  0
LWPOLYLINE
  5
307
100
AcDbEntity
  8
RACCORDO
100
AcDbPolyline
 62
250
  6
CONTINUOUS
 90
3
 70
0
 10
0.4714464077
 20
-64.7615635568
 10
0.4122381749
 20
-64.6100893537
 10
0.3693791984
 20
-64.5013343192
  0
LINE
  5
308
100
AcDbEntity
  8
RACCORDO
100
AcDbLine
 62
250
  6
CONTINUOUS
 10
-0.3693791984
 20
-67.9986656808
 11
-0.3557225545
 21
-68.0337282101
  0
LINE
  5
309
100
AcDbEntity
  8
RACCORDO
100
AcDbLine
 62
250
  6
CONTINUOUS
 10
0.3693791984
 20
-64.5013343192
 11
0.3557225545
 21
-64.4662717899
  0
LINE
  5
30A
100
AcDbEntity
  8
RACCORDO
100
AcDbLine
 62
7
  6
CONTINUOUS
 10
-1.7806323982
 20
-67.1712349316
 11
-1.7931060705
 21
-67.1388597421
  0
LINE
  5
30B
100
AcDbEntity
  8
RACCORDO
100
AcDbLine
 62
250
  6
CONTINUOUS
 10
-0.4862925649
 20
-67.6999121944
 11
-0.4714464077
 21
-67.7384364432
  0
LINE
  5
30C
100
AcDbEntity
  8
RACCORDO
100
AcDbLine
 62
250
  6
CONTINUOUS
 10
0.4862925649
 20
-64.8000878056
 11
0.4714464077
 21
-64.7615635568
  0
LINE
  5
30D
100
AcDbEntity
  8
RACCORDO
100
AcDbLine
 62
250
  6
CONTINUOUS
 10
-0.4769789667
 20
-64.8278568759
 11
-0.4862925635
 21
-64.8000878035
  0
LINE
  5
30E
100
AcDbEntity
  8
RACCORDO
100
AcDbLine
 62
250
  6
CONTINUOUS
 10
0.4769789711
 20
-67.6721431226
 11
0.4862925649
 21
-67.6999121944
  0
LWPOLYLINE
  5
30F
100
AcDbEntity
  8
RACCORDO
100
AcDbPolyline
 62
250
  6
CONTINUOUS
 90
5
 70
0
 10
-1.7988466183
 20
65.5069606747
 10
-1.8038311296
 20
65.4797699457
 10
-1.8066909963
 20
65.4515818802
 10
-1.8076027958
 20
65.4222417417
 10
-1.8065117187
 20
65.3917904347
  0
LWPOLYLINE
  5
310
100
AcDbEntity
  8
RACCORDO
100
AcDbPolyline
 62
250
  6
CONTINUOUS
 90
9
 70
0
 10
1.8002648635
 20
-66.9998846503
 10
1.7959707396
 20
-66.9811448357
 10
1.7906871707
 20
-66.9623162866
 10
1.7843242201
 20
-66.9435216529
 10
1.7768860233
 20
-66.9247708168
 10
1.7683710035
 20
-66.9060904812
 10
1.7586887691
 20
-66.8876262976
 10
1.7478153729
 20
-66.8694357261
 10
1.7357886037
 20
-66.8514893207
  0
LWPOLYLINE
  5
311
100
AcDbEntity
  8
RACCORDO
100
AcDbPolyline
 62
250
  6
CONTINUOUS
 90
13
 70
0
 10
-1.8021202323
 20
-65.4903420744
 10
-1.7995600935
 20
-65.5035179033
 10
-1.7964806507
 20
-65.5168495695
 10
-1.7928789907
 20
-65.530321124
 10
-1.7886973965
 20
-65.5438787763
 10
-1.783934149
 20
-65.5575181862
 10
-1.7785874816
 20
-65.5712266578
 10
-1.7726022585
 20
-65.5849378677
 10
-1.7659826709
 20
-65.5986434155
 10
-1.7587245816
 20
-65.6123356728
 10
-1.7507633589
 20
-65.6259501257
 10
-1.7420792767
 20
-65.6394607424
 10
-1.7326959257
 20
-65.6528797187
  0
LWPOLYLINE
  5
312
100
AcDbEntity
  8
RACCORDO
100
AcDbPolyline
 62
250
  6
CONTINUOUS
 90
9
 70
0
 10
-1.8065116864
 20
67.1082048346
 10
-1.8073491302
 20
67.0966211957
 10
-1.8078062142
 20
67.0848165281
 10
-1.807879017
 20
67.072796876
 10
-1.8075810003
 20
67.060570206
 10
-1.806890928
 20
67.0481408685
 10
-1.8057528351
 20
67.0355104264
 10
-1.8041644292
 20
67.0226773314
 10
-1.8021202323
 20
67.0096579256
  0
LWPOLYLINE
  5
313
100
AcDbEntity
  8
0
100
AcDbPolyline
 62
7
  6
CONTINUOUS
 90
2
 70
0
 43
0.3500000019
 10
-1.0357138672
 20
92.3499951172
 10
-1.0357138672
 20
93.8500019531
  0
LWPOLYLINE
  5
314
100
AcDbEntity
  8
RACCORDO
100
AcDbPolyline
 62
250
  6
CONTINUOUS
 90
7
 70
0
 10
1.8065202048
 20
65.3918131665
 10
1.8076555471
 20
65.4091447545
 10
1.8079299992
 20
65.4267891383
 10
1.8073356547
 20
65.4447274994
 10
1.8058961843
 20
65.4629768794
 10
1.8035721581
 20
65.4814821229
 10
1.8002648635
 20
65.5001153497
  0
LWPOLYLINE
  5
315
100
AcDbEntity
  8
RACCORDO
100
AcDbPolyline
 62
250
  6
CONTINUOUS
 90
4
 70
0
 10
1.8033554377
 20
67.0171229436
 10
1.806348596
 20
67.0458893449
 10
1.8073904864
 20
67.0763384464
 10
1.8063984197
 20
67.1084368131
  0
LWPOLYLINE
  5
316
100
AcDbEntity
  8
0
100
AcDbPolyline
 62
7
  6
CONTINUOUS
 90
4
 70
0
 43
0.3500000019
 10
-91.0071429443
 20
-1.1785714645
 10
-91.6499997559
 20
-1.1785714645
 10
-91.6499997559
 20
0.3214285736
 10
-88.6499995117
 20
-0.5357142754
  0
LWPOLYLINE
  5
317
100
AcDbEntity
  8
0
100
AcDbPolyline
 62
7
  6
CONTINUOUS
 90
2
 70
0
 43
0.3500000019
 10
-68.6499999542
 20
-1.0357143021
 10
-70.1499999924
 20
-1.0357143021
  0
LWPOLYLINE
  5
318
100
AcDbEntity
  8
0
100
AcDbPolyline
 62
7
  6
CONTINUOUS
 90
4
 70
0
 43
0.3500000019
 10
2.5714267578
 20
102.7785751953
 10
2.5714267578
 20
103.6357158203
 10
3.0000024414
 20
104.0642861328
 10
3.6428579102
 20
104.0642861328
  0
LWPOLYLINE
  5
319
100
AcDbEntity
  8
RACCORDO
100
AcDbPolyline
 62
250
  6
CONTINUOUS
 90
7
 70
0
 10
1.8065202048
 20
-67.1081868335
 10
1.8076555471
 20
-67.0908552455
 10
1.8079299992
 20
-67.0732108617
 10
1.8073356547
 20
-67.0552725006
 10
1.8058961843
 20
-67.0370231206
 10
1.8035721581
 20
-67.0185178771
 10
1.8002648635
 20
-66.9998846503
  0
LWPOLYLINE
  5
31A
100
AcDbEntity
  8
RACCORDO
100
AcDbPolyline
 62
250
  6
CONTINUOUS
 90
9
 70
0
 10
-1.8065116864
 20
-65.3917951654
 10
-1.8073491302
 20
-65.4033788043
 10
-1.8078062142
 20
-65.4151834719
 10
-1.807879017
 20
-65.427203124
 10
-1.8075810003
 20
-65.439429794
 10
-1.806890928
 20
-65.4518591315
 10
-1.8057528351
 20
-65.4644895736
 10
-1.8041644292
 20
-65.4773226686
 10
-1.8021202323
 20
-65.4903420744
  0
LWPOLYLINE
  5
31B
100
AcDbEntity
  8
RACCORDO
100
AcDbPolyline
 62
250
  6
CONTINUOUS
 90
4
 70
0
 10
1.8033554377
 20
-65.4828770564
 10
1.806348596
 20
-65.4541106551
 10
1.8073904864
 20
-65.4236615536
 10
1.8063984197
 20
-65.3915631869
  0
LWPOLYLINE
  5
31C
100
AcDbEntity
  8
RACCORDO
100
AcDbPolyline
 62
250
  6
CONTINUOUS
 90
5
 70
0
 10
-1.7988466183
 20
-66.9930393253
 10
-1.8038311296
 20
-67.0202300543
 10
-1.8066909963
 20
-67.0484181198
 10
-1.8076027958
 20
-67.0777582583
 10
-1.8065117187
 20
-67.1082095653
  0
LWPOLYLINE
  5
31D
100
AcDbEntity
  8
RACCORDO
100
AcDbPolyline
 62
250
  6
CONTINUOUS
 90
13
 70
0
 10
-1.8021202323
 20
67.0096579256
 10
-1.7995600935
 20
66.9964820967
 10
-1.7964806507
 20
66.9831504305
 10
-1.7928789907
 20
66.969678876
 10
-1.7886973965
 20
66.9561212237
 10
-1.783934149
 20
66.9424818138
 10
-1.7785874816
 20
66.9287733422
 10
-1.7726022585
 20
66.9150621323
 10
-1.7659826709
 20
66.9013565845
 10
-1.7587245816
 20
66.8876643272
 10
-1.7507633589
 20
66.8740498743
 10
-1.7420792767
 20
66.8605392576
 10
-1.7326959257
 20
66.8471202813
  0
LINE
  5
31E
100
AcDbEntity
  8
RACCORDO
100
AcDbLine
 62
7
  6
CONTINUOUS
 10
20.5
 20
-20.0
 11
20.5
 21
20.0
  0
LINE
  5
31F
100
AcDbEntity
  8
RACCORDO
100
AcDbLine
 62
250
  6
CONTINUOUS
 10
0.4769789731
 20
-64.8278568781
 11
0.4862925649
 21
-64.8000878056
  0
LINE
  5
320
100
AcDbEntity
  8
RACCORDO
100
AcDbLine
 62
250
  6
CONTINUOUS
 10
-0.4769789731
 20
-67.6721431219
 11
-0.4862925649
 21
-67.6999121944
  0
LINE
  5
321
100
AcDbEntity
  8
RACCORDO
100
AcDbLine
 62
7
  6
CONTINUOUS
 10
20.0
 20
20.5
 11
-20.0
 21
20.5
  0
LINE
  5
322
100
AcDbEntity
  8
RACCORDO
100
AcDbLine
 62
250
  6
CONTINUOUS
 10
0.4769789711
 20
64.8278568774
 11
0.4862925649
 21
64.8000878056
  0
LINE
  5
323
100
AcDbEntity
  8
RACCORDO
100
AcDbLine
 62
250
  6
CONTINUOUS
 10
-0.4769789667
 20
67.6721431241
 11
-0.4862925635
 21
67.6999121965
  0
LWPOLYLINE
  5
324
100
AcDbEntity
  8
RACCORDO
100
AcDbPolyline
 62
250
  6
CONTINUOUS
 90
9
 70
0
 10
1.8002648635
 20
65.5001153497
 10
1.7959707396
 20
65.5188551643
 10
1.7906871707
 20
65.5376837134
 10
1.7843242201
 20
65.5564783471
 10
1.7768860233
 20
65.5752291832
 10
1.7683710035
 20
65.5939095188
 10
1.7586887691
 20
65.6123737024
 10
1.7478153729
 20
65.6305642739
 10
1.7357886037
 20
65.6485106793
  0
LINE
  5
325
100
AcDbEntity
  8
RACCORDO
100
AcDbLine
 62
250
  6
CONTINUOUS
 10
-0.4565424288
 20
-64.7233448982
 11
-0.4862925649
 21
-64.8000878056
  0
LINE
  5
326
100
AcDbEntity
  8
RACCORDO
100
AcDbLine
 62
250
  6
CONTINUOUS
 10
0.4565424288
 20
-67.7766551018
 11
0.4862925649
 21
-67.6999121944
  0
LWPOLYLINE
  5
327
100
AcDbEntity
  8
RACCORDO
100
AcDbPolyline
 62
250
  6
CONTINUOUS
 90
4
 70
0
 10
-0.3557225545
 20
-64.4662717899
 10
-0.3834177377
 20
-64.536979835
 10
-0.397745062
 20
-64.5731934065
 10
-0.4565424288
 20
-64.7233448982
  0
LWPOLYLINE
  5
328
100
AcDbEntity
  8
RACCORDO
100
AcDbPolyline
 62
250
  6
CONTINUOUS
 90
4
 70
0
 10
0.3557225545
 20
-68.0337282101
 10
0.3834177377
 20
-67.963020165
 10
0.397745062
 20
-67.9268065935
 10
0.4565424288
 20
-67.7766551018
  0
LWPOLYLINE
  5
329
100
AcDbEntity
  8
RACCORDO
100
AcDbPolyline
 62
7
  6
CONTINUOUS
 90
6
 70
0
 10
1.7818335054
 20
-67.1665088977
 10
1.7868464678
 20
-67.154086016
 10
1.7917963695
 20
-67.1420386988
 10
1.7967645588
 20
-67.1303851248
 10
1.8016696873
 20
-67.1191071153
 10
1.8065117551
 20
-67.1082046702
  0
LINE
  5
32A
100
AcDbEntity
  8
RACCORDO
100
AcDbLine
 62
7
  6
CONTINUOUS
 10
-0.2771638598
 20
-64.4351949703
 11
-0.416389616
 21
-64.7713156792
  0
LINE
  5
32B
100
AcDbEntity
  8
RACCORDO
100
AcDbLine
 62
7
  6
CONTINUOUS
 10
0.2771638598
 20
-68.0648050297
 11
0.416389616
 21
-67.7286843208
  0
LINE
  5
32C
100
AcDbEntity
  8
RACCORDO
100
AcDbLine
 62
250
  6
CONTINUOUS
 10
-0.3491909953
 20
-64.4508036883
 11
-0.3557225545
 21
-64.4662717899
  0
LINE
  5
32D
100
AcDbEntity
  8
RACCORDO
100
AcDbLine
 62
250
  6
CONTINUOUS
 10
0.3491765847
 20
-68.0492272769
 11
0.3557225545
 21
-68.0337282101
  0
LWPOLYLINE
  5
32E
100
AcDbEntity
  8
RACCORDO
100
AcDbPolyline
 62
7
  6
CONTINUOUS
 90
3
 70
0
 10
-1.7944909561
 20
-65.3639585154
 10
-1.788359948
 20
-65.3495574521
 10
-1.7760983298
 20
-65.3196981599
  0
LINE
  5
32F
100
AcDbEntity
  8
RACCORDO
100
AcDbLine
 62
7
  6
CONTINUOUS
 10
-1.8065115546
 20
-65.3917948652
 11
-1.7944909561
 21
-65.3639585154
  0
LWPOLYLINE
  5
330
100
AcDbEntity
  8
RACCORDO
100
AcDbPolyline
 62
7
  6
CONTINUOUS
 90
4
 70
0
 10
-1.7760983298
 20
-65.3196981599
 10
-1.7694840883
 20
-65.3044227085
 10
-1.7623057429
 20
-65.289008109
 10
-1.7546842014
 20
-65.2734086671
  0
LINE
  5
331
100
AcDbEntity
  8
RACCORDO
100
AcDbLine
 62
7
  6
CONTINUOUS
 10
-1.7546842014
 20
-65.2734086671
 11
-1.7466194637
 21
-65.2576243827
  0
LWPOLYLINE
  5
332
100
AcDbEntity
  8
RACCORDO
100
AcDbPolyline
 62
7
  6
CONTINUOUS
 90
6
 70
0
 10
-1.7989596013
 20
65.3750282839
 10
-1.8004416796
 20
65.3784403189
 10
-1.8019353847
 20
65.3818191433
 10
-1.803441974
 20
65.3851619626
 10
-1.8049601902
 20
65.3884715713
 10
-1.8064900332
 20
65.3917479695
  0
LINE
  5
333
100
AcDbEntity
  8
RACCORDO
100
AcDbLine
 62
7
  6
CONTINUOUS
 10
-1.7960177537
 20
65.3681325276
 11
-1.7989596013
 21
65.3750282839
  0
LWPOLYLINE
  5
334
100
AcDbEntity
  8
RACCORDO
100
AcDbPolyline
 62
250
  6
CONTINUOUS
 90
6
 70
0
 10
0.3557225545
 20
68.0337282101
 10
0.3491143619
 20
68.0493629207
 10
0.3420645938
 20
68.0644187129
 10
0.3345783054
 20
68.0788905615
 10
0.3266225904
 20
68.0927742884
 10
0.3182411295
 20
68.1060633725
  0
LWPOLYLINE
  5
335
100
AcDbEntity
  8
RACCORDO
100
AcDbPolyline
 62
250
  6
CONTINUOUS
 90
6
 70
0
 10
-0.3557225545
 20
64.4662717899
 10
-0.3491479644
 20
64.450680453
 10
-0.3420851914
 20
64.435599286
 10
-0.3345369271
 20
64.4210338359
 10
-0.3264475453
 20
64.4069526864
 10
-0.3178781661
 20
64.3933994561
  0
LWPOLYLINE
  5
336
100
AcDbEntity
  8
RACCORDO
100
AcDbPolyline
 62
7
  6
CONTINUOUS
 90
8
 70
0
 10
1.781798077
 20
67.1665900261
 10
1.7764972493
 20
67.1792933137
 10
1.7708980329
 20
67.1922834554
 10
1.7650065227
 20
67.205562025
 10
1.7586055256
 20
67.2190598184
 10
1.7516226441
 20
67.2327537678
 10
1.7441302757
 20
67.2466669412
 10
1.7361284205
 20
67.2607993384
  0
LINE
  5
337
100
AcDbEntity
  8
RACCORDO
100
AcDbLine
 62
7
  6
CONTINUOUS
 10
-1.7931060705
 20
65.3611402579
 11
-1.7960177537
 21
65.3681325276
  0
LINE
  5
338
100
AcDbEntity
  8
RACCORDO
100
AcDbLine
 62
7
  6
CONTINUOUS
 10
-0.416389616
 20
64.7713156792
 11
-0.2771638598
 21
64.4351949703
  0
LINE
  5
339
100
AcDbEntity
  8
RACCORDO
100
AcDbLine
 62
7
  6
CONTINUOUS
 10
0.416389616
 20
67.7286843208
 11
0.2771638598
 21
68.0648050297
  0
LWPOLYLINE
  5
33A
100
AcDbEntity
  8
RACCORDO
100
AcDbPolyline
 62
250
  6
CONTINUOUS
 90
3
 70
0
 10
-0.4714464077
 20
64.7615635568
 10
-0.4122381749
 20
64.6100893537
 10
-0.3693791984
 20
64.5013343192
  0
LWPOLYLINE
  5
33B
100
AcDbEntity
  8
RACCORDO
100
AcDbPolyline
 62
250
  6
CONTINUOUS
 90
3
 70
0
 10
0.4714464077
 20
67.7384364432
 10
0.4122381749
 20
67.8899106463
 10
0.3693791984
 20
67.9986656808
  0
LINE
  5
33C
100
AcDbEntity
  8
RACCORDO
100
AcDbLine
 62
250
  6
CONTINUOUS
 10
-0.3693791984
 20
64.5013343192
 11
-0.3557225545
 21
64.4662717899
  0
LINE
  5
33D
100
AcDbEntity
  8
RACCORDO
100
AcDbLine
 62
250
  6
CONTINUOUS
 10
0.3693791984
 20
67.9986656808
 11
0.3557225545
 21
68.0337282101
  0
LINE
  5
33E
100
AcDbEntity
  8
RACCORDO
100
AcDbLine
 62
7
  6
CONTINUOUS
 10
-1.7806323982
 20
65.3287650684
 11
-1.7931060705
 21
65.3611402579
  0
LINE
  5
33F
100
AcDbEntity
  8
RACCORDO
100
AcDbLine
 62
250
  6
CONTINUOUS
 10
-0.4862925649
 20
64.8000878056
 11
-0.4714464077
 21
64.7615635568
  0
LINE
  5
340
100
AcDbEntity
  8
RACCORDO
100
AcDbLine
 62
250
  6
CONTINUOUS
 10
0.4862925649
 20
67.6999121944
 11
0.4714464077
 21
67.7384364432
  0
LWPOLYLINE
  5
341
100
AcDbEntity
  8
RACCORDO
100
AcDbPolyline
 62
7
  6
CONTINUOUS
 90
5
 70
0
 10
1.7584665535
 20
-67.2193561635
 10
1.7649450931
 20
-67.2057103895
 10
1.770882818
 20
-67.1923210844
 10
1.7765134372
 20
-67.1792528069
 10
1.7818335054
 20
-67.1665088977
  0
LWPOLYLINE
  5
342
100
AcDbEntity
  8
RACCORDO
100
AcDbPolyline
 62
250
  6
CONTINUOUS
 90
9
 70
0
 10
-0.416389616
 20
-64.7713156793
 10
-0.4198875643
 20
-64.7778770988
 10
-0.4246242147
 20
-64.78363288
 10
-0.4305735271
 20
-64.7885626569
 10
-0.4376880305
 20
-64.792759416
 10
-0.4458550608
 20
-64.7961770902
 10
-0.4549306251
 20
-64.7985881527
 10
-0.4647899962
 20
-64.7999434343
 10
-0.4752990919
 20
-64.8004091804
  0
LWPOLYLINE
  5
343
100
AcDbEntity
  8
RACCORDO
100
AcDbPolyline
 62
250
  6
CONTINUOUS
 90
9
 70
0
 10
0.416389616
 20
-67.7286843207
 10
0.4198875643
 20
-67.7221229012
 10
0.4246242147
 20
-67.71636712
 10
0.4305735271
 20
-67.7114373431
 10
0.4376880305
 20
-67.707240584
 10
0.4458550608
 20
-67.7038229098
 10
0.4549306251
 20
-67.7014118473
 10
0.4647899962
 20
-67.7000565657
 10
0.4752990919
 20
-67.6995908196
  0
LWPOLYLINE
  5
344
100
AcDbEntity
  8
RACCORDO
100
AcDbPolyline
 62
250
  6
CONTINUOUS
 90
10
 70
0
 10
-0.2771637943
 20
-64.4351949974
 10
-0.2811014368
 20
-64.442508325
 10
-0.2865235157
 20
-64.4490566613
 10
-0.2933390337
 20
-64.4547301072
 10
-0.3014336077
 20
-64.4594334465
 10
-0.3106713887
 20
-64.4630877444
 10
-0.3208973413
 20
-64.4656316717
 10
-0.3319398461
 20
-64.467022534
 10
-0.3436135797
 20
-64.467236989
 10
-0.3557226248
 20
-64.4662714373
  0
LWPOLYLINE
  5
345
100
AcDbEntity
  8
RACCORDO
100
AcDbPolyline
 62
250
  6
CONTINUOUS
 90
10
 70
0
 10
0.2771637943
 20
-68.0648050026
 10
0.2811014368
 20
-68.057491675
 10
0.2865235157
 20
-68.0509433387
 10
0.2933390337
 20
-68.0452698928
 10
0.3014336077
 20
-68.0405665535
 10
0.3106713887
 20
-68.0369122556
 10
0.3208973413
 20
-68.0343683283
 10
0.3319398461
 20
-68.032977466
 10
0.3436135797
 20
-68.032763011
 10
0.3557226248
 20
-68.0337285627
  0
LINE
  5
346
100
AcDbEntity
  8
RACCORDO
100
AcDbLine
 62
250
  6
CONTINUOUS
 10
-1.0177329342
 20
-65.113583518
 11
-1.0125145111
 21
-65.103902188
  0
LINE
  5
347
100
AcDbEntity
  8
RACCORDO
100
AcDbLine
 62
250
  6
CONTINUOUS
 10
1.0177329342
 20
-67.386416482
 11
1.0125145111
 21
-67.396097812
  0
LWPOLYLINE
  5
348
100
AcDbEntity
  8
RACCORDO
100
AcDbPolyline
 62
250
  6
CONTINUOUS
 90
6
 70
0
 10
-1.7551429498
 20
-66.8813973649
 10
-1.7654045826
 20
-66.9002620989
 10
-1.7752272932
 20
-66.9206967474
 10
-1.7840928022
 20
-66.9428807948
 10
-1.7920153544
 20
-66.9670675723
 10
-1.7988466183
 20
-66.9930393253
  0
LWPOLYLINE
  5
349
100
AcDbEntity
  8
RACCORDO
100
AcDbPolyline
 62
250
  6
CONTINUOUS
 90
7
 70
0
 10
1.7548332584
 20
-65.6191326927
 10
1.7649607257
 20
-65.6006195419
 10
1.7746483442
 20
-65.5806168049
 10
1.7834361481
 20
-65.5588792653
 10
1.7913592016
 20
-65.535301039
 10
1.7982560887
 20
-65.5099524135
 10
1.8033554377
 20
-65.4828770564
  0
LWPOLYLINE
  5
34A
100
AcDbEntity
  8
RACCORDO
100
AcDbPolyline
 62
7
  6
CONTINUOUS
 90
4
 70
0
 10
1.7355523374
 20
-67.2617677409
 10
1.7437312241
 20
-67.2473740795
 10
1.7513692962
 20
-67.233236887
 10
1.7584665535
 20
-67.2193561635
  0
LINE
  5
34B
100
AcDbEntity
  8
RACCORDO
100
AcDbLine
 62
7
  6
CONTINUOUS
 10
-1.7466194637
 20
-65.2576243827
 11
-1.7358318427
 21
-65.239157916
  0
LINE
  5
34C
100
AcDbEntity
  8
RACCORDO
100
AcDbLine
 62
250
  6
CONTINUOUS
 10
-1.4930320208
 20
-65.9368256782
 11
-1.498807076
 21
-65.9461856177
  0
LWPOLYLINE
  5
34D
100
AcDbEntity
  8
RACCORDO
100
AcDbPolyline
 62
250
  6
CONTINUOUS
 90
10
 70
0
 10
-1.7102492318
 20
-66.9173715379
 10
-1.7058844035
 20
-66.9103047121
 10
-1.7029243426
 20
-66.9023348136
 10
-1.7014187162
 20
-66.8935956095
 10
-1.7013927812
 20
-66.8842337716
 10
-1.7028469616
 20
-66.8744064283
 10
-1.7057568339
 20
-66.8642785298
 10
-1.7100735413
 20
-66.8540200582
 10
-1.7157246214
 20
-66.8438031725
 10
-1.7226152184
 20
-66.8337993353
  0
LWPOLYLINE
  5
34E
100
AcDbEntity
  8
RACCORDO
100
AcDbPolyline
 62
7
  6
CONTINUOUS
 90
4
 70
0
 10
-1.7358318427
 20
-65.239157916
 10
-1.724847217
 20
-65.2214251047
 10
-1.7136655866
 20
-65.2044259486
 10
-1.7021370248
 20
-65.1882795386
  0
LWPOLYLINE
  5
34F
100
AcDbEntity
  8
RACCORDO
100
AcDbPolyline
 62
250
  6
CONTINUOUS
 90
9
 70
0
 10
-1.488772994
 20
-66.6287381751
 10
-1.4848396193
 20
-66.6224281691
 10
-1.4822232901
 20
-66.6154482338
 10
-1.4809286268
 20
-66.6078311023
 10
-1.4808513683
 20
-66.5995713922
 10
-1.4819750808
 20
-66.5907897052
 10
-1.4844248149
 20
-66.581724503
 10
-1.4881807921
 20
-66.5725083855
 10
-1.4930320011
 20
-66.5631743493
  0
LWPOLYLINE
  5
350
100
AcDbEntity
  8
RACCORDO
100
AcDbPolyline
 62
250
  6
CONTINUOUS
 90
9
 70
0
 10
-1.4887729939
 20
66.628738175
 10
-1.4848396121
 20
66.6224281532
 10
-1.4822232846
 20
66.615448203
 10
-1.4809286287
 20
66.6078310589
 10
-1.4808513804
 20
66.5995713387
 10
-1.4819751029
 20
66.5907896458
 10
-1.4844248437
 20
66.5817244454
 10
-1.4881808209
 20
66.5725083388
 10
-1.4930320208
 20
66.5631743218
  0
LWPOLYLINE
  5
351
100
AcDbEntity
  8
RACCORDO
100
AcDbPolyline
 62
250
  6
CONTINUOUS
 90
10
 70
0
 10
-1.7102491334
 20
66.9173716136
 10
-1.7058844254
 20
66.910304852
 10
-1.7029244377
 20
66.9023350261
 10
-1.7014188471
 20
66.8935958916
 10
-1.7013929215
 20
66.8842341151
 10
-1.7028470962
 20
66.8744068129
 10
-1.7057569661
 20
66.8642789141
 10
-1.7100736957
 20
66.8540203926
 10
-1.7157248387
 20
66.8438034146
 10
-1.7226155534
 20
66.8337994489
  0
LINE
  5
352
100
AcDbEntity
  8
RACCORDO
100
AcDbLine
 62
250
  6
CONTINUOUS
 10
-1.4930320011
 20
65.9368256507
 11
-1.498807076
 21
65.9461856177
  0
LWPOLYLINE
  5
353
100
AcDbEntity
  8
RACCORDO
100
AcDbPolyline
 62
7
  6
CONTINUOUS
 90
4
 70
0
 10
-1.7351184965
 20
65.2384557228
 10
-1.7518537264
 20
65.2674827538
 10
-1.7668816168
 20
65.2975459004
 10
-1.7806323982
 20
65.3287650684
  0
LINE
  5
354
100
AcDbEntity
  8
RACCORDO
100
AcDbLine
 62
250
  6
CONTINUOUS
 10
-1.0177329289
 20
65.1135835022
 11
-1.0125145111
 21
65.103902188
  0
LINE
  5
355
100
AcDbEntity
  8
RACCORDO
100
AcDbLine
 62
250
  6
CONTINUOUS
 10
1.0177329289
 20
67.3864164978
 11
1.0125145111
 21
67.396097812
  0
LWPOLYLINE
  5
356
100
AcDbEntity
  8
RACCORDO
100
AcDbPolyline
 62
250
  6
CONTINUOUS
 90
10
 70
0
 10
-0.2771640195
 20
64.4351949044
 10
-0.2811016563
 20
64.4425083778
 10
-0.2865237577
 20
64.4490568231
 10
-0.2933393108
 20
64.4547303444
 10
-0.3014339227
 20
64.4594337331
 10
-0.3106717281
 20
64.4630880584
 10
-0.3208976639
 20
64.4656319968
 10
-0.3319400933
 20
64.4670228692
 10
-0.3436136916
 20
64.4672373507
 10
-0.355722541
 20
64.466271858
  0
LWPOLYLINE
  5
357
100
AcDbEntity
  8
RACCORDO
100
AcDbPolyline
 62
250
  6
CONTINUOUS
 90
10
 70
0
 10
0.2771642492
 20
68.0648051908
 10
0.2811018708
 20
68.0574917227
 10
0.2865239469
 20
68.0509432736
 10
0.2933394673
 20
68.0452697394
 10
0.3014340416
 20
68.0405663293
 10
0.3106718072
 20
68.0369119746
 10
0.3208977058
 20
68.0343679996
 10
0.3319401038
 20
68.0329770853
 10
0.3436136785
 20
68.032762559
 10
0.355722514
 20
68.0337280066
  0
LWPOLYLINE
  5
358
100
AcDbEntity
  8
RACCORDO
100
AcDbPolyline
 62
250
  6
CONTINUOUS
 90
9
 70
0
 10
-0.416389616
 20
64.7713156792
 10
-0.4198875616
 20
64.777877096
 10
-0.4246242076
 20
64.7836328765
 10
-0.4305735144
 20
64.7885626541
 10
-0.4376880109
 20
64.7927594143
 10
-0.4458550344
 20
64.79617709
 10
-0.4549305957
 20
64.7985881547
 10
-0.4647899701
 20
64.799943438
 10
-0.4752990756
 20
64.8004091837
  0
LWPOLYLINE
  5
359
100
AcDbEntity
  8
RACCORDO
100
AcDbPolyline
 62
250
  6
CONTINUOUS
 90
9
 70
0
 10
0.416389616
 20
67.7286843208
 10
0.4198875616
 20
67.722122904
 10
0.4246242076
 20
67.7163671235
 10
0.4305735144
 20
67.7114373459
 10
0.4376880109
 20
67.7072405857
 10
0.4458550344
 20
67.70382291
 10
0.4549305957
 20
67.7014118453
 10
0.4647899701
 20
67.700056562
 10
0.4752990756
 20
67.6995908163
  0
LWPOLYLINE
  5
35A
100
AcDbEntity
  8
RACCORDO
100
AcDbPolyline
 62
7
  6
CONTINUOUS
 90
6
 70
0
 10
1.8065080523
 20
67.1082131829
 10
1.8016482945
 20
67.1191539888
 10
1.7967317196
 20
67.1304571477
 10
1.7917583276
 20
67.1421226597
 10
1.7868066108
 20
67.1541751664
 10
1.781798077
 20
67.1665900261
  0
LINE
  5
35B
100
AcDbEntity
  8
RACCORDO
100
AcDbLine
 62
250
  6
CONTINUOUS
 10
1.4930320208
 20
-66.5631743218
 11
1.498807076
 21
-66.5538143823
  0
LWPOLYLINE
  5
35C
100
AcDbEntity
  8
RACCORDO
100
AcDbPolyline
 62
250
  6
CONTINUOUS
 90
10
 70
0
 10
1.710249202
 20
-65.5826284393
 10
1.7058843745
 20
-65.5896952701
 10
1.7029243143
 20
-65.597665173
 10
1.7014186886
 20
-65.606404381
 10
1.7013927543
 20
-65.6157662222
 10
1.7028469355
 20
-65.6255935682
 10
1.705756809
 20
-65.6357214692
 10
1.7100735183
 20
-65.6459799433
 10
1.7157246011
 20
-65.6561968312
 10
1.722615202
 20
-65.6662006703
  0
LWPOLYLINE
  5
35D
100
AcDbEntity
  8
RACCORDO
100
AcDbPolyline
 62
250
  6
CONTINUOUS
 90
9
 70
0
 10
1.488772994
 20
-65.8712618249
 10
1.4848396132
 20
-65.8775718431
 10
1.482223284
 20
-65.8845517891
 10
1.4809286248
 20
-65.8921689287
 10
1.4808513721
 20
-65.9004286435
 10
1.4819750898
 20
-65.9092103312
 10
1.4844248272
 20
-65.9182755301
 10
1.4881808047
 20
-65.9274916406
 10
1.4930320098
 20
-65.9368256657
  0
LWPOLYLINE
  5
35E
100
AcDbEntity
  8
RACCORDO
100
AcDbPolyline
 62
7
  6
CONTINUOUS
 90
5
 70
0
 10
1.6464833027
 20
-67.3853822232
 10
1.652877098
 20
-67.3765452359
 10
1.6595320448
 20
-67.3675143135
 10
1.6664481428
 20
-67.3582894559
 10
1.6736709638
 20
-67.3489148367
  0
LINE
  5
35F
100
AcDbEntity
  8
RACCORDO
100
AcDbLine
 62
7
  6
CONTINUOUS
 10
-1.6789386667
 20
-65.1578304121
 11
-1.6464867221
 21
-65.1146223225
  0
LINE
  5
360
100
AcDbEntity
  8
RACCORDO
100
AcDbLine
 62
7
  6
CONTINUOUS
 10
-1.7021370248
 20
-65.1882795386
 11
-1.6789386667
 21
-65.1578304121
  0
LINE
  5
361
100
AcDbEntity
  8
RACCORDO
100
AcDbLine
 62
7
  6
CONTINUOUS
 10
-1.488772994
 20
-66.6287381751
 11
-1.7102491885
 21
-66.9173715713
  0
LINE
  5
362
100
AcDbEntity
  8
RACCORDO
100
AcDbLine
 62
7
  6
CONTINUOUS
 10
1.488772994
 20
-65.8712618249
 11
1.7102491885
 21
-65.5826284287
  0
LWPOLYLINE
  5
363
100
AcDbEntity
  8
RACCORDO
100
AcDbPolyline
 62
250
  6
CONTINUOUS
 90
4
 70
0
 10
1.7226152207
 20
-65.6662006639
 10
1.7336914012
 20
-65.6519357641
 10
1.744442531
 20
-65.6362548018
 10
1.7548332584
 20
-65.6191326927
  0
LWPOLYLINE
  5
364
100
AcDbEntity
  8
RACCORDO
100
AcDbPolyline
 62
250
  6
CONTINUOUS
 90
4
 70
0
 10
-1.7226152207
 20
-66.8337993361
 10
-1.7337860379
 20
-66.8481664551
 10
-1.7446411596
 20
-66.8640234539
 10
-1.7551429498
 20
-66.8813973649
  0
LWPOLYLINE
  5
365
100
AcDbEntity
  8
RACCORDO
100
AcDbPolyline
 62
250
  6
CONTINUOUS
 90
3
 70
0
 10
-1.525909226
 20
-66.5872646232
 10
-1.6281255893
 20
-66.7152370088
 10
-1.6995757522
 20
-66.8050711189
  0
LINE
  5
366
100
AcDbEntity
  8
RACCORDO
100
AcDbLine
 62
250
  6
CONTINUOUS
 10
-1.6995757522
 20
-66.8050711189
 11
-1.7226152207
 21
-66.8337993361
  0
LINE
  5
367
100
AcDbEntity
  8
RACCORDO
100
AcDbLine
 62
250
  6
CONTINUOUS
 10
-1.498807076
 20
-66.5538143823
 11
-1.525909226
 21
-66.5872646232
  0
LINE
  5
368
100
AcDbEntity
  8
RACCORDO
100
AcDbLine
 62
250
  6
CONTINUOUS
 10
-1.5251919894
 20
66.5864412335
 11
-1.498807076
 21
66.5538143823
  0
LWPOLYLINE
  5
369
100
AcDbEntity
  8
RACCORDO
100
AcDbPolyline
 62
7
  6
CONTINUOUS
 90
6
 70
0
 10
-1.6464833138
 20
65.114617782
 10
-1.6640110939
 20
65.1363059299
 10
-1.6815524562
 20
65.1595098167
 10
-1.6991074006
 20
65.1842294425
 10
-1.7171061575
 20
65.2105847132
 10
-1.7351184965
 20
65.2384557228
  0
LINE
  5
36A
100
AcDbEntity
  8
RACCORDO
100
AcDbLine
 62
250
  6
CONTINUOUS
 10
-1.6514243699
 20
66.7444406633
 11
-1.5251919894
 21
66.5864412335
  0
LWPOLYLINE
  5
36B
100
AcDbEntity
  8
RACCORDO
100
AcDbPolyline
 62
250
  6
CONTINUOUS
 90
3
 70
0
 10
-1.7226152207
 20
66.8337993361
 10
-1.6754850097
 20
66.7747795361
 10
-1.6514243699
 20
66.7444406633
  0
LINE
  5
36C
100
AcDbEntity
  8
RACCORDO
100
AcDbLine
 62
7
  6
CONTINUOUS
 10
-1.7102491885
 20
66.9173715713
 11
-1.488772994
 21
66.6287381751
  0
LINE
  5
36D
100
AcDbEntity
  8
RACCORDO
100
AcDbLine
 62
7
  6
CONTINUOUS
 10
1.7102491885
 20
65.5826284287
 11
1.488772994
 21
65.8712618249
  0
LINE
  5
36E
100
AcDbEntity
  8
RACCORDO
100
AcDbLine
 62
250
  6
CONTINUOUS
 10
-1.7326959257
 20
66.8471202813
 11
-1.7226152207
 21
66.8337993361
  0
LINE
  5
36F
100
AcDbEntity
  8
RACCORDO
100
AcDbLine
 62
250
  6
CONTINUOUS
 10
1.7357886037
 20
65.6485106793
 11
1.7226152207
 21
65.6662006639
  0
LWPOLYLINE
  5
370
100
AcDbEntity
  8
RACCORDO
100
AcDbPolyline
 62
7
  6
CONTINUOUS
 90
6
 70
0
 10
1.7125501809
 20
67.2971639683
 10
1.7046371301
 20
67.3082849481
 10
1.6967199745
 20
67.318928282
 10
1.688934999
 20
67.3292297849
 10
1.6812837694
 20
67.3391871406
 10
1.6737647199
 20
67.3488026654
  0
LWPOLYLINE
  5
371
100
AcDbEntity
  8
RACCORDO
100
AcDbPolyline
 62
250
  6
CONTINUOUS
 90
6
 70
0
 10
-0.3178781661
 20
64.3933994561
 10
-0.309012796
 20
64.3804901131
 10
-0.299884908
 20
64.3682726301
 10
-0.2904814883
 20
64.3567060381
 10
-0.2809237478
 20
64.3457686957
 10
-0.2712491017
 20
64.3354831414
  0
LWPOLYLINE
  5
372
100
AcDbEntity
  8
RACCORDO
100
AcDbPolyline
 62
250
  6
CONTINUOUS
 90
6
 70
0
 10
0.3182411295
 20
68.1060633725
 10
0.3095565678
 20
68.1187507062
 10
0.3005898293
 20
68.1308195639
 10
0.2913375173
 20
68.1422794358
 10
0.2818886452
 20
68.1531653866
 10
0.2722643113
 20
68.1634691476
  0
LWPOLYLINE
  5
373
100
AcDbEntity
  8
RACCORDO
100
AcDbPolyline
 62
250
  6
CONTINUOUS
 90
9
 70
0
 10
1.4887729939
 20
65.871261825
 10
1.4848396121
 20
65.8775718468
 10
1.4822232846
 20
65.884551797
 10
1.4809286287
 20
65.8921689411
 10
1.4808513804
 20
65.9004286613
 10
1.4819751029
 20
65.9092103542
 10
1.4844248437
 20
65.9182755546
 10
1.4881808209
 20
65.9274916612
 10
1.4930320208
 20
65.9368256782
  0
LWPOLYLINE
  5
374
100
AcDbEntity
  8
RACCORDO
100
AcDbPolyline
 62
7
  6
CONTINUOUS
 90
4
 70
0
 10
1.7361284205
 20
67.2607993384
 10
1.728273112
 20
67.2733985276
 10
1.7204136988
 20
67.2855200709
 10
1.7125501809
 20
67.2971639683
  0
LWPOLYLINE
  5
375
100
AcDbEntity
  8
RACCORDO
100
AcDbPolyline
 62
250
  6
CONTINUOUS
 90
10
 70
0
 10
1.7102491323
 20
65.5826283856
 10
1.705884426
 20
65.5896951478
 10
1.7029244399
 20
65.5976649741
 10
1.7014188507
 20
65.6064041087
 10
1.7013929263
 20
65.6157658851
 10
1.702847102
 20
65.625593187
 10
1.7057569727
 20
65.6357210854
 10
1.7100737029
 20
65.6459796062
 10
1.7157248463
 20
65.6561965836
 10
1.7226155612
 20
65.6662005485
  0
LINE
  5
376
100
AcDbEntity
  8
RACCORDO
100
AcDbLine
 62
250
  6
CONTINUOUS
 10
1.4930320098
 20
66.5631743343
 11
1.498807076
 21
66.5538143823
  0
LWPOLYLINE
  5
377
100
AcDbEntity
  8
RACCORDO
100
AcDbPolyline
 62
7
  6
CONTINUOUS
 90
9
 70
0
 10
1.6736709638
 20
-67.3489148367
 10
1.6811549362
 20
-67.3393462823
 10
1.6887633447
 20
-67.3294512717
 10
1.6964951061
 20
-67.3192298109
 10
1.7043513036
 20
-67.3086818938
 10
1.712198472
 20
-67.2976749822
 10
1.7199921229
 20
-67.2861648964
 10
1.7277767447
 20
-67.2741958159
 10
1.7355523374
 20
-67.2617677409
  0
LINE
  5
378
100
AcDbEntity
  8
RACCORDO
100
AcDbLine
 62
250
  6
CONTINUOUS
 10
1.6263233671
 20
-65.7870534087
 11
1.6990785015
 21
-65.6955589291
  0
LINE
  5
379
100
AcDbEntity
  8
RACCORDO
100
AcDbLine
 62
250
  6
CONTINUOUS
 10
1.6990785015
 20
-65.6955589291
 11
1.7226152207
 21
-65.6662006639
  0
LINE
  5
37A
100
AcDbEntity
  8
RACCORDO
100
AcDbLine
 62
250
  6
CONTINUOUS
 10
1.498807076
 20
-65.9461856177
 11
1.6263233671
 21
-65.7870534087
  0
LINE
  5
37B
100
AcDbEntity
  8
RACCORDO
100
AcDbLine
 62
250
  6
CONTINUOUS
 10
0.9931225864
 20
-65.1258525327
 11
1.0125145112
 21
-65.103902188
  0
LINE
  5
37C
100
AcDbEntity
  8
RACCORDO
100
AcDbLine
 62
250
  6
CONTINUOUS
 10
-0.9931225864
 20
-67.3741474674
 11
-1.0125145111
 21
-67.396097812
  0
LWPOLYLINE
  5
37D
100
AcDbEntity
  8
RACCORDO
100
AcDbPolyline
 62
250
  6
CONTINUOUS
 90
10
 70
0
 10
-0.272853521
 20
-64.3371430809
 10
-0.2825072021
 20
-64.3475222213
 10
-0.2919534715
 20
-64.3584585437
 10
-0.3011782624
 20
-64.3699460672
 10
-0.3100930247
 20
-64.3820020695
 10
-0.3186937067
 20
-64.3946217681
 10
-0.3269696132
 20
-64.4078020465
 10
-0.3348245381
 20
-64.4215602384
 10
-0.3422234129
 20
-64.4358982022
 10
-0.3491909953
 20
-64.4508036883
  0
LWPOLYLINE
  5
37E
100
AcDbEntity
  8
RACCORDO
100
AcDbPolyline
 62
250
  6
CONTINUOUS
 90
10
 70
0
 10
0.2727437904
 20
-68.1629709218
 10
0.2823955718
 20
-68.152602105
 10
0.2918449561
 20
-68.1416715644
 10
0.3010769976
 20
-68.1301856956
 10
0.3100020592
 20
-68.1181258137
 10
0.3186165246
 20
-68.1054956421
 10
0.3269089074
 20
-68.0922992812
 10
0.3347801385
 20
-68.0785211159
 10
0.3421941729
 20
-68.0641598861
 10
0.3491765847
 20
-68.0492272769
  0
LWPOLYLINE
  5
37F
100
AcDbEntity
  8
RACCORDO
100
AcDbPolyline
 62
250
  6
CONTINUOUS
 90
10
 70
0
 10
-1.7931060705
 20
65.3611402579
 10
-1.7877907089
 20
65.3564588589
 10
-1.7828550218
 20
65.3517795178
 10
-1.7783281169
 20
65.3471017971
 10
-1.7742368729
 20
65.3424240141
 10
-1.7706057217
 20
65.337743204
 10
-1.7674563611
 20
65.3330551335
 10
-1.7648074547
 20
65.3283543544
 10
-1.7626744549
 20
65.3236342624
 10
-1.7610694736
 20
65.3188871721
  0
LWPOLYLINE
  5
380
100
AcDbEntity
  8
RACCORDO
100
AcDbPolyline
 62
250
  6
CONTINUOUS
 90
12
 70
0
 10
-0.2712491017
 20
64.3354831414
 10
-0.2614427642
 20
64.32582974
 10
-0.251547475
 20
64.316721188
 10
-0.2415837736
 20
64.3081559004
 10
-0.2315501584
 20
64.3001366664
 10
-0.2214533952
 20
64.2925820583
 10
-0.2112966521
 20
64.2854817463
 10
-0.2010920427
 20
64.278846815
 10
-0.1908573707
 20
64.2726276655
 10
-0.1806027016
 20
64.2668076437
 10
-0.1703312208
 20
64.2614032312
 10
-0.1600495207
 20
64.2564142476
  0
LWPOLYLINE
  5
381
100
AcDbEntity
  8
RACCORDO
100
AcDbPolyline
 62
250
  6
CONTINUOUS
 90
12
 70
0
 10
0.2722643113
 20
68.1634691476
 10
0.2624622726
 20
68.1731946468
 10
0.2525365142
 20
68.1823973002
 10
0.2425018186
 20
68.1910771624
 10
0.2323609724
 20
68.1992318425
 10
0.2221486791
 20
68.2069143737
 10
0.2118741409
 20
68.2141275332
 10
0.2015438884
 20
68.2208676157
 10
0.1911872095
 20
68.2271788434
 10
0.1808182976
 20
68.2330762074
 10
0.1704369111
 20
68.2385450779
 10
0.1600499566
 20
68.2435857167
  0
LINE
  5
382
100
AcDbEntity
  8
RACCORDO
100
AcDbLine
 62
250
  6
CONTINUOUS
 10
0.9931225849
 20
65.1258525313
 11
1.0125145111
 21
65.103902188
  0
LINE
  5
383
100
AcDbEntity
  8
RACCORDO
100
AcDbLine
 62
250
  6
CONTINUOUS
 10
-0.9931225849
 20
67.3741474687
 11
-1.0125145111
 21
67.396097812
  0
LINE
  5
384
100
AcDbEntity
  8
RACCORDO
100
AcDbLine
 62
250
  6
CONTINUOUS
 10
1.5503933154
 20
65.8820497903
 11
1.498807076
 21
65.9461856177
  0
LWPOLYLINE
  5
385
100
AcDbEntity
  8
RACCORDO
100
AcDbPolyline
 62
250
  6
CONTINUOUS
 90
4
 70
0
 10
1.7226152207
 20
65.6662006639
 10
1.6752278489
 20
65.7255394186
 10
1.6510296382
 20
65.7560540312
 10
1.5503933154
 20
65.8820497903
  0
LWPOLYLINE
  5
386
100
AcDbEntity
  8
RACCORDO
100
AcDbPolyline
 62
7
  6
CONTINUOUS
 90
5
 70
0
 10
1.6737647199
 20
67.3488026654
 10
1.6665094366
 20
67.3582191229
 10
1.6595617815
 20
67.367484101
 10
1.6528778927
 20
67.3765500118
 10
1.6464577701
 20
67.3854168553
  0
LWPOLYLINE
  5
387
100
AcDbEntity
  8
0
100
AcDbPolyline
 62
7
  6
CONTINUOUS
 90
10
 70
0
 43
0.3500000019
 10
1.5000009766
 20
102.85
 10
1.5714311523
 20
102.7071396484
 10
1.5714311523
 20
102.6357148438
 10
1.4285708008
 20
102.4928544922
 10
1.357140625
 20
102.4928544922
 10
1.2857158203
 20
102.5642900391
 10
1.2857158203
 20
102.6357148438
 10
1.357140625
 20
102.7785751953
 10
1.4285708008
 20
102.85
 10
1.5000009766
 20
102.85
  0
LWPOLYLINE
  5
388
100
AcDbEntity
  8
RACCORDO
100
AcDbPolyline
 62
250
  6
CONTINUOUS
 90
12
 70
0
 10
-1.6464830389
 20
65.1146174093
 10
-1.6368711572
 20
65.1081010504
 10
-1.6268775174
 20
65.101803415
 10
-1.6165053913
 20
65.0957309245
 10
-1.6057683899
 20
65.0898758812
 10
-1.5946596781
 20
65.084258882
 10
-1.5831526781
 20
65.078929258
 10
-1.5712449003
 20
65.0738882352
 10
-1.55894776
 20
65.0691487194
 10
-1.5462571236
 20
65.0647777908
 10
-1.5331718121
 20
65.060778662
 10
-1.5197041868
 20
65.0571618255
  0
LINE
  5
389
100
AcDbEntity
  8
RACCORDO
100
AcDbLine
 62
7
  6
CONTINUOUS
 10
59.9
 20
-82.6
 11
59.9
 21
82.6
  0
LWPOLYLINE
  5
38A
100
AcDbEntity
  8
RACCORDO
100
AcDbPolyline
 62
250
  6
CONTINUOUS
 90
12
 70
0
 10
0.1600471609
 20
-68.2435859426
 10
0.1704795758
 20
-68.2385225826
 10
0.1809026582
 20
-68.2330296718
 10
0.1913094789
 20
-68.2271070032
 10
0.2016961304
 20
-68.2207724945
 10
0.2120525966
 20
-68.2140080217
 10
0.2223617861
 20
-68.2067595932
 10
0.2326246085
 20
-68.1990253946
 10
0.2428236836
 20
-68.190807827
 10
0.2529130025
 20
-68.1820601251
 10
0.262892213
 20
-68.1727793783
 10
0.2727437904
 20
-68.1629709218
  0
LWPOLYLINE
  5
38B
100
AcDbEntity
  8
RACCORDO
100
AcDbPolyline
 62
250
  6
CONTINUOUS
 90
12
 70
0
 10
-0.1600485477
 20
-64.2564141663
 10
-0.1704758143
 20
-64.2614743223
 10
-0.1808989911
 20
-64.2669674791
 10
-0.1913110545
 20
-64.2728939249
 10
-0.2017095553
 20
-64.2792364479
 10
-0.2120827906
 20
-64.2860126435
 10
-0.2224089163
 20
-64.2932746581
 10
-0.23268838
 20
-64.3010246163
 10
-0.2429041638
 20
-64.309259809
 10
-0.2530069002
 20
-64.3180241004
 10
-0.2629956258
 20
-64.327320307
 10
-0.272853521
 20
-64.3371430809
  0
LWPOLYLINE
  5
38C
100
AcDbEntity
  8
RACCORDO
100
AcDbPolyline
 62
250
  6
CONTINUOUS
 90
6
 70
0
 10
-1.5274569652
 20
-65.059276071
 10
-1.5528483312
 20
-65.067051658
 10
-1.5775821114
 20
-65.0765046132
 10
-1.6013066589
 20
-65.0875717334
 10
-1.6242883854
 20
-65.1002813377
 10
-1.6464826475
 20
-65.114617181
  0
LWPOLYLINE
  5
38D
100
AcDbEntity
  8
RACCORDO
100
AcDbPolyline
 62
250
  6
CONTINUOUS
 90
5
 70
0
 10
1.6466814461
 20
67.3850877165
 10
1.6140003197
 20
67.4049593993
 10
1.5814359766
 20
67.4213377442
 10
1.5491024998
 20
67.4342857554
 10
1.5169946533
 20
67.4436512312
  0
LWPOLYLINE
  5
38E
100
AcDbEntity
  8
RACCORDO
100
AcDbPolyline
 62
250
  6
CONTINUOUS
 90
11
 70
0
 10
1.5320657794
 20
-67.4395373388
 10
1.5451264763
 20
-67.4355886981
 10
1.5577939202
 20
-67.4312713129
 10
1.5700781914
 20
-67.426583669
 10
1.5820100692
 20
-67.4215757435
 10
1.5935800645
 20
-67.4162619916
 10
1.6047885178
 20
-67.4106402702
 10
1.6156821376
 20
-67.4047342171
 10
1.6262740132
 20
-67.3985547471
 10
1.636543189
 20
-67.3921011298
 10
1.6464857934
 20
-67.3853786061
  0
LINE
  5
38F
100
AcDbEntity
  8
RACCORDO
100
AcDbLine
 62
250
  6
CONTINUOUS
 10
1.4701015579
 20
66.5479956532
 11
1.498807076
 21
66.5538143823
  0
LINE
  5
390
100
AcDbEntity
  8
RACCORDO
100
AcDbLine
 62
250
  6
CONTINUOUS
 10
-1.4701015579
 20
65.9520043468
 11
-1.498807076
 21
65.9461856177
  0
LINE
  5
391
100
AcDbEntity
  8
RACCORDO
100
AcDbLine
 62
250
  6
CONTINUOUS
 10
-1.0938508866
 20
65.0912951079
 11
-1.0125145111
 21
65.103902188
  0
LINE
  5
392
100
AcDbEntity
  8
RACCORDO
100
AcDbLine
 62
250
  6
CONTINUOUS
 10
1.0938508866
 20
67.4087048921
 11
1.0125145111
 21
67.396097812
  0
LWPOLYLINE
  5
393
100
AcDbEntity
  8
RACCORDO
100
AcDbPolyline
 62
250
  6
CONTINUOUS
 90
4
 70
0
 10
-1.3668926661
 20
65.050071126
 10
-1.2918101112
 20
65.0614404164
 10
-1.2532845762
 20
65.0671393753
 10
-1.0938508866
 20
65.0912951079
  0
LWPOLYLINE
  5
394
100
AcDbEntity
  8
RACCORDO
100
AcDbPolyline
 62
250
  6
CONTINUOUS
 90
4
 70
0
 10
1.3668926661
 20
67.449928874
 10
1.2918101112
 20
67.4385595836
 10
1.2532845762
 20
67.4328606247
 10
1.0938508866
 20
67.4087048921
  0
LINE
  5
395
100
AcDbEntity
  8
RACCORDO
100
AcDbLine
 62
7
  6
CONTINUOUS
 10
-1.4330853288
 20
65.1025665416
 11
-1.0723833781
 21
65.1500538543
  0
LINE
  5
396
100
AcDbEntity
  8
RACCORDO
100
AcDbLine
 62
7
  6
CONTINUOUS
 10
1.4330853288
 20
67.3974334584
 11
1.0723833781
 21
67.3499461457
  0
LWPOLYLINE
  5
397
100
AcDbEntity
  8
RACCORDO
100
AcDbPolyline
 62
7
  6
CONTINUOUS
 90
7
 70
0
 10
0.0870691767
 20
64.2473227733
 10
0.100093893
 20
64.2490280744
 10
0.1127241743
 20
64.250810853
 10
0.1250261526
 20
64.2524616365
 10
0.1370218721
 20
64.2539106008
 10
0.1486892887
 20
64.25522757
 10
0.1600284024
 20
64.2564125442
  0
LWPOLYLINE
  5
398
100
AcDbEntity
  8
RACCORDO
100
AcDbPolyline
 62
7
  6
CONTINUOUS
 90
7
 70
0
 10
-0.0870693421
 20
68.2526772061
 10
-0.1000939757
 20
68.250971917
 10
-0.1127241471
 20
68.2491891546
 10
-0.1250260489
 20
68.2475383818
 10
-0.1370217452
 20
68.2460894196
 10
-0.1486891718
 20
68.2447724471
 10
-0.1600283289
 20
68.2435874641
  0
LWPOLYLINE
  5
399
100
AcDbEntity
  8
RACCORDO
100
AcDbPolyline
 62
7
  6
CONTINUOUS
 90
4
 70
0
 10
0.0455622859
 20
64.2428812079
 10
0.05982892
 20
64.2441449148
 10
0.0736462658
 20
64.2456951053
 10
0.0870691767
 20
64.2473227733
  0
LWPOLYLINE
  5
39A
100
AcDbEntity
  8
RACCORDO
100
AcDbPolyline
 62
7
  6
CONTINUOUS
 90
4
 70
0
 10
-0.045562476
 20
68.2571187701
 10
-0.0598291427
 20
68.2558550599
 10
-0.0736464735
 20
68.2543048697
 10
-0.0870693421
 20
68.2526772061
  0
LWPOLYLINE
  5
39B
100
AcDbEntity
  8
RACCORDO
100
AcDbPolyline
 62
250
  6
CONTINUOUS
 90
9
 70
0
 10
-1.0723833779
 20
65.1500538543
 10
-1.0649520478
 20
65.150305252
 10
-1.0575990698
 20
65.149081083
 10
-1.0503551016
 20
65.1463937158
 10
-1.0431633499
 20
65.1423307547
 10
-1.036120042
 20
65.136966736
 10
-1.0294942186
 20
65.1303125981
 10
-1.0233908248
 20
65.122451773
 10
-1.0177329289
 20
65.1135835022
  0
LWPOLYLINE
  5
39C
100
AcDbEntity
  8
RACCORDO
100
AcDbPolyline
 62
250
  6
CONTINUOUS
 90
9
 70
0
 10
1.0723833779
 20
67.3499461457
 10
1.0649520478
 20
67.349694748
 10
1.0575990698
 20
67.350918917
 10
1.0503551016
 20
67.3536062842
 10
1.0431633499
 20
67.3576692453
 10
1.036120042
 20
67.363033264
 10
1.0294942186
 20
67.3696874019
 10
1.0233908248
 20
67.377548227
 10
1.0177329289
 20
67.3864164978
  0
LWPOLYLINE
  5
39D
100
AcDbEntity
  8
RACCORDO
100
AcDbPolyline
 62
250
  6
CONTINUOUS
 90
10
 70
0
 10
-1.433085338
 20
65.1025666118
 10
-1.4247829892
 20
65.1028131772
 10
-1.4164009242
 20
65.1013916873
 10
-1.408079817
 20
65.0983259985
 10
-1.3999593186
 20
65.0936675614
 10
-1.3921757133
 20
65.0874945574
 10
-1.3848596314
 20
65.0799105863
 10
-1.3781338569
 20
65.0710429278
 10
-1.3721112666
 20
65.0610404054
 10
-1.3668929364
 20
65.0500708888
  0
LWPOLYLINE
  5
39E
100
AcDbEntity
  8
RACCORDO
100
AcDbPolyline
 62
250
  6
CONTINUOUS
 90
10
 70
0
 10
1.433085338
 20
67.3974333882
 10
1.4247829892
 20
67.3971868228
 10
1.4164009242
 20
67.3986083127
 10
1.408079817
 20
67.4016740015
 10
1.3999593186
 20
67.4063324386
 10
1.3921757133
 20
67.4125054426
 10
1.3848596314
 20
67.4200894137
 10
1.3781338569
 20
67.4289570722
 10
1.3721112666
 20
67.4389595946
 10
1.3668929364
 20
67.4499291112
  0
LINE
  5
39F
100
AcDbEntity
  8
RACCORDO
100
AcDbLine
 62
250
  6
CONTINUOUS
 10
-0.4752990756
 20
64.8004091837
 11
-0.4862925649
 21
64.8000878056
  0
LINE
  5
3A0
100
AcDbEntity
  8
RACCORDO
100
AcDbLine
 62
250
  6
CONTINUOUS
 10
0.4752990756
 20
67.6995908163
 11
0.4862925649
 21
67.6999121944
  0
LWPOLYLINE
  5
3A1
100
AcDbEntity
  8
RACCORDO
100
AcDbPolyline
 62
7
  6
CONTINUOUS
 90
4
 70
0
 10
0.0000118004
 20
64.2410179953
 10
0.0156445839
 20
64.2413525825
 10
0.030828079
 20
64.2419736534
 10
0.0455622859
 20
64.2428812079
  0
LWPOLYLINE
  5
3A2
100
AcDbEntity
  8
RACCORDO
100
AcDbPolyline
 62
7
  6
CONTINUOUS
 90
4
 70
0
 10
-0.0000115854
 20
68.2589820136
 10
-0.0156445517
 20
68.2586474125
 10
-0.0308281818
 20
68.2580263313
 10
-0.045562476
 20
68.2571187701
  0
LINE
  5
3A3
100
AcDbEntity
  8
RACCORDO
100
AcDbLine
 62
250
  6
CONTINUOUS
 10
0.4752990919
 20
64.8004091804
 11
0.4862925649
 21
64.8000878056
  0
LINE
  5
3A4
100
AcDbEntity
  8
RACCORDO
100
AcDbLine
 62
250
  6
CONTINUOUS
 10
-0.4752990919
 20
67.6995908196
 11
-0.4862925648
 21
67.6999121944
  0
LWPOLYLINE
  5
3A5
100
AcDbEntity
  8
RACCORDO
100
AcDbPolyline
 62
250
  6
CONTINUOUS
 90
10
 70
0
 10
1.4330853157
 20
65.1025664423
 10
1.4247829412
 20
65.1028130899
 10
1.4164008465
 20
65.1013916706
 10
1.4080797071
 20
65.0983260417
 10
1.3999591746
 20
65.0936676545
 10
1.3921755348
 20
65.0874946918
 10
1.3848594199
 20
65.0799107563
 10
1.3781336144
 20
65.0710431305
 10
1.3721109943
 20
65.0610406393
 10
1.3668926344
 20
65.0500711539
  0
LWPOLYLINE
  5
3A6
100
AcDbEntity
  8
RACCORDO
100
AcDbPolyline
 62
250
  6
CONTINUOUS
 90
10
 70
0
 10
-1.4330853242
 20
67.3974334915
 10
-1.4247828576
 20
67.3971868535
 10
-1.4164006909
 20
67.3986083169
 10
-1.4080795038
 20
67.4016740108
 10
-1.3999589461
 20
67.4063324725
 10
-1.3921753071
 20
67.4125055046
 10
-1.3848592262
 20
67.4200894805
 10
-1.3781334839
 20
67.4289570975
 10
-1.3721109429
 20
67.4389595217
 10
-1.3668926662
 20
67.4499288742
  0
LWPOLYLINE
  5
3A7
100
AcDbEntity
  8
RACCORDO
100
AcDbPolyline
 62
250
  6
CONTINUOUS
 90
9
 70
0
 10
1.0723833781
 20
65.1500538543
 10
1.0649520516
 20
65.1503052529
 10
1.0575990764
 20
65.1490810874
 10
1.0503551103
 20
65.1463937254
 10
1.0431633612
 20
65.1423307708
 10
1.0361200554
 20
65.1369667588
 10
1.0294942316
 20
65.1303126245
 10
1.0233908346
 20
65.1224517974
 10
1.0177329342
 20
65.113583518
  0
LWPOLYLINE
  5
3A8
100
AcDbEntity
  8
RACCORDO
100
AcDbPolyline
 62
250
  6
CONTINUOUS
 90
9
 70
0
 10
-1.0723833781
 20
67.3499461457
 10
-1.0649520516
 20
67.3496947471
 10
-1.0575990764
 20
67.3509189126
 10
-1.0503551103
 20
67.3536062746
 10
-1.0431633612
 20
67.3576692292
 10
-1.0361200554
 20
67.3630332412
 10
-1.0294942316
 20
67.3696873755
 10
-1.0233908346
 20
67.3775482026
 10
-1.0177329342
 20
67.386416482
  0
LWPOLYLINE
  5
3A9
100
AcDbEntity
  8
RACCORDO
100
AcDbPolyline
 62
7
  6
CONTINUOUS
 90
7
 70
0
 10
-0.1600284055
 20
64.2564125445
 10
-0.1487269245
 20
64.2552326316
 10
-0.1370866241
 20
64.2539192837
 10
-0.1251075044
 20
64.2524725008
 10
-0.1128089042
 20
64.2508221282
 10
-0.1001714846
 20
64.2490383207
 10
-0.0871372292
 20
64.2473315421
  0
LWPOLYLINE
  5
3AA
100
AcDbEntity
  8
RACCORDO
100
AcDbPolyline
 62
7
  6
CONTINUOUS
 90
7
 70
0
 10
0.1600284458
 20
68.2435874509
 10
0.1487295664
 20
68.2447670204
 10
0.1370898868
 20
68.2460802834
 10
0.125109407
 20
68.2475272398
 10
0.1128061103
 20
68.2491782409
 10
0.1001620134
 20
68.2509629355
 10
0.0871231663
 20
68.2526702699
  0
LWPOLYLINE
  5
3AB
100
AcDbEntity
  8
RACCORDO
100
AcDbPolyline
 62
7
  6
CONTINUOUS
 90
7
 70
0
 10
-0.0871372292
 20
64.2473315421
 10
-0.0737050922
 20
64.2457019996
 10
-0.0598761194
 20
64.244149486
 10
-0.0455954317
 20
64.2428838445
 10
-0.030844736
 20
64.2419750227
 10
-0.0156423253
 20
64.241353073
 10
0.0000118004
 20
64.2410179953
  0
LWPOLYLINE
  5
3AC
100
AcDbEntity
  8
RACCORDO
100
AcDbPolyline
 62
7
  6
CONTINUOUS
 90
7
 70
0
 10
0.0871231663
 20
68.2526702699
 10
0.0736902532
 20
68.2542997295
 10
0.0598625901
 20
68.2558518289
 10
0.0455841748
 20
68.257117058
 10
0.0308363402
 20
68.2580255801
 10
0.0156377534
 20
68.258647232
 10
-0.0000115854
 20
68.2589820136
  0
LWPOLYLINE
  5
3AD
100
AcDbEntity
  8
RACCORDO
100
AcDbPolyline
 62
250
  6
CONTINUOUS
 90
12
 70
0
 10
1.3668926661
 20
65.050071126
 10
1.383324815
 20
65.0480161549
 10
1.3994955088
 20
65.0466031415
 10
1.4153984066
 20
65.0458305365
 10
1.4310257911
 20
65.0457233245
 10
1.4463717771
 20
65.0462528274
 10
1.4614330052
 20
65.0473358329
 10
1.4762165262
 20
65.0489664417
 10
1.4907019561
 20
65.0511439444
 10
1.5048456801
 20
65.0537902437
 10
1.5186329927
 20
65.0568976018
 10
1.5320657794
 20
65.0604626612
  0
LINE
  5
3AE
100
AcDbEntity
  8
RACCORDO
100
AcDbLine
 62
7
  6
CONTINUOUS
 10
1.0723833781
 20
65.1500538543
 11
1.4330853288
 21
65.1025665416
  0
LINE
  5
3AF
100
AcDbEntity
  8
RACCORDO
100
AcDbLine
 62
7
  6
CONTINUOUS
 10
-1.0723833781
 20
67.3499461457
 11
-1.4330853288
 21
67.3974334584
  0
LWPOLYLINE
  5
3B0
100
AcDbEntity
  8
RACCORDO
100
AcDbPolyline
 62
250
  6
CONTINUOUS
 90
8
 70
0
 10
-1.3668926661
 20
67.449928874
 10
-1.3869718553
 20
67.4526153668
 10
-1.4080527254
 20
67.4540801212
 10
-1.4301367719
 20
67.4542746509
 10
-1.4534292783
 20
67.4532443454
 10
-1.4777201071
 20
67.4508348881
 10
-1.5023715013
 20
67.4467152468
 10
-1.5274569652
 20
67.440723929
  0
LWPOLYLINE
  5
3B1
100
AcDbEntity
  8
RACCORDO
100
AcDbPolyline
 62
250
  6
CONTINUOUS
 90
3
 70
0
 10
1.0533005679
 20
65.0974972128
 10
1.2140851922
 20
65.073035945
 10
1.3296993031
 20
65.0557753902
  0
LWPOLYLINE
  5
3B2
100
AcDbEntity
  8
RACCORDO
100
AcDbPolyline
 62
250
  6
CONTINUOUS
 90
3
 70
0
 10
-1.0533005679
 20
67.4025027872
 10
-1.2140851922
 20
67.426964055
 10
-1.3296993031
 20
67.4442246098
  0
LINE
  5
3B3
100
AcDbEntity
  8
RACCORDO
100
AcDbLine
 62
250
  6
CONTINUOUS
 10
1.3296993031
 20
65.0557753902
 11
1.3668926661
 21
65.050071126
  0
LINE
  5
3B4
100
AcDbEntity
  8
RACCORDO
100
AcDbLine
 62
250
  6
CONTINUOUS
 10
-1.3296993031
 20
67.4442246098
 11
-1.3668926661
 21
67.449928874
  0
LINE
  5
3B5
100
AcDbEntity
  8
RACCORDO
100
AcDbLine
 62
250
  6
CONTINUOUS
 10
1.0125145111
 20
65.103902188
 11
1.0533005679
 21
65.0974972128
  0
LINE
  5
3B6
100
AcDbEntity
  8
RACCORDO
100
AcDbLine
 62
250
  6
CONTINUOUS
 10
-1.0125145111
 20
67.396097812
 11
-1.0533005679
 21
67.4025027872
  0
LWPOLYLINE
  5
3B7
100
AcDbEntity
  8
RACCORDO
100
AcDbPolyline
 62
250
  6
CONTINUOUS
 90
6
 70
0
 10
1.5169946533
 20
67.4436512312
 10
1.4853014637
 20
67.4497253474
 10
1.4543855539
 20
67.4532457375
 10
1.4243802136
 20
67.4545118241
 10
1.3952105193
 20
67.4533806885
 10
1.3668926661
 20
67.449928874
  0
LINE
  5
3B8
100
AcDbEntity
  8
RACCORDO
100
AcDbLine
 62
250
  6
CONTINUOUS
 10
-1.4701015575
 20
66.5479956552
 11
-1.498807076
 21
66.5538143823
  0
LINE
  5
3B9
100
AcDbEntity
  8
RACCORDO
100
AcDbLine
 62
250
  6
CONTINUOUS
 10
1.4701015575
 20
65.9520043448
 11
1.498807076
 21
65.9461856177
  0
LWPOLYLINE
  5
3BA
100
AcDbEntity
  8
RACCORDO
100
AcDbPolyline
 62
250
  6
CONTINUOUS
 90
11
 70
0
 10
-1.5197041868
 20
65.0571618255
 10
-1.5058720477
 20
65.0540041811
 10
-1.4916783671
 20
65.0513093962
 10
-1.4771331834
 20
65.0490853383
 10
-1.4622662223
 20
65.0474129134
 10
-1.447086842
 20
65.0462926769
 10
-1.4315995946
 20
65.0457320481
 10
-1.4158279329
 20
65.0458193128
 10
-1.3997845063
 20
65.0465845937
 10
-1.3834705858
 20
65.0480013506
 10
-1.3668926661
 20
65.050071126
  0
LINE
  5
3BB
100
AcDbEntity
  8
RACCORDO
100
AcDbLine
 62
7
  6
CONTINUOUS
 10
58.9
 20
83.6
 11
-58.9
 21
83.6
  0
LWPOLYLINE
  5
3BC
100
AcDbEntity
  8
0
100
AcDbPolyline
 62
7
  6
CONTINUOUS
 90
13
 70
0
 43
0.3500000019
 10
3.0000024414
 20
104.0642861328
 10
2.7142871094
 20
104.2785712891
 10
2.7142871094
 20
104.9214267578
 10
3.0000024414
 20
105.3499970703
 10
3.6428579102
 20
105.3499970703
 10
3.9285732422
 20
104.9214267578
 10
3.9285732422
 20
104.2785712891
 10
3.6428579102
 20
104.0642861328
 10
4.0714282227
 20
103.6357158203
 10
4.0714282227
 20
102.7785751953
 10
3.6428579102
 20
102.3500048828
 10
3.0000024414
 20
102.3500048828
 10
2.5714267578
 20
102.7785751953
  0
LWPOLYLINE
  5
3BD
100
AcDbEntity
  8
0
100
AcDbPolyline
 62
7
  6
CONTINUOUS
 90
3
 70
0
 43
0.3500000019
 10
-0.5357133789
 20
92.9928613281
 10
-2.0357148438
 20
92.9928613281
 10
-1.392859375
 20
95.3499980469
  0
LWPOLYLINE
  5
3BE
100
AcDbEntity
  8
0
100
AcDbPolyline
 62
7
  6
CONTINUOUS
 90
3
 70
0
 43
0.3500000019
 10
113.038078125
 20
-90.2071435547
 10
111.5380820313
 20
-90.2071435547
 10
112.1809375
 20
-87.8500014648
  0
LINE
  5
3BF
100
AcDbEntity
  8
RACCORDO
100
AcDbLine
 62
7
  6
CONTINUOUS
 10
106.4346219834
 20
-83.6
 11
103.9346219834
 21
-83.6
  0
LINE
  5
3C0
100
AcDbEntity
  8
0
100
AcDbLine
 62
7
  6
CONTINUOUS
 10
102.4346219834
 20
-83.6
 11
103.9346219834
 21
-83.6
  0
LINE
  5
3C1
100
AcDbEntity
  8
RACCORDO
100
AcDbLine
 62
250
  6
CONTINUOUS
 10
106.4346219834
 20
-82.6
 11
103.9346219834
 21
-82.6
  0
LINE
  5
3C2
100
AcDbEntity
  8
0
100
AcDbLine
 62
7
  6
CONTINUOUS
 10
100.9346219834
 20
-81.6
 11
103.9346219834
 21
-81.6
  0
LINE
  5
3C3
100
AcDbEntity
  8
0
100
AcDbLine
 62
7
  6
CONTINUOUS
 10
77.4346219834
 20
-68.25
 11
100.9346219834
 21
-68.25
  0
LINE
  5
3C4
100
AcDbEntity
  8
0
100
AcDbLine
 62
7
  6
CONTINUOUS
 10
77.0846219834
 20
-67.9
 11
100.9346219834
 21
-67.9
  0
LINE
  5
3C5
100
AcDbEntity
  8
0
100
AcDbLine
 62
7
  6
CONTINUOUS
 10
77.0846219834
 20
-64.6
 11
100.9346219834
 21
-64.6
  0
LINE
  5
3C6
100
AcDbEntity
  8
0
100
AcDbLine
 62
7
  6
CONTINUOUS
 10
77.4346219834
 20
-64.25
 11
100.9346219834
 21
-64.25
  0
LINE
  5
3C7
100
AcDbEntity
  8
SMUSSO
100
AcDbLine
 62
7
  6
CONTINUOUS
 10
76.4346219834
 20
67.25
 11
77.4346219834
 21
68.25
  0
LINE
  5
3C8
100
AcDbEntity
  8
SMUSSO
100
AcDbLine
 62
7
  6
CONTINUOUS
 10
76.4346219834
 20
-67.25
 11
77.4346219834
 21
-68.25
  0
LINE
  5
3C9
100
AcDbEntity
  8
0
100
AcDbLine
 62
7
  6
CONTINUOUS
 10
83.9346219834
 20
25.25
 11
84.4346219834
 21
25.75
  0
LINE
  5
3CA
100
AcDbEntity
  8
0
100
AcDbLine
 62
7
  6
CONTINUOUS
 10
86.9346219834
 20
-27.15
 11
87.4346219834
 21
-27.15
  0
LINE
  5
3CB
100
AcDbEntity
  8
0
100
AcDbLine
 62
7
  6
CONTINUOUS
 10
84.5490152586
 20
-27.0
 11
86.9202287081
 21
-27.0
  0
LINE
  5
3CC
100
AcDbEntity
  8
0
100
AcDbLine
 62
7
  6
CONTINUOUS
 10
84.4346219834
 20
-25.75
 11
84.5346219834
 21
-25.75
  0
LINE
  5
3CD
100
AcDbEntity
  8
0
100
AcDbLine
 62
7
  6
CONTINUOUS
 10
87.4346219834
 20
-25.75
 11
100.9346219834
 21
-25.75
  0
LINE
  5
3CE
100
AcDbEntity
  8
0
100
AcDbLine
 62
7
  6
CONTINUOUS
 10
84.1846219834
 20
-25.5
 11
84.5346219834
 21
-25.5
  0
LINE
  5
3CF
100
AcDbEntity
  8
0
100
AcDbLine
 62
7
  6
CONTINUOUS
 10
87.4346219834
 20
-25.5
 11
100.9346219834
 21
-25.5
  0
LINE
  5
3D0
100
AcDbEntity
  8
0
100
AcDbLine
 62
7
  6
CONTINUOUS
 10
86.6748143622
 20
-24.25
 11
84.7944296045
 21
-24.25
  0
LINE
  5
3D1
100
AcDbEntity
  8
0
100
AcDbLine
 62
7
  6
CONTINUOUS
 10
84.1846219834
 20
-23.0
 11
84.5346219834
 21
-23.0
  0
LINE
  5
3D2
100
AcDbEntity
  8
0
100
AcDbLine
 62
7
  6
CONTINUOUS
 10
87.4346219834
 20
-23.0
 11
100.9346219834
 21
-23.0
  0
LINE
  5
3D3
100
AcDbEntity
  8
0
100
AcDbLine
 62
7
  6
CONTINUOUS
 10
84.4346219834
 20
-22.75
 11
84.5346219834
 21
-22.75
  0
LINE
  5
3D4
100
AcDbEntity
  8
0
100
AcDbLine
 62
7
  6
CONTINUOUS
 10
87.4346219834
 20
-22.75
 11
100.9346219834
 21
-22.75
  0
LINE
  5
3D5
100
AcDbEntity
  8
0
100
AcDbLine
 62
7
  6
CONTINUOUS
 10
83.9346219834
 20
-25.25
 11
84.4346219834
 21
-25.75
  0
LINE
  5
3D6
100
AcDbEntity
  8
0
100
AcDbLine
 62
7
  6
CONTINUOUS
 10
84.5488095114
 20
27.0
 11
84.5346219834
 21
26.9754264805
  0
LINE
  5
3D7
100
AcDbEntity
  8
0
100
AcDbLine
 62
7
  6
CONTINUOUS
 10
84.5490152586
 20
-21.5
 11
86.9202287081
 21
-21.5
  0
LINE
  5
3D8
100
AcDbEntity
  8
0
100
AcDbLine
 62
7
  6
CONTINUOUS
 10
86.9346219834
 20
-21.35
 11
87.4346219834
 21
-21.35
  0
LINE
  5
3D9
100
AcDbEntity
  8
0
100
AcDbLine
 62
7
  6
CONTINUOUS
 10
84.5488095114
 20
-27.0
 11
84.5346219834
 21
-26.9754264805
  0
LINE
  5
3DA
100
AcDbEntity
  8
SMUSSO
100
AcDbLine
 62
7
  6
CONTINUOUS
 10
76.4346219834
 20
-67.25
 11
76.4346219834
 21
-65.25
  0
LINE
  5
3DB
100
AcDbEntity
  8
SMUSSO
100
AcDbLine
 62
7
  6
CONTINUOUS
 10
76.4346219834
 20
65.25
 11
76.4346219834
 21
67.25
  0
LINE
  5
3DC
100
AcDbEntity
  8
0
100
AcDbLine
 62
7
  6
CONTINUOUS
 10
77.0846219834
 20
67.9
 11
77.0846219834
 21
64.6
  0
LINE
  5
3DD
100
AcDbEntity
  8
0
100
AcDbLine
 62
7
  6
CONTINUOUS
 10
77.0846219834
 20
-64.6
 11
77.0846219834
 21
-67.9
  0
LINE
  5
3DE
100
AcDbEntity
  8
SMUSSO
100
AcDbLine
 62
7
  6
CONTINUOUS
 10
77.4346219834
 20
-68.25
 11
77.4346219834
 21
-64.25
  0
LINE
  5
3DF
100
AcDbEntity
  8
SMUSSO
100
AcDbLine
 62
7
  6
CONTINUOUS
 10
77.4346219834
 20
64.25
 11
77.4346219834
 21
68.25
  0
LWPOLYLINE
  5
3E0
100
AcDbEntity
  8
0
100
AcDbPolyline
 62
7
  6
CONTINUOUS
 90
16
 70
0
 10
86.6748143622
 20
24.25
 10
86.7353508852
 20
24.4404125752
 10
86.7873736129
 20
24.6283827033
 10
86.8308825453
 20
24.8139103841
 10
86.8659843037
 20
24.9962859186
 10
86.8925722668
 20
25.1762190058
 10
86.9103265706
 20
25.3558387436
 10
86.9191368565
 20
25.5356619666
 10
86.919113483
 20
25.7151718401
 10
86.9102676612
 20
25.8949469573
 10
86.8924968086
 20
26.0744514773
 10
86.8659035076
 20
26.2542212409
 10
86.8308067166
 20
26.4364423634
 10
86.7873127552
 20
26.62184355
 10
86.7353153037
 20
26.8096960955
 10
86.6748143622
 20
27.0
  0
LWPOLYLINE
  5
3E1
100
AcDbEntity
  8
0
100
AcDbPolyline
 62
7
  6
CONTINUOUS
 90
16
 70
0
 10
86.6748143622
 20
21.5
 10
86.7353508852
 20
21.6904125752
 10
86.7873736129
 20
21.8783827033
 10
86.8308825453
 20
22.0639103841
 10
86.8659843037
 20
22.2462859186
 10
86.8925722668
 20
22.4262190058
 10
86.9103265706
 20
22.6058387436
 10
86.9191368565
 20
22.7856619666
 10
86.919113483
 20
22.9651718401
 10
86.9102676612
 20
23.1449469573
 10
86.8924968086
 20
23.3244514773
 10
86.8659035076
 20
23.5042212409
 10
86.8308067166
 20
23.6864423634
 10
86.7873127552
 20
23.87184355
 10
86.7353153037
 20
24.0596960955
 10
86.6748143622
 20
24.25
  0
LINE
  5
3E2
100
AcDbEntity
  8
0
100
AcDbLine
 62
7
  6
CONTINUOUS
 10
86.9346219834
 20
21.5245735195
 11
86.9204344553
 21
21.5
  0
LINE
  5
3E3
100
AcDbEntity
  8
0
100
AcDbLine
 62
7
  6
CONTINUOUS
 10
86.9346219834
 20
-21.5245735195
 11
86.9204344553
 21
-21.5
  0
LWPOLYLINE
  5
3E4
100
AcDbEntity
  8
0
100
AcDbPolyline
 62
7
  6
CONTINUOUS
 90
16
 70
0
 10
84.7944296045
 20
-27.0
 10
84.7338930815
 20
-26.8095874248
 10
84.6818703538
 20
-26.6216172967
 10
84.6383614215
 20
-26.4360896159
 10
84.603259663
 20
-26.2537140814
 10
84.5766716999
 20
-26.0737809942
 10
84.5589173962
 20
-25.8941612564
 10
84.5501071103
 20
-25.7143380334
 10
84.5501304837
 20
-25.5348281599
 10
84.5589763056
 20
-25.3550530427
 10
84.5767471582
 20
-25.1755485227
 10
84.6033404592
 20
-24.9957787591
 10
84.6384372501
 20
-24.8135576366
 10
84.6819312116
 20
-24.62815645
 10
84.7339286631
 20
-24.4403039045
 10
84.7944296045
 20
-24.25
  0
LWPOLYLINE
  5
3E5
100
AcDbEntity
  8
0
100
AcDbPolyline
 62
7
  6
CONTINUOUS
 90
16
 70
0
 10
84.7944296045
 20
-24.25
 10
84.7338930815
 20
-24.0595874248
 10
84.6818703538
 20
-23.8716172967
 10
84.6383614215
 20
-23.6860896159
 10
84.603259663
 20
-23.5037140814
 10
84.5766716999
 20
-23.3237809942
 10
84.5589173962
 20
-23.1441612564
 10
84.5501071103
 20
-22.9643380334
 10
84.5501304837
 20
-22.7848281599
 10
84.5589763056
 20
-22.6050530427
 10
84.5767471582
 20
-22.4255485227
 10
84.6033404592
 20
-22.2457787591
 10
84.6384372501
 20
-22.0635576366
 10
84.6819312116
 20
-21.87815645
 10
84.7339286631
 20
-21.6903039045
 10
84.7944296045
 20
-21.5
  0
LINE
  5
3E6
100
AcDbEntity
  8
0
100
AcDbLine
 62
7
  6
CONTINUOUS
 10
83.9346219834
 20
-23.2503444533
 11
83.9346219834
 21
-25.2496555467
  0
LINE
  5
3E7
100
AcDbEntity
  8
0
100
AcDbLine
 62
7
  6
CONTINUOUS
 10
83.9346219834
 20
23.2503444533
 11
83.9346219834
 21
25.2496555467
  0
LINE
  5
3E8
100
AcDbEntity
  8
0
100
AcDbLine
 62
7
  6
CONTINUOUS
 10
84.1846219834
 20
25.5
 11
84.1846219834
 21
23.0
  0
LINE
  5
3E9
100
AcDbEntity
  8
0
100
AcDbLine
 62
7
  6
CONTINUOUS
 10
84.1846219834
 20
-23.0
 11
84.1846219834
 21
-25.5
  0
LINE
  5
3EA
100
AcDbEntity
  8
0
100
AcDbLine
 62
7
  6
CONTINUOUS
 10
84.4346219834
 20
-22.75
 11
84.4346219834
 21
-25.75
  0
LINE
  5
3EB
100
AcDbEntity
  8
0
100
AcDbLine
 62
7
  6
CONTINUOUS
 10
84.4346219834
 20
22.75
 11
84.4346219834
 21
25.75
  0
LINE
  5
3EC
100
AcDbEntity
  8
0
100
AcDbLine
 62
7
  6
CONTINUOUS
 10
84.5346219834
 20
-26.9750043738
 11
84.5346219834
 21
-21.5249956262
  0
LINE
  5
3ED
100
AcDbEntity
  8
0
100
AcDbLine
 62
7
  6
CONTINUOUS
 10
84.5346219834
 20
21.5249956262
 11
84.5346219834
 21
26.9750043738
  0
LINE
  5
3EE
100
AcDbEntity
  8
0
100
AcDbLine
 62
7
  6
CONTINUOUS
 10
86.9346219834
 20
27.15
 11
86.9346219834
 21
21.35
  0
LINE
  5
3EF
100
AcDbEntity
  8
0
100
AcDbLine
 62
7
  6
CONTINUOUS
 10
86.9346219834
 20
-21.35
 11
86.9346219834
 21
-27.15
  0
LINE
  5
3F0
100
AcDbEntity
  8
0
100
AcDbLine
 62
7
  6
CONTINUOUS
 10
87.4346219834
 20
27.15
 11
87.4346219834
 21
21.35
  0
LINE
  5
3F1
100
AcDbEntity
  8
0
100
AcDbLine
 62
7
  6
CONTINUOUS
 10
87.4346219834
 20
-21.35
 11
87.4346219834
 21
-27.15
  0
LWPOLYLINE
  5
3F2
100
AcDbEntity
  8
0
100
AcDbPolyline
 62
7
  6
CONTINUOUS
 90
2
 70
0
 43
0.3500000019
 10
113.6846503906
 20
-3.2857142334
 10
112.1846328125
 20
-3.2857142334
  0
LWPOLYLINE
  5
3F3
100
AcDbEntity
  8
0
100
AcDbPolyline
 62
7
  6
CONTINUOUS
 90
4
 70
0
 43
0.3500000019
 10
113.2560585938
 20
-1.9285714417
 10
112.3989179688
 20
-1.9285714417
 10
111.9703476563
 20
-1.4999999542
 10
111.9703476563
 20
-0.8571428909
  0
LWPOLYLINE
  5
3F4
100
AcDbEntity
  8
0
100
AcDbPolyline
 62
7
  6
CONTINUOUS
 90
16
 70
0
 10
84.7944296045
 20
21.5
 10
84.7338930815
 20
21.6904125752
 10
84.6818703538
 20
21.8783827033
 10
84.6383614215
 20
22.0639103841
 10
84.603259663
 20
22.2462859186
 10
84.5766716999
 20
22.4262190058
 10
84.5589173962
 20
22.6058387436
 10
84.5501071103
 20
22.7856619666
 10
84.5501304837
 20
22.9651718401
 10
84.5589763056
 20
23.1449469573
 10
84.5767471582
 20
23.3244514773
 10
84.6033404592
 20
23.5042212409
 10
84.6384372501
 20
23.6864423634
 10
84.6819312116
 20
23.87184355
 10
84.7339286631
 20
24.0596960955
 10
84.7944296045
 20
24.25
  0
LWPOLYLINE
  5
3F5
100
AcDbEntity
  8
0
100
AcDbPolyline
 62
7
  6
CONTINUOUS
 90
16
 70
0
 10
86.6748143622
 20
-24.25
 10
86.7353508852
 20
-24.0595874248
 10
86.7873736129
 20
-23.8716172967
 10
86.8308825453
 20
-23.6860896159
 10
86.8659843037
 20
-23.5037140814
 10
86.8925722668
 20
-23.3237809942
 10
86.9103265706
 20
-23.1441612564
 10
86.9191368565
 20
-22.9643380334
 10
86.919113483
 20
-22.7848281599
 10
86.9102676612
 20
-22.6050530427
 10
86.8924968086
 20
-22.4255485227
 10
86.8659035076
 20
-22.2457787591
 10
86.8308067166
 20
-22.0635576366
 10
86.7873127552
 20
-21.87815645
 10
86.7353153037
 20
-21.6903039045
 10
86.6748143622
 20
-21.5
  0
LWPOLYLINE
  5
3F6
100
AcDbEntity
  8
0
100
AcDbPolyline
 62
7
  6
CONTINUOUS
 90
16
 70
0
 10
86.6748143622
 20
-27.0
 10
86.7353508852
 20
-26.8095874248
 10
86.7873736129
 20
-26.6216172967
 10
86.8308825453
 20
-26.4360896159
 10
86.8659843037
 20
-26.2537140814
 10
86.8925722668
 20
-26.0737809942
 10
86.9103265706
 20
-25.8941612564
 10
86.9191368565
 20
-25.7143380334
 10
86.919113483
 20
-25.5348281599
 10
86.9102676612
 20
-25.3550530427
 10
86.8924968086
 20
-25.1755485227
 10
86.8659035076
 20
-24.9957787591
 10
86.8308067166
 20
-24.8135576366
 10
86.7873127552
 20
-24.62815645
 10
86.7353153037
 20
-24.4403039045
 10
86.6748143622
 20
-24.25
  0
LINE
  5
3F7
100
AcDbEntity
  8
0
100
AcDbLine
 62
7
  6
CONTINUOUS
 10
84.5488095114
 20
-21.5
 11
84.5346219834
 21
-21.5245735195
  0
LINE
  5
3F8
100
AcDbEntity
  8
0
100
AcDbLine
 62
7
  6
CONTINUOUS
 10
84.5488095114
 20
21.5
 11
84.5346219834
 21
21.5245735195
  0
LWPOLYLINE
  5
3F9
100
AcDbEntity
  8
0
100
AcDbPolyline
 62
7
  6
CONTINUOUS
 90
16
 70
0
 10
84.7944296045
 20
24.25
 10
84.7338930815
 20
24.4404125752
 10
84.6818703538
 20
24.6283827033
 10
84.6383614215
 20
24.8139103841
 10
84.603259663
 20
24.9962859186
 10
84.5766716999
 20
25.1762190058
 10
84.5589173962
 20
25.3558387436
 10
84.5501071103
 20
25.5356619666
 10
84.5501304837
 20
25.7151718401
 10
84.5589763056
 20
25.8949469573
 10
84.5767471582
 20
26.0744514773
 10
84.6033404592
 20
26.2542212409
 10
84.6384372501
 20
26.4364423634
 10
84.6819312116
 20
26.62184355
 10
84.7339286631
 20
26.8096960955
 10
84.7944296045
 20
27.0
  0
LINE
  5
3FA
100
AcDbEntity
  8
0
100
AcDbLine
 62
7
  6
CONTINUOUS
 10
100.9346219834
 20
-81.6
 11
100.9346219834
 21
82.0
  0
LINE
  5
3FB
100
AcDbEntity
  8
RACCORDO
100
AcDbLine
 62
7
  6
CONTINUOUS
 10
102.4346219834
 20
-81.6
 11
102.4346219834
 21
-83.6
  0
LINE
  5
3FC
100
AcDbEntity
  8
0
100
AcDbLine
 62
7
  6
CONTINUOUS
 10
86.9346219834
 20
-26.9754264805
 11
86.9204344553
 21
-27.0
  0
LINE
  5
3FD
100
AcDbEntity
  8
0
100
AcDbLine
 62
7
  6
CONTINUOUS
 10
83.9346219834
 20
-23.25
 11
84.4346219834
 21
-22.75
  0
LWPOLYLINE
  5
3FE
100
AcDbEntity
  8
0
100
AcDbPolyline
 62
7
  6
CONTINUOUS
 90
10
 70
0
 43
0.3500000019
 10
113.1846445313
 20
1.0714285507
 10
113.3274941406
 20
1.142857132
 10
113.3989296875
 20
1.142857132
 10
113.5417792969
 20
0.9999999695
 10
113.5417792969
 20
0.9285713882
 10
113.4703652344
 20
0.8571428909
 10
113.3989296875
 20
0.8571428909
 10
113.2560585938
 20
0.9285713882
 10
113.1846445313
 20
0.9999999695
 10
113.1846445313
 20
1.0714285507
  0
LWPOLYLINE
  5
3FF
100
AcDbEntity
  8
0
100
AcDbPolyline
 62
7
  6
CONTINUOUS
 90
3
 70
0
 43
0.3500000019
 10
113.3989296875
 20
1.142857132
 10
113.6132148438
 20
1.0714285507
 10
113.8989355469
 20
0.9285713882
  0
LINE
  5
400
100
AcDbEntity
  8
0
100
AcDbLine
 62
7
  6
CONTINUOUS
 10
83.9346219834
 20
23.25
 11
84.4346219834
 21
22.75
  0
LINE
  5
401
100
AcDbEntity
  8
0
100
AcDbLine
 62
7
  6
CONTINUOUS
 10
86.9346219834
 20
26.9754264805
 11
86.9204344553
 21
27.0
  0
LINE
  5
402
100
AcDbEntity
  8
RACCORDO
100
AcDbLine
 62
7
  6
CONTINUOUS
 10
103.9346219834
 20
-83.6
 11
103.9346219834
 21
83.6
  0
LINE
  5
403
100
AcDbEntity
  8
RACCORDO
100
AcDbLine
 62
7
  6
CONTINUOUS
 10
106.4346219834
 20
83.6
 11
106.4346219834
 21
-83.6
  0
LWPOLYLINE
  5
404
100
AcDbEntity
  8
0
100
AcDbPolyline
 62
7
  6
CONTINUOUS
 90
13
 70
0
 43
0.3500000019
 10
111.9703476563
 20
-1.4999999542
 10
111.7560625
 20
-1.7857142792
 10
111.1132070313
 20
-1.7857142792
 10
110.6846367188
 20
-1.4999999542
 10
110.6846367188
 20
-0.8571428909
 10
111.1132070313
 20
-0.571428566
 10
111.7560625
 20
-0.571428566
 10
111.9703476563
 20
-0.8571428909
 10
112.3989179688
 20
-0.4285714455
 10
113.2560585938
 20
-0.4285714455
 10
113.6846503906
 20
-0.8571428909
 10
113.6846503906
 20
-1.4999999542
 10
113.2560585938
 20
-1.9285714417
  0
LWPOLYLINE
  5
405
100
AcDbEntity
  8
0
100
AcDbPolyline
 62
7
  6
CONTINUOUS
 90
2
 70
0
 43
0.3500000019
 10
112.5380722656
 20
-90.8499990234
 10
112.5380722656
 20
-89.3499975586
  0
LWPOLYLINE
  5
406
100
AcDbEntity
  8
0
100
AcDbPolyline
 62
7
  6
CONTINUOUS
 90
3
 70
0
 43
0.3500000019
 10
113.0417734375
 20
-2.7857142487
 10
113.0417734375
 20
-4.2857142029
 10
110.6846367188
 20
-3.6428570557
  0
LWPOLYLINE
  5
407
100
AcDbEntity
  8
0
100
AcDbPolyline
 62
7
  6
CONTINUOUS
 90
8
 70
0
 43
0.3500000019
 10
113.6846503906
 20
2.1428571014
 10
113.6846503906
 20
2.9999999084
 10
113.2560585938
 20
3.4285715637
 10
112.3989179688
 20
3.4285715637
 10
111.9703476563
 20
2.9999999084
 10
111.9703476563
 20
2.1428571014
 10
110.6846367188
 20
2.1428571014
 10
110.6846367188
 20
3.4285715637
  0
LINE
  5
408
100
AcDbEntity
  8
0
100
AcDbLine
 62
7
  6
CONTINUOUS
 10
86.9346219834
 20
21.35
 11
87.4346219834
 21
21.35
  0
LINE
  5
409
100
AcDbEntity
  8
0
100
AcDbLine
 62
7
  6
CONTINUOUS
 10
84.5490152586
 20
21.5
 11
86.9202287081
 21
21.5
  0
LINE
  5
40A
100
AcDbEntity
  8
0
100
AcDbLine
 62
7
  6
CONTINUOUS
 10
84.4346219834
 20
22.75
 11
84.5346219834
 21
22.75
  0
LINE
  5
40B
100
AcDbEntity
  8
0
100
AcDbLine
 62
7
  6
CONTINUOUS
 10
87.4346219834
 20
22.75
 11
100.9346219834
 21
22.75
  0
LINE
  5
40C
100
AcDbEntity
  8
0
100
AcDbLine
 62
7
  6
CONTINUOUS
 10
84.1846219834
 20
23.0
 11
84.5346219834
 21
23.0
  0
LINE
  5
40D
100
AcDbEntity
  8
0
100
AcDbLine
 62
7
  6
CONTINUOUS
 10
87.4346219834
 20
23.0
 11
100.9346219834
 21
23.0
  0
LINE
  5
40E
100
AcDbEntity
  8
0
100
AcDbLine
 62
7
  6
CONTINUOUS
 10
86.6748143622
 20
24.25
 11
84.7944296045
 21
24.25
  0
LINE
  5
40F
100
AcDbEntity
  8
0
100
AcDbLine
 62
7
  6
CONTINUOUS
 10
84.1846219834
 20
25.5
 11
84.5346219834
 21
25.5
  0
LINE
  5
410
100
AcDbEntity
  8
0
100
AcDbLine
 62
7
  6
CONTINUOUS
 10
87.4346219834
 20
25.5
 11
100.9346219834
 21
25.5
  0
LINE
  5
411
100
AcDbEntity
  8
0
100
AcDbLine
 62
7
  6
CONTINUOUS
 10
84.4346219834
 20
25.75
 11
84.5346219834
 21
25.75
  0
LINE
  5
412
100
AcDbEntity
  8
0
100
AcDbLine
 62
7
  6
CONTINUOUS
 10
87.4346219834
 20
25.75
 11
100.9346219834
 21
25.75
  0
LINE
  5
413
100
AcDbEntity
  8
0
100
AcDbLine
 62
7
  6
CONTINUOUS
 10
84.5490152586
 20
27.0
 11
86.9202287081
 21
27.0
  0
LINE
  5
414
100
AcDbEntity
  8
0
100
AcDbLine
 62
7
  6
CONTINUOUS
 10
86.9346219834
 20
27.15
 11
87.4346219834
 21
27.15
  0
LINE
  5
415
100
AcDbEntity
  8
SMUSSO
100
AcDbLine
 62
7
  6
CONTINUOUS
 10
76.4346219834
 20
-65.25
 11
77.4346219834
 21
-64.25
  0
LINE
  5
416
100
AcDbEntity
  8
SMUSSO
100
AcDbLine
 62
7
  6
CONTINUOUS
 10
76.4346219834
 20
65.25
 11
77.4346219834
 21
64.25
  0
LINE
  5
417
100
AcDbEntity
  8
0
100
AcDbLine
 62
7
  6
CONTINUOUS
 10
77.4346219834
 20
64.25
 11
100.9346219834
 21
64.25
  0
LINE
  5
418
100
AcDbEntity
  8
0
100
AcDbLine
 62
7
  6
CONTINUOUS
 10
77.0846219834
 20
64.6
 11
100.9346219834
 21
64.6
  0
LINE
  5
419
100
AcDbEntity
  8
0
100
AcDbLine
 62
7
  6
CONTINUOUS
 10
77.0846219834
 20
67.9
 11
100.9346219834
 21
67.9
  0
LINE
  5
41A
100
AcDbEntity
  8
0
100
AcDbLine
 62
7
  6
CONTINUOUS
 10
77.4346219834
 20
68.25
 11
100.9346219834
 21
68.25
  0
LINE
  5
41B
100
AcDbEntity
  8
0
100
AcDbLine
 62
250
  6
CONTINUOUS
 10
100.9346219834
 20
70.5
 11
103.9346219834
 21
70.5
  0
LINE
  5
41C
100
AcDbEntity
  8
0
100
AcDbLine
 62
7
  6
CONTINUOUS
 10
100.9346219834
 20
82.0
 11
103.9346219834
 21
82.0
  0
LINE
  5
41D
100
AcDbEntity
  8
RACCORDO
100
AcDbLine
 62
250
  6
CONTINUOUS
 10
106.4346219834
 20
82.6
 11
103.9346219834
 21
82.6
  0
LINE
  5
41E
100
AcDbEntity
  8
RACCORDO
100
AcDbLine
 62
7
  6
CONTINUOUS
 10
106.4346219834
 20
83.6
 11
103.9346219834
 21
83.6
  0
ARC
  5
41F
100
AcDbEntity
  8
RACCORDO
100
AcDbCircle
 62
7
  6
CONTINUOUS
 10
-58.9
 20
-82.6
 40
1.0
100
AcDbArc
 50
180.0
 51
270.0
  0
ARC
  5
420
100
AcDbEntity
  8
RACCORDO
100
AcDbCircle
 62
7
  6
CONTINUOUS
 10
-20.0
 20
-20.0
 40
0.5
100
AcDbArc
 50
180.0
 51
270.0
  0
ARC
  5
421
100
AcDbEntity
  8
RACCORDO
100
AcDbCircle
 62
7
  6
CONTINUOUS
 10
-1.4722431864
 20
-65.4
 40
0.3
100
AcDbArc
 50
82.5
 51
217.5
  0
ARC
  5
422
100
AcDbEntity
  8
RACCORDO
100
AcDbCircle
 62
7
  6
CONTINUOUS
 10
-1.4722431864
 20
-67.1
 40
0.3
100
AcDbArc
 50
142.5
 51
277.5
  0
ARC
  5
423
100
AcDbEntity
  8
RACCORDO
100
AcDbCircle
 62
7
  6
CONTINUOUS
 10
-0.5087775692
 20
-64.7330473359
 40
0.1
100
AcDbArc
 50
288.541169179
 51
337.5
  0
ARC
  5
424
100
AcDbEntity
  8
RACCORDO
100
AcDbCircle
 62
7
  6
CONTINUOUS
 10
-1.0593307588
 20
-65.0509093681
 40
0.1
100
AcDbArc
 50
262.5
 51
311.458830821
  0
ARC
  5
425
100
AcDbEntity
  8
RACCORDO
100
AcDbCircle
 62
7
  6
CONTINUOUS
 10
-1.568108328
 20
-65.9321379678
 40
0.1
100
AcDbArc
 50
348.541169179
 51
37.5
  0
ARC
  5
426
100
AcDbEntity
  8
RACCORDO
100
AcDbCircle
 62
7
  6
CONTINUOUS
 10
-1.568108328
 20
-66.5678620322
 40
0.1
100
AcDbArc
 50
322.5
 51
11.458830821
  0
ARC
  5
427
100
AcDbEntity
  8
RACCORDO
100
AcDbCircle
 62
7
  6
CONTINUOUS
 10
-1.0593307588
 20
-67.4490906319
 40
0.1
100
AcDbArc
 50
48.541169179
 51
97.5
  0
ARC
  5
428
100
AcDbEntity
  8
RACCORDO
100
AcDbCircle
 62
7
  6
CONTINUOUS
 10
-0.5087775692
 20
-67.7669526641
 40
0.1
100
AcDbArc
 50
22.5
 51
71.458830821
  0
ARC
  5
429
100
AcDbEntity
  8
RACCORDO
100
AcDbCircle
 62
7
  6
CONTINUOUS
 10
-58.9
 20
82.6
 40
1.0
100
AcDbArc
 50
90.0
 51
180.0
  0
ARC
  5
42A
100
AcDbEntity
  8
RACCORDO
100
AcDbCircle
 62
7
  6
CONTINUOUS
 10
-20.0
 20
20.0
 40
0.5
100
AcDbArc
 50
90.0
 51
180.0
  0
ARC
  5
42B
100
AcDbEntity
  8
RACCORDO
100
AcDbCircle
 62
7
  6
CONTINUOUS
 10
-1.4722431864
 20
67.1
 40
0.3
100
AcDbArc
 50
82.5
 51
217.5
  0
ARC
  5
42C
100
AcDbEntity
  8
RACCORDO
100
AcDbCircle
 62
7
  6
CONTINUOUS
 10
-1.4722431864
 20
65.4
 40
0.3
100
AcDbArc
 50
142.5
 51
277.5
  0
ARC
  5
42D
100
AcDbEntity
  8
RACCORDO
100
AcDbCircle
 62
7
  6
CONTINUOUS
 10
-0.5087775692
 20
67.7669526641
 40
0.1
100
AcDbArc
 50
288.541169179
 51
337.5
  0
ARC
  5
42E
100
AcDbEntity
  8
RACCORDO
100
AcDbCircle
 62
7
  6
CONTINUOUS
 10
-1.0593307588
 20
67.4490906319
 40
0.1
100
AcDbArc
 50
262.5
 51
311.458830821
  0
ARC
  5
42F
100
AcDbEntity
  8
RACCORDO
100
AcDbCircle
 62
7
  6
CONTINUOUS
 10
-1.568108328
 20
66.5678620322
 40
0.1
100
AcDbArc
 50
348.541169179
 51
37.5
  0
ARC
  5
430
100
AcDbEntity
  8
RACCORDO
100
AcDbCircle
 62
7
  6
CONTINUOUS
 10
-1.568108328
 20
65.9321379678
 40
0.1
100
AcDbArc
 50
322.5
 51
11.458830821
  0
ARC
  5
431
100
AcDbEntity
  8
RACCORDO
100
AcDbCircle
 62
7
  6
CONTINUOUS
 10
-1.0593307588
 20
65.0509093681
 40
0.1
100
AcDbArc
 50
48.541169179
 51
97.5
  0
ARC
  5
432
100
AcDbEntity
  8
RACCORDO
100
AcDbCircle
 62
7
  6
CONTINUOUS
 10
-0.5087775692
 20
64.7330473359
 40
0.1
100
AcDbArc
 50
22.5
 51
71.458830821
  0
ARC
  5
433
100
AcDbEntity
  8
RACCORDO
100
AcDbCircle
 62
7
  6
CONTINUOUS
 10
-0.0
 20
-67.95
 40
0.3
100
AcDbArc
 50
202.5
 51
337.5
  0
ARC
  5
434
100
AcDbEntity
  8
RACCORDO
100
AcDbCircle
 62
7
  6
CONTINUOUS
 10
0.5087775692
 20
-67.7669526641
 40
0.1
100
AcDbArc
 50
108.541169179
 51
157.5
  0
CIRCLE
  5
435
100
AcDbEntity
  8
ASSI
100
AcDbCircle
 62
7
  6
CONTINUOUS
 10
0.0
 20
-66.25
 40
4.25
  0
CIRCLE
  5
436
100
AcDbEntity
  8
RACCORDO
100
AcDbCircle
 62
7
  6
CONTINUOUS
 10
0.0
 20
-66.25
 40
4.0
  0
CIRCLE
  5
437
100
AcDbEntity
  8
RACCORDO
100
AcDbCircle
 62
250
  6
CONTINUOUS
 10
0.0
 20
-66.25
 40
3.75
  0
ARC
  5
438
100
AcDbEntity
  8
RACCORDO
100
AcDbCircle
 62
7
  6
CONTINUOUS
 10
0.0
 20
-66.25
 40
2.0
100
AcDbArc
 50
34.5906080924
 51
85.4106167488
  0
ARC
  5
439
100
AcDbEntity
  8
RACCORDO
100
AcDbCircle
 62
7
  6
CONTINUOUS
 10
0.0
 20
-66.25
 40
2.0
100
AcDbArc
 50
94.5893798827
 51
145.4107867348
  0
ARC
  5
43A
100
AcDbEntity
  8
RACCORDO
100
AcDbCircle
 62
7
  6
CONTINUOUS
 10
0.0
 20
-66.25
 40
2.0
100
AcDbArc
 50
214.5893757793
 51
265.410617909
  0
ARC
  5
43B
100
AcDbEntity
  8
RACCORDO
100
AcDbCircle
 62
7
  6
CONTINUOUS
 10
0.0
 20
-66.25
 40
2.0
100
AcDbArc
 50
274.5893820008
 51
325.4106239176
  0
ARC
  5
43C
100
AcDbEntity
  8
RACCORDO
100
AcDbCircle
 62
7
  6
CONTINUOUS
 10
0.0
 20
-66.25
 40
2.0
100
AcDbArc
 50
154.5893798802
 51
205.4120981699
  0
ARC
  5
43D
100
AcDbEntity
  8
RACCORDO
100
AcDbCircle
 62
7
  6
CONTINUOUS
 10
0.0
 20
-66.25
 40
2.0
100
AcDbArc
 50
334.5893943667
 51
25.4108714273
  0
ARC
  5
43E
100
AcDbEntity
  8
RACCORDO
100
AcDbCircle
 62
250
  6
CONTINUOUS
 10
0.0
 20
-66.25
 40
1.5292893219
100
AcDbArc
 50
168.541169179
 51
191.458830821
  0
ARC
  5
43F
100
AcDbEntity
  8
RACCORDO
100
AcDbCircle
 62
250
  6
CONTINUOUS
 10
0.0
 20
-66.25
 40
1.5292893219
100
AcDbArc
 50
348.541169179
 51
11.458830821
  0
ARC
  5
440
100
AcDbEntity
  8
RACCORDO
100
AcDbCircle
 62
250
  6
CONTINUOUS
 10
0.0
 20
-66.25
 40
1.5292893219
100
AcDbArc
 50
288.541169179
 51
311.458830821
  0
ARC
  5
441
100
AcDbEntity
  8
RACCORDO
100
AcDbCircle
 62
250
  6
CONTINUOUS
 10
0.0
 20
-66.25
 40
1.5292893219
100
AcDbArc
 50
228.541169179
 51
251.458830821
  0
ARC
  5
442
100
AcDbEntity
  8
RACCORDO
100
AcDbCircle
 62
250
  6
CONTINUOUS
 10
0.0
 20
-66.25
 40
1.5292893219
100
AcDbArc
 50
108.541169179
 51
131.458830821
  0
ARC
  5
443
100
AcDbEntity
  8
RACCORDO
100
AcDbCircle
 62
250
  6
CONTINUOUS
 10
0.0
 20
-66.25
 40
1.5292893219
100
AcDbArc
 50
48.541169179
 51
71.458830821
  0
ARC
  5
444
100
AcDbEntity
  8
RACCORDO
100
AcDbCircle
 62
7
  6
CONTINUOUS
 10
0.0
 20
-66.25
 40
1.5
100
AcDbArc
 50
348.541169179
 51
11.458830821
  0
ARC
  5
445
100
AcDbEntity
  8
RACCORDO
100
AcDbCircle
 62
7
  6
CONTINUOUS
 10
0.0
 20
-66.25
 40
1.5
100
AcDbArc
 50
288.541169179
 51
311.458830821
  0
ARC
  5
446
100
AcDbEntity
  8
RACCORDO
100
AcDbCircle
 62
7
  6
CONTINUOUS
 10
0.0
 20
-66.25
 40
1.5
100
AcDbArc
 50
228.541169179
 51
251.458830821
  0
ARC
  5
447
100
AcDbEntity
  8
RACCORDO
100
AcDbCircle
 62
7
  6
CONTINUOUS
 10
0.0
 20
-66.25
 40
1.5
100
AcDbArc
 50
168.541169179
 51
191.458830821
  0
ARC
  5
448
100
AcDbEntity
  8
RACCORDO
100
AcDbCircle
 62
7
  6
CONTINUOUS
 10
0.0
 20
-66.25
 40
1.5
100
AcDbArc
 50
108.541169179
 51
131.458830821
  0
ARC
  5
449
100
AcDbEntity
  8
RACCORDO
100
AcDbCircle
 62
7
  6
CONTINUOUS
 10
0.0
 20
-66.25
 40
1.5
100
AcDbArc
 50
48.541169179
 51
71.458830821
  0
CIRCLE
  5
44A
100
AcDbEntity
  8
RACCORDO
100
AcDbCircle
 62
7
  6
CONTINUOUS
 10
0.0
 20
-66.25
 40
0.65
  0
CIRCLE
  5
44B
100
AcDbEntity
  8
RACCORDO
100
AcDbCircle
 62
250
  6
CONTINUOUS
 10
0.0
 20
-66.25
 40
0.55
  0
ARC
  5
44C
100
AcDbEntity
  8
RACCORDO
100
AcDbCircle
 62
7
  6
CONTINUOUS
 10
-0.0
 20
-64.55
 40
0.3
100
AcDbArc
 50
22.5
 51
157.5
  0
ARC
  5
44D
100
AcDbEntity
  8
RACCORDO
100
AcDbCircle
 62
7
  6
CONTINUOUS
 10
0.5087775692
 20
-64.7330473359
 40
0.1
100
AcDbArc
 50
202.5
 51
251.458830821
  0
ARC
  5
44E
100
AcDbEntity
  8
RACCORDO
100
AcDbCircle
 62
7
  6
CONTINUOUS
 10
1.4722431864
 20
-67.1
 40
0.3
100
AcDbArc
 50
262.5
 51
37.5
  0
ARC
  5
44F
100
AcDbEntity
  8
RACCORDO
100
AcDbCircle
 62
7
  6
CONTINUOUS
 10
1.0593307588
 20
-67.4490906319
 40
0.1
100
AcDbArc
 50
82.5
 51
131.458830821
  0
ARC
  5
450
100
AcDbEntity
  8
RACCORDO
100
AcDbCircle
 62
7
  6
CONTINUOUS
 10
1.568108328
 20
-66.5678620322
 40
0.1
100
AcDbArc
 50
168.541169179
 51
217.5
  0
ARC
  5
451
100
AcDbEntity
  8
RACCORDO
100
AcDbCircle
 62
7
  6
CONTINUOUS
 10
1.4722431864
 20
-65.4
 40
0.3
100
AcDbArc
 50
322.5
 51
97.5
  0
ARC
  5
452
100
AcDbEntity
  8
RACCORDO
100
AcDbCircle
 62
7
  6
CONTINUOUS
 10
1.568108328
 20
-65.9321379678
 40
0.1
100
AcDbArc
 50
142.5
 51
191.458830821
  0
ARC
  5
453
100
AcDbEntity
  8
RACCORDO
100
AcDbCircle
 62
7
  6
CONTINUOUS
 10
1.0593307588
 20
-65.0509093681
 40
0.1
100
AcDbArc
 50
228.541169179
 51
277.5
  0
ARC
  5
454
100
AcDbEntity
  8
RACCORDO
100
AcDbCircle
 62
7
  6
CONTINUOUS
 10
20.0
 20
-20.0
 40
0.5
100
AcDbArc
 50
270.0
 51
360.0
  0
ARC
  5
455
100
AcDbEntity
  8
RACCORDO
100
AcDbCircle
 62
7
  6
CONTINUOUS
 10
58.9
 20
-82.6
 40
1.0
100
AcDbArc
 50
270.0
 51
360.0
  0
ARC
  5
456
100
AcDbEntity
  8
RACCORDO
100
AcDbCircle
 62
7
  6
CONTINUOUS
 10
20.0
 20
20.0
 40
0.5
100
AcDbArc
 50
0.0
 51
90.0
  0
ARC
  5
457
100
AcDbEntity
  8
RACCORDO
100
AcDbCircle
 62
7
  6
CONTINUOUS
 10
-0.0
 20
64.55
 40
0.3
100
AcDbArc
 50
202.5
 51
337.5
  0
ARC
  5
458
100
AcDbEntity
  8
RACCORDO
100
AcDbCircle
 62
7
  6
CONTINUOUS
 10
0.5087775692
 20
64.7330473359
 40
0.1
100
AcDbArc
 50
108.541169179
 51
157.5
  0
CIRCLE
  5
459
100
AcDbEntity
  8
ASSI
100
AcDbCircle
 62
7
  6
CONTINUOUS
 10
0.0
 20
66.25
 40
4.25
  0
CIRCLE
  5
45A
100
AcDbEntity
  8
RACCORDO
100
AcDbCircle
 62
7
  6
CONTINUOUS
 10
0.0
 20
66.25
 40
4.0
  0
CIRCLE
  5
45B
100
AcDbEntity
  8
RACCORDO
100
AcDbCircle
 62
250
  6
CONTINUOUS
 10
0.0
 20
66.25
 40
3.75
  0
ARC
  5
45C
100
AcDbEntity
  8
RACCORDO
100
AcDbCircle
 62
7
  6
CONTINUOUS
 10
0.0
 20
66.25
 40
2.0
100
AcDbArc
 50
34.5906080924
 51
85.4106167488
  0
ARC
  5
45D
100
AcDbEntity
  8
RACCORDO
100
AcDbCircle
 62
7
  6
CONTINUOUS
 10
0.0
 20
66.25
 40
2.0
100
AcDbArc
 50
94.5893798827
 51
145.4107867348
  0
ARC
  5
45E
100
AcDbEntity
  8
RACCORDO
100
AcDbCircle
 62
7
  6
CONTINUOUS
 10
0.0
 20
66.25
 40
2.0
100
AcDbArc
 50
214.5893757793
 51
265.410617909
  0
ARC
  5
45F
100
AcDbEntity
  8
RACCORDO
100
AcDbCircle
 62
7
  6
CONTINUOUS
 10
0.0
 20
66.25
 40
2.0
100
AcDbArc
 50
274.5893820008
 51
325.4106239176
  0
ARC
  5
460
100
AcDbEntity
  8
RACCORDO
100
AcDbCircle
 62
7
  6
CONTINUOUS
 10
0.0
 20
66.25
 40
2.0
100
AcDbArc
 50
154.5893798802
 51
205.4120981699
  0
ARC
  5
461
100
AcDbEntity
  8
RACCORDO
100
AcDbCircle
 62
7
  6
CONTINUOUS
 10
0.0
 20
66.25
 40
2.0
100
AcDbArc
 50
334.5893943667
 51
25.4108714273
  0
ARC
  5
462
100
AcDbEntity
  8
RACCORDO
100
AcDbCircle
 62
250
  6
CONTINUOUS
 10
0.0
 20
66.25
 40
1.5292893219
100
AcDbArc
 50
168.541169179
 51
191.458830821
  0
ARC
  5
463
100
AcDbEntity
  8
RACCORDO
100
AcDbCircle
 62
250
  6
CONTINUOUS
 10
0.0
 20
66.25
 40
1.5292893219
100
AcDbArc
 50
348.541169179
 51
11.458830821
  0
ARC
  5
464
100
AcDbEntity
  8
RACCORDO
100
AcDbCircle
 62
250
  6
CONTINUOUS
 10
0.0
 20
66.25
 40
1.5292893219
100
AcDbArc
 50
288.541169179
 51
311.458830821
  0
ARC
  5
465
100
AcDbEntity
  8
RACCORDO
100
AcDbCircle
 62
250
  6
CONTINUOUS
 10
0.0
 20
66.25
 40
1.5292893219
100
AcDbArc
 50
228.541169179
 51
251.458830821
  0
ARC
  5
466
100
AcDbEntity
  8
RACCORDO
100
AcDbCircle
 62
250
  6
CONTINUOUS
 10
0.0
 20
66.25
 40
1.5292893219
100
AcDbArc
 50
108.541169179
 51
131.458830821
  0
ARC
  5
467
100
AcDbEntity
  8
RACCORDO
100
AcDbCircle
 62
250
  6
CONTINUOUS
 10
0.0
 20
66.25
 40
1.5292893219
100
AcDbArc
 50
48.541169179
 51
71.458830821
  0
ARC
  5
468
100
AcDbEntity
  8
RACCORDO
100
AcDbCircle
 62
7
  6
CONTINUOUS
 10
0.0
 20
66.25
 40
1.5
100
AcDbArc
 50
348.541169179
 51
11.458830821
  0
ARC
  5
469
100
AcDbEntity
  8
RACCORDO
100
AcDbCircle
 62
7
  6
CONTINUOUS
 10
0.0
 20
66.25
 40
1.5
100
AcDbArc
 50
288.541169179
 51
311.458830821
  0
ARC
  5
46A
100
AcDbEntity
  8
RACCORDO
100
AcDbCircle
 62
7
  6
CONTINUOUS
 10
0.0
 20
66.25
 40
1.5
100
AcDbArc
 50
228.541169179
 51
251.458830821
  0
ARC
  5
46B
100
AcDbEntity
  8
RACCORDO
100
AcDbCircle
 62
7
  6
CONTINUOUS
 10
0.0
 20
66.25
 40
1.5
100
AcDbArc
 50
168.541169179
 51
191.458830821
  0
ARC
  5
46C
100
AcDbEntity
  8
RACCORDO
100
AcDbCircle
 62
7
  6
CONTINUOUS
 10
0.0
 20
66.25
 40
1.5
100
AcDbArc
 50
108.541169179
 51
131.458830821
  0
ARC
  5
46D
100
AcDbEntity
  8
RACCORDO
100
AcDbCircle
 62
7
  6
CONTINUOUS
 10
0.0
 20
66.25
 40
1.5
100
AcDbArc
 50
48.541169179
 51
71.458830821
  0
CIRCLE
  5
46E
100
AcDbEntity
  8
RACCORDO
100
AcDbCircle
 62
7
  6
CONTINUOUS
 10
0.0
 20
66.25
 40
0.65
  0
CIRCLE
  5
46F
100
AcDbEntity
  8
RACCORDO
100
AcDbCircle
 62
250
  6
CONTINUOUS
 10
0.0
 20
66.25
 40
0.55
  0
ARC
  5
470
100
AcDbEntity
  8
RACCORDO
100
AcDbCircle
 62
7
  6
CONTINUOUS
 10
-0.0
 20
67.95
 40
0.3
100
AcDbArc
 50
22.5
 51
157.5
  0
ARC
  5
471
100
AcDbEntity
  8
RACCORDO
100
AcDbCircle
 62
7
  6
CONTINUOUS
 10
0.5087775692
 20
67.7669526641
 40
0.1
100
AcDbArc
 50
202.5
 51
251.458830821
  0
ARC
  5
472
100
AcDbEntity
  8
RACCORDO
100
AcDbCircle
 62
7
  6
CONTINUOUS
 10
1.4722431864
 20
65.4
 40
0.3
100
AcDbArc
 50
262.5
 51
37.5
  0
ARC
  5
473
100
AcDbEntity
  8
RACCORDO
100
AcDbCircle
 62
7
  6
CONTINUOUS
 10
1.0593307588
 20
65.0509093681
 40
0.1
100
AcDbArc
 50
82.5
 51
131.458830821
  0
ARC
  5
474
100
AcDbEntity
  8
RACCORDO
100
AcDbCircle
 62
7
  6
CONTINUOUS
 10
1.568108328
 20
65.9321379678
 40
0.1
100
AcDbArc
 50
168.541169179
 51
217.5
  0
ARC
  5
475
100
AcDbEntity
  8
RACCORDO
100
AcDbCircle
 62
7
  6
CONTINUOUS
 10
1.4722431864
 20
67.1
 40
0.3
100
AcDbArc
 50
322.5
 51
97.5
  0
ARC
  5
476
100
AcDbEntity
  8
RACCORDO
100
AcDbCircle
 62
7
  6
CONTINUOUS
 10
1.568108328
 20
66.5678620322
 40
0.1
100
AcDbArc
 50
142.5
 51
191.458830821
  0
ARC
  5
477
100
AcDbEntity
  8
RACCORDO
100
AcDbCircle
 62
7
  6
CONTINUOUS
 10
1.0593307588
 20
67.4490906319
 40
0.1
100
AcDbArc
 50
228.541169179
 51
277.5
  0
ARC
  5
478
100
AcDbEntity
  8
RACCORDO
100
AcDbCircle
 62
7
  6
CONTINUOUS
 10
58.9
 20
82.6
 40
1.0
100
AcDbArc
 50
0.0
 51
90.0
  0
ENDSEC
  0
SECTION
  2
OBJECTS
  0
DICTIONARY
  5
C
100
AcDbDictionary
280
0
281
1
  3
ACAD_GROUP
350
D
  3
ACAD_MLINESTYLE
350
17
  3
ACAD_LAYOUT
350
1A
  3
ACAD_PLOTSETTINGS
350
19
  3
ACAD_PLOTSTYLENAME
350
E
  0
DICTIONARY
  5
D
102
{ACAD_REACTORS
330
C
102
}
100
AcDbDictionary
280
0
281
1
  0
ACDBDICTIONARYWDFLT
  5
E
102
{ACAD_REACTORS
330
C
102
}
100
AcDbDictionary
281
1
  3
Normal
350
F
100
AcDbDictionaryWithDefault
340
F
  0
DICTIONARY
  5
17
102
{ACAD_REACTORS
330
C
102
}
100
AcDbDictionary
280
0
281
1
  3
Standard
350
18
  0
DICTIONARY
  5
19
102
{ACAD_REACTORS
330
C
102
}
100
AcDbDictionary
281
1
  0
DICTIONARY
  5
1A
102
{ACAD_REACTORS
330
C
102
}
100
AcDbDictionary
281
1
  3
Model
350
479
  3
Layout1
350
47A
  0
ACDBPLACEHOLDER
  5
F
102
{ACAD_REACTORS
330
E
102
}
  0
MLINESTYLE
  5
18
102
{ACAD_REACTORS
330
17
102
}
100
AcDbMlineStyle
  2
STANDARD
 70
0
  3

 62
256
 51
90.0
 52
90.0
 71
2
 49
0.5
 62
256
  6
BYLAYER
 49
-0.5
 62
256
  6
BYLAYER
  0
LAYOUT
  5
479
102
{ACAD_REACTORS
330
1A
102
}
100
AcDbPlotSettings
  1

  2
none_device
  4

  6

 40
0.0
 41
0.0
 42
0.0
 43
0.0
 44
210.0
 45
297.0
 46
0.0
 47
0.0
 48
0.0
 49
0.0
140
0.0
141
0.0
142
1.0
143
1.0
 70
1024
 72
1
 73
0
 74
0
  7

 75
0
147
1.0
148
0.0
149
0.0
100
AcDbLayout
  1
Model
 70
0
 71
0
 10
0.0
 20
0.0
 11
210.0
 21
297.0
 12
0.0
 22
0.0
 32
0.0
 14
0.0
 24
0.0
 34
0.0
 15
0.0
 25
0.0
 35
0.0
146
0.0
 13
0.0
 23
0.0
 33
0.0
 16
1.0
 26
0.0
 36
0.0
 17
0.0
 27
1.0
 37
0.0
 76
0
330
210
345
0
346
0
  0
LAYOUT
  5
47A
102
{ACAD_REACTORS
330
1A
102
}
100
AcDbPlotSettings
  1

  2
none_device
  4

  6

 40
0.0
 41
0.0
 42
0.0
 43
0.0
 44
210.0
 45
297.0
 46
0.0
 47
0.0
 48
0.0
 49
0.0
140
0.0
141
0.0
142
1.0
143
1.0
 70
0
 72
1
 73
0
 74
0
  7

 75
0
147
1.0
148
0.0
149
0.0
100
AcDbLayout
  1
Layout1
 70
0
 71
1
 10
0.0
 20
0.0
 11
210.0
 21
297.0
 12
0.0
 22
0.0
 32
0.0
 14
0.0
 24
0.0
 34
0.0
 15
0.0
 25
0.0
 35
0.0
146
0.0
 13
0.0
 23
0.0
 33
0.0
 16
1.0
 26
0.0
 36
0.0
 17
0.0
 27
1.0
 37
0.0
 76
0
330
211
345
0
346
0
  0
ENDSEC
  0
EOF
