  0
SECTION
  2
HEADER
  9
$ACADVER
  1
AC1024
  9
$DWGCODEPAGE
  3
ANSI_1252
  9
$EXTMAX
 10
420.0
 20
297.0
 30
0.0
  9
$EXTMIN
 10
0.0
 20
0.0
 30
0.0
  9
$LIMMIN
 10
0.0
 20
0.0
  9
$LIMMAX
 10
420.0
 20
297.0
  9
$VIEWCTR
 10
210.0
 20
148.5
  9
$VIEWSIZE
 40
297.0
  9
$CLAYER
  8
0
  9
$LTSCALE
 40
23.1
  9
$CELTYPE
  6
BYLAYER
  9
$DIMSCALE
 40
1.0
  9
$DIMASZ
 40
3.0
  9
$DIMEXO
 40
0.5
  9
$DIMDLI
 40
15.96
  9
$DIMEXE
 40
1.5
  9
$DIMCEN
 40
3.78
  9
$DIMLFAC
 40
1.0
  9
$DIMBLK
  1
_FILLED
  9
$DIMALT
 70
0
  9
$DIMALTF
 40
0.0393700787
  9
$DIMTXT
 40
3.0
  9
$DIMTOL
 70
1
  9
$DIMLIM
 70
0
  9
$DIMTFAC
 40
1.0
  9
$DIMTP
 40
0.01
  9
$DIMTM
 40
0.01
  9
$DIMGAP
 40
0.625
  9
$DIMDSEP
 70
44
  9
$AUNITS
 70
0
  9
$PDMODE
 70
3
  9
$PDSIZE
 40
3.0
  9
$HANDSEED
  5
519
  9
$TILEMODE
 70
1
  9
$MEASUREMENT
 70
1
  9
$INSUNITS
 70
4
  0
ENDSEC
  0
SECTION
  2
CLASSES
  0
CLASS
  1
ACDBDICTIONARYWDFLT
  2
AcDbDictionaryWithDefault
  3
AutoCAD 2000
 90
0
 91
1
280
0
281
0
  0
CLASS
  1
ACDBPLACEHOLDER
  2
AcDbPlaceHolder
  3
AutoCAD 2000
 90
0
 91
1
280
0
281
0
  0
CLASS
  1
LAYOUT
  2
AcDbLayout
  3
AutoCAD 2000
 90
0
 91
0
280
0
281
0
  0
ENDSEC
  0
SECTION
  2
TABLES
  0
TABLE
  2
VPORT
  5
8
100
AcDbSymbolTable
 70
2
  0
VPORT
  5
1F4
100
AcDbSymbolTableRecord
100
AcDbViewportTableRecord
  2
*ACTIVE
 70
0
 10
0.0
 20
0.0
 11
1.0
 21
1.0
 12
210.0
 22
148.5
 13
0.0
 23
0.0
 14
1.0
 24
1.0
 15
0.0
 25
0.0
 16
0.0
 26
0.0
 36
1.0
 17
0.0
 27
0.0
 37
0.0
 40
297.0
 41
1.4141414141
 42
50.0
 43
0.0
 44
0.0
 50
0.0
 51
0.0
 71
0
 72
100
 73
1
 74
1
 75
0
 76
0
 77
0
 78
0
  0
ENDTAB
  0
TABLE
  2
LTYPE
  5
5
100
AcDbSymbolTable
 70
6
  0
LTYPE
  5
14
100
AcDbSymbolTableRecord
100
AcDbLinetypeTableRecord
  2
BYBLOCK
 70
0
  3

 72
65
 73
0
 40
0.0
  0
LTYPE
  5
15
100
AcDbSymbolTableRecord
100
AcDbLinetypeTableRecord
  2
BYLAYER
 70
0
  3

 72
65
 73
0
 40
0.0
  0
LTYPE
  5
16
100
AcDbSymbolTableRecord
100
AcDbLinetypeTableRecord
  2
CONTINUOUS
 70
64
  3
Solid line
 72
65
 73
0
 40
0.0
  0
LTYPE
  5
1F5
100
AcDbSymbolTableRecord
100
AcDbLinetypeTableRecord
  2
CENTER
 70
64
  3
____ _ ____ _ ____ _ ____ _ ____ _ ____ _ ____
 72
65
 73
4
 40
0.6
 49
0.375
 74
0
 49
-0.075
 74
0
 49
0.075
 74
0
 49
-0.075
 74
0
  0
LTYPE
  5
1F6
100
AcDbSymbolTableRecord
100
AcDbLinetypeTableRecord
  2
HIDDEN
 70
64
  3
- - - - - - - - - - - - - - - - - - - -
 72
65
 73
2
 40
0.2
 49
0.1
 74
0
 49
-0.1
 74
0
  0
LTYPE
  5
1F7
100
AcDbSymbolTableRecord
100
AcDbLinetypeTableRecord
  2
PHANTOM
 70
64
  3
_____ _ _ _____ _ _ _____ _ _ _____
 72
65
 73
6
 40
0.8
 49
0.45
 74
0
 49
-0.05
 74
0
 49
0.1
 74
0
 49
-0.05
 74
0
 49
0.1
 74
0
 49
-0.05
 74
0
  0
LTYPE
  5
1F8
100
AcDbSymbolTableRecord
100
AcDbLinetypeTableRecord
  2
DOT
 70
64
  3
. . . . . . . . . . . . . . . . . . . .
 72
65
 73
2
 40
0.2
 49
0.1
 74
0
 49
-0.1
 74
0
  0
LTYPE
  5
1F9
100
AcDbSymbolTableRecord
100
AcDbLinetypeTableRecord
  2
DASHED
 70
64
  3
- - - - - - - - - - - - - - - - - - - -
 72
65
 73
2
 40
0.2
 49
0.1
 74
0
 49
-0.1
 74
0
  0
ENDTAB
  0
TABLE
  2
LAYER
  5
2
100
AcDbSymbolTable
 70
36
  0
LAYER
  5
10
100
AcDbSymbolTableRecord
100
AcDbLayerTableRecord
  2
0
 70
0
 62
7
  6
CONTINUOUS
370
-3
390
F
  0
LAYER
  5
1FA
100
AcDbSymbolTableRecord
100
AcDbLayerTableRecord
  2
DEFAULT_1
 70
0
 62
7
  6
CENTER
370
-3
390
F
  0
LAYER
  5
1FB
100
AcDbSymbolTableRecord
100
AcDbLayerTableRecord
  2
DEFAULT_2
 70
0
 62
7
  6
HIDDEN
370
-3
390
F
  0
LAYER
  5
1FC
100
AcDbSymbolTableRecord
100
AcDbLayerTableRecord
  2
DEFAULT_3
 70
0
 62
7
  6
PHANTOM
370
-3
390
F
  0
LAYER
  5
1FD
100
AcDbSymbolTableRecord
100
AcDbLayerTableRecord
  2
ASSI
 70
0
 62
7
  6
CONTINUOUS
370
-3
390
F
  0
LAYER
  5
1FE
100
AcDbSymbolTableRecord
100
AcDbLayerTableRecord
  2
COLOR5
 70
0
 62
7
  6
CONTINUOUS
370
-3
390
F
  0
LAYER
  5
1FF
100
AcDbSymbolTableRecord
100
AcDbLayerTableRecord
  2
COLOR7
 70
0
 62
7
  6
CONTINUOUS
370
-3
390
F
  0
LAYER
  5
200
100
AcDbSymbolTableRecord
100
AcDbLayerTableRecord
  2
COORDINATE
 70
0
 62
7
  6
CONTINUOUS
370
-3
390
F
  0
LAYER
  5
201
100
AcDbSymbolTableRecord
100
AcDbLayerTableRecord
  2
COORD_ORIGINE
 70
0
 62
7
  6
CONTINUOUS
370
-3
390
F
  0
LAYER
  5
202
100
AcDbSymbolTableRecord
100
AcDbLayerTableRecord
  2
COPY_PUBLISH
 70
0
 62
7
  6
CONTINUOUS
370
-3
390
F
  0
LAYER
  5
203
100
AcDbSymbolTableRecord
100
AcDbLayerTableRecord
  2
COSMETICI
 70
0
 62
7
  6
CONTINUOUS
370
-3
390
F
  0
LAYER
  5
204
100
AcDbSymbolTableRecord
100
AcDbLayerTableRecord
  2
CURVE
 70
0
 62
7
  6
CONTINUOUS
370
-3
390
F
  0
LAYER
  5
205
100
AcDbSymbolTableRecord
100
AcDbLayerTableRecord
  2
DRAFT
 70
0
 62
7
  6
CONTINUOUS
370
-3
390
F
  0
LAYER
  5
206
100
AcDbSymbolTableRecord
100
AcDbLayerTableRecord
  2
IMPORT_IGES
 70
0
 62
7
  6
CONTINUOUS
370
-3
390
F
  0
LAYER
  5
207
100
AcDbSymbolTableRecord
100
AcDbLayerTableRecord
  2
NOTE
 70
0
 62
7
  6
CONTINUOUS
370
-3
390
F
  0
LAYER
  5
208
100
AcDbSymbolTableRecord
100
AcDbLayerTableRecord
  2
PIANI
 70
0
 62
7
  6
CONTINUOUS
370
-3
390
F
  0
LAYER
  5
209
100
AcDbSymbolTableRecord
100
AcDbLayerTableRecord
  2
PIANI_ORIGINE
 70
0
 62
7
  6
CONTINUOUS
370
-3
390
F
  0
LAYER
  5
20A
100
AcDbSymbolTableRecord
100
AcDbLayerTableRecord
  2
PUNTI
 70
0
 62
7
  6
CONTINUOUS
370
-3
390
F
  0
LAYER
  5
20B
100
AcDbSymbolTableRecord
100
AcDbLayerTableRecord
  2
RACCORDO
 70
0
 62
7
  6
CONTINUOUS
370
-3
390
F
  0
LAYER
  5
20C
100
AcDbSymbolTableRecord
100
AcDbLayerTableRecord
  2
SIMBOLI
 70
0
 62
7
  6
CONTINUOUS
370
-3
390
F
  0
LAYER
  5
20D
100
AcDbSymbolTableRecord
100
AcDbLayerTableRecord
  2
SMUSSO
 70
0
 62
7
  6
CONTINUOUS
370
-3
390
F
  0
LAYER
  5
20E
100
AcDbSymbolTableRecord
100
AcDbLayerTableRecord
  2
SNAPLINE
 70
0
 62
7
  6
CONTINUOUS
370
-3
390
F
  0
LAYER
  5
20F
100
AcDbSymbolTableRecord
100
AcDbLayerTableRecord
  2
SUPERFICI
 70
0
 62
7
  6
CONTINUOUS
370
-3
390
F
  0
LAYER
  5
210
100
AcDbSymbolTableRecord
100
AcDbLayerTableRecord
  2
TRASH
 70
0
 62
7
  6
CONTINUOUS
370
-3
390
F
  0
ENDTAB
  0
TABLE
  2
STYLE
  5
3
100
AcDbSymbolTable
 70
1
  0
STYLE
  5
11
100
AcDbSymbolTableRecord
100
AcDbTextStyleTableRecord
  2
STANDARD
 70
0
 40
0.0
 41
0.8
 50
0.0
 71
0
 42
0.2
  3
txt
  4

  0
STYLE
  5
211
100
AcDbSymbolTableRecord
100
AcDbTextStyleTableRecord
  2
TEXTSTYLE_1
 70
0
 40
0.0
 41
0.8
 50
0.0
 71
0
 42
0.2
  3
gdt
  4

  0
ENDTAB
  0
TABLE
  2
VIEW
  5
6
100
AcDbSymbolTable
 70
0
  0
ENDTAB
  0
TABLE
  2
UCS
  5
7
100
AcDbSymbolTable
 70
0
  0
ENDTAB
  0
TABLE
  2
APPID
  5
9
100
AcDbSymbolTable
 70
1
  0
APPID
  5
212
100
AcDbSymbolTableRecord
100
AcDbRegAppTableRecord
  2
ACAD
 70
0
  0
ENDTAB
  0
TABLE
  2
BLOCK_RECORD
  5
1
100
AcDbSymbolTable
 70
0
  0
BLOCK_RECORD
  5
213
100
AcDbSymbolTableRecord
100
AcDbBlockTableRecord
  2
*Model_Space
  0
BLOCK_RECORD
  5
214
100
AcDbSymbolTableRecord
100
AcDbBlockTableRecord
  2
*Paper_Space
  0
BLOCK_RECORD
  5
215
100
AcDbSymbolTableRecord
100
AcDbBlockTableRecord
  2
_FILLED
  0
BLOCK_RECORD
  5
216
100
AcDbSymbolTableRecord
100
AcDbBlockTableRecord
  2
*D0
  0
BLOCK_RECORD
  5
217
100
AcDbSymbolTableRecord
100
AcDbBlockTableRecord
  2
*D1
  0
BLOCK_RECORD
  5
218
100
AcDbSymbolTableRecord
100
AcDbBlockTableRecord
  2
*D2
  0
BLOCK_RECORD
  5
219
100
AcDbSymbolTableRecord
100
AcDbBlockTableRecord
  2
*D3
  0
ENDTAB
  0
TABLE
  2
DIMSTYLE
  5
A
100
AcDbSymbolTable
 70
1
100
AcDbDimStyleTable
 71
0
  0
DIMSTYLE
105
21A
100
AcDbSymbolTableRecord
100
AcDbDimStyleTableRecord
  2
STANDARD
 70
0
  3

  4

 40
1.0
 41
3.0
 42
0.5
 43
0.38
 44
1.5
 45
0.0
 46
0.0
 47
0.01
 48
0.01
140
3.0
141
0.0
142
0.0
143
25.4
144
1.0
145
0.0
146
1.0
147
0.625
 71
1
 72
0
 73
0
 74
0
 75
0
 76
0
 77
1
 78
8
 79
2
170
0
171
1
172
0
173
0
174
0
175
0
176
0
177
0
178
0
270
2
179
2
271
2
272
2
273
2
274
2
275
0
280
0
281
0
282
0
283
1
284
8
285
0
286
0
287
3
288
0
340
11
278
44
341
215
342
215
343
215
344
215
  0
DIMSTYLE
105
21B
100
AcDbSymbolTableRecord
100
AcDbDimStyleTableRecord
  2
DIMSTYLE_1
 70
0
  3

  4

 40
1.0
 41
3.0
 42
0.5
 43
0.38
 44
1.5
 45
0.0
 46
0.0
 47
0.0
 48
0.0
140
3.0
141
0.0
142
0.0
143
25.4
144
1.0
145
0.0
146
1.0
147
0.75
 71
0
 72
0
 73
0
 74
0
 75
0
 76
0
 77
1
 78
8
 79
2
170
0
171
1
172
0
173
0
174
0
175
0
176
0
177
0
178
0
270
2
179
2
271
2
272
2
273
2
274
2
275
0
280
0
281
0
282
0
283
1
284
8
285
0
286
0
287
3
288
0
340
11
278
44
341
215
342
215
343
215
344
215
  0
DIMSTYLE
105
21C
100
AcDbSymbolTableRecord
100
AcDbDimStyleTableRecord
  2
DIMSTYLE_2
 70
0
  3

  4

 40
1.0
 41
3.0
 42
0.5
 43
0.38
 44
1.5
 45
0.0
 46
0.0
 47
0.0
 48
0.0
140
3.0
141
0.0
142
0.0
143
25.4
144
1.0
145
0.0
146
1.0
147
0.75
 71
0
 72
0
 73
0
 74
0
 75
0
 76
0
 77
1
 78
8
 79
2
170
0
171
1
172
0
173
0
174
0
175
0
176
0
177
0
178
0
270
2
179
2
271
0
272
0
273
2
274
2
275
0
280
0
281
0
282
0
283
1
284
8
285
0
286
0
287
3
288
0
340
11
278
44
341
215
342
215
343
215
344
215
  0
ENDTAB
  0
ENDSEC
  0
SECTION
  2
BLOCKS
  0
BLOCK
  5
20
100
AcDbEntity
  8
0
100
AcDbBlockBegin
  2
*Model_Space
 70
0
 10
0.0
 20
0.0
 30
0.0
  3
*Model_Space
  1

  0
ENDBLK
  5
21
100
AcDbEntity
  8
0
100
AcDbBlockEnd
  0
BLOCK
  5
1C
100
AcDbEntity
  8
0
100
AcDbBlockBegin
  2
*Paper_Space
 70
0
 10
0.0
 20
0.0
 30
0.0
  3
*Paper_Space
  1

  0
ENDBLK
  5
1D
100
AcDbEntity
  8
0
100
AcDbBlockEnd
  0
BLOCK
  5
21D
100
AcDbEntity
  8
0
100
AcDbBlockBegin
  2
_FILLED
 70
64
 10
0.0
 20
0.0
 30
0.0
  3
_FILLED
  1

  0
SOLID
  5
21E
100
AcDbEntity
  8
0
  6
BYBLOCK
 62
0
100
AcDbTrace
 10
0.0
 20
0.0
 30
0.0
 11
-1.0
 21
0.3166666667
 31
0.0
 12
-1.0
 22
-0.3166666667
 32
0.0
 13
-1.0
 23
-0.3166666667
 33
0.0
  0
ENDBLK
  5
21F
100
AcDbEntity
  8
0
  6
BYBLOCK
 62
0
100
AcDbBlockEnd
  0
BLOCK
  5
220
100
AcDbEntity
  8
0
100
AcDbBlockBegin
 62
7
  6
CONTINUOUS
  2
*D0
 70
65
 10
0.0
 20
0.0
 30
0.0
  3
*D0
  1

  0
MTEXT
  5
221
100
AcDbEntity
  8
0
100
AcDbMText
 62
7
  6
CONTINUOUS
  7
STANDARD
 71
2
 72
1
 10
-0.0
 20
149.7733127327
 30
0.0
 11
1.0
 21
0.0
 31
0.0
 73
2
 44
0.9
  1
{\ftxt;\W0.0001;\H0.0001;\~}{\ftxt;\W2.0;\H3.0; }{\ftxt;\W0.0001;\H0.0001;\~}
 40
3.0
 41
9.0
  0
LINE
  5
222
100
AcDbEntity
  8
0
100
AcDbLine
 62
7
  6
CONTINUOUS
 10
-66.5
 20
131.2766872673
 30
0.0
 11
-66.5
 21
147.5233127327
 31
0.0
  0
LINE
  5
223
100
AcDbEntity
  8
0
100
AcDbLine
 62
7
  6
CONTINUOUS
 10
66.5
 20
131.2766872673
 30
0.0
 11
66.5
 21
147.5233127327
 31
0.0
  0
LINE
  5
224
100
AcDbEntity
  8
0
100
AcDbLine
 62
7
  6
CONTINUOUS
 10
-66.5
 20
146.0233127327
 30
0.0
 11
-0.0
 21
146.0233127327
 31
0.0
  0
LINE
  5
225
100
AcDbEntity
  8
0
100
AcDbLine
 62
7
  6
CONTINUOUS
 10
66.5
 20
146.0233127327
 30
0.0
 11
-0.0
 21
146.0233127327
 31
0.0
  0
INSERT
  5
226
100
AcDbEntity
  8
0
100
AcDbBlockReference
 62
7
  6
CONTINUOUS
  2
_FILLED
 10
-66.5
 20
146.0233127327
 30
0.0
 41
3.0
 42
3.0
 43
3.0
 50
180.0
  0
INSERT
  5
227
100
AcDbEntity
  8
0
100
AcDbBlockReference
 62
7
  6
CONTINUOUS
  2
_FILLED
 10
66.5
 20
146.0233127327
 30
0.0
 41
3.0
 42
3.0
 43
3.0
  0
ENDBLK
  5
228
100
AcDbEntity
  8
0
  6
BYBLOCK
 62
0
100
AcDbBlockEnd
  0
BLOCK
  5
229
100
AcDbEntity
  8
0
100
AcDbBlockBegin
 62
7
  6
CONTINUOUS
  2
*D1
 70
65
 10
0.0
 20
0.0
 30
0.0
  3
*D1
  1

  0
MTEXT
  5
22A
100
AcDbEntity
  8
0
100
AcDbMText
 62
7
  6
CONTINUOUS
  7
STANDARD
 71
2
 72
1
 10
70.75
 20
23.05
 30
0.0
 11
0.0
 21
1.0
 31
0.0
 73
2
 44
0.9
  1
{\ftxt;\W0.0001;\H0.0001;\~}{\ftxt;\W2.2857142857;\H3.0; }{\ftxt;\W0.0001;\H0.0001;\~}
 40
3.0
 41
10.2857142857
  0
LINE
  5
22B
100
AcDbEntity
  8
0
100
AcDbLine
 62
7
  6
CONTINUOUS
 10
60.5
 20
138.0233127327
 30
0.0
 11
76.0
 21
138.0233127327
 31
0.0
  0
LINE
  5
22C
100
AcDbEntity
  8
0
100
AcDbLine
 62
7
  6
CONTINUOUS
 10
60.5
 20
-91.9233127327
 30
0.0
 11
76.0
 21
-91.9233127327
 31
0.0
  0
LINE
  5
22D
100
AcDbEntity
  8
0
100
AcDbLine
 62
7
  6
CONTINUOUS
 10
74.5
 20
138.0233127327
 30
0.0
 11
74.5
 21
23.05
 31
0.0
  0
LINE
  5
22E
100
AcDbEntity
  8
0
100
AcDbLine
 62
7
  6
CONTINUOUS
 10
74.5
 20
-91.9233127327
 30
0.0
 11
74.5
 21
23.05
 31
0.0
  0
INSERT
  5
22F
100
AcDbEntity
  8
0
100
AcDbBlockReference
 62
7
  6
CONTINUOUS
  2
_FILLED
 10
74.5
 20
138.0233127327
 30
0.0
 41
3.0
 42
3.0
 43
3.0
 50
90.0
  0
INSERT
  5
230
100
AcDbEntity
  8
0
100
AcDbBlockReference
 62
7
  6
CONTINUOUS
  2
_FILLED
 10
74.5
 20
-91.9233127327
 30
0.0
 41
3.0
 42
3.0
 43
3.0
 50
270.0
  0
ENDBLK
  5
231
100
AcDbEntity
  8
0
  6
BYBLOCK
 62
0
100
AcDbBlockEnd
  0
BLOCK
  5
232
100
AcDbEntity
  8
0
100
AcDbBlockBegin
 62
7
  6
CONTINUOUS
  2
*D2
 70
65
 10
0.0
 20
0.0
 30
0.0
  3
*D2
  1

  0
MTEXT
  5
233
100
AcDbEntity
  8
0
100
AcDbMText
 62
7
  6
CONTINUOUS
  7
STANDARD
 71
2
 72
1
 10
-177.1635174419
 20
161.4754894769
 30
0.0
 11
1.0
 21
0.0
 31
0.0
 73
2
 44
0.9
  1
{\ftxt;\W0.0001;\H0.0001;\~}{\ftxt;\W2.8571428571;\H3.0; }{\ftxt;\W0.0001;\H0.0001;\~}
 40
3.0
 41
12.8571428571
  0
LINE
  5
234
100
AcDbEntity
  8
0
100
AcDbLine
 62
7
  6
CONTINUOUS
 10
-200.4135174419
 20
137.4272725417
 30
0.0
 11
-200.4135174419
 21
159.2254894769
 31
0.0
  0
LINE
  5
235
100
AcDbEntity
  8
0
100
AcDbLine
 62
7
  6
CONTINUOUS
 10
-153.9135174419
 20
124.8209845119
 30
0.0
 11
-153.9135174419
 21
159.2254894769
 31
0.0
  0
LINE
  5
236
100
AcDbEntity
  8
0
100
AcDbLine
 62
7
  6
CONTINUOUS
 10
-200.4135174419
 20
157.7254894769
 30
0.0
 11
-177.1635174419
 21
157.7254894769
 31
0.0
  0
LINE
  5
237
100
AcDbEntity
  8
0
100
AcDbLine
 62
7
  6
CONTINUOUS
 10
-153.9135174419
 20
157.7254894769
 30
0.0
 11
-177.1635174419
 21
157.7254894769
 31
0.0
  0
INSERT
  5
238
100
AcDbEntity
  8
0
100
AcDbBlockReference
 62
7
  6
CONTINUOUS
  2
_FILLED
 10
-200.4135174419
 20
157.7254894769
 30
0.0
 41
3.0
 42
3.0
 43
3.0
 50
180.0
  0
INSERT
  5
239
100
AcDbEntity
  8
0
100
AcDbBlockReference
 62
7
  6
CONTINUOUS
  2
_FILLED
 10
-153.9135174419
 20
157.7254894769
 30
0.0
 41
3.0
 42
3.0
 43
3.0
  0
ENDBLK
  5
23A
100
AcDbEntity
  8
0
  6
BYBLOCK
 62
0
100
AcDbBlockEnd
  0
BLOCK
  5
23B
100
AcDbEntity
  8
0
100
AcDbBlockBegin
 62
7
  6
CONTINUOUS
  2
*D3
 70
65
 10
0.0
 20
0.0
 30
0.0
  3
*D3
  1

  0
MTEXT
  5
23C
100
AcDbEntity
  8
0
100
AcDbMText
 62
7
  6
CONTINUOUS
  7
STANDARD
 71
2
 72
1
 10
-167.8635178257
 20
149.7733127327
 30
0.0
 11
1.0
 21
0.0
 31
0.0
 73
2
 44
0.9
  1
{\ftxt;\W0.0001;\H0.0001;\~}{\ftxt;\W2.9285714286;\H3.0; }{\ftxt;\W0.0001;\H0.0001;\~}
 40
3.0
 41
13.1785714286
  0
LINE
  5
23D
100
AcDbEntity
  8
0
100
AcDbLine
 62
7
  6
CONTINUOUS
 10
-181.8135180364
 20
135.4604239747
 30
0.0
 11
-181.8135180932
 21
147.523312667
 31
0.0
  0
LINE
  5
23E
100
AcDbEntity
  8
0
100
AcDbLine
 62
7
  6
CONTINUOUS
 10
-153.9135174442
 20
124.8209845119
 30
0.0
 11
-153.9135175511
 21
147.5233127983
 31
0.0
  0
LINE
  5
23F
100
AcDbEntity
  8
0
100
AcDbLine
 62
7
  6
CONTINUOUS
 10
-181.8135180862
 20
146.023312667
 30
0.0
 11
-167.8635178151
 21
146.0233127327
 31
0.0
  0
LINE
  5
240
100
AcDbEntity
  8
0
100
AcDbLine
 62
7
  6
CONTINUOUS
 10
-153.913517544
 20
146.0233127983
 30
0.0
 11
-167.8635178151
 21
146.0233127327
 31
0.0
  0
INSERT
  5
241
100
AcDbEntity
  8
0
100
AcDbBlockReference
 62
7
  6
CONTINUOUS
  2
_FILLED
 10
-181.8135180862
 20
146.023312667
 30
0.0
 41
3.0
 42
3.0
 43
3.0
 50
180.0000002697
  0
INSERT
  5
242
100
AcDbEntity
  8
0
100
AcDbBlockReference
 62
7
  6
CONTINUOUS
  2
_FILLED
 10
-153.913517544
 20
146.0233127983
 30
0.0
 41
3.0
 42
3.0
 43
3.0
 50
0.0000002697
  0
ENDBLK
  5
243
100
AcDbEntity
  8
0
  6
BYBLOCK
 62
0
100
AcDbBlockEnd
  0
ENDSEC
  0
SECTION
  2
ENTITIES
  0
DIMENSION
  5
244
100
AcDbEntity
  8
0
100
AcDbDimension
 62
7
  6
CONTINUOUS
  2
*D0
 10
66.5
 20
146.0233127327
 30
0.0
 11
-0.4285714245
 21
146.0233127327
 31
0.0
 70
160
 71
2
 72
2
 41
0.9
 42
133.0
  1
{\ftxt;\W0.0001;\H0.0001;\~}{\ftxt;\W2.0;\H3.0; }{\ftxt;\W0.0001;\H0.0001;\~}
  3
DIMSTYLE_1
100
AcDbAlignedDimension
 13
-66.5
 23
130.7766872673
 33
0.0
 14
66.5
 24
130.7766872673
 34
0.0
100
AcDbRotatedDimension
  0
DIMENSION
  5
245
100
AcDbEntity
  8
0
100
AcDbDimension
 62
7
  6
CONTINUOUS
  2
*D1
 10
74.5
 20
-91.9233127327
 30
0.0
 11
74.5
 21
22.6214297921
 31
0.0
 70
160
 71
2
 72
2
 41
0.9
 42
229.9466254653
  1
{\ftxt;\W0.0001;\H0.0001;\~}{\ftxt;\W2.2857142857;\H3.0; }{\ftxt;\W0.0001;\H0.0001;\~}
  3
DIMSTYLE_2
100
AcDbAlignedDimension
 13
60.0
 23
138.0233127327
 33
0.0
 14
60.0
 24
-91.9233127327
 34
0.0
 50
270.0
100
AcDbRotatedDimension
  0
DIMENSION
  5
246
100
AcDbEntity
  8
0
100
AcDbDimension
 62
7
  6
CONTINUOUS
  2
*D2
 10
-153.9135174419
 20
157.7254894769
 30
0.0
 11
-177.5920870972
 21
157.7254894769
 31
0.0
 70
160
 71
2
 72
2
 41
0.9
 42
46.5
  1
{\ftxt;\W0.0001;\H0.0001;\~}{\ftxt;\W2.8571428571;\H3.0; }{\ftxt;\W0.0001;\H0.0001;\~}
  3
DIMSTYLE_1
100
AcDbAlignedDimension
 13
-200.4135174419
 23
136.9272725417
 33
0.0
 14
-153.9135174419
 24
124.3209845119
 34
0.0
100
AcDbRotatedDimension
  0
DIMENSION
  5
247
100
AcDbEntity
  8
0
100
AcDbDimension
 62
7
  6
CONTINUOUS
  2
*D3
 10
-153.913517544
 20
146.0233127983
 30
0.0
 11
-168.2920889181
 21
146.0233127306
 31
0.0
 70
160
 71
2
 72
2
 41
0.9
 42
27.9000005421
  1
{\ftxt;\W0.0001;\H0.0001;\~}{\ftxt;\W2.9285714286;\H3.0; }{\ftxt;\W0.0001;\H0.0001;\~}
  3
DIMSTYLE_1
100
AcDbAlignedDimension
 13
-181.8135180341
 23
134.9604239747
 33
0.0
 14
-153.9135174419
 24
124.3209845119
 34
0.0
 50
0.0000002697
100
AcDbRotatedDimension
  0
LWPOLYLINE
  5
248
100
AcDbEntity
  8
0
100
AcDbPolyline
 62
7
  6
CONTINUOUS
 90
5
 70
0
 43
0.3499999917
 10
-0.4285714245
 20
148.4875927734
 10
-0.0714285707
 20
148.7018865967
 10
-0.0714285707
 20
149.3447424316
 10
-0.4285714245
 20
149.7733172607
 10
-1.2857142735
 20
149.7733172607
  0
LWPOLYLINE
  5
249
100
AcDbEntity
  8
0
100
AcDbPolyline
 62
7
  6
CONTINUOUS
 90
5
 70
0
 43
0.3499999917
 10
1.7142856979
 20
148.4875927734
 10
2.0714286518
 20
148.7018865967
 10
2.0714286518
 20
149.3447424316
 10
1.7142856979
 20
149.7733172607
 10
0.857142849
 20
149.7733172607
  0
LWPOLYLINE
  5
24A
100
AcDbEntity
  8
0
100
AcDbPolyline
 62
7
  6
CONTINUOUS
 90
3
 70
0
 43
0.3499999917
 10
-2.9999999714
 20
148.9161676025
 10
-2.1428571224
 20
149.7733172607
 10
-2.1428571224
 20
146.7733190918
  0
LINE
  5
24B
100
AcDbEntity
  8
IMPORT_IGES
100
AcDbLine
 62
7
  6
CONTINUOUS
 10
4.6
 20
108.3896629299
 30
0.0
 11
4.1625
 21
108.2407267775
 31
0.0
  0
LINE
  5
24C
100
AcDbEntity
  8
IMPORT_IGES
100
AcDbLine
 62
7
  6
CONTINUOUS
 10
-2.2541668057
 20
104.3683864094
 30
0.0
 11
-1.6708331943
 21
104.6662587534
 31
0.0
  0
LINE
  5
24D
100
AcDbEntity
  8
IMPORT_IGES
100
AcDbLine
 62
7
  6
CONTINUOUS
 10
-60.0
 20
-91.9233127327
 30
0.0
 11
-7.5
 21
-91.9233127327
 31
0.0
  0
LINE
  5
24E
100
AcDbEntity
  8
IMPORT_IGES
100
AcDbLine
 62
7
  6
CONTINUOUS
 10
7.5
 20
-91.9233127327
 30
0.0
 11
60.0
 21
-91.9233127327
 31
0.0
  0
LINE
  5
24F
100
AcDbEntity
  8
IMPORT_IGES
100
AcDbLine
 62
7
  6
CONTINUOUS
 10
-7.3427766622
 20
-91.7660893949
 30
0.0
 11
7.3427766622
 21
-91.7660893949
 31
0.0
  0
LINE
  5
250
100
AcDbEntity
  8
IMPORT_IGES
100
AcDbLine
 62
7
  6
CONTINUOUS
 10
4.7458336115
 20
107.4960460152
 30
0.0
 11
5.3291663885
 21
107.9428544725
 31
0.0
  0
LINE
  5
251
100
AcDbEntity
  8
IMPORT_IGES
100
AcDbLine
 62
7
  6
CONTINUOUS
 10
-1.9625
 20
105.5598758246
 30
0.0
 11
-2.4
 21
105.2620034154
 31
0.0
  0
LINE
  5
252
100
AcDbEntity
  8
IMPORT_IGES
100
AcDbLine
 62
250
  6
CONTINUOUS
 10
-66.5
 20
-85.4233127327
 30
0.0
 11
-65.9872634477
 21
-85.4233127795
 31
0.0
  0
LINE
  5
253
100
AcDbEntity
  8
IMPORT_IGES
100
AcDbLine
 62
250
  6
CONTINUOUS
 10
65.9872634477
 20
-85.4233127327
 30
0.0
 11
66.5
 21
-85.4233127327
 31
0.0
  0
LINE
  5
254
100
AcDbEntity
  8
IMPORT_IGES
100
AcDbLine
 62
7
  6
CONTINUOUS
 10
-1.6708331943
 20
104.6662587534
 30
0.0
 11
-1.0875
 21
105.2620034154
 31
0.0
  0
LINE
  5
255
100
AcDbEntity
  8
IMPORT_IGES
100
AcDbLine
 62
7
  6
CONTINUOUS
 10
4.8916663885
 20
108.6875352348
 30
0.0
 11
4.6
 21
108.3896629299
 31
0.0
  0
LINE
  5
256
100
AcDbEntity
  8
IMPORT_IGES
100
AcDbLine
 62
7
  6
CONTINUOUS
 10
-14.9953728054
 20
71.9658352682
 30
0.0
 11
-14.9837844015
 21
71.9714507479
 31
0.0
  0
LINE
  5
257
100
AcDbEntity
  8
IMPORT_IGES
100
AcDbLine
 62
250
  6
CONTINUOUS
 10
43.3167436033
 20
-72.2389935366
 30
0.0
 11
-43.3216247785
 21
-72.2393222178
 31
0.0
  0
LINE
  5
258
100
AcDbEntity
  8
IMPORT_IGES
100
AcDbLine
 62
7
  6
CONTINUOUS
 10
43.2561657245
 20
-71.9397944682
 30
0.0
 11
-43.2561623706
 21
-71.9397944682
 31
0.0
  0
LINE
  5
259
100
AcDbEntity
  8
IMPORT_IGES
100
AcDbLine
 62
7
  6
CONTINUOUS
 10
-43.2561536187
 20
-71.939817649
 30
0.0
 11
-43.2562118781
 21
-71.9398175151
 31
0.0
  0
LWPOLYLINE
  5
25A
100
AcDbEntity
  8
IMPORT_IGES
100
AcDbPolyline
 62
7
  6
CONTINUOUS
 90
40
 70
0
 10
-43.2562118781
 20
-71.9398175151
 10
-43.3767592478
 20
-71.9383069519
 10
-43.5739422476
 20
-71.9292637884
 10
-43.7698394274
 20
-71.9120345521
 10
-43.9637718558
 20
-71.8866837548
 10
-44.1558881165
 20
-71.8533222989
 10
-44.3470991806
 20
-71.8118433254
 10
-44.5378050679
 20
-71.7620898134
 10
-44.7269122663
 20
-71.7042722448
 10
-44.9130721326
 20
-71.6388231134
 10
-45.0956777558
 20
-71.5660092893
 10
-45.274732967
 20
-71.4858440643
 10
-45.4498691309
 20
-71.3984806863
 10
-45.6206939885
 20
-71.3041622534
 10
-45.7870972224
 20
-71.2030450411
 10
-45.9491309282
 20
-71.0951461556
 10
-46.1066836405
 20
-70.9805392739
 10
-46.2593472061
 20
-70.8595372618
 10
-46.4067241419
 20
-70.732497265
 10
-46.5485674655
 20
-70.5996751627
 10
-46.6846656243
 20
-70.4613021869
 10
-46.814720713
 20
-70.3177418323
 10
-46.9385216921
 20
-70.1692977279
 10
-47.0559150282
 20
-70.0162078802
 10
-47.1667176305
 20
-69.8587618185
 10
-47.2706955125
 20
-69.6973849479
 10
-47.3677827945
 20
-69.5322606132
 10
-47.4580270185
 20
-69.3633107236
 10
-47.5413693966
 20
-69.1906626191
 10
-47.6176368546
 20
-69.0147422313
 10
-47.6867120301
 20
-68.835903042
 10
-47.7485443791
 20
-68.6543495695
 10
-47.8029867581
 20
-68.4705738401
 10
-47.8498351859
 20
-68.2854002242
 10
-47.8889404077
 20
-68.0996555777
 10
-47.9203783802
 20
-67.9131263361
 10
-47.9442152123
 20
-67.7250297171
 10
-47.9604212887
 20
-67.5353030398
 10
-47.9689700157
 20
-67.3446165347
 10
-47.9704366151
 20
-67.2260540111
  0
LINE
  5
25B
100
AcDbEntity
  8
IMPORT_IGES
100
AcDbLine
 62
7
  6
CONTINUOUS
 10
-66.5
 20
130.7766872673
 30
0.0
 11
-66.5
 21
-85.4233127327
 31
0.0
  0
LINE
  5
25C
100
AcDbEntity
  8
IMPORT_IGES
100
AcDbLine
 62
250
  6
CONTINUOUS
 10
-66.1945624282
 20
-85.4233127322
 30
0.0
 11
-66.1945624292
 21
131.5766872599
 31
0.0
  0
LINE
  5
25D
100
AcDbEntity
  8
IMPORT_IGES
100
AcDbLine
 62
250
  6
CONTINUOUS
 10
-65.9872634477
 20
-85.4233127327
 30
0.0
 11
-65.9872634477
 21
131.5766872673
 31
0.0
  0
LINE
  5
25E
100
AcDbEntity
  8
IMPORT_IGES
100
AcDbLine
 62
250
  6
CONTINUOUS
 10
-60.0000000188
 20
137.6762580165
 30
0.0
 11
-60.0
 21
138.0233127327
 31
0.0
  0
LINE
  5
25F
100
AcDbEntity
  8
IMPORT_IGES
100
AcDbLine
 62
250
  6
CONTINUOUS
 10
-59.999999996
 20
-91.5228828839
 30
0.0
 11
-60.0
 21
-91.9233127327
 31
0.0
  0
LINE
  5
260
100
AcDbEntity
  8
IMPORT_IGES
100
AcDbLine
 62
7
  6
CONTINUOUS
 10
-66.5
 20
130.7766872673
 30
0.0
 11
-66.4941076536
 21
131.5766872673
 31
0.0
  0
LINE
  5
261
100
AcDbEntity
  8
IMPORT_IGES
100
AcDbLine
 62
7
  6
CONTINUOUS
 10
-0.0
 20
101.2194502439
 30
0.0
 11
-4.0
 21
96.2194502439
 31
0.0
  0
LINE
  5
262
100
AcDbEntity
  8
IMPORT_IGES
100
AcDbLine
 62
7
  6
CONTINUOUS
 10
-13.4489293489
 20
70.1875392664
 30
0.0
 11
-13.4598161144
 21
70.1819237868
 31
0.0
  0
LINE
  5
263
100
AcDbEntity
  8
IMPORT_IGES
100
AcDbLine
 62
7
  6
CONTINUOUS
 10
-44.2691513514
 20
-69.3084894879
 30
0.0
 11
-33.3927629765
 21
-69.3084894879
 31
0.0
  0
LINE
  5
264
100
AcDbEntity
  8
IMPORT_IGES
100
AcDbLine
 62
7
  6
CONTINUOUS
 10
-30.3927629765
 20
-69.3084894879
 30
0.0
 11
30.3927629765
 21
-69.3084894879
 31
0.0
  0
LINE
  5
265
100
AcDbEntity
  8
IMPORT_IGES
100
AcDbLine
 62
7
  6
CONTINUOUS
 10
33.3927629765
 20
-69.3084894879
 30
0.0
 11
44.2691513514
 21
-69.3084894879
 31
0.0
  0
LINE
  5
266
100
AcDbEntity
  8
IMPORT_IGES
100
AcDbLine
 62
7
  6
CONTINUOUS
 10
-33.357842207
 20
-68.7311392187
 30
0.0
 11
-30.427683746
 21
-68.7311392187
 31
0.0
  0
LINE
  5
267
100
AcDbEntity
  8
IMPORT_IGES
100
AcDbLine
 62
7
  6
CONTINUOUS
 10
30.427683746
 20
-68.7311392187
 30
0.0
 11
33.357842207
 21
-68.7311392187
 31
0.0
  0
LINE
  5
268
100
AcDbEntity
  8
IMPORT_IGES
100
AcDbLine
 62
250
  6
CONTINUOUS
 10
-48.3380189292
 20
-67.2260540111
 30
0.0
 11
-47.9704134701
 21
-67.2260540111
 31
0.0
  0
LINE
  5
269
100
AcDbEntity
  8
IMPORT_IGES
100
AcDbLine
 62
250
  6
CONTINUOUS
 10
47.970413544
 20
-67.2260515496
 30
0.0
 11
48.3380189292
 21
-67.2260515496
 31
0.0
  0
LINE
  5
26A
100
AcDbEntity
  8
IMPORT_IGES
100
AcDbLine
 62
7
  6
CONTINUOUS
 10
-30.3927629765
 20
-66.5660757092
 30
0.0
 11
30.3927629765
 21
-66.5660757092
 31
0.0
  0
LINE
  5
26B
100
AcDbEntity
  8
IMPORT_IGES
100
AcDbLine
 62
7
  6
CONTINUOUS
 10
33.3927629765
 20
-66.5660757092
 30
0.0
 11
37.4135296125
 21
-66.5660757092
 31
0.0
  0
LINE
  5
26C
100
AcDbEntity
  8
IMPORT_IGES
100
AcDbLine
 62
7
  6
CONTINUOUS
 10
-33.357842207
 20
-65.98872544
 30
0.0
 11
-30.427683746
 21
-65.98872544
 31
0.0
  0
LINE
  5
26D
100
AcDbEntity
  8
IMPORT_IGES
100
AcDbLine
 62
7
  6
CONTINUOUS
 10
30.427683746
 20
-65.98872544
 30
0.0
 11
33.357842207
 21
-65.98872544
 31
0.0
  0
LINE
  5
26E
100
AcDbEntity
  8
IMPORT_IGES
100
AcDbLine
 62
7
  6
CONTINUOUS
 10
-38.1
 20
-65.2733127327
 30
0.0
 11
-39.1
 21
-65.2733127327
 31
0.0
  0
LINE
  5
26F
100
AcDbEntity
  8
IMPORT_IGES
100
AcDbLine
 62
7
  6
CONTINUOUS
 10
-39.1
 20
-60.2733127327
 30
0.0
 11
-38.1
 21
-60.2733127327
 31
0.0
  0
LINE
  5
270
100
AcDbEntity
  8
IMPORT_IGES
100
AcDbLine
 62
7
  6
CONTINUOUS
 10
-38.5043637662
 20
-53.4189489664
 30
0.0
 11
-38.5
 21
-53.4233127327
 31
0.0
  0
LINE
  5
271
100
AcDbEntity
  8
IMPORT_IGES
100
AcDbLine
 62
7
  6
CONTINUOUS
 10
-1.6708331943
 20
106.006684282
 30
0.0
 11
-1.9625
 21
105.5598758246
 31
0.0
  0
LINE
  5
272
100
AcDbEntity
  8
IMPORT_IGES
100
AcDbLine
 62
7
  6
CONTINUOUS
 10
5.3291663885
 20
107.9428544725
 30
0.0
 11
5.7666663885
 21
108.5385990824
 31
0.0
  0
LINE
  5
273
100
AcDbEntity
  8
IMPORT_IGES
100
AcDbLine
 62
250
  6
CONTINUOUS
 10
44.2691513514
 20
115.4618640225
 30
0.0
 11
41.5267375727
 21
112.7194502439
 31
0.0
  0
LINE
  5
274
100
AcDbEntity
  8
IMPORT_IGES
100
AcDbLine
 62
7
  6
CONTINUOUS
 10
13.4489293489
 20
71.9658352682
 30
0.0
 11
13.4598161144
 21
71.9714507479
 31
0.0
  0
LINE
  5
275
100
AcDbEntity
  8
IMPORT_IGES
100
AcDbLine
 62
7
  6
CONTINUOUS
 10
14.9953728054
 20
70.1875392664
 30
0.0
 11
14.9837844015
 21
70.1819237868
 31
0.0
  0
LINE
  5
276
100
AcDbEntity
  8
IMPORT_IGES
100
AcDbLine
 62
7
  6
CONTINUOUS
 10
44.557826486
 20
-54.6009964787
 30
0.0
 11
45.1351767552
 21
-54.5660757092
 31
0.0
  0
LINE
  5
277
100
AcDbEntity
  8
IMPORT_IGES
100
AcDbLine
 62
7
  6
CONTINUOUS
 10
42.3927629765
 20
-54.5660757092
 30
0.0
 11
41.8154127073
 21
-54.6009964787
 31
0.0
  0
LINE
  5
278
100
AcDbEntity
  8
IMPORT_IGES
100
AcDbLine
 62
7
  6
CONTINUOUS
 10
-42.3927629765
 20
-57.5660757092
 30
0.0
 11
-41.8154127073
 21
-57.5311549397
 31
0.0
  0
LINE
  5
279
100
AcDbEntity
  8
IMPORT_IGES
100
AcDbLine
 62
7
  6
CONTINUOUS
 10
-44.557826486
 20
-57.5311549397
 30
0.0
 11
-45.1351767552
 21
-57.5660757092
 31
0.0
  0
LINE
  5
27A
100
AcDbEntity
  8
IMPORT_IGES
100
AcDbLine
 62
7
  6
CONTINUOUS
 10
45.1351767552
 20
-57.5660757092
 30
0.0
 11
42.3927629765
 21
-57.5660757092
 31
0.0
  0
LINE
  5
27B
100
AcDbEntity
  8
IMPORT_IGES
100
AcDbLine
 62
7
  6
CONTINUOUS
 10
-42.3927629765
 20
-57.5660757092
 30
0.0
 11
-45.1351767552
 21
-57.5660757092
 31
0.0
  0
LINE
  5
27C
100
AcDbEntity
  8
IMPORT_IGES
100
AcDbLine
 62
7
  6
CONTINUOUS
 10
-44.557826486
 20
-57.5311549397
 30
0.0
 11
-41.8154127073
 21
-57.5311549397
 31
0.0
  0
LINE
  5
27D
100
AcDbEntity
  8
IMPORT_IGES
100
AcDbLine
 62
7
  6
CONTINUOUS
 10
41.8154127073
 20
-57.5311549397
 30
0.0
 11
44.557826486
 21
-57.5311549397
 31
0.0
  0
LINE
  5
27E
100
AcDbEntity
  8
IMPORT_IGES
100
AcDbLine
 62
7
  6
CONTINUOUS
 10
44.557826486
 20
-54.6009964787
 30
0.0
 11
41.8154127073
 21
-54.6009964787
 31
0.0
  0
LINE
  5
27F
100
AcDbEntity
  8
IMPORT_IGES
100
AcDbLine
 62
7
  6
CONTINUOUS
 10
-41.8154127073
 20
-54.6009964787
 30
0.0
 11
-44.557826486
 21
-54.6009964787
 31
0.0
  0
LINE
  5
280
100
AcDbEntity
  8
IMPORT_IGES
100
AcDbLine
 62
7
  6
CONTINUOUS
 10
-45.1351767552
 20
-54.5660757092
 30
0.0
 11
-42.3927629765
 21
-54.5660757092
 31
0.0
  0
LINE
  5
281
100
AcDbEntity
  8
IMPORT_IGES
100
AcDbLine
 62
7
  6
CONTINUOUS
 10
42.3927629765
 20
-54.5660757092
 30
0.0
 11
45.1351767552
 21
-54.5660757092
 31
0.0
  0
LINE
  5
282
100
AcDbEntity
  8
IMPORT_IGES
100
AcDbLine
 62
7
  6
CONTINUOUS
 10
-38.5
 20
-53.4233127327
 30
0.0
 11
-40.5
 21
-53.4233127327
 31
0.0
  0
LINE
  5
283
100
AcDbEntity
  8
IMPORT_IGES
100
AcDbLine
 62
7
  6
CONTINUOUS
 10
40.4956362338
 20
-53.4189489665
 30
0.0
 11
38.5043637662
 21
-53.4189489665
 31
0.0
  0
LINE
  5
284
100
AcDbEntity
  8
IMPORT_IGES
100
AcDbLine
 62
7
  6
CONTINUOUS
 10
-38.5043637662
 20
-53.4189489665
 30
0.0
 11
-40.4956362338
 21
-53.4189489665
 31
0.0
  0
LINE
  5
285
100
AcDbEntity
  8
IMPORT_IGES
100
AcDbLine
 62
7
  6
CONTINUOUS
 10
35.0
 20
-50.6856025855
 30
0.0
 11
-35.0
 21
-50.6856025855
 31
0.0
  0
LINE
  5
286
100
AcDbEntity
  8
IMPORT_IGES
100
AcDbLine
 62
7
  6
CONTINUOUS
 10
-45.1351767552
 20
-54.5660757092
 30
0.0
 11
-44.557826486
 21
-54.6009964787
 31
0.0
  0
LINE
  5
287
100
AcDbEntity
  8
IMPORT_IGES
100
AcDbLine
 62
7
  6
CONTINUOUS
 10
-41.8154127073
 20
-54.6009964787
 30
0.0
 11
-42.3927629765
 21
-54.5660757092
 31
0.0
  0
LINE
  5
288
100
AcDbEntity
  8
IMPORT_IGES
100
AcDbLine
 62
7
  6
CONTINUOUS
 10
41.8154127073
 20
-57.5311549397
 30
0.0
 11
42.3927629765
 21
-57.5660757092
 31
0.0
  0
LINE
  5
289
100
AcDbEntity
  8
IMPORT_IGES
100
AcDbLine
 62
7
  6
CONTINUOUS
 10
45.1351767552
 20
-57.5660757092
 30
0.0
 11
44.557826486
 21
-57.5311549397
 31
0.0
  0
LINE
  5
28A
100
AcDbEntity
  8
IMPORT_IGES
100
AcDbLine
 62
7
  6
CONTINUOUS
 10
7.3427766622
 20
-91.7660893948
 30
0.0
 11
7.5
 21
-91.9233127327
 31
0.0
  0
LINE
  5
28B
100
AcDbEntity
  8
IMPORT_IGES
100
AcDbLine
 62
250
  6
CONTINUOUS
 10
-48.3380189292
 20
113.3794285452
 30
0.0
 11
-48.3380189292
 21
-67.2260540111
 31
0.0
  0
LINE
  5
28C
100
AcDbEntity
  8
IMPORT_IGES
100
AcDbLine
 62
7
  6
CONTINUOUS
 10
-47.9704133083
 20
-67.2260540111
 30
0.0
 11
-47.9704133083
 21
113.3794260843
 31
0.0
  0
LINE
  5
28D
100
AcDbEntity
  8
IMPORT_IGES
100
AcDbLine
 62
7
  6
CONTINUOUS
 10
-45.1351767552
 20
-68.4424640841
 30
0.0
 11
-45.1351767552
 21
-57.5660757092
 31
0.0
  0
LINE
  5
28E
100
AcDbEntity
  8
IMPORT_IGES
100
AcDbLine
 62
7
  6
CONTINUOUS
 10
-45.1351767552
 20
-54.5660757092
 30
0.0
 11
-45.1351767552
 21
100.7194502439
 31
0.0
  0
LINE
  5
28F
100
AcDbEntity
  8
IMPORT_IGES
100
AcDbLine
 62
7
  6
CONTINUOUS
 10
-45.1351767552
 20
103.7194502439
 30
0.0
 11
-45.1351767552
 21
114.5958386187
 31
0.0
  0
LINE
  5
290
100
AcDbEntity
  8
IMPORT_IGES
100
AcDbLine
 62
7
  6
CONTINUOUS
 10
-44.557826486
 20
-57.5311549397
 30
0.0
 11
-44.557826486
 21
-54.6009964787
 31
0.0
  0
LINE
  5
291
100
AcDbEntity
  8
IMPORT_IGES
100
AcDbLine
 62
7
  6
CONTINUOUS
 10
-44.557826486
 20
100.7543710133
 30
0.0
 11
-44.557826486
 21
103.6845294744
 31
0.0
  0
LINE
  5
292
100
AcDbEntity
  8
IMPORT_IGES
100
AcDbLine
 62
7
  6
CONTINUOUS
 10
-42.3927629765
 20
-61.5868423452
 30
0.0
 11
-42.3927629765
 21
-57.5660757092
 31
0.0
  0
LINE
  5
293
100
AcDbEntity
  8
IMPORT_IGES
100
AcDbLine
 62
7
  6
CONTINUOUS
 10
-42.3927629765
 20
-54.5660757092
 30
0.0
 11
-42.3927629765
 21
100.7194502439
 31
0.0
  0
LINE
  5
294
100
AcDbEntity
  8
IMPORT_IGES
100
AcDbLine
 62
7
  6
CONTINUOUS
 10
-42.0869087013
 20
109.2284610072
 30
0.0
 11
-42.0869087013
 21
108.6249135274
 31
0.0
  0
LINE
  5
295
100
AcDbEntity
  8
IMPORT_IGES
100
AcDbLine
 62
7
  6
CONTINUOUS
 10
-41.8154127073
 20
-57.5311549397
 30
0.0
 11
-41.8154127073
 21
-54.6009964787
 31
0.0
  0
LINE
  5
296
100
AcDbEntity
  8
IMPORT_IGES
100
AcDbLine
 62
7
  6
CONTINUOUS
 10
-41.8154127073
 20
100.7543710133
 30
0.0
 11
-41.8154127073
 21
103.6845294744
 31
0.0
  0
LINE
  5
297
100
AcDbEntity
  8
IMPORT_IGES
100
AcDbLine
 62
7
  6
CONTINUOUS
 10
-41.1
 20
108.4266872673
 30
0.0
 11
-41.1
 21
109.4266872673
 31
0.0
  0
LINE
  5
298
100
AcDbEntity
  8
IMPORT_IGES
100
AcDbLine
 62
7
  6
CONTINUOUS
 10
-40.4956362338
 20
-53.4189489665
 30
0.0
 11
-40.4956362338
 21
84.5766872673
 31
0.0
  0
LWPOLYLINE
  5
299
100
AcDbEntity
  8
IMPORT_IGES
100
AcDbPolyline
 62
7
  6
CONTINUOUS
 90
40
 70
0
 10
-47.9704366151
 20
113.379426126
 10
-47.9691221878
 20
113.4916834207
 10
-47.9608202656
 20
113.6825833682
 10
-47.9448631753
 20
113.8724406558
 10
-47.9212926268
 20
114.0605504714
 10
-47.8901095061
 20
114.2470181554
 10
-47.8512254214
 20
114.4327507096
 10
-47.8045624107
 20
114.6180234698
 10
-47.750306068
 20
114.8019592555
 10
-47.6886835704
 20
114.9836834955
 10
-47.6198203955
 20
115.1627131778
 10
-47.5437554705
 20
115.3388033147
 10
-47.4606608943
 20
115.5114662339
 10
-47.3708182625
 20
115.6801983096
 10
-47.274263519
 20
115.8449955696
 10
-47.1707849683
 20
116.0061471321
 10
-47.0603790048
 20
116.1635388716
 10
-46.9433230601
 20
116.3166898309
 10
-46.8197904723
 20
116.4652954727
 10
-46.6898943955
 20
116.6091310575
 10
-46.5538822053
 20
116.74784869
 10
-46.4121619508
 20
116.8809796331
 10
-46.2649929151
 20
117.0082445766
 10
-46.1125556669
 20
117.1294459188
 10
-45.9551799249
 20
117.2442752121
 10
-45.7932140582
 20
117.3524717669
 10
-45.6268470059
 20
117.453913375
 10
-45.4561766667
 20
117.548505609
 10
-45.2814023801
 20
117.636070056
 10
-45.102821215
 20
117.7164046811
 10
-44.9206688142
 20
117.7894103877
 10
-44.734966439
 20
117.8550548024
 10
-44.5463051768
 20
117.9130764701
 10
-44.3558145861
 20
117.9631245709
 10
-44.1644376942
 20
118.0050083652
 10
-43.9719237868
 20
118.0387917267
 10
-43.7775693079
 20
118.0645290308
 10
-43.5812904762
 20
118.0821321415
 10
-43.383677812
 20
118.0915053861
 10
-43.2562147453
 20
118.0931920496
  0
LINE
  5
29A
100
AcDbEntity
  8
IMPORT_IGES
100
AcDbLine
 62
7
  6
CONTINUOUS
 10
-1.0875
 20
105.2620034154
 30
0.0
 11
-0.7958331943
 21
105.8577481295
 31
0.0
  0
LINE
  5
29B
100
AcDbEntity
  8
IMPORT_IGES
100
AcDbLine
 62
250
  6
CONTINUOUS
 10
42.3927629765
 20
111.8534248401
 30
0.0
 11
45.1351767552
 21
114.5958386187
 31
0.0
  0
LINE
  5
29C
100
AcDbEntity
  8
IMPORT_IGES
100
AcDbLine
 62
7
  6
CONTINUOUS
 10
-30.427683746
 20
-68.7311392187
 30
0.0
 11
-30.3927629765
 21
-69.3084894879
 31
0.0
  0
LINE
  5
29D
100
AcDbEntity
  8
IMPORT_IGES
100
AcDbLine
 62
7
  6
CONTINUOUS
 10
-30.3927629765
 20
-66.5660757092
 30
0.0
 11
-30.427683746
 21
-65.98872544
 31
0.0
  0
LINE
  5
29E
100
AcDbEntity
  8
IMPORT_IGES
100
AcDbLine
 62
7
  6
CONTINUOUS
 10
-38.5043637662
 20
84.5766872674
 30
0.0
 11
-38.5043637662
 21
-53.4189489665
 31
0.0
  0
LINE
  5
29F
100
AcDbEntity
  8
IMPORT_IGES
100
AcDbLine
 62
7
  6
CONTINUOUS
 10
-38.5
 20
84.5766872673
 30
0.0
 11
-38.5
 21
-53.4233127327
 31
0.0
  0
LINE
  5
2A0
100
AcDbEntity
  8
IMPORT_IGES
100
AcDbLine
 62
7
  6
CONTINUOUS
 10
-37.0
 20
-48.6856025855
 30
0.0
 11
-37.0
 21
81.5766872673
 31
0.0
  0
LINE
  5
2A1
100
AcDbEntity
  8
IMPORT_IGES
100
AcDbLine
 62
7
  6
CONTINUOUS
 10
-36.1
 20
109.4266872673
 30
0.0
 11
-36.1
 21
108.4266872673
 31
0.0
  0
LINE
  5
2A2
100
AcDbEntity
  8
IMPORT_IGES
100
AcDbLine
 62
7
  6
CONTINUOUS
 10
-35.1130912987
 20
109.2284610073
 30
0.0
 11
-35.1130912987
 21
108.6249135274
 31
0.0
  0
LINE
  5
2A3
100
AcDbEntity
  8
IMPORT_IGES
100
AcDbLine
 62
7
  6
CONTINUOUS
 10
-33.3927629765
 20
-69.3084894878
 30
0.0
 11
-33.3927629765
 21
-66.5660757092
 31
0.0
  0
LINE
  5
2A4
100
AcDbEntity
  8
IMPORT_IGES
100
AcDbLine
 62
7
  6
CONTINUOUS
 10
-33.3927629765
 20
112.7194502439
 30
0.0
 11
-33.3927629765
 21
115.4618640225
 31
0.0
  0
LINE
  5
2A5
100
AcDbEntity
  8
IMPORT_IGES
100
AcDbLine
 62
7
  6
CONTINUOUS
 10
-33.357842207
 20
114.8845137533
 30
0.0
 11
-33.357842207
 21
112.1420999747
 31
0.0
  0
LINE
  5
2A6
100
AcDbEntity
  8
IMPORT_IGES
100
AcDbLine
 62
7
  6
CONTINUOUS
 10
-33.357842207
 20
-65.98872544
 30
0.0
 11
-33.357842207
 21
-68.7311392186
 31
0.0
  0
LINE
  5
2A7
100
AcDbEntity
  8
IMPORT_IGES
100
AcDbLine
 62
7
  6
CONTINUOUS
 10
-30.427683746
 20
-68.7311392186
 30
0.0
 11
-30.427683746
 21
-65.98872544
 31
0.0
  0
LINE
  5
2A8
100
AcDbEntity
  8
IMPORT_IGES
100
AcDbLine
 62
7
  6
CONTINUOUS
 10
-30.427683746
 20
112.1420999747
 30
0.0
 11
-30.427683746
 21
114.8845137533
 31
0.0
  0
LINE
  5
2A9
100
AcDbEntity
  8
IMPORT_IGES
100
AcDbLine
 62
7
  6
CONTINUOUS
 10
-30.3927629765
 20
115.4618640225
 30
0.0
 11
-30.3927629765
 21
112.7194502439
 31
0.0
  0
LINE
  5
2AA
100
AcDbEntity
  8
IMPORT_IGES
100
AcDbLine
 62
7
  6
CONTINUOUS
 10
-30.3927629765
 20
-66.5660757092
 30
0.0
 11
-30.3927629765
 21
-69.3084894878
 31
0.0
  0
LINE
  5
2AB
100
AcDbEntity
  8
IMPORT_IGES
100
AcDbLine
 62
7
  6
CONTINUOUS
 10
-30.3927629765
 20
115.4618640225
 30
0.0
 11
-30.427683746
 21
114.8845137533
 31
0.0
  0
LINE
  5
2AC
100
AcDbEntity
  8
IMPORT_IGES
100
AcDbLine
 62
7
  6
CONTINUOUS
 10
-30.427683746
 20
112.1420999747
 30
0.0
 11
-30.3927629765
 21
112.7194502439
 31
0.0
  0
LINE
  5
2AD
100
AcDbEntity
  8
IMPORT_IGES
100
AcDbLine
 62
7
  6
CONTINUOUS
 10
-33.357842207
 20
-65.98872544
 30
0.0
 11
-33.3927629765
 21
-66.5660757092
 31
0.0
  0
LINE
  5
2AE
100
AcDbEntity
  8
IMPORT_IGES
100
AcDbLine
 62
7
  6
CONTINUOUS
 10
14.9837844015
 20
-29.8180762132
 30
0.0
 11
13.4598161144
 21
-29.8180762132
 31
0.0
  0
LINE
  5
2AF
100
AcDbEntity
  8
IMPORT_IGES
100
AcDbLine
 62
7
  6
CONTINUOUS
 10
-13.4598161144
 20
-29.8180762132
 30
0.0
 11
-14.9837844015
 21
-29.8180762132
 31
0.0
  0
LINE
  5
2B0
100
AcDbEntity
  8
IMPORT_IGES
100
AcDbLine
 62
7
  6
CONTINUOUS
 10
15.174153693
 20
-29.8093486807
 30
0.0
 11
13.2704536584
 21
-29.8093486807
 31
0.0
  0
LINE
  5
2B1
100
AcDbEntity
  8
IMPORT_IGES
100
AcDbLine
 62
7
  6
CONTINUOUS
 10
-13.2704536584
 20
-29.8093486807
 30
0.0
 11
-15.174153693
 21
-29.8093486807
 31
0.0
  0
LINE
  5
2B2
100
AcDbEntity
  8
IMPORT_IGES
100
AcDbLine
 62
7
  6
CONTINUOUS
 10
-14.9837844015
 20
-29.8180762132
 30
0.0
 11
-14.9953728054
 21
-29.8124607336
 31
0.0
  0
LINE
  5
2B3
100
AcDbEntity
  8
IMPORT_IGES
100
AcDbLine
 62
7
  6
CONTINUOUS
 10
-13.4598161144
 20
-28.0285492521
 30
0.0
 11
-13.4489293489
 21
-28.0341647318
 31
0.0
  0
LINE
  5
2B4
100
AcDbEntity
  8
IMPORT_IGES
100
AcDbLine
 62
7
  6
CONTINUOUS
 10
-33.3927629765
 20
112.7194502439
 30
0.0
 11
-33.357842207
 21
112.1420999747
 31
0.0
  0
LINE
  5
2B5
100
AcDbEntity
  8
IMPORT_IGES
100
AcDbLine
 62
7
  6
CONTINUOUS
 10
-33.357842207
 20
114.8845137533
 30
0.0
 11
-33.3927629765
 21
115.4618640225
 31
0.0
  0
LINE
  5
2B6
100
AcDbEntity
  8
IMPORT_IGES
100
AcDbLine
 62
7
  6
CONTINUOUS
 10
-33.3927629765
 20
-69.3084894879
 30
0.0
 11
-33.357842207
 21
-68.7311392187
 31
0.0
  0
LINE
  5
2B7
100
AcDbEntity
  8
IMPORT_IGES
100
AcDbLine
 62
7
  6
CONTINUOUS
 10
-0.7958331943
 20
105.8577481295
 30
0.0
 11
-0.65
 21
106.6024288918
 31
0.0
  0
LINE
  5
2B8
100
AcDbEntity
  8
IMPORT_IGES
100
AcDbLine
 62
7
  6
CONTINUOUS
 10
-1.525
 20
106.6024288918
 30
0.0
 11
-1.6708331943
 21
106.006684282
 31
0.0
  0
LINE
  5
2B9
100
AcDbEntity
  8
IMPORT_IGES
100
AcDbLine
 62
7
  6
CONTINUOUS
 10
5.0375
 20
109.1343436922
 30
0.0
 11
4.8916663885
 21
108.6875352348
 31
0.0
  0
LINE
  5
2BA
100
AcDbEntity
  8
IMPORT_IGES
100
AcDbLine
 62
7
  6
CONTINUOUS
 10
5.7666663885
 20
108.5385990824
 30
0.0
 11
5.9125
 21
108.9854075397
 31
0.0
  0
LINE
  5
2BB
100
AcDbEntity
  8
IMPORT_IGES
100
AcDbLine
 62
7
  6
CONTINUOUS
 10
0.8947634805
 20
56.0929028658
 30
0.0
 11
0.8891480009
 21
56.0813144619
 31
0.0
  0
LINE
  5
2BC
100
AcDbEntity
  8
IMPORT_IGES
100
AcDbLine
 62
7
  6
CONTINUOUS
 10
-0.8947634805
 20
57.616871153
 30
0.0
 11
-0.8891480009
 21
57.6277579184
 31
0.0
  0
LINE
  5
2BD
100
AcDbEntity
  8
IMPORT_IGES
100
AcDbLine
 62
7
  6
CONTINUOUS
 10
-15.174153693
 20
-28.0372767846
 30
0.0
 11
-13.2704536584
 21
-28.0372767846
 31
0.0
  0
LINE
  5
2BE
100
AcDbEntity
  8
IMPORT_IGES
100
AcDbLine
 62
7
  6
CONTINUOUS
 10
13.2704536584
 20
-28.0372767846
 30
0.0
 11
15.174153693
 21
-28.0372767846
 31
0.0
  0
LINE
  5
2BF
100
AcDbEntity
  8
IMPORT_IGES
100
AcDbLine
 62
7
  6
CONTINUOUS
 10
-14.9837844015
 20
-28.0285492521
 30
0.0
 11
-13.4598161144
 21
-28.0285492521
 31
0.0
  0
LINE
  5
2C0
100
AcDbEntity
  8
IMPORT_IGES
100
AcDbLine
 62
7
  6
CONTINUOUS
 10
13.4598161144
 20
-28.0285492521
 30
0.0
 11
14.9837844015
 21
-28.0285492521
 31
0.0
  0
LINE
  5
2C1
100
AcDbEntity
  8
IMPORT_IGES
100
AcDbLine
 62
7
  6
CONTINUOUS
 10
13.4598161144
 20
-29.8180762132
 30
0.0
 11
13.4489293489
 21
-29.8124607336
 31
0.0
  0
LINE
  5
2C2
100
AcDbEntity
  8
IMPORT_IGES
100
AcDbLine
 62
7
  6
CONTINUOUS
 10
-0.8891480009
 20
-43.9186855381
 30
0.0
 11
-0.8947634805
 21
-43.9070971342
 31
0.0
  0
LINE
  5
2C3
100
AcDbEntity
  8
IMPORT_IGES
100
AcDbLine
 62
7
  6
CONTINUOUS
 10
14.9837844015
 20
-28.0285492521
 30
0.0
 11
14.9953728054
 21
-28.0341647318
 31
0.0
  0
LINE
  5
2C4
100
AcDbEntity
  8
IMPORT_IGES
100
AcDbLine
 62
250
  6
CONTINUOUS
 10
41.5267375727
 20
-66.5660757092
 30
0.0
 11
44.2691513514
 21
-69.3084894878
 31
0.0
  0
LINE
  5
2C5
100
AcDbEntity
  8
IMPORT_IGES
100
AcDbLine
 62
250
  6
CONTINUOUS
 10
45.1351767552
 20
-68.442464084
 30
0.0
 11
42.3927629765
 21
-65.7000503054
 31
0.0
  0
LINE
  5
2C6
100
AcDbEntity
  8
IMPORT_IGES
100
AcDbLine
 62
7
  6
CONTINUOUS
 10
0.8891480009
 20
-42.3722420816
 30
0.0
 11
0.8947634805
 21
-42.3831288471
 31
0.0
  0
LINE
  5
2C7
100
AcDbEntity
  8
IMPORT_IGES
100
AcDbLine
 62
7
  6
CONTINUOUS
 10
-0.8860359481
 20
-15.6528590743
 30
0.0
 11
-0.8891480009
 21
-15.4743833838
 31
0.0
  0
LINE
  5
2C8
100
AcDbEntity
  8
IMPORT_IGES
100
AcDbLine
 62
7
  6
CONTINUOUS
 10
-5.9
 20
106.6024288918
 30
0.0
 11
-5.9
 21
111.2194502439
 31
0.0
  0
LINE
  5
2C9
100
AcDbEntity
  8
IMPORT_IGES
100
AcDbLine
 62
7
  6
CONTINUOUS
 10
-5.025
 20
111.2194502439
 30
0.0
 11
-5.025
 21
106.6024288918
 31
0.0
  0
LINE
  5
2CA
100
AcDbEntity
  8
IMPORT_IGES
100
AcDbLine
 62
7
  6
CONTINUOUS
 10
-1.525
 20
106.6024288918
 30
0.0
 11
-1.525
 21
111.2194502439
 31
0.0
  0
LINE
  5
2CB
100
AcDbEntity
  8
IMPORT_IGES
100
AcDbLine
 62
7
  6
CONTINUOUS
 10
-1.0
 20
92.2194502439
 30
0.0
 11
-1.0
 21
96.2194502439
 31
0.0
  0
LINE
  5
2CC
100
AcDbEntity
  8
IMPORT_IGES
100
AcDbLine
 62
7
  6
CONTINUOUS
 10
-0.8947634805
 20
-43.9070971342
 30
0.0
 11
-0.8947634805
 21
-42.3831288471
 31
0.0
  0
LINE
  5
2CD
100
AcDbEntity
  8
IMPORT_IGES
100
AcDbLine
 62
7
  6
CONTINUOUS
 10
-0.8947634805
 20
-15.4634966183
 30
0.0
 11
-0.8947634805
 21
-13.9395283312
 31
0.0
  0
LINE
  5
2CE
100
AcDbEntity
  8
IMPORT_IGES
100
AcDbLine
 62
7
  6
CONTINUOUS
 10
-0.8947634805
 20
56.0929028658
 30
0.0
 11
-0.8947634805
 21
57.616871153
 31
0.0
  0
LINE
  5
2CF
100
AcDbEntity
  8
IMPORT_IGES
100
AcDbLine
 62
7
  6
CONTINUOUS
 10
-0.8860359481
 20
-44.0974664257
 30
0.0
 11
-0.8860359481
 21
-42.193766391
 31
0.0
  0
LINE
  5
2D0
100
AcDbEntity
  8
IMPORT_IGES
100
AcDbLine
 62
7
  6
CONTINUOUS
 10
-0.8860359481
 20
-15.6528590743
 30
0.0
 11
-0.8860359481
 21
-13.7491590397
 31
0.0
  0
LINE
  5
2D1
100
AcDbEntity
  8
IMPORT_IGES
100
AcDbLine
 62
7
  6
CONTINUOUS
 10
-0.8860359481
 20
55.9025335743
 30
0.0
 11
-0.8860359481
 21
57.806233609
 31
0.0
  0
LINE
  5
2D2
100
AcDbEntity
  8
IMPORT_IGES
100
AcDbLine
 62
7
  6
CONTINUOUS
 10
-0.65
 20
111.2194502439
 30
0.0
 11
-0.65
 21
106.6024288918
 31
0.0
  0
LINE
  5
2D3
100
AcDbEntity
  8
IMPORT_IGES
100
AcDbLine
 62
7
  6
CONTINUOUS
 10
0.5166668057
 20
104.2194502439
 30
0.0
 11
0.5166668057
 21
111.2194502439
 31
0.0
  0
LINE
  5
2D4
100
AcDbEntity
  8
IMPORT_IGES
100
AcDbLine
 62
7
  6
CONTINUOUS
 10
0.8860359481
 20
57.806233609
 30
0.0
 11
0.8860359481
 21
55.9025335743
 31
0.0
  0
LINE
  5
2D5
100
AcDbEntity
  8
IMPORT_IGES
100
AcDbLine
 62
7
  6
CONTINUOUS
 10
0.8860359481
 20
-13.7491590397
 30
0.0
 11
0.8860359481
 21
-15.6528590743
 31
0.0
  0
LINE
  5
2D6
100
AcDbEntity
  8
IMPORT_IGES
100
AcDbLine
 62
7
  6
CONTINUOUS
 10
0.8860359481
 20
-42.193766391
 30
0.0
 11
0.8860359481
 21
-44.0974664257
 31
0.0
  0
LINE
  5
2D7
100
AcDbEntity
  8
IMPORT_IGES
100
AcDbLine
 62
7
  6
CONTINUOUS
 10
0.8947634805
 20
57.616871153
 30
0.0
 11
0.8947634805
 21
56.0929028658
 31
0.0
  0
LINE
  5
2D8
100
AcDbEntity
  8
IMPORT_IGES
100
AcDbLine
 62
7
  6
CONTINUOUS
 10
0.8947634805
 20
-13.9395283312
 30
0.0
 11
0.8947634805
 21
-15.4634966183
 31
0.0
  0
LINE
  5
2D9
100
AcDbEntity
  8
IMPORT_IGES
100
AcDbLine
 62
7
  6
CONTINUOUS
 10
0.8947634805
 20
-42.3831288471
 30
0.0
 11
0.8947634805
 21
-43.9070971342
 31
0.0
  0
LINE
  5
2DA
100
AcDbEntity
  8
IMPORT_IGES
100
AcDbLine
 62
7
  6
CONTINUOUS
 10
1.0
 20
96.2194502439
 30
0.0
 11
1.0
 21
92.2194502439
 31
0.0
  0
LINE
  5
2DB
100
AcDbEntity
  8
IMPORT_IGES
100
AcDbLine
 62
7
  6
CONTINUOUS
 10
-0.8891480009
 20
-15.4743833838
 30
0.0
 11
-0.8947634805
 21
-15.4634966183
 31
0.0
  0
LINE
  5
2DC
100
AcDbEntity
  8
IMPORT_IGES
100
AcDbLine
 62
7
  6
CONTINUOUS
 10
0.8891480009
 20
-13.9279399272
 30
0.0
 11
0.8947634805
 21
-13.9395283312
 31
0.0
  0
LINE
  5
2DD
100
AcDbEntity
  8
IMPORT_IGES
100
AcDbLine
 62
7
  6
CONTINUOUS
 10
1.3916663885
 20
110.4747694816
 30
0.0
 11
1.3916663885
 21
108.2407267775
 31
0.0
  0
LINE
  5
2DE
100
AcDbEntity
  8
IMPORT_IGES
100
AcDbLine
 62
7
  6
CONTINUOUS
 10
1.3916663885
 20
107.3471098627
 30
0.0
 11
1.3916663885
 21
104.2194502439
 31
0.0
  0
LINE
  5
2DF
100
AcDbEntity
  8
IMPORT_IGES
100
AcDbLine
 62
7
  6
CONTINUOUS
 10
5.0375
 20
109.1343436922
 30
0.0
 11
5.0375
 21
109.5811525668
 31
0.0
  0
LINE
  5
2E0
100
AcDbEntity
  8
IMPORT_IGES
100
AcDbLine
 62
7
  6
CONTINUOUS
 10
5.9125
 20
109.5811525668
 30
0.0
 11
5.9125
 21
108.9854075397
 31
0.0
  0
LINE
  5
2E1
100
AcDbEntity
  8
IMPORT_IGES
100
AcDbLine
 62
7
  6
CONTINUOUS
 10
-0.8947634805
 20
-13.9395283312
 30
0.0
 11
-0.8891480009
 21
-13.9279399272
 31
0.0
  0
LINE
  5
2E2
100
AcDbEntity
  8
IMPORT_IGES
100
AcDbLine
 62
7
  6
CONTINUOUS
 10
0.8947634805
 20
-15.4634966183
 30
0.0
 11
0.8891480009
 21
-15.4743833838
 31
0.0
  0
LINE
  5
2E3
100
AcDbEntity
  8
IMPORT_IGES
100
AcDbLine
 62
7
  6
CONTINUOUS
 10
0.8947634805
 20
-43.9070971342
 30
0.0
 11
0.8891480009
 21
-43.9186855381
 31
0.0
  0
LINE
  5
2E4
100
AcDbEntity
  8
IMPORT_IGES
100
AcDbLine
 62
7
  6
CONTINUOUS
 10
-0.8947634805
 20
-42.3831288471
 30
0.0
 11
-0.8891480009
 21
-42.3722420816
 31
0.0
  0
LINE
  5
2E5
100
AcDbEntity
  8
IMPORT_IGES
100
AcDbLine
 62
250
  6
CONTINUOUS
 10
-42.3927629765
 20
-65.7000503054
 30
0.0
 11
-45.1351767552
 21
-68.4424640841
 31
0.0
  0
LINE
  5
2E6
100
AcDbEntity
  8
IMPORT_IGES
100
AcDbLine
 62
250
  6
CONTINUOUS
 10
-44.2691513514
 20
-69.3084894878
 30
0.0
 11
-41.5267375727
 21
-66.5660757092
 31
0.0
  0
LINE
  5
2E7
100
AcDbEntity
  8
IMPORT_IGES
100
AcDbLine
 62
7
  6
CONTINUOUS
 10
-13.4489293489
 20
-29.8124607336
 30
0.0
 11
-13.4598161144
 21
-29.8180762132
 31
0.0
  0
LINE
  5
2E8
100
AcDbEntity
  8
IMPORT_IGES
100
AcDbLine
 62
7
  6
CONTINUOUS
 10
-14.9953728054
 20
-28.0341647318
 30
0.0
 11
-14.9837844015
 21
-28.0285492521
 31
0.0
  0
LINE
  5
2E9
100
AcDbEntity
  8
IMPORT_IGES
100
AcDbLine
 62
7
  6
CONTINUOUS
 10
-4.8791667014
 20
106.006684282
 30
0.0
 11
-5.025
 21
106.6024288918
 31
0.0
  0
LINE
  5
2EA
100
AcDbEntity
  8
IMPORT_IGES
100
AcDbLine
 62
7
  6
CONTINUOUS
 10
-5.9
 20
106.6024288918
 30
0.0
 11
-5.7541666623
 21
105.8577481295
 31
0.0
  0
LINE
  5
2EB
100
AcDbEntity
  8
IMPORT_IGES
100
AcDbLine
 62
7
  6
CONTINUOUS
 10
33.357842207
 20
-68.7311392187
 30
0.0
 11
33.3927629765
 21
-69.3084894879
 31
0.0
  0
LINE
  5
2EC
100
AcDbEntity
  8
IMPORT_IGES
100
AcDbLine
 62
7
  6
CONTINUOUS
 10
33.3927629765
 20
-66.5660757092
 30
0.0
 11
33.357842207
 21
-65.98872544
 31
0.0
  0
LINE
  5
2ED
100
AcDbEntity
  8
IMPORT_IGES
100
AcDbLine
 62
7
  6
CONTINUOUS
 10
30.3927629765
 20
-69.3084894878
 30
0.0
 11
30.3927629765
 21
-66.5660757092
 31
0.0
  0
LINE
  5
2EE
100
AcDbEntity
  8
IMPORT_IGES
100
AcDbLine
 62
7
  6
CONTINUOUS
 10
30.3927629765
 20
112.7194502439
 30
0.0
 11
30.3927629765
 21
115.4618640225
 31
0.0
  0
LINE
  5
2EF
100
AcDbEntity
  8
IMPORT_IGES
100
AcDbLine
 62
7
  6
CONTINUOUS
 10
30.427683746
 20
114.8845137533
 30
0.0
 11
30.427683746
 21
112.1420999747
 31
0.0
  0
LINE
  5
2F0
100
AcDbEntity
  8
IMPORT_IGES
100
AcDbLine
 62
7
  6
CONTINUOUS
 10
30.427683746
 20
-65.98872544
 30
0.0
 11
30.427683746
 21
-68.7311392186
 31
0.0
  0
LINE
  5
2F1
100
AcDbEntity
  8
IMPORT_IGES
100
AcDbLine
 62
7
  6
CONTINUOUS
 10
33.3927629765
 20
115.4618640225
 30
0.0
 11
33.357842207
 21
114.8845137533
 31
0.0
  0
LINE
  5
2F2
100
AcDbEntity
  8
IMPORT_IGES
100
AcDbLine
 62
7
  6
CONTINUOUS
 10
33.357842207
 20
112.1420999747
 30
0.0
 11
33.3927629765
 21
112.7194502439
 31
0.0
  0
LINE
  5
2F3
100
AcDbEntity
  8
IMPORT_IGES
100
AcDbLine
 62
7
  6
CONTINUOUS
 10
13.4489293489
 20
-28.0341647318
 30
0.0
 11
13.4598161144
 21
-28.0285492521
 31
0.0
  0
LWPOLYLINE
  5
2F4
100
AcDbEntity
  8
0
100
AcDbPolyline
 62
7
  6
CONTINUOUS
 90
13
 70
0
 43
0.3499999917
 10
72.8928598022
 20
24.1214277649
 10
71.6071417236
 20
24.1214277649
 10
71.1785733032
 20
24.3357151794
 10
70.7499984741
 20
24.7642868042
 10
70.7499984741
 20
24.9785710144
 10
71.1785733032
 20
25.4071426392
 10
71.6071417236
 20
25.6214300537
 10
72.8928598022
 20
25.6214300537
 10
73.3214282227
 20
25.4071426392
 10
73.7500030518
 20
24.9785710144
 10
73.7500030518
 20
24.7642868042
 10
73.3214282227
 20
24.3357151794
 10
72.8928598022
 20
24.1214277649
  0
LINE
  5
2F5
100
AcDbEntity
  8
IMPORT_IGES
100
AcDbLine
 62
7
  6
CONTINUOUS
 10
0.8891480009
 20
57.6277579184
 30
0.0
 11
0.8947634805
 21
57.616871153
 31
0.0
  0
LINE
  5
2F6
100
AcDbEntity
  8
IMPORT_IGES
100
AcDbLine
 62
7
  6
CONTINUOUS
 10
-0.8891480009
 20
56.0813144619
 30
0.0
 11
-0.8947634805
 21
56.0929028658
 31
0.0
  0
LINE
  5
2F7
100
AcDbEntity
  8
IMPORT_IGES
100
AcDbLine
 62
7
  6
CONTINUOUS
 10
30.3927629765
 20
112.7194502439
 30
0.0
 11
30.427683746
 21
112.1420999747
 31
0.0
  0
LINE
  5
2F8
100
AcDbEntity
  8
IMPORT_IGES
100
AcDbLine
 62
7
  6
CONTINUOUS
 10
30.427683746
 20
114.8845137533
 30
0.0
 11
30.3927629765
 21
115.4618640225
 31
0.0
  0
LINE
  5
2F9
100
AcDbEntity
  8
IMPORT_IGES
100
AcDbLine
 62
7
  6
CONTINUOUS
 10
33.357842207
 20
-68.7311392186
 30
0.0
 11
33.357842207
 21
-65.98872544
 31
0.0
  0
LINE
  5
2FA
100
AcDbEntity
  8
IMPORT_IGES
100
AcDbLine
 62
7
  6
CONTINUOUS
 10
33.357842207
 20
112.1420999747
 30
0.0
 11
33.357842207
 21
114.8845137533
 31
0.0
  0
LINE
  5
2FB
100
AcDbEntity
  8
IMPORT_IGES
100
AcDbLine
 62
7
  6
CONTINUOUS
 10
33.3927629765
 20
115.4618640225
 30
0.0
 11
33.3927629765
 21
112.7194502439
 31
0.0
  0
LINE
  5
2FC
100
AcDbEntity
  8
IMPORT_IGES
100
AcDbLine
 62
7
  6
CONTINUOUS
 10
33.3927629765
 20
-66.5660757092
 30
0.0
 11
33.3927629765
 21
-69.3084894878
 31
0.0
  0
LINE
  5
2FD
100
AcDbEntity
  8
IMPORT_IGES
100
AcDbLine
 62
7
  6
CONTINUOUS
 10
35.1130912987
 20
-63.0750864726
 30
0.0
 11
35.1130912987
 21
-62.4715389927
 31
0.0
  0
LINE
  5
2FE
100
AcDbEntity
  8
IMPORT_IGES
100
AcDbLine
 62
7
  6
CONTINUOUS
 10
36.1
 20
-63.2733127327
 30
0.0
 11
36.1
 21
-62.2733127327
 31
0.0
  0
LINE
  5
2FF
100
AcDbEntity
  8
IMPORT_IGES
100
AcDbLine
 62
7
  6
CONTINUOUS
 10
37.0
 20
81.5766872673
 30
0.0
 11
37.0
 21
-48.6856025855
 31
0.0
  0
LINE
  5
300
100
AcDbEntity
  8
IMPORT_IGES
100
AcDbLine
 62
7
  6
CONTINUOUS
 10
38.5043637662
 20
-53.4189489665
 30
0.0
 11
38.5043637662
 21
84.5766872674
 31
0.0
  0
LINE
  5
301
100
AcDbEntity
  8
IMPORT_IGES
100
AcDbLine
 62
7
  6
CONTINUOUS
 10
40.4956362338
 20
84.5766872673
 30
0.0
 11
40.4956362338
 21
-53.4189489665
 31
0.0
  0
LINE
  5
302
100
AcDbEntity
  8
IMPORT_IGES
100
AcDbLine
 62
7
  6
CONTINUOUS
 10
41.1
 20
-62.2733127327
 30
0.0
 11
41.1
 21
-63.2733127327
 31
0.0
  0
LINE
  5
303
100
AcDbEntity
  8
IMPORT_IGES
100
AcDbLine
 62
7
  6
CONTINUOUS
 10
41.8154127073
 20
-57.5311549397
 30
0.0
 11
41.8154127073
 21
-54.6009964787
 31
0.0
  0
LINE
  5
304
100
AcDbEntity
  8
IMPORT_IGES
100
AcDbLine
 62
7
  6
CONTINUOUS
 10
41.8154127073
 20
100.7543710133
 30
0.0
 11
41.8154127073
 21
103.6845294744
 31
0.0
  0
LINE
  5
305
100
AcDbEntity
  8
IMPORT_IGES
100
AcDbLine
 62
7
  6
CONTINUOUS
 10
42.0869087013
 20
-62.4715389927
 30
0.0
 11
42.0869087013
 21
-63.0750864726
 31
0.0
  0
LINE
  5
306
100
AcDbEntity
  8
IMPORT_IGES
100
AcDbLine
 62
7
  6
CONTINUOUS
 10
30.427683746
 20
-65.98872544
 30
0.0
 11
30.3927629765
 21
-66.5660757092
 31
0.0
  0
LINE
  5
307
100
AcDbEntity
  8
IMPORT_IGES
100
AcDbLine
 62
7
  6
CONTINUOUS
 10
30.3927629765
 20
-69.3084894879
 30
0.0
 11
30.427683746
 21
-68.7311392187
 31
0.0
  0
LINE
  5
308
100
AcDbEntity
  8
IMPORT_IGES
100
AcDbLine
 62
7
  6
CONTINUOUS
 10
14.9953728054
 20
-29.8124607336
 30
0.0
 11
14.9837844015
 21
-29.8180762132
 31
0.0
  0
LINE
  5
309
100
AcDbEntity
  8
IMPORT_IGES
100
AcDbLine
 62
7
  6
CONTINUOUS
 10
-5.7541666623
 20
105.8577481295
 30
0.0
 11
-5.4625
 21
105.2620034154
 31
0.0
  0
LINE
  5
30A
100
AcDbEntity
  8
IMPORT_IGES
100
AcDbLine
 62
7
  6
CONTINUOUS
 10
4.8916663885
 20
110.0279610242
 30
0.0
 11
5.0375
 21
109.5811525668
 31
0.0
  0
LINE
  5
30B
100
AcDbEntity
  8
IMPORT_IGES
100
AcDbLine
 62
7
  6
CONTINUOUS
 10
5.9125
 20
109.5811525668
 30
0.0
 11
5.7666663885
 21
110.0279610242
 31
0.0
  0
LINE
  5
30C
100
AcDbEntity
  8
IMPORT_IGES
100
AcDbLine
 62
7
  6
CONTINUOUS
 10
42.3927629765
 20
-54.5660757092
 30
0.0
 11
42.3927629765
 21
100.7194502439
 31
0.0
  0
LINE
  5
30D
100
AcDbEntity
  8
IMPORT_IGES
100
AcDbLine
 62
7
  6
CONTINUOUS
 10
42.3927629765
 20
103.7194502439
 30
0.0
 11
42.3927629765
 21
107.7402168798
 31
0.0
  0
LINE
  5
30E
100
AcDbEntity
  8
IMPORT_IGES
100
AcDbLine
 62
7
  6
CONTINUOUS
 10
44.557826486
 20
-57.5311549397
 30
0.0
 11
44.557826486
 21
-54.6009964787
 31
0.0
  0
LINE
  5
30F
100
AcDbEntity
  8
IMPORT_IGES
100
AcDbLine
 62
7
  6
CONTINUOUS
 10
44.557826486
 20
100.7543710133
 30
0.0
 11
44.557826486
 21
103.6845294744
 31
0.0
  0
LINE
  5
310
100
AcDbEntity
  8
IMPORT_IGES
100
AcDbLine
 62
7
  6
CONTINUOUS
 10
45.1351767552
 20
-68.4424640841
 30
0.0
 11
45.1351767552
 21
-57.5660757092
 31
0.0
  0
LINE
  5
311
100
AcDbEntity
  8
IMPORT_IGES
100
AcDbLine
 62
7
  6
CONTINUOUS
 10
45.1351767552
 20
-54.5660757092
 30
0.0
 11
45.1351767552
 21
100.7194502439
 31
0.0
  0
LINE
  5
312
100
AcDbEntity
  8
IMPORT_IGES
100
AcDbLine
 62
7
  6
CONTINUOUS
 10
45.1351767552
 20
103.7194502439
 30
0.0
 11
45.1351767552
 21
114.5958386187
 31
0.0
  0
LINE
  5
313
100
AcDbEntity
  8
IMPORT_IGES
100
AcDbLine
 62
7
  6
CONTINUOUS
 10
47.9704133083
 20
113.3794285457
 30
0.0
 11
47.9704133083
 21
-67.2260515496
 31
0.0
  0
LINE
  5
314
100
AcDbEntity
  8
IMPORT_IGES
100
AcDbLine
 62
250
  6
CONTINUOUS
 10
48.3380189292
 20
-67.2260540105
 30
0.0
 11
48.3380189292
 21
113.3794285457
 31
0.0
  0
LWPOLYLINE
  5
315
100
AcDbEntity
  8
IMPORT_IGES
100
AcDbPolyline
 62
7
  6
CONTINUOUS
 90
40
 70
0
 10
47.9704366151
 20
-67.2260515912
 10
47.9691221878
 20
-67.3383088859
 10
47.9608202656
 20
-67.5292088335
 10
47.9448631753
 20
-67.719066121
 10
47.9212926268
 20
-67.9071759366
 10
47.8901095062
 20
-68.0936436205
 10
47.8512254214
 20
-68.2793761748
 10
47.8045624108
 20
-68.4646489349
 10
47.7503060681
 20
-68.6485847205
 10
47.6886835705
 20
-68.8303089606
 10
47.6198203957
 20
-69.0093386428
 10
47.5437554707
 20
-69.1854287797
 10
47.4606608945
 20
-69.3580916989
 10
47.3708182627
 20
-69.5268237745
 10
47.2742635193
 20
-69.6916210345
 10
47.1707849685
 20
-69.8527725969
 10
47.0603790051
 20
-70.0101643365
 10
46.9433230605
 20
-70.1633152958
 10
46.8197904727
 20
-70.3119209375
 10
46.6898943959
 20
-70.4557565224
 10
46.5538822058
 20
-70.5944741548
 10
46.4121619513
 20
-70.7276050979
 10
46.2649929156
 20
-70.8548700415
 10
46.1125556674
 20
-70.9760713837
 10
45.9551799255
 20
-71.090900677
 10
45.7932140588
 20
-71.1990972318
 10
45.6268470066
 20
-71.3005388399
 10
45.4561766675
 20
-71.3951310739
 10
45.281402381
 20
-71.482695521
 10
45.1028212159
 20
-71.563030146
 10
44.9206688151
 20
-71.6360358526
 10
44.73496644
 20
-71.7016802674
 10
44.5463051777
 20
-71.7597019352
 10
44.355814587
 20
-71.809750036
 10
44.1644376949
 20
-71.8516338304
 10
43.9719237873
 20
-71.8854171919
 10
43.7775693082
 20
-71.9111544961
 10
43.5812904764
 20
-71.9287576068
 10
43.3836778121
 20
-71.9381308514
 10
43.2562147453
 20
-71.939817515
  0
LINE
  5
316
100
AcDbEntity
  8
IMPORT_IGES
100
AcDbLine
 62
250
  6
CONTINUOUS
 10
-45.1351767552
 20
114.5958386187
 30
0.0
 11
-42.3927629765
 21
111.8534248401
 31
0.0
  0
LINE
  5
317
100
AcDbEntity
  8
IMPORT_IGES
100
AcDbLine
 62
250
  6
CONTINUOUS
 10
-41.5267375727
 20
112.7194502439
 30
0.0
 11
-44.2691513514
 21
115.4618640225
 31
0.0
  0
LINE
  5
318
100
AcDbEntity
  8
IMPORT_IGES
100
AcDbLine
 62
250
  6
CONTINUOUS
 10
59.999999996
 20
137.6762580198
 30
0.0
 11
60.0
 21
138.0233127327
 31
0.0
  0
LINE
  5
319
100
AcDbEntity
  8
IMPORT_IGES
100
AcDbLine
 62
250
  6
CONTINUOUS
 10
60.0000000188
 20
-91.5228828759
 30
0.0
 11
60.0
 21
-91.9233127327
 31
0.0
  0
LINE
  5
31A
100
AcDbEntity
  8
IMPORT_IGES
100
AcDbLine
 62
7
  6
CONTINUOUS
 10
-7.3427766622
 20
-91.7660893948
 30
0.0
 11
-7.5
 21
-91.9233127327
 31
0.0
  0
LINE
  5
31B
100
AcDbEntity
  8
IMPORT_IGES
100
AcDbLine
 62
7
  6
CONTINUOUS
 10
-14.9837844015
 20
70.1819237868
 30
0.0
 11
-14.9953728054
 21
70.1875392664
 31
0.0
  0
LINE
  5
31C
100
AcDbEntity
  8
IMPORT_IGES
100
AcDbLine
 62
7
  6
CONTINUOUS
 10
-13.4598161144
 20
71.9714507479
 30
0.0
 11
-13.4489293489
 21
71.9658352682
 31
0.0
  0
LINE
  5
31D
100
AcDbEntity
  8
IMPORT_IGES
100
AcDbLine
 62
7
  6
CONTINUOUS
 10
-4.5875
 20
105.5598758246
 30
0.0
 11
-4.8791667014
 21
106.006684282
 31
0.0
  0
LINE
  5
31E
100
AcDbEntity
  8
IMPORT_IGES
100
AcDbLine
 62
7
  6
CONTINUOUS
 10
66.4941076536
 20
131.5766872673
 30
0.0
 11
66.5
 21
130.7766872673
 31
0.0
  0
LINE
  5
31F
100
AcDbEntity
  8
IMPORT_IGES
100
AcDbLine
 62
250
  6
CONTINUOUS
 10
65.9872634477
 20
131.5766872673
 30
0.0
 11
65.9872634477
 21
-85.4233127327
 31
0.0
  0
LINE
  5
320
100
AcDbEntity
  8
IMPORT_IGES
100
AcDbLine
 62
250
  6
CONTINUOUS
 10
66.1945624282
 20
131.5766872669
 30
0.0
 11
66.1945624292
 21
-85.4233127252
 31
0.0
  0
LINE
  5
321
100
AcDbEntity
  8
IMPORT_IGES
100
AcDbLine
 62
7
  6
CONTINUOUS
 10
66.5
 20
-85.4233127327
 30
0.0
 11
66.5
 21
130.7766872673
 31
0.0
  0
LINE
  5
322
100
AcDbEntity
  8
IMPORT_IGES
100
AcDbLine
 62
7
  6
CONTINUOUS
 10
-13.2704536584
 20
70.1906513193
 30
0.0
 11
-13.4489293489
 21
70.1875392664
 31
0.0
  0
LINE
  5
323
100
AcDbEntity
  8
IMPORT_IGES
100
AcDbLine
 62
7
  6
CONTINUOUS
 10
14.9837844015
 20
70.1819237868
 30
0.0
 11
13.4598161144
 21
70.1819237868
 31
0.0
  0
LINE
  5
324
100
AcDbEntity
  8
IMPORT_IGES
100
AcDbLine
 62
7
  6
CONTINUOUS
 10
-13.4598161144
 20
70.1819237868
 30
0.0
 11
-14.9837844015
 21
70.1819237868
 31
0.0
  0
LINE
  5
325
100
AcDbEntity
  8
IMPORT_IGES
100
AcDbLine
 62
7
  6
CONTINUOUS
 10
15.174153693
 20
70.1906513193
 30
0.0
 11
13.2704536584
 21
70.1906513193
 31
0.0
  0
LINE
  5
326
100
AcDbEntity
  8
IMPORT_IGES
100
AcDbLine
 62
7
  6
CONTINUOUS
 10
-13.2704536584
 20
70.1906513193
 30
0.0
 11
-15.174153693
 21
70.1906513193
 31
0.0
  0
LINE
  5
327
100
AcDbEntity
  8
IMPORT_IGES
100
AcDbLine
 62
7
  6
CONTINUOUS
 10
-15.174153693
 20
71.9627232154
 30
0.0
 11
-13.2704536584
 21
71.9627232154
 31
0.0
  0
LINE
  5
328
100
AcDbEntity
  8
IMPORT_IGES
100
AcDbLine
 62
7
  6
CONTINUOUS
 10
13.2704536584
 20
71.9627232154
 30
0.0
 11
15.174153693
 21
71.9627232154
 31
0.0
  0
LINE
  5
329
100
AcDbEntity
  8
IMPORT_IGES
100
AcDbLine
 62
7
  6
CONTINUOUS
 10
-14.9837844015
 20
71.9714507479
 30
0.0
 11
-13.4598161144
 21
71.9714507479
 31
0.0
  0
LINE
  5
32A
100
AcDbEntity
  8
IMPORT_IGES
100
AcDbLine
 62
7
  6
CONTINUOUS
 10
13.4598161144
 20
71.9714507479
 30
0.0
 11
14.9837844015
 21
71.9714507479
 31
0.0
  0
LINE
  5
32B
100
AcDbEntity
  8
IMPORT_IGES
100
AcDbLine
 62
7
  6
CONTINUOUS
 10
14.9837844015
 20
71.9714507479
 30
0.0
 11
14.9953728054
 21
71.9658352682
 31
0.0
  0
LINE
  5
32C
100
AcDbEntity
  8
IMPORT_IGES
100
AcDbLine
 62
7
  6
CONTINUOUS
 10
13.4598161144
 20
70.1819237868
 30
0.0
 11
13.4489293489
 21
70.1875392664
 31
0.0
  0
LINE
  5
32D
100
AcDbEntity
  8
IMPORT_IGES
100
AcDbLine
 62
7
  6
CONTINUOUS
 10
-5.4625
 20
105.2620034154
 30
0.0
 11
-4.8791667014
 21
104.6662587534
 31
0.0
  0
LINE
  5
32E
100
AcDbEntity
  8
IMPORT_IGES
100
AcDbLine
 62
7
  6
CONTINUOUS
 10
4.0
 20
96.2194502439
 30
0.0
 11
-0.0
 21
101.2194502439
 31
0.0
  0
LINE
  5
32F
100
AcDbEntity
  8
IMPORT_IGES
100
AcDbLine
 62
7
  6
CONTINUOUS
 10
5.7666663885
 20
110.0279610242
 30
0.0
 11
5.3291663885
 21
110.623705634
 31
0.0
  0
LWPOLYLINE
  5
330
100
AcDbEntity
  8
0
100
AcDbPolyline
 62
7
  6
CONTINUOUS
 90
7
 70
0
 43
0.3499999917
 10
73.7500030518
 20
21.1214295959
 10
73.7500030518
 20
19.6214273071
 10
71.6071417236
 20
21.1214295959
 10
71.1785733032
 20
21.1214295959
 10
70.7499984741
 20
20.6928579712
 10
70.7499984741
 20
20.0499989319
 10
71.3928543091
 20
19.6214273071
  0
LWPOLYLINE
  5
331
100
AcDbEntity
  8
0
100
AcDbPolyline
 62
7
  6
CONTINUOUS
 90
6
 70
0
 43
0.3499999917
 10
73.7500030518
 20
21.9785728455
 10
73.7500030518
 20
23.0500003052
 10
73.5357156372
 20
23.2642845154
 10
72.4642849731
 20
23.2642845154
 10
72.0357165527
 20
22.8357128906
 10
72.0357165527
 20
22.4071412659
  0
LINE
  5
332
100
AcDbEntity
  8
IMPORT_IGES
100
AcDbLine
 62
7
  6
CONTINUOUS
 10
4.6
 20
110.3258333291
 30
0.0
 11
4.8916663885
 21
110.0279610242
 31
0.0
  0
LWPOLYLINE
  5
333
100
AcDbEntity
  8
0
100
AcDbPolyline
 62
7
  6
CONTINUOUS
 90
5
 70
0
 43
0.3499999917
 10
72.0357165527
 20
22.8357128906
 10
71.8214291382
 20
23.1928564453
 10
71.1785733032
 20
23.1928564453
 10
70.7499984741
 20
22.8357128906
 10
70.7499984741
 20
21.9785728455
  0
LINE
  5
334
100
AcDbEntity
  8
IMPORT_IGES
100
AcDbLine
 62
7
  6
CONTINUOUS
 10
-35.0
 20
83.5766872673
 30
0.0
 11
35.0
 21
83.5766872673
 31
0.0
  0
LINE
  5
335
100
AcDbEntity
  8
IMPORT_IGES
100
AcDbLine
 62
7
  6
CONTINUOUS
 10
38.0
 20
85.0810510336
 30
0.0
 11
-38.0
 21
85.0810510336
 31
0.0
  0
LINE
  5
336
100
AcDbEntity
  8
IMPORT_IGES
100
AcDbLine
 62
7
  6
CONTINUOUS
 10
-38.0
 20
87.0723235011
 30
0.0
 11
38.0
 21
87.0723235011
 31
0.0
  0
LINE
  5
337
100
AcDbEntity
  8
IMPORT_IGES
100
AcDbLine
 62
7
  6
CONTINUOUS
 10
1.0
 20
92.2194502439
 30
0.0
 11
-1.0
 21
92.2194502439
 31
0.0
  0
LINE
  5
338
100
AcDbEntity
  8
IMPORT_IGES
100
AcDbLine
 62
7
  6
CONTINUOUS
 10
-4.8791667014
 20
104.6662587534
 30
0.0
 11
-4.2958332985
 21
104.3683864093
 31
0.0
  0
LINE
  5
339
100
AcDbEntity
  8
IMPORT_IGES
100
AcDbLine
 62
7
  6
CONTINUOUS
 10
-4.15
 20
105.2620034154
 30
0.0
 11
-4.5875
 21
105.5598758246
 31
0.0
  0
LINE
  5
33A
100
AcDbEntity
  8
IMPORT_IGES
100
AcDbLine
 62
7
  6
CONTINUOUS
 10
5.3291663885
 20
110.623705634
 30
0.0
 11
4.7458336115
 21
111.0705140914
 31
0.0
  0
LINE
  5
33B
100
AcDbEntity
  8
IMPORT_IGES
100
AcDbLine
 62
7
  6
CONTINUOUS
 10
-2.4
 20
105.2620034154
 30
0.0
 11
-2.9833334029
 21
105.1130672629
 31
0.0
  0
LINE
  5
33C
100
AcDbEntity
  8
IMPORT_IGES
100
AcDbLine
 62
7
  6
CONTINUOUS
 10
-2.9833334029
 20
104.2194502439
 30
0.0
 11
-2.2541668057
 21
104.3683864094
 31
0.0
  0
LINE
  5
33D
100
AcDbEntity
  8
IMPORT_IGES
100
AcDbLine
 62
7
  6
CONTINUOUS
 10
44.557826486
 20
103.6845294744
 30
0.0
 11
45.1351767552
 21
103.7194502439
 31
0.0
  0
LINE
  5
33E
100
AcDbEntity
  8
IMPORT_IGES
100
AcDbLine
 62
7
  6
CONTINUOUS
 10
42.3927629765
 20
103.7194502439
 30
0.0
 11
41.8154127073
 21
103.6845294744
 31
0.0
  0
LINE
  5
33F
100
AcDbEntity
  8
IMPORT_IGES
100
AcDbLine
 62
7
  6
CONTINUOUS
 10
-42.3927629765
 20
100.7194502439
 30
0.0
 11
-41.8154127073
 21
100.7543710133
 31
0.0
  0
LINE
  5
340
100
AcDbEntity
  8
IMPORT_IGES
100
AcDbLine
 62
7
  6
CONTINUOUS
 10
-44.557826486
 20
100.7543710133
 30
0.0
 11
-45.1351767552
 21
100.7194502439
 31
0.0
  0
LINE
  5
341
100
AcDbEntity
  8
IMPORT_IGES
100
AcDbLine
 62
7
  6
CONTINUOUS
 10
4.0
 20
96.2194502439
 30
0.0
 11
1.0
 21
96.2194502439
 31
0.0
  0
LINE
  5
342
100
AcDbEntity
  8
IMPORT_IGES
100
AcDbLine
 62
7
  6
CONTINUOUS
 10
-1.0
 20
96.2194502439
 30
0.0
 11
-4.0
 21
96.2194502439
 31
0.0
  0
LINE
  5
343
100
AcDbEntity
  8
IMPORT_IGES
100
AcDbLine
 62
7
  6
CONTINUOUS
 10
45.1351767552
 20
100.7194502439
 30
0.0
 11
42.3927629765
 21
100.7194502439
 31
0.0
  0
LINE
  5
344
100
AcDbEntity
  8
IMPORT_IGES
100
AcDbLine
 62
7
  6
CONTINUOUS
 10
-42.3927629765
 20
100.7194502439
 30
0.0
 11
-45.1351767552
 21
100.7194502439
 31
0.0
  0
LINE
  5
345
100
AcDbEntity
  8
IMPORT_IGES
100
AcDbLine
 62
7
  6
CONTINUOUS
 10
-44.557826486
 20
100.7543710133
 30
0.0
 11
-41.8154127073
 21
100.7543710133
 31
0.0
  0
LINE
  5
346
100
AcDbEntity
  8
IMPORT_IGES
100
AcDbLine
 62
7
  6
CONTINUOUS
 10
41.8154127073
 20
100.7543710133
 30
0.0
 11
44.557826486
 21
100.7543710133
 31
0.0
  0
LINE
  5
347
100
AcDbEntity
  8
IMPORT_IGES
100
AcDbLine
 62
7
  6
CONTINUOUS
 10
-45.1351767552
 20
103.7194502439
 30
0.0
 11
-44.557826486
 21
103.6845294744
 31
0.0
  0
LINE
  5
348
100
AcDbEntity
  8
IMPORT_IGES
100
AcDbLine
 62
7
  6
CONTINUOUS
 10
-41.8154127073
 20
103.6845294744
 30
0.0
 11
-42.3927629765
 21
103.7194502439
 31
0.0
  0
LINE
  5
349
100
AcDbEntity
  8
IMPORT_IGES
100
AcDbLine
 62
7
  6
CONTINUOUS
 10
41.8154127073
 20
100.7543710133
 30
0.0
 11
42.3927629765
 21
100.7194502439
 31
0.0
  0
LINE
  5
34A
100
AcDbEntity
  8
IMPORT_IGES
100
AcDbLine
 62
7
  6
CONTINUOUS
 10
45.1351767552
 20
100.7194502439
 30
0.0
 11
44.557826486
 21
100.7543710133
 31
0.0
  0
LINE
  5
34B
100
AcDbEntity
  8
IMPORT_IGES
100
AcDbLine
 62
7
  6
CONTINUOUS
 10
-4.2958332985
 20
104.3683864093
 30
0.0
 11
-3.5666665972
 21
104.2194502439
 31
0.0
  0
LINE
  5
34C
100
AcDbEntity
  8
IMPORT_IGES
100
AcDbLine
 62
7
  6
CONTINUOUS
 10
-3.5666665971
 20
105.1130672629
 30
0.0
 11
-4.15
 21
105.2620034154
 31
0.0
  0
LINE
  5
34D
100
AcDbEntity
  8
IMPORT_IGES
100
AcDbLine
 62
7
  6
CONTINUOUS
 10
4.0166663885
 20
107.3471098627
 30
0.0
 11
4.7458336115
 21
107.4960460152
 31
0.0
  0
LINE
  5
34E
100
AcDbEntity
  8
IMPORT_IGES
100
AcDbLine
 62
7
  6
CONTINUOUS
 10
44.557826486
 20
103.6845294744
 30
0.0
 11
41.8154127073
 21
103.6845294744
 31
0.0
  0
LINE
  5
34F
100
AcDbEntity
  8
IMPORT_IGES
100
AcDbLine
 62
7
  6
CONTINUOUS
 10
-41.8154127073
 20
103.6845294744
 30
0.0
 11
-44.557826486
 21
103.6845294744
 31
0.0
  0
LINE
  5
350
100
AcDbEntity
  8
IMPORT_IGES
100
AcDbLine
 62
7
  6
CONTINUOUS
 10
-45.1351767552
 20
103.7194502439
 30
0.0
 11
-42.3927629765
 21
103.7194502439
 31
0.0
  0
LINE
  5
351
100
AcDbEntity
  8
IMPORT_IGES
100
AcDbLine
 62
7
  6
CONTINUOUS
 10
42.3927629765
 20
103.7194502439
 30
0.0
 11
45.1351767552
 21
103.7194502439
 31
0.0
  0
LINE
  5
352
100
AcDbEntity
  8
IMPORT_IGES
100
AcDbLine
 62
7
  6
CONTINUOUS
 10
1.3916663885
 20
104.2194502439
 30
0.0
 11
0.5166668057
 21
104.2194502439
 31
0.0
  0
LINE
  5
353
100
AcDbEntity
  8
IMPORT_IGES
100
AcDbLine
 62
7
  6
CONTINUOUS
 10
-2.9833334029
 20
104.2194502439
 30
0.0
 11
-3.5666665971
 21
104.2194502439
 31
0.0
  0
LINE
  5
354
100
AcDbEntity
  8
IMPORT_IGES
100
AcDbLine
 62
7
  6
CONTINUOUS
 10
-3.5666665971
 20
105.1130672629
 30
0.0
 11
-2.9833334029
 21
105.1130672629
 31
0.0
  0
LINE
  5
355
100
AcDbEntity
  8
IMPORT_IGES
100
AcDbLine
 62
7
  6
CONTINUOUS
 10
39.1
 20
106.4266872673
 30
0.0
 11
38.1
 21
106.4266872673
 31
0.0
  0
LINE
  5
356
100
AcDbEntity
  8
IMPORT_IGES
100
AcDbLine
 62
7
  6
CONTINUOUS
 10
4.0166663885
 20
107.3471098627
 30
0.0
 11
1.3916663885
 21
107.3471098627
 31
0.0
  0
LINE
  5
357
100
AcDbEntity
  8
IMPORT_IGES
100
AcDbLine
 62
7
  6
CONTINUOUS
 10
1.3916663885
 20
108.2407267775
 30
0.0
 11
4.1625
 21
108.2407267775
 31
0.0
  0
LINE
  5
358
100
AcDbEntity
  8
IMPORT_IGES
100
AcDbLine
 62
7
  6
CONTINUOUS
 10
4.1625
 20
110.4747694816
 30
0.0
 11
1.3916663885
 21
110.4747694816
 31
0.0
  0
LINE
  5
359
100
AcDbEntity
  8
IMPORT_IGES
100
AcDbLine
 62
7
  6
CONTINUOUS
 10
-5.9
 20
111.2194502439
 30
0.0
 11
-5.025
 21
111.2194502439
 31
0.0
  0
LINE
  5
35A
100
AcDbEntity
  8
IMPORT_IGES
100
AcDbLine
 62
7
  6
CONTINUOUS
 10
-1.525
 20
111.2194502439
 30
0.0
 11
-0.65
 21
111.2194502439
 31
0.0
  0
LINE
  5
35B
100
AcDbEntity
  8
IMPORT_IGES
100
AcDbLine
 62
7
  6
CONTINUOUS
 10
0.5166668057
 20
111.2194502439
 30
0.0
 11
4.0166663885
 21
111.2194502439
 31
0.0
  0
LINE
  5
35C
100
AcDbEntity
  8
IMPORT_IGES
100
AcDbLine
 62
7
  6
CONTINUOUS
 10
38.1
 20
111.4266872673
 30
0.0
 11
39.1
 21
111.4266872673
 31
0.0
  0
LINE
  5
35D
100
AcDbEntity
  8
IMPORT_IGES
100
AcDbLine
 62
7
  6
CONTINUOUS
 10
-33.357842207
 20
112.1420999747
 30
0.0
 11
-30.427683746
 21
112.1420999747
 31
0.0
  0
LINE
  5
35E
100
AcDbEntity
  8
IMPORT_IGES
100
AcDbLine
 62
7
  6
CONTINUOUS
 10
30.427683746
 20
112.1420999747
 30
0.0
 11
33.357842207
 21
112.1420999747
 31
0.0
  0
LINE
  5
35F
100
AcDbEntity
  8
IMPORT_IGES
100
AcDbLine
 62
7
  6
CONTINUOUS
 10
-37.4135296125
 20
112.7194502439
 30
0.0
 11
-33.3927629765
 21
112.7194502439
 31
0.0
  0
LINE
  5
360
100
AcDbEntity
  8
IMPORT_IGES
100
AcDbLine
 62
7
  6
CONTINUOUS
 10
-30.3927629765
 20
112.7194502439
 30
0.0
 11
30.3927629765
 21
112.7194502439
 31
0.0
  0
LINE
  5
361
100
AcDbEntity
  8
IMPORT_IGES
100
AcDbLine
 62
250
  6
CONTINUOUS
 10
48.3380189292
 20
113.3794285457
 30
0.0
 11
47.9704134701
 21
113.3794285457
 31
0.0
  0
LINE
  5
362
100
AcDbEntity
  8
IMPORT_IGES
100
AcDbLine
 62
250
  6
CONTINUOUS
 10
-47.970413544
 20
113.3794260843
 30
0.0
 11
-48.3380189292
 21
113.3794260843
 31
0.0
  0
LINE
  5
363
100
AcDbEntity
  8
IMPORT_IGES
100
AcDbLine
 62
7
  6
CONTINUOUS
 10
4.7458336115
 20
111.0705140914
 30
0.0
 11
4.0166663885
 21
111.2194502439
 31
0.0
  0
LINE
  5
364
100
AcDbEntity
  8
IMPORT_IGES
100
AcDbLine
 62
7
  6
CONTINUOUS
 10
4.1625
 20
110.4747694816
 30
0.0
 11
4.6
 21
110.3258333291
 31
0.0
  0
LINE
  5
365
100
AcDbEntity
  8
IMPORT_IGES
100
AcDbLine
 62
7
  6
CONTINUOUS
 10
-33.357842207
 20
114.8845137533
 30
0.0
 11
-30.427683746
 21
114.8845137533
 31
0.0
  0
LINE
  5
366
100
AcDbEntity
  8
IMPORT_IGES
100
AcDbLine
 62
7
  6
CONTINUOUS
 10
30.427683746
 20
114.8845137533
 30
0.0
 11
33.357842207
 21
114.8845137533
 31
0.0
  0
LINE
  5
367
100
AcDbEntity
  8
IMPORT_IGES
100
AcDbLine
 62
7
  6
CONTINUOUS
 10
-44.2691513514
 20
115.4618640225
 30
0.0
 11
-33.3927629765
 21
115.4618640225
 31
0.0
  0
LINE
  5
368
100
AcDbEntity
  8
IMPORT_IGES
100
AcDbLine
 62
7
  6
CONTINUOUS
 10
-30.3927629765
 20
115.4618640225
 30
0.0
 11
30.3927629765
 21
115.4618640225
 31
0.0
  0
LINE
  5
369
100
AcDbEntity
  8
IMPORT_IGES
100
AcDbLine
 62
7
  6
CONTINUOUS
 10
33.3927629765
 20
115.4618640225
 30
0.0
 11
44.2691513514
 21
115.4618640225
 31
0.0
  0
LINE
  5
36A
100
AcDbEntity
  8
IMPORT_IGES
100
AcDbLine
 62
7
  6
CONTINUOUS
 10
-43.2561657246
 20
118.0931690029
 30
0.0
 11
-0.005708874
 21
118.092028966
 31
0.0
  0
LINE
  5
36B
100
AcDbEntity
  8
IMPORT_IGES
100
AcDbLine
 62
7
  6
CONTINUOUS
 10
-0.005708874
 20
118.092028966
 30
0.0
 11
43.2561623706
 21
118.0931690028
 31
0.0
  0
LINE
  5
36C
100
AcDbEntity
  8
IMPORT_IGES
100
AcDbLine
 62
250
  6
CONTINUOUS
 10
-43.3216243223
 20
118.392695539
 30
0.0
 11
43.3167440422
 21
118.3923680699
 31
0.0
  0
LWPOLYLINE
  5
36D
100
AcDbEntity
  8
IMPORT_IGES
100
AcDbPolyline
 62
7
  6
CONTINUOUS
 90
40
 70
0
 10
43.2562118781
 20
118.0931920498
 10
43.376759247
 20
118.0916814866
 10
43.5739422463
 20
118.0826383232
 10
43.7698394257
 20
118.065409087
 10
43.9637718541
 20
118.0400582897
 10
44.1558881149
 20
118.0066968339
 10
44.3470991791
 20
117.9652178604
 10
44.5378050665
 20
117.9154643485
 10
44.726912265
 20
117.8576467799
 10
44.9130721314
 20
117.7921976485
 10
45.0956777547
 20
117.7193838244
 10
45.274732966
 20
117.6392185994
 10
45.4498691299
 20
117.5518552215
 10
45.6206939876
 20
117.4575367886
 10
45.7870972216
 20
117.3564195763
 10
45.9491309275
 20
117.2485206908
 10
46.1066836398
 20
117.1339138091
 10
46.2593472055
 20
117.0129117969
 10
46.4067241413
 20
116.8858718002
 10
46.5485674649
 20
116.753049698
 10
46.6846656238
 20
116.6146767222
 10
46.8147207125
 20
116.4711163675
 10
46.9385216916
 20
116.3226722632
 10
47.0559150278
 20
116.1695824154
 10
47.1667176302
 20
116.0121363537
 10
47.2706955121
 20
115.8507594831
 10
47.3677827942
 20
115.6856351483
 10
47.4580270182
 20
115.5166852587
 10
47.5413693964
 20
115.3440371541
 10
47.6176368545
 20
115.1681167663
 10
47.68671203
 20
114.989277577
 10
47.748544379
 20
114.8077241044
 10
47.802986758
 20
114.623948375
 10
47.8498351858
 20
114.4387747591
 10
47.8889404076
 20
114.2530301126
 10
47.9203783802
 20
114.0665008709
 10
47.9442152123
 20
113.8784042519
 10
47.9604212887
 20
113.6886775746
 10
47.9689700157
 20
113.4979910695
 10
47.9704366151
 20
113.3794285457
  0
LINE
  5
36E
100
AcDbEntity
  8
IMPORT_IGES
100
AcDbLine
 62
250
  6
CONTINUOUS
 10
66.4941076536
 20
131.5766872673
 30
0.0
 11
65.9872634477
 21
131.5766873141
 31
0.0
  0
LINE
  5
36F
100
AcDbEntity
  8
IMPORT_IGES
100
AcDbLine
 62
250
  6
CONTINUOUS
 10
-65.9872634477
 20
131.5766872673
 30
0.0
 11
-66.4941076536
 21
131.5766872673
 31
0.0
  0
LINE
  5
370
100
AcDbEntity
  8
IMPORT_IGES
100
AcDbLine
 62
7
  6
CONTINUOUS
 10
60.0
 20
138.0233127327
 30
0.0
 11
-60.0
 21
138.0233127327
 31
0.0
  0
LWPOLYLINE
  5
371
100
AcDbEntity
  8
0
100
AcDbPolyline
 62
7
  6
CONTINUOUS
 90
6
 70
0
 43
0.3499999917
 10
-1.2857142735
 20
146.7733190918
 10
-0.2142857122
 20
146.7733190918
 10
-0.0
 20
146.9876000977
 10
-0.0
 20
148.0590307617
 10
-0.4285714245
 20
148.4875927734
 10
-0.857142849
 20
148.4875927734
  0
LWPOLYLINE
  5
372
100
AcDbEntity
  8
0
100
AcDbPolyline
 62
7
  6
CONTINUOUS
 90
6
 70
0
 43
0.3499999917
 10
0.857142849
 20
146.7733190918
 10
1.9285715103
 20
146.7733190918
 10
2.1428571224
 20
146.9876000977
 10
2.1428571224
 20
148.0590307617
 10
1.7142856979
 20
148.4875927734
 10
1.2857142735
 20
148.4875927734
  0
LINE
  5
373
100
AcDbEntity
  8
IMPORT_IGES
100
AcDbLine
 62
7
  6
CONTINUOUS
 10
-181.6635174419
 20
129.6469997673
 30
0.0
 11
-176.9135174419
 21
131.5766872673
 31
0.0
  0
LWPOLYLINE
  5
374
100
AcDbEntity
  8
0
100
AcDbPolyline
 62
7
  6
CONTINUOUS
 90
10
 70
0
 43
0.3499999917
 10
-178.0206555176
 20
161.4754852295
 10
-178.6635113525
 20
160.8326293945
 10
-179.0920861816
 20
159.9754925537
 10
-179.0920861816
 20
158.9040618896
 10
-178.6635113525
 20
158.4754870605
 10
-178.0206555176
 20
158.4754870605
 10
-177.5920935059
 20
158.9040618896
 10
-177.5920935059
 20
159.7611987305
 10
-178.0206555176
 20
160.1897735596
 10
-178.9492364502
 20
160.1897735596
  0
LINE
  5
375
100
AcDbEntity
  8
IMPORT_IGES
100
AcDbLine
 62
7
  6
CONTINUOUS
 10
-174.9135174419
 20
-89.3884026028
 30
0.0
 11
-176.9135174419
 21
-89.4233127327
 31
0.0
  0
LINE
  5
376
100
AcDbEntity
  8
IMPORT_IGES
100
AcDbLine
 62
7
  6
CONTINUOUS
 10
-181.8135174419
 20
-88.57401759
 30
0.0
 11
-183.9135174419
 21
-88.6106732263
 31
0.0
  0
LINE
  5
377
100
AcDbEntity
  8
IMPORT_IGES
100
AcDbLine
 62
7
  6
CONTINUOUS
 10
-161.9133270571
 20
-89.2098617899
 30
0.0
 11
-174.9135174419
 21
-89.3233127327
 31
0.0
  0
LINE
  5
378
100
AcDbEntity
  8
IMPORT_IGES
100
AcDbLine
 62
7
  6
CONTINUOUS
 10
-200.1291641447
 20
-91.0734866993
 30
0.0
 11
-183.9135174419
 21
-91.9233127327
 31
0.0
  0
LINE
  5
379
100
AcDbEntity
  8
IMPORT_IGES
100
AcDbLine
 62
7
  6
CONTINUOUS
 10
-191.8265269702
 20
-91.2232928385
 30
0.0
 11
-200.4135174419
 21
-90.7738978301
 31
0.0
  0
LINE
  5
37A
100
AcDbEntity
  8
IMPORT_IGES
100
AcDbLine
 62
7
  6
CONTINUOUS
 10
-156.878612629
 20
-85.9339616489
 30
0.0
 11
-174.9135174419
 21
-86.2487620834
 31
0.0
  0
LINE
  5
37B
100
AcDbEntity
  8
IMPORT_IGES
100
AcDbLine
 62
250
  6
CONTINUOUS
 10
-190.0113642279
 20
-85.4233127327
 30
0.0
 11
-183.9135174419
 21
-85.4233127327
 31
0.0
  0
LINE
  5
37C
100
AcDbEntity
  8
IMPORT_IGES
100
AcDbLine
 62
250
  6
CONTINUOUS
 10
-183.9135174419
 20
-81.5378585945
 30
0.0
 11
-181.8135174419
 21
-81.5378585945
 31
0.0
  0
LINE
  5
37D
100
AcDbEntity
  8
0
100
AcDbLine
 62
7
  6
CONTINUOUS
 10
-181.8135174419
 20
-80.3933127327
 30
0.0
 11
-181.6635174419
 21
-80.3933127327
 31
0.0
  0
LINE
  5
37E
100
AcDbEntity
  8
IMPORT_IGES
100
AcDbLine
 62
7
  6
CONTINUOUS
 10
-176.9135174419
 20
-86.2836722132
 30
0.0
 11
-181.8135174419
 21
-86.198142395
 31
0.0
  0
LWPOLYLINE
  5
37F
100
AcDbEntity
  8
0
100
AcDbPolyline
 62
7
  6
CONTINUOUS
 90
10
 70
0
 43
0.3499999917
 10
-165.3992376709
 20
146.7733190918
 10
-164.5420880127
 20
147.6304559326
 10
-164.3278070068
 20
148.4875927734
 10
-164.3278070068
 20
149.3447424316
 10
-164.7563690186
 20
149.7733172607
 10
-165.3992376709
 20
149.7733172607
 10
-165.8277996826
 20
149.3447424316
 10
-165.8277996826
 20
148.4875927734
 10
-165.3992376709
 20
148.0590307617
 10
-164.4706567383
 20
148.0590307617
  0
LWPOLYLINE
  5
380
100
AcDbEntity
  8
IMPORT_IGES
100
AcDbPolyline
 62
7
  6
CONTINUOUS
 90
23
 70
0
 10
-200.1133850897
 20
-71.9386544429
 10
-200.1356031144
 20
-71.9394721064
 10
-200.1578437582
 20
-71.9419545065
 10
-200.1799063961
 20
-71.946103549
 10
-200.2015243334
 20
-71.9518684722
 10
-200.2225722818
 20
-71.9591971288
 10
-200.2430659121
 20
-71.96809107
 10
-200.2628329578
 20
-71.9784808687
 10
-200.2817056673
 20
-71.9902670698
 10
-200.2996995515
 20
-72.0034565935
 10
-200.3166720287
 20
-72.0179547377
 10
-200.3324754977
 20
-72.0336276891
 10
-200.3470971312
 20
-72.0504585392
 10
-200.3603991514
 20
-72.0682863431
 10
-200.372300508
 20
-72.0869770614
 10
-200.3828310186
 20
-72.1065791978
 10
-200.3918878424
 20
-72.1269284079
 10
-200.3993970217
 20
-72.1478529122
 10
-200.4053653546
 20
-72.1693993772
 10
-200.4097195741
 20
-72.1913750678
 10
-200.4124186887
 20
-72.2135780945
 10
-200.4134570183
 20
-72.2360223578
 10
-200.4134685647
 20
-72.2386392652
  0
LINE
  5
381
100
AcDbEntity
  8
IMPORT_IGES
100
AcDbLine
 62
7
  6
CONTINUOUS
 10
-154.9135174419
 20
-71.4233127327
 30
0.0
 11
-153.9135174419
 21
-71.4058576677
 31
0.0
  0
LINE
  5
382
100
AcDbEntity
  8
IMPORT_IGES
100
AcDbLine
 62
250
  6
CONTINUOUS
 10
-154.9135174419
 20
-71.4233127327
 30
0.0
 11
-181.6635174419
 21
-71.4233127327
 31
0.0
  0
LINE
  5
383
100
AcDbEntity
  8
IMPORT_IGES
100
AcDbLine
 62
250
  6
CONTINUOUS
 10
-195.9942393647
 20
-72.2389935366
 30
0.0
 11
-200.4134685647
 21
-72.2386392652
 31
0.0
  0
LINE
  5
384
100
AcDbEntity
  8
IMPORT_IGES
100
AcDbLine
 62
7
  6
CONTINUOUS
 10
-195.7061044881
 20
-71.9397938841
 30
0.0
 11
-200.1133850897
 21
-71.9386544429
 31
0.0
  0
LINE
  5
385
100
AcDbEntity
  8
IMPORT_IGES
100
AcDbLine
 62
7
  6
CONTINUOUS
 10
-153.9135174419
 20
-70.4407677976
 30
0.0
 11
-154.9135174419
 21
-70.4233127327
 31
0.0
  0
LINE
  5
386
100
AcDbEntity
  8
IMPORT_IGES
100
AcDbLine
 62
7
  6
CONTINUOUS
 10
-176.9135174419
 20
-89.4233127327
 30
0.0
 11
-181.8135174419
 21
-87.4326877327
 31
0.0
  0
LINE
  5
387
100
AcDbEntity
  8
IMPORT_IGES
100
AcDbLine
 62
250
  6
CONTINUOUS
 10
-194.9037353507
 20
-67.2260515496
 30
0.0
 11
-194.8960189246
 21
-67.2260515496
 31
0.0
  0
LINE
  5
388
100
AcDbEntity
  8
IMPORT_IGES
100
AcDbLine
 62
7
  6
CONTINUOUS
 10
-176.9135174419
 20
-51.9233127327
 30
0.0
 11
-181.6635174419
 21
-52.0062242911
 31
0.0
  0
LINE
  5
389
100
AcDbEntity
  8
IMPORT_IGES
100
AcDbLine
 62
7
  6
CONTINUOUS
 10
-156.9135174419
 20
-52.7662291124
 30
0.0
 11
-174.9135174419
 21
-52.9233127327
 31
0.0
  0
LINE
  5
38A
100
AcDbEntity
  8
IMPORT_IGES
100
AcDbLine
 62
7
  6
CONTINUOUS
 10
-156.9135174419
 20
-52.0803963529
 30
0.0
 11
-174.9135174419
 21
-51.9233127327
 31
0.0
  0
LINE
  5
38B
100
AcDbEntity
  8
IMPORT_IGES
100
AcDbLine
 62
7
  6
CONTINUOUS
 10
-181.6635174419
 20
-52.8404011743
 30
0.0
 11
-176.9135174419
 21
-52.9233127327
 31
0.0
  0
LINE
  5
38C
100
AcDbEntity
  8
IMPORT_IGES
100
AcDbLine
 62
7
  6
CONTINUOUS
 10
-154.9135174419
 20
-45.4233127327
 30
0.0
 11
-153.9135174419
 21
-45.4058576677
 31
0.0
  0
LINE
  5
38D
100
AcDbEntity
  8
IMPORT_IGES
100
AcDbLine
 62
7
  6
CONTINUOUS
 10
-153.9135174419
 20
-44.4407677976
 30
0.0
 11
-154.9135174419
 21
-44.4233127327
 31
0.0
  0
LINE
  5
38E
100
AcDbEntity
  8
IMPORT_IGES
100
AcDbLine
 62
7
  6
CONTINUOUS
 10
-176.9135174419
 20
-30.9233127327
 30
0.0
 11
-181.6635174419
 21
-31.0062242911
 31
0.0
  0
LINE
  5
38F
100
AcDbEntity
  8
IMPORT_IGES
100
AcDbLine
 62
7
  6
CONTINUOUS
 10
-156.9135174419
 20
-31.7662291124
 30
0.0
 11
-174.9135174419
 21
-31.9233127327
 31
0.0
  0
LINE
  5
390
100
AcDbEntity
  8
IMPORT_IGES
100
AcDbLine
 62
7
  6
CONTINUOUS
 10
-156.9135174419
 20
-31.0803963529
 30
0.0
 11
-174.9135174419
 21
-30.9233127327
 31
0.0
  0
LINE
  5
391
100
AcDbEntity
  8
IMPORT_IGES
100
AcDbLine
 62
7
  6
CONTINUOUS
 10
-181.6635174419
 20
-31.8404011743
 30
0.0
 11
-176.9135174419
 21
-31.9233127327
 31
0.0
  0
LWPOLYLINE
  5
392
100
AcDbEntity
  8
0
100
AcDbPolyline
 62
7
  6
CONTINUOUS
 90
3
 70
0
 43
0.3499999917
 10
-176.0206567383
 20
158.7611993408
 10
-176.0920880127
 20
158.546918335
 10
-176.2349505615
 20
158.2612060547
  0
LINE
  5
393
100
AcDbEntity
  8
IMPORT_IGES
100
AcDbLine
 62
7
  6
CONTINUOUS
 10
-154.9135174419
 20
-22.4233127327
 30
0.0
 11
-153.9135174419
 21
-22.4058576677
 31
0.0
  0
LINE
  5
394
100
AcDbEntity
  8
IMPORT_IGES
100
AcDbLine
 62
7
  6
CONTINUOUS
 10
-153.9135174419
 20
-21.4407677976
 30
0.0
 11
-154.9135174419
 21
-21.4233127327
 31
0.0
  0
LWPOLYLINE
  5
395
100
AcDbEntity
  8
0
100
AcDbPolyline
 62
7
  6
CONTINUOUS
 90
3
 70
0
 43
0.3499999917
 10
-166.8277990723
 20
147.0590313721
 10
-166.8992303467
 20
146.8447375488
 10
-167.0420928955
 20
146.5590252686
  0
LINE
  5
396
100
AcDbEntity
  8
IMPORT_IGES
100
AcDbLine
 62
7
  6
CONTINUOUS
 10
-176.9135174419
 20
-9.9233127327
 30
0.0
 11
-181.6635174419
 21
-10.0062242911
 31
0.0
  0
LINE
  5
397
100
AcDbEntity
  8
IMPORT_IGES
100
AcDbLine
 62
7
  6
CONTINUOUS
 10
-156.9135174419
 20
-10.7662291124
 30
0.0
 11
-174.9135174419
 21
-10.9233127327
 31
0.0
  0
LINE
  5
398
100
AcDbEntity
  8
IMPORT_IGES
100
AcDbLine
 62
7
  6
CONTINUOUS
 10
-156.9135174419
 20
-10.0803963529
 30
0.0
 11
-174.9135174419
 21
-9.9233127327
 31
0.0
  0
LINE
  5
399
100
AcDbEntity
  8
IMPORT_IGES
100
AcDbLine
 62
7
  6
CONTINUOUS
 10
-181.6635174419
 20
-10.8404011743
 30
0.0
 11
-176.9135174419
 21
-10.9233127327
 31
0.0
  0
LINE
  5
39A
100
AcDbEntity
  8
IMPORT_IGES
100
AcDbLine
 62
7
  6
CONTINUOUS
 10
-154.9135174419
 20
-0.4233127327
 30
0.0
 11
-153.9135174419
 21
-0.4058576677
 31
0.0
  0
LWPOLYLINE
  5
39B
100
AcDbEntity
  8
IMPORT_IGES
100
AcDbPolyline
 62
7
  6
CONTINUOUS
 90
23
 70
0
 10
-200.4134685652
 20
118.3920137985
 10
-200.4134570189
 20
118.3893968945
 10
-200.4124186895
 20
118.3669526321
 10
-200.4097195752
 20
118.3447496061
 10
-200.4053653561
 20
118.3227739162
 10
-200.3993970237
 20
118.3012274517
 10
-200.391887845
 20
118.2803029476
 10
-200.3828310218
 20
118.2599537378
 10
-200.3723005117
 20
118.2403516013
 10
-200.3603991555
 20
118.2216608831
 10
-200.3470971358
 20
118.2038330789
 10
-200.3324755027
 20
118.1870022285
 10
-200.316672034
 20
118.1713292767
 10
-200.2996995571
 20
118.1568311321
 10
-200.281705673
 20
118.1436416079
 10
-200.2628329635
 20
118.1318554063
 10
-200.2430659176
 20
118.1214656071
 10
-200.2225722869
 20
118.1125716653
 10
-200.2015243379
 20
118.105243008
 10
-200.1799063998
 20
118.0994780844
 10
-200.157843761
 20
118.0953290415
 10
-200.1356031162
 20
118.0928466412
 10
-200.1133850903
 20
118.0920289776
  0
LINE
  5
39C
100
AcDbEntity
  8
IMPORT_IGES
100
AcDbLine
 62
7
  6
CONTINUOUS
 10
-200.4135174419
 20
-90.7738978302
 30
0.0
 11
-200.4135174419
 21
-72.2389935366
 31
0.0
  0
LINE
  5
39D
100
AcDbEntity
  8
IMPORT_IGES
100
AcDbLine
 62
7
  6
CONTINUOUS
 10
-200.4135174419
 20
118.3923680699
 30
0.0
 11
-200.4135174419
 21
136.9272725417
 31
0.0
  0
LINE
  5
39E
100
AcDbEntity
  8
IMPORT_IGES
100
AcDbLine
 62
7
  6
CONTINUOUS
 10
-176.9135174419
 20
11.0766872673
 30
0.0
 11
-181.6635174419
 21
10.9937757089
 31
0.0
  0
LINE
  5
39F
100
AcDbEntity
  8
IMPORT_IGES
100
AcDbLine
 62
7
  6
CONTINUOUS
 10
-153.9135174419
 20
0.5592322024
 30
0.0
 11
-154.9135174419
 21
0.5766872673
 31
0.0
  0
LINE
  5
3A0
100
AcDbEntity
  8
IMPORT_IGES
100
AcDbLine
 62
7
  6
CONTINUOUS
 10
-181.6635174419
 20
10.1595988257
 30
0.0
 11
-176.9135174419
 21
10.0766872673
 31
0.0
  0
LINE
  5
3A1
100
AcDbEntity
  8
IMPORT_IGES
100
AcDbLine
 62
7
  6
CONTINUOUS
 10
-194.9040856565
 20
113.5012773122
 30
0.0
 11
-194.9037357058
 21
-67.2260515496
 31
0.0
  0
LINE
  5
3A2
100
AcDbEntity
  8
IMPORT_IGES
100
AcDbLine
 62
250
  6
CONTINUOUS
 10
-194.8960189246
 20
-67.2260540105
 30
0.0
 11
-194.8960189246
 21
113.3794285457
 31
0.0
  0
LINE
  5
3A3
100
AcDbEntity
  8
IMPORT_IGES
100
AcDbLine
 62
250
  6
CONTINUOUS
 10
-190.0113642279
 20
131.5766872673
 30
0.0
 11
-190.0113642279
 21
-85.4233127327
 31
0.0
  0
LINE
  5
3A4
100
AcDbEntity
  8
IMPORT_IGES
100
AcDbLine
 62
250
  6
CONTINUOUS
 10
-189.7416134989
 20
131.5766872669
 30
0.0
 11
-189.7416134808
 21
-85.4233127252
 31
0.0
  0
LWPOLYLINE
  5
3A5
100
AcDbEntity
  8
IMPORT_IGES
100
AcDbPolyline
 62
7
  6
CONTINUOUS
 90
38
 70
0
 10
-194.9037403341
 20
-67.2260514767
 10
-194.9040532762
 20
-67.3415010406
 10
-194.906016338
 20
-67.5393636897
 10
-194.9097828838
 20
-67.7361150675
 10
-194.9153369459
 20
-67.9308317336
 10
-194.9226762184
 20
-68.1236446614
 10
-194.9318265413
 20
-68.315762185
 10
-194.9428131416
 20
-68.5076609583
 10
-194.9555760815
 20
-68.6982065492
 10
-194.9700298816
 20
-68.8861890722
 10
-194.9861246181
 20
-69.0710615154
 10
-195.0038477823
 20
-69.252736274
 10
-195.0231447292
 20
-69.4307225822
 10
-195.043932547
 20
-69.6044995322
 10
-195.0661763757
 20
-69.7740004487
 10
-195.0898861885
 20
-69.9393965433
 10
-195.1150383438
 20
-70.1005697207
 10
-195.1415443226
 20
-70.2570552683
 10
-195.16932027
 20
-70.4084784571
 10
-195.1983518477
 20
-70.5548434962
 10
-195.2285167568
 20
-70.6956195844
 10
-195.2595378496
 20
-70.8297221257
 10
-195.2913043353
 20
-70.9569661088
 10
-195.3237308745
 20
-71.077287971
 10
-195.3565290412
 20
-71.1899442431
 10
-195.3895541807
 20
-71.2948368762
 10
-195.4227092985
 20
-71.3920673339
 10
-195.4557241996
 20
-71.4812774043
 10
-195.4884964844
 20
-71.5626395796
 10
-195.5208446033
 20
-71.636136555
 10
-195.5523150986
 20
-71.7012917515
 10
-195.5830113693
 20
-71.7589210534
 10
-195.6125228679
 20
-71.8088481967
 10
-195.6394714923
 20
-71.8496944858
 10
-195.6630216151
 20
-71.8815315618
 10
-195.6833372539
 20
-71.9058199476
 10
-195.7004011764
 20
-71.9235791224
 10
-195.7061033732
 20
-71.9289152598
  0
LINE
  5
3A6
100
AcDbEntity
  8
IMPORT_IGES
100
AcDbLine
 62
7
  6
CONTINUOUS
 10
-153.9135174419
 20
20.5941423323
 30
0.0
 11
-154.9135174419
 21
20.5766872673
 31
0.0
  0
LINE
  5
3A7
100
AcDbEntity
  8
IMPORT_IGES
100
AcDbLine
 62
7
  6
CONTINUOUS
 10
-157.7854642602
 20
8.6072671332
 30
0.0
 11
-154.9135174419
 21
8.4063099174
 31
0.0
  0
LINE
  5
3A8
100
AcDbEntity
  8
IMPORT_IGES
100
AcDbLine
 62
7
  6
CONTINUOUS
 10
-183.9135174419
 20
-91.9233127327
 30
0.0
 11
-183.9135174419
 21
130.7766872673
 31
0.0
  0
LINE
  5
3A9
100
AcDbEntity
  8
IMPORT_IGES
100
AcDbLine
 62
7
  6
CONTINUOUS
 10
-181.8135174419
 20
-88.57401759
 30
0.0
 11
-181.8135174419
 21
134.9605639455
 31
0.0
  0
LINE
  5
3AA
100
AcDbEntity
  8
RACCORDO
100
AcDbLine
 62
7
  6
CONTINUOUS
 10
-181.6635174419
 20
133.0112555099
 30
0.0
 11
-181.6635174419
 21
124.8112555099
 31
0.0
  0
LINE
  5
3AB
100
AcDbEntity
  8
0
100
AcDbLine
 62
7
  6
CONTINUOUS
 10
-181.6635174419
 20
124.3066872673
 30
0.0
 11
-181.6635174419
 21
-80.3933127327
 31
0.0
  0
LWPOLYLINE
  5
3AC
100
AcDbEntity
  8
0
100
AcDbPolyline
 62
7
  6
CONTINUOUS
 90
2
 70
0
 43
0.3499999917
 10
-180.449229126
 20
158.4754870605
 10
-180.449229126
 20
159.9754925537
  0
LINE
  5
3AD
100
AcDbEntity
  8
IMPORT_IGES
100
AcDbLine
 62
7
  6
CONTINUOUS
 10
-176.9135174419
 20
131.5766872673
 30
0.0
 11
-176.9135174419
 21
-89.4233127327
 31
0.0
  0
LINE
  5
3AE
100
AcDbEntity
  8
IMPORT_IGES
100
AcDbLine
 62
7
  6
CONTINUOUS
 10
-154.9135174419
 20
33.7470646172
 30
0.0
 11
-157.7854733637
 21
33.5462378956
 31
0.0
  0
LINE
  5
3AF
100
AcDbEntity
  8
IMPORT_IGES
100
AcDbLine
 62
7
  6
CONTINUOUS
 10
-153.9135174419
 20
21.5592322024
 30
0.0
 11
-154.9135174419
 21
21.5766872673
 31
0.0
  0
LINE
  5
3B0
100
AcDbEntity
  8
IMPORT_IGES
100
AcDbLine
 62
7
  6
CONTINUOUS
 10
-174.9135174419
 20
-89.3884026028
 30
0.0
 11
-174.9135174419
 21
131.5417771375
 31
0.0
  0
LWPOLYLINE
  5
3B1
100
AcDbEntity
  8
0
100
AcDbPolyline
 62
7
  6
CONTINUOUS
 90
4
 70
0
 43
0.3499999917
 10
-169.8992285156
 20
149.1304614258
 10
-169.8992285156
 20
149.7733172607
 10
-168.3992358398
 20
149.7733172607
 10
-169.2563726807
 20
146.7733190918
  0
LINE
  5
3B2
100
AcDbEntity
  8
IMPORT_IGES
100
AcDbLine
 62
7
  6
CONTINUOUS
 10
-176.9135174419
 20
32.0766872673
 30
0.0
 11
-181.6635174419
 21
31.9937757089
 31
0.0
  0
LINE
  5
3B3
100
AcDbEntity
  8
IMPORT_IGES
100
AcDbLine
 62
7
  6
CONTINUOUS
 10
-154.9135174419
 20
41.5766872673
 30
0.0
 11
-153.9135174419
 21
41.5941423323
 31
0.0
  0
LINE
  5
3B4
100
AcDbEntity
  8
IMPORT_IGES
100
AcDbLine
 62
7
  6
CONTINUOUS
 10
-181.6635174419
 20
31.1595988257
 30
0.0
 11
-176.9135174419
 21
31.0766872673
 31
0.0
  0
LINE
  5
3B5
100
AcDbEntity
  8
IMPORT_IGES
100
AcDbLine
 62
7
  6
CONTINUOUS
 10
-184.9319642335
 20
138.0233127327
 30
0.0
 11
-183.9135174419
 21
130.7766872673
 31
0.0
  0
LINE
  5
3B6
100
AcDbEntity
  8
IMPORT_IGES
100
AcDbLine
 62
7
  6
CONTINUOUS
 10
-161.9133270572
 20
94.9632363246
 30
0.0
 11
-161.9133270572
 21
94.1901382101
 31
0.0
  0
LINE
  5
3B7
100
AcDbEntity
  8
IMPORT_IGES
100
AcDbLine
 62
7
  6
CONTINUOUS
 10
-161.9133270572
 20
73.9632363246
 30
0.0
 11
-161.9133270572
 21
73.1901382101
 31
0.0
  0
LINE
  5
3B8
100
AcDbEntity
  8
IMPORT_IGES
100
AcDbLine
 62
7
  6
CONTINUOUS
 10
-161.9133270572
 20
-52.80986179
 30
0.0
 11
-161.9133270572
 21
-52.0367636754
 31
0.0
  0
LINE
  5
3B9
100
AcDbEntity
  8
IMPORT_IGES
100
AcDbLine
 62
7
  6
CONTINUOUS
 10
-161.9133270572
 20
-31.8098617899
 30
0.0
 11
-161.9133270572
 21
-31.0367636754
 31
0.0
  0
LINE
  5
3BA
100
AcDbEntity
  8
IMPORT_IGES
100
AcDbLine
 62
7
  6
CONTINUOUS
 10
-161.9133270572
 20
-10.8098617899
 30
0.0
 11
-161.9133270572
 21
-10.0367636754
 31
0.0
  0
LINE
  5
3BB
100
AcDbEntity
  8
IMPORT_IGES
100
AcDbLine
 62
7
  6
CONTINUOUS
 10
-161.9133270572
 20
52.1901382101
 30
0.0
 11
-161.9133270572
 21
52.9632363246
 31
0.0
  0
LINE
  5
3BC
100
AcDbEntity
  8
IMPORT_IGES
100
AcDbLine
 62
7
  6
CONTINUOUS
 10
-157.4135174419
 20
8.5811269473
 30
0.0
 11
-157.4135174419
 21
33.5722475874
 31
0.0
  0
LINE
  5
3BD
100
AcDbEntity
  8
IMPORT_IGES
100
AcDbLine
 62
7
  6
CONTINUOUS
 10
-156.9135174419
 20
94.9196036471
 30
0.0
 11
-156.9135174419
 21
94.2337708876
 31
0.0
  0
LINE
  5
3BE
100
AcDbEntity
  8
IMPORT_IGES
100
AcDbLine
 62
7
  6
CONTINUOUS
 10
-156.9135174419
 20
73.9196036471
 30
0.0
 11
-156.9135174419
 21
73.2337708876
 31
0.0
  0
LINE
  5
3BF
100
AcDbEntity
  8
IMPORT_IGES
100
AcDbLine
 62
7
  6
CONTINUOUS
 10
-156.9135174419
 20
-86.4162291125
 30
0.0
 11
-156.9135174419
 21
-85.9345709147
 31
0.0
  0
LINE
  5
3C0
100
AcDbEntity
  8
IMPORT_IGES
100
AcDbLine
 62
7
  6
CONTINUOUS
 10
-156.9135174419
 20
-52.7662291125
 30
0.0
 11
-156.9135174419
 21
-52.0803963529
 31
0.0
  0
LINE
  5
3C1
100
AcDbEntity
  8
IMPORT_IGES
100
AcDbLine
 62
7
  6
CONTINUOUS
 10
-156.9135174419
 20
-31.7662291124
 30
0.0
 11
-156.9135174419
 21
-31.0803963529
 31
0.0
  0
LINE
  5
3C2
100
AcDbEntity
  8
IMPORT_IGES
100
AcDbLine
 62
7
  6
CONTINUOUS
 10
-156.9135174419
 20
-10.7662291124
 30
0.0
 11
-156.9135174419
 21
-10.0803963529
 31
0.0
  0
LINE
  5
3C3
100
AcDbEntity
  8
IMPORT_IGES
100
AcDbLine
 62
7
  6
CONTINUOUS
 10
-156.9135174419
 20
52.2337708876
 30
0.0
 11
-156.9135174419
 21
52.9196036471
 31
0.0
  0
LINE
  5
3C4
100
AcDbEntity
  8
IMPORT_IGES
100
AcDbLine
 62
7
  6
CONTINUOUS
 10
-156.9135174419
 20
128.0879454493
 30
0.0
 11
-156.9135174419
 21
128.5696036471
 31
0.0
  0
LINE
  5
3C5
100
AcDbEntity
  8
IMPORT_IGES
100
AcDbLine
 62
250
  6
CONTINUOUS
 10
-156.878612629
 20
-85.9339616489
 30
0.0
 11
-156.878612629
 21
8.543722759
 31
0.0
  0
LINE
  5
3C6
100
AcDbEntity
  8
IMPORT_IGES
100
AcDbLine
 62
250
  6
CONTINUOUS
 10
-156.878612629
 20
33.6096517756
 30
0.0
 11
-156.878612629
 21
113.5794285458
 31
0.0
  0
LINE
  5
3C7
100
AcDbEntity
  8
IMPORT_IGES
100
AcDbLine
 62
7
  6
CONTINUOUS
 10
-156.8786157985
 20
113.5794285534
 30
0.0
 11
-156.8786239789
 21
128.0858364812
 31
0.0
  0
LINE
  5
3C8
100
AcDbEntity
  8
IMPORT_IGES
100
AcDbLine
 62
7
  6
CONTINUOUS
 10
-153.9135174419
 20
42.5592322024
 30
0.0
 11
-154.9135174419
 21
42.5766872673
 31
0.0
  0
LINE
  5
3C9
100
AcDbEntity
  8
IMPORT_IGES
100
AcDbLine
 62
7
  6
CONTINUOUS
 10
-154.9135174419
 20
-83.9342662586
 30
0.0
 11
-154.9135174419
 21
20.5766872673
 31
0.0
  0
LINE
  5
3CA
100
AcDbEntity
  8
IMPORT_IGES
100
AcDbLine
 62
7
  6
CONTINUOUS
 10
-154.9135174419
 20
21.5766872673
 30
0.0
 11
-154.9135174419
 21
126.0872164003
 31
0.0
  0
LINE
  5
3CB
100
AcDbEntity
  8
IMPORT_IGES
100
AcDbLine
 62
7
  6
CONTINUOUS
 10
-153.9135174419
 20
-82.1676099773
 30
0.0
 11
-153.9135174419
 21
124.3209845119
 31
0.0
  0
LINE
  5
3CC
100
AcDbEntity
  8
IMPORT_IGES
100
AcDbLine
 62
7
  6
CONTINUOUS
 10
-176.9135174419
 20
53.0766872673
 30
0.0
 11
-181.6635174419
 21
52.9937757089
 31
0.0
  0
LINE
  5
3CD
100
AcDbEntity
  8
IMPORT_IGES
100
AcDbLine
 62
7
  6
CONTINUOUS
 10
-156.9135174419
 20
52.2337708876
 30
0.0
 11
-174.9135174419
 21
52.0766872673
 31
0.0
  0
LINE
  5
3CE
100
AcDbEntity
  8
IMPORT_IGES
100
AcDbLine
 62
7
  6
CONTINUOUS
 10
-156.9135174419
 20
52.9196036471
 30
0.0
 11
-174.9135174419
 21
53.0766872673
 31
0.0
  0
LINE
  5
3CF
100
AcDbEntity
  8
IMPORT_IGES
100
AcDbLine
 62
7
  6
CONTINUOUS
 10
-181.6635174419
 20
52.1595988257
 30
0.0
 11
-176.9135174419
 21
52.0766872673
 31
0.0
  0
LINE
  5
3D0
100
AcDbEntity
  8
IMPORT_IGES
100
AcDbLine
 62
7
  6
CONTINUOUS
 10
-154.9135174419
 20
63.5766872673
 30
0.0
 11
-153.9135174419
 21
63.5941423323
 31
0.0
  0
LINE
  5
3D1
100
AcDbEntity
  8
IMPORT_IGES
100
AcDbLine
 62
7
  6
CONTINUOUS
 10
-153.9135174419
 20
64.5592322024
 30
0.0
 11
-154.9135174419
 21
64.5766872673
 31
0.0
  0
LINE
  5
3D2
100
AcDbEntity
  8
IMPORT_IGES
100
AcDbLine
 62
7
  6
CONTINUOUS
 10
-176.9135174419
 20
74.0766872673
 30
0.0
 11
-181.6635174419
 21
73.9937757089
 31
0.0
  0
LINE
  5
3D3
100
AcDbEntity
  8
IMPORT_IGES
100
AcDbLine
 62
7
  6
CONTINUOUS
 10
-156.9135174419
 20
73.2337708876
 30
0.0
 11
-174.9135174419
 21
73.0766872673
 31
0.0
  0
LINE
  5
3D4
100
AcDbEntity
  8
IMPORT_IGES
100
AcDbLine
 62
7
  6
CONTINUOUS
 10
-156.9135174419
 20
73.9196036471
 30
0.0
 11
-174.9135174419
 21
74.0766872673
 31
0.0
  0
LINE
  5
3D5
100
AcDbEntity
  8
IMPORT_IGES
100
AcDbLine
 62
7
  6
CONTINUOUS
 10
-181.6635174419
 20
73.1595988257
 30
0.0
 11
-176.9135174419
 21
73.0766872673
 31
0.0
  0
LINE
  5
3D6
100
AcDbEntity
  8
IMPORT_IGES
100
AcDbLine
 62
7
  6
CONTINUOUS
 10
-154.9135174419
 20
86.5766872673
 30
0.0
 11
-153.9135174419
 21
86.5941423323
 31
0.0
  0
LINE
  5
3D7
100
AcDbEntity
  8
IMPORT_IGES
100
AcDbLine
 62
7
  6
CONTINUOUS
 10
-153.9135174419
 20
87.5592322024
 30
0.0
 11
-154.9135174419
 21
87.5766872673
 31
0.0
  0
LWPOLYLINE
  5
3D8
100
AcDbEntity
  8
IMPORT_IGES
100
AcDbPolyline
 62
7
  6
CONTINUOUS
 90
36
 70
0
 10
-195.7004601205
 20
118.0770208013
 10
-195.6834683794
 20
118.059347122
 10
-195.6632152953
 20
118.0351396524
 10
-195.6397236886
 20
118.0033876272
 10
-195.6128492683
 20
117.9626772914
 10
-195.5834101331
 20
117.9129372683
 10
-195.5527476436
 20
117.8554685373
 10
-195.5212244446
 20
117.7903170532
 10
-195.4887816086
 20
117.7167148811
 10
-195.4559730874
 20
117.6353439804
 10
-195.4230434055
 20
117.5464329061
 10
-195.3900276254
 20
117.4496925327
 10
-195.3571034222
 20
117.3452281457
 10
-195.3243245213
 20
117.2327792898
 10
-195.2918838695
 20
117.1125718033
 10
-195.2601157635
 20
116.9855040592
 10
-195.229128318
 20
116.851742901
 10
-195.1990068728
 20
116.7113815822
 10
-195.1700002947
 20
116.5653865078
 10
-195.1422260754
 20
116.4142554127
 10
-195.1157072695
 20
116.2580021914
 10
-195.0905219599
 20
116.0969570816
 10
-195.0667438317
 20
115.9314887921
 10
-195.0444187122
 20
115.7617902312
 10
-195.0235781446
 20
115.5879285711
 10
-195.0042605339
 20
115.4101170643
 10
-194.986519678
 20
115.2287658972
 10
-194.9704015125
 20
115.0442502566
 10
-194.9559251992
 20
114.8566570627
 10
-194.943144211
 20
114.666520601
 10
-194.9321313199
 20
114.4749058109
 10
-194.92293502
 20
114.2828156734
 10
-194.9155363117
 20
114.0899122225
 10
-194.9099216229
 20
113.8952449078
 10
-194.9061012504
 20
113.6987549567
 10
-194.9040856565
 20
113.5012773122
  0
LINE
  5
3D9
100
AcDbEntity
  8
IMPORT_IGES
100
AcDbLine
 62
7
  6
CONTINUOUS
 10
-156.9135174419
 20
-86.4162291125
 30
0.0
 11
-161.9133270571
 21
-89.2098617899
 31
0.0
  0
LINE
  5
3DA
100
AcDbEntity
  8
IMPORT_IGES
100
AcDbLine
 62
7
  6
CONTINUOUS
 10
-176.9135174419
 20
95.0766872673
 30
0.0
 11
-181.6635174419
 21
94.9937757089
 31
0.0
  0
LINE
  5
3DB
100
AcDbEntity
  8
IMPORT_IGES
100
AcDbLine
 62
7
  6
CONTINUOUS
 10
-156.9135174419
 20
94.2337708876
 30
0.0
 11
-174.9135174419
 21
94.0766872673
 31
0.0
  0
LINE
  5
3DC
100
AcDbEntity
  8
IMPORT_IGES
100
AcDbLine
 62
7
  6
CONTINUOUS
 10
-156.9135174419
 20
94.9196036471
 30
0.0
 11
-174.9135174419
 21
95.0766872673
 31
0.0
  0
LINE
  5
3DD
100
AcDbEntity
  8
IMPORT_IGES
100
AcDbLine
 62
7
  6
CONTINUOUS
 10
-181.6635174419
 20
94.1595988257
 30
0.0
 11
-176.9135174419
 21
94.0766872673
 31
0.0
  0
LINE
  5
3DE
100
AcDbEntity
  8
IMPORT_IGES
100
AcDbLine
 62
7
  6
CONTINUOUS
 10
-195.7131531505
 20
118.0884182461
 30
0.0
 11
-195.7004011753
 21
118.076953656
 31
0.0
  0
LWPOLYLINE
  5
3DF
100
AcDbEntity
  8
0
100
AcDbPolyline
 62
7
  6
CONTINUOUS
 90
10
 70
0
 43
0.3499999917
 10
-176.0920880127
 20
158.9754931641
 10
-176.0206567383
 20
158.8326306152
 10
-176.0206567383
 20
158.7611993408
 10
-176.1635192871
 20
158.6183496094
 10
-176.2349505615
 20
158.6183496094
 10
-176.3063690186
 20
158.6897808838
 10
-176.3063690186
 20
158.7611993408
 10
-176.2349505615
 20
158.9040618896
 10
-176.1635192871
 20
158.9754931641
 10
-176.0920880127
 20
158.9754931641
  0
LWPOLYLINE
  5
3E0
100
AcDbEntity
  8
IMPORT_IGES
100
AcDbPolyline
 62
7
  6
CONTINUOUS
 90
4
 70
0
 10
-195.7260645388
 20
118.0978159457
 10
-195.7258139499
 20
118.0976839985
 10
-195.7215065442
 20
118.0948913466
 10
-195.7131295219
 20
118.088411025
  0
LWPOLYLINE
  5
3E1
100
AcDbEntity
  8
0
100
AcDbPolyline
 62
7
  6
CONTINUOUS
 90
10
 70
0
 43
0.3499999917
 10
-166.8992303467
 20
147.2733123779
 10
-166.8277990723
 20
147.1304498291
 10
-166.8277990723
 20
147.0590313721
 10
-166.9706616211
 20
146.9161688232
 10
-167.0420928955
 20
146.9161688232
 10
-167.1135241699
 20
146.9876000977
 10
-167.1135241699
 20
147.0590313721
 10
-167.0420928955
 20
147.2018811035
 10
-166.9706616211
 20
147.2733123779
 10
-166.8992303467
 20
147.2733123779
  0
LINE
  5
3E2
100
AcDbEntity
  8
IMPORT_IGES
100
AcDbLine
 62
7
  6
CONTINUOUS
 10
-154.9135174419
 20
112.5766872673
 30
0.0
 11
-153.9135174419
 21
112.5941423323
 31
0.0
  0
LINE
  5
3E3
100
AcDbEntity
  8
IMPORT_IGES
100
AcDbLine
 62
250
  6
CONTINUOUS
 10
-194.8960189246
 20
113.3794285457
 30
0.0
 11
-194.9037357058
 21
113.3794285457
 31
0.0
  0
LINE
  5
3E4
100
AcDbEntity
  8
IMPORT_IGES
100
AcDbLine
 62
250
  6
CONTINUOUS
 10
-154.9135174419
 20
113.5794285457
 30
0.0
 11
-181.6635174419
 21
113.5794285328
 31
0.0
  0
LINE
  5
3E5
100
AcDbEntity
  8
IMPORT_IGES
100
AcDbLine
 62
7
  6
CONTINUOUS
 10
-200.1133850903
 20
118.0920289776
 30
0.0
 11
-195.7192775939
 21
118.0931670687
 31
0.0
  0
LINE
  5
3E6
100
AcDbEntity
  8
IMPORT_IGES
100
AcDbLine
 62
250
  6
CONTINUOUS
 10
-200.4134685652
 20
118.3920137985
 30
0.0
 11
-195.9942392742
 21
118.3923680699
 31
0.0
  0
LINE
  5
3E7
100
AcDbEntity
  8
IMPORT_IGES
100
AcDbLine
 62
7
  6
CONTINUOUS
 10
-153.9135174419
 20
113.5592322024
 30
0.0
 11
-154.9135174419
 21
113.5766872673
 31
0.0
  0
LINE
  5
3E8
100
AcDbEntity
  8
IMPORT_IGES
100
AcDbLine
 62
7
  6
CONTINUOUS
 10
-176.9135174419
 20
128.4370467479
 30
0.0
 11
-181.6635174419
 21
128.3541351895
 31
0.0
  0
LINE
  5
3E9
100
AcDbEntity
  8
0
100
AcDbLine
 62
7
  6
CONTINUOUS
 10
-181.8135174419
 20
124.3066872673
 30
0.0
 11
-181.6635174419
 21
124.3066872673
 31
0.0
  0
LINE
  5
3EA
100
AcDbEntity
  8
0
100
AcDbLine
 62
7
  6
CONTINUOUS
 10
-181.8135174419
 20
124.8112555099
 30
0.0
 11
-181.6635174419
 21
124.8112555099
 31
0.0
  0
LINE
  5
3EB
100
AcDbEntity
  8
RACCORDO
100
AcDbLine
 62
250
  6
CONTINUOUS
 10
-181.6635174419
 20
127.0112555099
 30
0.0
 11
-181.8135174419
 21
127.0112555099
 31
0.0
  0
LINE
  5
3EC
100
AcDbEntity
  8
IMPORT_IGES
100
AcDbLine
 62
250
  6
CONTINUOUS
 10
-181.8135174419
 20
127.0256936461
 30
0.0
 11
-183.9135174419
 21
127.0256936461
 31
0.0
  0
LINE
  5
3ED
100
AcDbEntity
  8
IMPORT_IGES
100
AcDbLine
 62
7
  6
CONTINUOUS
 10
-174.9135174419
 20
128.4021366181
 30
0.0
 11
-156.878612629
 21
128.0873361836
 31
0.0
  0
LINE
  5
3EE
100
AcDbEntity
  8
IMPORT_IGES
100
AcDbLine
 62
7
  6
CONTINUOUS
 10
-184.9319642335
 20
138.0233127327
 30
0.0
 11
-200.1291607588
 21
137.2268614114
 31
0.0
  0
LINE
  5
3EF
100
AcDbEntity
  8
IMPORT_IGES
100
AcDbLine
 62
7
  6
CONTINUOUS
 10
-200.4135174419
 20
136.9272725417
 30
0.0
 11
-191.8265182523
 21
137.3766683536
 31
0.0
  0
LINE
  5
3F0
100
AcDbEntity
  8
IMPORT_IGES
100
AcDbLine
 62
250
  6
CONTINUOUS
 10
-184.0259501096
 20
131.5766872673
 30
0.0
 11
-190.0113642279
 21
131.5766873141
 31
0.0
  0
LINE
  5
3F1
100
AcDbEntity
  8
RACCORDO
100
AcDbLine
 62
7
  6
CONTINUOUS
 10
-181.6635174419
 20
133.0112555099
 30
0.0
 11
-181.8135174419
 21
133.0112555099
 31
0.0
  0
LWPOLYLINE
  5
3F2
100
AcDbEntity
  8
0
100
AcDbPolyline
 62
7
  6
CONTINUOUS
 90
7
 70
0
 43
0.3499999917
 10
-170.7563781738
 20
146.7733190918
 10
-172.2563708496
 20
146.7733190918
 10
-170.7563781738
 20
148.9161676025
 10
-170.7563781738
 20
149.3447424316
 10
-171.1849401855
 20
149.7733172607
 10
-171.8278088379
 20
149.7733172607
 10
-172.2563708496
 20
149.1304614258
  0
LWPOLYLINE
  5
3F3
100
AcDbEntity
  8
0
100
AcDbPolyline
 62
7
  6
CONTINUOUS
 90
8
 70
0
 43
0.3499999917
 10
-175.0206573486
 20
158.4754870605
 10
-174.1635205078
 20
158.4754870605
 10
-173.7349456787
 20
158.9040618896
 10
-173.7349456787
 20
159.7611987305
 10
-174.1635205078
 20
160.1897735596
 10
-175.0206573486
 20
160.1897735596
 10
-175.0206573486
 20
161.4754852295
 10
-173.7349456787
 20
161.4754852295
  0
LWPOLYLINE
  5
3F4
100
AcDbEntity
  8
0
100
AcDbPolyline
 62
7
  6
CONTINUOUS
 90
3
 70
0
 43
0.3499999917
 10
-179.9492358398
 20
159.1183428955
 10
-181.4492285156
 20
159.1183428955
 10
-180.8063726807
 20
161.4754852295
  0
LINE
  5
3F5
100
AcDbEntity
  8
IMPORT_IGES
100
AcDbLine
 62
7
  6
CONTINUOUS
 10
-161.9133270572
 20
131.3632363246
 30
0.0
 11
-174.9135174419
 21
131.4766872673
 31
0.0
  0
LINE
  5
3F6
100
AcDbEntity
  8
IMPORT_IGES
100
AcDbLine
 62
7
  6
CONTINUOUS
 10
-176.9135174419
 20
131.5766872673
 30
0.0
 11
-174.9135174419
 21
131.5417771375
 31
0.0
  0
LINE
  5
3F7
100
AcDbEntity
  8
IMPORT_IGES
100
AcDbLine
 62
7
  6
CONTINUOUS
 10
-184.5081410455
 20
135.0076540528
 30
0.0
 11
-181.8135174419
 21
134.9606192228
 31
0.0
  0
LINE
  5
3F8
100
AcDbEntity
  8
IMPORT_IGES
100
AcDbLine
 62
7
  6
CONTINUOUS
 10
-161.9133270572
 20
131.3632363246
 30
0.0
 11
-156.9135174419
 21
128.5696036471
 31
0.0
  0
ARC
  5
3F9
100
AcDbEntity
  8
IMPORT_IGES
100
AcDbCircle
 62
7
  6
CONTINUOUS
 10
-60.0
 20
-85.4233127327
 30
0.0
 40
6.5
100
AcDbArc
 50
180.0
 51
270.0
  0
ARC
  5
3FA
100
AcDbEntity
  8
IMPORT_IGES
100
AcDbCircle
 62
250
  6
CONTINUOUS
 10
-60.0917538868
 20
-85.4201137144
 30
0.0
 40
6.1031424902
100
AcDbArc
 50
180.0300337503
 51
270.8613657665
  0
ARC
  5
3FB
100
AcDbEntity
  8
IMPORT_IGES
100
AcDbCircle
 62
7
  6
CONTINUOUS
 10
-42.0468271355
 20
-63.3810813545
 30
0.0
 40
0.25
100
AcDbArc
 50
282.0467130949
 51
97.9532869035
  0
ARC
  5
3FC
100
AcDbEntity
  8
IMPORT_IGES
100
AcDbCircle
 62
7
  6
CONTINUOUS
 10
-41.6310889132
 20
-64.5233127327
 30
0.0
 40
0.25
100
AcDbArc
 50
302.0467130986
 51
117.9532869016
  0
ARC
  5
3FD
100
AcDbEntity
  8
IMPORT_IGES
100
AcDbCircle
 62
7
  6
CONTINUOUS
 10
-40.8497566339
 20
-65.4544682836
 30
0.0
 40
0.25
100
AcDbArc
 50
322.0467130942
 51
137.9532869056
  0
ARC
  5
3FE
100
AcDbEntity
  8
IMPORT_IGES
100
AcDbCircle
 62
7
  6
CONTINUOUS
 10
-39.7970705016
 20
-66.0622369055
 30
0.0
 40
0.25
100
AcDbArc
 50
342.0467131087
 51
157.9532868922
  0
ARC
  5
3FF
100
AcDbEntity
  8
IMPORT_IGES
100
AcDbCircle
 62
7
  6
CONTINUOUS
 10
-39.1
 20
-62.7733127327
 30
0.0
 40
2.5
100
AcDbArc
 50
90.0
 51
270.0
  0
ARC
  5
400
100
AcDbEntity
  8
IMPORT_IGES
100
AcDbCircle
 62
7
  6
CONTINUOUS
 10
-39.7970705016
 20
-59.4843885599
 30
0.0
 40
0.25
100
AcDbArc
 50
202.0467131079
 51
17.9532868914
  0
ARC
  5
401
100
AcDbEntity
  8
IMPORT_IGES
100
AcDbCircle
 62
7
  6
CONTINUOUS
 10
-40.8497566339
 20
-60.0921571818
 30
0.0
 40
0.25
100
AcDbArc
 50
222.0467130946
 51
37.9532869056
  0
ARC
  5
402
100
AcDbEntity
  8
IMPORT_IGES
100
AcDbCircle
 62
7
  6
CONTINUOUS
 10
-41.6310889132
 20
-61.0233127327
 30
0.0
 40
0.25
100
AcDbArc
 50
242.0467130986
 51
57.9532869012
  0
ARC
  5
403
100
AcDbEntity
  8
IMPORT_IGES
100
AcDbCircle
 62
7
  6
CONTINUOUS
 10
-42.0468271355
 20
-62.1655441109
 30
0.0
 40
0.25
100
AcDbArc
 50
262.0467130964
 51
77.9532869052
  0
ARC
  5
404
100
AcDbEntity
  8
IMPORT_IGES
100
AcDbCircle
 62
7
  6
CONTINUOUS
 10
-38.6
 20
-66.2733127327
 30
0.0
 40
0.25
100
AcDbArc
 50
2.0467130976
 51
177.9532869023
  0
ARC
  5
405
100
AcDbEntity
  8
IMPORT_IGES
100
AcDbCircle
 62
7
  6
CONTINUOUS
 10
-37.4029294984
 20
-66.0622369055
 30
0.0
 40
0.25
100
AcDbArc
 50
22.0467131079
 51
197.9532868914
  0
ARC
  5
406
100
AcDbEntity
  8
IMPORT_IGES
100
AcDbCircle
 62
7
  6
CONTINUOUS
 10
-36.3502433661
 20
-65.4544682836
 30
0.0
 40
0.25
100
AcDbArc
 50
42.0467130946
 51
217.9532869056
  0
ARC
  5
407
100
AcDbEntity
  8
IMPORT_IGES
100
AcDbCircle
 62
7
  6
CONTINUOUS
 10
-35.5689110867
 20
-64.5233127327
 30
0.0
 40
0.25
100
AcDbArc
 50
62.0467130986
 51
237.9532869012
  0
ARC
  5
408
100
AcDbEntity
  8
IMPORT_IGES
100
AcDbCircle
 62
7
  6
CONTINUOUS
 10
-35.1531728645
 20
-63.3810813545
 30
0.0
 40
0.25
100
AcDbArc
 50
82.0467130964
 51
257.9532869052
  0
ARC
  5
409
100
AcDbEntity
  8
IMPORT_IGES
100
AcDbCircle
 62
7
  6
CONTINUOUS
 10
-38.6
 20
-62.7733127327
 30
0.0
 40
4.5
100
AcDbArc
 50
0.0
 51
180.0
  0
ARC
  5
40A
100
AcDbEntity
  8
IMPORT_IGES
100
AcDbCircle
 62
7
  6
CONTINUOUS
 10
-38.6
 20
-62.7733127327
 30
0.0
 40
3.5
100
AcDbArc
 50
94.0934261953
 51
105.9065738045
  0
ARC
  5
40B
100
AcDbEntity
  8
IMPORT_IGES
100
AcDbCircle
 62
7
  6
CONTINUOUS
 10
-38.6
 20
-62.7733127327
 30
0.0
 40
3.5
100
AcDbArc
 50
114.0934261951
 51
125.9065738048
  0
ARC
  5
40C
100
AcDbEntity
  8
IMPORT_IGES
100
AcDbCircle
 62
7
  6
CONTINUOUS
 10
-38.6
 20
-62.7733127327
 30
0.0
 40
3.5
100
AcDbArc
 50
134.0934261955
 51
145.9065738047
  0
ARC
  5
40D
100
AcDbEntity
  8
IMPORT_IGES
100
AcDbCircle
 62
7
  6
CONTINUOUS
 10
-38.6
 20
-62.7733127327
 30
0.0
 40
3.5
100
AcDbArc
 50
154.0934261954
 51
165.9065738052
  0
ARC
  5
40E
100
AcDbEntity
  8
IMPORT_IGES
100
AcDbCircle
 62
7
  6
CONTINUOUS
 10
-38.6
 20
-62.7733127327
 30
0.0
 40
3.5
100
AcDbArc
 50
174.0934261959
 51
185.9065738041
  0
ARC
  5
40F
100
AcDbEntity
  8
IMPORT_IGES
100
AcDbCircle
 62
7
  6
CONTINUOUS
 10
-38.6
 20
-62.7733127327
 30
0.0
 40
3.5
100
AcDbArc
 50
194.0934261948
 51
205.9065738046
  0
ARC
  5
410
100
AcDbEntity
  8
IMPORT_IGES
100
AcDbCircle
 62
7
  6
CONTINUOUS
 10
-38.6
 20
-62.7733127327
 30
0.0
 40
3.5
100
AcDbArc
 50
214.0934261954
 51
225.9065738045
  0
ARC
  5
411
100
AcDbEntity
  8
IMPORT_IGES
100
AcDbCircle
 62
7
  6
CONTINUOUS
 10
-38.6
 20
-62.7733127327
 30
0.0
 40
3.5
100
AcDbArc
 50
234.0934261953
 51
245.906573805
  0
ARC
  5
412
100
AcDbEntity
  8
IMPORT_IGES
100
AcDbCircle
 62
7
  6
CONTINUOUS
 10
-38.6
 20
-62.7733127327
 30
0.0
 40
3.5
100
AcDbArc
 50
254.0934261956
 51
265.9065738047
  0
ARC
  5
413
100
AcDbEntity
  8
IMPORT_IGES
100
AcDbCircle
 62
7
  6
CONTINUOUS
 10
-38.6
 20
-62.7733127327
 30
0.0
 40
3.5
100
AcDbArc
 50
274.0934261953
 51
285.9065738045
  0
ARC
  5
414
100
AcDbEntity
  8
IMPORT_IGES
100
AcDbCircle
 62
7
  6
CONTINUOUS
 10
-38.6
 20
-62.7733127327
 30
0.0
 40
3.5
100
AcDbArc
 50
294.0934261951
 51
305.9065738048
  0
ARC
  5
415
100
AcDbEntity
  8
IMPORT_IGES
100
AcDbCircle
 62
7
  6
CONTINUOUS
 10
-38.6
 20
-62.7733127327
 30
0.0
 40
3.5
100
AcDbArc
 50
314.0934261955
 51
325.9065738047
  0
ARC
  5
416
100
AcDbEntity
  8
IMPORT_IGES
100
AcDbCircle
 62
7
  6
CONTINUOUS
 10
-38.6
 20
-62.7733127327
 30
0.0
 40
3.5
100
AcDbArc
 50
334.0934261954
 51
345.9065738052
  0
ARC
  5
417
100
AcDbEntity
  8
IMPORT_IGES
100
AcDbCircle
 62
7
  6
CONTINUOUS
 10
-38.6
 20
-62.7733127327
 30
0.0
 40
3.5
100
AcDbArc
 50
354.0934261959
 51
5.9065738041
  0
ARC
  5
418
100
AcDbEntity
  8
IMPORT_IGES
100
AcDbCircle
 62
7
  6
CONTINUOUS
 10
-38.6
 20
-62.7733127327
 30
0.0
 40
3.5
100
AcDbArc
 50
14.0934261948
 51
25.9065738046
  0
ARC
  5
419
100
AcDbEntity
  8
IMPORT_IGES
100
AcDbCircle
 62
7
  6
CONTINUOUS
 10
-38.6
 20
-62.7733127327
 30
0.0
 40
3.5
100
AcDbArc
 50
34.0934261954
 51
45.9065738045
  0
ARC
  5
41A
100
AcDbEntity
  8
IMPORT_IGES
100
AcDbCircle
 62
7
  6
CONTINUOUS
 10
-38.6
 20
-62.7733127327
 30
0.0
 40
3.5
100
AcDbArc
 50
54.0934261953
 51
65.906573805
  0
ARC
  5
41B
100
AcDbEntity
  8
IMPORT_IGES
100
AcDbCircle
 62
7
  6
CONTINUOUS
 10
-38.6
 20
-62.7733127327
 30
0.0
 40
3.5
100
AcDbArc
 50
74.0934261956
 51
85.9065738047
  0
ARC
  5
41C
100
AcDbEntity
  8
IMPORT_IGES
100
AcDbCircle
 62
7
  6
CONTINUOUS
 10
-38.1
 20
-62.7733127327
 30
0.0
 40
2.5
100
AcDbArc
 50
270.0
 51
90.0
  0
ARC
  5
41D
100
AcDbEntity
  8
IMPORT_IGES
100
AcDbCircle
 62
7
  6
CONTINUOUS
 10
-35.1531728645
 20
-62.1655441109
 30
0.0
 40
0.25
100
AcDbArc
 50
102.0467130949
 51
277.9532869035
  0
ARC
  5
41E
100
AcDbEntity
  8
IMPORT_IGES
100
AcDbCircle
 62
7
  6
CONTINUOUS
 10
-35.5689110867
 20
-61.0233127327
 30
0.0
 40
0.25
100
AcDbArc
 50
122.0467130986
 51
297.9532869016
  0
ARC
  5
41F
100
AcDbEntity
  8
IMPORT_IGES
100
AcDbCircle
 62
7
  6
CONTINUOUS
 10
-36.3502433661
 20
-60.0921571818
 30
0.0
 40
0.25
100
AcDbArc
 50
142.0467130942
 51
317.9532869056
  0
ARC
  5
420
100
AcDbEntity
  8
IMPORT_IGES
100
AcDbCircle
 62
7
  6
CONTINUOUS
 10
-37.4029294984
 20
-59.4843885599
 30
0.0
 40
0.25
100
AcDbArc
 50
162.0467131087
 51
337.9532868922
  0
ARC
  5
421
100
AcDbEntity
  8
IMPORT_IGES
100
AcDbCircle
 62
7
  6
CONTINUOUS
 10
-38.6
 20
-59.2733127327
 30
0.0
 40
0.25
100
AcDbArc
 50
182.0467130976
 51
357.9532869023
  0
ARC
  5
422
100
AcDbEntity
  8
IMPORT_IGES
100
AcDbCircle
 62
7
  6
CONTINUOUS
 10
-35.0
 20
-48.6856025855
 30
0.0
 40
2.0
100
AcDbArc
 50
180.0
 51
270.0
  0
CIRCLE
  5
423
100
AcDbEntity
  8
IMPORT_IGES
100
AcDbCircle
 62
7
  6
CONTINUOUS
 10
-0.0
 20
-28.9233127327
 30
0.0
 40
16.2
  0
ARC
  5
424
100
AcDbEntity
  8
IMPORT_IGES
100
AcDbCircle
 62
7
  6
CONTINUOUS
 10
-0.0
 20
-28.9233127327
 30
0.0
 40
15.2
100
AcDbArc
 50
86.6582293161
 51
93.3417706839
  0
ARC
  5
425
100
AcDbEntity
  8
IMPORT_IGES
100
AcDbCircle
 62
7
  6
CONTINUOUS
 10
-0.0
 20
-28.9233127327
 30
0.0
 40
15.2
100
AcDbArc
 50
356.658229316
 51
3.341770684
  0
ARC
  5
426
100
AcDbEntity
  8
IMPORT_IGES
100
AcDbCircle
 62
7
  6
CONTINUOUS
 10
-0.0
 20
-28.9233127327
 30
0.0
 40
15.2
100
AcDbArc
 50
266.6582293161
 51
273.3417706839
  0
ARC
  5
427
100
AcDbEntity
  8
IMPORT_IGES
100
AcDbCircle
 62
7
  6
CONTINUOUS
 10
-0.0
 20
-28.9233127327
 30
0.0
 40
15.2
100
AcDbArc
 50
176.658229316
 51
183.341770684
  0
ARC
  5
428
100
AcDbEntity
  8
IMPORT_IGES
100
AcDbCircle
 62
7
  6
CONTINUOUS
 10
-0.0
 20
-28.9233127327
 30
0.0
 40
15.021710613
100
AcDbArc
 50
273.3933700308
 51
356.6066299692
  0
ARC
  5
429
100
AcDbEntity
  8
IMPORT_IGES
100
AcDbCircle
 62
7
  6
CONTINUOUS
 10
-0.0
 20
-28.9233127327
 30
0.0
 40
15.021710613
100
AcDbArc
 50
183.3933700308
 51
266.6066299692
  0
ARC
  5
42A
100
AcDbEntity
  8
IMPORT_IGES
100
AcDbCircle
 62
7
  6
CONTINUOUS
 10
-0.0
 20
-28.9233127327
 30
0.0
 40
15.021710613
100
AcDbArc
 50
93.3933700308
 51
176.6066299692
  0
ARC
  5
42B
100
AcDbEntity
  8
IMPORT_IGES
100
AcDbCircle
 62
7
  6
CONTINUOUS
 10
-0.0
 20
-28.9233127327
 30
0.0
 40
15.021710613
100
AcDbArc
 50
3.3933700308
 51
86.6066299692
  0
ARC
  5
42C
100
AcDbEntity
  8
IMPORT_IGES
100
AcDbCircle
 62
7
  6
CONTINUOUS
 10
0.0
 20
-28.9233127327
 30
0.0
 40
15.0104762309
100
AcDbArc
 50
273.4173852538
 51
356.5826147462
  0
ARC
  5
42D
100
AcDbEntity
  8
IMPORT_IGES
100
AcDbCircle
 62
7
  6
CONTINUOUS
 10
0.0
 20
-28.9233127327
 30
0.0
 40
15.0104762309
100
AcDbArc
 50
183.4173852538
 51
266.5826147462
  0
ARC
  5
42E
100
AcDbEntity
  8
IMPORT_IGES
100
AcDbCircle
 62
7
  6
CONTINUOUS
 10
0.0
 20
-28.9233127327
 30
0.0
 40
15.0104762309
100
AcDbArc
 50
93.4173852538
 51
176.5826147462
  0
ARC
  5
42F
100
AcDbEntity
  8
IMPORT_IGES
100
AcDbCircle
 62
7
  6
CONTINUOUS
 10
0.0
 20
-28.9233127327
 30
0.0
 40
15.0104762309
100
AcDbArc
 50
3.4173852538
 51
86.5826147462
  0
ARC
  5
430
100
AcDbEntity
  8
IMPORT_IGES
100
AcDbCircle
 62
7
  6
CONTINUOUS
 10
0.0
 20
-28.9233127327
 30
0.0
 40
13.4895237691
100
AcDbArc
 50
273.8032356994
 51
356.1967643006
  0
ARC
  5
431
100
AcDbEntity
  8
IMPORT_IGES
100
AcDbCircle
 62
7
  6
CONTINUOUS
 10
0.0
 20
-28.9233127327
 30
0.0
 40
13.4895237691
100
AcDbArc
 50
183.8032356994
 51
266.1967643006
  0
ARC
  5
432
100
AcDbEntity
  8
IMPORT_IGES
100
AcDbCircle
 62
7
  6
CONTINUOUS
 10
0.0
 20
-28.9233127327
 30
0.0
 40
13.4895237691
100
AcDbArc
 50
93.8032356994
 51
176.1967643006
  0
ARC
  5
433
100
AcDbEntity
  8
IMPORT_IGES
100
AcDbCircle
 62
7
  6
CONTINUOUS
 10
0.0
 20
-28.9233127327
 30
0.0
 40
13.4895237691
100
AcDbArc
 50
3.8032356994
 51
86.1967643006
  0
ARC
  5
434
100
AcDbEntity
  8
IMPORT_IGES
100
AcDbCircle
 62
7
  6
CONTINUOUS
 10
0.0
 20
-28.9233127327
 30
0.0
 40
13.478289387
100
AcDbArc
 50
93.7824867617
 51
176.2175132383
  0
ARC
  5
435
100
AcDbEntity
  8
IMPORT_IGES
100
AcDbCircle
 62
7
  6
CONTINUOUS
 10
0.0
 20
-28.9233127327
 30
0.0
 40
13.478289387
100
AcDbArc
 50
183.7824867617
 51
266.2175132383
  0
ARC
  5
436
100
AcDbEntity
  8
IMPORT_IGES
100
AcDbCircle
 62
7
  6
CONTINUOUS
 10
0.0
 20
-28.9233127327
 30
0.0
 40
13.478289387
100
AcDbArc
 50
273.7824867617
 51
356.2175132383
  0
ARC
  5
437
100
AcDbEntity
  8
IMPORT_IGES
100
AcDbCircle
 62
7
  6
CONTINUOUS
 10
0.0
 20
-28.9233127327
 30
0.0
 40
13.478289387
100
AcDbArc
 50
3.7824867617
 51
86.2175132383
  0
ARC
  5
438
100
AcDbEntity
  8
IMPORT_IGES
100
AcDbCircle
 62
7
  6
CONTINUOUS
 10
0.0
 20
-28.9233127327
 30
0.0
 40
13.3
100
AcDbArc
 50
86.180169431
 51
93.819830569
  0
ARC
  5
439
100
AcDbEntity
  8
IMPORT_IGES
100
AcDbCircle
 62
7
  6
CONTINUOUS
 10
0.0
 20
-28.9233127327
 30
0.0
 40
13.3
100
AcDbArc
 50
356.180169431
 51
3.819830569
  0
ARC
  5
43A
100
AcDbEntity
  8
IMPORT_IGES
100
AcDbCircle
 62
7
  6
CONTINUOUS
 10
0.0
 20
-28.9233127327
 30
0.0
 40
13.3
100
AcDbArc
 50
266.180169431
 51
273.819830569
  0
ARC
  5
43B
100
AcDbEntity
  8
IMPORT_IGES
100
AcDbCircle
 62
7
  6
CONTINUOUS
 10
0.0
 20
-28.9233127327
 30
0.0
 40
13.3
100
AcDbArc
 50
176.180169431
 51
183.819830569
  0
CIRCLE
  5
43C
100
AcDbEntity
  8
IMPORT_IGES
100
AcDbCircle
 62
7
  6
CONTINUOUS
 10
0.0
 20
-28.9233127327
 30
0.0
 40
12.3
  0
ARC
  5
43D
100
AcDbEntity
  8
IMPORT_IGES
100
AcDbCircle
 62
7
  6
CONTINUOUS
 10
-38.0
 20
84.5766872673
 30
0.0
 40
2.4956362338
100
AcDbArc
 50
89.9999999994
 51
180.0000000006
  0
ARC
  5
43E
100
AcDbEntity
  8
IMPORT_IGES
100
AcDbCircle
 62
7
  6
CONTINUOUS
 10
-35.0
 20
81.5766872673
 30
0.0
 40
2.0
100
AcDbArc
 50
90.0
 51
180.0
  0
ARC
  5
43F
100
AcDbEntity
  8
IMPORT_IGES
100
AcDbCircle
 62
7
  6
CONTINUOUS
 10
-38.0
 20
84.5766872673
 30
0.0
 40
0.5043637662
100
AcDbArc
 50
90.0000000024
 51
179.9999999976
  0
ARC
  5
440
100
AcDbEntity
  8
IMPORT_IGES
100
AcDbCircle
 62
250
  6
CONTINUOUS
 10
-60.0917532326
 20
131.573487034
 30
0.0
 40
6.1031425425
100
AcDbArc
 50
89.1386406491
 51
179.9699548453
  0
ARC
  5
441
100
AcDbEntity
  8
IMPORT_IGES
100
AcDbCircle
 62
7
  6
CONTINUOUS
 10
-42.0468271355
 20
108.3189186455
 30
0.0
 40
0.25
100
AcDbArc
 50
282.0467130968
 51
97.953286903
  0
ARC
  5
442
100
AcDbEntity
  8
IMPORT_IGES
100
AcDbCircle
 62
7
  6
CONTINUOUS
 10
-41.6310889133
 20
107.1766872673
 30
0.0
 40
0.25
100
AcDbArc
 50
302.0467130985
 51
117.9532869014
  0
ARC
  5
443
100
AcDbEntity
  8
IMPORT_IGES
100
AcDbCircle
 62
7
  6
CONTINUOUS
 10
-40.8497566339
 20
106.2455317164
 30
0.0
 40
0.25
100
AcDbArc
 50
322.046713098
 51
137.9532869022
  0
ARC
  5
444
100
AcDbEntity
  8
IMPORT_IGES
100
AcDbCircle
 62
7
  6
CONTINUOUS
 10
-39.7970705016
 20
105.6377630946
 30
0.0
 40
0.25
100
AcDbArc
 50
342.0467130975
 51
157.9532869024
  0
ARC
  5
445
100
AcDbEntity
  8
IMPORT_IGES
100
AcDbCircle
 62
250
  6
CONTINUOUS
 10
-43.3210529009
 20
113.3752288523
 30
0.0
 40
5.0174533646
100
AcDbArc
 50
90.006525212
 51
179.9520378219
  0
ARC
  5
446
100
AcDbEntity
  8
IMPORT_IGES
100
AcDbCircle
 62
7
  6
CONTINUOUS
 10
-39.7970705016
 20
112.2156114401
 30
0.0
 40
0.25
100
AcDbArc
 50
202.0467130975
 51
17.9532869025
  0
ARC
  5
447
100
AcDbEntity
  8
IMPORT_IGES
100
AcDbCircle
 62
7
  6
CONTINUOUS
 10
-40.8497566339
 20
111.6078428183
 30
0.0
 40
0.25
100
AcDbArc
 50
222.0467130978
 51
37.953286902
  0
ARC
  5
448
100
AcDbEntity
  8
IMPORT_IGES
100
AcDbCircle
 62
7
  6
CONTINUOUS
 10
-41.6310889133
 20
110.6766872673
 30
0.0
 40
0.25
100
AcDbArc
 50
242.0467130986
 51
57.9532869015
  0
ARC
  5
449
100
AcDbEntity
  8
IMPORT_IGES
100
AcDbCircle
 62
7
  6
CONTINUOUS
 10
-42.0468271355
 20
109.5344558892
 30
0.0
 40
0.25
100
AcDbArc
 50
262.046713097
 51
77.9532869032
  0
ARC
  5
44A
100
AcDbEntity
  8
IMPORT_IGES
100
AcDbCircle
 62
7
  6
CONTINUOUS
 10
-38.6
 20
108.9266872673
 30
0.0
 40
4.5
100
AcDbArc
 50
180.0
 51
360.0
  0
ARC
  5
44B
100
AcDbEntity
  8
IMPORT_IGES
100
AcDbCircle
 62
7
  6
CONTINUOUS
 10
-38.6
 20
108.9266872673
 30
0.0
 40
3.5
100
AcDbArc
 50
94.0934261953
 51
105.9065738047
  0
ARC
  5
44C
100
AcDbEntity
  8
IMPORT_IGES
100
AcDbCircle
 62
7
  6
CONTINUOUS
 10
-38.6
 20
108.9266872673
 30
0.0
 40
3.5
100
AcDbArc
 50
114.0934261953
 51
125.9065738046
  0
ARC
  5
44D
100
AcDbEntity
  8
IMPORT_IGES
100
AcDbCircle
 62
7
  6
CONTINUOUS
 10
-38.6
 20
108.9266872673
 30
0.0
 40
3.5
100
AcDbArc
 50
134.0934261953
 51
145.9065738047
  0
ARC
  5
44E
100
AcDbEntity
  8
IMPORT_IGES
100
AcDbCircle
 62
7
  6
CONTINUOUS
 10
-38.6
 20
108.9266872673
 30
0.0
 40
3.5
100
AcDbArc
 50
154.0934261954
 51
165.9065738047
  0
ARC
  5
44F
100
AcDbEntity
  8
IMPORT_IGES
100
AcDbCircle
 62
7
  6
CONTINUOUS
 10
-38.6
 20
108.9266872673
 30
0.0
 40
3.5
100
AcDbArc
 50
174.0934261954
 51
185.9065738046
  0
ARC
  5
450
100
AcDbEntity
  8
IMPORT_IGES
100
AcDbCircle
 62
7
  6
CONTINUOUS
 10
-38.6
 20
108.9266872673
 30
0.0
 40
3.5
100
AcDbArc
 50
194.0934261953
 51
205.9065738046
  0
ARC
  5
451
100
AcDbEntity
  8
IMPORT_IGES
100
AcDbCircle
 62
7
  6
CONTINUOUS
 10
-38.6
 20
108.9266872673
 30
0.0
 40
3.5
100
AcDbArc
 50
214.0934261953
 51
225.9065738047
  0
ARC
  5
452
100
AcDbEntity
  8
IMPORT_IGES
100
AcDbCircle
 62
7
  6
CONTINUOUS
 10
-38.6
 20
108.9266872673
 30
0.0
 40
3.5
100
AcDbArc
 50
234.0934261954
 51
245.9065738046
  0
ARC
  5
453
100
AcDbEntity
  8
IMPORT_IGES
100
AcDbCircle
 62
7
  6
CONTINUOUS
 10
-38.6
 20
108.9266872673
 30
0.0
 40
3.5
100
AcDbArc
 50
254.0934261953
 51
265.9065738047
  0
ARC
  5
454
100
AcDbEntity
  8
IMPORT_IGES
100
AcDbCircle
 62
7
  6
CONTINUOUS
 10
-38.6
 20
108.9266872673
 30
0.0
 40
3.5
100
AcDbArc
 50
274.0934261953
 51
285.9065738047
  0
ARC
  5
455
100
AcDbEntity
  8
IMPORT_IGES
100
AcDbCircle
 62
7
  6
CONTINUOUS
 10
-38.6
 20
108.9266872673
 30
0.0
 40
3.5
100
AcDbArc
 50
294.0934261953
 51
305.9065738046
  0
ARC
  5
456
100
AcDbEntity
  8
IMPORT_IGES
100
AcDbCircle
 62
7
  6
CONTINUOUS
 10
-38.6
 20
108.9266872673
 30
0.0
 40
3.5
100
AcDbArc
 50
314.0934261953
 51
325.9065738047
  0
ARC
  5
457
100
AcDbEntity
  8
IMPORT_IGES
100
AcDbCircle
 62
7
  6
CONTINUOUS
 10
-38.6
 20
108.9266872673
 30
0.0
 40
3.5
100
AcDbArc
 50
334.0934261954
 51
345.9065738047
  0
ARC
  5
458
100
AcDbEntity
  8
IMPORT_IGES
100
AcDbCircle
 62
7
  6
CONTINUOUS
 10
-38.6
 20
108.9266872673
 30
0.0
 40
3.5
100
AcDbArc
 50
354.0934261954
 51
5.9065738046
  0
ARC
  5
459
100
AcDbEntity
  8
IMPORT_IGES
100
AcDbCircle
 62
7
  6
CONTINUOUS
 10
-38.6
 20
108.9266872673
 30
0.0
 40
3.5
100
AcDbArc
 50
14.0934261953
 51
25.9065738046
  0
ARC
  5
45A
100
AcDbEntity
  8
IMPORT_IGES
100
AcDbCircle
 62
7
  6
CONTINUOUS
 10
-38.6
 20
108.9266872673
 30
0.0
 40
3.5
100
AcDbArc
 50
34.0934261953
 51
45.9065738047
  0
ARC
  5
45B
100
AcDbEntity
  8
IMPORT_IGES
100
AcDbCircle
 62
7
  6
CONTINUOUS
 10
-38.6
 20
108.9266872673
 30
0.0
 40
3.5
100
AcDbArc
 50
54.0934261954
 51
65.9065738046
  0
ARC
  5
45C
100
AcDbEntity
  8
IMPORT_IGES
100
AcDbCircle
 62
7
  6
CONTINUOUS
 10
-38.6
 20
108.9266872673
 30
0.0
 40
3.5
100
AcDbArc
 50
74.0934261953
 51
85.9065738047
  0
ARC
  5
45D
100
AcDbEntity
  8
IMPORT_IGES
100
AcDbCircle
 62
7
  6
CONTINUOUS
 10
-38.6
 20
108.4266872673
 30
0.0
 40
2.5
100
AcDbArc
 50
180.0
 51
360.0
  0
ARC
  5
45E
100
AcDbEntity
  8
IMPORT_IGES
100
AcDbCircle
 62
7
  6
CONTINUOUS
 10
-38.6
 20
105.4266872673
 30
0.0
 40
0.25
100
AcDbArc
 50
2.0467130977
 51
177.9532869023
  0
ARC
  5
45F
100
AcDbEntity
  8
IMPORT_IGES
100
AcDbCircle
 62
7
  6
CONTINUOUS
 10
-37.4029294984
 20
105.6377630946
 30
0.0
 40
0.25
100
AcDbArc
 50
22.0467130975
 51
197.9532869025
  0
ARC
  5
460
100
AcDbEntity
  8
IMPORT_IGES
100
AcDbCircle
 62
7
  6
CONTINUOUS
 10
-36.3502433661
 20
106.2455317164
 30
0.0
 40
0.25
100
AcDbArc
 50
42.0467130978
 51
217.953286902
  0
ARC
  5
461
100
AcDbEntity
  8
IMPORT_IGES
100
AcDbCircle
 62
7
  6
CONTINUOUS
 10
-35.5689110868
 20
107.1766872673
 30
0.0
 40
0.25
100
AcDbArc
 50
62.0467130986
 51
237.9532869015
  0
ARC
  5
462
100
AcDbEntity
  8
IMPORT_IGES
100
AcDbCircle
 62
7
  6
CONTINUOUS
 10
-35.1531728645
 20
108.3189186455
 30
0.0
 40
0.25
100
AcDbArc
 50
82.046713097
 51
257.9532869032
  0
ARC
  5
463
100
AcDbEntity
  8
IMPORT_IGES
100
AcDbCircle
 62
7
  6
CONTINUOUS
 10
-38.6
 20
109.4266872673
 30
0.0
 40
2.5
100
AcDbArc
 50
0.0
 51
180.0
  0
ARC
  5
464
100
AcDbEntity
  8
IMPORT_IGES
100
AcDbCircle
 62
7
  6
CONTINUOUS
 10
-35.1531728645
 20
109.5344558892
 30
0.0
 40
0.25
100
AcDbArc
 50
102.0467130968
 51
277.953286903
  0
ARC
  5
465
100
AcDbEntity
  8
IMPORT_IGES
100
AcDbCircle
 62
7
  6
CONTINUOUS
 10
-35.5689110868
 20
110.6766872673
 30
0.0
 40
0.25
100
AcDbArc
 50
122.0467130985
 51
297.9532869014
  0
ARC
  5
466
100
AcDbEntity
  8
IMPORT_IGES
100
AcDbCircle
 62
7
  6
CONTINUOUS
 10
-36.3502433661
 20
111.6078428183
 30
0.0
 40
0.25
100
AcDbArc
 50
142.046713098
 51
317.9532869022
  0
ARC
  5
467
100
AcDbEntity
  8
IMPORT_IGES
100
AcDbCircle
 62
7
  6
CONTINUOUS
 10
-37.4029294984
 20
112.2156114401
 30
0.0
 40
0.25
100
AcDbArc
 50
162.0467130975
 51
337.9532869024
  0
ARC
  5
468
100
AcDbEntity
  8
IMPORT_IGES
100
AcDbCircle
 62
7
  6
CONTINUOUS
 10
-38.6
 20
112.4266872673
 30
0.0
 40
0.25
100
AcDbArc
 50
182.0467130977
 51
357.9532869023
  0
ARC
  5
469
100
AcDbEntity
  8
IMPORT_IGES
100
AcDbCircle
 62
7
  6
CONTINUOUS
 10
-0.0
 20
71.0766872673
 30
0.0
 40
16.2
100
AcDbArc
 50
129.4941657279
 51
50.5061494799
  0
ARC
  5
46A
100
AcDbEntity
  8
IMPORT_IGES
100
AcDbCircle
 62
7
  6
CONTINUOUS
 10
-0.0
 20
71.0766872673
 30
0.0
 40
15.2
100
AcDbArc
 50
356.6582293161
 51
3.3417706839
  0
ARC
  5
46B
100
AcDbEntity
  8
IMPORT_IGES
100
AcDbCircle
 62
7
  6
CONTINUOUS
 10
-0.0
 20
71.0766872673
 30
0.0
 40
15.2
100
AcDbArc
 50
266.6582293161
 51
273.3417706839
  0
ARC
  5
46C
100
AcDbEntity
  8
IMPORT_IGES
100
AcDbCircle
 62
7
  6
CONTINUOUS
 10
-0.0
 20
71.0766872673
 30
0.0
 40
15.2
100
AcDbArc
 50
176.6582293161
 51
183.3417706839
  0
ARC
  5
46D
100
AcDbEntity
  8
IMPORT_IGES
100
AcDbCircle
 62
7
  6
CONTINUOUS
 10
-0.0
 20
71.0766872673
 30
0.0
 40
15.021710613
100
AcDbArc
 50
3.3933700308
 51
56.3278455473
  0
ARC
  5
46E
100
AcDbEntity
  8
IMPORT_IGES
100
AcDbCircle
 62
7
  6
CONTINUOUS
 10
-0.0
 20
71.0766872673
 30
0.0
 40
15.021710613
100
AcDbArc
 50
273.3933700308
 51
356.6066299692
  0
ARC
  5
46F
100
AcDbEntity
  8
IMPORT_IGES
100
AcDbCircle
 62
7
  6
CONTINUOUS
 10
-0.0
 20
71.0766872673
 30
0.0
 40
15.021710613
100
AcDbArc
 50
183.3933700308
 51
266.6066299692
  0
ARC
  5
470
100
AcDbEntity
  8
IMPORT_IGES
100
AcDbCircle
 62
7
  6
CONTINUOUS
 10
-0.0
 20
71.0766872673
 30
0.0
 40
15.021710613
100
AcDbArc
 50
123.6721544527
 51
176.6066299692
  0
ARC
  5
471
100
AcDbEntity
  8
IMPORT_IGES
100
AcDbCircle
 62
7
  6
CONTINUOUS
 10
-0.0
 20
71.0766872673
 30
0.0
 40
15.0104762309
100
AcDbArc
 50
273.4173852538
 51
356.5826147462
  0
ARC
  5
472
100
AcDbEntity
  8
IMPORT_IGES
100
AcDbCircle
 62
7
  6
CONTINUOUS
 10
-0.0
 20
71.0766872673
 30
0.0
 40
15.0104762309
100
AcDbArc
 50
183.4173852538
 51
266.5826147462
  0
ARC
  5
473
100
AcDbEntity
  8
IMPORT_IGES
100
AcDbCircle
 62
7
  6
CONTINUOUS
 10
-0.0
 20
71.0766872673
 30
0.0
 40
15.0104762309
100
AcDbArc
 50
123.6081941059
 51
176.5826147462
  0
ARC
  5
474
100
AcDbEntity
  8
IMPORT_IGES
100
AcDbCircle
 62
7
  6
CONTINUOUS
 10
-0.0
 20
71.0766872673
 30
0.0
 40
15.0104762309
100
AcDbArc
 50
3.4173852538
 51
56.3916961672
  0
ARC
  5
475
100
AcDbEntity
  8
IMPORT_IGES
100
AcDbCircle
 62
7
  6
CONTINUOUS
 10
-0.0
 20
71.0766872673
 30
0.0
 40
13.4895237691
100
AcDbArc
 50
273.8032356994
 51
356.1967643006
  0
ARC
  5
476
100
AcDbEntity
  8
IMPORT_IGES
100
AcDbCircle
 62
7
  6
CONTINUOUS
 10
-0.0
 20
71.0766872673
 30
0.0
 40
13.4895237691
100
AcDbArc
 50
183.8032356994
 51
266.1967643006
  0
ARC
  5
477
100
AcDbEntity
  8
IMPORT_IGES
100
AcDbCircle
 62
7
  6
CONTINUOUS
 10
-0.0
 20
71.0766872673
 30
0.0
 40
13.4895237691
100
AcDbArc
 50
112.0810447119
 51
176.1967643006
  0
ARC
  5
478
100
AcDbEntity
  8
IMPORT_IGES
100
AcDbCircle
 62
7
  6
CONTINUOUS
 10
-0.0
 20
71.0766872673
 30
0.0
 40
13.4895237691
100
AcDbArc
 50
3.8032356994
 51
67.9185661375
  0
ARC
  5
479
100
AcDbEntity
  8
IMPORT_IGES
100
AcDbCircle
 62
7
  6
CONTINUOUS
 10
0.0
 20
71.0766872673
 30
0.0
 40
13.478289387
100
AcDbArc
 50
273.7824867617
 51
356.2175132383
  0
ARC
  5
47A
100
AcDbEntity
  8
IMPORT_IGES
100
AcDbCircle
 62
7
  6
CONTINUOUS
 10
0.0
 20
71.0766872673
 30
0.0
 40
13.478289387
100
AcDbArc
 50
3.7824867617
 51
68.0409705321
  0
ARC
  5
47B
100
AcDbEntity
  8
IMPORT_IGES
100
AcDbCircle
 62
7
  6
CONTINUOUS
 10
0.0
 20
71.0766872673
 30
0.0
 40
13.478289387
100
AcDbArc
 50
111.9590294679
 51
176.2175132383
  0
ARC
  5
47C
100
AcDbEntity
  8
IMPORT_IGES
100
AcDbCircle
 62
7
  6
CONTINUOUS
 10
0.0
 20
71.0766872673
 30
0.0
 40
13.478289387
100
AcDbArc
 50
183.7824867617
 51
266.2175132383
  0
ARC
  5
47D
100
AcDbEntity
  8
IMPORT_IGES
100
AcDbCircle
 62
7
  6
CONTINUOUS
 10
0.0
 20
71.0766872673
 30
0.0
 40
13.3
100
AcDbArc
 50
356.180169431
 51
3.819830569
  0
ARC
  5
47E
100
AcDbEntity
  8
IMPORT_IGES
100
AcDbCircle
 62
7
  6
CONTINUOUS
 10
0.0
 20
71.0766872673
 30
0.0
 40
13.3
100
AcDbArc
 50
266.180169431
 51
273.819830569
  0
ARC
  5
47F
100
AcDbEntity
  8
IMPORT_IGES
100
AcDbCircle
 62
7
  6
CONTINUOUS
 10
0.0
 20
71.0766872673
 30
0.0
 40
13.3
100
AcDbArc
 50
176.180169431
 51
183.819830569
  0
CIRCLE
  5
480
100
AcDbEntity
  8
IMPORT_IGES
100
AcDbCircle
 62
7
  6
CONTINUOUS
 10
0.0
 20
71.0766872673
 30
0.0
 40
12.3
  0
ARC
  5
481
100
AcDbEntity
  8
IMPORT_IGES
100
AcDbCircle
 62
7
  6
CONTINUOUS
 10
37.4029294984
 20
-59.4843885599
 30
0.0
 40
0.25
100
AcDbArc
 50
202.0467131079
 51
17.9532868914
  0
ARC
  5
482
100
AcDbEntity
  8
IMPORT_IGES
100
AcDbCircle
 62
7
  6
CONTINUOUS
 10
36.3502433661
 20
-60.0921571818
 30
0.0
 40
0.25
100
AcDbArc
 50
222.0467130946
 51
37.9532869056
  0
ARC
  5
483
100
AcDbEntity
  8
IMPORT_IGES
100
AcDbCircle
 62
7
  6
CONTINUOUS
 10
35.5689110868
 20
-61.0233127327
 30
0.0
 40
0.25
100
AcDbArc
 50
242.0467130986
 51
57.9532869012
  0
ARC
  5
484
100
AcDbEntity
  8
IMPORT_IGES
100
AcDbCircle
 62
7
  6
CONTINUOUS
 10
35.1531728645
 20
-62.1655441109
 30
0.0
 40
0.25
100
AcDbArc
 50
262.0467130964
 51
77.9532869052
  0
ARC
  5
485
100
AcDbEntity
  8
IMPORT_IGES
100
AcDbCircle
 62
7
  6
CONTINUOUS
 10
35.1531728645
 20
-63.3810813545
 30
0.0
 40
0.25
100
AcDbArc
 50
282.0467130949
 51
97.9532869035
  0
ARC
  5
486
100
AcDbEntity
  8
IMPORT_IGES
100
AcDbCircle
 62
7
  6
CONTINUOUS
 10
35.5689110868
 20
-64.5233127327
 30
0.0
 40
0.25
100
AcDbArc
 50
302.0467130986
 51
117.9532869016
  0
ARC
  5
487
100
AcDbEntity
  8
IMPORT_IGES
100
AcDbCircle
 62
7
  6
CONTINUOUS
 10
36.3502433661
 20
-65.4544682836
 30
0.0
 40
0.25
100
AcDbArc
 50
322.0467130942
 51
137.9532869056
  0
ARC
  5
488
100
AcDbEntity
  8
IMPORT_IGES
100
AcDbCircle
 62
7
  6
CONTINUOUS
 10
37.4029294984
 20
-66.0622369055
 30
0.0
 40
0.25
100
AcDbArc
 50
342.0467131087
 51
157.9532868922
  0
ARC
  5
489
100
AcDbEntity
  8
IMPORT_IGES
100
AcDbCircle
 62
7
  6
CONTINUOUS
 10
35.0
 20
-48.6856025855
 30
0.0
 40
2.0
100
AcDbArc
 50
270.0
 51
360.0
  0
ARC
  5
48A
100
AcDbEntity
  8
IMPORT_IGES
100
AcDbCircle
 62
7
  6
CONTINUOUS
 10
38.6
 20
-62.7733127327
 30
0.0
 40
4.5
100
AcDbArc
 50
0.0
 51
180.0
  0
ARC
  5
48B
100
AcDbEntity
  8
IMPORT_IGES
100
AcDbCircle
 62
7
  6
CONTINUOUS
 10
38.6
 20
-62.7733127327
 30
0.0
 40
3.5
100
AcDbArc
 50
94.0934261953
 51
105.9065738045
  0
ARC
  5
48C
100
AcDbEntity
  8
IMPORT_IGES
100
AcDbCircle
 62
7
  6
CONTINUOUS
 10
38.6
 20
-62.7733127327
 30
0.0
 40
3.5
100
AcDbArc
 50
114.0934261951
 51
125.9065738048
  0
ARC
  5
48D
100
AcDbEntity
  8
IMPORT_IGES
100
AcDbCircle
 62
7
  6
CONTINUOUS
 10
38.6
 20
-62.7733127327
 30
0.0
 40
3.5
100
AcDbArc
 50
134.0934261955
 51
145.9065738047
  0
ARC
  5
48E
100
AcDbEntity
  8
IMPORT_IGES
100
AcDbCircle
 62
7
  6
CONTINUOUS
 10
38.6
 20
-62.7733127327
 30
0.0
 40
3.5
100
AcDbArc
 50
154.0934261954
 51
165.9065738052
  0
ARC
  5
48F
100
AcDbEntity
  8
IMPORT_IGES
100
AcDbCircle
 62
7
  6
CONTINUOUS
 10
38.6
 20
-62.7733127327
 30
0.0
 40
3.5
100
AcDbArc
 50
174.0934261959
 51
185.9065738041
  0
ARC
  5
490
100
AcDbEntity
  8
IMPORT_IGES
100
AcDbCircle
 62
7
  6
CONTINUOUS
 10
38.6
 20
-62.7733127327
 30
0.0
 40
3.5
100
AcDbArc
 50
194.0934261948
 51
205.9065738046
  0
ARC
  5
491
100
AcDbEntity
  8
IMPORT_IGES
100
AcDbCircle
 62
7
  6
CONTINUOUS
 10
38.6
 20
-62.7733127327
 30
0.0
 40
3.5
100
AcDbArc
 50
214.0934261954
 51
225.9065738045
  0
ARC
  5
492
100
AcDbEntity
  8
IMPORT_IGES
100
AcDbCircle
 62
7
  6
CONTINUOUS
 10
38.6
 20
-62.7733127327
 30
0.0
 40
3.5
100
AcDbArc
 50
234.0934261953
 51
245.906573805
  0
ARC
  5
493
100
AcDbEntity
  8
IMPORT_IGES
100
AcDbCircle
 62
7
  6
CONTINUOUS
 10
38.6
 20
-62.7733127327
 30
0.0
 40
3.5
100
AcDbArc
 50
254.0934261956
 51
265.9065738047
  0
ARC
  5
494
100
AcDbEntity
  8
IMPORT_IGES
100
AcDbCircle
 62
7
  6
CONTINUOUS
 10
38.6
 20
-62.7733127327
 30
0.0
 40
3.5
100
AcDbArc
 50
274.0934261953
 51
285.9065738045
  0
ARC
  5
495
100
AcDbEntity
  8
IMPORT_IGES
100
AcDbCircle
 62
7
  6
CONTINUOUS
 10
38.6
 20
-62.7733127327
 30
0.0
 40
3.5
100
AcDbArc
 50
294.0934261951
 51
305.9065738048
  0
ARC
  5
496
100
AcDbEntity
  8
IMPORT_IGES
100
AcDbCircle
 62
7
  6
CONTINUOUS
 10
38.6
 20
-62.7733127327
 30
0.0
 40
3.5
100
AcDbArc
 50
314.0934261955
 51
325.9065738047
  0
ARC
  5
497
100
AcDbEntity
  8
IMPORT_IGES
100
AcDbCircle
 62
7
  6
CONTINUOUS
 10
38.6
 20
-62.7733127327
 30
0.0
 40
3.5
100
AcDbArc
 50
334.0934261954
 51
345.9065738052
  0
ARC
  5
498
100
AcDbEntity
  8
IMPORT_IGES
100
AcDbCircle
 62
7
  6
CONTINUOUS
 10
38.6
 20
-62.7733127327
 30
0.0
 40
3.5
100
AcDbArc
 50
354.0934261959
 51
5.9065738041
  0
ARC
  5
499
100
AcDbEntity
  8
IMPORT_IGES
100
AcDbCircle
 62
7
  6
CONTINUOUS
 10
38.6
 20
-62.7733127327
 30
0.0
 40
3.5
100
AcDbArc
 50
14.0934261948
 51
25.9065738046
  0
ARC
  5
49A
100
AcDbEntity
  8
IMPORT_IGES
100
AcDbCircle
 62
7
  6
CONTINUOUS
 10
38.6
 20
-62.7733127327
 30
0.0
 40
3.5
100
AcDbArc
 50
34.0934261954
 51
45.9065738045
  0
ARC
  5
49B
100
AcDbEntity
  8
IMPORT_IGES
100
AcDbCircle
 62
7
  6
CONTINUOUS
 10
38.6
 20
-62.7733127327
 30
0.0
 40
3.5
100
AcDbArc
 50
54.0934261953
 51
65.906573805
  0
ARC
  5
49C
100
AcDbEntity
  8
IMPORT_IGES
100
AcDbCircle
 62
7
  6
CONTINUOUS
 10
38.6
 20
-62.7733127327
 30
0.0
 40
3.5
100
AcDbArc
 50
74.0934261956
 51
85.9065738047
  0
ARC
  5
49D
100
AcDbEntity
  8
IMPORT_IGES
100
AcDbCircle
 62
7
  6
CONTINUOUS
 10
38.6
 20
-63.2733127327
 30
0.0
 40
2.5
100
AcDbArc
 50
180.0
 51
360.0
  0
ARC
  5
49E
100
AcDbEntity
  8
IMPORT_IGES
100
AcDbCircle
 62
7
  6
CONTINUOUS
 10
38.6
 20
-62.2733127327
 30
0.0
 40
2.5
100
AcDbArc
 50
0.0
 51
180.0
  0
ARC
  5
49F
100
AcDbEntity
  8
IMPORT_IGES
100
AcDbCircle
 62
7
  6
CONTINUOUS
 10
38.6
 20
-66.2733127327
 30
0.0
 40
0.25
100
AcDbArc
 50
2.0467130976
 51
177.9532869023
  0
ARC
  5
4A0
100
AcDbEntity
  8
IMPORT_IGES
100
AcDbCircle
 62
7
  6
CONTINUOUS
 10
39.7970705016
 20
-66.0622369055
 30
0.0
 40
0.25
100
AcDbArc
 50
22.0467131079
 51
197.9532868914
  0
ARC
  5
4A1
100
AcDbEntity
  8
IMPORT_IGES
100
AcDbCircle
 62
7
  6
CONTINUOUS
 10
40.8497566339
 20
-65.4544682836
 30
0.0
 40
0.25
100
AcDbArc
 50
42.0467130946
 51
217.9532869056
  0
ARC
  5
4A2
100
AcDbEntity
  8
IMPORT_IGES
100
AcDbCircle
 62
7
  6
CONTINUOUS
 10
41.6310889133
 20
-64.5233127327
 30
0.0
 40
0.25
100
AcDbArc
 50
62.0467130986
 51
237.9532869012
  0
ARC
  5
4A3
100
AcDbEntity
  8
IMPORT_IGES
100
AcDbCircle
 62
7
  6
CONTINUOUS
 10
42.0468271355
 20
-63.3810813545
 30
0.0
 40
0.25
100
AcDbArc
 50
82.0467130964
 51
257.9532869052
  0
ARC
  5
4A4
100
AcDbEntity
  8
IMPORT_IGES
100
AcDbCircle
 62
7
  6
CONTINUOUS
 10
42.0468271355
 20
-62.1655441109
 30
0.0
 40
0.25
100
AcDbArc
 50
102.0467130949
 51
277.9532869035
  0
ARC
  5
4A5
100
AcDbEntity
  8
IMPORT_IGES
100
AcDbCircle
 62
7
  6
CONTINUOUS
 10
41.6310889133
 20
-61.0233127327
 30
0.0
 40
0.25
100
AcDbArc
 50
122.0467130986
 51
297.9532869016
  0
ARC
  5
4A6
100
AcDbEntity
  8
IMPORT_IGES
100
AcDbCircle
 62
7
  6
CONTINUOUS
 10
40.8497566339
 20
-60.0921571818
 30
0.0
 40
0.25
100
AcDbArc
 50
142.0467130942
 51
317.9532869056
  0
ARC
  5
4A7
100
AcDbEntity
  8
IMPORT_IGES
100
AcDbCircle
 62
7
  6
CONTINUOUS
 10
39.7970705016
 20
-59.4843885599
 30
0.0
 40
0.25
100
AcDbArc
 50
162.0467131087
 51
337.9532868922
  0
ARC
  5
4A8
100
AcDbEntity
  8
IMPORT_IGES
100
AcDbCircle
 62
7
  6
CONTINUOUS
 10
38.6
 20
-59.2733127327
 30
0.0
 40
0.25
100
AcDbArc
 50
182.0467130976
 51
357.9532869023
  0
ARC
  5
4A9
100
AcDbEntity
  8
IMPORT_IGES
100
AcDbCircle
 62
7
  6
CONTINUOUS
 10
60.0
 20
-85.4233127327
 30
0.0
 40
6.5
100
AcDbArc
 50
270.0
 51
360.0
  0
ARC
  5
4AA
100
AcDbEntity
  8
IMPORT_IGES
100
AcDbCircle
 62
250
  6
CONTINUOUS
 10
60.0917545529
 20
-85.4201136721
 30
0.0
 40
6.1031425425
100
AcDbArc
 50
269.1386280905
 51
359.9699658832
  0
ARC
  5
4AB
100
AcDbEntity
  8
IMPORT_IGES
100
AcDbCircle
 62
7
  6
CONTINUOUS
 10
38.0
 20
84.5766872673
 30
0.0
 40
2.4956362338
100
AcDbArc
 50
0.0
 51
90.0000000006
  0
ARC
  5
4AC
100
AcDbEntity
  8
IMPORT_IGES
100
AcDbCircle
 62
7
  6
CONTINUOUS
 10
35.0
 20
81.5766872673
 30
0.0
 40
2.0
100
AcDbArc
 50
0.0
 51
90.0
  0
ARC
  5
4AD
100
AcDbEntity
  8
IMPORT_IGES
100
AcDbCircle
 62
7
  6
CONTINUOUS
 10
38.0
 20
84.5766872673
 30
0.0
 40
0.5043637662
100
AcDbArc
 50
0.0000000024
 51
89.9999999976
  0
ARC
  5
4AE
100
AcDbEntity
  8
IMPORT_IGES
100
AcDbCircle
 62
7
  6
CONTINUOUS
 10
36.3502433661
 20
106.2455317164
 30
0.0
 40
0.25
100
AcDbArc
 50
322.046713098
 51
137.9532869022
  0
ARC
  5
4AF
100
AcDbEntity
  8
IMPORT_IGES
100
AcDbCircle
 62
7
  6
CONTINUOUS
 10
37.4029294984
 20
105.6377630946
 30
0.0
 40
0.25
100
AcDbArc
 50
342.0467130975
 51
157.9532869024
  0
ARC
  5
4B0
100
AcDbEntity
  8
IMPORT_IGES
100
AcDbCircle
 62
7
  6
CONTINUOUS
 10
38.6
 20
105.4266872673
 30
0.0
 40
0.25
100
AcDbArc
 50
2.0467130977
 51
177.9532869023
  0
ARC
  5
4B1
100
AcDbEntity
  8
IMPORT_IGES
100
AcDbCircle
 62
7
  6
CONTINUOUS
 10
39.7970705016
 20
105.6377630946
 30
0.0
 40
0.25
100
AcDbArc
 50
22.0467130975
 51
197.9532869025
  0
ARC
  5
4B2
100
AcDbEntity
  8
IMPORT_IGES
100
AcDbCircle
 62
7
  6
CONTINUOUS
 10
40.8497566339
 20
106.2455317164
 30
0.0
 40
0.25
100
AcDbArc
 50
42.0467130978
 51
217.953286902
  0
ARC
  5
4B3
100
AcDbEntity
  8
IMPORT_IGES
100
AcDbCircle
 62
7
  6
CONTINUOUS
 10
38.6
 20
108.9266872673
 30
0.0
 40
4.5
100
AcDbArc
 50
180.0
 51
360.0
  0
ARC
  5
4B4
100
AcDbEntity
  8
IMPORT_IGES
100
AcDbCircle
 62
7
  6
CONTINUOUS
 10
38.6
 20
108.9266872673
 30
0.0
 40
3.5
100
AcDbArc
 50
94.0934261953
 51
105.9065738047
  0
ARC
  5
4B5
100
AcDbEntity
  8
IMPORT_IGES
100
AcDbCircle
 62
7
  6
CONTINUOUS
 10
38.6
 20
108.9266872673
 30
0.0
 40
3.5
100
AcDbArc
 50
114.0934261953
 51
125.9065738046
  0
ARC
  5
4B6
100
AcDbEntity
  8
IMPORT_IGES
100
AcDbCircle
 62
7
  6
CONTINUOUS
 10
38.6
 20
108.9266872673
 30
0.0
 40
3.5
100
AcDbArc
 50
134.0934261953
 51
145.9065738047
  0
ARC
  5
4B7
100
AcDbEntity
  8
IMPORT_IGES
100
AcDbCircle
 62
7
  6
CONTINUOUS
 10
38.6
 20
108.9266872673
 30
0.0
 40
3.5
100
AcDbArc
 50
154.0934261954
 51
165.9065738047
  0
ARC
  5
4B8
100
AcDbEntity
  8
IMPORT_IGES
100
AcDbCircle
 62
7
  6
CONTINUOUS
 10
38.6
 20
108.9266872673
 30
0.0
 40
3.5
100
AcDbArc
 50
174.0934261954
 51
185.9065738046
  0
ARC
  5
4B9
100
AcDbEntity
  8
IMPORT_IGES
100
AcDbCircle
 62
7
  6
CONTINUOUS
 10
38.6
 20
108.9266872673
 30
0.0
 40
3.5
100
AcDbArc
 50
194.0934261953
 51
205.9065738046
  0
ARC
  5
4BA
100
AcDbEntity
  8
IMPORT_IGES
100
AcDbCircle
 62
7
  6
CONTINUOUS
 10
38.6
 20
108.9266872673
 30
0.0
 40
3.5
100
AcDbArc
 50
214.0934261953
 51
225.9065738047
  0
ARC
  5
4BB
100
AcDbEntity
  8
IMPORT_IGES
100
AcDbCircle
 62
7
  6
CONTINUOUS
 10
38.6
 20
108.9266872673
 30
0.0
 40
3.5
100
AcDbArc
 50
234.0934261954
 51
245.9065738046
  0
ARC
  5
4BC
100
AcDbEntity
  8
IMPORT_IGES
100
AcDbCircle
 62
7
  6
CONTINUOUS
 10
38.6
 20
108.9266872673
 30
0.0
 40
3.5
100
AcDbArc
 50
254.0934261953
 51
265.9065738047
  0
ARC
  5
4BD
100
AcDbEntity
  8
IMPORT_IGES
100
AcDbCircle
 62
7
  6
CONTINUOUS
 10
38.6
 20
108.9266872673
 30
0.0
 40
3.5
100
AcDbArc
 50
274.0934261953
 51
285.9065738047
  0
ARC
  5
4BE
100
AcDbEntity
  8
IMPORT_IGES
100
AcDbCircle
 62
7
  6
CONTINUOUS
 10
38.6
 20
108.9266872673
 30
0.0
 40
3.5
100
AcDbArc
 50
294.0934261953
 51
305.9065738046
  0
ARC
  5
4BF
100
AcDbEntity
  8
IMPORT_IGES
100
AcDbCircle
 62
7
  6
CONTINUOUS
 10
38.6
 20
108.9266872673
 30
0.0
 40
3.5
100
AcDbArc
 50
314.0934261953
 51
325.9065738047
  0
ARC
  5
4C0
100
AcDbEntity
  8
IMPORT_IGES
100
AcDbCircle
 62
7
  6
CONTINUOUS
 10
38.6
 20
108.9266872673
 30
0.0
 40
3.5
100
AcDbArc
 50
334.0934261954
 51
345.9065738047
  0
ARC
  5
4C1
100
AcDbEntity
  8
IMPORT_IGES
100
AcDbCircle
 62
7
  6
CONTINUOUS
 10
38.6
 20
108.9266872673
 30
0.0
 40
3.5
100
AcDbArc
 50
354.0934261954
 51
5.9065738046
  0
ARC
  5
4C2
100
AcDbEntity
  8
IMPORT_IGES
100
AcDbCircle
 62
7
  6
CONTINUOUS
 10
38.6
 20
108.9266872673
 30
0.0
 40
3.5
100
AcDbArc
 50
14.0934261953
 51
25.9065738046
  0
ARC
  5
4C3
100
AcDbEntity
  8
IMPORT_IGES
100
AcDbCircle
 62
7
  6
CONTINUOUS
 10
38.6
 20
108.9266872673
 30
0.0
 40
3.5
100
AcDbArc
 50
34.0934261953
 51
45.9065738047
  0
ARC
  5
4C4
100
AcDbEntity
  8
IMPORT_IGES
100
AcDbCircle
 62
7
  6
CONTINUOUS
 10
38.6
 20
108.9266872673
 30
0.0
 40
3.5
100
AcDbArc
 50
54.0934261954
 51
65.9065738046
  0
ARC
  5
4C5
100
AcDbEntity
  8
IMPORT_IGES
100
AcDbCircle
 62
7
  6
CONTINUOUS
 10
38.6
 20
108.9266872673
 30
0.0
 40
3.5
100
AcDbArc
 50
74.0934261953
 51
85.9065738047
  0
ARC
  5
4C6
100
AcDbEntity
  8
IMPORT_IGES
100
AcDbCircle
 62
7
  6
CONTINUOUS
 10
39.1
 20
108.9266872673
 30
0.0
 40
2.5
100
AcDbArc
 50
270.0
 51
90.0
  0
ARC
  5
4C7
100
AcDbEntity
  8
IMPORT_IGES
100
AcDbCircle
 62
7
  6
CONTINUOUS
 10
38.1
 20
108.9266872673
 30
0.0
 40
2.5
100
AcDbArc
 50
90.0
 51
270.0
  0
ARC
  5
4C8
100
AcDbEntity
  8
IMPORT_IGES
100
AcDbCircle
 62
7
  6
CONTINUOUS
 10
37.4029294984
 20
112.2156114401
 30
0.0
 40
0.25
100
AcDbArc
 50
202.0467130975
 51
17.9532869025
  0
ARC
  5
4C9
100
AcDbEntity
  8
IMPORT_IGES
100
AcDbCircle
 62
7
  6
CONTINUOUS
 10
36.3502433661
 20
111.6078428183
 30
0.0
 40
0.25
100
AcDbArc
 50
222.0467130978
 51
37.953286902
  0
ARC
  5
4CA
100
AcDbEntity
  8
IMPORT_IGES
100
AcDbCircle
 62
7
  6
CONTINUOUS
 10
35.5689110867
 20
110.6766872673
 30
0.0
 40
0.25
100
AcDbArc
 50
242.0467130986
 51
57.9532869015
  0
ARC
  5
4CB
100
AcDbEntity
  8
IMPORT_IGES
100
AcDbCircle
 62
7
  6
CONTINUOUS
 10
35.1531728645
 20
109.5344558892
 30
0.0
 40
0.25
100
AcDbArc
 50
262.046713097
 51
77.9532869032
  0
ARC
  5
4CC
100
AcDbEntity
  8
IMPORT_IGES
100
AcDbCircle
 62
7
  6
CONTINUOUS
 10
35.1531728645
 20
108.3189186455
 30
0.0
 40
0.25
100
AcDbArc
 50
282.0467130968
 51
97.953286903
  0
ARC
  5
4CD
100
AcDbEntity
  8
IMPORT_IGES
100
AcDbCircle
 62
7
  6
CONTINUOUS
 10
35.5689110867
 20
107.1766872673
 30
0.0
 40
0.25
100
AcDbArc
 50
302.0467130985
 51
117.9532869014
  0
ARC
  5
4CE
100
AcDbEntity
  8
IMPORT_IGES
100
AcDbCircle
 62
7
  6
CONTINUOUS
 10
41.6310889132
 20
107.1766872673
 30
0.0
 40
0.25
100
AcDbArc
 50
62.0467130986
 51
237.9532869015
  0
ARC
  5
4CF
100
AcDbEntity
  8
IMPORT_IGES
100
AcDbCircle
 62
7
  6
CONTINUOUS
 10
42.0468271355
 20
108.3189186455
 30
0.0
 40
0.25
100
AcDbArc
 50
82.046713097
 51
257.9532869032
  0
ARC
  5
4D0
100
AcDbEntity
  8
IMPORT_IGES
100
AcDbCircle
 62
7
  6
CONTINUOUS
 10
42.0468271355
 20
109.5344558892
 30
0.0
 40
0.25
100
AcDbArc
 50
102.0467130968
 51
277.953286903
  0
ARC
  5
4D1
100
AcDbEntity
  8
IMPORT_IGES
100
AcDbCircle
 62
7
  6
CONTINUOUS
 10
41.6310889132
 20
110.6766872673
 30
0.0
 40
0.25
100
AcDbArc
 50
122.0467130985
 51
297.9532869014
  0
ARC
  5
4D2
100
AcDbEntity
  8
IMPORT_IGES
100
AcDbCircle
 62
7
  6
CONTINUOUS
 10
40.8497566339
 20
111.6078428183
 30
0.0
 40
0.25
100
AcDbArc
 50
142.046713098
 51
317.9532869022
  0
ARC
  5
4D3
100
AcDbEntity
  8
IMPORT_IGES
100
AcDbCircle
 62
7
  6
CONTINUOUS
 10
39.7970705016
 20
112.2156114401
 30
0.0
 40
0.25
100
AcDbArc
 50
162.0467130975
 51
337.9532869024
  0
ARC
  5
4D4
100
AcDbEntity
  8
IMPORT_IGES
100
AcDbCircle
 62
7
  6
CONTINUOUS
 10
38.6
 20
112.4266872673
 30
0.0
 40
0.25
100
AcDbArc
 50
182.0467130977
 51
357.9532869023
  0
ARC
  5
4D5
100
AcDbEntity
  8
IMPORT_IGES
100
AcDbCircle
 62
250
  6
CONTINUOUS
 10
60.0917531668
 20
131.5734871742
 30
0.0
 40
6.1031424902
100
AcDbArc
 50
0.030043836
 51
90.8613588566
  0
ARC
  5
4D6
100
AcDbEntity
  8
IMPORT_IGES
100
AcDbCircle
 62
250
  6
CONTINUOUS
 10
-217.0288729377
 20
-67.225239288
 30
0.0
 40
22.1328540281
100
AcDbArc
 50
359.7455121594
 51
359.997890911
  0
ARC
  5
4D7
100
AcDbEntity
  8
IMPORT_IGES
100
AcDbCircle
 62
250
  6
CONTINUOUS
 10
-216.9542118673
 20
113.3789692877
 30
0.0
 40
22.0581929474
100
AcDbArc
 50
0.0011929149
 51
0.252184397
  0
ARC
  5
4D8
100
AcDbEntity
  8
IMPORT_IGES
100
AcDbCircle
 62
7
  6
CONTINUOUS
 10
-156.9135174419
 20
21.0766872673
 30
0.0
 40
12.5
100
AcDbArc
 50
94.0
 51
266.0
  0
ARC
  5
4D9
100
AcDbEntity
  8
IMPORT_IGES
100
AcDbCircle
 62
7
  6
CONTINUOUS
 10
-156.9135174419
 20
-83.9342662586
 30
0.0
 40
2.0
100
AcDbArc
 50
271.0000000001
 51
360.0
  0
ARC
  5
4DA
100
AcDbEntity
  8
IMPORT_IGES
100
AcDbCircle
 62
7
  6
CONTINUOUS
 10
-155.9135174419
 20
-82.1676099773
 30
0.0
 40
2.0
100
AcDbArc
 50
299.9999999996
 51
360.0
  0
ARC
  5
4DB
100
AcDbEntity
  8
IMPORT_IGES
100
AcDbCircle
 62
7
  6
CONTINUOUS
 10
-155.9135174419
 20
124.3209845119
 30
0.0
 40
2.0
100
AcDbArc
 50
0.0
 51
60.0
  0
ARC
  5
4DC
100
AcDbEntity
  8
IMPORT_IGES
100
AcDbCircle
 62
7
  6
CONTINUOUS
 10
-156.9135174419
 20
126.0876407933
 30
0.0
 40
2.0
100
AcDbArc
 50
0.0
 51
89.0000000001
  0
ARC
  5
4DD
100
AcDbEntity
  8
IMPORT_IGES
100
AcDbCircle
 62
250
  6
CONTINUOUS
 10
-196.9178280016
 20
-71.1766721291
 30
0.0
 40
1.4932390335
100
AcDbArc
 50
327.9344715352
 51
330.7968625231
  0
ARC
  5
4DE
100
AcDbEntity
  8
IMPORT_IGES
100
AcDbCircle
 62
250
  6
CONTINUOUS
 10
-196.8516131721
 20
117.3709198876
 30
0.0
 40
1.4153915342
100
AcDbArc
 50
30.810125911
 51
32.4290790538
  0
ARC
  5
4DF
100
AcDbEntity
  8
IMPORT_IGES
100
AcDbCircle
 62
7
  6
CONTINUOUS
 10
-200.1134441883
 20
136.9272735682
 30
0.0
 40
0.2999999911
100
AcDbArc
 50
93.0043178321
 51
180.0231175152
  0
ARC
  5
4E0
100
AcDbEntity
  8
IMPORT_IGES
100
AcDbCircle
 62
7
  6
CONTINUOUS
 10
-200.1134175462
 20
-90.7739004715
 30
0.0
 40
0.2999999766
100
AcDbArc
 50
179.9763914825
 51
266.9967289442
  0
ARC
  5
4E1
100
AcDbEntity
  8
IMPORT_IGES
100
AcDbCircle
 62
250
  6
CONTINUOUS
 10
-195.7001658593
 20
-72.2303612158
 30
0.0
 40
0.290559838
100
AcDbArc
 50
90.1299205539
 51
100.3376369282
  0
ARC
  5
4E2
100
AcDbEntity
  8
IMPORT_IGES
100
AcDbCircle
 62
250
  6
CONTINUOUS
 10
-195.7004925917
 20
118.3809642442
 30
0.0
 40
0.287786632
100
AcDbArc
 50
254.8709386386
 51
266.0156693365
  0
LINE
  5
4E3
100
AcDbEntity
  8
IMPORT_IGES
100
AcDbLine
 62
7
  6
CONTINUOUS
 10
0.8860359481
 20
-44.0974664257
 30
0.0
 11
0.8891480009
 21
-43.9186855381
 31
0.0
  0
LINE
  5
4E4
100
AcDbEntity
  8
IMPORT_IGES
100
AcDbLine
 62
7
  6
CONTINUOUS
 10
-15.174153693
 20
-29.8093486807
 30
0.0
 11
-14.9953728054
 21
-29.8124607336
 31
0.0
  0
LINE
  5
4E5
100
AcDbEntity
  8
IMPORT_IGES
100
AcDbLine
 62
7
  6
CONTINUOUS
 10
15.174153693
 20
-28.0372767846
 30
0.0
 11
14.9953728054
 21
-28.0341647318
 31
0.0
  0
LINE
  5
4E6
100
AcDbEntity
  8
IMPORT_IGES
100
AcDbLine
 62
7
  6
CONTINUOUS
 10
0.8891480009
 20
-13.9279399272
 30
0.0
 11
0.8860359481
 21
-13.7491590397
 31
0.0
  0
SPLINE
  5
4E7
100
AcDbEntity
  8
IMPORT_IGES
100
AcDbSpline
 62
7
  6
CONTINUOUS
 70
0
 71
3
 72
33
 73
29
 74
0
 42
0.0000001
 43
0.0000001
 44
0.0000000001
 40
0.0
 40
0.0
 40
0.0
 40
0.0
 40
0.0034697848
 40
0.0066903323
 40
0.0110397856
 40
0.0231570882
 40
0.0397659949
 40
0.0607498469
 40
0.0859301068
 40
0.1150734935
 40
0.1479076305
 40
0.2233711994
 40
0.3094527475
 40
0.4028580945
 40
0.4999999759
 40
0.5971417504
 40
0.6905469443
 40
0.7766284203
 40
0.852091917
 40
0.8849260162
 40
0.9140694551
 40
0.9392497908
 40
0.9602337167
 40
0.9768428412
 40
0.9889601779
 40
0.9933095633
 40
0.9965301067
 40
1.0
 40
1.0
 40
1.0
 40
1.0
 10
-32.8496025693
 20
-91.6455515025
 30
0.0
 10
-32.8496025693
 20
-91.6389271211
 30
0.0
 10
-32.8360011289
 20
-91.6300606316
 30
0.0
 10
-32.8175876027
 20
-91.6227437619
 30
0.0
 10
-32.780869745
 20
-91.6119488311
 30
0.0
 10
-32.7192061348
 20
-91.6001848431
 30
0.0
 10
-32.6250387432
 20
-91.5867625711
 30
0.0
 10
-32.505940739
 20
-91.5739354899
 30
0.0
 10
-32.3626642036
 20
-91.5615983041
 30
0.0
 10
-32.1966717495
 20
-91.5500194833
 30
0.0
 10
-31.9346946273
 20
-91.5350272081
 30
0.0
 10
-31.5638953558
 20
-91.5195865025
 30
0.0
 10
-31.0773240206
 20
-91.506259404
 30
0.0
 10
-30.5492478291
 20
-91.4980339589
 30
0.0
 10
-30.0000004555
 20
-91.4952490364
 30
0.0
 10
-29.4507533743
 20
-91.4980339504
 30
0.0
 10
-28.9226778164
 20
-91.5062593621
 30
0.0
 10
-28.4361070486
 20
-91.5195864329
 30
0.0
 10
-28.0653081223
 20
-91.5350270675
 30
0.0
 10
-27.8033311085
 20
-91.5500193162
 30
0.0
 10
-27.6373384803
 20
-91.5615980907
 30
0.0
 10
-27.4940615499
 20
-91.573935239
 30
0.0
 10
-27.3749628664
 20
-91.5867624563
 30
0.0
 10
-27.2807948039
 20
-91.6001846123
 30
0.0
 10
-27.2191308854
 20
-91.6119485821
 30
0.0
 10
-27.1824130639
 20
-91.6227436726
 30
0.0
 10
-27.1639997678
 20
-91.6300608875
 30
0.0
 10
-27.1503974211
 20
-91.6389269138
 30
0.0
 10
-27.1503974307
 20
-91.6455515025
 30
0.0
  0
SPLINE
  5
4E8
100
AcDbEntity
  8
IMPORT_IGES
100
AcDbSpline
 62
7
  6
CONTINUOUS
 70
0
 71
3
 72
33
 73
29
 74
0
 42
0.0000001
 43
0.0000001
 44
0.0000000001
 40
0.0
 40
0.0
 40
0.0
 40
0.0
 40
0.0034697848
 40
0.0066903323
 40
0.0110397857
 40
0.0231570882
 40
0.0397659949
 40
0.0607498469
 40
0.0859301068
 40
0.1150734935
 40
0.1479076305
 40
0.2233711994
 40
0.3094527475
 40
0.4028580945
 40
0.4999999759
 40
0.5971417504
 40
0.6905469442
 40
0.7766284203
 40
0.852091917
 40
0.8849260162
 40
0.914069455
 40
0.9392497908
 40
0.9602337167
 40
0.9768428412
 40
0.9889601779
 40
0.9933095633
 40
0.9965301067
 40
1.0
 40
1.0
 40
1.0
 40
1.0
 10
27.1503974306
 20
-91.6455515025
 30
0.0
 10
27.1503974306
 20
-91.638927121
 30
0.0
 10
27.1639988711
 20
-91.6300606317
 30
0.0
 10
27.1824123973
 20
-91.6227437619
 30
0.0
 10
27.219130255
 20
-91.6119488311
 30
0.0
 10
27.2807938652
 20
-91.6001848431
 30
0.0
 10
27.3749612568
 20
-91.5867625711
 30
0.0
 10
27.494059261
 20
-91.5739354899
 30
0.0
 10
27.6373357964
 20
-91.5615983041
 30
0.0
 10
27.8033282505
 20
-91.5500194833
 30
0.0
 10
28.0653053728
 20
-91.5350272081
 30
0.0
 10
28.4361046442
 20
-91.5195865025
 30
0.0
 10
28.9226759794
 20
-91.506259404
 30
0.0
 10
29.4507521709
 20
-91.4980339589
 30
0.0
 10
29.9999995445
 20
-91.4952490364
 30
0.0
 10
30.5492466257
 20
-91.4980339504
 30
0.0
 10
31.0773221836
 20
-91.5062593621
 30
0.0
 10
31.5638929514
 20
-91.5195864329
 30
0.0
 10
31.9346918777
 20
-91.5350270675
 30
0.0
 10
32.1966688915
 20
-91.5500193162
 30
0.0
 10
32.3626615197
 20
-91.5615980907
 30
0.0
 10
32.5059384501
 20
-91.573935239
 30
0.0
 10
32.6250371336
 20
-91.5867624563
 30
0.0
 10
32.7192051961
 20
-91.6001846123
 30
0.0
 10
32.7808691146
 20
-91.6119485821
 30
0.0
 10
32.8175869361
 20
-91.6227436726
 30
0.0
 10
32.8360002322
 20
-91.6300608876
 30
0.0
 10
32.849602579
 20
-91.6389269138
 30
0.0
 10
32.8496025694
 20
-91.6455515024
 30
0.0
  0
SPLINE
  5
4E9
100
AcDbEntity
  8
IMPORT_IGES
100
AcDbSpline
 62
250
  6
CONTINUOUS
 70
0
 71
3
 72
12
 73
8
 74
0
 42
0.0000001
 43
0.0000001
 44
0.0000000001
 40
0.0
 40
0.0
 40
0.0
 40
0.0
 40
0.1392160872
 40
0.2380454616
 40
0.3498271449
 40
0.6310045602
 40
1.0
 40
1.0
 40
1.0
 40
1.0
 10
60.0000212841
 20
-91.5226673527
 30
0.0
 10
60.0146402116
 20
-91.5199371628
 30
0.0
 10
60.032781498
 20
-91.4964140562
 30
0.0
 10
60.0476973622
 20
-91.4632830743
 30
0.0
 10
60.0640042171
 20
-91.412833752
 30
0.0
 10
60.0787004458
 20
-91.3327472789
 30
0.0
 10
60.0833725897
 20
-91.2632151434
 30
0.0
 10
60.0839671234
 20
-91.2238018875
 30
0.0
  0
SPLINE
  5
4EA
100
AcDbEntity
  8
IMPORT_IGES
100
AcDbSpline
 62
250
  6
CONTINUOUS
 70
0
 71
3
 72
14
 73
10
 74
0
 42
0.0000001
 43
0.0000001
 44
0.0000000001
 40
0.0
 40
0.0
 40
0.0
 40
0.0
 40
0.0389858606
 40
0.102166846
 40
0.1983288169
 40
0.3262843076
 40
0.480956431
 40
0.6519088805
 40
1.0
 40
1.0
 40
1.0
 40
1.0
 10
-43.2562071627
 20
118.0931763033
 30
0.0
 10
-43.2602941035
 20
118.0932039531
 30
0.0
 10
-43.2704432387
 20
118.0992730527
 30
0.0
 10
-43.2807768728
 20
118.1175143287
 30
0.0
 10
-43.2911854596
 20
118.1458606314
 30
0.0
 10
-43.3002699291
 20
118.1845908302
 30
0.0
 10
-43.3076470205
 20
118.2315905629
 30
0.0
 10
-43.314830142
 20
118.3018776913
 30
0.0
 10
-43.3167357001
 20
118.3563333082
 30
0.0
 10
-43.3167435692
 20
118.3928250088
 30
0.0
  0
SPLINE
  5
4EB
100
AcDbEntity
  8
IMPORT_IGES
100
AcDbSpline
 62
250
  6
CONTINUOUS
 70
0
 71
3
 72
12
 73
8
 74
0
 42
0.0000001
 43
0.0000001
 44
0.0000000001
 40
0.0
 40
0.0
 40
0.0
 40
0.0
 40
0.1392238184
 40
0.2380539029
 40
0.3498354175
 40
0.6310115927
 40
1.0
 40
1.0
 40
1.0
 40
1.0
 10
60.0000269919
 20
137.676040864
 30
0.0
 10
60.0146458783
 20
137.6733074027
 30
0.0
 10
60.0327843713
 20
137.6497834206
 30
0.0
 10
60.0476998891
 20
137.6166516638
 30
0.0
 10
60.0640054423
 20
137.5662031375
 30
0.0
 10
60.078700929
 20
137.4861188919
 30
0.0
 10
60.0833727863
 20
137.4165888967
 30
0.0
 10
60.0839673208
 20
137.3771770954
 30
0.0
  0
SPLINE
  5
4EC
100
AcDbEntity
  8
IMPORT_IGES
100
AcDbSpline
 62
7
  6
CONTINUOUS
 70
0
 71
3
 72
33
 73
29
 74
0
 42
0.0000001
 43
0.0000001
 44
0.0000000001
 40
0.0
 40
0.0
 40
0.0
 40
0.0
 40
0.0034697852
 40
0.0066903321
 40
0.0110397853
 40
0.0231570881
 40
0.0397659949
 40
0.0607498468
 40
0.0859301068
 40
0.1150734935
 40
0.1479076304
 40
0.2233711993
 40
0.3094527474
 40
0.4028580945
 40
0.4999999759
 40
0.5971417504
 40
0.6905469443
 40
0.7766284203
 40
0.852091917
 40
0.8849260163
 40
0.9140694551
 40
0.9392497909
 40
0.9602337167
 40
0.9768428413
 40
0.9889601783
 40
0.9933095635
 40
0.9965301063
 40
1.0
 40
1.0
 40
1.0
 40
1.0
 10
-27.1503974307
 20
-91.6455515025
 30
0.0
 10
-27.1503974402
 20
-91.6521758846
 30
0.0
 10
-27.1639988696
 20
-91.6610423712
 30
0.0
 10
-27.1824123987
 20
-91.6683592441
 30
0.0
 10
-27.2191302536
 20
-91.6791541736
 30
0.0
 10
-27.2807938654
 20
-91.6909181618
 30
0.0
 10
-27.3749612568
 20
-91.7043404338
 30
0.0
 10
-27.4940592613
 20
-91.7171675151
 30
0.0
 10
-27.6373357965
 20
-91.7295047008
 30
0.0
 10
-27.8033282507
 20
-91.7410835217
 30
0.0
 10
-28.0653053729
 20
-91.7560757968
 30
0.0
 10
-28.4361046444
 20
-91.7715165024
 30
0.0
 10
-28.9226759795
 20
-91.7848436009
 30
0.0
 10
-29.4507521709
 20
-91.7930690461
 30
0.0
 10
-29.9999995445
 20
-91.7958539685
 30
0.0
 10
-30.5492466256
 20
-91.7930690545
 30
0.0
 10
-31.0773221835
 20
-91.7848436429
 30
0.0
 10
-31.5638929512
 20
-91.7715165721
 30
0.0
 10
-31.9346918776
 20
-91.7560759374
 30
0.0
 10
-32.1966688913
 20
-91.7410836888
 30
0.0
 10
-32.3626615196
 20
-91.7295049142
 30
0.0
 10
-32.5059384498
 20
-91.717167766
 30
0.0
 10
-32.6250371335
 20
-91.7043405486
 30
0.0
 10
-32.7192051958
 20
-91.6909183927
 30
0.0
 10
-32.780869116
 20
-91.6791544226
 30
0.0
 10
-32.8175869346
 20
-91.6683593334
 30
0.0
 10
-32.8360002337
 20
-91.6610421153
 30
0.0
 10
-32.8496025693
 20
-91.6521760919
 30
0.0
 10
-32.8496025693
 20
-91.6455515025
 30
0.0
  0
SPLINE
  5
4ED
100
AcDbEntity
  8
IMPORT_IGES
100
AcDbSpline
 62
250
  6
CONTINUOUS
 70
0
 71
3
 72
12
 73
8
 74
0
 42
0.0000001
 43
0.0000001
 44
0.0000000001
 40
0.0
 40
0.0
 40
0.0
 40
0.0
 40
0.1392161303
 40
0.238045532
 40
0.3498272338
 40
0.6310045438
 40
1.0
 40
1.0
 40
1.0
 40
1.0
 10
-60.0000212742
 20
137.6760418892
 30
0.0
 10
-60.0146401774
 20
137.6733117098
 30
0.0
 10
-60.0327814522
 20
137.649788665
 30
0.0
 10
-60.0476973071
 20
137.6166577481
 30
0.0
 10
-60.0640041518
 20
137.566208544
 30
0.0
 10
-60.0787003864
 20
137.4861222485
 30
0.0
 10
-60.083372557
 20
137.4165902679
 30
0.0
 10
-60.0839671133
 20
137.3771770913
 30
0.0
  0
SPLINE
  5
4EE
100
AcDbEntity
  8
IMPORT_IGES
100
AcDbSpline
 62
250
  6
CONTINUOUS
 70
0
 71
3
 72
12
 73
8
 74
0
 42
0.0000001
 43
0.0000001
 44
0.0000000001
 40
0.0
 40
0.0
 40
0.0
 40
0.0
 40
0.1392291989
 40
0.2380597573
 40
0.3498411375
 40
0.6310166042
 40
1.0
 40
1.0
 40
1.0
 40
1.0
 10
-60.0000308736
 20
-91.5226656033
 30
0.0
 10
-60.0146497735
 20
-91.5199298206
 30
0.0
 10
-60.0327863227
 20
-91.4964051138
 30
0.0
 10
-60.0477016138
 20
-91.4632726954
 30
0.0
 10
-60.0640062686
 20
-91.4128245251
 30
0.0
 10
-60.0787012228
 20
-91.3327415471
 30
0.0
 10
-60.0833728339
 20
-91.2632127989
 30
0.0
 10
-60.0839673311
 20
-91.2238018895
 30
0.0
  0
SPLINE
  5
4EF
100
AcDbEntity
  8
IMPORT_IGES
100
AcDbSpline
 62
250
  6
CONTINUOUS
 70
0
 71
3
 72
15
 73
11
 74
0
 42
0.0000001
 43
0.0000001
 44
0.0000000001
 40
0.0
 40
0.0
 40
0.0
 40
0.0
 40
0.1276090536
 40
0.2546900127
 40
0.3809276439
 40
0.5061660163
 40
0.6304447925
 40
0.753948688
 40
0.8770494067
 40
1.0
 40
1.0
 40
1.0
 40
1.0
 10
65.9869172708
 20
-85.4233127261
 30
0.0
 10
65.9869089838
 20
-85.8144684534
 30
0.0
 10
65.9072191297
 20
-86.5974804069
 30
0.0
 10
65.5550178253
 20
-87.7187218236
 30
0.0
 10
64.9891831504
 20
-88.7408261124
 30
0.0
 10
64.2375563632
 20
-89.6235694719
 30
0.0
 10
63.3337984584
 20
-90.3359999328
 30
0.0
 10
62.3144351006
 20
-90.8557228009
 30
0.0
 10
61.2180126087
 20
-91.1665448083
 30
0.0
 10
60.4607405565
 20
-91.2287193472
 30
0.0
 10
60.0839077331
 20
-91.2229945405
 30
0.0
  0
SPLINE
  5
4F0
100
AcDbEntity
  8
IMPORT_IGES
100
AcDbSpline
 62
250
  6
CONTINUOUS
 70
0
 71
3
 72
11
 73
7
 74
0
 42
0.0000001
 43
0.0000001
 44
0.0000000001
 40
0.0
 40
0.0
 40
0.0
 40
0.0
 40
0.2474599911
 40
0.5000000025
 40
0.75254001
 40
1.0
 40
1.0
 40
1.0
 40
1.0
 10
59.999999996
 20
137.6762580198
 30
0.0
 10
50.1024085004
 20
137.5248934945
 30
0.0
 10
30.1027212119
 20
137.3006468793
 30
0.0
 10
-0.0000001541
 20
137.1895938437
 30
0.0
 10
-30.1027214752
 20
137.3006468877
 30
0.0
 10
-50.1024085682
 20
137.5248934755
 30
0.0
 10
-60.0000000188
 20
137.6762580165
 30
0.0
  0
SPLINE
  5
4F1
100
AcDbEntity
  8
IMPORT_IGES
100
AcDbSpline
 62
250
  6
CONTINUOUS
 70
0
 71
3
 72
11
 73
7
 74
0
 42
0.0000001
 43
0.0000001
 44
0.0000000001
 40
0.0
 40
0.0
 40
0.0
 40
0.0
 40
0.2474599958
 40
0.5000000024
 40
0.7525400052
 40
1.0
 40
1.0
 40
1.0
 40
1.0
 10
-59.999999996
 20
-91.5228828839
 30
0.0
 10
-50.1024083098
 20
-91.3715185308
 30
0.0
 10
-30.1027210234
 20
-91.1472720848
 30
0.0
 10
0.0000001488
 20
-91.036219176
 30
0.0
 10
30.1027212794
 20
-91.1472720848
 30
0.0
 10
50.1024083741
 20
-91.3715185214
 30
0.0
 10
60.0000000188
 20
-91.5228828759
 30
0.0
  0
SPLINE
  5
4F2
100
AcDbEntity
  8
IMPORT_IGES
100
AcDbSpline
 62
7
  6
CONTINUOUS
 70
0
 71
3
 72
33
 73
29
 74
0
 42
0.0000001
 43
0.0000001
 44
0.0000000001
 40
0.0
 40
0.0
 40
0.0
 40
0.0
 40
0.0034697852
 40
0.0066903321
 40
0.0110397853
 40
0.0231570881
 40
0.0397659949
 40
0.0607498468
 40
0.0859301068
 40
0.1150734935
 40
0.1479076304
 40
0.2233711993
 40
0.3094527474
 40
0.4028580945
 40
0.4999999759
 40
0.5971417504
 40
0.6905469443
 40
0.7766284203
 40
0.852091917
 40
0.8849260163
 40
0.9140694551
 40
0.9392497909
 40
0.9602337167
 40
0.9768428413
 40
0.9889601782
 40
0.9933095635
 40
0.9965301063
 40
1.0
 40
1.0
 40
1.0
 40
1.0
 10
32.8496025694
 20
-91.6455515024
 30
0.0
 10
32.8496025599
 20
-91.6521758847
 30
0.0
 10
32.8360011305
 20
-91.6610423712
 30
0.0
 10
32.8175876013
 20
-91.6683592441
 30
0.0
 10
32.7808697464
 20
-91.6791541736
 30
0.0
 10
32.7192061346
 20
-91.6909181618
 30
0.0
 10
32.6250387432
 20
-91.7043404338
 30
0.0
 10
32.5059407387
 20
-91.7171675151
 30
0.0
 10
32.3626642035
 20
-91.7295047008
 30
0.0
 10
32.1966717493
 20
-91.7410835217
 30
0.0
 10
31.9346946271
 20
-91.7560757968
 30
0.0
 10
31.5638953556
 20
-91.7715165024
 30
0.0
 10
31.0773240205
 20
-91.7848436009
 30
0.0
 10
30.5492478291
 20
-91.7930690461
 30
0.0
 10
30.0000004555
 20
-91.7958539685
 30
0.0
 10
29.4507533744
 20
-91.7930690545
 30
0.0
 10
28.9226778165
 20
-91.7848436429
 30
0.0
 10
28.4361070488
 20
-91.7715165721
 30
0.0
 10
28.0653081224
 20
-91.7560759374
 30
0.0
 10
27.8033311087
 20
-91.7410836887
 30
0.0
 10
27.6373384804
 20
-91.7295049142
 30
0.0
 10
27.4940615502
 20
-91.717167766
 30
0.0
 10
27.3749628664
 20
-91.7043405486
 30
0.0
 10
27.2807948042
 20
-91.6909183927
 30
0.0
 10
27.219130884
 20
-91.6791544226
 30
0.0
 10
27.1824130654
 20
-91.6683593334
 30
0.0
 10
27.1639997663
 20
-91.6610421152
 30
0.0
 10
27.1503974306
 20
-91.6521760919
 30
0.0
 10
27.1503974306
 20
-91.6455515025
 30
0.0
  0
SPLINE
  5
4F3
100
AcDbEntity
  8
IMPORT_IGES
100
AcDbSpline
 62
7
  6
CONTINUOUS
 70
0
 71
3
 72
11
 73
7
 74
0
 42
0.0000001
 43
0.0000001
 44
0.0000000001
 40
0.0
 40
0.0
 40
0.0
 40
0.0
 40
0.2474601347
 40
0.5000000092
 40
0.7525398765
 40
1.0
 40
1.0
 40
1.0
 40
1.0
 10
60.0839621444
 20
-91.2232928385
 30
0.0
 10
50.1725101854
 20
-91.0718549285
 30
0.0
 10
30.144826729
 20
-90.8477213763
 30
0.0
 10
-0.0000201659
 20
-90.7366111367
 30
0.0
 10
-30.1448666272
 20
-90.8477210425
 30
0.0
 10
-50.1725493123
 20
-91.0718568458
 30
0.0
 10
-60.0840008426
 20
-91.223293389
 30
0.0
  0
SPLINE
  5
4F4
100
AcDbEntity
  8
IMPORT_IGES
100
AcDbSpline
 62
250
  6
CONTINUOUS
 70
0
 71
3
 72
20
 73
16
 74
0
 42
0.0000001
 43
0.0000001
 44
0.0000000001
 40
0.0
 40
0.0
 40
0.0
 40
0.0
 40
0.0614014739
 40
0.1227845856
 40
0.1842123046
 40
0.2457136398
 40
0.3690217536
 40
0.4931595817
 40
0.6183505223
 40
0.6814392317
 40
0.74478419
 40
0.8083688395
 40
0.8721310866
 40
0.9360310191
 40
1.0
 40
1.0
 40
1.0
 40
1.0
 10
-60.0840008426
 20
-91.223293389
 30
0.0
 10
-60.2723643831
 20
-91.2244933874
 30
0.0
 10
-60.6494388004
 20
-91.2132865966
 30
0.0
 10
-61.2108220165
 20
-91.1405526553
 30
0.0
 10
-61.7625054608
 20
-91.0124637987
 30
0.0
 10
-62.4795786154
 20
-90.7718229171
 30
0.0
 10
-63.3300150188
 20
-90.3386301494
 30
0.0
 10
-64.234274536
 20
-89.6277281711
 30
0.0
 10
-64.8602646045
 20
-88.8928240406
 30
0.0
 10
-65.2689818966
 20
-88.2367248094
 30
0.0
 10
-65.5256678835
 20
-87.7121507871
 30
0.0
 10
-65.7289496636
 20
-87.1626175457
 30
0.0
 10
-65.8783090463
 20
-86.5942210107
 30
0.0
 10
-65.9681237068
 20
-86.0121422376
 30
0.0
 10
-65.9868464012
 20
-85.619556247
 30
0.0
 10
-65.9872634477
 20
-85.4233127327
 30
0.0
  0
SPLINE
  5
4F5
100
AcDbEntity
  8
IMPORT_IGES
100
AcDbSpline
 62
250
  6
CONTINUOUS
 70
0
 71
3
 72
15
 73
11
 74
0
 42
0.0000001
 43
0.0000001
 44
0.0000000001
 40
0.0
 40
0.0
 40
0.0
 40
0.0
 40
0.127609058
 40
0.2546900196
 40
0.3809276504
 40
0.50616602
 40
0.6304447925
 40
0.7539486852
 40
0.8770494065
 40
1.0
 40
1.0
 40
1.0
 40
1.0
 10
-65.9869172708
 20
131.5766872607
 30
0.0
 10
-65.9869089838
 20
131.967843822
 30
0.0
 10
-65.9072187879
 20
132.7508574486
 30
0.0
 10
-65.5550160011
 20
133.8721010384
 30
0.0
 10
-64.9891790264
 20
134.89420689
 30
0.0
 10
-64.2375493416
 20
135.7769509896
 30
0.0
 10
-63.3337881868
 20
136.4893812286
 30
0.0
 10
-62.3144214787
 20
137.0091028519
 30
0.0
 10
-61.217995814
 20
137.3199225315
 30
0.0
 10
-60.460721948
 20
137.3820948615
 30
0.0
 10
-60.0838883525
 20
137.3763687807
 30
0.0
  0
SPLINE
  5
4F6
100
AcDbEntity
  8
IMPORT_IGES
100
AcDbSpline
 62
250
  6
CONTINUOUS
 70
0
 71
3
 72
13
 73
9
 74
0
 42
0.0000001
 43
0.0000001
 44
0.0000000001
 40
0.0
 40
0.0
 40
0.0
 40
0.0
 40
0.0478279839
 40
0.1222739836
 40
0.221614502
 40
0.3359934883
 40
0.6182423488
 40
1.0
 40
1.0
 40
1.0
 40
1.0
 10
-43.2562118781
 20
-71.9398175151
 30
0.0
 10
-43.2612290174
 20
-71.9398178113
 30
0.0
 10
-43.2728833609
 20
-71.9485269183
 30
0.0
 10
-43.2829232581
 20
-71.9692969816
 30
0.0
 10
-43.2926849014
 20
-71.998088354
 30
0.0
 10
-43.3039581698
 20
-72.0488952797
 30
0.0
 10
-43.3140237783
 20
-72.1300955019
 30
0.0
 10
-43.3167418657
 20
-72.1997748311
 30
0.0
 10
-43.3167410381
 20
-72.2398210795
 30
0.0
  0
SPLINE
  5
4F7
100
AcDbEntity
  8
IMPORT_IGES
100
AcDbSpline
 62
7
  6
CONTINUOUS
 70
0
 71
3
 72
11
 73
7
 74
0
 42
0.0000001
 43
0.0000001
 44
0.0000000001
 40
0.0
 40
0.0
 40
0.0
 40
0.0
 40
0.2474601373
 40
0.500000011
 40
0.7525398767
 40
1.0
 40
1.0
 40
1.0
 40
1.0
 10
-60.0839427547
 20
137.3766676573
 30
0.0
 10
-50.1724930206
 20
137.2252296249
 30
0.0
 10
-30.1448141914
 20
137.001096112
 30
0.0
 10
0.0000256333
 20
136.8899858204
 30
0.0
 10
30.1448649149
 20
137.0010958405
 30
0.0
 10
50.1725428251
 20
137.2252317085
 30
0.0
 10
60.0839920213
 20
137.3766683536
 30
0.0
  0
SPLINE
  5
4F8
100
AcDbEntity
  8
IMPORT_IGES
100
AcDbSpline
 62
250
  6
CONTINUOUS
 70
0
 71
3
 72
20
 73
16
 74
0
 42
0.0000001
 43
0.0000001
 44
0.0000000001
 40
0.0
 40
0.0
 40
0.0
 40
0.0
 40
0.0614014765
 40
0.1227845882
 40
0.184212308
 40
0.2457136428
 40
0.3690217549
 40
0.4931595807
 40
0.6183505194
 40
0.6814392285
 40
0.7447841868
 40
0.8083688366
 40
0.8721310846
 40
0.936031018
 40
1.0
 40
1.0
 40
1.0
 40
1.0
 10
60.0839920213
 20
137.3766683536
 30
0.0
 10
60.2723557513
 20
137.377868176
 30
0.0
 10
60.6494305196
 20
137.3666617252
 30
0.0
 10
61.2108144078
 20
137.2939286231
 30
0.0
 10
61.7624985372
 20
137.1658402938
 30
0.0
 10
62.4795726699
 20
136.9252000638
 30
0.0
 10
63.3300103364
 20
136.4920077556
 30
0.0
 10
64.2342713306
 20
135.7811058858
 30
0.0
 10
64.8602625003
 20
135.0462014781
 30
0.0
 10
65.2689805308
 20
134.3901018406
 30
0.0
 10
65.5256670054
 20
133.8655274312
 30
0.0
 10
65.7289491622
 20
133.3159937245
 30
0.0
 10
65.8783088308
 20
132.7475966743
 30
0.0
 10
65.9681236702
 20
132.165517347
 30
0.0
 10
65.9868464008
 20
131.7729309731
 30
0.0
 10
65.9872634477
 20
131.5766872673
 30
0.0
  0
SPLINE
  5
4F9
100
AcDbEntity
  8
IMPORT_IGES
100
AcDbSpline
 62
250
  6
CONTINUOUS
 70
0
 71
3
 72
17
 73
13
 74
0
 42
0.0000001
 43
0.0000001
 44
0.0000000001
 40
0.0
 40
0.0
 40
0.0
 40
0.0
 40
0.1237906093
 40
0.2476659737
 40
0.3718113617
 40
0.4963987552
 40
0.6215250996
 40
0.7471977078
 40
0.8102901421
 40
0.8734729734
 40
0.9367192666
 40
1.0
 40
1.0
 40
1.0
 40
1.0
 10
43.316743601
 20
-72.23979447
 30
0.0
 10
43.6415408614
 20
-72.2397964204
 30
0.0
 10
44.2931752931
 20
-72.1767438805
 30
0.0
 10
45.2330604713
 20
-71.8943230164
 30
0.0
 10
46.1034402359
 20
-71.4355296139
 30
0.0
 10
46.8701552341
 20
-70.8136278771
 30
0.0
 10
47.5042775833
 20
-70.051903855
 30
0.0
 10
47.8989877419
 20
-69.3223168066
 30
0.0
 10
48.1242678836
 20
-68.6999261212
 30
0.0
 10
48.2475699969
 20
-68.2173153983
 30
0.0
 10
48.3218543423
 20
-67.7243173093
 30
0.0
 10
48.338015331
 20
-67.3920876777
 30
0.0
 10
48.3380189292
 20
-67.2260540105
 30
0.0
  0
SPLINE
  5
4FA
100
AcDbEntity
  8
IMPORT_IGES
100
AcDbSpline
 62
250
  6
CONTINUOUS
 70
0
 71
3
 72
14
 73
10
 74
0
 42
0.0000001
 43
0.0000001
 44
0.0000000001
 40
0.0
 40
0.0
 40
0.0
 40
0.0
 40
0.0389858606
 40
0.1021668461
 40
0.1983288172
 40
0.3262843081
 40
0.4809564315
 40
0.6519088811
 40
1.0
 40
1.0
 40
1.0
 40
1.0
 10
43.2562071626
 20
-71.9398017686
 30
0.0
 10
43.2602941036
 20
-71.9398294184
 30
0.0
 10
43.2704432387
 20
-71.9458985181
 30
0.0
 10
43.2807768729
 20
-71.9641397942
 30
0.0
 10
43.2911854597
 20
-71.992486097
 30
0.0
 10
43.3002699292
 20
-72.0312162961
 30
0.0
 10
43.3076470206
 20
-72.078216029
 30
0.0
 10
43.3148301421
 20
-72.1485031577
 30
0.0
 10
43.3167357002
 20
-72.2029587747
 30
0.0
 10
43.3167435692
 20
-72.2394504755
 30
0.0
  0
SPLINE
  5
4FB
100
AcDbEntity
  8
IMPORT_IGES
100
AcDbSpline
 62
250
  6
CONTINUOUS
 70
0
 71
3
 72
17
 73
13
 74
0
 42
0.0000001
 43
0.0000001
 44
0.0000000001
 40
0.0
 40
0.0
 40
0.0
 40
0.0
 40
0.0632808933
 40
0.1265275744
 40
0.2526506574
 40
0.3783233497
 40
0.5034507192
 40
0.6280392567
 40
0.7521845995
 40
0.8760609398
 40
0.9380275256
 40
1.0
 40
1.0
 40
1.0
 40
1.0
 10
48.3380189292
 20
113.3794285457
 30
0.0
 10
48.3380155321
 20
113.5454616852
 30
0.0
 10
48.3218551149
 20
113.8777261515
 30
0.0
 10
48.2228148809
 20
114.5340678765
 30
0.0
 10
47.9778991915
 20
115.3297048324
 30
0.0
 10
47.5043276178
 20
116.2051102192
 30
0.0
 10
46.870147726
 20
116.9670375276
 30
0.0
 10
46.1034359356
 20
117.5889457338
 30
0.0
 10
45.2332059551
 20
118.0476429911
 30
0.0
 10
44.4488970879
 20
118.2830229161
 30
0.0
 10
43.8047982053
 20
118.3777611056
 30
0.0
 10
43.4793442289
 20
118.393165232
 30
0.0
 10
43.3167440514
 20
118.3931690047
 30
0.0
  0
SPLINE
  5
4FC
100
AcDbEntity
  8
IMPORT_IGES
100
AcDbSpline
 62
250
  6
CONTINUOUS
 70
0
 71
3
 72
13
 73
9
 74
0
 42
0.0000001
 43
0.0000001
 44
0.0000000001
 40
0.0
 40
0.0
 40
0.0
 40
0.0
 40
0.0478279839
 40
0.1222739836
 40
0.2216145021
 40
0.3359934884
 40
0.6182423488
 40
1.0
 40
1.0
 40
1.0
 40
1.0
 10
43.2562118781
 20
118.0931920498
 30
0.0
 10
43.2612290174
 20
118.093192346
 30
0.0
 10
43.2728833609
 20
118.101901453
 30
0.0
 10
43.2829232581
 20
118.1226715163
 30
0.0
 10
43.2926849014
 20
118.1514628887
 30
0.0
 10
43.3039581698
 20
118.2022698144
 30
0.0
 10
43.3140237783
 20
118.2834700366
 30
0.0
 10
43.3167418657
 20
118.3531493658
 30
0.0
 10
43.3167410381
 20
118.3931956142
 30
0.0
  0
SPLINE
  5
4FD
100
AcDbEntity
  8
IMPORT_IGES
100
AcDbSpline
 62
250
  6
CONTINUOUS
 70
0
 71
3
 72
17
 73
13
 74
0
 42
0.0000001
 43
0.0000001
 44
0.0000000001
 40
0.0
 40
0.0
 40
0.0
 40
0.0
 40
0.0632805201
 40
0.1265268688
 40
0.2526497312
 40
0.3783226786
 40
0.5034507055
 40
0.6280400979
 40
0.7521861238
 40
0.8760627456
 40
0.9380295706
 40
1.0
 40
1.0
 40
1.0
 40
1.0
 10
-48.3380189292
 20
-67.2260540111
 30
0.0
 10
-48.3380155343
 20
-67.3919832343
 30
0.0
 10
-48.3218753348
 20
-67.7240394585
 30
0.0
 10
-48.2229599236
 20
-68.3799802978
 30
0.0
 10
-47.9783436121
 20
-69.1751610855
 30
0.0
 10
-47.5053418709
 20
-70.05016499
 30
0.0
 10
-46.8718849012
 20
-70.8118941402
 30
0.0
 10
-46.1059911225
 20
-71.4338223875
 30
0.0
 10
-45.2366178825
 20
-71.8928756933
 30
0.0
 10
-44.4529690319
 20
-72.128559124
 30
0.0
 10
-43.8093887887
 20
-72.224144445
 30
0.0
 10
-43.4841187844
 20
-72.2393185549
 30
0.0
 10
-43.3216247785
 20
-72.2393222178
 30
0.0
  0
SPLINE
  5
4FE
100
AcDbEntity
  8
IMPORT_IGES
100
AcDbSpline
 62
250
  6
CONTINUOUS
 70
0
 71
3
 72
20
 73
16
 74
0
 42
0.0000001
 43
0.0000001
 44
0.0000000001
 40
0.0
 40
0.0
 40
0.0
 40
0.0
 40
0.0260853749
 40
0.0544228544
 40
0.0870155937
 40
0.1249408178
 40
0.1688874699
 40
0.2190385108
 40
0.2754534953
 40
0.3379464881
 40
0.4799735124
 40
0.6414485699
 40
0.7278873286
 40
0.8170063965
 40
1.0
 40
1.0
 40
1.0
 40
1.0
 10
-191.8265182523
 20
137.3766683536
 30
0.0
 10
-191.7709441203
 20
137.3778815116
 30
0.0
 10
-191.6536333143
 20
137.3651650387
 30
0.0
 10
-191.4827171128
 20
137.2867046501
 30
0.0
 10
-191.3172658718
 20
137.1540401518
 30
0.0
 10
-191.1555040293
 20
136.9702560669
 30
0.0
 10
-190.9991768147
 20
136.7355999883
 30
0.0
 10
-190.8484017178
 20
136.4520507654
 30
0.0
 10
-190.7053908164
 20
136.1210396766
 30
0.0
 10
-190.5185392373
 20
135.5969931201
 30
0.0
 10
-190.3206161112
 20
134.8411325624
 30
0.0
 10
-190.1783530914
 20
134.0216330835
 30
0.0
 10
-190.093984413
 20
133.3082708729
 30
0.0
 10
-190.0296580909
 20
132.5467981554
 30
0.0
 10
-190.0116321605
 20
131.9666426011
 30
0.0
 10
-190.0113642279
 20
131.5766872673
 30
0.0
  0
SPLINE
  5
4FF
100
AcDbEntity
  8
IMPORT_IGES
100
AcDbSpline
 62
250
  6
CONTINUOUS
 70
0
 71
3
 72
10
 73
6
 74
0
 42
0.0000001
 43
0.0000001
 44
0.0000000001
 40
0.0
 40
0.0
 40
0.0
 40
0.0
 40
0.1932080165
 40
0.5398498369
 40
1.0
 40
1.0
 40
1.0
 40
1.0
 10
-195.9942393651
 20
-72.23979447
 30
0.0
 10
-195.9651345551
 20
-72.2397953176
 30
0.0
 10
-195.8832745811
 20
-72.2223856095
 30
0.0
 10
-195.7608651341
 20
-72.1270200333
 30
0.0
 10
-195.6892219466
 20
-72.028141098
 30
0.0
 10
-195.6523953057
 20
-71.9694160367
 30
0.0
  0
SPLINE
  5
500
100
AcDbEntity
  8
IMPORT_IGES
100
AcDbSpline
 62
250
  6
CONTINUOUS
 70
0
 71
3
 72
14
 73
10
 74
0
 42
0.0000001
 43
0.0000001
 44
0.0000000001
 40
0.0
 40
0.0
 40
0.0
 40
0.0
 40
0.0737064816
 40
0.1656224753
 40
0.2746795231
 40
0.3991352961
 40
0.5368119749
 40
0.6849859348
 40
1.0
 40
1.0
 40
1.0
 40
1.0
 10
-195.6143865763
 20
-71.9052345916
 30
0.0
 10
-195.5582750212
 20
-71.8051564371
 30
0.0
 10
-195.4537542053
 20
-71.5683548862
 30
0.0
 10
-195.3225309999
 20
-71.1610508724
 30
0.0
 10
-195.2030524535
 20
-70.6683510306
 30
0.0
 10
-195.0987777836
 20
-70.0997961652
 30
0.0
 10
-195.0131664659
 20
-69.4666348514
 30
0.0
 10
-194.9258105128
 20
-68.5352197945
 30
0.0
 10
-194.8984164602
 20
-67.8139067782
 30
0.0
 10
-194.8962372307
 20
-67.3235453719
 30
0.0
  0
SPLINE
  5
501
100
AcDbEntity
  8
IMPORT_IGES
100
AcDbSpline
 62
250
  6
CONTINUOUS
 70
0
 71
3
 72
14
 73
10
 74
0
 42
0.0000001
 43
0.0000001
 44
0.0000000001
 40
0.0
 40
0.0
 40
0.0
 40
0.0
 40
0.3176406285
 40
0.4667189212
 40
0.6048445613
 40
0.7292195131
 40
0.8375884839
 40
0.9281910196
 40
1.0
 40
1.0
 40
1.0
 40
1.0
 10
-194.8962325834
 20
113.4760569646
 30
0.0
 10
-194.8984302813
 20
113.9751477295
 30
0.0
 10
-194.926655999
 20
114.7087991993
 30
0.0
 10
-195.0170152331
 20
115.6550409813
 30
0.0
 10
-195.1054602769
 20
116.2958980911
 30
0.0
 10
-195.2129353951
 20
116.868879175
 30
0.0
 10
-195.335888421
 20
117.3622952438
 30
0.0
 10
-195.4704824121
 20
117.7662976563
 30
0.0
 10
-195.5781577914
 20
117.9989857759
 30
0.0
 10
-195.6359767087
 20
118.095875875
 30
0.0
  0
SPLINE
  5
502
100
AcDbEntity
  8
IMPORT_IGES
100
AcDbSpline
 62
250
  6
CONTINUOUS
 70
0
 71
3
 72
11
 73
7
 74
0
 42
0.0000001
 43
0.0000001
 44
0.0000000001
 40
0.0
 40
0.0
 40
0.0
 40
0.0
 40
0.3194347459
 40
0.5852728884
 40
0.8062596109
 40
1.0
 40
1.0
 40
1.0
 40
1.0
 10
-195.6569436377
 20
118.1299310197
 30
0.0
 10
-195.6823263067
 20
118.1698574867
 30
0.0
 10
-195.7326821817
 20
118.2407742002
 30
0.0
 10
-195.8169305649
 20
118.3263923724
 30
0.0
 10
-195.9037042581
 20
118.3803462921
 30
0.0
 10
-195.9655442136
 20
118.3931657757
 30
0.0
 10
-195.9942392723
 20
118.3931690047
 30
0.0
  0
SPLINE
  5
503
100
AcDbEntity
  8
IMPORT_IGES
100
AcDbSpline
 62
250
  6
CONTINUOUS
 70
0
 71
3
 72
11
 73
7
 74
0
 42
0.0000001
 43
0.0000001
 44
0.0000000001
 40
0.0
 40
0.0
 40
0.0
 40
0.0
 40
0.2478449664
 40
0.5074481353
 40
0.7633318916
 40
1.0
 40
1.0
 40
1.0
 40
1.0
 10
-195.7523063804
 20
-71.9445179273
 30
0.0
 10
-195.7857698925
 20
-71.950620881
 30
0.0
 10
-195.8525350159
 20
-71.9758347323
 30
0.0
 10
-195.9330778455
 20
-72.0462732906
 30
0.0
 10
-195.983256982
 20
-72.1388971714
 30
0.0
 10
-195.994202588
 20
-72.2069689865
 30
0.0
 10
-195.9942391722
 20
-72.2394504755
 30
0.0
  0
SPLINE
  5
504
100
AcDbEntity
  8
IMPORT_IGES
100
AcDbSpline
 62
250
  6
CONTINUOUS
 70
0
 71
3
 72
19
 73
15
 74
0
 42
0.0000001
 43
0.0000001
 44
0.0000000001
 40
0.0
 40
0.0
 40
0.0
 40
0.0
 40
0.1827226657
 40
0.3580258623
 40
0.5193642683
 40
0.6614117405
 40
0.723991236
 40
0.7804829627
 40
0.8307340857
 40
0.8747422921
 40
0.9127724407
 40
0.9454354842
 40
0.9738920703
 40
1.0
 40
1.0
 40
1.0
 40
1.0
 10
-190.0112563349
 20
-85.4233127261
 30
0.0
 10
-190.0112589286
 20
-85.8126636394
 30
0.0
 10
-190.0359675454
 20
-86.5757965803
 30
0.0
 10
-190.1453483269
 20
-87.6779328238
 30
0.0
 10
-190.3196443837
 20
-88.6838759289
 30
0.0
 10
-190.5174499006
 20
-89.4396377044
 30
0.0
 10
-190.7039164409
 20
-89.9642006517
 30
0.0
 10
-190.8470481585
 20
-90.2957335234
 30
0.0
 10
-190.997656615
 20
-90.5799388603
 30
0.0
 10
-191.1543775037
 20
-90.8149711329
 30
0.0
 10
-191.3159974562
 20
-90.9995308818
 30
0.0
 10
-191.4822266348
 20
-91.132348167
 30
0.0
 10
-191.6528860326
 20
-91.2114711396
 30
0.0
 10
-191.7707686577
 20
-91.2258870042
 30
0.0
 10
-191.8263249688
 20
-91.2229945405
 30
0.0
  0
SPLINE
  5
505
100
AcDbEntity
  8
IMPORT_IGES
100
AcDbSpline
 62
250
  6
CONTINUOUS
 70
0
 71
3
 72
11
 73
7
 74
0
 42
0.0000001
 43
0.0000001
 44
0.0000000001
 40
0.0
 40
0.0
 40
0.0
 40
0.0
 40
0.2609188417
 40
0.4905661127
 40
0.7278862542
 40
1.0
 40
1.0
 40
1.0
 40
1.0
 10
-195.7756032274
 20
118.103152189
 30
0.0
 10
-195.8082298954
 20
118.1119669325
 30
0.0
 10
-195.8671161574
 20
118.1397569349
 30
0.0
 10
-195.9360115148
 20
118.2060878564
 30
0.0
 10
-195.9825374007
 20
118.2913829292
 30
0.0
 10
-195.9942452057
 20
118.3579491174
 30
0.0
 10
-195.9942446408
 20
118.3931956142
 30
0.0
  0
SPLINE
  5
506
100
AcDbEntity
  8
IMPORT_IGES
100
AcDbSpline
 62
250
  6
CONTINUOUS
 70
0
 71
3
 72
19
 73
15
 74
0
 42
0.0000001
 43
0.0000001
 44
0.0000000001
 40
0.0
 40
0.0
 40
0.0
 40
0.0
 40
0.1837361153
 40
0.3600658387
 40
0.5222936065
 40
0.6649598764
 40
0.7276956516
 40
0.7842210288
 40
0.8343487363
 40
0.8780618626
 40
0.9155830308
 40
0.9475012317
 40
0.9749832185
 40
1.0
 40
1.0
 40
1.0
 40
1.0
 10
-189.7416134808
 20
-85.423312729
 30
0.0
 10
-189.7416160499
 20
-85.8320430832
 30
0.0
 10
-189.7662402484
 20
-86.6332553492
 30
0.0
 10
-189.8752893274
 20
-87.7908285267
 30
0.0
 10
-190.0491566584
 20
-88.8480102175
 30
0.0
 10
-190.2465740564
 20
-89.6430263436
 30
0.0
 10
-190.4328964599
 20
-90.1954273936
 30
0.0
 10
-190.5757914793
 20
-90.5444240203
 30
0.0
 10
-190.7261720286
 20
-90.8436697098
 30
0.0
 10
-190.8825829109
 20
-91.0912152718
 30
0.0
 10
-191.0438402243
 20
-91.2856817783
 30
0.0
 10
-191.2095511977
 20
-91.4259831093
 30
0.0
 10
-191.3801003408
 20
-91.5102386179
 30
0.0
 10
-191.4986414929
 20
-91.5257832944
 30
0.0
 10
-191.5542168488
 20
-91.5228806446
 30
0.0
  0
SPLINE
  5
507
100
AcDbEntity
  8
IMPORT_IGES
100
AcDbSpline
 62
250
  6
CONTINUOUS
 70
0
 71
3
 72
11
 73
7
 74
0
 42
0.0000001
 43
0.0000001
 44
0.0000000001
 40
0.0
 40
0.0
 40
0.0
 40
0.0
 40
0.2612101605
 40
0.4935297684
 40
0.7290787977
 40
1.0
 40
1.0
 40
1.0
 40
1.0
 10
-191.5542792803
 20
-91.5226673527
 30
0.0
 10
-191.5928264218
 20
-91.5205607291
 30
0.0
 10
-191.665855991
 20
-91.5012560536
 30
0.0
 10
-191.7528226781
 20
-91.4338810676
 30
0.0
 10
-191.8121666734
 20
-91.339678876
 30
0.0
 10
-191.8263342494
 20
-91.2638417502
 30
0.0
 10
-191.826305754
 20
-91.2238018875
 30
0.0
  0
SPLINE
  5
508
100
AcDbEntity
  8
IMPORT_IGES
100
AcDbSpline
 62
250
  6
CONTINUOUS
 70
0
 71
3
 72
19
 73
15
 74
0
 42
0.0000001
 43
0.0000001
 44
0.0000000001
 40
0.0
 40
0.0
 40
0.0
 40
0.0
 40
0.0250168778
 40
0.052499063
 40
0.0844167049
 40
0.1219377094
 40
0.1656512324
 40
0.2157790927
 40
0.2723043009
 40
0.3350401054
 40
0.4777062643
 40
0.6399340683
 40
0.816263767
 40
1.0
 40
1.0
 40
1.0
 40
1.0
 10
-191.5542167095
 20
137.6762551865
 30
0.0
 10
-191.498641517
 20
137.6791645779
 30
0.0
 10
-191.3800996316
 20
137.6636085458
 30
0.0
 10
-191.2095495526
 20
137.5793611971
 30
0.0
 10
-191.0438431666
 20
137.439053976
 30
0.0
 10
-190.8825891283
 20
137.2445872542
 30
0.0
 10
-190.7261705619
 20
136.997045712
 30
0.0
 10
-190.5757850538
 20
136.6978012667
 30
0.0
 10
-190.4328999327
 20
136.3488008049
 30
0.0
 10
-190.2465695281
 20
135.7964033787
 30
0.0
 10
-190.0491758688
 20
135.0013816455
 30
0.0
 10
-189.8752851797
 20
133.9442048338
 30
0.0
 10
-189.766271927
 20
132.7866281064
 30
0.0
 10
-189.7416243473
 20
131.9854176978
 30
0.0
 10
-189.7416134989
 20
131.5766872671
 30
0.0
  0
SPLINE
  5
509
100
AcDbEntity
  8
IMPORT_IGES
100
AcDbSpline
 62
250
  6
CONTINUOUS
 70
0
 71
3
 72
11
 73
7
 74
0
 42
0.0000001
 43
0.0000001
 44
0.0000000001
 40
0.0
 40
0.0
 40
0.0
 40
0.0
 40
0.2612081721
 40
0.4935258972
 40
0.7290773679
 40
1.0
 40
1.0
 40
1.0
 40
1.0
 10
-191.5542979803
 20
137.676040864
 30
0.0
 10
-191.5928430285
 20
137.6739318175
 30
0.0
 10
-191.6658675052
 20
137.6546239419
 30
0.0
 10
-191.7528277239
 20
137.5872491695
 30
0.0
 10
-191.8121674705
 20
137.4930497754
 30
0.0
 10
-191.8263341044
 20
137.4172154436
 30
0.0
 10
-191.8263056939
 20
137.3771770954
 30
0.0
  0
SPLINE
  5
50A
100
AcDbEntity
  8
IMPORT_IGES
100
AcDbSpline
 62
7
  6
CONTINUOUS
 70
0
 71
3
 72
19
 73
15
 74
0
 42
0.0000001
 43
0.0000001
 44
0.0000000001
 40
0.0
 40
0.0
 40
0.0
 40
0.0
 40
0.1306256337
 40
0.1957740351
 40
0.2607131249
 40
0.3253779251
 40
0.3897046703
 40
0.5170835804
 40
0.6423169884
 40
0.7039672597
 40
0.7648911303
 40
0.8250239918
 40
0.8842983691
 40
1.0
 40
1.0
 40
1.0
 40
1.0
 10
-176.9135152541
 20
113.579428555
 30
0.0
 10
-176.9175280526
 20
113.8989255761
 30
0.0
 10
-176.9247378498
 20
114.3777648742
 30
0.0
 10
-176.9416006043
 20
115.015277148
 30
0.0
 10
-176.9574967907
 20
115.4913943496
 30
0.0
 10
-176.9730060703
 20
115.9655142138
 30
0.0
 10
-176.9884250955
 20
116.5924396624
 30
0.0
 10
-176.9961148149
 20
117.3677051176
 30
0.0
 10
-176.9906771286
 20
118.1364549072
 30
0.0
 10
-176.975806837
 20
118.7424471007
 30
0.0
 10
-176.9600097418
 20
119.1890892406
 30
0.0
 10
-176.9434433711
 20
119.6298843524
 30
0.0
 10
-176.9259097061
 20
120.2047222816
 30
0.0
 10
-176.9180886278
 20
120.6326699393
 30
0.0
 10
-176.9135159012
 20
120.9156497434
 30
0.0
  0
SPLINE
  5
50B
100
AcDbEntity
  8
IMPORT_IGES
100
AcDbSpline
 62
7
  6
CONTINUOUS
 70
0
 71
3
 72
19
 73
15
 74
0
 42
0.0000001
 43
0.0000001
 44
0.0000000001
 40
0.0
 40
0.0
 40
0.0
 40
0.0
 40
0.151743598
 40
0.2252268627
 40
0.2970037181
 40
0.3669974706
 40
0.4351332697
 40
0.5655603387
 40
0.6877557413
 40
0.7456256707
 40
0.8012693448
 40
0.8546053525
 40
0.9055451284
 40
1.0
 40
1.0
 40
1.0
 40
1.0
 10
-176.9135158296
 20
121.0077027065
 30
0.0
 10
-176.9182490245
 20
121.2829665439
 30
0.0
 10
-176.9263434053
 20
121.6915276207
 30
0.0
 10
-176.9453090347
 20
122.2300520675
 30
0.0
 10
-176.9630161171
 20
122.620181505
 30
0.0
 10
-176.9801887944
 20
123.000623797
 30
0.0
 10
-176.9966942454
 20
123.4875942053
 30
0.0
 10
-177.0042661113
 20
124.0695529006
 30
0.0
 10
-176.9973933977
 20
124.6329222135
 30
0.0
 10
-176.9806006828
 20
125.0602582902
 30
0.0
 10
-176.9635924823
 20
125.3624975302
 30
0.0
 10
-176.9459121199
 20
125.6520955933
 30
0.0
 10
-176.9274351657
 20
126.0121836128
 30
0.0
 10
-176.9186455409
 20
126.2758388008
 30
0.0
 10
-176.9135161774
 20
126.4471290749
 30
0.0
  0
SPLINE
  5
50C
100
AcDbEntity
  8
IMPORT_IGES
100
AcDbSpline
 62
7
  6
CONTINUOUS
 70
0
 71
3
 72
21
 73
17
 74
0
 42
0.0000001
 43
0.0000001
 44
0.0000000001
 40
0.0
 40
0.0
 40
0.0
 40
0.0
 40
0.2287912974
 40
0.3326275931
 40
0.4292947877
 40
0.5186192096
 40
0.6004182001
 40
0.7411949421
 40
0.8514820477
 40
0.8953659015
 40
0.9318653893
 40
0.9607773855
 40
0.9817018568
 40
0.9945547405
 40
0.9980850846
 40
1.0
 40
1.0
 40
1.0
 40
1.0
 10
-176.9135162744
 20
126.499828777
 30
0.0
 10
-176.9177724768
 20
126.6485531112
 30
0.0
 10
-176.9248639645
 20
126.8647854601
 30
0.0
 10
-176.9427621326
 20
127.1434135609
 30
0.0
 10
-176.9591505874
 20
127.3311844701
 30
0.0
 10
-176.9750065255
 20
127.5046071999
 30
0.0
 10
-176.9895070382
 20
127.7069477821
 30
0.0
 10
-176.9960815917
 20
127.9233739752
 30
0.0
 10
-176.9903833054
 20
128.1154161427
 30
0.0
 10
-176.9743832513
 20
128.2385154042
 30
0.0
 10
-176.9593853087
 20
128.3080353335
 30
0.0
 10
-176.9438410598
 20
128.3621027053
 30
0.0
 10
-176.9314158704
 20
128.4007120625
 30
0.0
 10
-176.9230980142
 20
128.4239074574
 30
0.0
 10
-176.9177436413
 20
128.4341777748
 30
0.0
 10
-176.9147604592
 20
128.4369070186
 30
0.0
 10
-176.9135152541
 20
128.4369214095
 30
0.0
  0
ELLIPSE
  5
50D
100
AcDbEntity
  8
IMPORT_IGES
100
AcDbEllipse
 62
7
  6
CONTINUOUS
 10
41.2380624381
 20
-65.4113751708
 30
0.0
 11
0.9128709292
 21
-0.9128709292
 31
0.0
 40
0.7745966692
 41
-0.6590580358
 42
0.6590580358
  0
ELLIPSE
  5
50E
100
AcDbEntity
  8
IMPORT_IGES
100
AcDbEllipse
 62
7
  6
CONTINUOUS
 10
-41.2380624381
 20
111.5647497055
 30
0.0
 11
-0.9128709292
 21
0.9128709292
 31
0.0
 40
0.7745966692
 41
-0.6590580358
 42
0.6590580358
  0
ELLIPSE
  5
50F
100
AcDbEntity
  8
IMPORT_IGES
100
AcDbEllipse
 62
7
  6
CONTINUOUS
 10
-41.2380624381
 20
-65.4113751708
 30
0.0
 11
-0.9128709292
 21
-0.9128709292
 31
0.0
 40
0.7745966692
 41
-0.6590580358
 42
0.6590580358
  0
ELLIPSE
  5
510
100
AcDbEntity
  8
IMPORT_IGES
100
AcDbEllipse
 62
7
  6
CONTINUOUS
 10
-43.9804762168
 20
-68.1537889494
 30
0.0
 11
0.9128709292
 21
0.9128709292
 31
0.0
 40
0.7745966692
 41
-3.8006506894
 42
-2.4825346178
  0
ELLIPSE
  5
511
100
AcDbEntity
  8
IMPORT_IGES
100
AcDbEllipse
 62
7
  6
CONTINUOUS
 10
43.9804762168
 20
-68.1537889494
 30
0.0
 11
0.9128709292
 21
-0.9128709292
 31
0.0
 40
0.7745966692
 41
-0.6590580358
 42
0.6590580358
  0
ELLIPSE
  5
512
100
AcDbEntity
  8
IMPORT_IGES
100
AcDbEllipse
 62
7
  6
CONTINUOUS
 10
41.2380624381
 20
111.5647497055
 30
0.0
 11
0.9128709292
 21
0.9128709292
 31
0.0
 40
0.7745966692
 41
-0.6590580358
 42
0.6590580358
  0
ELLIPSE
  5
513
100
AcDbEntity
  8
IMPORT_IGES
100
AcDbEllipse
 62
7
  6
CONTINUOUS
 10
43.9804762168
 20
114.3071634841
 30
0.0
 11
0.9128709292
 21
0.9128709292
 31
0.0
 40
0.7745966692
 41
-0.6590580358
 42
0.6590580358
  0
ELLIPSE
  5
514
100
AcDbEntity
  8
IMPORT_IGES
100
AcDbEllipse
 62
7
  6
CONTINUOUS
 10
-43.9804762168
 20
114.3071634841
 30
0.0
 11
0.9128709292
 21
-0.9128709292
 31
0.0
 40
0.7745966692
 41
2.4825346178
 42
3.8006506894
  0
ELLIPSE
  5
515
100
AcDbEntity
  8
IMPORT_IGES
100
AcDbEllipse
 62
7
  6
CONTINUOUS
 10
-60.0
 20
131.5288527572
 30
0.0
 11
-0.0
 21
6.4944599754
 31
0.0
 40
0.9999728748
 41
0.0
 42
1.5634308272
  0
ELLIPSE
  5
516
100
AcDbEntity
  8
IMPORT_IGES
100
AcDbEllipse
 62
7
  6
CONTINUOUS
 10
60.0
 20
131.5288527572
 30
0.0
 11
0.0
 21
6.4944599754
 31
0.0
 40
0.9999728748
 41
-1.5634308272
 42
0.0
  0
ENDSEC
  0
SECTION
  2
OBJECTS
  0
DICTIONARY
  5
C
100
AcDbDictionary
280
0
281
1
  3
ACAD_GROUP
350
D
  3
ACAD_MLINESTYLE
350
17
  3
ACAD_LAYOUT
350
1A
  3
ACAD_PLOTSETTINGS
350
19
  3
ACAD_PLOTSTYLENAME
350
E
  0
DICTIONARY
  5
D
102
{ACAD_REACTORS
330
C
102
}
100
AcDbDictionary
280
0
281
1
  0
ACDBDICTIONARYWDFLT
  5
E
102
{ACAD_REACTORS
330
C
102
}
100
AcDbDictionary
281
1
  3
Normal
350
F
100
AcDbDictionaryWithDefault
340
F
  0
DICTIONARY
  5
17
102
{ACAD_REACTORS
330
C
102
}
100
AcDbDictionary
280
0
281
1
  3
Standard
350
18
  0
DICTIONARY
  5
19
102
{ACAD_REACTORS
330
C
102
}
100
AcDbDictionary
281
1
  0
DICTIONARY
  5
1A
102
{ACAD_REACTORS
330
C
102
}
100
AcDbDictionary
281
1
  3
Model
350
517
  3
Layout1
350
518
  0
ACDBPLACEHOLDER
  5
F
102
{ACAD_REACTORS
330
E
102
}
  0
MLINESTYLE
  5
18
102
{ACAD_REACTORS
330
17
102
}
100
AcDbMlineStyle
  2
STANDARD
 70
0
  3

 62
256
 51
90.0
 52
90.0
 71
2
 49
0.5
 62
256
  6
BYLAYER
 49
-0.5
 62
256
  6
BYLAYER
  0
LAYOUT
  5
517
102
{ACAD_REACTORS
330
1A
102
}
100
AcDbPlotSettings
  1

  2
none_device
  4
ISO_A3_(420.00_x_297.00_MM)
  6

 40
0.0
 41
0.0
 42
0.0
 43
0.0
 44
420.0
 45
297.0
 46
0.0
 47
0.0
 48
0.0
 49
0.0
140
0.0
141
0.0
142
1.0
143
1.0
 70
1024
 72
1
 73
0
 74
0
  7

 75
0
147
1.0
148
0.0
149
0.0
100
AcDbLayout
  1
Model
 70
0
 71
0
 10
0.0
 20
0.0
 11
420.0
 21
297.0
 12
0.0
 22
0.0
 32
0.0
 14
0.0
 24
0.0
 34
0.0
 15
0.0
 25
0.0
 35
0.0
146
0.0
 13
0.0
 23
0.0
 33
0.0
 16
1.0
 26
0.0
 36
0.0
 17
0.0
 27
1.0
 37
0.0
 76
0
330
213
345
0
346
0
  0
LAYOUT
  5
518
102
{ACAD_REACTORS
330
1A
102
}
100
AcDbPlotSettings
  1

  2
none_device
  4
ISO_A3_(420.00_x_297.00_MM)
  6

 40
0.0
 41
0.0
 42
0.0
 43
0.0
 44
420.0
 45
297.0
 46
0.0
 47
0.0
 48
0.0
 49
0.0
140
0.0
141
0.0
142
1.0
143
1.0
 70
0
 72
1
 73
0
 74
0
  7

 75
0
147
1.0
148
0.0
149
0.0
100
AcDbLayout
  1
Layout1
 70
0
 71
1
 10
0.0
 20
0.0
 11
420.0
 21
297.0
 12
0.0
 22
0.0
 32
0.0
 14
0.0
 24
0.0
 34
0.0
 15
0.0
 25
0.0
 35
0.0
146
0.0
 13
0.0
 23
0.0
 33
0.0
 16
1.0
 26
0.0
 36
0.0
 17
0.0
 27
1.0
 37
0.0
 76
0
330
214
345
0
346
0
  0
ENDSEC
  0
EOF
