  0
SECTION
  2
HEADER
  9
$ACADVER
  1
AC1015
  9
$DWGCODEPAGE
  3
ANSI_1252
  9
$EXTMAX
 10
297.0
 20
210.0
 30
0.0
  9
$EXTMIN
 10
0.0
 20
0.0
 30
0.0
  9
$LIMMIN
 10
0.0
 20
0.0
  9
$LIMMAX
 10
297.0
 20
210.0
  9
$VIEWCTR
 10
148.5
 20
105.0
  9
$VIEWSIZE
 40
210.0
  9
$CLAYER
  8
0
  9
$LTSCALE
 40
16.335
  9
$CELTYPE
  6
BYLAYER
  9
$DIMSCALE
 40
1.0
  9
$DIMASZ
 40
3.0
  9
$DIMEXO
 40
0.5
  9
$DIMDLI
 40
11.286
  9
$DIMEXE
 40
1.5
  9
$DIMCEN
 40
2.673
  9
$DIMLFAC
 40
1.0
  9
$DIMBLK
  1
_FILLED
  9
$DIMTXT
 40
3.0
  9
$DIMTOL
 70
1
  9
$DIMLIM
 70
0
  9
$DIMTFAC
 40
1.0
  9
$DIMTP
 40
0.01
  9
$DIMTM
 40
0.01
  9
$DIMGAP
 40
0.625
  9
$DIMDSEP
 70
44
  9
$PDMODE
 70
3
  9
$PDSIZE
 40
3.0
  9
$HANDSEED
  5
420
  9
$TILEMODE
 70
1
  9
$MEASUREMENT
 70
1
  9
$INSUNITS
 70
4
  0
ENDSEC
  0
SECTION
  2
CLASSES
  0
CLASS
  1
ACDBDICTIONARYWDFLT
  2
AcDbDictionaryWithDefault
  3
AutoCAD 2000
 90
0
280
0
281
0
  0
CLASS
  1
ACDBPLACEHOLDER
  2
AcDbPlaceHolder
  3
AutoCAD 2000
 90
0
280
0
281
0
  0
CLASS
  1
LAYOUT
  2
AcDbLayout
  3
AutoCAD 2000
 90
0
280
0
281
0
  0
ENDSEC
  0
SECTION
  2
TABLES
  0
TABLE
  2
VPORT
  5
8
100
AcDbSymbolTable
 70
2
  0
VPORT
  5
1F4
100
AcDbSymbolTableRecord
100
AcDbViewportTableRecord
  2
*ACTIVE
 70
0
 10
0.0
 20
0.0
 11
1.0
 21
1.0
 12
148.5
 22
105.0
 13
0.0
 23
0.0
 14
1.0
 24
1.0
 15
0.0
 25
0.0
 16
0.0
 26
0.0
 36
1.0
 17
0.0
 27
0.0
 37
0.0
 40
210.0
 41
1.4142857143
 42
50.0
 43
0.0
 44
0.0
 50
0.0
 51
0.0
 71
0
 72
100
 73
1
 74
1
 75
0
 76
0
 77
0
 78
0
  0
ENDTAB
  0
TABLE
  2
LTYPE
  5
5
100
AcDbSymbolTable
 70
6
  0
LTYPE
  5
14
100
AcDbSymbolTableRecord
100
AcDbLinetypeTableRecord
  2
BYBLOCK
 70
0
  3

 72
65
 73
0
 40
0.0
  0
LTYPE
  5
15
100
AcDbSymbolTableRecord
100
AcDbLinetypeTableRecord
  2
BYLAYER
 70
0
  3

 72
65
 73
0
 40
0.0
  0
LTYPE
  5
16
100
AcDbSymbolTableRecord
100
AcDbLinetypeTableRecord
  2
CONTINUOUS
 70
64
  3
Solid line
 72
65
 73
0
 40
0.0
  0
LTYPE
  5
1F5
100
AcDbSymbolTableRecord
100
AcDbLinetypeTableRecord
  2
CENTER
 70
64
  3
____ _ ____ _ ____ _ ____ _ ____ _ ____ _ ____
 72
65
 73
4
 40
0.6
 49
0.375
 74
0
 49
-0.075
 74
0
 49
0.075
 74
0
 49
-0.075
 74
0
  0
LTYPE
  5
1F6
100
AcDbSymbolTableRecord
100
AcDbLinetypeTableRecord
  2
HIDDEN
 70
64
  3
- - - - - - - - - - - - - - - - - - - -
 72
65
 73
2
 40
0.2
 49
0.1
 74
0
 49
-0.1
 74
0
  0
LTYPE
  5
1F7
100
AcDbSymbolTableRecord
100
AcDbLinetypeTableRecord
  2
PHANTOM
 70
64
  3
_____ _ _ _____ _ _ _____ _ _ _____
 72
65
 73
6
 40
0.8
 49
0.45
 74
0
 49
-0.05
 74
0
 49
0.1
 74
0
 49
-0.05
 74
0
 49
0.1
 74
0
 49
-0.05
 74
0
  0
LTYPE
  5
1F8
100
AcDbSymbolTableRecord
100
AcDbLinetypeTableRecord
  2
DOT
 70
64
  3
. . . . . . . . . . . . . . . . . . . .
 72
65
 73
2
 40
0.2
 49
0.1
 74
0
 49
-0.1
 74
0
  0
LTYPE
  5
1F9
100
AcDbSymbolTableRecord
100
AcDbLinetypeTableRecord
  2
DASHED
 70
64
  3
- - - - - - - - - - - - - - - - - - - -
 72
65
 73
2
 40
0.2
 49
0.1
 74
0
 49
-0.1
 74
0
  0
ENDTAB
  0
TABLE
  2
LAYER
  5
2
100
AcDbSymbolTable
 70
36
  0
LAYER
  5
10
100
AcDbSymbolTableRecord
100
AcDbLayerTableRecord
  2
0
 70
0
 62
7
  6
CONTINUOUS
370
-3
390
F
  0
LAYER
  5
1FA
100
AcDbSymbolTableRecord
100
AcDbLayerTableRecord
  2
DEFAULT_1
 70
0
 62
7
  6
CENTER
370
-3
390
F
  0
LAYER
  5
1FB
100
AcDbSymbolTableRecord
100
AcDbLayerTableRecord
  2
DEFAULT_2
 70
0
 62
7
  6
HIDDEN
370
-3
390
F
  0
LAYER
  5
1FC
100
AcDbSymbolTableRecord
100
AcDbLayerTableRecord
  2
DEFAULT_3
 70
0
 62
7
  6
PHANTOM
370
-3
390
F
  0
LAYER
  5
1FD
100
AcDbSymbolTableRecord
100
AcDbLayerTableRecord
  2
641
 70
0
 62
7
  6
CONTINUOUS
370
-3
390
F
  0
LAYER
  5
1FE
100
AcDbSymbolTableRecord
100
AcDbLayerTableRecord
  2
641D_ASM
 70
0
 62
7
  6
CONTINUOUS
370
-3
390
F
  0
LAYER
  5
1FF
100
AcDbSymbolTableRecord
100
AcDbLayerTableRecord
  2
647______
 70
0
 62
7
  6
CONTINUOUS
370
-3
390
F
  0
LAYER
  5
200
100
AcDbSymbolTableRecord
100
AcDbLayerTableRecord
  2
ASSI
 70
0
 62
7
  6
CONTINUOUS
370
-3
390
F
  0
LAYER
  5
201
100
AcDbSymbolTableRecord
100
AcDbLayerTableRecord
  2
COORDINATE
 70
0
 62
7
  6
CONTINUOUS
370
-3
390
F
  0
LAYER
  5
202
100
AcDbSymbolTableRecord
100
AcDbLayerTableRecord
  2
COPY_PUBLISH
 70
0
 62
7
  6
CONTINUOUS
370
-3
390
F
  0
LAYER
  5
203
100
AcDbSymbolTableRecord
100
AcDbLayerTableRecord
  2
COSMETICI
 70
0
 62
7
  6
CONTINUOUS
370
-3
390
F
  0
LAYER
  5
204
100
AcDbSymbolTableRecord
100
AcDbLayerTableRecord
  2
CURVE
 70
0
 62
7
  6
CONTINUOUS
370
-3
390
F
  0
LAYER
  5
205
100
AcDbSymbolTableRecord
100
AcDbLayerTableRecord
  2
DRAFT
 70
0
 62
7
  6
CONTINUOUS
370
-3
390
F
  0
LAYER
  5
206
100
AcDbSymbolTableRecord
100
AcDbLayerTableRecord
  2
IMPORT_IGES
 70
0
 62
7
  6
CONTINUOUS
370
-3
390
F
  0
LAYER
  5
207
100
AcDbSymbolTableRecord
100
AcDbLayerTableRecord
  2
INTF_1
 70
0
 62
7
  6
CONTINUOUS
370
-3
390
F
  0
LAYER
  5
208
100
AcDbSymbolTableRecord
100
AcDbLayerTableRecord
  2
INTF_641
 70
0
 62
7
  6
CONTINUOUS
370
-3
390
F
  0
LAYER
  5
209
100
AcDbSymbolTableRecord
100
AcDbLayerTableRecord
  2
NONE
 70
0
 62
7
  6
CONTINUOUS
370
-3
390
F
  0
LAYER
  5
20A
100
AcDbSymbolTableRecord
100
AcDbLayerTableRecord
  2
NONE_1
 70
0
 62
7
  6
CONTINUOUS
370
-3
390
F
  0
LAYER
  5
20B
100
AcDbSymbolTableRecord
100
AcDbLayerTableRecord
  2
NONE_2
 70
0
 62
7
  6
CONTINUOUS
370
-3
390
F
  0
LAYER
  5
20C
100
AcDbSymbolTableRecord
100
AcDbLayerTableRecord
  2
NONE_3
 70
0
 62
7
  6
CONTINUOUS
370
-3
390
F
  0
LAYER
  5
20D
100
AcDbSymbolTableRecord
100
AcDbLayerTableRecord
  2
NOTE
 70
0
 62
7
  6
CONTINUOUS
370
-3
390
F
  0
LAYER
  5
20E
100
AcDbSymbolTableRecord
100
AcDbLayerTableRecord
  2
PIANI
 70
0
 62
7
  6
CONTINUOUS
370
-3
390
F
  0
LAYER
  5
20F
100
AcDbSymbolTableRecord
100
AcDbLayerTableRecord
  2
PUNTI
 70
0
 62
7
  6
CONTINUOUS
370
-3
390
F
  0
LAYER
  5
210
100
AcDbSymbolTableRecord
100
AcDbLayerTableRecord
  2
RACCORDO
 70
0
 62
7
  6
CONTINUOUS
370
-3
390
F
  0
LAYER
  5
211
100
AcDbSymbolTableRecord
100
AcDbLayerTableRecord
  2
SIMBOLI
 70
0
 62
7
  6
CONTINUOUS
370
-3
390
F
  0
LAYER
  5
212
100
AcDbSymbolTableRecord
100
AcDbLayerTableRecord
  2
SMUSSO
 70
0
 62
7
  6
CONTINUOUS
370
-3
390
F
  0
LAYER
  5
213
100
AcDbSymbolTableRecord
100
AcDbLayerTableRecord
  2
SNAPLINE
 70
0
 62
7
  6
CONTINUOUS
370
-3
390
F
  0
LAYER
  5
214
100
AcDbSymbolTableRecord
100
AcDbLayerTableRecord
  2
SUPERFICI
 70
0
 62
7
  6
CONTINUOUS
370
-3
390
F
  0
LAYER
  5
215
100
AcDbSymbolTableRecord
100
AcDbLayerTableRecord
  2
TRASH
 70
0
 62
7
  6
CONTINUOUS
370
-3
390
F
  0
LAYER
  5
216
100
AcDbSymbolTableRecord
100
AcDbLayerTableRecord
  2
___SHELL
 70
0
 62
7
  6
CONTINUOUS
370
-3
390
F
  0
LAYER
  5
217
100
AcDbSymbolTableRecord
100
AcDbLayerTableRecord
  2
___W
 70
0
 62
7
  6
CONTINUOUS
370
-3
390
F
  0
LAYER
  5
218
100
AcDbSymbolTableRecord
100
AcDbLayerTableRecord
  2
___W3
 70
0
 62
7
  6
CONTINUOUS
370
-3
390
F
  0
LAYER
  5
219
100
AcDbSymbolTableRecord
100
AcDbLayerTableRecord
  2
___W3_1
 70
0
 62
7
  6
CONTINUOUS
370
-3
390
F
  0
LAYER
  5
21A
100
AcDbSymbolTableRecord
100
AcDbLayerTableRecord
  2
___W3_2
 70
0
 62
7
  6
CONTINUOUS
370
-3
390
F
  0
LAYER
  5
21B
100
AcDbSymbolTableRecord
100
AcDbLayerTableRecord
  2
___W3_3
 70
0
 62
7
  6
CONTINUOUS
370
-3
390
F
  0
LAYER
  5
21C
100
AcDbSymbolTableRecord
100
AcDbLayerTableRecord
  2
___W_1
 70
0
 62
7
  6
CONTINUOUS
370
-3
390
F
  0
LAYER
  5
21D
100
AcDbSymbolTableRecord
100
AcDbLayerTableRecord
  2
___W_2
 70
0
 62
7
  6
CONTINUOUS
370
-3
390
F
  0
LAYER
  5
21E
100
AcDbSymbolTableRecord
100
AcDbLayerTableRecord
  2
___W_3
 70
0
 62
7
  6
CONTINUOUS
370
-3
390
F
  0
ENDTAB
  0
TABLE
  2
STYLE
  5
3
100
AcDbSymbolTable
 70
1
  0
STYLE
  5
11
100
AcDbSymbolTableRecord
100
AcDbTextStyleTableRecord
  2
STANDARD
 70
0
 40
0.0
 41
0.8
 50
0.0
 71
0
 42
0.2
  3
txt
  4

  0
STYLE
  5
21F
100
AcDbSymbolTableRecord
100
AcDbTextStyleTableRecord
  2
TEXTSTYLE_1
 70
0
 40
0.0
 41
0.8
 50
0.0
 71
0
 42
0.2
  3
gdt
  4

  0
ENDTAB
  0
TABLE
  2
VIEW
  5
6
100
AcDbSymbolTable
 70
0
  0
ENDTAB
  0
TABLE
  2
UCS
  5
7
100
AcDbSymbolTable
 70
0
  0
ENDTAB
  0
TABLE
  2
APPID
  5
9
100
AcDbSymbolTable
 70
1
  0
APPID
  5
220
100
AcDbSymbolTableRecord
100
AcDbRegAppTableRecord
  2
ACAD
 70
0
  0
ENDTAB
  0
TABLE
  2
BLOCK_RECORD
  5
1
100
AcDbSymbolTable
 70
0
  0
BLOCK_RECORD
  5
221
100
AcDbSymbolTableRecord
100
AcDbBlockTableRecord
  2
*Model_Space
  0
BLOCK_RECORD
  5
222
100
AcDbSymbolTableRecord
100
AcDbBlockTableRecord
  2
*Paper_Space
  0
BLOCK_RECORD
  5
223
100
AcDbSymbolTableRecord
100
AcDbBlockTableRecord
  2
_FILLED
  0
BLOCK_RECORD
  5
224
100
AcDbSymbolTableRecord
100
AcDbBlockTableRecord
  2
*D0
  0
BLOCK_RECORD
  5
225
100
AcDbSymbolTableRecord
100
AcDbBlockTableRecord
  2
*D1
  0
BLOCK_RECORD
  5
226
100
AcDbSymbolTableRecord
100
AcDbBlockTableRecord
  2
*D2
  0
ENDTAB
  0
TABLE
  2
DIMSTYLE
  5
A
100
AcDbSymbolTable
 70
1
100
AcDbDimStyleTable
 71
0
  0
DIMSTYLE
105
227
100
AcDbSymbolTableRecord
100
AcDbDimStyleTableRecord
  2
STANDARD
 70
0
  3

  4

 40
1.0
 41
3.0
 42
0.5
 43
0.38
 44
1.5
 45
0.0
 46
0.0
 47
0.01
 48
0.01
140
3.0
141
0.09
142
0.0
143
25.4
144
1.0
145
0.0
146
1.0
147
0.625
 71
1.0
 72
0.0
 73
0
 74
0
 75
0
 76
0
 77
1
 78
8
170
0
171
2
172
0
173
0
174
0
175
0
176
0
177
0
178
0
270
2
271
2
272
2
273
2
274
2
275
0
280
0
281
0
282
0
283
1
284
8
285
0
286
0
287
3
288
0
340
11
278
44
341
223
342
223
343
223
344
223
  0
DIMSTYLE
105
228
100
AcDbSymbolTableRecord
100
AcDbDimStyleTableRecord
  2
DIMSTYLE_1
 70
0
  3

  4

 40
1.0
 41
3.0
 42
0.5
 43
0.38
 44
1.5
 45
0.0
 46
0.0
 47
0.0
 48
0.0
140
3.0
141
0.09
142
0.0
143
25.4
144
1.0
145
0.0
146
1.0
147
0.75
 71
0.0
 72
0.0
 73
0
 74
0
 75
0
 76
0
 77
1
 78
8
170
0
171
2
172
0
173
0
174
0
175
0
176
0
177
0
178
0
270
2
271
2
272
2
273
2
274
2
275
0
280
0
281
0
282
0
283
1
284
8
285
0
286
0
287
3
288
0
340
11
278
44
341
223
342
223
343
223
344
223
  0
DIMSTYLE
105
229
100
AcDbSymbolTableRecord
100
AcDbDimStyleTableRecord
  2
DIMSTYLE_2
 70
0
  3

  4

 40
1.0
 41
3.0
 42
0.5
 43
0.38
 44
1.5
 45
0.0
 46
0.0
 47
0.0
 48
0.0
140
3.0
141
0.09
142
0.0
143
25.4
144
1.0
145
0.0
146
1.0
147
0.75
 71
0.0
 72
0.0
 73
0
 74
0
 75
0
 76
0
 77
1
 78
8
170
0
171
2
172
0
173
0
174
0
175
0
176
0
177
0
178
0
270
2
271
1
272
1
273
2
274
2
275
0
280
0
281
0
282
0
283
1
284
8
285
0
286
0
287
3
288
0
340
11
278
44
341
223
342
223
343
223
344
223
  0
ENDTAB
  0
ENDSEC
  0
SECTION
  2
BLOCKS
  0
BLOCK
  5
20
100
AcDbEntity
  8
0
100
AcDbBlockBegin
  2
*Model_Space
 70
0
 10
0.0
 20
0.0
 30
0.0
  3
*Model_Space
  1

  0
ENDBLK
  5
21
100
AcDbEntity
  8
0
100
AcDbBlockEnd
  0
BLOCK
  5
1C
100
AcDbEntity
  8
0
100
AcDbBlockBegin
  2
*Paper_Space
 70
0
 10
0.0
 20
0.0
 30
0.0
  3
*Paper_Space
  1

  0
ENDBLK
  5
1D
100
AcDbEntity
  8
0
100
AcDbBlockEnd
  0
BLOCK
  5
22A
100
AcDbEntity
  8
0
100
AcDbBlockBegin
  2
_FILLED
 70
64
 10
0.0
 20
0.0
  3
_FILLED
  1

  0
SOLID
  5
22B
100
AcDbEntity
  8
0
  6
BYBLOCK
 62
0
100
AcDbTrace
 10
0.0
 20
0.0
 11
-1.0
 21
0.3166666667
 12
-1.0
 22
-0.3166666667
 13
-1.0
 23
-0.3166666667
  0
ENDBLK
  5
22C
100
AcDbEntity
  8
0
  6
BYBLOCK
 62
0
100
AcDbBlockEnd
  0
BLOCK
  5
22D
100
AcDbEntity
  8
0
100
AcDbBlockBegin
 62
7
  6
CONTINUOUS
  2
*D0
 70
65
 10
0.0
 20
0.0
  3
*D0
  1

  0
MTEXT
  5
22E
100
AcDbEntity
  8
0
100
AcDbMText
 62
7
  6
CONTINUOUS
  7
STANDARD
 71
2
 72
1
 10
76.0901754714
 20
135.9530121895
 30
0.0
 11
1.0
 21
0.0
 31
0.0
 44
0.9
  1
24
 40
3.0
 41
7.0714285714
  0
LINE
  5
22F
100
AcDbEntity
  8
0
100
AcDbLine
 62
7
  6
CONTINUOUS
 10
64.0901754714
 20
119.3500237972
 11
64.0901754714
 21
133.7030121895
  0
LINE
  5
230
100
AcDbEntity
  8
0
100
AcDbLine
 62
7
  6
CONTINUOUS
 10
88.0901754714
 20
124.7030121895
 11
88.0901754714
 21
133.7030121895
  0
LINE
  5
231
100
AcDbEntity
  8
0
100
AcDbLine
 62
7
  6
CONTINUOUS
 10
64.0901754714
 20
132.2030121895
 11
76.0901754714
 21
132.2030121895
  0
LINE
  5
232
100
AcDbEntity
  8
0
100
AcDbLine
 62
7
  6
CONTINUOUS
 10
88.0901754714
 20
132.2030121895
 11
76.0901754714
 21
132.2030121895
  0
INSERT
  5
233
100
AcDbEntity
  8
0
100
AcDbBlockReference
 62
7
  6
CONTINUOUS
  2
_FILLED
 10
64.0901754714
 20
132.2030121895
 41
3.0
 42
3.0
 43
3.0
 50
180.0
  0
INSERT
  5
234
100
AcDbEntity
  8
0
100
AcDbBlockReference
 62
7
  6
CONTINUOUS
  2
_FILLED
 10
88.0901754714
 20
132.2030121895
 41
3.0
 42
3.0
 43
3.0
  0
ENDBLK
  5
235
100
AcDbEntity
  8
0
  6
BYBLOCK
 62
0
100
AcDbBlockEnd
  0
BLOCK
  5
236
100
AcDbEntity
  8
0
100
AcDbBlockBegin
 62
7
  6
CONTINUOUS
  2
*D1
 70
65
 10
0.0
 20
0.0
  3
*D1
  1

  0
MTEXT
  5
237
100
AcDbEntity
  8
0
100
AcDbMText
 62
7
  6
CONTINUOUS
  7
STANDARD
 71
2
 72
1
 10
147.2810159879
 20
135.9530121895
 30
0.0
 11
1.0
 21
0.0
 31
0.0
 44
0.9
  1
78,1
 40
3.0
 41
12.2142857143
  0
LINE
  5
238
100
AcDbEntity
  8
0
100
AcDbLine
 62
7
  6
CONTINUOUS
 10
108.246105858
 20
119.7037737137
 11
108.246105858
 21
133.7030121895
  0
LINE
  5
239
100
AcDbEntity
  8
0
100
AcDbLine
 62
7
  6
CONTINUOUS
 10
186.3159261177
 20
119.7037737137
 11
186.3159261177
 21
133.7030121895
  0
LINE
  5
23A
100
AcDbEntity
  8
0
100
AcDbLine
 62
7
  6
CONTINUOUS
 10
108.246105858
 20
132.2030121895
 11
147.2810159879
 21
132.2030121895
  0
LINE
  5
23B
100
AcDbEntity
  8
0
100
AcDbLine
 62
7
  6
CONTINUOUS
 10
186.3159261177
 20
132.2030121895
 11
147.2810159879
 21
132.2030121895
  0
INSERT
  5
23C
100
AcDbEntity
  8
0
100
AcDbBlockReference
 62
7
  6
CONTINUOUS
  2
_FILLED
 10
108.246105858
 20
132.2030121895
 41
3.0
 42
3.0
 43
3.0
 50
180.0
  0
INSERT
  5
23D
100
AcDbEntity
  8
0
100
AcDbBlockReference
 62
7
  6
CONTINUOUS
  2
_FILLED
 10
186.3159261177
 20
132.2030121895
 41
3.0
 42
3.0
 43
3.0
  0
ENDBLK
  5
23E
100
AcDbEntity
  8
0
  6
BYBLOCK
 62
0
100
AcDbBlockEnd
  0
BLOCK
  5
23F
100
AcDbEntity
  8
0
100
AcDbBlockBegin
 62
7
  6
CONTINUOUS
  2
*D2
 70
65
 10
0.0
 20
0.0
  3
*D2
  1

  0
MTEXT
  5
240
100
AcDbEntity
  8
0
100
AcDbMText
 62
7
  6
CONTINUOUS
  7
STANDARD
 71
2
 72
1
 10
190.5659261177
 20
99.1681020596
 30
0.0
 11
0.0
 21
1.0
 31
0.0
 44
0.9
  1
50,1
 40
3.0
 41
11.8928571429
  0
LINE
  5
241
100
AcDbEntity
  8
0
100
AcDbLine
 62
7
  6
CONTINUOUS
 10
181.816687642
 20
74.1331919298
 11
195.8159261177
 21
74.1331919298
  0
LINE
  5
242
100
AcDbEntity
  8
0
100
AcDbLine
 62
7
  6
CONTINUOUS
 10
181.816687642
 20
124.2030121895
 11
195.8159261177
 21
124.2030121895
  0
LINE
  5
243
100
AcDbEntity
  8
0
100
AcDbLine
 62
7
  6
CONTINUOUS
 10
194.3159261177
 20
74.1331919298
 11
194.3159261177
 21
99.1681020596
  0
LINE
  5
244
100
AcDbEntity
  8
0
100
AcDbLine
 62
7
  6
CONTINUOUS
 10
194.3159261177
 20
124.2030121895
 11
194.3159261177
 21
99.1681020596
  0
INSERT
  5
245
100
AcDbEntity
  8
0
100
AcDbBlockReference
 62
7
  6
CONTINUOUS
  2
_FILLED
 10
194.3159261177
 20
74.1331919298
 41
3.0
 42
3.0
 43
3.0
 50
270.0
  0
INSERT
  5
246
100
AcDbEntity
  8
0
100
AcDbBlockReference
 62
7
  6
CONTINUOUS
  2
_FILLED
 10
194.3159261177
 20
124.2030121895
 41
3.0
 42
3.0
 43
3.0
 50
90.0
  0
ENDBLK
  5
247
100
AcDbEntity
  8
0
  6
BYBLOCK
 62
0
100
AcDbBlockEnd
  0
ENDSEC
  0
SECTION
  2
ENTITIES
  0
DIMENSION
  5
248
100
AcDbEntity
  8
0
100
AcDbDimension
 62
7
  6
CONTINUOUS
  2
*D0
 10
88.0901754714
 20
132.2030121895
 11
76.0901754714
 21
132.2030121895
 70
160
 71
2
 42
24.0
  3
DIMSTYLE_1
100
AcDbAlignedDimension
 13
64.0901754714
 23
118.8500237972
 14
88.0901754714
 24
124.2030121895
100
AcDbRotatedDimension
  0
DIMENSION
  5
249
100
AcDbEntity
  8
0
100
AcDbDimension
 62
7
  6
CONTINUOUS
  2
*D1
 10
186.3159261177
 20
132.2030121895
 11
147.2810159879
 21
132.2030121895
 70
160
 71
2
 42
78.0698202597
  3
DIMSTYLE_2
100
AcDbAlignedDimension
 13
108.246105858
 23
119.2037737137
 14
186.3159261177
 24
119.2037737137
100
AcDbRotatedDimension
  0
DIMENSION
  5
24A
100
AcDbEntity
  8
0
100
AcDbDimension
 62
7
  6
CONTINUOUS
  2
*D2
 10
194.3159261177
 20
124.2030121895
 11
194.3159261177
 21
99.1681020596
 70
160
 71
2
 42
50.0698202597
  3
DIMSTYLE_2
100
AcDbAlignedDimension
 13
181.316687642
 23
74.1331919298
 14
181.316687642
 24
124.2030121895
 50
90.0
100
AcDbRotatedDimension
  0
LWPOLYLINE
  5
24B
100
AcDbEntity
  8
RACCORDO
100
AcDbPolyline
 62
253
  6
CONTINUOUS
 90
31
 70
0
 10
108.5998557746
 20
79.4861803221
 10
108.6067656154
 20
79.2245678622
 10
108.6273551863
 20
78.9636748043
 10
108.6615677894
 20
78.7042159108
 10
108.7093092177
 20
78.4469026773
 10
108.7704485054
 20
78.1924393269
 10
108.8448186613
 20
77.9415209684
 10
108.9322164643
 20
77.6948338641
 10
109.0324021826
 20
77.4530551608
 10
109.1451007071
 20
77.2168489279
 10
109.2700024932
 20
76.9868633183
 10
109.4067656547
 20
76.7637272255
 10
109.5550165371
 20
76.5480503619
 10
109.7143496932
 20
76.3404229668
 10
109.8843281381
 20
76.1414147992
 10
110.0644855923
 20
75.9515719102
 10
110.2543284414
 20
75.7714144657
 10
110.4533365374
 20
75.6014360515
 10
110.6609638648
 20
75.4421029136
 10
110.8766406761
 20
75.2938520312
 10
111.0997767238
 20
75.1570888605
 10
111.3297623073
 20
75.0321870518
 10
111.5659685511
 20
74.9194884873
 10
111.8077472881
 20
74.8193027235
 10
112.0544344095
 20
74.7319048854
 10
112.3053527228
 20
74.6575347128
 10
112.5598160082
 20
74.5963954083
 10
112.8171292515
 20
74.5486539463
 10
113.0765882633
 20
74.5144413012
 10
113.3374815172
 20
74.493851698
 10
113.5990942503
 20
74.4869418463
  0
LINE
  5
24C
100
AcDbEntity
  8
RACCORDO
100
AcDbLine
 62
7
  6
CONTINUOUS
 10
108.246105858
 20
119.2037737137
 11
108.246105858
 21
79.1324304055
  0
LINE
  5
24D
100
AcDbEntity
  8
RACCORDO
100
AcDbLine
 62
7
  6
CONTINUOUS
 10
108.2810159879
 20
119.1688635838
 11
108.2810159879
 21
109.1681020596
  0
LINE
  5
24E
100
AcDbEntity
  8
RACCORDO
100
AcDbLine
 62
7
  6
CONTINUOUS
 10
108.2810159879
 20
89.1681020596
 11
108.2810159879
 21
79.1673405354
  0
LINE
  5
24F
100
AcDbEntity
  8
DRAFT
100
AcDbLine
 62
7
  6
CONTINUOUS
 10
108.3979649229
 20
92.9596320454
 11
108.3979649229
 21
105.3765720738
  0
LINE
  5
250
100
AcDbEntity
  8
DRAFT
100
AcDbLine
 62
7
  6
CONTINUOUS
 10
108.5376054423
 20
108.9115126052
 11
108.5376054423
 21
105.4463870161
  0
LINE
  5
251
100
AcDbEntity
  8
DRAFT
100
AcDbLine
 62
7
  6
CONTINUOUS
 10
108.5376054423
 20
92.8898171031
 11
108.5376054423
 21
89.4246915141
  0
LINE
  5
252
100
AcDbEntity
  8
DRAFT
100
AcDbLine
 62
7
  6
CONTINUOUS
 10
108.5410964864
 20
89.1281825583
 11
108.5410972866
 21
95.8181020596
  0
LINE
  5
253
100
AcDbEntity
  8
DRAFT
100
AcDbLine
 62
7
  6
CONTINUOUS
 10
108.5410972866
 20
102.5181020596
 11
108.5410964864
 21
109.2080215609
  0
LINE
  5
254
100
AcDbEntity
  8
DRAFT
100
AcDbLine
 62
7
  6
CONTINUOUS
 10
108.5690253905
 20
95.8181020596
 11
108.5690253905
 21
96.8681020596
  0
LINE
  5
255
100
AcDbEntity
  8
DRAFT
100
AcDbLine
 62
7
  6
CONTINUOUS
 10
108.5690253905
 20
101.4681020596
 11
108.5690253905
 21
102.5181020596
  0
LINE
  5
256
100
AcDbEntity
  8
DRAFT
100
AcDbLine
 62
7
  6
CONTINUOUS
 10
108.5899714684
 20
96.8681020596
 11
108.5899714684
 21
101.4681020596
  0
LINE
  5
257
100
AcDbEntity
  8
RACCORDO
100
AcDbLine
 62
253
  6
CONTINUOUS
 10
108.5998557746
 20
118.8500237972
 11
108.5998557746
 21
79.4861803221
  0
LWPOLYLINE
  5
258
100
AcDbEntity
  8
RACCORDO
100
AcDbPolyline
 62
253
  6
CONTINUOUS
 90
31
 70
0
 10
112.3992770162
 20
79.4861803221
 10
112.400945895
 20
79.4231933836
 10
112.4058583021
 20
79.3606927787
 10
112.4140142374
 20
79.2986785074
 10
112.4254538036
 20
79.2369744701
 10
112.4401368981
 20
79.1757567664
 10
112.4579432125
 20
79.1155536945
 10
112.4788982954
 20
79.0563825152
 10
112.5029765983
 20
78.9982259677
 10
112.5299811664
 20
78.9415605678
 10
112.5599359742
 20
78.8863988275
 10
112.5928170473
 20
78.8327282347
 10
112.6283555079
 20
78.7809877696
 10
112.6665732665
 20
78.7311930507
 10
112.7074484126
 20
78.6833284594
 10
112.7506463365
 20
78.6377861201
 10
112.7961862528
 20
78.5945850732
 10
112.844048947
 20
78.5537062782
 10
112.8938421657
 20
78.5154847377
 10
112.9455815468
 20
78.4799424401
 10
112.9992514523
 20
78.4470573971
 10
113.0544127159
 20
78.4170986456
 10
113.1110777897
 20
78.390090174
 10
113.1692342215
 20
78.366007994
 10
113.2284054882
 20
78.3450491776
 10
113.288606724
 20
78.3272393403
 10
113.3498227948
 20
78.3125528665
 10
113.4115317754
 20
78.3011099819
 10
113.4735596906
 20
78.2929507615
 10
113.5360805156
 20
78.2880351301
 10
113.5990942503
 20
78.2863630879
  0
LINE
  5
259
100
AcDbEntity
  8
RACCORDO
100
AcDbLine
 62
253
  6
CONTINUOUS
 10
112.3992770162
 20
118.8500237972
 11
112.3992770162
 21
79.4861803221
  0
LINE
  5
25A
100
AcDbEntity
  8
RACCORDO
100
AcDbLine
 62
253
  6
CONTINUOUS
 10
113.5990942503
 20
78.2863630879
 11
113.5990942503
 21
74.4869418463
  0
LINE
  5
25B
100
AcDbEntity
  8
RACCORDO
100
AcDbLine
 62
253
  6
CONTINUOUS
 10
113.5990942503
 20
120.0498410313
 11
113.5990942505
 21
123.8492622729
  0
LINE
  5
25C
100
AcDbEntity
  8
0
100
AcDbLine
 62
7
  6
CONTINUOUS
 10
122.7210159879
 20
104.1712810596
 11
122.7210159879
 21
94.1681020596
  0
LINE
  5
25D
100
AcDbEntity
  8
IMPORT_IGES
100
AcDbLine
 62
7
  6
CONTINUOUS
 10
122.7210159879
 20
104.1712810596
 11
122.7210159879
 21
94.1681020596
  0
LWPOLYLINE
  5
25E
100
AcDbEntity
  8
RACCORDO
100
AcDbPolyline
 62
253
  6
CONTINUOUS
 90
31
 70
0
 10
180.9629377254
 20
74.4869418463
 10
181.2245501853
 20
74.4938516871
 10
181.4854432432
 20
74.514441258
 10
181.7449021367
 20
74.5486538611
 10
182.0022153702
 20
74.5963952894
 10
182.2566787206
 20
74.6575345771
 10
182.5075970791
 20
74.7319047331
 10
182.7542841834
 20
74.819302536
 10
182.9960628867
 20
74.9194882543
 10
183.2322691196
 20
75.0321867788
 10
183.4622547292
 20
75.1570885649
 10
183.685390822
 20
75.2938517264
 10
183.9010676856
 20
75.4421026088
 10
184.1086950807
 20
75.6014357649
 10
184.3077032483
 20
75.7714142098
 10
184.4975461373
 20
75.951571664
 10
184.6777035818
 20
76.1414145131
 10
184.847681996
 20
76.3404226092
 10
185.0070151339
 20
76.5480499365
 10
185.1552660163
 20
76.7637267478
 10
185.292029187
 20
76.9868627955
 10
185.4169309957
 20
77.2168483791
 10
185.5296295602
 20
77.4530546228
 10
185.629815324
 20
77.6948333598
 10
185.7172131621
 20
77.9415204812
 10
185.7915833347
 20
78.1924387945
 10
185.8527226392
 20
78.4469020799
 10
185.9004641012
 20
78.7042153232
 10
185.9346767463
 20
78.963674335
 10
185.9552663495
 20
79.224567589
 10
185.9621762012
 20
79.4861803221
  0
LINE
  5
25F
100
AcDbEntity
  8
RACCORDO
100
AcDbLine
 62
7
  6
CONTINUOUS
 10
113.2453443338
 20
74.1331919298
 11
181.316687642
 21
74.1331919298
  0
LINE
  5
260
100
AcDbEntity
  8
DRAFT
100
AcDbLine
 62
7
  6
CONTINUOUS
 10
175.2810159879
 20
74.1541380077
 11
181.2810159879
 21
74.1541380077
  0
LINE
  5
261
100
AcDbEntity
  8
RACCORDO
100
AcDbLine
 62
7
  6
CONTINUOUS
 10
113.2802544637
 20
74.1681020596
 11
181.2817775121
 21
74.1681020596
  0
LINE
  5
262
100
AcDbEntity
  8
RACCORDO
100
AcDbLine
 62
253
  6
CONTINUOUS
 10
113.5990942503
 20
74.4869418463
 11
180.9629377254
 21
74.4869418463
  0
LINE
  5
263
100
AcDbEntity
  8
0
100
AcDbLine
 62
7
  6
CONTINUOUS
 10
125.8052799879
 20
96.6688970596
 11
125.8052799879
 21
97.9192930596
  0
LINE
  5
264
100
AcDbEntity
  8
IMPORT_IGES
100
AcDbLine
 62
7
  6
CONTINUOUS
 10
125.8052799879
 20
96.6688970596
 11
125.8052799879
 21
97.9192930596
  0
LINE
  5
265
100
AcDbEntity
  8
0
100
AcDbLine
 62
7
  6
CONTINUOUS
 10
125.8052799879
 20
100.4200900596
 11
125.8052799879
 21
101.6704880596
  0
LINE
  5
266
100
AcDbEntity
  8
IMPORT_IGES
100
AcDbLine
 62
7
  6
CONTINUOUS
 10
125.8052799879
 20
100.4200900596
 11
125.8052799879
 21
101.6704880596
  0
LINE
  5
267
100
AcDbEntity
  8
DRAFT
100
AcDbLine
 62
7
  6
CONTINUOUS
 10
108.5376054423
 20
105.4463870161
 11
108.3979649229
 21
105.3765720738
  0
LWPOLYLINE
  5
268
100
AcDbEntity
  8
RACCORDO
100
AcDbPolyline
 62
253
  6
CONTINUOUS
 90
31
 70
0
 10
180.9629377254
 20
78.2863630879
 10
181.0259246639
 20
78.2880319667
 10
181.0884252688
 20
78.2929443738
 10
181.1504395401
 20
78.3011003091
 10
181.2121435774
 20
78.3125398753
 10
181.2733612811
 20
78.3272229698
 10
181.333564353
 20
78.3450292842
 10
181.3927355323
 20
78.3659843671
 10
181.4508920798
 20
78.39006267
 10
181.5075574797
 20
78.4170672381
 10
181.56271922
 20
78.4470220459
 10
181.6163898128
 20
78.479903119
 10
181.6681302779
 20
78.5154415796
 10
181.7179249968
 20
78.5536593382
 10
181.7657895881
 20
78.5945344843
 10
181.8113319274
 20
78.6377324082
 10
181.8545329743
 20
78.6832723245
 10
181.8954117693
 20
78.7311350187
 10
181.9336333098
 20
78.7809282375
 10
181.9691756074
 20
78.8326676185
 10
182.0020606505
 20
78.886337524
 10
182.032019402
 20
78.9414987876
 10
182.0590278735
 20
78.9981638614
 10
182.0831100535
 20
79.0563202932
 10
182.1040688699
 20
79.11549156
 10
182.1218787072
 20
79.1756927958
 10
182.136565181
 20
79.2369088665
 10
182.1480080656
 20
79.2986178471
 10
182.156167286
 20
79.3606457623
 10
182.1610829174
 20
79.4231665873
 10
182.1627549596
 20
79.4861803221
  0
LINE
  5
269
100
AcDbEntity
  8
DRAFT
100
AcDbLine
 62
7
  6
CONTINUOUS
 10
108.5376054423
 20
92.8898171031
 11
108.3979649229
 21
92.9596320454
  0
LINE
  5
26A
100
AcDbEntity
  8
DRAFT
100
AcDbLine
 62
7
  6
CONTINUOUS
 10
108.2810159879
 20
89.1681020596
 11
108.5376054423
 21
89.4246915141
  0
LINE
  5
26B
100
AcDbEntity
  8
DRAFT
100
AcDbLine
 62
7
  6
CONTINUOUS
 10
108.2810159879
 20
88.8681020598
 11
108.5410964864
 21
89.1281825583
  0
LINE
  5
26C
100
AcDbEntity
  8
RACCORDO
100
AcDbLine
 62
253
  6
CONTINUOUS
 10
113.5990942503
 20
78.2863630879
 11
180.9629377254
 21
78.2863630879
  0
LINE
  5
26D
100
AcDbEntity
  8
RACCORDO
100
AcDbLine
 62
253
  6
CONTINUOUS
 10
112.3992770162
 20
79.4861803221
 11
108.5998557746
 21
79.4861803222
  0
LINE
  5
26E
100
AcDbEntity
  8
RACCORDO
100
AcDbLine
 62
253
  6
CONTINUOUS
 10
182.1627549596
 20
79.4861803221
 11
185.9621762012
 21
79.4861803221
  0
LINE
  5
26F
100
AcDbEntity
  8
DRAFT
100
AcDbLine
 62
7
  6
CONTINUOUS
 10
108.5376054423
 20
108.9115126052
 11
108.2810159879
 21
109.1681020596
  0
LINE
  5
270
100
AcDbEntity
  8
DRAFT
100
AcDbLine
 62
7
  6
CONTINUOUS
 10
108.2810159879
 20
109.4681020594
 11
108.5410964864
 21
109.2080215609
  0
LINE
  5
271
100
AcDbEntity
  8
0
100
AcDbLine
 62
7
  6
CONTINUOUS
 10
129.5557089879
 20
97.9192930596
 11
129.5557089879
 21
100.4200900596
  0
LINE
  5
272
100
AcDbEntity
  8
IMPORT_IGES
100
AcDbLine
 62
7
  6
CONTINUOUS
 10
129.5557089879
 20
97.9192930596
 11
129.5557089879
 21
100.4200900596
  0
LINE
  5
273
100
AcDbEntity
  8
0
100
AcDbLine
 62
7
  6
CONTINUOUS
 10
132.3704429879
 20
101.6704880596
 11
132.3704429879
 21
104.1712810596
  0
LINE
  5
274
100
AcDbEntity
  8
IMPORT_IGES
100
AcDbLine
 62
7
  6
CONTINUOUS
 10
132.3704429879
 20
101.6704880596
 11
132.3704429879
 21
104.1712810596
  0
LINE
  5
275
100
AcDbEntity
  8
0
100
AcDbLine
 62
7
  6
CONTINUOUS
 10
133.4232879879
 20
104.1712810596
 11
133.4232879879
 21
101.6704880596
  0
LINE
  5
276
100
AcDbEntity
  8
IMPORT_IGES
100
AcDbLine
 62
7
  6
CONTINUOUS
 10
133.4232879879
 20
104.1712810596
 11
133.4232879879
 21
101.6704880596
  0
LINE
  5
277
100
AcDbEntity
  8
0
100
AcDbLine
 62
7
  6
CONTINUOUS
 10
133.4975629879
 20
94.1681020596
 11
133.4975629879
 21
96.6688970596
  0
LINE
  5
278
100
AcDbEntity
  8
IMPORT_IGES
100
AcDbLine
 62
7
  6
CONTINUOUS
 10
133.4975629879
 20
94.1681020596
 11
133.4975629879
 21
96.6688970596
  0
LINE
  5
279
100
AcDbEntity
  8
0
100
AcDbLine
 62
7
  6
CONTINUOUS
 10
134.5588319879
 20
100.4200900596
 11
134.5588319879
 21
94.1681020596
  0
LINE
  5
27A
100
AcDbEntity
  8
IMPORT_IGES
100
AcDbLine
 62
7
  6
CONTINUOUS
 10
134.5588319879
 20
100.4200900596
 11
134.5588319879
 21
94.1681020596
  0
LINE
  5
27B
100
AcDbEntity
  8
RACCORDO
100
AcDbLine
 62
253
  6
CONTINUOUS
 10
108.5998557746
 20
79.4861803221
 11
108.246105858
 21
79.1324304055
  0
LINE
  5
27C
100
AcDbEntity
  8
RACCORDO
100
AcDbLine
 62
253
  6
CONTINUOUS
 10
108.5998557746
 20
118.8500237972
 11
108.246105858
 21
119.2037737137
  0
LINE
  5
27D
100
AcDbEntity
  8
0
100
AcDbLine
 62
7
  6
CONTINUOUS
 10
137.5780109879
 20
96.6688970596
 11
137.5780109879
 21
100.4200900596
  0
LINE
  5
27E
100
AcDbEntity
  8
IMPORT_IGES
100
AcDbLine
 62
7
  6
CONTINUOUS
 10
137.5780109879
 20
96.6688970596
 11
137.5780109879
 21
100.4200900596
  0
LINE
  5
27F
100
AcDbEntity
  8
DRAFT
100
AcDbLine
 62
7
  6
CONTINUOUS
 10
108.5410964864
 20
89.1681020596
 11
108.2810159879
 21
89.1681020596
  0
LINE
  5
280
100
AcDbEntity
  8
RACCORDO
100
AcDbLine
 62
253
  6
CONTINUOUS
 10
113.5990942503
 20
74.4869418463
 11
113.2453443338
 21
74.1331919298
  0
LINE
  5
281
100
AcDbEntity
  8
DRAFT
100
AcDbLine
 62
7
  6
CONTINUOUS
 10
108.3979649229
 20
92.9596320454
 11
108.5410969447
 21
92.9596320454
  0
LINE
  5
282
100
AcDbEntity
  8
RACCORDO
100
AcDbLine
 62
253
  6
CONTINUOUS
 10
113.5990942503
 20
123.8492622729
 11
113.2453443338
 21
124.2030121895
  0
LINE
  5
283
100
AcDbEntity
  8
0
100
AcDbLine
 62
7
  6
CONTINUOUS
 10
143.2197329879
 20
94.1681020596
 11
143.2197329879
 21
96.6688970596
  0
LINE
  5
284
100
AcDbEntity
  8
IMPORT_IGES
100
AcDbLine
 62
7
  6
CONTINUOUS
 10
143.2197329879
 20
94.1681020596
 11
143.2197329879
 21
96.6688970596
  0
LINE
  5
285
100
AcDbEntity
  8
0
100
AcDbLine
 62
7
  6
CONTINUOUS
 10
122.7210159879
 20
94.1681020596
 11
133.4975629879
 21
94.1681020596
  0
LINE
  5
286
100
AcDbEntity
  8
IMPORT_IGES
100
AcDbLine
 62
7
  6
CONTINUOUS
 10
122.7210159879
 20
94.1681020596
 11
133.4975629879
 21
94.1681020596
  0
LINE
  5
287
100
AcDbEntity
  8
0
100
AcDbLine
 62
7
  6
CONTINUOUS
 10
134.5588319879
 20
94.1681020596
 11
143.2197329879
 21
94.1681020596
  0
LINE
  5
288
100
AcDbEntity
  8
IMPORT_IGES
100
AcDbLine
 62
7
  6
CONTINUOUS
 10
134.5588319879
 20
94.1681020596
 11
143.2197329879
 21
94.1681020596
  0
LINE
  5
289
100
AcDbEntity
  8
0
100
AcDbLine
 62
7
  6
CONTINUOUS
 10
150.3392639879
 20
94.1681020596
 11
160.2873159879
 21
94.1681020596
  0
LINE
  5
28A
100
AcDbEntity
  8
IMPORT_IGES
100
AcDbLine
 62
7
  6
CONTINUOUS
 10
150.3392639879
 20
94.1681020596
 11
160.2873159879
 21
94.1681020596
  0
LINE
  5
28B
100
AcDbEntity
  8
0
100
AcDbLine
 62
7
  6
CONTINUOUS
 10
161.2230079879
 20
94.1933710596
 11
164.5768019879
 21
94.1933710596
  0
LINE
  5
28C
100
AcDbEntity
  8
IMPORT_IGES
100
AcDbLine
 62
7
  6
CONTINUOUS
 10
161.2230079879
 20
94.1933710596
 11
164.5768019879
 21
94.1933710596
  0
LINE
  5
28D
100
AcDbEntity
  8
0
100
AcDbLine
 62
7
  6
CONTINUOUS
 10
168.4941529879
 20
94.1933710596
 11
171.8471799879
 21
94.1933710596
  0
LINE
  5
28E
100
AcDbEntity
  8
IMPORT_IGES
100
AcDbLine
 62
7
  6
CONTINUOUS
 10
168.4941529879
 20
94.1933710596
 11
171.8471799879
 21
94.1933710596
  0
LINE
  5
28F
100
AcDbEntity
  8
DRAFT
100
AcDbLine
 62
7
  6
CONTINUOUS
 10
108.5410972866
 20
95.8181020596
 11
108.5690253905
 21
95.8181020596
  0
LINE
  5
290
100
AcDbEntity
  8
0
100
AcDbLine
 62
7
  6
CONTINUOUS
 10
157.0968759879
 20
96.1621260596
 11
153.5297049879
 21
96.1621260596
  0
LINE
  5
291
100
AcDbEntity
  8
IMPORT_IGES
100
AcDbLine
 62
7
  6
CONTINUOUS
 10
157.0968759879
 20
96.1621260596
 11
153.5297049879
 21
96.1621260596
  0
LINE
  5
292
100
AcDbEntity
  8
0
100
AcDbLine
 62
7
  6
CONTINUOUS
 10
141.4547799879
 20
101.6704880596
 11
145.7687679879
 21
94.1681020596
  0
LINE
  5
293
100
AcDbEntity
  8
IMPORT_IGES
100
AcDbLine
 62
7
  6
CONTINUOUS
 10
141.4547799879
 20
101.6704880596
 11
145.7687679879
 21
94.1681020596
  0
LINE
  5
294
100
AcDbEntity
  8
0
100
AcDbLine
 62
7
  6
CONTINUOUS
 10
148.5191819879
 20
104.1712810596
 11
145.7687679879
 21
99.3871510596
  0
LINE
  5
295
100
AcDbEntity
  8
IMPORT_IGES
100
AcDbLine
 62
7
  6
CONTINUOUS
 10
148.5191819879
 20
104.1712810596
 11
145.7687679879
 21
99.3871510596
  0
LINE
  5
296
100
AcDbEntity
  8
0
100
AcDbLine
 62
7
  6
CONTINUOUS
 10
143.2197329879
 20
96.6688970596
 11
137.5780109879
 21
96.6688970596
  0
LINE
  5
297
100
AcDbEntity
  8
IMPORT_IGES
100
AcDbLine
 62
7
  6
CONTINUOUS
 10
143.2197329879
 20
96.6688970596
 11
137.5780109879
 21
96.6688970596
  0
LINE
  5
298
100
AcDbEntity
  8
0
100
AcDbLine
 62
7
  6
CONTINUOUS
 10
133.4975629879
 20
96.6688970596
 11
125.8052799879
 21
96.6688970596
  0
LINE
  5
299
100
AcDbEntity
  8
IMPORT_IGES
100
AcDbLine
 62
7
  6
CONTINUOUS
 10
133.4975629879
 20
96.6688970596
 11
125.8052799879
 21
96.6688970596
  0
LINE
  5
29A
100
AcDbEntity
  8
DRAFT
100
AcDbLine
 62
7
  6
CONTINUOUS
 10
108.5690253905
 20
96.8681020596
 11
108.5899714684
 21
96.8681020596
  0
LINE
  5
29B
100
AcDbEntity
  8
0
100
AcDbLine
 62
7
  6
CONTINUOUS
 10
125.8052799879
 20
97.9192930596
 11
129.5557089879
 21
97.9192930596
  0
LINE
  5
29C
100
AcDbEntity
  8
IMPORT_IGES
100
AcDbLine
 62
7
  6
CONTINUOUS
 10
125.8052799879
 20
97.9192930596
 11
129.5557089879
 21
97.9192930596
  0
LINE
  5
29D
100
AcDbEntity
  8
0
100
AcDbLine
 62
7
  6
CONTINUOUS
 10
153.5297049879
 20
98.4260640596
 11
157.0968759879
 21
98.4260640596
  0
LINE
  5
29E
100
AcDbEntity
  8
IMPORT_IGES
100
AcDbLine
 62
7
  6
CONTINUOUS
 10
153.5297049879
 20
98.4260640596
 11
157.0968759879
 21
98.4260640596
  0
LINE
  5
29F
100
AcDbEntity
  8
0
100
AcDbLine
 62
7
  6
CONTINUOUS
 10
145.7687679879
 20
99.3871510596
 11
143.0175829879
 21
104.1712810596
  0
LINE
  5
2A0
100
AcDbEntity
  8
IMPORT_IGES
100
AcDbLine
 62
7
  6
CONTINUOUS
 10
145.7687679879
 20
99.3871510596
 11
143.0175829879
 21
104.1712810596
  0
LINE
  5
2A1
100
AcDbEntity
  8
0
100
AcDbLine
 62
7
  6
CONTINUOUS
 10
150.3392639879
 20
100.4200900596
 11
150.3392639879
 21
94.1681020596
  0
LINE
  5
2A2
100
AcDbEntity
  8
IMPORT_IGES
100
AcDbLine
 62
7
  6
CONTINUOUS
 10
150.3392639879
 20
100.4200900596
 11
150.3392639879
 21
94.1681020596
  0
LINE
  5
2A3
100
AcDbEntity
  8
0
100
AcDbLine
 62
7
  6
CONTINUOUS
 10
145.7687679879
 20
94.1681020596
 11
150.0819869879
 21
101.6704880596
  0
LINE
  5
2A4
100
AcDbEntity
  8
IMPORT_IGES
100
AcDbLine
 62
7
  6
CONTINUOUS
 10
145.7687679879
 20
94.1681020596
 11
150.0819869879
 21
101.6704880596
  0
LINE
  5
2A5
100
AcDbEntity
  8
DRAFT
100
AcDbLine
 62
7
  6
CONTINUOUS
 10
175.267051936
 20
124.1681020596
 11
175.2810159879
 21
124.1820661116
  0
LINE
  5
2A6
100
AcDbEntity
  8
0
100
AcDbLine
 62
7
  6
CONTINUOUS
 10
160.2873159879
 20
100.4200900596
 11
150.3392639879
 21
100.4200900596
  0
LINE
  5
2A7
100
AcDbEntity
  8
IMPORT_IGES
100
AcDbLine
 62
7
  6
CONTINUOUS
 10
160.2873159879
 20
100.4200900596
 11
150.3392639879
 21
100.4200900596
  0
LINE
  5
2A8
100
AcDbEntity
  8
0
100
AcDbLine
 62
7
  6
CONTINUOUS
 10
137.5780109879
 20
100.4200900596
 11
134.5588319879
 21
100.4200900596
  0
LINE
  5
2A9
100
AcDbEntity
  8
IMPORT_IGES
100
AcDbLine
 62
7
  6
CONTINUOUS
 10
137.5780109879
 20
100.4200900596
 11
134.5588319879
 21
100.4200900596
  0
LINE
  5
2AA
100
AcDbEntity
  8
0
100
AcDbLine
 62
7
  6
CONTINUOUS
 10
129.5557089879
 20
100.4200900596
 11
125.8052799879
 21
100.4200900596
  0
LINE
  5
2AB
100
AcDbEntity
  8
IMPORT_IGES
100
AcDbLine
 62
7
  6
CONTINUOUS
 10
129.5557089879
 20
100.4200900596
 11
125.8052799879
 21
100.4200900596
  0
LINE
  5
2AC
100
AcDbEntity
  8
DRAFT
100
AcDbLine
 62
7
  6
CONTINUOUS
 10
108.5899714684
 20
101.4681020596
 11
108.5690253905
 21
101.4681020596
  0
LINE
  5
2AD
100
AcDbEntity
  8
0
100
AcDbLine
 62
7
  6
CONTINUOUS
 10
125.8052799879
 20
101.6704880596
 11
132.3704429879
 21
101.6704880596
  0
LINE
  5
2AE
100
AcDbEntity
  8
IMPORT_IGES
100
AcDbLine
 62
7
  6
CONTINUOUS
 10
125.8052799879
 20
101.6704880596
 11
132.3704429879
 21
101.6704880596
  0
LINE
  5
2AF
100
AcDbEntity
  8
0
100
AcDbLine
 62
7
  6
CONTINUOUS
 10
133.4232879879
 20
101.6704880596
 11
141.4547799879
 21
101.6704880596
  0
LINE
  5
2B0
100
AcDbEntity
  8
IMPORT_IGES
100
AcDbLine
 62
7
  6
CONTINUOUS
 10
133.4232879879
 20
101.6704880596
 11
141.4547799879
 21
101.6704880596
  0
LINE
  5
2B1
100
AcDbEntity
  8
0
100
AcDbLine
 62
7
  6
CONTINUOUS
 10
150.0819869879
 20
101.6704880596
 11
161.6671199879
 21
101.6704880596
  0
LINE
  5
2B2
100
AcDbEntity
  8
IMPORT_IGES
100
AcDbLine
 62
7
  6
CONTINUOUS
 10
150.0819869879
 20
101.6704880596
 11
161.6671199879
 21
101.6704880596
  0
LINE
  5
2B3
100
AcDbEntity
  8
DRAFT
100
AcDbLine
 62
7
  6
CONTINUOUS
 10
108.5690253905
 20
102.5181020596
 11
108.5410972866
 21
102.5181020596
  0
LINE
  5
2B4
100
AcDbEntity
  8
DRAFT
100
AcDbLine
 62
7
  6
CONTINUOUS
 10
175.267051936
 20
74.1681020596
 11
175.2810159879
 21
74.1541380077
  0
LINE
  5
2B5
100
AcDbEntity
  8
0
100
AcDbLine
 62
7
  6
CONTINUOUS
 10
153.5297049879
 20
96.1621260596
 11
153.5297049879
 21
98.4260640596
  0
LINE
  5
2B6
100
AcDbEntity
  8
IMPORT_IGES
100
AcDbLine
 62
7
  6
CONTINUOUS
 10
153.5297049879
 20
96.1621260596
 11
153.5297049879
 21
98.4260640596
  0
LINE
  5
2B7
100
AcDbEntity
  8
RACCORDO
100
AcDbLine
 62
253
  6
CONTINUOUS
 10
181.288378776
 20
124.1747033235
 11
181.316687642
 21
124.2030121895
  0
LINE
  5
2B8
100
AcDbEntity
  8
RACCORDO
100
AcDbLine
 62
253
  6
CONTINUOUS
 10
180.9629377254
 20
123.8492622729
 11
181.2817775121
 21
124.1681020596
  0
LINE
  5
2B9
100
AcDbEntity
  8
0
100
AcDbLine
 62
7
  6
CONTINUOUS
 10
159.8493319879
 20
104.1712810596
 11
148.5191819879
 21
104.1712810596
  0
LINE
  5
2BA
100
AcDbEntity
  8
IMPORT_IGES
100
AcDbLine
 62
7
  6
CONTINUOUS
 10
159.8493319879
 20
104.1712810596
 11
148.5191819879
 21
104.1712810596
  0
LINE
  5
2BB
100
AcDbEntity
  8
0
100
AcDbLine
 62
7
  6
CONTINUOUS
 10
143.0175829879
 20
104.1712810596
 11
133.4232879879
 21
104.1712810596
  0
LINE
  5
2BC
100
AcDbEntity
  8
IMPORT_IGES
100
AcDbLine
 62
7
  6
CONTINUOUS
 10
143.0175829879
 20
104.1712810596
 11
133.4232879879
 21
104.1712810596
  0
LINE
  5
2BD
100
AcDbEntity
  8
0
100
AcDbLine
 62
7
  6
CONTINUOUS
 10
132.3704429879
 20
104.1712810596
 11
122.7210159879
 21
104.1712810596
  0
LINE
  5
2BE
100
AcDbEntity
  8
IMPORT_IGES
100
AcDbLine
 62
7
  6
CONTINUOUS
 10
132.3704429879
 20
104.1712810596
 11
122.7210159879
 21
104.1712810596
  0
LINE
  5
2BF
100
AcDbEntity
  8
0
100
AcDbLine
 62
7
  6
CONTINUOUS
 10
171.8471799879
 20
104.1812390596
 11
168.4941529879
 21
104.1812390596
  0
LINE
  5
2C0
100
AcDbEntity
  8
IMPORT_IGES
100
AcDbLine
 62
7
  6
CONTINUOUS
 10
171.8471799879
 20
104.1812390596
 11
168.4941529879
 21
104.1812390596
  0
LINE
  5
2C1
100
AcDbEntity
  8
0
100
AcDbLine
 62
7
  6
CONTINUOUS
 10
164.5768019879
 20
104.1812390596
 11
161.2230079879
 21
104.1812390596
  0
LINE
  5
2C2
100
AcDbEntity
  8
IMPORT_IGES
100
AcDbLine
 62
7
  6
CONTINUOUS
 10
164.5768019879
 20
104.1812390596
 11
161.2230079879
 21
104.1812390596
  0
LINE
  5
2C3
100
AcDbEntity
  8
DRAFT
100
AcDbLine
 62
7
  6
CONTINUOUS
 10
108.5410969447
 20
105.3765720738
 11
108.3979649229
 21
105.3765720738
  0
LINE
  5
2C4
100
AcDbEntity
  8
RACCORDO
100
AcDbLine
 62
253
  6
CONTINUOUS
 10
180.9629377254
 20
74.4869418463
 11
181.2817775121
 21
74.1681020596
  0
LINE
  5
2C5
100
AcDbEntity
  8
RACCORDO
100
AcDbLine
 62
253
  6
CONTINUOUS
 10
181.288378776
 20
74.1615007957
 11
181.316687642
 21
74.1331919298
  0
LINE
  5
2C6
100
AcDbEntity
  8
0
100
AcDbLine
 62
7
  6
CONTINUOUS
 10
157.0968759879
 20
98.4260640596
 11
157.0968759879
 21
96.1621260596
  0
LINE
  5
2C7
100
AcDbEntity
  8
IMPORT_IGES
100
AcDbLine
 62
7
  6
CONTINUOUS
 10
157.0968759879
 20
98.4260640596
 11
157.0968759879
 21
96.1621260596
  0
LINE
  5
2C8
100
AcDbEntity
  8
DRAFT
100
AcDbLine
 62
7
  6
CONTINUOUS
 10
108.2810159879
 20
109.1681020596
 11
108.5410964864
 21
109.1681020596
  0
LINE
  5
2C9
100
AcDbEntity
  8
0
100
AcDbLine
 62
7
  6
CONTINUOUS
 10
160.2873159879
 20
94.1681020596
 11
160.2873159879
 21
100.4200900596
  0
LINE
  5
2CA
100
AcDbEntity
  8
IMPORT_IGES
100
AcDbLine
 62
7
  6
CONTINUOUS
 10
160.2873159879
 20
94.1681020596
 11
160.2873159879
 21
100.4200900596
  0
LINE
  5
2CB
100
AcDbEntity
  8
0
100
AcDbLine
 62
7
  6
CONTINUOUS
 10
168.4941529879
 20
104.1812390596
 11
166.5354779879
 21
101.4913110596
  0
LINE
  5
2CC
100
AcDbEntity
  8
IMPORT_IGES
100
AcDbLine
 62
7
  6
CONTINUOUS
 10
168.4941529879
 20
104.1812390596
 11
166.5354779879
 21
101.4913110596
  0
LINE
  5
2CD
100
AcDbEntity
  8
0
100
AcDbLine
 62
7
  6
CONTINUOUS
 10
164.8585819879
 20
99.1873050596
 11
161.2230079879
 21
94.1933710596
  0
LINE
  5
2CE
100
AcDbEntity
  8
IMPORT_IGES
100
AcDbLine
 62
7
  6
CONTINUOUS
 10
164.8585819879
 20
99.1873050596
 11
161.2230079879
 21
94.1933710596
  0
LINE
  5
2CF
100
AcDbEntity
  8
RACCORDO
100
AcDbLine
 62
253
  6
CONTINUOUS
 10
185.9621762012
 20
118.8500237972
 11
186.3159261177
 21
119.2037737137
  0
LINE
  5
2D0
100
AcDbEntity
  8
RACCORDO
100
AcDbLine
 62
253
  6
CONTINUOUS
 10
185.9621762012
 20
79.4861803221
 11
186.3159261177
 21
79.1324304055
  0
LINE
  5
2D1
100
AcDbEntity
  8
0
100
AcDbLine
 62
7
  6
CONTINUOUS
 10
161.2230079879
 20
104.1812390596
 11
164.8585819879
 21
99.1873050596
  0
LINE
  5
2D2
100
AcDbEntity
  8
IMPORT_IGES
100
AcDbLine
 62
7
  6
CONTINUOUS
 10
161.2230079879
 20
104.1812390596
 11
164.8585819879
 21
99.1873050596
  0
LINE
  5
2D3
100
AcDbEntity
  8
0
100
AcDbLine
 62
7
  6
CONTINUOUS
 10
166.5354779879
 20
96.8840620596
 11
168.4941529879
 21
94.1933710596
  0
LINE
  5
2D4
100
AcDbEntity
  8
IMPORT_IGES
100
AcDbLine
 62
7
  6
CONTINUOUS
 10
166.5354779879
 20
96.8840620596
 11
168.4941529879
 21
94.1933710596
  0
LINE
  5
2D5
100
AcDbEntity
  8
0
100
AcDbLine
 62
7
  6
CONTINUOUS
 10
161.6671199879
 20
101.6704880596
 11
159.8493319879
 21
104.1712810596
  0
LINE
  5
2D6
100
AcDbEntity
  8
IMPORT_IGES
100
AcDbLine
 62
7
  6
CONTINUOUS
 10
161.6671199879
 20
101.6704880596
 11
159.8493319879
 21
104.1712810596
  0
LINE
  5
2D7
100
AcDbEntity
  8
0
100
AcDbLine
 62
7
  6
CONTINUOUS
 10
164.5768019879
 20
94.1933710596
 11
166.5354779879
 21
96.8840620596
  0
LINE
  5
2D8
100
AcDbEntity
  8
IMPORT_IGES
100
AcDbLine
 62
7
  6
CONTINUOUS
 10
164.5768019879
 20
94.1933710596
 11
166.5354779879
 21
96.8840620596
  0
LINE
  5
2D9
100
AcDbEntity
  8
0
100
AcDbLine
 62
7
  6
CONTINUOUS
 10
168.2123749879
 20
99.1873050596
 11
171.8471799879
 21
104.1812390596
  0
LINE
  5
2DA
100
AcDbEntity
  8
IMPORT_IGES
100
AcDbLine
 62
7
  6
CONTINUOUS
 10
168.2123749879
 20
99.1873050596
 11
171.8471799879
 21
104.1812390596
  0
LINE
  5
2DB
100
AcDbEntity
  8
0
100
AcDbLine
 62
7
  6
CONTINUOUS
 10
166.5354779879
 20
101.4913110596
 11
164.5768019879
 21
104.1812390596
  0
LINE
  5
2DC
100
AcDbEntity
  8
IMPORT_IGES
100
AcDbLine
 62
7
  6
CONTINUOUS
 10
166.5354779879
 20
101.4913110596
 11
164.5768019879
 21
104.1812390596
  0
LINE
  5
2DD
100
AcDbEntity
  8
0
100
AcDbLine
 62
7
  6
CONTINUOUS
 10
171.8471799879
 20
94.1933710596
 11
168.2123749879
 21
99.1873050596
  0
LINE
  5
2DE
100
AcDbEntity
  8
IMPORT_IGES
100
AcDbLine
 62
7
  6
CONTINUOUS
 10
171.8471799879
 20
94.1933710596
 11
168.2123749879
 21
99.1873050596
  0
LWPOLYLINE
  5
2DF
100
AcDbEntity
  8
RACCORDO
100
AcDbPolyline
 62
253
  6
CONTINUOUS
 90
31
 70
0
 10
113.5990942503
 20
120.0498410313
 10
113.5361073119
 20
120.0481721525
 10
113.473606707
 20
120.0432597454
 10
113.4115924357
 20
120.0351038101
 10
113.3498883984
 20
120.0236642439
 10
113.2886706947
 20
120.0089811494
 10
113.2284676228
 20
119.991174835
 10
113.1692964435
 20
119.9702197521
 10
113.111139896
 20
119.9461414492
 10
113.0544744961
 20
119.9191368811
 10
112.9993127557
 20
119.8891820733
 10
112.945642163
 20
119.8563010002
 10
112.8939016979
 20
119.8207625396
 10
112.844106979
 20
119.782544781
 10
112.7962423877
 20
119.741669635
 10
112.7507000483
 20
119.698471711
 10
112.7074990015
 20
119.6529317947
 10
112.6666202065
 20
119.6050691005
 10
112.628398666
 20
119.5552758818
 10
112.5928563684
 20
119.5035365007
 10
112.5599713253
 20
119.4498665952
 10
112.5300125738
 20
119.3947053316
 10
112.5030041023
 20
119.3380402578
 10
112.4789219223
 20
119.279883826
 10
112.4579631059
 20
119.2207125593
 10
112.4401532686
 20
119.1605113235
 10
112.4254667948
 20
119.0992952527
 10
112.4140239102
 20
119.0375862721
 10
112.4058646898
 20
118.9755583569
 10
112.4009490584
 20
118.9130375319
 10
112.3992770162
 20
118.8500237972
  0
LINE
  5
2E0
100
AcDbEntity
  8
RACCORDO
100
AcDbLine
 62
253
  6
CONTINUOUS
 10
112.3992770162
 20
118.8500237972
 11
108.5998557746
 21
118.8500237972
  0
LINE
  5
2E1
100
AcDbEntity
  8
RACCORDO
100
AcDbLine
 62
253
  6
CONTINUOUS
 10
182.1627549596
 20
118.8500237972
 11
185.9621762012
 21
118.850023797
  0
LINE
  5
2E2
100
AcDbEntity
  8
RACCORDO
100
AcDbLine
 62
253
  6
CONTINUOUS
 10
180.9629377254
 20
120.0498410313
 11
113.5990942503
 21
120.0498410313
  0
LINE
  5
2E3
100
AcDbEntity
  8
DRAFT
100
AcDbLine
 62
7
  6
CONTINUOUS
 10
186.2810159879
 20
102.7897544472
 11
186.1588305334
 21
102.6675689927
  0
LINE
  5
2E4
100
AcDbEntity
  8
RACCORDO
100
AcDbLine
 62
253
  6
CONTINUOUS
 10
180.9629377254
 20
123.8492622729
 11
113.5990942503
 21
123.8492622729
  0
LINE
  5
2E5
100
AcDbEntity
  8
RACCORDO
100
AcDbLine
 62
7
  6
CONTINUOUS
 10
181.2817775121
 20
124.1681020596
 11
113.2802544637
 21
124.1681020596
  0
LINE
  5
2E6
100
AcDbEntity
  8
DRAFT
100
AcDbLine
 62
7
  6
CONTINUOUS
 10
175.2810159879
 20
124.1820661116
 11
181.2810159879
 21
124.1820661116
  0
LINE
  5
2E7
100
AcDbEntity
  8
RACCORDO
100
AcDbLine
 62
7
  6
CONTINUOUS
 10
181.316687642
 20
124.2030121895
 11
113.2453443338
 21
124.2030121895
  0
LINE
  5
2E8
100
AcDbEntity
  8
DRAFT
100
AcDbLine
 62
7
  6
CONTINUOUS
 10
186.2810159879
 20
95.5464496721
 11
186.1588305334
 21
95.6686351266
  0
LINE
  5
2E9
100
AcDbEntity
  8
DRAFT
100
AcDbLine
 62
7
  6
CONTINUOUS
 10
175.2810159879
 20
124.1820661116
 11
175.2810159879
 21
124.1681020596
  0
LINE
  5
2EA
100
AcDbEntity
  8
DRAFT
100
AcDbLine
 62
7
  6
CONTINUOUS
 10
175.2810159879
 20
74.1681020596
 11
175.2810159879
 21
74.1541380077
  0
LWPOLYLINE
  5
2EB
100
AcDbEntity
  8
RACCORDO
100
AcDbPolyline
 62
253
  6
CONTINUOUS
 90
31
 70
0
 10
113.5990942503
 20
123.8492622729
 10
113.3374817905
 20
123.8423524321
 10
113.0765887326
 20
123.8217628612
 10
112.8171298391
 20
123.7875502581
 10
112.5598166056
 20
123.7398088298
 10
112.3053532552
 20
123.6786695421
 10
112.0544348967
 20
123.6042993862
 10
111.8077477924
 20
123.5169015832
 10
111.565969089
 20
123.4167158649
 10
111.3297628562
 20
123.3040173404
 10
111.0997772465
 20
123.1791155543
 10
110.8766411538
 20
123.0423523928
 10
110.6609642902
 20
122.8941015104
 10
110.4533368951
 20
122.7347683543
 10
110.2543287275
 20
122.5647899094
 10
110.0644858385
 20
122.3846324552
 10
109.884328394
 20
122.1947896061
 10
109.7143499798
 20
121.9957815101
 10
109.5550168419
 20
121.7881541827
 10
109.4067659595
 20
121.5724773714
 10
109.2700027888
 20
121.3493413237
 10
109.1451009801
 20
121.1193557402
 10
109.0324024156
 20
120.8831494964
 10
108.9322166518
 20
120.6413707594
 10
108.8448188136
 20
120.394683638
 10
108.7704486411
 20
120.1437653247
 10
108.7093093366
 20
119.8893020393
 10
108.6615678746
 20
119.631988796
 10
108.6273552295
 20
119.3725297842
 10
108.6067656263
 20
119.1116365303
 10
108.5998557746
 20
118.8500237972
  0
LINE
  5
2EC
100
AcDbEntity
  8
RACCORDO
100
AcDbLine
 62
253
  6
CONTINUOUS
 10
180.9629377254
 20
78.2863630879
 11
180.9629377253
 21
74.4869418463
  0
LINE
  5
2ED
100
AcDbEntity
  8
RACCORDO
100
AcDbLine
 62
253
  6
CONTINUOUS
 10
180.9629377254
 20
120.0498410313
 11
180.9629377254
 21
123.8492622729
  0
LINE
  5
2EE
100
AcDbEntity
  8
DRAFT
100
AcDbLine
 62
7
  6
CONTINUOUS
 10
181.2810159879
 20
74.1541380077
 11
181.2810159879
 21
74.1681020596
  0
LINE
  5
2EF
100
AcDbEntity
  8
DRAFT
100
AcDbLine
 62
7
  6
CONTINUOUS
 10
181.2810159879
 20
124.1681020596
 11
181.2810159879
 21
124.1820661116
  0
LWPOLYLINE
  5
2F0
100
AcDbEntity
  8
RACCORDO
100
AcDbPolyline
 62
253
  6
CONTINUOUS
 90
31
 70
0
 10
182.1627549596
 20
118.8500237972
 10
182.1610860808
 20
118.9130107356
 10
182.1561736737
 20
118.9755113405
 10
182.1480177384
 20
119.0375256118
 10
182.1365781722
 20
119.0992296491
 10
182.1218950777
 20
119.1604473528
 10
182.1040887633
 20
119.2206504247
 10
182.0831336804
 20
119.279821604
 10
182.0590553775
 20
119.3379781515
 10
182.0320508094
 20
119.3946435514
 10
182.0020960016
 20
119.4498052918
 10
181.9692149285
 20
119.5034758845
 10
181.9336764679
 20
119.5552163496
 10
181.8954587093
 20
119.6050110685
 10
181.8545835632
 20
119.6528756598
 10
181.8113856393
 20
119.6984179992
 10
181.765845723
 20
119.741619046
 10
181.7179830288
 20
119.782497841
 10
181.66818981
 20
119.8207193815
 10
181.616450429
 20
119.8562616791
 10
181.5627805235
 20
119.8891467222
 10
181.5076192599
 20
119.9191054737
 10
181.4509541861
 20
119.9461139452
 10
181.3927977543
 20
119.9701961252
 10
181.3336264875
 20
119.9911549416
 10
181.2734252517
 20
120.0089647789
 10
181.212209181
 20
120.0236512527
 10
181.1505002004
 20
120.0350941373
 10
181.0884722852
 20
120.0432533577
 10
181.0259514602
 20
120.0481689891
 10
180.9629377254
 20
120.0498410313
  0
LINE
  5
2F1
100
AcDbEntity
  8
RACCORDO
100
AcDbLine
 62
253
  6
CONTINUOUS
 10
182.1627549596
 20
79.4861803221
 11
182.1627549596
 21
118.8500237972
  0
LWPOLYLINE
  5
2F2
100
AcDbEntity
  8
RACCORDO
100
AcDbPolyline
 62
253
  6
CONTINUOUS
 90
31
 70
0
 10
185.9621762012
 20
118.8500237972
 10
185.9552663604
 20
119.111636257
 10
185.9346767895
 20
119.3725293149
 10
185.9004641864
 20
119.6319882084
 10
185.8527227581
 20
119.8893014419
 10
185.7915834704
 20
120.1437647923
 10
185.7172133145
 20
120.3946831508
 10
185.6298155115
 20
120.6413702552
 10
185.5296297932
 20
120.8831489585
 10
185.4169312687
 20
121.1193551913
 10
185.2920294826
 20
121.349340801
 10
185.1552663211
 20
121.5724768937
 10
185.0070154387
 20
121.7881537573
 10
184.8476822826
 20
121.9957811524
 10
184.6777038377
 20
122.19478932
 10
184.4975463835
 20
122.384632209
 10
184.3077035344
 20
122.5647896535
 10
184.1086954384
 20
122.7347680677
 10
183.901068111
 20
122.8941012056
 10
183.6853912997
 20
123.042352088
 10
183.462255252
 20
123.1791152587
 10
183.2322696684
 20
123.3040170674
 10
182.9960634247
 20
123.4167156319
 10
182.7542846877
 20
123.5169013957
 10
182.5075975663
 20
123.6042992339
 10
182.256679253
 20
123.6786694064
 10
182.0022159676
 20
123.7398087109
 10
181.7449027243
 20
123.7875501729
 10
181.4854437125
 20
123.821762818
 10
181.2245504585
 20
123.8423524212
 10
180.9629377254
 20
123.8492622729
  0
LINE
  5
2F3
100
AcDbEntity
  8
RACCORDO
100
AcDbLine
 62
253
  6
CONTINUOUS
 10
185.9621762012
 20
79.4861803221
 11
185.9621762012
 21
118.8500237972
  0
LINE
  5
2F4
100
AcDbEntity
  8
RACCORDO
100
AcDbLine
 62
7
  6
CONTINUOUS
 10
186.2810159879
 20
79.1673405354
 11
186.2810159879
 21
119.1688635838
  0
LINE
  5
2F5
100
AcDbEntity
  8
RACCORDO
100
AcDbLine
 62
7
  6
CONTINUOUS
 10
186.3159261177
 20
79.1324304055
 11
186.3159261177
 21
119.2037737137
  0
LINE
  5
2F6
100
AcDbEntity
  8
RACCORDO
100
AcDbLine
 62
7
  6
CONTINUOUS
 10
181.288378776
 20
74.1615007957
 11
181.2810159879
 21
74.1541380077
  0
LINE
  5
2F7
100
AcDbEntity
  8
RACCORDO
100
AcDbLine
 62
7
  6
CONTINUOUS
 10
181.288378776
 20
124.1747033235
 11
181.2810159879
 21
124.1820661116
  0
LINE
  5
2F8
100
AcDbEntity
  8
RACCORDO
100
AcDbLine
 62
7
  6
CONTINUOUS
 10
67.8238563269
 20
74.4869418463
 11
86.0901754714
 21
74.1681020596
  0
LINE
  5
2F9
100
AcDbEntity
  8
DRAFT
100
AcDbLine
 62
7
  6
CONTINUOUS
 10
86.0901754714
 20
74.1681020596
 11
86.4683616247
 21
74.1615007957
  0
LINE
  5
2FA
100
AcDbEntity
  8
RACCORDO
100
AcDbLine
 62
7
  6
CONTINUOUS
 10
86.4683616247
 20
74.1615007957
 11
88.0901754714
 21
74.1331919298
  0
LINE
  5
2FB
100
AcDbEntity
  8
RACCORDO
100
AcDbLine
 62
253
  6
CONTINUOUS
 10
64.0901754714
 20
79.4861803221
 11
67.8238563269
 21
79.4861803221
  0
LINE
  5
2FC
100
AcDbEntity
  8
RACCORDO
100
AcDbLine
 62
253
  6
CONTINUOUS
 10
67.8238563269
 20
79.4861803221
 11
88.0901754714
 21
79.1324304055
  0
LWPOLYLINE
  5
2FD
100
AcDbEntity
  8
RACCORDO
100
AcDbPolyline
 62
253
  6
CONTINUOUS
 90
8
 70
0
 10
67.8238563269
 20
74.4869418463
 10
67.8204824386
 20
74.4938516871
 10
67.8172941664
 20
74.514441258
 10
67.8143029969
 20
74.5486538611
 10
67.8115217813
 20
74.5963952894
 10
67.8089584494
 20
74.6575345771
 10
67.80661599
 20
74.7319047331
 10
67.8045024976
 20
74.819302536
  0
LINE
  5
2FE
100
AcDbEntity
  8
RACCORDO
100
AcDbLine
 62
7
  6
CONTINUOUS
 10
64.0901754714
 20
78.2863630879
 11
64.0901754714
 21
120.0498410313
  0
LINE
  5
2FF
100
AcDbEntity
  8
RACCORDO
100
AcDbLine
 62
253
  6
CONTINUOUS
 10
67.8045024976
 20
74.819302536
 11
67.8009879007
 21
75.0321867788
  0
LINE
  5
300
100
AcDbEntity
  8
RACCORDO
100
AcDbLine
 62
253
  6
CONTINUOUS
 10
67.8238563269
 20
118.8500237972
 11
67.8115217813
 21
119.8893014419
  0
LINE
  5
301
100
AcDbEntity
  8
RACCORDO
100
AcDbLine
 62
253
  6
CONTINUOUS
 10
67.8009879007
 20
75.0321867788
 11
67.7984485124
 21
75.2938517264
  0
LINE
  5
302
100
AcDbEntity
  8
RACCORDO
100
AcDbLine
 62
253
  6
CONTINUOUS
 10
67.8115217813
 20
119.8893014419
 11
67.8026259443
 21
120.8831489585
  0
LINE
  5
303
100
AcDbEntity
  8
RACCORDO
100
AcDbLine
 62
253
  6
CONTINUOUS
 10
67.8026259443
 20
120.8831489585
 11
67.7975542216
 21
121.7881537573
  0
LINE
  5
304
100
AcDbEntity
  8
RACCORDO
100
AcDbLine
 62
253
  6
CONTINUOUS
 10
67.7984485124
 20
75.2938517264
 11
67.7965284775
 21
75.7714142098
  0
LINE
  5
305
100
AcDbEntity
  8
RACCORDO
100
AcDbLine
 62
253
  6
CONTINUOUS
 10
67.8238563269
 20
79.4861803221
 11
67.8238563269
 21
118.8500237972
  0
LINE
  5
306
100
AcDbEntity
  8
RACCORDO
100
AcDbLine
 62
253
  6
CONTINUOUS
 10
67.7975542216
 20
121.7881537573
 11
67.7965285267
 21
122.5647896535
  0
LINE
  5
307
100
AcDbEntity
  8
RACCORDO
100
AcDbLine
 62
253
  6
CONTINUOUS
 10
67.7965284775
 20
75.7714142098
 11
67.7975543649
 21
76.5480499365
  0
LINE
  5
308
100
AcDbEntity
  8
RACCORDO
100
AcDbLine
 62
253
  6
CONTINUOUS
 10
67.7965285267
 20
122.5647896535
 11
67.7984486984
 21
123.042352088
  0
LINE
  5
309
100
AcDbEntity
  8
RACCORDO
100
AcDbLine
 62
253
  6
CONTINUOUS
 10
67.7975543649
 20
76.5480499365
 11
67.8026262011
 21
77.4530546228
  0
LINE
  5
30A
100
AcDbEntity
  8
RACCORDO
100
AcDbLine
 62
253
  6
CONTINUOUS
 10
67.8026262011
 20
77.4530546228
 11
67.8115221621
 21
78.4469020799
  0
LINE
  5
30B
100
AcDbEntity
  8
RACCORDO
100
AcDbLine
 62
253
  6
CONTINUOUS
 10
67.7984486984
 20
123.042352088
 11
67.8009881527
 21
123.3040170674
  0
LINE
  5
30C
100
AcDbEntity
  8
RACCORDO
100
AcDbLine
 62
253
  6
CONTINUOUS
 10
67.8115221621
 20
78.4469020799
 11
67.8238563269
 21
79.4861803221
  0
LWPOLYLINE
  5
30D
100
AcDbEntity
  8
RACCORDO
100
AcDbPolyline
 62
253
  6
CONTINUOUS
 90
9
 70
0
 10
67.8009881527
 20
123.3040170674
 10
67.8045027481
 20
123.5169013957
 10
67.8066162482
 20
123.6042992339
 10
67.808958762
 20
123.6786694064
 10
67.8115221621
 20
123.7398087109
 10
67.8143033876
 20
123.7875501729
 10
67.8172944847
 20
123.821762818
 10
67.8204826266
 20
123.8423524212
 10
67.8238563269
 20
123.8492622729
  0
LINE
  5
30E
100
AcDbEntity
  8
DRAFT
100
AcDbLine
 62
7
  6
CONTINUOUS
 10
86.0901754714
 20
95.5681020596
 11
85.4699432455
 21
95.5572758658
  0
LINE
  5
30F
100
AcDbEntity
  8
IMPORT_IGES
100
AcDbLine
 62
7
  6
CONTINUOUS
 10
79.2801754714
 20
95.8231020596
 11
78.1235585311
 21
95.8231020596
  0
LINE
  5
310
100
AcDbEntity
  8
IMPORT_IGES
100
AcDbLine
 62
7
  6
CONTINUOUS
 10
78.032650288
 20
95.8531020596
 11
78.2901754714
 21
95.8531020596
  0
LINE
  5
311
100
AcDbEntity
  8
IMPORT_IGES
100
AcDbLine
 62
7
  6
CONTINUOUS
 10
78.2901754714
 20
96.3631020596
 11
77.0593899616
 21
96.3631020596
  0
LINE
  5
312
100
AcDbEntity
  8
IMPORT_IGES
100
AcDbLine
 62
7
  6
CONTINUOUS
 10
79.2801754714
 20
96.3931020596
 11
77.0191355137
 21
96.3931020596
  0
LINE
  5
313
100
AcDbEntity
  8
IMPORT_IGES
100
AcDbLine
 62
7
  6
CONTINUOUS
 10
79.2801754714
 20
96.8431020596
 11
76.5369223056
 21
96.8431020596
  0
LINE
  5
314
100
AcDbEntity
  8
IMPORT_IGES
100
AcDbLine
 62
7
  6
CONTINUOUS
 10
76.510644553
 20
96.8731020596
 11
78.2901754714
 21
96.8731020596
  0
LINE
  5
315
100
AcDbEntity
  8
IMPORT_IGES
100
AcDbLine
 62
7
  6
CONTINUOUS
 10
78.2901754714
 20
97.3831020596
 11
76.1420986989
 21
97.3831020596
  0
LINE
  5
316
100
AcDbEntity
  8
IMPORT_IGES
100
AcDbLine
 62
7
  6
CONTINUOUS
 10
79.2801754714
 20
97.4131020596
 11
76.1238389027
 21
97.4131020596
  0
LINE
  5
317
100
AcDbEntity
  8
DRAFT
100
AcDbLine
 62
7
  6
CONTINUOUS
 10
86.0901754714
 20
95.5464496721
 11
79.0901754714
 21
95.6686351266
  0
LINE
  5
318
100
AcDbEntity
  8
IMPORT_IGES
100
AcDbLine
 62
7
  6
CONTINUOUS
 10
75.6901754714
 20
98.8831020596
 11
75.6901754714
 21
98.9131020596
  0
LINE
  5
319
100
AcDbEntity
  8
IMPORT_IGES
100
AcDbLine
 62
7
  6
CONTINUOUS
 10
75.6901754714
 20
99.4231020596
 11
75.6901754714
 21
99.4531020596
  0
LINE
  5
31A
100
AcDbEntity
  8
IMPORT_IGES
100
AcDbLine
 62
7
  6
CONTINUOUS
 10
79.2801754714
 20
97.8631020596
 11
75.9051136987
 21
97.8631020596
  0
LINE
  5
31B
100
AcDbEntity
  8
IMPORT_IGES
100
AcDbLine
 62
7
  6
CONTINUOUS
 10
75.8933333502
 20
97.8931020596
 11
78.2901754714
 21
97.8931020596
  0
LINE
  5
31C
100
AcDbEntity
  8
IMPORT_IGES
100
AcDbLine
 62
7
  6
CONTINUOUS
 10
78.2901754714
 20
98.4031020596
 11
75.7367610432
 21
98.4031020596
  0
LINE
  5
31D
100
AcDbEntity
  8
IMPORT_IGES
100
AcDbLine
 62
7
  6
CONTINUOUS
 10
79.2801754714
 20
98.4331020596
 11
75.7306298868
 21
98.4331020596
  0
LINE
  5
31E
100
AcDbEntity
  8
IMPORT_IGES
100
AcDbLine
 62
7
  6
CONTINUOUS
 10
79.2801754714
 20
98.8831020596
 11
75.6643588305
 21
98.8831020596
  0
LINE
  5
31F
100
AcDbEntity
  8
IMPORT_IGES
100
AcDbLine
 62
7
  6
CONTINUOUS
 10
78.2901754714
 20
98.9131020596
 11
75.6617636936
 21
98.9131020596
  0
LINE
  5
320
100
AcDbEntity
  8
IMPORT_IGES
100
AcDbLine
 62
7
  6
CONTINUOUS
 10
75.6617636936
 20
99.4231020596
 11
78.2901754714
 21
99.4231020596
  0
LINE
  5
321
100
AcDbEntity
  8
IMPORT_IGES
100
AcDbLine
 62
7
  6
CONTINUOUS
 10
79.2801754714
 20
99.4531020596
 11
75.6643588305
 21
99.4531020596
  0
LINE
  5
322
100
AcDbEntity
  8
IMPORT_IGES
100
AcDbLine
 62
7
  6
CONTINUOUS
 10
79.2801754714
 20
99.9031020596
 11
75.7306298868
 21
99.9031020596
  0
LINE
  5
323
100
AcDbEntity
  8
IMPORT_IGES
100
AcDbLine
 62
7
  6
CONTINUOUS
 10
75.7367610432
 20
99.9331020596
 11
78.2901754714
 21
99.9331020596
  0
LINE
  5
324
100
AcDbEntity
  8
IMPORT_IGES
100
AcDbLine
 62
7
  6
CONTINUOUS
 10
78.2901754714
 20
100.4431020596
 11
75.8933333502
 21
100.4431020596
  0
LINE
  5
325
100
AcDbEntity
  8
IMPORT_IGES
100
AcDbLine
 62
7
  6
CONTINUOUS
 10
79.2801754714
 20
100.4731020596
 11
75.9051136987
 21
100.4731020596
  0
LINE
  5
326
100
AcDbEntity
  8
IMPORT_IGES
100
AcDbLine
 62
7
  6
CONTINUOUS
 10
79.2801754714
 20
100.9231020596
 11
76.1238389027
 21
100.9231020596
  0
LINE
  5
327
100
AcDbEntity
  8
IMPORT_IGES
100
AcDbLine
 62
7
  6
CONTINUOUS
 10
76.1420986989
 20
100.9531020596
 11
78.2901754714
 21
100.9531020596
  0
LINE
  5
328
100
AcDbEntity
  8
IMPORT_IGES
100
AcDbLine
 62
7
  6
CONTINUOUS
 10
78.2901754714
 20
99.4231020596
 11
78.2901754714
 21
98.9131020596
  0
LINE
  5
329
100
AcDbEntity
  8
IMPORT_IGES
100
AcDbLine
 62
7
  6
CONTINUOUS
 10
78.2901754714
 20
95.8531020596
 11
78.2901754714
 21
96.3631020596
  0
LINE
  5
32A
100
AcDbEntity
  8
IMPORT_IGES
100
AcDbLine
 62
7
  6
CONTINUOUS
 10
78.2901754714
 20
96.8731020596
 11
78.2901754714
 21
97.3831020596
  0
LINE
  5
32B
100
AcDbEntity
  8
IMPORT_IGES
100
AcDbLine
 62
7
  6
CONTINUOUS
 10
78.2901754714
 20
97.8931020596
 11
78.2901754714
 21
98.4031020596
  0
LINE
  5
32C
100
AcDbEntity
  8
IMPORT_IGES
100
AcDbLine
 62
7
  6
CONTINUOUS
 10
78.2901754714
 20
99.9331020596
 11
78.2901754714
 21
100.4431020596
  0
LINE
  5
32D
100
AcDbEntity
  8
IMPORT_IGES
100
AcDbLine
 62
7
  6
CONTINUOUS
 10
78.2901754714
 20
100.9531020596
 11
78.2901754714
 21
101.4631020596
  0
LINE
  5
32E
100
AcDbEntity
  8
IMPORT_IGES
100
AcDbLine
 62
7
  6
CONTINUOUS
 10
78.2901754714
 20
101.9731020596
 11
78.2901754714
 21
102.4831020596
  0
LINE
  5
32F
100
AcDbEntity
  8
IMPORT_IGES
100
AcDbLine
 62
7
  6
CONTINUOUS
 10
79.0901754714
 20
95.8231020596
 11
79.0901754714
 21
96.3931020596
  0
LINE
  5
330
100
AcDbEntity
  8
IMPORT_IGES
100
AcDbLine
 62
7
  6
CONTINUOUS
 10
79.0901754714
 20
96.8431020596
 11
79.0901754714
 21
97.4131020596
  0
LINE
  5
331
100
AcDbEntity
  8
IMPORT_IGES
100
AcDbLine
 62
7
  6
CONTINUOUS
 10
79.0901754714
 20
97.8631020596
 11
79.0901754714
 21
98.4331020596
  0
LINE
  5
332
100
AcDbEntity
  8
IMPORT_IGES
100
AcDbLine
 62
7
  6
CONTINUOUS
 10
79.0901754714
 20
98.8831020596
 11
79.0901754714
 21
99.4531020596
  0
LINE
  5
333
100
AcDbEntity
  8
IMPORT_IGES
100
AcDbLine
 62
7
  6
CONTINUOUS
 10
79.0901754714
 20
99.9031020596
 11
79.0901754714
 21
100.4731020596
  0
LINE
  5
334
100
AcDbEntity
  8
IMPORT_IGES
100
AcDbLine
 62
7
  6
CONTINUOUS
 10
79.0901754714
 20
100.9231020596
 11
79.0901754714
 21
101.4931020596
  0
LINE
  5
335
100
AcDbEntity
  8
IMPORT_IGES
100
AcDbLine
 62
7
  6
CONTINUOUS
 10
79.0901754714
 20
101.9431020596
 11
79.0901754714
 21
102.5131020596
  0
LINE
  5
336
100
AcDbEntity
  8
IMPORT_IGES
100
AcDbLine
 62
7
  6
CONTINUOUS
 10
79.2801754714
 20
102.670885455
 11
79.2801754714
 21
95.6653186642
  0
LINE
  5
337
100
AcDbEntity
  8
DRAFT
100
AcDbLine
 62
7
  6
CONTINUOUS
 10
86.0901754714
 20
102.7897544472
 11
79.0901754714
 21
102.6675689927
  0
LINE
  5
338
100
AcDbEntity
  8
IMPORT_IGES
100
AcDbLine
 62
7
  6
CONTINUOUS
 10
78.2901754714
 20
101.4631020596
 11
76.510644553
 21
101.4631020596
  0
LINE
  5
339
100
AcDbEntity
  8
IMPORT_IGES
100
AcDbLine
 62
7
  6
CONTINUOUS
 10
79.2801754714
 20
101.4931020596
 11
76.5369223056
 21
101.4931020596
  0
LINE
  5
33A
100
AcDbEntity
  8
IMPORT_IGES
100
AcDbLine
 62
7
  6
CONTINUOUS
 10
79.2801754714
 20
101.9431020596
 11
77.0191355137
 21
101.9431020596
  0
LINE
  5
33B
100
AcDbEntity
  8
IMPORT_IGES
100
AcDbLine
 62
7
  6
CONTINUOUS
 10
77.0593899615
 20
101.9731020596
 11
78.2901754714
 21
101.9731020596
  0
LINE
  5
33C
100
AcDbEntity
  8
IMPORT_IGES
100
AcDbLine
 62
7
  6
CONTINUOUS
 10
78.2901754714
 20
102.4831020596
 11
78.032650288
 21
102.4831020596
  0
LINE
  5
33D
100
AcDbEntity
  8
IMPORT_IGES
100
AcDbLine
 62
7
  6
CONTINUOUS
 10
79.2801754714
 20
102.5131020596
 11
78.1235585311
 21
102.5131020596
  0
LINE
  5
33E
100
AcDbEntity
  8
DRAFT
100
AcDbLine
 62
7
  6
CONTINUOUS
 10
86.0901754714
 20
102.7681020596
 11
85.4699432455
 21
102.7789282534
  0
LINE
  5
33F
100
AcDbEntity
  8
DRAFT
100
AcDbLine
 62
7
  6
CONTINUOUS
 10
83.0901754714
 20
95.5988148668
 11
83.0901754714
 21
102.7373892524
  0
LINE
  5
340
100
AcDbEntity
  8
RACCORDO
100
AcDbLine
 62
7
  6
CONTINUOUS
 10
86.0901754714
 20
74.1681020596
 11
86.0901754714
 21
124.1681020596
  0
LINE
  5
341
100
AcDbEntity
  8
RACCORDO
100
AcDbLine
 62
7
  6
CONTINUOUS
 10
88.0901754714
 20
74.1331919298
 11
88.0901754714
 21
124.2030121895
  0
LINE
  5
342
100
AcDbEntity
  8
RACCORDO
100
AcDbLine
 62
253
  6
CONTINUOUS
 10
67.8238563269
 20
118.8500237972
 11
88.0901754714
 21
119.2037737137
  0
LINE
  5
343
100
AcDbEntity
  8
RACCORDO
100
AcDbLine
 62
253
  6
CONTINUOUS
 10
64.0901754714
 20
118.8500237972
 11
67.8238563269
 21
118.850023797
  0
LINE
  5
344
100
AcDbEntity
  8
RACCORDO
100
AcDbLine
 62
7
  6
CONTINUOUS
 10
67.8238563269
 20
123.8492622729
 11
86.0901754714
 21
124.1681020596
  0
LINE
  5
345
100
AcDbEntity
  8
DRAFT
100
AcDbLine
 62
7
  6
CONTINUOUS
 10
86.0901754714
 20
124.1681020596
 11
86.4683616247
 21
124.1747033235
  0
LINE
  5
346
100
AcDbEntity
  8
RACCORDO
100
AcDbLine
 62
7
  6
CONTINUOUS
 10
86.4683616247
 20
124.1747033235
 11
88.0901754714
 21
124.2030121895
  0
LINE
  5
347
100
AcDbEntity
  8
RACCORDO
100
AcDbLine
 62
7
  6
CONTINUOUS
 10
230.80980931
 20
74.4869418463
 11
210.5434901656
 21
74.1331919298
  0
LINE
  5
348
100
AcDbEntity
  8
RACCORDO
100
AcDbLine
 62
253
  6
CONTINUOUS
 10
230.80980931
 20
79.4861803221
 11
210.5434901656
 21
79.1324304055
  0
LINE
  5
349
100
AcDbEntity
  8
RACCORDO
100
AcDbLine
 62
253
  6
CONTINUOUS
 10
234.5434901656
 20
79.4861803221
 11
230.80980931
 21
79.4861803222
  0
LINE
  5
34A
100
AcDbEntity
  8
RACCORDO
100
AcDbLine
 62
7
  6
CONTINUOUS
 10
210.5434901656
 20
74.1331919298
 11
210.5434901656
 21
124.2030121895
  0
LINE
  5
34B
100
AcDbEntity
  8
RACCORDO
100
AcDbLine
 62
7
  6
CONTINUOUS
 10
212.5434901656
 20
124.1681020596
 11
212.5434901656
 21
109.1681020596
  0
LINE
  5
34C
100
AcDbEntity
  8
RACCORDO
100
AcDbLine
 62
7
  6
CONTINUOUS
 10
212.5434901656
 20
89.1681020596
 11
212.5434901656
 21
74.1681020596
  0
LINE
  5
34D
100
AcDbEntity
  8
DRAFT
100
AcDbLine
 62
7
  6
CONTINUOUS
 10
212.5434901656
 20
88.8681020598
 11
227.4434919477
 21
89.1281825583
  0
LINE
  5
34E
100
AcDbEntity
  8
DRAFT
100
AcDbLine
 62
7
  6
CONTINUOUS
 10
212.5434901656
 20
89.1681020596
 11
227.4434940035
 21
89.428182594
  0
LINE
  5
34F
100
AcDbEntity
  8
IMPORT_IGES
100
AcDbLine
 62
7
  6
CONTINUOUS
 10
227.4435055835
 20
91.1181020596
 11
227.2434901656
 21
91.1181020596
  0
LINE
  5
350
100
AcDbEntity
  8
DRAFT
100
AcDbLine
 62
7
  6
CONTINUOUS
 10
227.4435053777
 20
91.0880715968
 11
227.2434901656
 21
91.0898171031
  0
LINE
  5
351
100
AcDbEntity
  8
IMPORT_IGES
100
AcDbLine
 62
253
  6
CONTINUOUS
 10
227.4435162047
 20
92.6681020596
 11
227.2434901656
 21
92.6681020596
  0
LINE
  5
352
100
AcDbEntity
  8
IMPORT_IGES
100
AcDbLine
 62
7
  6
CONTINUOUS
 10
226.9934901656
 20
93.1681020596
 11
219.5434901656
 21
93.1681020596
  0
LINE
  5
353
100
AcDbEntity
  8
IMPORT_IGES
100
AcDbLine
 62
7
  6
CONTINUOUS
 10
219.5434901656
 20
93.8181020596
 11
220.3434901656
 21
93.8181020596
  0
LINE
  5
354
100
AcDbEntity
  8
DRAFT
100
AcDbLine
 62
7
  6
CONTINUOUS
 10
227.2434901656
 20
92.8898171031
 11
219.2434901656
 21
92.9596320454
  0
LINE
  5
355
100
AcDbEntity
  8
DRAFT
100
AcDbLine
 62
7
  6
CONTINUOUS
 10
220.3434901656
 20
94.204251566
 11
219.5434901656
 21
94.1902875141
  0
LINE
  5
356
100
AcDbEntity
  8
IMPORT_IGES
100
AcDbLine
 62
7
  6
CONTINUOUS
 10
222.9434901656
 20
95.3431020596
 11
220.3434901656
 21
95.3431020596
  0
LINE
  5
357
100
AcDbEntity
  8
IMPORT_IGES
100
AcDbLine
 62
7
  6
CONTINUOUS
 10
219.5434901656
 20
95.3731020596
 11
222.9434901656
 21
95.3731020596
  0
LINE
  5
358
100
AcDbEntity
  8
DRAFT
100
AcDbLine
 62
7
  6
CONTINUOUS
 10
219.2434901656
 20
92.9596320454
 11
219.2434901656
 21
105.3765720738
  0
LINE
  5
359
100
AcDbEntity
  8
IMPORT_IGES
100
AcDbLine
 62
7
  6
CONTINUOUS
 10
219.5434901656
 20
105.1681020596
 11
219.5434901656
 21
93.1681020596
  0
LINE
  5
35A
100
AcDbEntity
  8
IMPORT_IGES
100
AcDbLine
 62
7
  6
CONTINUOUS
 10
220.3434901656
 20
104.5181020596
 11
220.3434901656
 21
102.9931020596
  0
LINE
  5
35B
100
AcDbEntity
  8
IMPORT_IGES
100
AcDbLine
 62
7
  6
CONTINUOUS
 10
220.3434901656
 20
102.4831020596
 11
220.3434901656
 21
101.9731020596
  0
LINE
  5
35C
100
AcDbEntity
  8
IMPORT_IGES
100
AcDbLine
 62
7
  6
CONTINUOUS
 10
220.3434901656
 20
101.4631020596
 11
220.3434901656
 21
100.9531020596
  0
LINE
  5
35D
100
AcDbEntity
  8
IMPORT_IGES
100
AcDbLine
 62
7
  6
CONTINUOUS
 10
220.3434901656
 20
100.4431020596
 11
220.3434901656
 21
99.9331020596
  0
LINE
  5
35E
100
AcDbEntity
  8
IMPORT_IGES
100
AcDbLine
 62
7
  6
CONTINUOUS
 10
220.3434901656
 20
99.4231020596
 11
220.3434901656
 21
98.9131020596
  0
LINE
  5
35F
100
AcDbEntity
  8
IMPORT_IGES
100
AcDbLine
 62
7
  6
CONTINUOUS
 10
220.3434901656
 20
98.4031020596
 11
220.3434901656
 21
97.8931020596
  0
LINE
  5
360
100
AcDbEntity
  8
IMPORT_IGES
100
AcDbLine
 62
7
  6
CONTINUOUS
 10
220.3434901656
 20
97.3831020596
 11
220.3434901656
 21
96.8731020596
  0
LINE
  5
361
100
AcDbEntity
  8
IMPORT_IGES
100
AcDbLine
 62
7
  6
CONTINUOUS
 10
220.3434901656
 20
96.3631020596
 11
220.3434901656
 21
95.8531020596
  0
LINE
  5
362
100
AcDbEntity
  8
IMPORT_IGES
100
AcDbLine
 62
7
  6
CONTINUOUS
 10
220.3434901656
 20
95.3431020596
 11
220.3434901656
 21
93.8181020596
  0
LINE
  5
363
100
AcDbEntity
  8
IMPORT_IGES
100
AcDbLine
 62
7
  6
CONTINUOUS
 10
226.1934901656
 20
95.7681020596
 11
227.4435374471
 21
95.7681020596
  0
LINE
  5
364
100
AcDbEntity
  8
DRAFT
100
AcDbLine
 62
7
  6
CONTINUOUS
 10
227.4435377897
 20
95.8181020596
 11
229.0435377897
 21
95.8181020596
  0
LINE
  5
365
100
AcDbEntity
  8
IMPORT_IGES
100
AcDbLine
 62
7
  6
CONTINUOUS
 10
219.5434901656
 20
95.8231020596
 11
222.9434901656
 21
95.8231020596
  0
LINE
  5
366
100
AcDbEntity
  8
IMPORT_IGES
100
AcDbLine
 62
7
  6
CONTINUOUS
 10
220.3434901656
 20
95.8531020596
 11
222.9434901656
 21
95.8531020596
  0
LINE
  5
367
100
AcDbEntity
  8
IMPORT_IGES
100
AcDbLine
 62
7
  6
CONTINUOUS
 10
222.9434901656
 20
96.3631020596
 11
220.3434901656
 21
96.3631020596
  0
LINE
  5
368
100
AcDbEntity
  8
IMPORT_IGES
100
AcDbLine
 62
7
  6
CONTINUOUS
 10
219.5434901656
 20
96.3931020596
 11
222.9434901656
 21
96.3931020596
  0
LINE
  5
369
100
AcDbEntity
  8
IMPORT_IGES
100
AcDbLine
 62
253
  6
CONTINUOUS
 10
229.0435377897
 20
96.5481020596
 11
228.9434901656
 21
96.5481020596
  0
LINE
  5
36A
100
AcDbEntity
  8
IMPORT_IGES
100
AcDbLine
 62
7
  6
CONTINUOUS
 10
219.5434901656
 20
96.8431020596
 11
222.9434901656
 21
96.8431020596
  0
LINE
  5
36B
100
AcDbEntity
  8
DRAFT
100
AcDbLine
 62
7
  6
CONTINUOUS
 10
229.0435377897
 20
96.8681020596
 11
230.2435377897
 21
96.8681020596
  0
LINE
  5
36C
100
AcDbEntity
  8
IMPORT_IGES
100
AcDbLine
 62
7
  6
CONTINUOUS
 10
220.3434901656
 20
96.8731020596
 11
222.9434901656
 21
96.8731020596
  0
LINE
  5
36D
100
AcDbEntity
  8
IMPORT_IGES
100
AcDbLine
 62
7
  6
CONTINUOUS
 10
229.7205393459
 20
97.0481020596
 11
228.4434901656
 21
97.0481020596
  0
LINE
  5
36E
100
AcDbEntity
  8
IMPORT_IGES
100
AcDbLine
 62
7
  6
CONTINUOUS
 10
222.9434901656
 20
97.3831020596
 11
220.3434901656
 21
97.3831020596
  0
LINE
  5
36F
100
AcDbEntity
  8
IMPORT_IGES
100
AcDbLine
 62
7
  6
CONTINUOUS
 10
219.5434901656
 20
97.4131020596
 11
222.9434901656
 21
97.4131020596
  0
LWPOLYLINE
  5
370
100
AcDbEntity
  8
IMPORT_IGES
100
AcDbPolyline
 62
7
  6
CONTINUOUS
 90
5
 70
0
 10
227.4435165526
 20
105.6173366876
 10
227.4342404221
 20
105.6079135904
 10
227.377163183
 20
105.5510644534
 10
227.3229428247
 20
105.4975546487
 10
227.2723597722
 20
105.4471854003
  0
LWPOLYLINE
  5
371
100
AcDbEntity
  8
IMPORT_IGES
100
AcDbPolyline
 62
7
  6
CONTINUOUS
 90
3
 70
0
 10
227.0300200851
 20
105.2048047895
 10
226.9956648288
 20
105.1700234525
 10
226.9934901656
 20
105.1681020596
  0
LWPOLYLINE
  5
372
100
AcDbEntity
  8
IMPORT_IGES
100
AcDbPolyline
 62
7
  6
CONTINUOUS
 90
3
 70
0
 10
227.1430915922
 20
105.3178791582
 10
227.0773770868
 20
105.2519887434
 10
227.0300200851
 20
105.2048047895
  0
LINE
  5
373
100
AcDbEntity
  8
IMPORT_IGES
100
AcDbLine
 62
7
  6
CONTINUOUS
 10
227.2723597722
 20
105.4471854003
 11
227.1824493536
 21
105.3570612277
  0
LINE
  5
374
100
AcDbEntity
  8
IMPORT_IGES
100
AcDbLine
 62
7
  6
CONTINUOUS
 10
227.1824493536
 20
105.3570612277
 11
227.1430915922
 21
105.3178791582
  0
LINE
  5
375
100
AcDbEntity
  8
IMPORT_IGES
100
AcDbLine
 62
7
  6
CONTINUOUS
 10
219.5434901656
 20
97.8631020596
 11
222.9434901656
 21
97.8631020596
  0
LINE
  5
376
100
AcDbEntity
  8
IMPORT_IGES
100
AcDbLine
 62
7
  6
CONTINUOUS
 10
220.3434901656
 20
97.8931020596
 11
222.9434901656
 21
97.8931020596
  0
LINE
  5
377
100
AcDbEntity
  8
IMPORT_IGES
100
AcDbLine
 62
7
  6
CONTINUOUS
 10
222.9434901656
 20
98.4031020596
 11
220.3434901656
 21
98.4031020596
  0
LINE
  5
378
100
AcDbEntity
  8
IMPORT_IGES
100
AcDbLine
 62
7
  6
CONTINUOUS
 10
219.5434901656
 20
98.4331020596
 11
222.9434901656
 21
98.4331020596
  0
LINE
  5
379
100
AcDbEntity
  8
IMPORT_IGES
100
AcDbLine
 62
7
  6
CONTINUOUS
 10
219.5434901656
 20
98.8831020596
 11
222.9434901656
 21
98.8831020596
  0
LINE
  5
37A
100
AcDbEntity
  8
IMPORT_IGES
100
AcDbLine
 62
7
  6
CONTINUOUS
 10
220.3434901656
 20
98.9131020596
 11
222.9434901656
 21
98.9131020596
  0
LWPOLYLINE
  5
37B
100
AcDbEntity
  8
IMPORT_IGES
100
AcDbPolyline
 62
7
  6
CONTINUOUS
 90
5
 70
0
 10
227.4435165418
 20
92.7172962729
 10
227.4333016964
 20
92.7273518031
 10
227.3764525594
 20
92.7844290422
 10
227.3229427546
 20
92.8386494004
 10
227.2725735063
 20
92.8892324529
  0
LWPOLYLINE
  5
37C
100
AcDbEntity
  8
IMPORT_IGES
100
AcDbPolyline
 62
7
  6
CONTINUOUS
 90
3
 70
0
 10
227.0301928955
 20
93.13157214
 10
226.9954115584
 20
93.1659273964
 10
226.9934901656
 20
93.1681020596
  0
LINE
  5
37D
100
AcDbEntity
  8
IMPORT_IGES
100
AcDbLine
 62
7
  6
CONTINUOUS
 10
227.2725735063
 20
92.8892324529
 11
227.1824493337
 21
92.9791428716
  0
LINE
  5
37E
100
AcDbEntity
  8
IMPORT_IGES
100
AcDbLine
 62
7
  6
CONTINUOUS
 10
227.1824493337
 20
92.9791428716
 11
227.1432672642
 21
93.018500633
  0
LINE
  5
37F
100
AcDbEntity
  8
IMPORT_IGES
100
AcDbLine
 62
7
  6
CONTINUOUS
 10
227.1432672642
 20
93.018500633
 11
227.0301928955
 21
93.13157214
  0
LINE
  5
380
100
AcDbEntity
  8
IMPORT_IGES
100
AcDbLine
 62
7
  6
CONTINUOUS
 10
222.9434901656
 20
95.3431020596
 11
222.9434901656
 21
95.8531020596
  0
LINE
  5
381
100
AcDbEntity
  8
IMPORT_IGES
100
AcDbLine
 62
7
  6
CONTINUOUS
 10
222.9434901656
 20
96.3631020596
 11
222.9434901656
 21
96.8731020596
  0
LINE
  5
382
100
AcDbEntity
  8
IMPORT_IGES
100
AcDbLine
 62
7
  6
CONTINUOUS
 10
222.9434901656
 20
97.3831020596
 11
222.9434901656
 21
97.8931020596
  0
LINE
  5
383
100
AcDbEntity
  8
IMPORT_IGES
100
AcDbLine
 62
7
  6
CONTINUOUS
 10
222.9434901656
 20
98.4031020596
 11
222.9434901656
 21
98.9131020596
  0
LINE
  5
384
100
AcDbEntity
  8
IMPORT_IGES
100
AcDbLine
 62
7
  6
CONTINUOUS
 10
222.9434901656
 20
99.4231020596
 11
222.9434901656
 21
99.9331020596
  0
LINE
  5
385
100
AcDbEntity
  8
IMPORT_IGES
100
AcDbLine
 62
7
  6
CONTINUOUS
 10
222.9434901656
 20
100.4431020596
 11
222.9434901656
 21
100.9531020596
  0
LINE
  5
386
100
AcDbEntity
  8
IMPORT_IGES
100
AcDbLine
 62
7
  6
CONTINUOUS
 10
222.9434901656
 20
101.4631020596
 11
222.9434901656
 21
101.9731020596
  0
LINE
  5
387
100
AcDbEntity
  8
IMPORT_IGES
100
AcDbLine
 62
7
  6
CONTINUOUS
 10
222.9434901656
 20
102.4831020596
 11
222.9434901656
 21
102.9931020596
  0
LINE
  5
388
100
AcDbEntity
  8
RACCORDO
100
AcDbLine
 62
7
  6
CONTINUOUS
 10
223.0434901656
 20
89.0513802415
 11
223.0434901656
 21
89.3513802414
  0
LINE
  5
389
100
AcDbEntity
  8
RACCORDO
100
AcDbLine
 62
7
  6
CONTINUOUS
 10
223.0434901656
 20
108.9848238779
 11
223.0434901656
 21
109.2848238777
  0
LINE
  5
38A
100
AcDbEntity
  8
IMPORT_IGES
100
AcDbLine
 62
7
  6
CONTINUOUS
 10
224.4934901656
 20
93.1681020596
 11
224.4934901656
 21
105.1681020596
  0
LINE
  5
38B
100
AcDbEntity
  8
IMPORT_IGES
100
AcDbLine
 62
7
  6
CONTINUOUS
 10
226.9954115584
 20
102.5702767228
 11
226.9934901656
 21
102.5681020596
  0
LWPOLYLINE
  5
38C
100
AcDbEntity
  8
IMPORT_IGES
100
AcDbPolyline
 62
7
  6
CONTINUOUS
 90
3
 70
0
 10
219.506960246
 20
93.1313993297
 10
219.5413155024
 20
93.1661806668
 10
219.5434901656
 20
93.1681020596
  0
LINE
  5
38D
100
AcDbEntity
  8
IMPORT_IGES
100
AcDbLine
 62
7
  6
CONTINUOUS
 10
227.1080208543
 20
102.6826241288
 11
227.0301928955
 21
102.6046319792
  0
LINE
  5
38E
100
AcDbEntity
  8
IMPORT_IGES
100
AcDbLine
 62
7
  6
CONTINUOUS
 10
227.1432672642
 20
102.7177034862
 11
227.1080208543
 21
102.6826241288
  0
LWPOLYLINE
  5
38F
100
AcDbEntity
  8
IMPORT_IGES
100
AcDbPolyline
 62
7
  6
CONTINUOUS
 90
7
 70
0
 10
227.4435343579
 20
103.0189253846
 10
227.4333016964
 20
103.0088523161
 10
227.3764525594
 20
102.951775077
 10
227.3229427546
 20
102.8975547188
 10
227.2725735063
 20
102.8469716663
 10
227.2255435902
 20
102.8002240164
 10
227.1432672642
 20
102.7177034862
  0
LINE
  5
390
100
AcDbEntity
  8
IMPORT_IGES
100
AcDbLine
 62
7
  6
CONTINUOUS
 10
227.0301928955
 20
102.6046319792
 11
226.9954115584
 21
102.5702767228
  0
LINE
  5
391
100
AcDbEntity
  8
IMPORT_IGES
100
AcDbLine
 62
7
  6
CONTINUOUS
 10
222.9434901656
 20
99.4231020596
 11
220.3434901656
 21
99.4231020596
  0
LINE
  5
392
100
AcDbEntity
  8
IMPORT_IGES
100
AcDbLine
 62
7
  6
CONTINUOUS
 10
219.5434901656
 20
99.4531020596
 11
222.9434901656
 21
99.4531020596
  0
LINE
  5
393
100
AcDbEntity
  8
IMPORT_IGES
100
AcDbLine
 62
7
  6
CONTINUOUS
 10
219.5434901656
 20
99.9031020596
 11
222.9434901656
 21
99.9031020596
  0
LINE
  5
394
100
AcDbEntity
  8
IMPORT_IGES
100
AcDbLine
 62
7
  6
CONTINUOUS
 10
220.3434901656
 20
99.9331020596
 11
222.9434901656
 21
99.9331020596
  0
LINE
  5
395
100
AcDbEntity
  8
IMPORT_IGES
100
AcDbLine
 62
7
  6
CONTINUOUS
 10
222.9434901656
 20
100.4431020596
 11
220.3434901656
 21
100.4431020596
  0
LINE
  5
396
100
AcDbEntity
  8
IMPORT_IGES
100
AcDbLine
 62
7
  6
CONTINUOUS
 10
219.5434901656
 20
100.4731020596
 11
222.9434901656
 21
100.4731020596
  0
LINE
  5
397
100
AcDbEntity
  8
IMPORT_IGES
100
AcDbLine
 62
7
  6
CONTINUOUS
 10
219.5434901656
 20
100.9231020596
 11
222.9434901656
 21
100.9231020596
  0
LINE
  5
398
100
AcDbEntity
  8
IMPORT_IGES
100
AcDbLine
 62
7
  6
CONTINUOUS
 10
220.3434901656
 20
100.9531020596
 11
222.9434901656
 21
100.9531020596
  0
LINE
  5
399
100
AcDbEntity
  8
IMPORT_IGES
100
AcDbLine
 62
7
  6
CONTINUOUS
 10
226.9956648288
 20
95.7661806668
 11
226.9934901656
 21
95.7681020596
  0
LINE
  5
39A
100
AcDbEntity
  8
IMPORT_IGES
100
AcDbLine
 62
7
  6
CONTINUOUS
 10
227.1080122347
 20
95.6535713709
 11
227.0300200851
 21
95.7313993297
  0
LINE
  5
39B
100
AcDbEntity
  8
IMPORT_IGES
100
AcDbLine
 62
7
  6
CONTINUOUS
 10
227.1430915921
 20
95.618324961
 11
227.1080122347
 21
95.6535713709
  0
LWPOLYLINE
  5
39C
100
AcDbEntity
  8
IMPORT_IGES
100
AcDbPolyline
 62
7
  6
CONTINUOUS
 90
7
 70
0
 10
227.4435343687
 20
95.3188493332
 10
227.4342404221
 20
95.3282905288
 10
227.377163183
 20
95.3851396658
 10
227.3229428247
 20
95.4386494705
 10
227.2723597722
 20
95.4890187189
 10
227.2256121223
 20
95.536048635
 10
227.1430915921
 20
95.618324961
  0
LINE
  5
39D
100
AcDbEntity
  8
IMPORT_IGES
100
AcDbLine
 62
7
  6
CONTINUOUS
 10
227.0300200851
 20
95.7313993297
 11
226.9956648288
 21
95.7661806668
  0
LINE
  5
39E
100
AcDbEntity
  8
IMPORT_IGES
100
AcDbLine
 62
7
  6
CONTINUOUS
 10
226.1934901656
 20
93.1681020596
 11
226.1934901656
 21
95.7681020596
  0
LINE
  5
39F
100
AcDbEntity
  8
IMPORT_IGES
100
AcDbLine
 62
7
  6
CONTINUOUS
 10
226.1934901656
 20
102.5681020596
 11
226.1934901656
 21
105.1681020596
  0
LINE
  5
3A0
100
AcDbEntity
  8
IMPORT_IGES
100
AcDbLine
 62
7
  6
CONTINUOUS
 10
228.4454115584
 20
101.2902767228
 11
228.4434901656
 21
101.2881020596
  0
LINE
  5
3A1
100
AcDbEntity
  8
IMPORT_IGES
100
AcDbLine
 62
7
  6
CONTINUOUS
 10
228.5580208543
 20
101.4026241288
 11
228.4801928955
 21
101.3246319792
  0
LINE
  5
3A2
100
AcDbEntity
  8
IMPORT_IGES
100
AcDbLine
 62
7
  6
CONTINUOUS
 10
228.5932672642
 20
101.4377034862
 11
228.5580208543
 21
101.4026241288
  0
LINE
  5
3A3
100
AcDbEntity
  8
IMPORT_IGES
100
AcDbLine
 62
7
  6
CONTINUOUS
 10
219.334196274
 20
92.9588404652
 11
219.506960246
 21
93.1313993297
  0
LWPOLYLINE
  5
3A4
100
AcDbEntity
  8
IMPORT_IGES
100
AcDbPolyline
 62
7
  6
CONTINUOUS
 90
7
 70
0
 10
228.9434901656
 20
101.7881020596
 10
228.8833016964
 20
101.7288523161
 10
228.8264525594
 20
101.671775077
 10
228.7729427546
 20
101.6175547188
 10
228.7225735063
 20
101.5669716663
 10
228.6755435902
 20
101.5202240164
 10
228.5932672642
 20
101.4377034862
  0
LINE
  5
3A5
100
AcDbEntity
  8
IMPORT_IGES
100
AcDbLine
 62
7
  6
CONTINUOUS
 10
228.4801928955
 20
101.3246319792
 11
228.4454115584
 21
101.2902767228
  0
LINE
  5
3A6
100
AcDbEntity
  8
IMPORT_IGES
100
AcDbLine
 62
7
  6
CONTINUOUS
 10
229.7205393459
 20
101.2881020596
 11
228.4434901656
 21
101.2881020596
  0
LINE
  5
3A7
100
AcDbEntity
  8
IMPORT_IGES
100
AcDbLine
 62
7
  6
CONTINUOUS
 10
222.9434901656
 20
101.4631020596
 11
220.3434901656
 21
101.4631020596
  0
LINE
  5
3A8
100
AcDbEntity
  8
DRAFT
100
AcDbLine
 62
7
  6
CONTINUOUS
 10
230.2435377897
 20
101.4681020596
 11
229.0435377897
 21
101.4681020596
  0
LINE
  5
3A9
100
AcDbEntity
  8
IMPORT_IGES
100
AcDbLine
 62
7
  6
CONTINUOUS
 10
219.5434901656
 20
101.4931020596
 11
222.9434901656
 21
101.4931020596
  0
LINE
  5
3AA
100
AcDbEntity
  8
IMPORT_IGES
100
AcDbLine
 62
253
  6
CONTINUOUS
 10
228.9434901656
 20
101.7881020596
 11
229.0435377897
 21
101.7881020596
  0
LINE
  5
3AB
100
AcDbEntity
  8
IMPORT_IGES
100
AcDbLine
 62
7
  6
CONTINUOUS
 10
219.5434901656
 20
101.9431020596
 11
222.9434901656
 21
101.9431020596
  0
LINE
  5
3AC
100
AcDbEntity
  8
IMPORT_IGES
100
AcDbLine
 62
7
  6
CONTINUOUS
 10
220.3434901656
 20
101.9731020596
 11
222.9434901656
 21
101.9731020596
  0
LINE
  5
3AD
100
AcDbEntity
  8
IMPORT_IGES
100
AcDbLine
 62
7
  6
CONTINUOUS
 10
222.9434901656
 20
102.4831020596
 11
220.3434901656
 21
102.4831020596
  0
LINE
  5
3AE
100
AcDbEntity
  8
IMPORT_IGES
100
AcDbLine
 62
7
  6
CONTINUOUS
 10
219.5434901656
 20
102.5131020596
 11
222.9434901656
 21
102.5131020596
  0
LINE
  5
3AF
100
AcDbEntity
  8
DRAFT
100
AcDbLine
 62
7
  6
CONTINUOUS
 10
229.0435377897
 20
102.5181020596
 11
227.4435377897
 21
102.5181020596
  0
LINE
  5
3B0
100
AcDbEntity
  8
IMPORT_IGES
100
AcDbLine
 62
7
  6
CONTINUOUS
 10
227.4435377897
 20
102.5681020596
 11
226.1934901656
 21
102.5681020596
  0
LINE
  5
3B1
100
AcDbEntity
  8
IMPORT_IGES
100
AcDbLine
 62
7
  6
CONTINUOUS
 10
219.5434901656
 20
102.9631020596
 11
222.9434901656
 21
102.9631020596
  0
LINE
  5
3B2
100
AcDbEntity
  8
IMPORT_IGES
100
AcDbLine
 62
7
  6
CONTINUOUS
 10
220.3434901656
 20
102.9931020596
 11
222.9434901656
 21
102.9931020596
  0
LINE
  5
3B3
100
AcDbEntity
  8
IMPORT_IGES
100
AcDbLine
 62
7
  6
CONTINUOUS
 10
228.4456648288
 20
97.0461806668
 11
228.4434901656
 21
97.0481020596
  0
LWPOLYLINE
  5
3B4
100
AcDbEntity
  8
IMPORT_IGES
100
AcDbPolyline
 62
7
  6
CONTINUOUS
 90
3
 70
0
 10
219.5067874357
 20
105.2046319792
 10
219.5415687727
 20
105.1702767228
 10
219.5434901656
 20
105.1681020596
  0
LWPOLYLINE
  5
3B5
100
AcDbEntity
  8
IMPORT_IGES
100
AcDbPolyline
 62
7
  6
CONTINUOUS
 90
4
 70
0
 10
219.393713067
 20
105.3177034862
 10
219.4596034818
 20
105.2519889809
 10
219.4854966612
 20
105.2259105792
 10
219.5067874357
 20
105.2046319792
  0
LINE
  5
3B6
100
AcDbEntity
  8
IMPORT_IGES
100
AcDbLine
 62
7
  6
CONTINUOUS
 10
228.5580122347
 20
96.9335713709
 11
228.4800200851
 21
97.0113993297
  0
LINE
  5
3B7
100
AcDbEntity
  8
IMPORT_IGES
100
AcDbLine
 62
7
  6
CONTINUOUS
 10
219.3342602595
 20
105.3773642124
 11
219.393713067
 21
105.3177034862
  0
LINE
  5
3B8
100
AcDbEntity
  8
IMPORT_IGES
100
AcDbLine
 62
7
  6
CONTINUOUS
 10
228.5930915921
 20
96.898324961
 11
228.5580122347
 21
96.9335713709
  0
LWPOLYLINE
  5
3B9
100
AcDbEntity
  8
IMPORT_IGES
100
AcDbPolyline
 62
7
  6
CONTINUOUS
 90
7
 70
0
 10
228.9434901656
 20
96.5481020596
 10
228.8842404221
 20
96.6082905288
 10
228.827163183
 20
96.6651396658
 10
228.7729428247
 20
96.7186494705
 10
228.7223597722
 20
96.7690187189
 10
228.6756121223
 20
96.816048635
 10
228.5930915921
 20
96.898324961
  0
LINE
  5
3BA
100
AcDbEntity
  8
IMPORT_IGES
100
AcDbLine
 62
7
  6
CONTINUOUS
 10
228.4800200851
 20
97.0113993297
 11
228.4456648288
 21
97.0461806668
  0
LINE
  5
3BB
100
AcDbEntity
  8
IMPORT_IGES
100
AcDbLine
 62
7
  6
CONTINUOUS
 10
226.9934901656
 20
93.1681020596
 11
226.9934901656
 21
105.1681020596
  0
LINE
  5
3BC
100
AcDbEntity
  8
DRAFT
100
AcDbLine
 62
7
  6
CONTINUOUS
 10
227.2434901656
 20
108.9115126052
 11
227.2434901656
 21
105.4463870161
  0
LINE
  5
3BD
100
AcDbEntity
  8
DRAFT
100
AcDbLine
 62
7
  6
CONTINUOUS
 10
227.2434901656
 20
92.8898171031
 11
227.2434901656
 21
89.4246915141
  0
LINE
  5
3BE
100
AcDbEntity
  8
DRAFT
100
AcDbLine
 62
7
  6
CONTINUOUS
 10
227.4434919477
 20
89.1281825583
 11
227.4435377897
 21
95.8181020596
  0
LINE
  5
3BF
100
AcDbEntity
  8
DRAFT
100
AcDbLine
 62
7
  6
CONTINUOUS
 10
227.4435377897
 20
102.5181020596
 11
227.4434919477
 21
109.2080215609
  0
LINE
  5
3C0
100
AcDbEntity
  8
IMPORT_IGES
100
AcDbLine
 62
7
  6
CONTINUOUS
 10
220.3434901656
 20
104.5181020596
 11
219.5434901656
 21
104.5181020596
  0
LINE
  5
3C1
100
AcDbEntity
  8
DRAFT
100
AcDbLine
 62
7
  6
CONTINUOUS
 10
220.3434901656
 20
104.1319525532
 11
219.5434901656
 21
104.1459166051
  0
LINE
  5
3C2
100
AcDbEntity
  8
IMPORT_IGES
100
AcDbLine
 62
7
  6
CONTINUOUS
 10
228.4434901656
 20
102.5181020596
 11
228.4434901656
 21
101.2881020596
  0
LINE
  5
3C3
100
AcDbEntity
  8
IMPORT_IGES
100
AcDbLine
 62
7
  6
CONTINUOUS
 10
228.4434901656
 20
97.0481020596
 11
228.4434901656
 21
95.8181020596
  0
LINE
  5
3C4
100
AcDbEntity
  8
IMPORT_IGES
100
AcDbLine
 62
253
  6
CONTINUOUS
 10
228.9434901656
 20
102.5181020596
 11
228.9434901656
 21
101.7881020596
  0
LINE
  5
3C5
100
AcDbEntity
  8
IMPORT_IGES
100
AcDbLine
 62
253
  6
CONTINUOUS
 10
228.9434901656
 20
96.5481020596
 11
228.9434901656
 21
95.8181020596
  0
LINE
  5
3C6
100
AcDbEntity
  8
DRAFT
100
AcDbLine
 62
7
  6
CONTINUOUS
 10
229.0435377897
 20
95.8181020596
 11
229.0435377897
 21
96.8681020596
  0
LINE
  5
3C7
100
AcDbEntity
  8
DRAFT
100
AcDbLine
 62
7
  6
CONTINUOUS
 10
229.0435377897
 20
101.4681020596
 11
229.0435377897
 21
102.5181020596
  0
LINE
  5
3C8
100
AcDbEntity
  8
IMPORT_IGES
100
AcDbLine
 62
7
  6
CONTINUOUS
 10
229.5434901656
 20
97.0481020596
 11
229.5434901656
 21
101.2881020596
  0
LINE
  5
3C9
100
AcDbEntity
  8
IMPORT_IGES
100
AcDbLine
 62
7
  6
CONTINUOUS
 10
229.8434901656
 20
96.8681020596
 11
229.8434901656
 21
101.4681020596
  0
LINE
  5
3CA
100
AcDbEntity
  8
DRAFT
100
AcDbLine
 62
7
  6
CONTINUOUS
 10
227.2434901656
 20
105.4463870161
 11
219.2434901656
 21
105.3765720738
  0
LINE
  5
3CB
100
AcDbEntity
  8
IMPORT_IGES
100
AcDbLine
 62
7
  6
CONTINUOUS
 10
226.9934901656
 20
105.1681020596
 11
219.5434901656
 21
105.1681020596
  0
LINE
  5
3CC
100
AcDbEntity
  8
IMPORT_IGES
100
AcDbLine
 62
253
  6
CONTINUOUS
 10
227.2434901656
 20
105.6681020596
 11
227.4435162047
 21
105.6681020596
  0
LINE
  5
3CD
100
AcDbEntity
  8
RACCORDO
100
AcDbLine
 62
253
  6
CONTINUOUS
 10
230.8291631394
 20
123.5169015832
 11
230.8326777363
 21
123.3040173404
  0
LINE
  5
3CE
100
AcDbEntity
  8
RACCORDO
100
AcDbLine
 62
253
  6
CONTINUOUS
 10
230.80980931
 20
79.4861803221
 11
230.8221438556
 21
78.4469026773
  0
LINE
  5
3CF
100
AcDbEntity
  8
RACCORDO
100
AcDbLine
 62
253
  6
CONTINUOUS
 10
230.8326777363
 20
123.3040173404
 11
230.8352171245
 21
123.0423523928
  0
LINE
  5
3D0
100
AcDbEntity
  8
RACCORDO
100
AcDbLine
 62
253
  6
CONTINUOUS
 10
230.8221438556
 20
78.4469026773
 11
230.8310396927
 21
77.4530551608
  0
LINE
  5
3D1
100
AcDbEntity
  8
RACCORDO
100
AcDbLine
 62
253
  6
CONTINUOUS
 10
230.8310396927
 20
77.4530551608
 11
230.8361114154
 21
76.5480503619
  0
LINE
  5
3D2
100
AcDbEntity
  8
RACCORDO
100
AcDbLine
 62
253
  6
CONTINUOUS
 10
230.8352171245
 20
123.0423523928
 11
230.8371371595
 21
122.5647899094
  0
LINE
  5
3D3
100
AcDbEntity
  8
DRAFT
100
AcDbLine
 62
7
  6
CONTINUOUS
 10
230.2435377897
 20
96.8681020596
 11
230.2435377897
 21
101.4681020596
  0
LINE
  5
3D4
100
AcDbEntity
  8
RACCORDO
100
AcDbLine
 62
253
  6
CONTINUOUS
 10
230.80980931
 20
118.8500237972
 11
230.80980931
 21
79.4861803221
  0
LINE
  5
3D5
100
AcDbEntity
  8
RACCORDO
100
AcDbLine
 62
253
  6
CONTINUOUS
 10
230.8361114154
 20
76.5480503619
 11
230.8371371102
 21
75.7714144657
  0
LINE
  5
3D6
100
AcDbEntity
  8
RACCORDO
100
AcDbLine
 62
253
  6
CONTINUOUS
 10
230.8371371595
 20
122.5647899094
 11
230.836111272
 21
121.7881541827
  0
LINE
  5
3D7
100
AcDbEntity
  8
RACCORDO
100
AcDbLine
 62
253
  6
CONTINUOUS
 10
230.8371371102
 20
75.7714144657
 11
230.8352169386
 21
75.2938520312
  0
LINE
  5
3D8
100
AcDbEntity
  8
RACCORDO
100
AcDbLine
 62
253
  6
CONTINUOUS
 10
230.836111272
 20
121.7881541827
 11
230.8310394358
 21
120.8831494964
  0
LINE
  5
3D9
100
AcDbEntity
  8
RACCORDO
100
AcDbLine
 62
253
  6
CONTINUOUS
 10
230.8310394358
 20
120.8831494964
 11
230.8221434748
 21
119.8893020393
  0
LINE
  5
3DA
100
AcDbEntity
  8
RACCORDO
100
AcDbLine
 62
253
  6
CONTINUOUS
 10
230.8352169386
 20
75.2938520312
 11
230.8326774843
 21
75.0321870518
  0
LINE
  5
3DB
100
AcDbEntity
  8
RACCORDO
100
AcDbLine
 62
253
  6
CONTINUOUS
 10
230.8221434748
 20
119.8893020393
 11
230.80980931
 21
118.8500237972
  0
LWPOLYLINE
  5
3DC
100
AcDbEntity
  8
RACCORDO
100
AcDbPolyline
 62
253
  6
CONTINUOUS
 90
9
 70
0
 10
230.8326774843
 20
75.0321870518
 10
230.8291628889
 20
74.8193027235
 10
230.8270493887
 20
74.7319048854
 10
230.8247068749
 20
74.6575347128
 10
230.8221434748
 20
74.5963954083
 10
230.8193622494
 20
74.5486539463
 10
230.8163711522
 20
74.5144413012
 10
230.8131830103
 20
74.493851698
 10
230.80980931
 20
74.4869418463
  0
LINE
  5
3DD
100
AcDbEntity
  8
DRAFT
100
AcDbLine
 62
7
  6
CONTINUOUS
 10
227.4435053777
 20
107.2481325224
 11
227.2434901656
 21
107.2463870161
  0
LINE
  5
3DE
100
AcDbEntity
  8
IMPORT_IGES
100
AcDbLine
 62
7
  6
CONTINUOUS
 10
227.2434901656
 20
107.2181020596
 11
227.4435055835
 21
107.2181020596
  0
LINE
  5
3DF
100
AcDbEntity
  8
DRAFT
100
AcDbLine
 62
7
  6
CONTINUOUS
 10
227.4434940035
 20
108.9080215252
 11
212.5434901656
 21
109.1681020596
  0
LINE
  5
3E0
100
AcDbEntity
  8
DRAFT
100
AcDbLine
 62
7
  6
CONTINUOUS
 10
212.5434901656
 20
109.4681020594
 11
227.4434919477
 21
109.2080215609
  0
LINE
  5
3E1
100
AcDbEntity
  8
RACCORDO
100
AcDbLine
 62
7
  6
CONTINUOUS
 10
234.5434901656
 20
120.0498410313
 11
234.5434901656
 21
78.2863630879
  0
LWPOLYLINE
  5
3E2
100
AcDbEntity
  8
RACCORDO
100
AcDbPolyline
 62
253
  6
CONTINUOUS
 90
8
 70
0
 10
230.80980931
 20
123.8492622729
 10
230.8131831983
 20
123.8423524321
 10
230.8163714705
 20
123.8217628612
 10
230.8193626401
 20
123.7875502581
 10
230.8221438556
 20
123.7398088298
 10
230.8247071875
 20
123.6786695421
 10
230.827049647
 20
123.6042993862
 10
230.8291631394
 20
123.5169015832
  0
LINE
  5
3E3
100
AcDbEntity
  8
RACCORDO
100
AcDbLine
 62
253
  6
CONTINUOUS
 10
234.5434901656
 20
118.8500237972
 11
230.80980931
 21
118.8500237972
  0
LINE
  5
3E4
100
AcDbEntity
  8
RACCORDO
100
AcDbLine
 62
253
  6
CONTINUOUS
 10
230.80980931
 20
118.8500237972
 11
210.5434901656
 21
119.2037737137
  0
LINE
  5
3E5
100
AcDbEntity
  8
RACCORDO
100
AcDbLine
 62
7
  6
CONTINUOUS
 10
230.80980931
 20
123.8492622729
 11
210.5434901656
 21
124.2030121895
  0
ARC
  5
3E6
100
AcDbEntity
  8
RACCORDO
100
AcDbCircle
 62
7
  6
CONTINUOUS
 10
67.8901754714
 20
78.2863630879
 40
3.8
100
AcDbArc
 50
180.0
 51
269.0
  0
ARC
  5
3E7
100
AcDbEntity
  8
RACCORDO
100
AcDbCircle
 62
7
  6
CONTINUOUS
 10
67.8901754714
 20
120.0498410313
 40
3.8
100
AcDbArc
 50
91.0
 51
180.0
  0
ARC
  5
3E8
100
AcDbEntity
  8
IMPORT_IGES
100
AcDbCircle
 62
7
  6
CONTINUOUS
 10
80.6601754714
 20
95.5981020596
 40
0.8
100
AcDbArc
 50
2.0791923498
 51
175.920127387
  0
CIRCLE
  5
3E9
100
AcDbEntity
  8
IMPORT_IGES
100
AcDbCircle
 62
7
  6
CONTINUOUS
 10
80.6601754714
 20
97.6381020596
 40
0.8
  0
ARC
  5
3EA
100
AcDbEntity
  8
IMPORT_IGES
100
AcDbCircle
 62
7
  6
CONTINUOUS
 10
82.9401754714
 20
98.6581020596
 40
0.75
100
AcDbArc
 50
78.4569226936
 51
281.5433899313
  0
ARC
  5
3EB
100
AcDbEntity
  8
IMPORT_IGES
100
AcDbCircle
 62
7
  6
CONTINUOUS
 10
82.9401754714
 20
96.6181020596
 40
0.75
100
AcDbArc
 50
78.4569226936
 51
281.5433899313
  0
ARC
  5
3EC
100
AcDbEntity
  8
IMPORT_IGES
100
AcDbCircle
 62
7
  6
CONTINUOUS
 10
82.9401754714
 20
98.6581020596
 40
0.599997014
100
AcDbArc
 50
75.5067589384
 51
284.4932410616
  0
CIRCLE
  5
3ED
100
AcDbEntity
  8
IMPORT_IGES
100
AcDbCircle
 62
7
  6
CONTINUOUS
 10
80.6601754714
 20
97.6381020596
 40
0.599997014
  0
ARC
  5
3EE
100
AcDbEntity
  8
IMPORT_IGES
100
AcDbCircle
 62
7
  6
CONTINUOUS
 10
82.9401754714
 20
96.6181020596
 40
0.599997014
100
AcDbArc
 50
75.5067589384
 51
284.4932410616
  0
ARC
  5
3EF
100
AcDbEntity
  8
IMPORT_IGES
100
AcDbCircle
 62
7
  6
CONTINUOUS
 10
80.6601754714
 20
95.5981020596
 40
0.599997014
100
AcDbArc
 50
3.1218305146
 51
174.8762472839
  0
CIRCLE
  5
3F0
100
AcDbEntity
  8
IMPORT_IGES
100
AcDbCircle
 62
7
  6
CONTINUOUS
 10
80.6601754714
 20
97.6381020596
 40
0.5
  0
ARC
  5
3F1
100
AcDbEntity
  8
IMPORT_IGES
100
AcDbCircle
 62
7
  6
CONTINUOUS
 10
82.9401754714
 20
98.6581020596
 40
0.5
100
AcDbArc
 50
72.5239477538
 51
287.4757409713
  0
ARC
  5
3F2
100
AcDbEntity
  8
IMPORT_IGES
100
AcDbCircle
 62
7
  6
CONTINUOUS
 10
82.9401754714
 20
96.6181020596
 40
0.5
100
AcDbArc
 50
72.5239477538
 51
287.4757409713
  0
ARC
  5
3F3
100
AcDbEntity
  8
IMPORT_IGES
100
AcDbCircle
 62
7
  6
CONTINUOUS
 10
80.6601754714
 20
95.5981020596
 40
0.5
100
AcDbArc
 50
3.9796328635
 51
174.0396845423
  0
ARC
  5
3F4
100
AcDbEntity
  8
DRAFT
100
AcDbCircle
 62
7
  6
CONTINUOUS
 10
79.1512588939
 20
99.1681020596
 40
3.5
100
AcDbArc
 50
91.0
 51
269.0
  0
CIRCLE
  5
3F5
100
AcDbEntity
  8
IMPORT_IGES
100
AcDbCircle
 62
7
  6
CONTINUOUS
 10
80.6601754714
 20
99.6781020596
 40
0.8
  0
CIRCLE
  5
3F6
100
AcDbEntity
  8
IMPORT_IGES
100
AcDbCircle
 62
7
  6
CONTINUOUS
 10
80.6601754714
 20
101.7181020596
 40
0.8
  0
ARC
  5
3F7
100
AcDbEntity
  8
IMPORT_IGES
100
AcDbCircle
 62
7
  6
CONTINUOUS
 10
82.9401754714
 20
102.7381020596
 40
0.75
100
AcDbArc
 50
181.2439901586
 51
281.5433899313
  0
ARC
  5
3F8
100
AcDbEntity
  8
IMPORT_IGES
100
AcDbCircle
 62
7
  6
CONTINUOUS
 10
82.9401754714
 20
100.6981020596
 40
0.75
100
AcDbArc
 50
78.4569226936
 51
281.5433899313
  0
CIRCLE
  5
3F9
100
AcDbEntity
  8
IMPORT_IGES
100
AcDbCircle
 62
7
  6
CONTINUOUS
 10
80.6601754714
 20
101.7181020596
 40
0.599997014
  0
ARC
  5
3FA
100
AcDbEntity
  8
IMPORT_IGES
100
AcDbCircle
 62
7
  6
CONTINUOUS
 10
82.9401754714
 20
100.6981020596
 40
0.599997014
100
AcDbArc
 50
75.5067589384
 51
284.4932410616
  0
CIRCLE
  5
3FB
100
AcDbEntity
  8
IMPORT_IGES
100
AcDbCircle
 62
7
  6
CONTINUOUS
 10
80.6601754714
 20
99.6781020596
 40
0.599997014
  0
ARC
  5
3FC
100
AcDbEntity
  8
IMPORT_IGES
100
AcDbCircle
 62
7
  6
CONTINUOUS
 10
82.9401754714
 20
102.7381020596
 40
0.599997014
100
AcDbArc
 50
181.3210284381
 51
284.4932410616
  0
CIRCLE
  5
3FD
100
AcDbEntity
  8
IMPORT_IGES
100
AcDbCircle
 62
7
  6
CONTINUOUS
 10
80.6601754714
 20
101.7181020596
 40
0.5
  0
CIRCLE
  5
3FE
100
AcDbEntity
  8
IMPORT_IGES
100
AcDbCircle
 62
7
  6
CONTINUOUS
 10
80.6601754714
 20
99.6781020596
 40
0.5
  0
ARC
  5
3FF
100
AcDbEntity
  8
IMPORT_IGES
100
AcDbCircle
 62
7
  6
CONTINUOUS
 10
82.9401754714
 20
100.6981020596
 40
0.5
100
AcDbArc
 50
72.5239477538
 51
287.4757409713
  0
ARC
  5
400
100
AcDbEntity
  8
IMPORT_IGES
100
AcDbCircle
 62
7
  6
CONTINUOUS
 10
82.9401754714
 20
102.7381020596
 40
0.5
100
AcDbArc
 50
181.4002654525
 51
287.4757409713
  0
ARC
  5
401
100
AcDbEntity
  8
RACCORDO
100
AcDbCircle
 62
7
  6
CONTINUOUS
 10
230.7434901656
 20
120.0498410313
 40
3.8
100
AcDbArc
 50
0.0
 51
89.0
  0
ARC
  5
402
100
AcDbEntity
  8
RACCORDO
100
AcDbCircle
 62
7
  6
CONTINUOUS
 10
230.7434901656
 20
78.2863630879
 40
3.8
100
AcDbArc
 50
271.0
 51
360.0
  0
ARC
  5
403
100
AcDbEntity
  8
DRAFT
100
AcDbCircle
 62
7
  6
CONTINUOUS
 10
219.482406743
 20
99.1681020596
 40
3.5
100
AcDbArc
 50
287.0787797959
 51
288.6488543468
  0
ARC
  5
404
100
AcDbEntity
  8
DRAFT
100
AcDbCircle
 62
7
  6
CONTINUOUS
 10
219.482406743
 20
99.1681020596
 40
3.5
100
AcDbArc
 50
306.7142641071
 51
307.5370742653
  0
ARC
  5
405
100
AcDbEntity
  8
DRAFT
100
AcDbCircle
 62
7
  6
CONTINUOUS
 10
219.482406743
 20
99.1681020596
 40
3.5
100
AcDbArc
 50
318.3549635053
 51
319.0082534189
  0
ARC
  5
406
100
AcDbEntity
  8
DRAFT
100
AcDbCircle
 62
7
  6
CONTINUOUS
 10
219.482406743
 20
99.1681020596
 40
3.5
100
AcDbArc
 50
329.3263666073
 51
329.9003107333
  0
ARC
  5
407
100
AcDbEntity
  8
DRAFT
100
AcDbCircle
 62
7
  6
CONTINUOUS
 10
219.482406743
 20
99.1681020596
 40
3.5
100
AcDbArc
 50
338.1016084575
 51
338.6296598116
  0
ARC
  5
408
100
AcDbEntity
  8
DRAFT
100
AcDbCircle
 62
7
  6
CONTINUOUS
 10
219.482406743
 20
99.1681020596
 40
3.5
100
AcDbArc
 50
347.3732430561
 51
347.875450741
  0
ARC
  5
409
100
AcDbEntity
  8
DRAFT
100
AcDbCircle
 62
7
  6
CONTINUOUS
 10
219.482406743
 20
99.1681020596
 40
3.5
100
AcDbArc
 50
12.124549259
 51
12.6267569439
  0
ARC
  5
40A
100
AcDbEntity
  8
DRAFT
100
AcDbCircle
 62
7
  6
CONTINUOUS
 10
219.482406743
 20
99.1681020596
 40
3.5
100
AcDbArc
 50
21.3703401884
 51
21.8983915425
  0
ARC
  5
40B
100
AcDbEntity
  8
DRAFT
100
AcDbCircle
 62
7
  6
CONTINUOUS
 10
219.482406743
 20
99.1681020596
 40
3.5
100
AcDbArc
 50
30.0996892667
 51
30.6736333927
  0
ARC
  5
40C
100
AcDbEntity
  8
DRAFT
100
AcDbCircle
 62
7
  6
CONTINUOUS
 10
219.482406743
 20
99.1681020596
 40
3.5
100
AcDbArc
 50
40.9917465811
 51
41.6450364947
  0
ARC
  5
40D
100
AcDbEntity
  8
DRAFT
100
AcDbCircle
 62
7
  6
CONTINUOUS
 10
219.482406743
 20
99.1681020596
 40
3.5
100
AcDbArc
 50
52.4629257347
 51
53.2857358929
  0
ARC
  5
40E
100
AcDbEntity
  8
DRAFT
100
AcDbCircle
 62
7
  6
CONTINUOUS
 10
219.482406743
 20
99.1681020596
 40
3.5
100
AcDbArc
 50
71.3511456532
 51
72.9212202041
  0
ELLIPSE
  5
40F
100
AcDbEntity
  8
RACCORDO
100
AcDbEllipse
 62
7
  6
CONTINUOUS
 10
181.3151644775
 20
79.13395357
 30
0.0
 11
3.5366109458
 21
-3.5366109458
 31
0.0
 40
0.9996954599
 41
-0.7852458701
 42
0.7852458701
  0
ELLIPSE
  5
410
100
AcDbEntity
  8
RACCORDO
100
AcDbEllipse
 62
7
  6
CONTINUOUS
 10
181.3151644775
 20
119.2022505492
 30
0.0
 11
3.5366109458
 21
3.5366109458
 31
0.0
 40
0.9996954599
 41
-0.7852458701
 42
0.7852458701
  0
ELLIPSE
  5
411
100
AcDbEntity
  8
RACCORDO
100
AcDbEllipse
 62
7
  6
CONTINUOUS
 10
113.2468674983
 20
119.2022505492
 30
0.0
 11
3.5366109458
 21
-3.5366109458
 31
0.0
 40
0.9996954599
 41
2.3563467834
 42
3.9268385237
  0
ELLIPSE
  5
412
100
AcDbEntity
  8
RACCORDO
100
AcDbEllipse
 62
7
  6
CONTINUOUS
 10
113.2468674983
 20
79.13395357
 30
0.0
 11
3.5366109458
 21
3.5366109458
 31
0.0
 40
0.9996954599
 41
-3.9268385237
 42
-2.3563467834
  0
ELLIPSE
  5
413
100
AcDbEntity
  8
RACCORDO
100
AcDbEllipse
 62
7
  6
CONTINUOUS
 10
113.2817776281
 20
119.1673404194
 30
0.0
 11
-3.5366109458
 21
3.5366109458
 31
0.0
 40
0.9996954599
 41
-0.7852458701
 42
0.7852458701
  0
ELLIPSE
  5
414
100
AcDbEntity
  8
RACCORDO
100
AcDbEllipse
 62
7
  6
CONTINUOUS
 10
113.2817776281
 20
79.1688636998
 30
0.0
 11
-3.5366109458
 21
-3.5366109458
 31
0.0
 40
0.9996954599
 41
-0.7852458701
 42
0.7852458701
  0
ELLIPSE
  5
415
100
AcDbEntity
  8
RACCORDO
100
AcDbEllipse
 62
7
  6
CONTINUOUS
 10
181.2802543477
 20
119.1673404194
 30
0.0
 11
3.5366109458
 21
3.5366109458
 31
0.0
 40
0.9996954599
 41
-0.7852458701
 42
0.7852458701
  0
ELLIPSE
  5
416
100
AcDbEntity
  8
RACCORDO
100
AcDbEllipse
 62
7
  6
CONTINUOUS
 10
113.2817776281
 20
119.1673404194
 30
0.0
 11
3.5366109458
 21
-3.5366109458
 31
0.0
 40
0.9996954599
 41
2.3563467834
 42
3.9268385237
  0
ELLIPSE
  5
417
100
AcDbEntity
  8
RACCORDO
100
AcDbEllipse
 62
7
  6
CONTINUOUS
 10
113.2817776281
 20
79.1688636998
 30
0.0
 11
3.5366109458
 21
3.5366109458
 31
0.0
 40
0.9996954599
 41
-3.9268385237
 42
-2.3563467834
  0
ELLIPSE
  5
418
100
AcDbEntity
  8
RACCORDO
100
AcDbEllipse
 62
7
  6
CONTINUOUS
 10
181.2802543477
 20
79.1688636998
 30
0.0
 11
3.5366109458
 21
-3.5366109458
 31
0.0
 40
0.9996954599
 41
-0.7852458701
 42
0.7852458701
  0
ELLIPSE
  5
419
100
AcDbEntity
  8
DRAFT
100
AcDbEllipse
 62
7
  6
CONTINUOUS
 10
186.1598967485
 20
99.1681020596
 30
0.0
 11
0.0
 21
3.5
 31
0.0
 40
0.0174550649
 41
0.0174532925
 42
3.1241393611
  0
ELLIPSE
  5
41A
100
AcDbEntity
  8
RACCORDO
100
AcDbEllipse
 62
7
  6
CONTINUOUS
 10
86.5119926408
 20
119.1747032655
 30
0.0
 11
143.2466946351
 21
2.5019053775
 31
0.0
 40
0.0348994951
 41
1.5704913689
 42
1.5731314765
  0
ELLIPSE
  5
41B
100
AcDbEntity
  8
RACCORDO
100
AcDbEllipse
 62
7
  6
CONTINUOUS
 10
86.5119926408
 20
79.1615008537
 30
0.0
 11
143.2466946351
 21
-2.5019053775
 31
0.0
 40
0.0348994951
 41
-1.5731314765
 42
-1.5704913689
  0
ELLIPSE
  5
41C
100
AcDbEntity
  8
IMPORT_IGES
100
AcDbEllipse
 62
7
  6
CONTINUOUS
 10
229.7205393459
 20
96.5481020596
 30
0.0
 11
0.0
 21
0.5
 31
0.0
 40
0.2459016393
 41
-0.8752522637
 42
0.0
  0
ELLIPSE
  5
41D
100
AcDbEntity
  8
IMPORT_IGES
100
AcDbEllipse
 62
7
  6
CONTINUOUS
 10
229.7205393459
 20
101.7881020596
 30
0.0
 11
0.0
 21
0.5
 31
0.0
 40
0.2459016393
 41
-3.1415926536
 42
-2.266323823
  0
ENDSEC
  0
SECTION
  2
OBJECTS
  0
DICTIONARY
  5
C
100
AcDbDictionary
280
0
281
1
  3
ACAD_GROUP
350
D
  3
ACAD_MLINESTYLE
350
17
  3
ACAD_LAYOUT
350
1A
  3
ACAD_PLOTSETTINGS
350
19
  3
ACAD_PLOTSTYLENAME
350
E
  0
DICTIONARY
  5
D
102
{ACAD_REACTORS
330
C
102
}
100
AcDbDictionary
280
0
281
1
  0
ACDBDICTIONARYWDFLT
  5
E
102
{ACAD_REACTORS
330
C
102
}
100
AcDbDictionary
281
1
  3
Normal
350
F
100
AcDbDictionaryWithDefault
340
F
  0
DICTIONARY
  5
17
102
{ACAD_REACTORS
330
C
102
}
100
AcDbDictionary
280
0
281
1
  3
Standard
350
18
  0
DICTIONARY
  5
19
102
{ACAD_REACTORS
330
C
102
}
100
AcDbDictionary
281
1
  0
DICTIONARY
  5
1A
102
{ACAD_REACTORS
330
C
102
}
100
AcDbDictionary
281
1
  3
Model
350
41E
  3
Layout1
350
41F
  0
ACDBPLACEHOLDER
  5
F
102
{ACAD_REACTORS
330
E
102
}
  0
MLINESTYLE
  5
18
102
{ACAD_REACTORS
330
17
102
}
100
AcDbMlineStyle
  2
STANDARD
 70
0
  3

 62
256
 51
90.0
 52
90.0
 71
2
 49
0.5
 62
256
  6
BYLAYER
 49
-0.5
 62
256
  6
BYLAYER
  0
LAYOUT
  5
41E
102
{ACAD_REACTORS
330
1A
102
}
100
AcDbPlotSettings
  1

  2
none_device
  4
ISO_A4_(297.00_x_210.00_MM)
  6

 40
0.0
 41
0.0
 42
0.0
 43
0.0
 44
297.0
 45
210.0
 46
0.0
 47
0.0
 48
0.0
 49
0.0
140
0.0
141
0.0
142
1.0
143
1.0
 70
1024
 72
1
 73
0
 74
0
  7

 75
0
147
1.0
148
0.0
149
0.0
100
AcDbLayout
  1
Model
 70
0
 71
0
 10
0.0
 20
0.0
 11
297.0
 21
210.0
 12
0.0
 22
0.0
 32
0.0
 14
0.0
 24
0.0
 34
0.0
 15
0.0
 25
0.0
 35
0.0
146
0.0
 13
0.0
 23
0.0
 33
0.0
 16
1.0
 26
0.0
 36
0.0
 17
0.0
 27
1.0
 37
0.0
 76
0
330
221
345
0
346
0
  0
LAYOUT
  5
41F
102
{ACAD_REACTORS
330
1A
102
}
100
AcDbPlotSettings
  1

  2
none_device
  4
ISO_A4_(297.00_x_210.00_MM)
  6

 40
0.0
 41
0.0
 42
0.0
 43
0.0
 44
297.0
 45
210.0
 46
0.0
 47
0.0
 48
0.0
 49
0.0
140
0.0
141
0.0
142
1.0
143
1.0
 70
0
 72
1
 73
0
 74
0
  7

 75
0
147
1.0
148
0.0
149
0.0
100
AcDbLayout
  1
Layout1
 70
0
 71
1
 10
0.0
 20
0.0
 11
297.0
 21
210.0
 12
0.0
 22
0.0
 32
0.0
 14
0.0
 24
0.0
 34
0.0
 15
0.0
 25
0.0
 35
0.0
146
0.0
 13
0.0
 23
0.0
 33
0.0
 16
1.0
 26
0.0
 36
0.0
 17
0.0
 27
1.0
 37
0.0
 76
0
330
222
345
0
346
0
  0
ENDSEC
  0
EOF
