  0
SECTION
  2
HEADER
  9
$ACADVER
  1
AC1024
  9
$DWGCODEPAGE
  3
ANSI_1252
  9
$EXTMAX
 10
297.0
 20
210.0
 30
0.0
  9
$EXTMIN
 10
0.0
 20
0.0
 30
0.0
  9
$LIMMIN
 10
0.0
 20
0.0
  9
$LIMMAX
 10
297.0
 20
210.0
  9
$VIEWCTR
 10
148.5
 20
105.0
  9
$VIEWSIZE
 40
210.0
  9
$CLAYER
  8
0
  9
$LTSCALE
 40
16.335
  9
$CELTYPE
  6
BYLAYER
  9
$DIMSCALE
 40
1.0
  9
$DIMASZ
 40
3.0
  9
$DIMEXO
 40
0.5
  9
$DIMDLI
 40
11.286
  9
$DIMEXE
 40
1.5
  9
$DIMCEN
 40
2.673
  9
$DIMLFAC
 40
1.0
  9
$DIMBLK
  1
_FILLED
  9
$DIMALT
 70
0
  9
$DIMALTF
 40
0.0393700787
  9
$DIMTXT
 40
3.0
  9
$DIMTOL
 70
1
  9
$DIMLIM
 70
0
  9
$DIMTFAC
 40
1.0
  9
$DIMTP
 40
0.01
  9
$DIMTM
 40
0.01
  9
$DIMGAP
 40
0.625
  9
$DIMDSEP
 70
44
  9
$AUNITS
 70
0
  9
$PDMODE
 70
3
  9
$PDSIZE
 40
3.0
  9
$HANDSEED
  5
409
  9
$TILEMODE
 70
1
  9
$MEASUREMENT
 70
1
  9
$INSUNITS
 70
4
  0
ENDSEC
  0
SECTION
  2
CLASSES
  0
CLASS
  1
ACDBDICTIONARYWDFLT
  2
AcDbDictionaryWithDefault
  3
AutoCAD 2000
 90
0
 91
1
280
0
281
0
  0
CLASS
  1
ACDBPLACEHOLDER
  2
AcDbPlaceHolder
  3
AutoCAD 2000
 90
0
 91
1
280
0
281
0
  0
CLASS
  1
LAYOUT
  2
AcDbLayout
  3
AutoCAD 2000
 90
0
 91
0
280
0
281
0
  0
ENDSEC
  0
SECTION
  2
TABLES
  0
TABLE
  2
VPORT
  5
8
100
AcDbSymbolTable
 70
2
  0
VPORT
  5
1F4
100
AcDbSymbolTableRecord
100
AcDbViewportTableRecord
  2
*ACTIVE
 70
0
 10
0.0
 20
0.0
 11
1.0
 21
1.0
 12
148.5
 22
105.0
 13
0.0
 23
0.0
 14
1.0
 24
1.0
 15
0.0
 25
0.0
 16
0.0
 26
0.0
 36
1.0
 17
0.0
 27
0.0
 37
0.0
 40
210.0
 41
1.4142857143
 42
50.0
 43
0.0
 44
0.0
 50
0.0
 51
0.0
 71
0
 72
100
 73
1
 74
1
 75
0
 76
0
 77
0
 78
0
  0
ENDTAB
  0
TABLE
  2
LTYPE
  5
5
100
AcDbSymbolTable
 70
6
  0
LTYPE
  5
14
100
AcDbSymbolTableRecord
100
AcDbLinetypeTableRecord
  2
BYBLOCK
 70
0
  3

 72
65
 73
0
 40
0.0
  0
LTYPE
  5
15
100
AcDbSymbolTableRecord
100
AcDbLinetypeTableRecord
  2
BYLAYER
 70
0
  3

 72
65
 73
0
 40
0.0
  0
LTYPE
  5
16
100
AcDbSymbolTableRecord
100
AcDbLinetypeTableRecord
  2
CONTINUOUS
 70
64
  3
Solid line
 72
65
 73
0
 40
0.0
  0
LTYPE
  5
1F5
100
AcDbSymbolTableRecord
100
AcDbLinetypeTableRecord
  2
CENTER
 70
64
  3
____ _ ____ _ ____ _ ____ _ ____ _ ____ _ ____
 72
65
 73
4
 40
0.6
 49
0.375
 74
0
 49
-0.075
 74
0
 49
0.075
 74
0
 49
-0.075
 74
0
  0
LTYPE
  5
1F6
100
AcDbSymbolTableRecord
100
AcDbLinetypeTableRecord
  2
HIDDEN
 70
64
  3
- - - - - - - - - - - - - - - - - - - -
 72
65
 73
2
 40
0.2
 49
0.1
 74
0
 49
-0.1
 74
0
  0
LTYPE
  5
1F7
100
AcDbSymbolTableRecord
100
AcDbLinetypeTableRecord
  2
PHANTOM
 70
64
  3
_____ _ _ _____ _ _ _____ _ _ _____
 72
65
 73
6
 40
0.8
 49
0.45
 74
0
 49
-0.05
 74
0
 49
0.1
 74
0
 49
-0.05
 74
0
 49
0.1
 74
0
 49
-0.05
 74
0
  0
LTYPE
  5
1F8
100
AcDbSymbolTableRecord
100
AcDbLinetypeTableRecord
  2
DOT
 70
64
  3
. . . . . . . . . . . . . . . . . . . .
 72
65
 73
2
 40
0.2
 49
0.1
 74
0
 49
-0.1
 74
0
  0
LTYPE
  5
1F9
100
AcDbSymbolTableRecord
100
AcDbLinetypeTableRecord
  2
DASHED
 70
64
  3
- - - - - - - - - - - - - - - - - - - -
 72
65
 73
2
 40
0.2
 49
0.1
 74
0
 49
-0.1
 74
0
  0
ENDTAB
  0
TABLE
  2
LAYER
  5
2
100
AcDbSymbolTable
 70
36
  0
LAYER
  5
10
100
AcDbSymbolTableRecord
100
AcDbLayerTableRecord
  2
0
 70
0
 62
7
  6
CONTINUOUS
370
-3
390
F
  0
LAYER
  5
1FA
100
AcDbSymbolTableRecord
100
AcDbLayerTableRecord
  2
DEFAULT_1
 70
0
 62
7
  6
CENTER
370
-3
390
F
  0
LAYER
  5
1FB
100
AcDbSymbolTableRecord
100
AcDbLayerTableRecord
  2
DEFAULT_2
 70
0
 62
7
  6
HIDDEN
370
-3
390
F
  0
LAYER
  5
1FC
100
AcDbSymbolTableRecord
100
AcDbLayerTableRecord
  2
DEFAULT_3
 70
0
 62
7
  6
PHANTOM
370
-3
390
F
  0
LAYER
  5
1FD
100
AcDbSymbolTableRecord
100
AcDbLayerTableRecord
  2
ARROTONDAMENTI
 70
0
 62
7
  6
CONTINUOUS
370
-3
390
F
  0
LAYER
  5
1FE
100
AcDbSymbolTableRecord
100
AcDbLayerTableRecord
  2
ASSI
 70
0
 62
7
  6
CONTINUOUS
370
-3
390
F
  0
LAYER
  5
1FF
100
AcDbSymbolTableRecord
100
AcDbLayerTableRecord
  2
COORDINATE
 70
0
 62
7
  6
CONTINUOUS
370
-3
390
F
  0
LAYER
  5
200
100
AcDbSymbolTableRecord
100
AcDbLayerTableRecord
  2
COPY_PUBLISH
 70
0
 62
7
  6
CONTINUOUS
370
-3
390
F
  0
LAYER
  5
201
100
AcDbSymbolTableRecord
100
AcDbLayerTableRecord
  2
COSMETICHE_FILETTO
 70
0
 62
7
  6
CONTINUOUS
370
-3
390
F
  0
LAYER
  5
202
100
AcDbSymbolTableRecord
100
AcDbLayerTableRecord
  2
COSMETICI
 70
0
 62
7
  6
CONTINUOUS
370
-3
390
F
  0
LAYER
  5
203
100
AcDbSymbolTableRecord
100
AcDbLayerTableRecord
  2
CURVE
 70
0
 62
7
  6
CONTINUOUS
370
-3
390
F
  0
LAYER
  5
204
100
AcDbSymbolTableRecord
100
AcDbLayerTableRecord
  2
DRAFT
 70
0
 62
7
  6
CONTINUOUS
370
-3
390
F
  0
LAYER
  5
205
100
AcDbSymbolTableRecord
100
AcDbLayerTableRecord
  2
ELEMENTI_DI_ANNOTAZIONE
 70
0
 62
7
  6
CONTINUOUS
370
-3
390
F
  0
LAYER
  5
206
100
AcDbSymbolTableRecord
100
AcDbLayerTableRecord
  2
FEATURE_CON_ASSI
 70
0
 62
7
  6
CONTINUOUS
370
-3
390
F
  0
LAYER
  5
207
100
AcDbSymbolTableRecord
100
AcDbLayerTableRecord
  2
FEATURE_DI_GUSCIO
 70
0
 62
7
  6
CONTINUOUS
370
-3
390
F
  0
LAYER
  5
208
100
AcDbSymbolTableRecord
100
AcDbLayerTableRecord
  2
FEATURE_DI_TAGLIO
 70
0
 62
7
  6
CONTINUOUS
370
-3
390
F
  0
LAYER
  5
209
100
AcDbSymbolTableRecord
100
AcDbLayerTableRecord
  2
FORI
 70
0
 62
7
  6
CONTINUOUS
370
-3
390
F
  0
LAYER
  5
20A
100
AcDbSymbolTableRecord
100
AcDbLayerTableRecord
  2
FORI_FILETTATI
 70
0
 62
7
  6
CONTINUOUS
370
-3
390
F
  0
LAYER
  5
20B
100
AcDbSymbolTableRecord
100
AcDbLayerTableRecord
  2
GEOMETRIA_SOLIDA
 70
0
 62
7
  6
CONTINUOUS
370
-3
390
F
  0
LAYER
  5
20C
100
AcDbSymbolTableRecord
100
AcDbLayerTableRecord
  2
IMPORT_IGES
 70
0
 62
7
  6
CONTINUOUS
370
-3
390
F
  0
LAYER
  5
20D
100
AcDbSymbolTableRecord
100
AcDbLayerTableRecord
  2
INTFCLR_2816
 70
0
 62
7
  6
CONTINUOUS
370
-3
390
F
  0
LAYER
  5
20E
100
AcDbSymbolTableRecord
100
AcDbLayerTableRecord
  2
NOTE
 70
0
 62
7
  6
CONTINUOUS
370
-3
390
F
  0
LAYER
  5
20F
100
AcDbSymbolTableRecord
100
AcDbLayerTableRecord
  2
PIANI
 70
0
 62
7
  6
CONTINUOUS
370
-3
390
F
  0
LAYER
  5
210
100
AcDbSymbolTableRecord
100
AcDbLayerTableRecord
  2
PIANI_DI_DEFAULT
 70
0
 62
7
  6
CONTINUOUS
370
-3
390
F
  0
LAYER
  5
211
100
AcDbSymbolTableRecord
100
AcDbLayerTableRecord
  2
PIANI_DI_RIFERIMENTO_CREATI
 70
0
 62
7
  6
CONTINUOUS
370
-3
390
F
  0
LAYER
  5
212
100
AcDbSymbolTableRecord
100
AcDbLayerTableRecord
  2
PROTUSIONI
 70
0
 62
7
  6
CONTINUOUS
370
-3
390
F
  0
LAYER
  5
213
100
AcDbSymbolTableRecord
100
AcDbLayerTableRecord
  2
PUNTI
 70
0
 62
7
  6
CONTINUOUS
370
-3
390
F
  0
LAYER
  5
214
100
AcDbSymbolTableRecord
100
AcDbLayerTableRecord
  2
QUOTE_AE
 70
0
 62
7
  6
CONTINUOUS
370
-3
390
F
  0
LAYER
  5
215
100
AcDbSymbolTableRecord
100
AcDbLayerTableRecord
  2
QUOTE_DEL_MODELLO
 70
0
 62
7
  6
CONTINUOUS
370
-3
390
F
  0
LAYER
  5
216
100
AcDbSymbolTableRecord
100
AcDbLayerTableRecord
  2
RACCORDO
 70
0
 62
7
  6
CONTINUOUS
370
-3
390
F
  0
LAYER
  5
217
100
AcDbSymbolTableRecord
100
AcDbLayerTableRecord
  2
SALDATURE
 70
0
 62
7
  6
CONTINUOUS
370
-3
390
F
  0
LAYER
  5
218
100
AcDbSymbolTableRecord
100
AcDbLayerTableRecord
  2
SIMBOLI
 70
0
 62
7
  6
CONTINUOUS
370
-3
390
F
  0
LAYER
  5
219
100
AcDbSymbolTableRecord
100
AcDbLayerTableRecord
  2
SMUSSI
 70
0
 62
7
  6
CONTINUOUS
370
-3
390
F
  0
LAYER
  5
21A
100
AcDbSymbolTableRecord
100
AcDbLayerTableRecord
  2
SMUSSO
 70
0
 62
7
  6
CONTINUOUS
370
-3
390
F
  0
LAYER
  5
21B
100
AcDbSymbolTableRecord
100
AcDbLayerTableRecord
  2
SNAPLINE
 70
0
 62
7
  6
CONTINUOUS
370
-3
390
F
  0
LAYER
  5
21C
100
AcDbSymbolTableRecord
100
AcDbLayerTableRecord
  2
SUPERFICI
 70
0
 62
7
  6
CONTINUOUS
370
-3
390
F
  0
LAYER
  5
21D
100
AcDbSymbolTableRecord
100
AcDbLayerTableRecord
  2
TERNA_DI_RIFERIMENTO_DI_DEFAULT
 70
0
 62
7
  6
CONTINUOUS
370
-3
390
F
  0
LAYER
  5
21E
100
AcDbSymbolTableRecord
100
AcDbLayerTableRecord
  2
TERNE_DI_RIFERIMENTO_CREATE
 70
0
 62
7
  6
CONTINUOUS
370
-3
390
F
  0
LAYER
  5
21F
100
AcDbSymbolTableRecord
100
AcDbLayerTableRecord
  2
TRASH
 70
0
 62
7
  6
CONTINUOUS
370
-3
390
F
  0
ENDTAB
  0
TABLE
  2
STYLE
  5
3
100
AcDbSymbolTable
 70
1
  0
STYLE
  5
11
100
AcDbSymbolTableRecord
100
AcDbTextStyleTableRecord
  2
STANDARD
 70
0
 40
0.0
 41
0.8
 50
0.0
 71
0
 42
0.2
  3
txt
  4

  0
STYLE
  5
220
100
AcDbSymbolTableRecord
100
AcDbTextStyleTableRecord
  2
TEXTSTYLE_1
 70
0
 40
0.0
 41
0.8
 50
0.0
 71
0
 42
0.2
  3
gdt
  4

  0
ENDTAB
  0
TABLE
  2
VIEW
  5
6
100
AcDbSymbolTable
 70
0
  0
ENDTAB
  0
TABLE
  2
UCS
  5
7
100
AcDbSymbolTable
 70
0
  0
ENDTAB
  0
TABLE
  2
APPID
  5
9
100
AcDbSymbolTable
 70
1
  0
APPID
  5
221
100
AcDbSymbolTableRecord
100
AcDbRegAppTableRecord
  2
ACAD
 70
0
  0
ENDTAB
  0
TABLE
  2
BLOCK_RECORD
  5
1
100
AcDbSymbolTable
 70
0
  0
BLOCK_RECORD
  5
222
100
AcDbSymbolTableRecord
100
AcDbBlockTableRecord
  2
*Model_Space
  0
BLOCK_RECORD
  5
223
100
AcDbSymbolTableRecord
100
AcDbBlockTableRecord
  2
*Paper_Space
  0
BLOCK_RECORD
  5
224
100
AcDbSymbolTableRecord
100
AcDbBlockTableRecord
  2
_FILLED
  0
BLOCK_RECORD
  5
225
100
AcDbSymbolTableRecord
100
AcDbBlockTableRecord
  2
*D0
  0
BLOCK_RECORD
  5
226
100
AcDbSymbolTableRecord
100
AcDbBlockTableRecord
  2
*D1
  0
BLOCK_RECORD
  5
227
100
AcDbSymbolTableRecord
100
AcDbBlockTableRecord
  2
*D2
  0
ENDTAB
  0
TABLE
  2
DIMSTYLE
  5
A
100
AcDbSymbolTable
 70
1
100
AcDbDimStyleTable
 71
0
  0
DIMSTYLE
105
228
100
AcDbSymbolTableRecord
100
AcDbDimStyleTableRecord
  2
STANDARD
 70
0
  3

  4

 40
1.0
 41
3.0
 42
0.5
 43
0.38
 44
1.5
 45
0.0
 46
0.0
 47
0.01
 48
0.01
140
3.0
141
0.09
142
0.0
143
25.4
144
1.0
145
0.0
146
1.0
147
0.625
 71
1.0
 72
0.0
 73
0
 74
0
 75
0
 76
0
 77
1
 78
8
 79
2
170
0
171
1
172
0
173
0
174
0
175
0
176
0
177
0
178
0
270
2
179
2
271
2
272
2
273
2
274
2
275
0
280
0
281
0
282
0
283
1
284
8
285
0
286
0
287
3
288
0
340
11
278
44
341
224
342
224
343
224
344
224
  0
DIMSTYLE
105
229
100
AcDbSymbolTableRecord
100
AcDbDimStyleTableRecord
  2
DIMSTYLE_1
 70
0
  3

  4

 40
1.0
 41
3.0
 42
0.5
 43
0.38
 44
1.5
 45
0.0
 46
0.0
 47
0.0
 48
0.0
140
3.0
141
0.09
142
0.0
143
25.4
144
1.0
145
0.0
146
1.0
147
0.75
 71
0.0
 72
0.0
 73
0
 74
0
 75
0
 76
0
 77
1
 78
8
 79
2
170
0
171
1
172
0
173
0
174
0
175
0
176
0
177
0
178
0
270
2
179
2
271
2
272
2
273
2
274
2
275
0
280
0
281
0
282
0
283
1
284
8
285
0
286
0
287
3
288
0
340
11
278
44
341
224
342
224
343
224
344
224
  0
ENDTAB
  0
ENDSEC
  0
SECTION
  2
BLOCKS
  0
BLOCK
  5
20
100
AcDbEntity
  8
0
100
AcDbBlockBegin
  2
*Model_Space
 70
0
 10
0.0
 20
0.0
 30
0.0
  3
*Model_Space
  1

  0
ENDBLK
  5
21
100
AcDbEntity
  8
0
100
AcDbBlockEnd
  0
BLOCK
  5
1C
100
AcDbEntity
  8
0
100
AcDbBlockBegin
  2
*Paper_Space
 70
0
 10
0.0
 20
0.0
 30
0.0
  3
*Paper_Space
  1

  0
ENDBLK
  5
1D
100
AcDbEntity
  8
0
100
AcDbBlockEnd
  0
BLOCK
  5
22A
100
AcDbEntity
  8
0
100
AcDbBlockBegin
  2
_FILLED
 70
64
 10
0.0
 20
0.0
  3
_FILLED
  1

  0
SOLID
  5
22B
100
AcDbEntity
  8
0
  6
BYBLOCK
 62
0
100
AcDbTrace
 10
0.0
 20
0.0
 11
-1.0
 21
0.3166666667
 12
-1.0
 22
-0.3166666667
 13
-1.0
 23
-0.3166666667
  0
ENDBLK
  5
22C
100
AcDbEntity
  8
0
  6
BYBLOCK
 62
0
100
AcDbBlockEnd
  0
BLOCK
  5
22D
100
AcDbEntity
  8
0
100
AcDbBlockBegin
 62
7
  6
CONTINUOUS
  2
*D0
 70
65
 10
0.0
 20
0.0
  3
*D0
  1

  0
LINE
  5
22E
100
AcDbEntity
  8
0
100
AcDbLine
 62
7
  6
CONTINUOUS
 10
-73.8110732521
 20
56.0
 11
-73.8110732521
 21
72.0
  0
LINE
  5
22F
100
AcDbEntity
  8
0
100
AcDbLine
 62
7
  6
CONTINUOUS
 10
-92.6110732521
 20
56.0
 11
-92.6110732521
 21
72.0
  0
LINE
  5
230
100
AcDbEntity
  8
0
100
AcDbLine
 62
7
  6
CONTINUOUS
 10
-73.8110732521
 20
70.5
 11
-83.2110732521
 21
70.5
  0
LINE
  5
231
100
AcDbEntity
  8
0
100
AcDbLine
 62
7
  6
CONTINUOUS
 10
-92.6110732521
 20
70.5
 11
-83.2110732521
 21
70.5
  0
INSERT
  5
232
100
AcDbEntity
  8
0
100
AcDbBlockReference
 62
7
  6
CONTINUOUS
  2
_FILLED
 10
-73.8110732521
 20
70.5
 41
3.0
 42
3.0
 43
3.0
  0
INSERT
  5
233
100
AcDbEntity
  8
0
100
AcDbBlockReference
 62
7
  6
CONTINUOUS
  2
_FILLED
 10
-92.6110732521
 20
70.5
 41
3.0
 42
3.0
 43
3.0
 50
180.0
  0
ENDBLK
  5
234
100
AcDbEntity
  8
0
  6
BYBLOCK
 62
0
100
AcDbBlockEnd
  0
BLOCK
  5
235
100
AcDbEntity
  8
0
100
AcDbBlockBegin
 62
7
  6
CONTINUOUS
  2
*D1
 70
65
 10
0.0
 20
0.0
  3
*D1
  1

  0
LINE
  5
236
100
AcDbEntity
  8
0
100
AcDbLine
 62
7
  6
CONTINUOUS
 10
-48.4
 20
56.0
 11
-48.4
 21
72.0
  0
LINE
  5
237
100
AcDbEntity
  8
0
100
AcDbLine
 62
7
  6
CONTINUOUS
 10
48.4
 20
56.0
 11
48.4
 21
72.0
  0
LINE
  5
238
100
AcDbEntity
  8
0
100
AcDbLine
 62
7
  6
CONTINUOUS
 10
-48.4
 20
70.5
 11
0.0
 21
70.5
  0
LINE
  5
239
100
AcDbEntity
  8
0
100
AcDbLine
 62
7
  6
CONTINUOUS
 10
48.4
 20
70.5
 11
0.0
 21
70.5
  0
INSERT
  5
23A
100
AcDbEntity
  8
0
100
AcDbBlockReference
 62
7
  6
CONTINUOUS
  2
_FILLED
 10
-48.4
 20
70.5
 41
3.0
 42
3.0
 43
3.0
 50
180.0
  0
INSERT
  5
23B
100
AcDbEntity
  8
0
100
AcDbBlockReference
 62
7
  6
CONTINUOUS
  2
_FILLED
 10
48.4
 20
70.5
 41
3.0
 42
3.0
 43
3.0
  0
ENDBLK
  5
23C
100
AcDbEntity
  8
0
  6
BYBLOCK
 62
0
100
AcDbBlockEnd
  0
BLOCK
  5
23D
100
AcDbEntity
  8
0
100
AcDbBlockBegin
 62
7
  6
CONTINUOUS
  2
*D2
 70
65
 10
0.0
 20
0.0
  3
*D2
  1

  0
LINE
  5
23E
100
AcDbEntity
  8
0
100
AcDbLine
 62
7
  6
CONTINUOUS
 10
48.9
 20
55.5
 11
57.9
 21
55.5
  0
LINE
  5
23F
100
AcDbEntity
  8
0
100
AcDbLine
 62
7
  6
CONTINUOUS
 10
47.6
 20
-55.5
 11
57.9
 21
-55.5
  0
LINE
  5
240
100
AcDbEntity
  8
0
100
AcDbLine
 62
7
  6
CONTINUOUS
 10
56.4
 20
55.5
 11
56.4
 21
-0.0
  0
LINE
  5
241
100
AcDbEntity
  8
0
100
AcDbLine
 62
7
  6
CONTINUOUS
 10
56.4
 20
-55.5
 11
56.4
 21
-0.0
  0
INSERT
  5
242
100
AcDbEntity
  8
0
100
AcDbBlockReference
 62
7
  6
CONTINUOUS
  2
_FILLED
 10
56.4
 20
55.5
 41
3.0
 42
3.0
 43
3.0
 50
90.0
  0
INSERT
  5
243
100
AcDbEntity
  8
0
100
AcDbBlockReference
 62
7
  6
CONTINUOUS
  2
_FILLED
 10
56.4
 20
-55.5
 41
3.0
 42
3.0
 43
3.0
 50
270.0
  0
ENDBLK
  5
244
100
AcDbEntity
  8
0
  6
BYBLOCK
 62
0
100
AcDbBlockEnd
  0
ENDSEC
  0
SECTION
  2
ENTITIES
  0
DIMENSION
  5
245
100
AcDbEntity
  8
0
100
AcDbDimension
 62
7
  6
CONTINUOUS
  2
*D0
 10
-92.6110732521
 20
70.5
 11
-87.2825018235
 21
70.5
 70
160
 71
2
 72
2
 41
0.9
 42
18.8
  3
DIMSTYLE_1
100
AcDbAlignedDimension
 13
-73.8110732521
 23
55.5
 14
-92.6110732521
 24
55.5
 50
180.0
100
AcDbRotatedDimension
  0
DIMENSION
  5
246
100
AcDbEntity
  8
0
100
AcDbDimension
 62
7
  6
CONTINUOUS
  2
*D1
 10
48.4
 20
70.5
 11
-4.3928571429
 21
70.5
 70
160
 71
2
 72
2
 41
0.9
 42
96.8
  3
DIMSTYLE_1
100
AcDbAlignedDimension
 13
-48.4
 23
55.5
 14
48.4
 24
55.5
100
AcDbRotatedDimension
  0
DIMENSION
  5
247
100
AcDbEntity
  8
0
100
AcDbDimension
 62
7
  6
CONTINUOUS
  2
*D2
 10
56.4
 20
-55.5
 11
56.4
 21
-2.5714285714
 70
160
 71
2
 72
2
 41
0.9
 42
111.0
  3
DIMSTYLE_1
100
AcDbAlignedDimension
 13
48.4
 23
55.5
 14
47.1
 24
-55.5
 50
270.0
100
AcDbRotatedDimension
  0
LWPOLYLINE
  5
248
100
AcDbEntity
  8
0
100
AcDbPolyline
 62
7
  6
CONTINUOUS
 90
10
 70
0
 43
0.3500000006
 10
-3.9642856293
 20
71.2500032959
 10
-3.1071428747
 20
72.1071412354
 10
-2.8928572569
 20
72.9642882385
 10
-2.8928572569
 20
73.821426178
 10
-3.3214284925
 20
74.2500042114
 10
-3.9642856293
 20
74.2500042114
 10
-4.3928571482
 20
73.821426178
 10
-4.3928571482
 20
72.9642882385
 10
-3.9642856293
 20
72.5357102051
 10
-3.035714241
 20
72.5357102051
  0
LWPOLYLINE
  5
249
100
AcDbEntity
  8
0
100
AcDbPolyline
 62
7
  6
CONTINUOUS
 90
10
 70
0
 43
0.3500000006
 10
-0.9642857051
 20
74.2500042114
 10
-1.6071428418
 20
73.6071416931
 10
-2.0357142191
 20
72.7500037537
 10
-2.0357142191
 20
71.6785722656
 10
-1.6071428418
 20
71.2500032959
 10
-0.9642857051
 20
71.2500032959
 10
-0.5357142924
 20
71.6785722656
 10
-0.5357142924
 20
72.5357102051
 10
-0.9642857051
 20
72.9642882385
 10
-1.8928570933
 20
72.9642882385
  0
LINE
  5
24A
100
AcDbEntity
  8
0
100
AcDbLine
 62
7
  6
CONTINUOUS
 10
-48.4
 20
-55.5
 11
48.4
 21
-55.5
  0
LINE
  5
24B
100
AcDbEntity
  8
0
100
AcDbLine
 62
7
  6
CONTINUOUS
 10
-48.4
 20
-55.5
 11
-48.4
 21
55.5
  0
LINE
  5
24C
100
AcDbEntity
  8
0
100
AcDbLine
 62
7
  6
CONTINUOUS
 10
-46.3416198487
 20
-55.5
 11
-46.3416198487
 21
55.5
  0
LINE
  5
24D
100
AcDbEntity
  8
0
100
AcDbLine
 62
250
  6
CONTINUOUS
 10
-46.3
 20
55.5
 11
-46.3
 21
-55.5
  0
LINE
  5
24E
100
AcDbEntity
  8
0
100
AcDbLine
 62
7
  6
CONTINUOUS
 10
-46.2
 20
55.5
 11
-46.2
 21
-55.5
  0
LINE
  5
24F
100
AcDbEntity
  8
0
100
AcDbLine
 62
7
  6
CONTINUOUS
 10
-44.9
 20
55.5
 11
-44.9
 21
-55.5
  0
LINE
  5
250
100
AcDbEntity
  8
ASSI
100
AcDbLine
 62
7
  6
CONTINUOUS
 10
-28.7
 20
-45.5
 11
11.0
 21
-45.5
  0
LINE
  5
251
100
AcDbEntity
  8
RACCORDO
100
AcDbLine
 62
250
  6
CONTINUOUS
 10
-28.649997781
 20
-45.2982518337
 11
10.949999048
 21
-45.2982664693
  0
LINE
  5
252
100
AcDbEntity
  8
RACCORDO
100
AcDbLine
 62
250
  6
CONTINUOUS
 10
-28.6499809225
 20
-45.2849707402
 11
10.9499918158
 21
-45.2850970139
  0
LINE
  5
253
100
AcDbEntity
  8
0
100
AcDbLine
 62
250
  6
CONTINUOUS
 10
-43.9
 20
55.5
 11
-43.9
 21
-55.5
  0
LINE
  5
254
100
AcDbEntity
  8
0
100
AcDbLine
 62
250
  6
CONTINUOUS
 10
-43.055272805
 20
-55.5
 11
-43.055272805
 21
55.5
  0
LINE
  5
255
100
AcDbEntity
  8
RACCORDO
100
AcDbLine
 62
7
  6
CONTINUOUS
 10
26.6524213223
 20
-43.4602919273
 11
26.6102765848
 21
-43.4618115129
  0
LINE
  5
256
100
AcDbEntity
  8
RACCORDO
100
AcDbLine
 62
250
  6
CONTINUOUS
 10
-28.7206781861
 20
-44.7849901814
 11
10.9808408983
 21
-44.7851161277
  0
LINE
  5
257
100
AcDbEntity
  8
RACCORDO
100
AcDbLine
 62
7
  6
CONTINUOUS
 10
31.8475786777
 20
-43.4602919273
 11
31.8897234152
 21
-43.4618115129
  0
LINE
  5
258
100
AcDbEntity
  8
0
100
AcDbLine
 62
250
  6
CONTINUOUS
 10
-38.9563960435
 20
55.5
 11
-38.9563960435
 21
-55.5
  0
LINE
  5
259
100
AcDbEntity
  8
0
100
AcDbLine
 62
250
  6
CONTINUOUS
 10
-38.7994713532
 20
55.5
 11
-38.7994713532
 21
-55.5
  0
LINE
  5
25A
100
AcDbEntity
  8
0
100
AcDbLine
 62
7
  6
CONTINUOUS
 10
23.103669355
 20
-38.5
 11
23.1406553058
 21
-38.5
  0
LINE
  5
25B
100
AcDbEntity
  8
0
100
AcDbLine
 62
7
  6
CONTINUOUS
 10
35.3593446942
 20
-38.5
 11
35.3701590126
 21
-38.5
  0
LINE
  5
25C
100
AcDbEntity
  8
RACCORDO
100
AcDbLine
 62
7
  6
CONTINUOUS
 10
22.7655956326
 20
-37.95
 11
23.0396427251
 21
-37.95
  0
LINE
  5
25D
100
AcDbEntity
  8
RACCORDO
100
AcDbLine
 62
7
  6
CONTINUOUS
 10
35.4341856424
 20
-37.95
 11
35.7344043674
 21
-37.95
  0
LINE
  5
25E
100
AcDbEntity
  8
RACCORDO
100
AcDbLine
 62
7
  6
CONTINUOUS
 10
22.7428226968
 20
-37.9098533507
 11
23.0369392335
 21
-37.9098533507
  0
LINE
  5
25F
100
AcDbEntity
  8
RACCORDO
100
AcDbLine
 62
7
  6
CONTINUOUS
 10
35.4368891341
 20
-37.9098533507
 11
35.7571773032
 21
-37.9098533507
  0
LINE
  5
260
100
AcDbEntity
  8
RACCORDO
100
AcDbLine
 62
250
  6
CONTINUOUS
 10
21.8022716792
 20
-37.5
 11
22.2594948486
 21
-37.5
  0
LINE
  5
261
100
AcDbEntity
  8
RACCORDO
100
AcDbLine
 62
250
  6
CONTINUOUS
 10
36.314872742
 20
-37.5
 11
36.6469228386
 21
-37.5
  0
LINE
  5
262
100
AcDbEntity
  8
RACCORDO
100
AcDbLine
 62
7
  6
CONTINUOUS
 10
35.7571773032
 20
-37.0901466493
 11
35.4368891341
 21
-37.0901466493
  0
LINE
  5
263
100
AcDbEntity
  8
RACCORDO
100
AcDbLine
 62
7
  6
CONTINUOUS
 10
23.0369392335
 20
-37.0901466493
 11
22.7428226968
 21
-37.0901466493
  0
LINE
  5
264
100
AcDbEntity
  8
RACCORDO
100
AcDbLine
 62
7
  6
CONTINUOUS
 10
35.5356502264
 20
-37.05
 11
35.4341856424
 21
-37.05
  0
LINE
  5
265
100
AcDbEntity
  8
RACCORDO
100
AcDbLine
 62
7
  6
CONTINUOUS
 10
23.0396427251
 20
-37.05
 11
22.9643497736
 21
-37.05
  0
LINE
  5
266
100
AcDbEntity
  8
0
100
AcDbLine
 62
7
  6
CONTINUOUS
 10
35.3701590126
 20
-36.5
 11
35.3593446942
 21
-36.5
  0
LINE
  5
267
100
AcDbEntity
  8
0
100
AcDbLine
 62
7
  6
CONTINUOUS
 10
23.1406553058
 20
-36.5
 11
23.103669355
 21
-36.5
  0
LINE
  5
268
100
AcDbEntity
  8
RACCORDO
100
AcDbLine
 62
250
  6
CONTINUOUS
 10
-28.649997781
 20
-29.7017481663
 11
-28.6499809226
 21
-29.7150292598
  0
LINE
  5
269
100
AcDbEntity
  8
RACCORDO
100
AcDbLine
 62
250
  6
CONTINUOUS
 10
-28.649997781
 20
-4.7017481663
 11
-28.6499809226
 21
-4.7150292598
  0
LINE
  5
26A
100
AcDbEntity
  8
RACCORDO
100
AcDbLine
 62
250
  6
CONTINUOUS
 10
-28.649997781
 20
-20.2982518337
 11
-28.6499809225
 21
-20.2849707402
  0
LINE
  5
26B
100
AcDbEntity
  8
RACCORDO
100
AcDbLine
 62
250
  6
CONTINUOUS
 10
-28.649997781
 20
-45.2982518337
 11
-28.6499809225
 21
-45.2849707402
  0
LINE
  5
26C
100
AcDbEntity
  8
RACCORDO
100
AcDbLine
 62
7
  6
CONTINUOUS
 10
31.8475786777
 20
-31.5397080727
 11
31.8897234152
 21
-31.5381884871
  0
LINE
  5
26D
100
AcDbEntity
  8
RACCORDO
100
AcDbLine
 62
250
  6
CONTINUOUS
 10
10.9808408983
 20
-30.2148838723
 11
-28.7206781861
 21
-30.2150098186
  0
LINE
  5
26E
100
AcDbEntity
  8
RACCORDO
100
AcDbLine
 62
250
  6
CONTINUOUS
 10
10.9499918158
 20
-29.7149029861
 11
-28.6499809226
 21
-29.7150292598
  0
LINE
  5
26F
100
AcDbEntity
  8
RACCORDO
100
AcDbLine
 62
250
  6
CONTINUOUS
 10
10.949999048
 20
-29.7017335307
 11
-28.649997781
 21
-29.7017481663
  0
LINE
  5
270
100
AcDbEntity
  8
ASSI
100
AcDbLine
 62
7
  6
CONTINUOUS
 10
11.0
 20
-29.5
 11
-28.7
 21
-29.5
  0
LINE
  5
271
100
AcDbEntity
  8
RACCORDO
100
AcDbLine
 62
7
  6
CONTINUOUS
 10
26.6524213223
 20
-31.5397080727
 11
26.6102765848
 21
-31.5381884871
  0
LWPOLYLINE
  5
272
100
AcDbEntity
  8
0
100
AcDbPolyline
 62
7
  6
CONTINUOUS
 90
3
 70
0
 43
0.3500000006
 10
1.035714268
 20
71.5357098999
 10
0.9642857051
 20
71.321425415
 10
0.8214285793
 20
71.035718811
  0
LINE
  5
273
100
AcDbEntity
  8
RACCORDO
100
AcDbLine
 62
7
  6
CONTINUOUS
 10
26.6524213223
 20
-18.4602919273
 11
26.6102765848
 21
-18.4618115129
  0
LINE
  5
274
100
AcDbEntity
  8
ASSI
100
AcDbLine
 62
7
  6
CONTINUOUS
 10
-28.7
 20
-20.5
 11
11.0
 21
-20.5
  0
LINE
  5
275
100
AcDbEntity
  8
RACCORDO
100
AcDbLine
 62
250
  6
CONTINUOUS
 10
-28.649997781
 20
-20.2982518337
 11
10.949999048
 21
-20.2982664693
  0
LINE
  5
276
100
AcDbEntity
  8
RACCORDO
100
AcDbLine
 62
250
  6
CONTINUOUS
 10
-28.6499809225
 20
-20.2849707402
 11
10.9499918158
 21
-20.2850970139
  0
LINE
  5
277
100
AcDbEntity
  8
RACCORDO
100
AcDbLine
 62
250
  6
CONTINUOUS
 10
-28.7206781861
 20
-19.7849901814
 11
10.9808408983
 21
-19.7851161277
  0
LINE
  5
278
100
AcDbEntity
  8
RACCORDO
100
AcDbLine
 62
7
  6
CONTINUOUS
 10
31.8475786777
 20
-18.4602919273
 11
31.8897234152
 21
-18.4618115129
  0
LINE
  5
279
100
AcDbEntity
  8
0
100
AcDbLine
 62
7
  6
CONTINUOUS
 10
23.103669355
 20
-13.5
 11
23.1406553058
 21
-13.5
  0
LINE
  5
27A
100
AcDbEntity
  8
0
100
AcDbLine
 62
7
  6
CONTINUOUS
 10
35.3593446942
 20
-13.5
 11
35.3701590126
 21
-13.5
  0
LINE
  5
27B
100
AcDbEntity
  8
RACCORDO
100
AcDbLine
 62
7
  6
CONTINUOUS
 10
22.7655956326
 20
-12.95
 11
23.0396427251
 21
-12.95
  0
LINE
  5
27C
100
AcDbEntity
  8
RACCORDO
100
AcDbLine
 62
7
  6
CONTINUOUS
 10
35.4341856424
 20
-12.95
 11
35.7344043674
 21
-12.95
  0
LINE
  5
27D
100
AcDbEntity
  8
RACCORDO
100
AcDbLine
 62
7
  6
CONTINUOUS
 10
22.7428226968
 20
-12.9098533507
 11
23.0369392335
 21
-12.9098533507
  0
LINE
  5
27E
100
AcDbEntity
  8
RACCORDO
100
AcDbLine
 62
7
  6
CONTINUOUS
 10
35.4368891341
 20
-12.9098533507
 11
35.7571773032
 21
-12.9098533507
  0
LINE
  5
27F
100
AcDbEntity
  8
RACCORDO
100
AcDbLine
 62
250
  6
CONTINUOUS
 10
21.8022716792
 20
-12.5
 11
22.2594948486
 21
-12.5
  0
LINE
  5
280
100
AcDbEntity
  8
RACCORDO
100
AcDbLine
 62
250
  6
CONTINUOUS
 10
36.314872742
 20
-12.5
 11
36.6469228386
 21
-12.5
  0
LINE
  5
281
100
AcDbEntity
  8
RACCORDO
100
AcDbLine
 62
7
  6
CONTINUOUS
 10
35.7571773032
 20
-12.0901466493
 11
35.4368891341
 21
-12.0901466493
  0
LINE
  5
282
100
AcDbEntity
  8
RACCORDO
100
AcDbLine
 62
7
  6
CONTINUOUS
 10
23.0369392335
 20
-12.0901466493
 11
22.7428226968
 21
-12.0901466493
  0
LINE
  5
283
100
AcDbEntity
  8
RACCORDO
100
AcDbLine
 62
7
  6
CONTINUOUS
 10
35.5356502264
 20
-12.05
 11
35.4341856424
 21
-12.05
  0
LINE
  5
284
100
AcDbEntity
  8
RACCORDO
100
AcDbLine
 62
7
  6
CONTINUOUS
 10
23.0396427251
 20
-12.05
 11
22.9643497736
 21
-12.05
  0
LINE
  5
285
100
AcDbEntity
  8
0
100
AcDbLine
 62
7
  6
CONTINUOUS
 10
35.3701590126
 20
-11.5
 11
35.3593446942
 21
-11.5
  0
LINE
  5
286
100
AcDbEntity
  8
0
100
AcDbLine
 62
7
  6
CONTINUOUS
 10
23.1406553058
 20
-11.5
 11
23.103669355
 21
-11.5
  0
LINE
  5
287
100
AcDbEntity
  8
RACCORDO
100
AcDbLine
 62
7
  6
CONTINUOUS
 10
31.8475786777
 20
-6.5397080727
 11
31.8897234152
 21
-6.5381884871
  0
LINE
  5
288
100
AcDbEntity
  8
RACCORDO
100
AcDbLine
 62
250
  6
CONTINUOUS
 10
10.9808408983
 20
-5.2148838723
 11
-28.7206781861
 21
-5.2150098186
  0
LINE
  5
289
100
AcDbEntity
  8
RACCORDO
100
AcDbLine
 62
7
  6
CONTINUOUS
 10
26.6524213223
 20
-6.5397080727
 11
26.6102765848
 21
-6.5381884871
  0
LINE
  5
28A
100
AcDbEntity
  8
RACCORDO
100
AcDbLine
 62
250
  6
CONTINUOUS
 10
10.9499918158
 20
-4.7149029861
 11
-28.6499809226
 21
-4.7150292598
  0
LINE
  5
28B
100
AcDbEntity
  8
RACCORDO
100
AcDbLine
 62
250
  6
CONTINUOUS
 10
10.949999048
 20
-4.7017335307
 11
-28.649997781
 21
-4.7017481663
  0
LINE
  5
28C
100
AcDbEntity
  8
ASSI
100
AcDbLine
 62
7
  6
CONTINUOUS
 10
11.0
 20
-4.5
 11
-28.7
 21
-4.5
  0
LINE
  5
28D
100
AcDbEntity
  8
DRAFT
100
AcDbLine
 62
7
  6
CONTINUOUS
 10
25.8579938945
 20
-43.0447537889
 11
25.8830982123
 21
-43.083485343
  0
LWPOLYLINE
  5
28E
100
AcDbEntity
  8
0
100
AcDbPolyline
 62
7
  6
CONTINUOUS
 90
4
 70
0
 43
0.3500000006
 10
2.0357142191
 20
71.6785722656
 10
2.0357142191
 20
72.5357102051
 10
2.464285738
 20
72.9642882385
 10
3.1071428747
 20
72.9642882385
  0
LINE
  5
28F
100
AcDbEntity
  8
DRAFT
100
AcDbLine
 62
7
  6
CONTINUOUS
 10
22.7655956326
 20
-37.95
 11
22.7428226968
 21
-37.9098533507
  0
LINE
  5
290
100
AcDbEntity
  8
RACCORDO
100
AcDbLine
 62
250
  6
CONTINUOUS
 10
10.949999048
 20
-45.2982664693
 11
10.9499918158
 21
-45.2850970139
  0
LINE
  5
291
100
AcDbEntity
  8
RACCORDO
100
AcDbLine
 62
250
  6
CONTINUOUS
 10
10.949999048
 20
-20.2982664693
 11
10.9499918158
 21
-20.2850970139
  0
LINE
  5
292
100
AcDbEntity
  8
RACCORDO
100
AcDbLine
 62
250
  6
CONTINUOUS
 10
10.949999048
 20
-4.7017335307
 11
10.9499918158
 21
-4.7149029861
  0
LINE
  5
293
100
AcDbEntity
  8
RACCORDO
100
AcDbLine
 62
250
  6
CONTINUOUS
 10
10.949999048
 20
-29.7017335307
 11
10.9499918158
 21
-29.7149029861
  0
LINE
  5
294
100
AcDbEntity
  8
RACCORDO
100
AcDbLine
 62
7
  6
CONTINUOUS
 10
32.6398470123
 20
-31.9518983356
 11
32.6169017877
 21
-31.916514657
  0
LINE
  5
295
100
AcDbEntity
  8
DRAFT
100
AcDbLine
 62
7
  6
CONTINUOUS
 10
25.8579938945
 20
-18.0447537889
 11
25.8830982123
 21
-18.083485343
  0
LINE
  5
296
100
AcDbEntity
  8
RACCORDO
100
AcDbLine
 62
7
  6
CONTINUOUS
 10
25.9497265749
 20
-32.1315650243
 11
26.0004516726
 21
-32.2290634184
  0
LINE
  5
297
100
AcDbEntity
  8
RACCORDO
100
AcDbLine
 62
7
  6
CONTINUOUS
 10
31.7022738488
 20
-43.1885002767
 11
31.7518652455
 21
-43.2838195911
  0
LINE
  5
298
100
AcDbEntity
  8
RACCORDO
100
AcDbLine
 62
7
  6
CONTINUOUS
 10
25.8830982123
 20
-31.916514657
 11
26.0343775587
 21
-32.2072877456
  0
LINE
  5
299
100
AcDbEntity
  8
RACCORDO
100
AcDbLine
 62
7
  6
CONTINUOUS
 10
31.7386785704
 20
-43.1714891582
 11
31.8897234152
 21
-43.4618115129
  0
LINE
  5
29A
100
AcDbEntity
  8
RACCORDO
100
AcDbLine
 62
7
  6
CONTINUOUS
 10
32.6169017877
 20
-43.083485343
 11
32.4656224413
 21
-42.7927122544
  0
LINE
  5
29B
100
AcDbEntity
  8
RACCORDO
100
AcDbLine
 62
7
  6
CONTINUOUS
 10
26.7613214296
 20
-31.8285108418
 11
26.6102765848
 21
-31.5381884871
  0
LINE
  5
29C
100
AcDbEntity
  8
RACCORDO
100
AcDbLine
 62
7
  6
CONTINUOUS
 10
32.6420061055
 20
-43.0447537889
 11
32.4995483274
 21
-42.7709365816
  0
LINE
  5
29D
100
AcDbEntity
  8
RACCORDO
100
AcDbLine
 62
7
  6
CONTINUOUS
 10
26.7977261512
 20
-31.8114997233
 11
26.7481347545
 21
-31.7161804089
  0
LINE
  5
29E
100
AcDbEntity
  8
DRAFT
100
AcDbLine
 62
7
  6
CONTINUOUS
 10
22.7655956326
 20
-12.95
 11
22.7428226968
 21
-12.9098533507
  0
LINE
  5
29F
100
AcDbEntity
  8
RACCORDO
100
AcDbLine
 62
7
  6
CONTINUOUS
 10
35.7363778308
 20
-37.0534605485
 11
35.7571773032
 21
-37.0901466493
  0
LINE
  5
2A0
100
AcDbEntity
  8
RACCORDO
100
AcDbLine
 62
7
  6
CONTINUOUS
 10
25.9497265749
 20
-7.1315650243
 11
26.0004516726
 21
-7.2290634184
  0
LINE
  5
2A1
100
AcDbEntity
  8
RACCORDO
100
AcDbLine
 62
7
  6
CONTINUOUS
 10
31.7022738488
 20
-18.1885002767
 11
31.7518652455
 21
-18.2838195911
  0
LINE
  5
2A2
100
AcDbEntity
  8
RACCORDO
100
AcDbLine
 62
7
  6
CONTINUOUS
 10
25.8830982123
 20
-6.916514657
 11
26.0343775587
 21
-7.2072877456
  0
LINE
  5
2A3
100
AcDbEntity
  8
RACCORDO
100
AcDbLine
 62
7
  6
CONTINUOUS
 10
31.7386785704
 20
-18.1714891582
 11
31.8897234152
 21
-18.4618115129
  0
LINE
  5
2A4
100
AcDbEntity
  8
RACCORDO
100
AcDbLine
 62
7
  6
CONTINUOUS
 10
32.6169017877
 20
-18.083485343
 11
32.4656224413
 21
-17.7927122544
  0
LINE
  5
2A5
100
AcDbEntity
  8
RACCORDO
100
AcDbLine
 62
7
  6
CONTINUOUS
 10
26.7613214296
 20
-6.8285108418
 11
26.6102765848
 21
-6.5381884871
  0
LINE
  5
2A6
100
AcDbEntity
  8
RACCORDO
100
AcDbLine
 62
7
  6
CONTINUOUS
 10
32.6420061055
 20
-18.0447537889
 11
32.4995483274
 21
-17.7709365816
  0
LINE
  5
2A7
100
AcDbEntity
  8
RACCORDO
100
AcDbLine
 62
7
  6
CONTINUOUS
 10
26.7977261512
 20
-6.8114997233
 11
26.7481347545
 21
-6.7161804089
  0
LINE
  5
2A8
100
AcDbEntity
  8
RACCORDO
100
AcDbLine
 62
7
  6
CONTINUOUS
 10
22.7636221692
 20
-12.0534605485
 11
22.7428226968
 21
-12.0901466493
  0
LINE
  5
2A9
100
AcDbEntity
  8
RACCORDO
100
AcDbLine
 62
7
  6
CONTINUOUS
 10
25.8601529877
 20
-6.9518983356
 11
25.8830982123
 21
-6.916514657
  0
LINE
  5
2AA
100
AcDbEntity
  8
RACCORDO
100
AcDbLine
 62
7
  6
CONTINUOUS
 10
32.6398470123
 20
-6.9518983356
 11
32.6169017877
 21
-6.916514657
  0
LINE
  5
2AB
100
AcDbEntity
  8
RACCORDO
100
AcDbLine
 62
7
  6
CONTINUOUS
 10
35.7363778308
 20
-12.0534605485
 11
35.7571773032
 21
-12.0901466493
  0
LINE
  5
2AC
100
AcDbEntity
  8
RACCORDO
100
AcDbLine
 62
7
  6
CONTINUOUS
 10
31.7518652455
 20
-6.7161804089
 11
31.7022738488
 21
-6.8114997233
  0
LINE
  5
2AD
100
AcDbEntity
  8
RACCORDO
100
AcDbLine
 62
7
  6
CONTINUOUS
 10
26.0004516726
 20
-17.7709365816
 11
25.8579938945
 21
-18.0447537889
  0
LINE
  5
2AE
100
AcDbEntity
  8
RACCORDO
100
AcDbLine
 62
7
  6
CONTINUOUS
 10
31.8897234152
 20
-6.5381884871
 11
31.7386785704
 21
-6.8285108418
  0
LINE
  5
2AF
100
AcDbEntity
  8
RACCORDO
100
AcDbLine
 62
7
  6
CONTINUOUS
 10
26.0343775587
 20
-17.7927122544
 11
25.8830982123
 21
-18.083485343
  0
LINE
  5
2B0
100
AcDbEntity
  8
RACCORDO
100
AcDbLine
 62
7
  6
CONTINUOUS
 10
26.6102765848
 20
-18.4618115129
 11
26.7613214296
 21
-18.1714891582
  0
LINE
  5
2B1
100
AcDbEntity
  8
RACCORDO
100
AcDbLine
 62
7
  6
CONTINUOUS
 10
32.4656224413
 20
-7.2072877456
 11
32.6169017877
 21
-6.916514657
  0
LINE
  5
2B2
100
AcDbEntity
  8
RACCORDO
100
AcDbLine
 62
7
  6
CONTINUOUS
 10
26.7481347545
 20
-18.2838195911
 11
26.7977261512
 21
-18.1885002767
  0
LINE
  5
2B3
100
AcDbEntity
  8
RACCORDO
100
AcDbLine
 62
7
  6
CONTINUOUS
 10
32.4995483274
 20
-7.2290634184
 11
32.5502734251
 21
-7.1315650243
  0
LWPOLYLINE
  5
2B4
100
AcDbEntity
  8
0
100
AcDbPolyline
 62
7
  6
CONTINUOUS
 90
10
 70
0
 43
0.3500000006
 10
0.9642857051
 20
71.7500034485
 10
1.035714268
 20
71.6071410828
 10
1.035714268
 20
71.5357098999
 10
0.8928571422
 20
71.3928565979
 10
0.8214285793
 20
71.3928565979
 10
0.7500000165
 20
71.4642877808
 10
0.7500000165
 20
71.5357098999
 10
0.8214285793
 20
71.6785722656
 10
0.8928571422
 20
71.7500034485
 10
0.9642857051
 20
71.7500034485
  0
LINE
  5
2B5
100
AcDbEntity
  8
0
100
AcDbLine
 62
250
  6
CONTINUOUS
 10
38.7994713532
 20
55.5
 11
38.7994713532
 21
-55.5
  0
LINE
  5
2B6
100
AcDbEntity
  8
0
100
AcDbLine
 62
250
  6
CONTINUOUS
 10
38.9563960435
 20
55.5
 11
38.9563960435
 21
-55.5
  0
LINE
  5
2B7
100
AcDbEntity
  8
RACCORDO
100
AcDbLine
 62
7
  6
CONTINUOUS
 10
22.7636221692
 20
-37.0534605485
 11
22.7428226968
 21
-37.0901466493
  0
LINE
  5
2B8
100
AcDbEntity
  8
DRAFT
100
AcDbLine
 62
7
  6
CONTINUOUS
 10
35.7344043674
 20
-12.95
 11
35.7571773032
 21
-12.9098533507
  0
LINE
  5
2B9
100
AcDbEntity
  8
DRAFT
100
AcDbLine
 62
7
  6
CONTINUOUS
 10
32.6420061055
 20
-18.0447537889
 11
32.6169017877
 21
-18.083485343
  0
LINE
  5
2BA
100
AcDbEntity
  8
RACCORDO
100
AcDbLine
 62
7
  6
CONTINUOUS
 10
25.8601529877
 20
-31.9518983356
 11
25.8830982123
 21
-31.916514657
  0
LWPOLYLINE
  5
2BB
100
AcDbEntity
  8
0
100
AcDbPolyline
 62
7
  6
CONTINUOUS
 90
3
 70
0
 43
0.3500000006
 10
53.5071449432
 20
-2.5714288673
 10
52.6499979401
 20
-1.7142852631
 10
55.6499988556
 20
-1.7142852631
  0
LWPOLYLINE
  5
2BC
100
AcDbEntity
  8
0
100
AcDbPolyline
 62
7
  6
CONTINUOUS
 90
3
 70
0
 43
0.3500000006
 10
53.5071449432
 20
-0.8571427917
 10
52.6499979401
 20
-0.0000003204
 10
55.6499988556
 20
-0.0000003204
  0
LWPOLYLINE
  5
2BD
100
AcDbEntity
  8
0
100
AcDbPolyline
 62
7
  6
CONTINUOUS
 90
3
 70
0
 43
0.3500000006
 10
53.5071449432
 20
0.8571421509
 10
52.6499979401
 20
1.7142846222
 10
55.6499988556
 20
1.7142846222
  0
LINE
  5
2BE
100
AcDbEntity
  8
0
100
AcDbLine
 62
250
  6
CONTINUOUS
 10
43.055272805
 20
-55.5
 11
43.055272805
 21
55.5
  0
LINE
  5
2BF
100
AcDbEntity
  8
0
100
AcDbLine
 62
250
  6
CONTINUOUS
 10
43.9
 20
55.5
 11
43.9
 21
-55.5
  0
LINE
  5
2C0
100
AcDbEntity
  8
0
100
AcDbLine
 62
7
  6
CONTINUOUS
 10
44.9
 20
55.5
 11
44.9
 21
-55.5
  0
LINE
  5
2C1
100
AcDbEntity
  8
0
100
AcDbLine
 62
7
  6
CONTINUOUS
 10
46.2
 20
55.5
 11
46.2
 21
-55.5
  0
LINE
  5
2C2
100
AcDbEntity
  8
0
100
AcDbLine
 62
250
  6
CONTINUOUS
 10
46.3
 20
55.5
 11
46.3
 21
-55.5
  0
LINE
  5
2C3
100
AcDbEntity
  8
0
100
AcDbLine
 62
7
  6
CONTINUOUS
 10
46.3416198487
 20
-55.5
 11
46.3416198487
 21
55.5
  0
LINE
  5
2C4
100
AcDbEntity
  8
RACCORDO
100
AcDbLine
 62
7
  6
CONTINUOUS
 10
31.7518652455
 20
-31.7161804089
 11
31.7022738488
 21
-31.8114997233
  0
LINE
  5
2C5
100
AcDbEntity
  8
RACCORDO
100
AcDbLine
 62
7
  6
CONTINUOUS
 10
26.0004516726
 20
-42.7709365816
 11
25.8579938945
 21
-43.0447537889
  0
LINE
  5
2C6
100
AcDbEntity
  8
RACCORDO
100
AcDbLine
 62
7
  6
CONTINUOUS
 10
31.8897234152
 20
-31.5381884871
 11
31.7386785704
 21
-31.8285108418
  0
LINE
  5
2C7
100
AcDbEntity
  8
RACCORDO
100
AcDbLine
 62
7
  6
CONTINUOUS
 10
26.0343775587
 20
-42.7927122544
 11
25.8830982123
 21
-43.083485343
  0
LINE
  5
2C8
100
AcDbEntity
  8
RACCORDO
100
AcDbLine
 62
7
  6
CONTINUOUS
 10
26.6102765848
 20
-43.4618115129
 11
26.7613214296
 21
-43.1714891582
  0
LINE
  5
2C9
100
AcDbEntity
  8
RACCORDO
100
AcDbLine
 62
7
  6
CONTINUOUS
 10
32.4656224413
 20
-32.2072877456
 11
32.6169017877
 21
-31.916514657
  0
LINE
  5
2CA
100
AcDbEntity
  8
RACCORDO
100
AcDbLine
 62
7
  6
CONTINUOUS
 10
26.7481347545
 20
-43.2838195911
 11
26.7977261512
 21
-43.1885002767
  0
LINE
  5
2CB
100
AcDbEntity
  8
RACCORDO
100
AcDbLine
 62
7
  6
CONTINUOUS
 10
32.4995483274
 20
-32.2290634184
 11
32.5502734251
 21
-32.1315650243
  0
LINE
  5
2CC
100
AcDbEntity
  8
0
100
AcDbLine
 62
7
  6
CONTINUOUS
 10
48.4
 20
-55.5
 11
48.4
 21
55.5
  0
LINE
  5
2CD
100
AcDbEntity
  8
DRAFT
100
AcDbLine
 62
7
  6
CONTINUOUS
 10
35.7344043674
 20
-37.95
 11
35.7571773032
 21
-37.9098533507
  0
LINE
  5
2CE
100
AcDbEntity
  8
DRAFT
100
AcDbLine
 62
7
  6
CONTINUOUS
 10
32.6420061055
 20
-43.0447537889
 11
32.6169017877
 21
-43.083485343
  0
LINE
  5
2CF
100
AcDbEntity
  8
0
100
AcDbLine
 62
7
  6
CONTINUOUS
 10
-48.4
 20
55.5
 11
48.4
 21
55.5
  0
LWPOLYLINE
  5
2D0
100
AcDbEntity
  8
0
100
AcDbPolyline
 62
7
  6
CONTINUOUS
 90
13
 70
0
 43
0.3500000006
 10
2.464285738
 20
72.9642882385
 10
2.1785714865
 20
73.1785727234
 10
2.1785714865
 20
73.821426178
 10
2.464285738
 20
74.2500042114
 10
3.1071428747
 20
74.2500042114
 10
3.3928571262
 20
73.821426178
 10
3.3928571262
 20
73.1785727234
 10
3.1071428747
 20
72.9642882385
 10
3.5357143936
 20
72.5357102051
 10
3.5357143936
 20
71.6785722656
 10
3.1071428747
 20
71.2500032959
 10
2.464285738
 20
71.2500032959
 10
2.0357142191
 20
71.6785722656
  0
LWPOLYLINE
  5
2D1
100
AcDbEntity
  8
0
100
AcDbPolyline
 62
7
  6
CONTINUOUS
 90
3
 70
0
 43
0.3500000006
 10
-87.282497406
 20
73.3928572083
 10
-86.4253594666
 20
74.2500042114
 10
-86.4253594666
 20
71.2500032959
  0
LINE
  5
2D2
100
AcDbEntity
  8
0
100
AcDbLine
 62
7
  6
CONTINUOUS
 10
-73.8110732521
 20
-55.5
 11
-92.6110571105
 21
-55.5
  0
LINE
  5
2D3
100
AcDbEntity
  8
RACCORDO
100
AcDbLine
 62
7
  6
CONTINUOUS
 10
-92.2342608181
 20
-45.2851261576
 11
-92.2027672207
 21
-45.2851203018
  0
LINE
  5
2D4
100
AcDbEntity
  8
ASSI
100
AcDbLine
 62
7
  6
CONTINUOUS
 10
-92.6110625871
 20
-45.5
 11
-92.3113459341
 21
-45.5
  0
LINE
  5
2D5
100
AcDbEntity
  8
RACCORDO
100
AcDbLine
 62
250
  6
CONTINUOUS
 10
-92.7305436395
 20
-44.7851396833
 11
-92.3548153851
 21
-44.7851161277
  0
LINE
  5
2D6
100
AcDbEntity
  8
DRAFT
100
AcDbLine
 62
7
  6
CONTINUOUS
 10
-92.2349065809
 20
-45.2851205221
 11
-92.2028458861
 21
-45.2854003116
  0
LINE
  5
2D7
100
AcDbEntity
  8
0
100
AcDbLine
 62
7
  6
CONTINUOUS
 10
-89.8031342005
 20
-43.5381101672
 11
-90.3354094779
 21
-43.4961790379
  0
LINE
  5
2D8
100
AcDbEntity
  8
ASSI
100
AcDbLine
 62
7
  6
CONTINUOUS
 10
-89.8031342005
 20
-43.5381101672
 11
-90.3354094779
 21
-43.4961790379
  0
LINE
  5
2D9
100
AcDbEntity
  8
0
100
AcDbLine
 62
7
  6
CONTINUOUS
 10
-89.8031398327
 20
-31.4618902765
 11
-90.3354094779
 21
-31.5038209621
  0
LINE
  5
2DA
100
AcDbEntity
  8
ASSI
100
AcDbLine
 62
7
  6
CONTINUOUS
 10
-89.8031398327
 20
-31.4618902765
 11
-90.3354094779
 21
-31.5038209621
  0
LWPOLYLINE
  5
2DB
100
AcDbEntity
  8
RACCORDO
100
AcDbPolyline
 62
7
  6
CONTINUOUS
 90
18
 70
0
 10
-90.1737083804
 20
-30.2824618215
 10
-90.1845101131
 20
-30.2831108986
 10
-90.2660830741
 20
-30.3023761566
 10
-90.3449395194
 20
-30.3398764673
 10
-90.4161188055
 20
-30.3922334603
 10
-90.4788331837
 20
-30.4556505961
 10
-90.5361960803
 20
-30.5303867172
 10
-90.5906040011
 20
-30.6183645886
 10
-90.6429313474
 20
-30.7208288188
 10
-90.6933645869
 20
-30.83822579
 10
-90.7423210156
 20
-30.9717702053
 10
-90.7901143291
 20
-31.1228948745
 10
-90.8365119295
 20
-31.2915755373
 10
-90.8808128173
 20
-31.4753613462
 10
-90.9228897165
 20
-31.6731326729
 10
-90.9628982387
 20
-31.8850728237
 10
-91.0005958888
 20
-32.1091943541
 10
-91.0086905357
 20
-32.1629964035
  0
LWPOLYLINE
  5
2DC
100
AcDbEntity
  8
RACCORDO
100
AcDbPolyline
 62
7
  6
CONTINUOUS
 90
20
 70
0
 10
-92.2349073826
 20
-29.7148794751
 10
-92.2716886136
 20
-29.7165561816
 10
-92.3125985452
 20
-29.7216393188
 10
-92.3529512139
 20
-29.7300754299
 10
-92.3924723652
 20
-29.7418073292
 10
-92.4308931916
 20
-29.7567553742
 10
-92.4679521888
 20
-29.7748179304
 10
-92.5033972646
 20
-29.7958721794
 10
-92.5369875415
 20
-29.8197750948
 10
-92.5684947155
 20
-29.8463643136
 10
-92.5977045527
 20
-29.8754591783
 10
-92.6244183448
 20
-29.9068619101
 10
-92.6484543709
 20
-29.9403590353
 10
-92.6696491292
 20
-29.9757228447
 10
-92.6878584409
 20
-30.0127129442
 10
-92.7029584135
 20
-30.0510778611
 10
-92.714846292
 20
-30.0905567647
 10
-92.723441159
 20
-30.1308812395
 10
-92.7286844851
 20
-30.1717771079
 10
-92.7305441165
 20
-30.2148604363
  0
LINE
  5
2DD
100
AcDbEntity
  8
DRAFT
100
AcDbLine
 62
7
  6
CONTINUOUS
 10
-92.2028464921
 20
-29.7145996937
 11
-92.2349070214
 21
-29.7148794817
  0
LINE
  5
2DE
100
AcDbEntity
  8
RACCORDO
100
AcDbLine
 62
7
  6
CONTINUOUS
 10
-92.202765927
 20
-29.7148864555
 11
-92.2374944533
 21
-29.7149020619
  0
LINE
  5
2DF
100
AcDbEntity
  8
ASSI
100
AcDbLine
 62
7
  6
CONTINUOUS
 10
-92.3113459341
 20
-29.5
 11
-92.6110625871
 21
-29.5
  0
LINE
  5
2E0
100
AcDbEntity
  8
RACCORDO
100
AcDbLine
 62
250
  6
CONTINUOUS
 10
-92.3548153851
 20
-30.2148838723
 11
-92.7305436395
 21
-30.2148601781
  0
LWPOLYLINE
  5
2E1
100
AcDbEntity
  8
RACCORDO
100
AcDbPolyline
 62
7
  6
CONTINUOUS
 90
14
 70
0
 10
-90.0785356379
 20
-30.9123469702
 10
-90.0810226248
 20
-30.9113731008
 10
-90.085513128
 20
-30.9094376972
 10
-90.0798927973
 20
-30.9141121888
 10
-90.0646903112
 20
-30.9290405876
 10
-90.0405603296
 20
-30.9578282625
 10
-90.0096084629
 20
-31.0019424351
 10
-89.9741128639
 20
-31.0611403066
 10
-89.9346426273
 20
-31.1369154217
 10
-89.8918002214
 20
-31.2305455112
 10
-89.8470501901
 20
-31.3408322536
 10
-89.8007226822
 20
-31.4685542046
 10
-89.7531864864
 20
-31.6143231477
 10
-89.7296030831
 20
-31.6943593338
  0
LWPOLYLINE
  5
2E2
100
AcDbEntity
  8
0
100
AcDbPolyline
 62
7
  6
CONTINUOUS
 90
3
 70
0
 43
0.3500000006
 10
-82.4967894287
 20
71.5357098999
 10
-82.5682206116
 20
71.321425415
 10
-82.7110739136
 20
71.035718811
  0
LINE
  5
2E3
100
AcDbEntity
  8
RACCORDO
100
AcDbLine
 62
7
  6
CONTINUOUS
 10
-92.2342608181
 20
-20.2851261576
 11
-92.2027672207
 21
-20.2851203018
  0
LINE
  5
2E4
100
AcDbEntity
  8
ASSI
100
AcDbLine
 62
7
  6
CONTINUOUS
 10
-92.6110625871
 20
-20.5
 11
-92.3113459341
 21
-20.5
  0
LINE
  5
2E5
100
AcDbEntity
  8
RACCORDO
100
AcDbLine
 62
250
  6
CONTINUOUS
 10
-92.7305436395
 20
-19.7851396833
 11
-92.3548153851
 21
-19.7851161277
  0
LINE
  5
2E6
100
AcDbEntity
  8
DRAFT
100
AcDbLine
 62
7
  6
CONTINUOUS
 10
-92.2349065809
 20
-20.2851205221
 11
-92.2028458861
 21
-20.2854003116
  0
LINE
  5
2E7
100
AcDbEntity
  8
0
100
AcDbLine
 62
7
  6
CONTINUOUS
 10
-89.8031342005
 20
-18.5381101672
 11
-90.3354094779
 21
-18.4961790379
  0
LINE
  5
2E8
100
AcDbEntity
  8
ASSI
100
AcDbLine
 62
7
  6
CONTINUOUS
 10
-89.8031342005
 20
-18.5381101672
 11
-90.3354094779
 21
-18.4961790379
  0
LWPOLYLINE
  5
2E9
100
AcDbEntity
  8
RACCORDO
100
AcDbPolyline
 62
7
  6
CONTINUOUS
 90
18
 70
0
 10
-91.0086468625
 20
-42.8373331301
 10
-91.0008920048
 20
-42.8889288897
 10
-90.9631553924
 20
-43.1134490091
 10
-90.9231105418
 20
-43.3257339111
 10
-90.8810084178
 20
-43.5237831575
 10
-90.8366941268
 20
-43.7077289822
 10
-90.790295803
 20
-43.8765113229
 10
-90.7425070615
 20
-44.0277208437
 10
-90.6935563077
 20
-44.1613042728
 10
-90.6431360535
 20
-44.278732466
 10
-90.5908214647
 20
-44.3812473878
 10
-90.5364191943
 20
-44.4692740172
 10
-90.479061879
 20
-44.5440608326
 10
-90.4163570399
 20
-44.6075395308
 10
-90.3451945289
 20
-44.6599515487
 10
-90.2663524656
 20
-44.697503917
 10
-90.1847672174
 20
-44.7168437021
 10
-90.173693727
 20
-44.7175109938
  0
LWPOLYLINE
  5
2EA
100
AcDbEntity
  8
RACCORDO
100
AcDbPolyline
 62
7
  6
CONTINUOUS
 90
20
 70
0
 10
-92.7305436734
 20
-44.7851395696
 10
-92.7286840473
 20
-44.8282228367
 10
-92.7234407313
 20
-44.8691186764
 10
-92.7148458782
 20
-44.9094431274
 10
-92.7029580164
 20
-44.9489220125
 10
-92.6878580623
 20
-44.9872869163
 10
-92.6696487697
 20
-45.0242770081
 10
-92.6484540303
 20
-45.059640815
 10
-92.6244180218
 20
-45.0931379427
 10
-92.5977042451
 20
-45.1245406814
 10
-92.5684944201
 20
-45.1536355573
 10
-92.5369872537
 20
-45.1802247911
 10
-92.5033969797
 20
-45.2041277239
 10
-92.4679519028
 20
-45.2251819912
 10
-92.4308929015
 20
-45.2432445652
 10
-92.3924720667
 20
-45.2581926275
 10
-92.3529509001
 20
-45.2699245437
 10
-92.312598208
 20
-45.2783606697
 10
-92.271688246
 20
-45.2834438182
 10
-92.2349069409
 20
-45.2851205308
  0
LWPOLYLINE
  5
2EB
100
AcDbEntity
  8
RACCORDO
100
AcDbPolyline
 62
7
  6
CONTINUOUS
 90
20
 70
0
 10
-92.7305436734
 20
-19.7851395696
 10
-92.7286840473
 20
-19.8282228367
 10
-92.7234407313
 20
-19.8691186764
 10
-92.7148458782
 20
-19.9094431274
 10
-92.7029580164
 20
-19.9489220125
 10
-92.6878580623
 20
-19.9872869163
 10
-92.6696487697
 20
-20.0242770081
 10
-92.6484540303
 20
-20.059640815
 10
-92.6244180218
 20
-20.0931379427
 10
-92.5977042451
 20
-20.1245406814
 10
-92.5684944201
 20
-20.1536355573
 10
-92.5369872537
 20
-20.1802247911
 10
-92.5033969797
 20
-20.2041277239
 10
-92.4679519028
 20
-20.2251819912
 10
-92.4308929015
 20
-20.2432445652
 10
-92.3924720667
 20
-20.2581926275
 10
-92.3529509001
 20
-20.2699245437
 10
-92.312598208
 20
-20.2783606697
 10
-92.271688246
 20
-20.2834438182
 10
-92.2349069409
 20
-20.2851205308
  0
LINE
  5
2EC
100
AcDbEntity
  8
ASSI
100
AcDbLine
 62
7
  6
CONTINUOUS
 10
-92.7305436395
 20
-5.2148604363
 11
-92.7305436395
 21
-19.7851395696
  0
LINE
  5
2ED
100
AcDbEntity
  8
ASSI
100
AcDbLine
 62
7
  6
CONTINUOUS
 10
-92.7305436395
 20
-30.2148604363
 11
-92.7305436395
 21
-44.7851395696
  0
LINE
  5
2EE
100
AcDbEntity
  8
ASSI
100
AcDbLine
 62
7
  6
CONTINUOUS
 10
-92.6110732521
 20
-55.5
 11
-92.6110732521
 21
-45.5
  0
LINE
  5
2EF
100
AcDbEntity
  8
ASSI
100
AcDbLine
 62
7
  6
CONTINUOUS
 10
-92.6110732521
 20
-29.5
 11
-92.6110732521
 21
-20.5
  0
LINE
  5
2F0
100
AcDbEntity
  8
ASSI
100
AcDbLine
 62
7
  6
CONTINUOUS
 10
-92.6110732521
 20
-4.5
 11
-92.6110732521
 21
55.5
  0
LWPOLYLINE
  5
2F1
100
AcDbEntity
  8
RACCORDO
100
AcDbPolyline
 62
7
  6
CONTINUOUS
 90
18
 70
0
 10
-91.0086468625
 20
-17.8373331301
 10
-91.0008920048
 20
-17.8889288897
 10
-90.9631553924
 20
-18.1134490091
 10
-90.9231105418
 20
-18.3257339111
 10
-90.8810084178
 20
-18.5237831575
 10
-90.8366941268
 20
-18.7077289822
 10
-90.790295803
 20
-18.8765113229
 10
-90.7425070615
 20
-19.0277208437
 10
-90.6935563077
 20
-19.1613042728
 10
-90.6431360535
 20
-19.278732466
 10
-90.5908214647
 20
-19.3812473878
 10
-90.5364191943
 20
-19.4692740172
 10
-90.479061879
 20
-19.5440608326
 10
-90.4163570399
 20
-19.6075395308
 10
-90.3451945289
 20
-19.6599515487
 10
-90.2663524656
 20
-19.697503917
 10
-90.1847672174
 20
-19.7168437021
 10
-90.173693727
 20
-19.7175109938
  0
LINE
  5
2F2
100
AcDbEntity
  8
0
100
AcDbLine
 62
250
  6
CONTINUOUS
 10
-88.8498207832
 20
55.5
 11
-88.8498207832
 21
-55.5
  0
LINE
  5
2F3
100
AcDbEntity
  8
0
100
AcDbLine
 62
250
  6
CONTINUOUS
 10
-88.747647106
 20
55.5
 11
-88.747647106
 21
-55.5
  0
LINE
  5
2F4
100
AcDbEntity
  8
0
100
AcDbLine
 62
7
  6
CONTINUOUS
 10
-89.8031398327
 20
-6.4618902765
 11
-90.3354094779
 21
-6.5038209621
  0
LINE
  5
2F5
100
AcDbEntity
  8
ASSI
100
AcDbLine
 62
7
  6
CONTINUOUS
 10
-89.8031398327
 20
-6.4618902765
 11
-90.3354094779
 21
-6.5038209621
  0
LWPOLYLINE
  5
2F6
100
AcDbEntity
  8
RACCORDO
100
AcDbPolyline
 62
7
  6
CONTINUOUS
 90
18
 70
0
 10
-90.1737083804
 20
-5.2824618215
 10
-90.1845101131
 20
-5.2831108986
 10
-90.2660830741
 20
-5.3023761566
 10
-90.3449395194
 20
-5.3398764673
 10
-90.4161188055
 20
-5.3922334603
 10
-90.4788331837
 20
-5.4556505961
 10
-90.5361960803
 20
-5.5303867172
 10
-90.5906040011
 20
-5.6183645886
 10
-90.6429313474
 20
-5.7208288188
 10
-90.6933645869
 20
-5.83822579
 10
-90.7423210156
 20
-5.9717702053
 10
-90.7901143291
 20
-6.1228948745
 10
-90.8365119295
 20
-6.2915755373
 10
-90.8808128173
 20
-6.4753613462
 10
-90.9228897165
 20
-6.6731326729
 10
-90.9628982387
 20
-6.8850728237
 10
-91.0005958888
 20
-7.1091943541
 10
-91.0086905357
 20
-7.1629964035
  0
LWPOLYLINE
  5
2F7
100
AcDbEntity
  8
RACCORDO
100
AcDbPolyline
 62
7
  6
CONTINUOUS
 90
20
 70
0
 10
-92.2349073826
 20
-4.7148794751
 10
-92.2716886136
 20
-4.7165561816
 10
-92.3125985452
 20
-4.7216393188
 10
-92.3529512139
 20
-4.7300754299
 10
-92.3924723652
 20
-4.7418073292
 10
-92.4308931916
 20
-4.7567553742
 10
-92.4679521888
 20
-4.7748179304
 10
-92.5033972646
 20
-4.7958721794
 10
-92.5369875415
 20
-4.8197750948
 10
-92.5684947155
 20
-4.8463643136
 10
-92.5977045527
 20
-4.8754591783
 10
-92.6244183448
 20
-4.9068619101
 10
-92.6484543709
 20
-4.9403590353
 10
-92.6696491292
 20
-4.9757228447
 10
-92.6878584409
 20
-5.0127129442
 10
-92.7029584135
 20
-5.0510778611
 10
-92.714846292
 20
-5.0905567647
 10
-92.723441159
 20
-5.1308812395
 10
-92.7286844851
 20
-5.1717771079
 10
-92.7305441165
 20
-5.2148604363
  0
LINE
  5
2F8
100
AcDbEntity
  8
DRAFT
100
AcDbLine
 62
7
  6
CONTINUOUS
 10
-92.2028464921
 20
-4.7145996937
 11
-92.2349070214
 21
-4.7148794817
  0
LINE
  5
2F9
100
AcDbEntity
  8
RACCORDO
100
AcDbLine
 62
7
  6
CONTINUOUS
 10
-92.202765927
 20
-4.7148864555
 11
-92.2374944533
 21
-4.7149020619
  0
LINE
  5
2FA
100
AcDbEntity
  8
ASSI
100
AcDbLine
 62
7
  6
CONTINUOUS
 10
-92.3113459341
 20
-4.5
 11
-92.6110625871
 21
-4.5
  0
LINE
  5
2FB
100
AcDbEntity
  8
RACCORDO
100
AcDbLine
 62
250
  6
CONTINUOUS
 10
-92.3548153851
 20
-5.2148838723
 11
-92.7305436395
 21
-5.2148601781
  0
LWPOLYLINE
  5
2FC
100
AcDbEntity
  8
RACCORDO
100
AcDbPolyline
 62
7
  6
CONTINUOUS
 90
14
 70
0
 10
-90.0785356379
 20
-5.9123469702
 10
-90.0810226248
 20
-5.9113731008
 10
-90.085513128
 20
-5.9094376972
 10
-90.0798927973
 20
-5.9141121888
 10
-90.0646903112
 20
-5.9290405876
 10
-90.0405603296
 20
-5.9578282625
 10
-90.0096084629
 20
-6.0019424351
 10
-89.9741128639
 20
-6.0611403066
 10
-89.9346426273
 20
-6.1369154217
 10
-89.8918002214
 20
-6.2305455112
 10
-89.8470501901
 20
-6.3408322536
 10
-89.8007226822
 20
-6.4685542046
 10
-89.7531864864
 20
-6.6143231477
 10
-89.7296030831
 20
-6.6943593338
  0
LINE
  5
2FD
100
AcDbEntity
  8
0
100
AcDbLine
 62
7
  6
CONTINUOUS
 10
-86.6110732521
 20
55.5
 11
-86.6110732521
 21
-55.5
  0
LINE
  5
2FE
100
AcDbEntity
  8
0
100
AcDbLine
 62
250
  6
CONTINUOUS
 10
-85.6110732521
 20
55.5
 11
-85.6110732521
 21
-55.5
  0
LWPOLYLINE
  5
2FF
100
AcDbEntity
  8
0
100
AcDbPolyline
 62
7
  6
CONTINUOUS
 90
4
 70
0
 43
0.3500000006
 10
-85.5682124634
 20
71.6785722656
 10
-85.5682124634
 20
72.5357102051
 10
-85.1396434937
 20
72.9642882385
 10
-84.4967900391
 20
72.9642882385
  0
LINE
  5
300
100
AcDbEntity
  8
0
100
AcDbLine
 62
7
  6
CONTINUOUS
 10
-84.8110732521
 20
-55.5
 11
-84.8110732521
 21
55.5
  0
LWPOLYLINE
  5
301
100
AcDbEntity
  8
RACCORDO
100
AcDbPolyline
 62
7
  6
CONTINUOUS
 90
11
 70
0
 10
-89.729603722
 20
-18.3056414131
 10
-89.7533031429
 20
-18.3860517752
 10
-89.8008329658
 20
-18.5317674681
 10
-89.847147791
 20
-18.6594211139
 10
-89.8918796652
 20
-18.7696366864
 10
-89.9346993658
 20
-18.86320309
 10
-89.9741497256
 20
-18.9389249634
 10
-90.0096342356
 20
-18.998093575
 10
-90.0405807633
 20
-19.0422002198
 10
-90.0647054577
 20
-19.0709786223
 10
-90.0728600457
 20
-19.0793552394
  0
LINE
  5
302
100
AcDbEntity
  8
0
100
AcDbLine
 62
250
  6
CONTINUOUS
 10
-82.1110732521
 20
-55.5
 11
-82.1110732521
 21
55.5
  0
LWPOLYLINE
  5
303
100
AcDbEntity
  8
0
100
AcDbPolyline
 62
7
  6
CONTINUOUS
 90
4
 70
0
 43
0.3500000006
 10
-81.4967891235
 20
71.6785722656
 10
-81.4967891235
 20
72.5357102051
 10
-81.0682201538
 20
72.9642882385
 10
-80.4253576355
 20
72.9642882385
  0
LINE
  5
304
100
AcDbEntity
  8
0
100
AcDbLine
 62
250
  6
CONTINUOUS
 10
-74.0610732521
 20
55.5
 11
-74.0610732521
 21
-55.5
  0
LINE
  5
305
100
AcDbEntity
  8
0
100
AcDbLine
 62
7
  6
CONTINUOUS
 10
-73.8110732521
 20
55.5
 11
-73.8110732521
 21
-55.5
  0
LWPOLYLINE
  5
306
100
AcDbEntity
  8
RACCORDO
100
AcDbPolyline
 62
7
  6
CONTINUOUS
 90
11
 70
0
 10
-89.729603722
 20
-43.3056414131
 10
-89.7533031429
 20
-43.3860517752
 10
-89.8008329658
 20
-43.5317674681
 10
-89.847147791
 20
-43.6594211139
 10
-89.8918796652
 20
-43.7696366864
 10
-89.9346993658
 20
-43.86320309
 10
-89.9741497256
 20
-43.9389249634
 10
-90.0096342356
 20
-43.998093575
 10
-90.0405807633
 20
-44.0422002198
 10
-90.0647054577
 20
-44.0709786223
 10
-90.0728600457
 20
-44.0793552394
  0
LWPOLYLINE
  5
307
100
AcDbEntity
  8
0
100
AcDbPolyline
 62
7
  6
CONTINUOUS
 90
10
 70
0
 43
0.3500000006
 10
-82.5682206116
 20
71.7500034485
 10
-82.4967894287
 20
71.6071410828
 10
-82.4967894287
 20
71.5357098999
 10
-82.6396427307
 20
71.3928565979
 10
-82.7110739136
 20
71.3928565979
 10
-82.7825050964
 20
71.4642877808
 10
-82.7825050964
 20
71.5357098999
 10
-82.7110739136
 20
71.6785722656
 10
-82.6396427307
 20
71.7500034485
 10
-82.5682206116
 20
71.7500034485
  0
LINE
  5
308
100
AcDbEntity
  8
0
100
AcDbLine
 62
7
  6
CONTINUOUS
 10
-73.8110732521
 20
55.5
 11
-92.6110571105
 21
55.5
  0
LWPOLYLINE
  5
309
100
AcDbEntity
  8
0
100
AcDbPolyline
 62
7
  6
CONTINUOUS
 90
13
 70
0
 43
0.3500000006
 10
-85.1396434937
 20
72.9642882385
 10
-85.4253591614
 20
73.1785727234
 10
-85.4253591614
 20
73.821426178
 10
-85.1396434937
 20
74.2500042114
 10
-84.4967900391
 20
74.2500042114
 10
-84.2110743713
 20
73.821426178
 10
-84.2110743713
 20
73.1785727234
 10
-84.4967900391
 20
72.9642882385
 10
-84.0682120056
 20
72.5357102051
 10
-84.0682120056
 20
71.6785722656
 10
-84.4967900391
 20
71.2500032959
 10
-85.1396434937
 20
71.2500032959
 10
-85.5682124634
 20
71.6785722656
  0
LWPOLYLINE
  5
30A
100
AcDbEntity
  8
0
100
AcDbPolyline
 62
7
  6
CONTINUOUS
 90
13
 70
0
 43
0.3500000006
 10
-81.0682201538
 20
72.9642882385
 10
-81.3539267578
 20
73.1785727234
 10
-81.3539267578
 20
73.821426178
 10
-81.0682201538
 20
74.2500042114
 10
-80.4253576355
 20
74.2500042114
 10
-80.1396419678
 20
73.821426178
 10
-80.1396419678
 20
73.1785727234
 10
-80.4253576355
 20
72.9642882385
 10
-79.9967886658
 20
72.5357102051
 10
-79.9967886658
 20
71.6785722656
 10
-80.4253576355
 20
71.2500032959
 10
-81.0682201538
 20
71.2500032959
 10
-81.4967891235
 20
71.6785722656
  0
ARC
  5
30B
100
AcDbEntity
  8
ASSI
100
AcDbCircle
 62
7
  6
CONTINUOUS
 10
-28.7
 20
-37.5
 40
8.0
100
AcDbArc
 50
90.0
 51
270.0
  0
ARC
  5
30C
100
AcDbEntity
  8
RACCORDO
100
AcDbCircle
 62
250
  6
CONTINUOUS
 10
-28.6503323529
 20
-37.5207811654
 40
7.8190330062
100
AcDbArc
 50
89.9975483468
 51
91.3991245348
  0
ARC
  5
30D
100
AcDbEntity
  8
RACCORDO
100
AcDbCircle
 62
250
  6
CONTINUOUS
 10
-28.6503811273
 20
-37.4867478544
 40
7.8115039887
100
AcDbArc
 50
268.0906979514
 51
270.0028117666
  0
ARC
  5
30E
100
AcDbEntity
  8
RACCORDO
100
AcDbCircle
 62
250
  6
CONTINUOUS
 10
-28.6494149359
 20
-37.4847942796
 40
7.8001764811
100
AcDbArc
 50
268.323507476
 51
269.9958425752
  0
ARC
  5
30F
100
AcDbEntity
  8
RACCORDO
100
AcDbCircle
 62
250
  6
CONTINUOUS
 10
-28.6494150898
 20
-37.5147502601
 40
7.7997210208
100
AcDbArc
 50
90.0041565373
 51
91.676486534
  0
ARC
  5
310
100
AcDbEntity
  8
RACCORDO
100
AcDbCircle
 62
250
  6
CONTINUOUS
 10
-28.6503223223
 20
-37.4999973781
 40
7.7982099167
100
AcDbArc
 50
92.1200467089
 51
268.087022765
  0
ARC
  5
311
100
AcDbEntity
  8
RACCORDO
100
AcDbCircle
 62
7
  6
CONTINUOUS
 10
-28.649040188
 20
-37.5000000961
 40
7.7849876981
100
AcDbArc
 50
91.6824205204
 51
268.3174764997
  0
ARC
  5
312
100
AcDbEntity
  8
RACCORDO
100
AcDbCircle
 62
250
  6
CONTINUOUS
 10
-28.6511617679
 20
-37.4839410401
 40
7.782183613
100
AcDbArc
 50
91.3996425118
 51
92.1182436995
  0
ARC
  5
313
100
AcDbEntity
  8
ASSI
100
AcDbCircle
 62
7
  6
CONTINUOUS
 10
-28.7
 20
-12.5
 40
8.0
100
AcDbArc
 50
90.0
 51
270.0
  0
ARC
  5
314
100
AcDbEntity
  8
RACCORDO
100
AcDbCircle
 62
250
  6
CONTINUOUS
 10
-28.6503323529
 20
-12.5207811654
 40
7.8190330062
100
AcDbArc
 50
89.9975483468
 51
91.3991245348
  0
ARC
  5
315
100
AcDbEntity
  8
RACCORDO
100
AcDbCircle
 62
250
  6
CONTINUOUS
 10
-28.6503811273
 20
-12.4867478545
 40
7.8115039887
100
AcDbArc
 50
268.0906979514
 51
270.0028117666
  0
ARC
  5
316
100
AcDbEntity
  8
RACCORDO
100
AcDbCircle
 62
250
  6
CONTINUOUS
 10
-28.6494149359
 20
-12.4847942796
 40
7.8001764811
100
AcDbArc
 50
268.323507476
 51
269.9958425752
  0
ARC
  5
317
100
AcDbEntity
  8
RACCORDO
100
AcDbCircle
 62
250
  6
CONTINUOUS
 10
-28.6494150897
 20
-12.5147502601
 40
7.7997210208
100
AcDbArc
 50
90.0041565373
 51
91.676486534
  0
ARC
  5
318
100
AcDbEntity
  8
RACCORDO
100
AcDbCircle
 62
250
  6
CONTINUOUS
 10
-28.6503223226
 20
-12.4999973781
 40
7.7982099166
100
AcDbArc
 50
92.1200467064
 51
268.0870227674
  0
ARC
  5
319
100
AcDbEntity
  8
RACCORDO
100
AcDbCircle
 62
7
  6
CONTINUOUS
 10
-28.649040188
 20
-12.5000000961
 40
7.7849876981
100
AcDbArc
 50
91.6824205204
 51
268.3174764997
  0
ARC
  5
31A
100
AcDbEntity
  8
RACCORDO
100
AcDbCircle
 62
250
  6
CONTINUOUS
 10
-28.6511617679
 20
-12.4839410402
 40
7.782183613
100
AcDbArc
 50
91.3996425118
 51
92.1182436995
  0
ARC
  5
31B
100
AcDbEntity
  8
ASSI
100
AcDbCircle
 62
7
  6
CONTINUOUS
 10
11.0
 20
-37.5
 40
8.0
100
AcDbArc
 50
270.0
 51
90.0
  0
ARC
  5
31C
100
AcDbEntity
  8
RACCORDO
100
AcDbCircle
 62
250
  6
CONTINUOUS
 10
10.9501889067
 20
-37.5000001977
 40
7.7982341823
100
AcDbArc
 50
273.7359273146
 51
86.1614574376
  0
ARC
  5
31D
100
AcDbEntity
  8
RACCORDO
100
AcDbCircle
 62
250
  6
CONTINUOUS
 10
10.9506369798
 20
-37.5062351266
 40
7.7920313688
100
AcDbArc
 50
269.9953092083
 51
273.7356268283
  0
ARC
  5
31E
100
AcDbEntity
  8
RACCORDO
100
AcDbCircle
 62
250
  6
CONTINUOUS
 10
10.9506781139
 20
-37.4923321355
 40
7.7905986344
100
AcDbArc
 50
86.1612718877
 51
90.0049941742
  0
ARC
  5
31F
100
AcDbEntity
  8
RACCORDO
100
AcDbCircle
 62
7
  6
CONTINUOUS
 10
10.9494710999
 20
-37.4999994536
 40
7.7851249156
100
AcDbArc
 50
273.6566693321
 51
86.3432636091
  0
ARC
  5
320
100
AcDbEntity
  8
RACCORDO
100
AcDbCircle
 62
250
  6
CONTINUOUS
 10
10.9502256765
 20
-37.4939841719
 40
7.7790811893
100
AcDbArc
 50
86.3459843238
 51
90.0017224698
  0
ARC
  5
321
100
AcDbEntity
  8
RACCORDO
100
AcDbCircle
 62
250
  6
CONTINUOUS
 10
10.950213816
 20
-37.5061799806
 40
7.7789170365
100
AcDbArc
 50
269.9983648523
 51
273.6541133131
  0
CIRCLE
  5
322
100
AcDbEntity
  8
ASSI
100
AcDbCircle
 62
7
  6
CONTINUOUS
 10
29.25
 20
-37.5
 40
7.5
  0
ARC
  5
323
100
AcDbEntity
  8
RACCORDO
100
AcDbCircle
 62
250
  6
CONTINUOUS
 10
29.2668670657
 20
-37.5018752973
 40
7.2407071234
100
AcDbArc
 50
166.56098759
 51
179.9851607556
  0
ARC
  5
324
100
AcDbEntity
  8
RACCORDO
100
AcDbCircle
 62
250
  6
CONTINUOUS
 10
29.263819926
 20
-37.4984930183
 40
7.2376598977
100
AcDbArc
 50
180.0119297806
 51
193.4417254615
  0
ARC
  5
325
100
AcDbEntity
  8
RACCORDO
100
AcDbCircle
 62
250
  6
CONTINUOUS
 10
29.2686160669
 20
-37.5020801726
 40
7.2332107145
100
AcDbArc
 50
166.5635383899
 51
179.9835225159
  0
ARC
  5
326
100
AcDbEntity
  8
RACCORDO
100
AcDbCircle
 62
250
  6
CONTINUOUS
 10
29.2562066737
 20
-37.4991202172
 40
7.2302230583
100
AcDbArc
 50
193.4391591827
 51
359.9930280672
  0
ARC
  5
327
100
AcDbEntity
  8
RACCORDO
100
AcDbCircle
 62
250
  6
CONTINUOUS
 10
29.2562059902
 20
-37.5008754212
 40
7.2302219897
100
AcDbArc
 50
0.0069373682
 51
166.5490591052
  0
ARC
  5
328
100
AcDbEntity
  8
RACCORDO
100
AcDbCircle
 62
250
  6
CONTINUOUS
 10
29.2638023818
 20
-37.4984960899
 40
7.2283968867
100
AcDbArc
 50
180.0119207213
 51
193.4420205374
  0
ARC
  5
329
100
AcDbEntity
  8
RACCORDO
100
AcDbCircle
 62
7
  6
CONTINUOUS
 10
29.2558104491
 20
-37.4992187433
 40
7.2205563686
100
AcDbArc
 50
193.4511853633
 51
166.5498486969
  0
ARC
  5
32A
100
AcDbEntity
  8
RACCORDO
100
AcDbCircle
 62
250
  6
CONTINUOUS
 10
29.2404654336
 20
-37.4988465583
 40
6.5798781997
100
AcDbArc
 50
359.9899564259
 51
180.0100435742
  0
ARC
  5
32B
100
AcDbEntity
  8
RACCORDO
100
AcDbCircle
 62
250
  6
CONTINUOUS
 10
29.2404654346
 20
-37.5011534943
 40
6.5798778535
100
AcDbArc
 50
179.9899559681
 51
0.0100440319
  0
ARC
  5
32C
100
AcDbEntity
  8
DRAFT
100
AcDbCircle
 62
7
  6
CONTINUOUS
 10
29.25
 20
-37.5
 40
6.5200717959
100
AcDbArc
 50
58.9095705133
 51
66.1175769859
  0
ARC
  5
32D
100
AcDbEntity
  8
DRAFT
100
AcDbCircle
 62
7
  6
CONTINUOUS
 10
29.25
 20
-37.5
 40
6.5200717959
100
AcDbArc
 50
113.8824230141
 51
121.0904294867
  0
ARC
  5
32E
100
AcDbEntity
  8
DRAFT
100
AcDbCircle
 62
7
  6
CONTINUOUS
 10
29.25
 20
-37.5
 40
6.5200717959
100
AcDbArc
 50
176.3959967637
 51
183.6040032363
  0
ARC
  5
32F
100
AcDbEntity
  8
DRAFT
100
AcDbCircle
 62
7
  6
CONTINUOUS
 10
29.25
 20
-37.5
 40
6.5200717959
100
AcDbArc
 50
238.9095705133
 51
246.1175769859
  0
ARC
  5
330
100
AcDbEntity
  8
DRAFT
100
AcDbCircle
 62
7
  6
CONTINUOUS
 10
29.25
 20
-37.5
 40
6.5200717959
100
AcDbArc
 50
293.8824230141
 51
301.0904294867
  0
ARC
  5
331
100
AcDbEntity
  8
DRAFT
100
AcDbCircle
 62
7
  6
CONTINUOUS
 10
29.25
 20
-37.5
 40
6.5200717959
100
AcDbArc
 50
356.3959967637
 51
3.6040032363
  0
ARC
  5
332
100
AcDbEntity
  8
RACCORDO
100
AcDbCircle
 62
7
  6
CONTINUOUS
 10
29.25
 20
-37.5
 40
6.5017301425
100
AcDbArc
 50
3.9381798315
 51
58.5753939181
  0
ARC
  5
333
100
AcDbEntity
  8
RACCORDO
100
AcDbCircle
 62
7
  6
CONTINUOUS
 10
29.25
 20
-37.5
 40
6.5017301425
100
AcDbArc
 50
66.4517535812
 51
113.5482464188
  0
ARC
  5
334
100
AcDbEntity
  8
RACCORDO
100
AcDbCircle
 62
7
  6
CONTINUOUS
 10
29.25
 20
-37.5
 40
6.5017301425
100
AcDbArc
 50
121.4246060819
 51
176.0618201685
  0
ARC
  5
335
100
AcDbEntity
  8
RACCORDO
100
AcDbCircle
 62
7
  6
CONTINUOUS
 10
29.25
 20
-37.5
 40
6.5017301425
100
AcDbArc
 50
246.4517535812
 51
293.5482464188
  0
ARC
  5
336
100
AcDbEntity
  8
DRAFT
100
AcDbCircle
 62
7
  6
CONTINUOUS
 10
29.25
 20
-37.5
 40
6.5
100
AcDbArc
 50
301.4562326039
 51
356.0301936465
  0
ARC
  5
337
100
AcDbEntity
  8
DRAFT
100
AcDbCircle
 62
7
  6
CONTINUOUS
 10
29.25
 20
-37.5
 40
6.5
100
AcDbArc
 50
183.9698063535
 51
238.5437673961
  0
ARC
  5
338
100
AcDbEntity
  8
RACCORDO
100
AcDbCircle
 62
250
  6
CONTINUOUS
 10
29.25
 20
-37.5
 40
6.3017377579
100
AcDbArc
 50
66.6084860614
 51
113.3915139386
  0
ARC
  5
339
100
AcDbEntity
  8
RACCORDO
100
AcDbCircle
 62
250
  6
CONTINUOUS
 10
29.25
 20
-37.5
 40
6.3017377579
100
AcDbArc
 50
4.0949123118
 51
58.4186614378
  0
ARC
  5
33A
100
AcDbEntity
  8
RACCORDO
100
AcDbCircle
 62
250
  6
CONTINUOUS
 10
29.25
 20
-37.5
 40
6.3017377579
100
AcDbArc
 50
246.6084860614
 51
293.3915139386
  0
ARC
  5
33B
100
AcDbEntity
  8
RACCORDO
100
AcDbCircle
 62
250
  6
CONTINUOUS
 10
29.25
 20
-37.5
 40
6.3017377579
100
AcDbArc
 50
121.5813385622
 51
175.9050876882
  0
ARC
  5
33C
100
AcDbEntity
  8
0
100
AcDbCircle
 62
7
  6
CONTINUOUS
 10
29.2151175541
 20
-37.5008106075
 40
6.2358766206
100
AcDbArc
 50
350.7645238143
 51
9.2354761857
  0
ARC
  5
33D
100
AcDbEntity
  8
0
100
AcDbCircle
 62
7
  6
CONTINUOUS
 10
29.2587108135
 20
-37.4991893925
 40
6.2358766206
100
AcDbArc
 50
170.7645238143
 51
189.2354761857
  0
ARC
  5
33E
100
AcDbEntity
  8
ASSI
100
AcDbCircle
 62
7
  6
CONTINUOUS
 10
11.0
 20
-12.5
 40
8.0
100
AcDbArc
 50
270.0
 51
90.0
  0
ARC
  5
33F
100
AcDbEntity
  8
RACCORDO
100
AcDbCircle
 62
250
  6
CONTINUOUS
 10
10.9501889066
 20
-12.5000001977
 40
7.7982341824
100
AcDbArc
 50
273.7359273153
 51
86.1614574368
  0
ARC
  5
340
100
AcDbEntity
  8
RACCORDO
100
AcDbCircle
 62
250
  6
CONTINUOUS
 10
10.9506369798
 20
-12.5062351266
 40
7.7920313688
100
AcDbArc
 50
269.9953092083
 51
273.7356268283
  0
ARC
  5
341
100
AcDbEntity
  8
RACCORDO
100
AcDbCircle
 62
250
  6
CONTINUOUS
 10
10.9506781139
 20
-12.4923321355
 40
7.7905986344
100
AcDbArc
 50
86.1612718877
 51
90.0049941742
  0
ARC
  5
342
100
AcDbEntity
  8
RACCORDO
100
AcDbCircle
 62
7
  6
CONTINUOUS
 10
10.9494710999
 20
-12.4999994536
 40
7.7851249156
100
AcDbArc
 50
273.6566693321
 51
86.3432636091
  0
ARC
  5
343
100
AcDbEntity
  8
RACCORDO
100
AcDbCircle
 62
250
  6
CONTINUOUS
 10
10.9502256765
 20
-12.4939841719
 40
7.7790811893
100
AcDbArc
 50
86.3459843238
 51
90.0017224698
  0
ARC
  5
344
100
AcDbEntity
  8
RACCORDO
100
AcDbCircle
 62
250
  6
CONTINUOUS
 10
10.950213816
 20
-12.5061799806
 40
7.7789170365
100
AcDbArc
 50
269.9983648523
 51
273.6541133131
  0
CIRCLE
  5
345
100
AcDbEntity
  8
ASSI
100
AcDbCircle
 62
7
  6
CONTINUOUS
 10
29.25
 20
-12.5
 40
7.5
  0
ARC
  5
346
100
AcDbEntity
  8
RACCORDO
100
AcDbCircle
 62
250
  6
CONTINUOUS
 10
29.2668670657
 20
-12.5018752973
 40
7.2407071234
100
AcDbArc
 50
166.56098759
 51
179.9851607556
  0
ARC
  5
347
100
AcDbEntity
  8
RACCORDO
100
AcDbCircle
 62
250
  6
CONTINUOUS
 10
29.263819926
 20
-12.4984930183
 40
7.2376598977
100
AcDbArc
 50
180.0119297806
 51
193.4417254615
  0
ARC
  5
348
100
AcDbEntity
  8
RACCORDO
100
AcDbCircle
 62
250
  6
CONTINUOUS
 10
29.2686160669
 20
-12.5020801726
 40
7.2332107145
100
AcDbArc
 50
166.5635383899
 51
179.9835225159
  0
ARC
  5
349
100
AcDbEntity
  8
RACCORDO
100
AcDbCircle
 62
250
  6
CONTINUOUS
 10
29.2562066736
 20
-12.4991202172
 40
7.2302230583
100
AcDbArc
 50
193.4391591827
 51
359.9930280666
  0
ARC
  5
34A
100
AcDbEntity
  8
RACCORDO
100
AcDbCircle
 62
250
  6
CONTINUOUS
 10
29.2562059902
 20
-12.5008754215
 40
7.2302219901
100
AcDbArc
 50
0.0069373708
 51
166.5490591025
  0
ARC
  5
34B
100
AcDbEntity
  8
RACCORDO
100
AcDbCircle
 62
250
  6
CONTINUOUS
 10
29.2638023818
 20
-12.4984960899
 40
7.2283968867
100
AcDbArc
 50
180.0119207213
 51
193.4420205374
  0
ARC
  5
34C
100
AcDbEntity
  8
RACCORDO
100
AcDbCircle
 62
7
  6
CONTINUOUS
 10
29.2558104491
 20
-12.4992187434
 40
7.2205563685
100
AcDbArc
 50
193.4511853624
 51
166.5498486966
  0
ARC
  5
34D
100
AcDbEntity
  8
RACCORDO
100
AcDbCircle
 62
250
  6
CONTINUOUS
 10
29.2404654336
 20
-12.4988465582
 40
6.5798781997
100
AcDbArc
 50
359.9899564253
 51
180.0100435748
  0
ARC
  5
34E
100
AcDbEntity
  8
RACCORDO
100
AcDbCircle
 62
250
  6
CONTINUOUS
 10
29.2404654346
 20
-12.5011534943
 40
6.5798778535
100
AcDbArc
 50
179.9899559681
 51
0.0100440319
  0
ARC
  5
34F
100
AcDbEntity
  8
DRAFT
100
AcDbCircle
 62
7
  6
CONTINUOUS
 10
29.25
 20
-12.5
 40
6.5200717959
100
AcDbArc
 50
58.9095705133
 51
66.1175769859
  0
ARC
  5
350
100
AcDbEntity
  8
DRAFT
100
AcDbCircle
 62
7
  6
CONTINUOUS
 10
29.25
 20
-12.5
 40
6.5200717959
100
AcDbArc
 50
113.8824230141
 51
121.0904294867
  0
ARC
  5
351
100
AcDbEntity
  8
DRAFT
100
AcDbCircle
 62
7
  6
CONTINUOUS
 10
29.25
 20
-12.5
 40
6.5200717959
100
AcDbArc
 50
176.3959967637
 51
183.6040032363
  0
ARC
  5
352
100
AcDbEntity
  8
DRAFT
100
AcDbCircle
 62
7
  6
CONTINUOUS
 10
29.25
 20
-12.5
 40
6.5200717959
100
AcDbArc
 50
238.9095705133
 51
246.1175769859
  0
ARC
  5
353
100
AcDbEntity
  8
DRAFT
100
AcDbCircle
 62
7
  6
CONTINUOUS
 10
29.25
 20
-12.5
 40
6.5200717959
100
AcDbArc
 50
293.8824230141
 51
301.0904294867
  0
ARC
  5
354
100
AcDbEntity
  8
DRAFT
100
AcDbCircle
 62
7
  6
CONTINUOUS
 10
29.25
 20
-12.5
 40
6.5200717959
100
AcDbArc
 50
356.3959967637
 51
3.6040032363
  0
ARC
  5
355
100
AcDbEntity
  8
RACCORDO
100
AcDbCircle
 62
7
  6
CONTINUOUS
 10
29.25
 20
-12.5
 40
6.5017301425
100
AcDbArc
 50
3.9381798315
 51
58.5753939181
  0
ARC
  5
356
100
AcDbEntity
  8
RACCORDO
100
AcDbCircle
 62
7
  6
CONTINUOUS
 10
29.25
 20
-12.5
 40
6.5017301425
100
AcDbArc
 50
66.4517535812
 51
113.5482464188
  0
ARC
  5
357
100
AcDbEntity
  8
RACCORDO
100
AcDbCircle
 62
7
  6
CONTINUOUS
 10
29.25
 20
-12.5
 40
6.5017301425
100
AcDbArc
 50
121.4246060819
 51
176.0618201685
  0
ARC
  5
358
100
AcDbEntity
  8
RACCORDO
100
AcDbCircle
 62
7
  6
CONTINUOUS
 10
29.25
 20
-12.5
 40
6.5017301425
100
AcDbArc
 50
246.4517535812
 51
293.5482464188
  0
ARC
  5
359
100
AcDbEntity
  8
DRAFT
100
AcDbCircle
 62
7
  6
CONTINUOUS
 10
29.25
 20
-12.5
 40
6.5
100
AcDbArc
 50
301.4562326039
 51
356.0301936465
  0
ARC
  5
35A
100
AcDbEntity
  8
DRAFT
100
AcDbCircle
 62
7
  6
CONTINUOUS
 10
29.25
 20
-12.5
 40
6.5
100
AcDbArc
 50
183.9698063535
 51
238.5437673961
  0
ARC
  5
35B
100
AcDbEntity
  8
RACCORDO
100
AcDbCircle
 62
250
  6
CONTINUOUS
 10
29.25
 20
-12.5
 40
6.3017377579
100
AcDbArc
 50
66.6084860614
 51
113.3915139386
  0
ARC
  5
35C
100
AcDbEntity
  8
RACCORDO
100
AcDbCircle
 62
250
  6
CONTINUOUS
 10
29.25
 20
-12.5
 40
6.3017377579
100
AcDbArc
 50
4.0949123118
 51
58.4186614378
  0
ARC
  5
35D
100
AcDbEntity
  8
RACCORDO
100
AcDbCircle
 62
250
  6
CONTINUOUS
 10
29.25
 20
-12.5
 40
6.3017377579
100
AcDbArc
 50
246.6084860614
 51
293.3915139386
  0
ARC
  5
35E
100
AcDbEntity
  8
RACCORDO
100
AcDbCircle
 62
250
  6
CONTINUOUS
 10
29.25
 20
-12.5
 40
6.3017377579
100
AcDbArc
 50
121.5813385622
 51
175.9050876882
  0
ARC
  5
35F
100
AcDbEntity
  8
0
100
AcDbCircle
 62
7
  6
CONTINUOUS
 10
29.2151175541
 20
-12.5008106075
 40
6.2358766206
100
AcDbArc
 50
350.7645238143
 51
9.2354761857
  0
ARC
  5
360
100
AcDbEntity
  8
0
100
AcDbCircle
 62
7
  6
CONTINUOUS
 10
29.2587108135
 20
-12.4991893925
 40
6.2358766206
100
AcDbArc
 50
170.7645238143
 51
189.2354761857
  0
ARC
  5
361
100
AcDbEntity
  8
RACCORDO
100
AcDbCircle
 62
250
  6
CONTINUOUS
 10
-79.4110976645
 20
-16.0183637953
 40
11.7355032511
100
AcDbArc
 50
188.9845590392
 51
190.6958425947
  0
ARC
  5
362
100
AcDbEntity
  8
RACCORDO
100
AcDbCircle
 62
250
  6
CONTINUOUS
 10
-79.4110976645
 20
-41.0183637953
 40
11.735503251
100
AcDbArc
 50
188.9845590392
 51
190.6958425947
  0
ARC
  5
363
100
AcDbEntity
  8
0
100
AcDbCircle
 62
7
  6
CONTINUOUS
 10
-80.6144021998
 20
-12.5
 40
11.6849787719
100
AcDbArc
 50
150.9535576531
 51
209.0464423469
  0
ARC
  5
364
100
AcDbEntity
  8
ASSI
100
AcDbCircle
 62
7
  6
CONTINUOUS
 10
-80.6144021998
 20
-12.5
 40
11.6849787719
100
AcDbArc
 50
150.9535576531
 51
209.0464423469
  0
ARC
  5
365
100
AcDbEntity
  8
0
100
AcDbCircle
 62
7
  6
CONTINUOUS
 10
-80.6144021998
 20
-37.5
 40
11.6849787719
100
AcDbArc
 50
150.9535576531
 51
209.0464423469
  0
ARC
  5
366
100
AcDbEntity
  8
ASSI
100
AcDbCircle
 62
7
  6
CONTINUOUS
 10
-80.6144021998
 20
-37.5
 40
11.6849787719
100
AcDbArc
 50
150.9535576531
 51
209.0464423469
  0
ARC
  5
367
100
AcDbEntity
  8
RACCORDO
100
AcDbCircle
 62
250
  6
CONTINUOUS
 10
-79.9909892957
 20
-8.8808697422
 40
11.1469957111
100
AcDbArc
 50
169.2602390784
 51
171.0612742103
  0
ARC
  5
368
100
AcDbEntity
  8
RACCORDO
100
AcDbCircle
 62
250
  6
CONTINUOUS
 10
-79.9909892955
 20
-33.8808697423
 40
11.1469957112
100
AcDbArc
 50
169.2602390784
 51
171.0612742103
  0
ARC
  5
369
100
AcDbEntity
  8
RACCORDO
100
AcDbCircle
 62
250
  6
CONTINUOUS
 10
-81.147070863
 20
-8.7853910783
 40
9.961583454
100
AcDbArc
 50
168.5594464872
 51
170.0640775608
  0
ARC
  5
36A
100
AcDbEntity
  8
RACCORDO
100
AcDbCircle
 62
250
  6
CONTINUOUS
 10
-81.1470708629
 20
-33.7853910783
 40
9.9615834542
100
AcDbArc
 50
168.5594464872
 51
170.0640775608
  0
ARC
  5
36B
100
AcDbEntity
  8
RACCORDO
100
AcDbCircle
 62
250
  6
CONTINUOUS
 10
-81.55901106
 20
-16.2923469613
 40
9.5424106191
100
AcDbArc
 50
189.9001395068
 51
191.4688050589
  0
ARC
  5
36C
100
AcDbEntity
  8
RACCORDO
100
AcDbCircle
 62
250
  6
CONTINUOUS
 10
-81.55901106
 20
-41.2923469613
 40
9.5424106191
100
AcDbArc
 50
189.9001395068
 51
191.4688050589
  0
ARC
  5
36D
100
AcDbEntity
  8
RACCORDO
100
AcDbCircle
 62
250
  6
CONTINUOUS
 10
-82.6368779399
 20
-16.5084117618
 40
8.4431046722
100
AcDbArc
 50
191.4862204792
 51
191.6157241793
  0
ARC
  5
36E
100
AcDbEntity
  8
RACCORDO
100
AcDbCircle
 62
250
  6
CONTINUOUS
 10
-82.6368779416
 20
-41.5084117621
 40
8.4431046703
100
AcDbArc
 50
191.4862204792
 51
191.6157241793
  0
ARC
  5
36F
100
AcDbEntity
  8
RACCORDO
100
AcDbCircle
 62
250
  6
CONTINUOUS
 10
-82.8228645246
 20
-33.4534453873
 40
8.2532472963
100
AcDbArc
 50
168.1084308901
 51
168.5105366876
  0
ARC
  5
370
100
AcDbEntity
  8
RACCORDO
100
AcDbCircle
 62
250
  6
CONTINUOUS
 10
-82.822864526
 20
-8.453445387
 40
8.2532472949
100
AcDbArc
 50
168.1084308901
 51
168.5105366876
  0
ARC
  5
371
100
AcDbEntity
  8
RACCORDO
100
AcDbCircle
 62
250
  6
CONTINUOUS
 10
-87.3550447043
 20
-7.5379048511
 40
3.2829084772
100
AcDbArc
 50
160.8129075371
 51
162.1603766068
  0
ARC
  5
372
100
AcDbEntity
  8
RACCORDO
100
AcDbCircle
 62
250
  6
CONTINUOUS
 10
-87.3550447046
 20
-32.537904851
 40
3.2829084769
100
AcDbArc
 50
160.8129075371
 51
162.1603766069
  0
ARC
  5
373
100
AcDbEntity
  8
RACCORDO
100
AcDbCircle
 62
250
  6
CONTINUOUS
 10
-91.8545016774
 20
-19.7852459528
 40
0.5003137245
100
AcDbArc
 50
179.9851324726
 51
230.1882238118
  0
ARC
  5
374
100
AcDbEntity
  8
RACCORDO
100
AcDbCircle
 62
250
  6
CONTINUOUS
 10
-91.8545016774
 20
-44.7852459528
 40
0.5003137245
100
AcDbArc
 50
179.9851324726
 51
230.1882238118
  0
ARC
  5
375
100
AcDbEntity
  8
RACCORDO
100
AcDbCircle
 62
250
  6
CONTINUOUS
 10
-91.8545017157
 20
-5.21475402
 40
0.5003136863
100
AcDbArc
 50
129.8116718636
 51
180.0148706455
  0
ARC
  5
376
100
AcDbEntity
  8
RACCORDO
100
AcDbCircle
 62
250
  6
CONTINUOUS
 10
-91.8545017157
 20
-30.21475402
 40
0.5003136863
100
AcDbArc
 50
129.8116718636
 51
180.0148706455
  0
ARC
  5
377
100
AcDbEntity
  8
RACCORDO
100
AcDbCircle
 62
250
  6
CONTINUOUS
 10
-90.0415630972
 20
-18.8944587826
 40
0.1867583707
100
AcDbArc
 50
257.8250464593
 51
260.7353837715
  0
ARC
  5
378
100
AcDbEntity
  8
RACCORDO
100
AcDbCircle
 62
250
  6
CONTINUOUS
 10
-90.0415630972
 20
-43.8944587827
 40
0.1867583707
100
AcDbArc
 50
257.8250464593
 51
260.7353837716
  0
SPLINE
  5
379
100
AcDbEntity
  8
0
100
AcDbSpline
 62
250
  6
CONTINUOUS
 70
0
 71
3
 72
27
 73
23
 74
0
 42
0.0000001
 43
0.0000001
 44
0.0000000001
 40
0.0
 40
0.0
 40
0.0
 40
0.0
 40
0.0624993179
 40
0.0938083938
 40
0.125097716
 40
0.1875874106
 40
0.2500762689
 40
0.2813533284
 40
0.3126267522
 40
0.3750918785
 40
0.4375484013
 40
0.5
 40
0.5624515987
 40
0.6249081215
 40
0.6873732478
 40
0.7186466716
 40
0.7499237311
 40
0.8124125894
 40
0.874902284
 40
0.9061916062
 40
0.9375006821
 40
1.0
 40
1.0
 40
1.0
 40
1.0
 10
35.3514517628
 20
-12.5
 30
0.0
 10
35.3514517628
 20
-12.8917466434
 30
0.0
 10
35.2932540047
 20
-13.4818316876
 30
0.0
 10
35.1027485172
 20
-14.2433778105
 30
0.0
 10
34.83845767
 20
-14.9827736007
 30
0.0
 10
34.3739851479
 20
-15.8526939117
 30
0.0
 10
33.7487373558
 20
-16.615262038
 30
0.0
 10
33.1673586661
 20
-17.1425151987
 30
0.0
 10
32.5374082404
 20
-17.6103706932
 30
0.0
 10
31.6681469019
 20
-18.0755387245
 30
0.0
 10
30.5372277743
 20
-18.4188374277
 30
0.0
 10
29.3609443925
 20
-18.534819747
 30
0.0
 10
28.1846610107
 20
-18.4188374277
 30
0.0
 10
27.053741883
 20
-18.0755387245
 30
0.0
 10
26.1844805446
 20
-17.6103706932
 30
0.0
 10
25.5545301189
 20
-17.1425151987
 30
0.0
 10
24.9731514292
 20
-16.615262038
 30
0.0
 10
24.3479036371
 20
-15.8526939117
 30
0.0
 10
23.883431115
 20
-14.9827736007
 30
0.0
 10
23.6191402678
 20
-14.2433778105
 30
0.0
 10
23.4286347803
 20
-13.4818316876
 30
0.0
 10
23.3704370221
 20
-12.8917466434
 30
0.0
 10
23.3704370221
 20
-12.5
 30
0.0
  0
SPLINE
  5
37A
100
AcDbEntity
  8
0
100
AcDbSpline
 62
250
  6
CONTINUOUS
 70
0
 71
3
 72
25
 73
21
 74
0
 42
0.0000001
 43
0.0000001
 44
0.0000000001
 40
0.0
 40
0.0
 40
0.0
 40
0.0
 40
0.0625004621
 40
0.1250440105
 40
0.1875395284
 40
0.2500384929
 40
0.2813203644
 40
0.3125992767
 40
0.3750725949
 40
0.4375380412
 40
0.5
 40
0.5624619588
 40
0.6249274051
 40
0.6874007233
 40
0.7186796356
 40
0.7499615071
 40
0.8124604716
 40
0.8749559895
 40
0.9374995379
 40
1.0
 40
1.0
 40
1.0
 40
1.0
 10
35.0670445185
 20
-12.5
 30
0.0
 10
35.0670445185
 20
-12.8717393532
 30
0.0
 10
34.9935733535
 20
-13.6174899712
 30
0.0
 10
34.6682469836
 20
-14.6916402655
 30
0.0
 10
34.1393762054
 20
-15.6817942906
 30
0.0
 10
33.5460162258
 20
-16.4056600941
 30
0.0
 10
32.9942012474
 20
-16.9059868267
 30
0.0
 10
32.3963442872
 20
-17.3500070855
 30
0.0
 10
31.5713449823
 20
-17.7914130335
 30
0.0
 10
30.4980823872
 20
-18.1173086638
 30
0.0
 10
29.3817170794
 20
-18.2274602923
 30
0.0
 10
28.2653517716
 20
-18.1173086638
 30
0.0
 10
27.1920891766
 20
-17.7914130335
 30
0.0
 10
26.3670898717
 20
-17.3500070855
 30
0.0
 10
25.7692329114
 20
-16.9059868267
 30
0.0
 10
25.217417933
 20
-16.4056600941
 30
0.0
 10
24.6240579534
 20
-15.6817942906
 30
0.0
 10
24.0951871752
 20
-14.6916402655
 30
0.0
 10
23.7698608054
 20
-13.6174899712
 30
0.0
 10
23.6963896403
 20
-12.8717393532
 30
0.0
 10
23.6963896403
 20
-12.5
 30
0.0
  0
SPLINE
  5
37B
100
AcDbEntity
  8
0
100
AcDbSpline
 62
250
  6
CONTINUOUS
 70
0
 71
3
 72
25
 73
21
 74
0
 42
0.0000001
 43
0.0000001
 44
0.0000000001
 40
0.0
 40
0.0
 40
0.0
 40
0.0
 40
0.0625004621
 40
0.1250440105
 40
0.1875395284
 40
0.2500384929
 40
0.2813203644
 40
0.3125992767
 40
0.3750725949
 40
0.4375380412
 40
0.5
 40
0.5624619588
 40
0.6249274051
 40
0.6874007233
 40
0.7186796356
 40
0.7499615071
 40
0.8124604716
 40
0.8749559895
 40
0.9374995379
 40
1.0
 40
1.0
 40
1.0
 40
1.0
 10
35.0670445185
 20
-12.5
 30
0.0
 10
35.0670445185
 20
-12.1282606468
 30
0.0
 10
34.9935733535
 20
-11.3825100288
 30
0.0
 10
34.6682469836
 20
-10.3083597345
 30
0.0
 10
34.1393762054
 20
-9.3182057094
 30
0.0
 10
33.5460162258
 20
-8.5943399059
 30
0.0
 10
32.9942012474
 20
-8.0940131733
 30
0.0
 10
32.3963442872
 20
-7.6499929145
 30
0.0
 10
31.5713449823
 20
-7.2085869665
 30
0.0
 10
30.4980823872
 20
-6.8826913362
 30
0.0
 10
29.3817170794
 20
-6.7725397077
 30
0.0
 10
28.2653517716
 20
-6.8826913362
 30
0.0
 10
27.1920891766
 20
-7.2085869665
 30
0.0
 10
26.3670898717
 20
-7.6499929145
 30
0.0
 10
25.7692329114
 20
-8.0940131733
 30
0.0
 10
25.217417933
 20
-8.5943399059
 30
0.0
 10
24.6240579534
 20
-9.3182057094
 30
0.0
 10
24.0951871752
 20
-10.3083597345
 30
0.0
 10
23.7698608054
 20
-11.3825100288
 30
0.0
 10
23.6963896403
 20
-12.1282606468
 30
0.0
 10
23.6963896403
 20
-12.5
 30
0.0
  0
SPLINE
  5
37C
100
AcDbEntity
  8
0
100
AcDbSpline
 62
250
  6
CONTINUOUS
 70
0
 71
3
 72
27
 73
23
 74
0
 42
0.0000001
 43
0.0000001
 44
0.0000000001
 40
0.0
 40
0.0
 40
0.0
 40
0.0
 40
0.0624993179
 40
0.0938083938
 40
0.125097716
 40
0.1875874106
 40
0.2500762689
 40
0.2813533284
 40
0.3126267522
 40
0.3750918785
 40
0.4375484013
 40
0.5
 40
0.5624515987
 40
0.6249081215
 40
0.6873732478
 40
0.7186466716
 40
0.7499237311
 40
0.8124125894
 40
0.874902284
 40
0.9061916062
 40
0.9375006821
 40
1.0
 40
1.0
 40
1.0
 40
1.0
 10
35.3514517628
 20
-12.5
 30
0.0
 10
35.3514517628
 20
-12.1082533566
 30
0.0
 10
35.2932540047
 20
-11.5181683124
 30
0.0
 10
35.1027485172
 20
-10.7566221895
 30
0.0
 10
34.83845767
 20
-10.0172263993
 30
0.0
 10
34.3739851479
 20
-9.1473060883
 30
0.0
 10
33.7487373558
 20
-8.384737962
 30
0.0
 10
33.1673586661
 20
-7.8574848013
 30
0.0
 10
32.5374082404
 20
-7.3896293068
 30
0.0
 10
31.6681469019
 20
-6.9244612755
 30
0.0
 10
30.5372277743
 20
-6.5811625723
 30
0.0
 10
29.3609443925
 20
-6.465180253
 30
0.0
 10
28.1846610107
 20
-6.5811625723
 30
0.0
 10
27.053741883
 20
-6.9244612755
 30
0.0
 10
26.1844805446
 20
-7.3896293068
 30
0.0
 10
25.5545301189
 20
-7.8574848013
 30
0.0
 10
24.9731514292
 20
-8.384737962
 30
0.0
 10
24.3479036371
 20
-9.1473060883
 30
0.0
 10
23.883431115
 20
-10.0172263993
 30
0.0
 10
23.6191402678
 20
-10.7566221895
 30
0.0
 10
23.4286347803
 20
-11.5181683124
 30
0.0
 10
23.3704370221
 20
-12.1082533566
 30
0.0
 10
23.3704370221
 20
-12.5
 30
0.0
  0
SPLINE
  5
37D
100
AcDbEntity
  8
0
100
AcDbSpline
 62
7
  6
CONTINUOUS
 70
0
 71
3
 72
23
 73
19
 74
0
 42
0.0000001
 43
0.0000001
 44
0.0000000001
 40
0.0
 40
0.0
 40
0.0
 40
0.0
 40
0.0625244416
 40
0.1250544259
 40
0.1875651017
 40
0.2500699787
 40
0.3125630951
 40
0.3750476463
 40
0.4375255378
 40
0.5
 40
0.5624744622
 40
0.6249523537
 40
0.6874369049
 40
0.7499300213
 40
0.8124348983
 40
0.8749455741
 40
0.9374755584
 40
1.0
 40
1.0
 40
1.0
 40
1.0
 10
23.1406553058
 20
-13.5
 30
0.0
 10
23.1992128413
 20
-13.8584301363
 30
0.0
 10
23.3799274097
 20
-14.566565435
 30
0.0
 10
23.8322235729
 20
-15.5636494399
 30
0.0
 10
24.4522708643
 20
-16.4662945307
 30
0.0
 10
25.2205677945
 20
-17.2462266809
 30
0.0
 10
26.1135525076
 20
-17.8793789277
 30
0.0
 10
27.1035235974
 20
-18.3461816684
 30
0.0
 10
28.1599008514
 20
-18.6321702697
 30
0.0
 10
29.25
 20
-18.7284982159
 30
0.0
 10
30.3400991486
 20
-18.6321702697
 30
0.0
 10
31.3964764026
 20
-18.3461816684
 30
0.0
 10
32.3864474924
 20
-17.8793789277
 30
0.0
 10
33.2794322055
 20
-17.2462266809
 30
0.0
 10
34.0477291357
 20
-16.4662945307
 30
0.0
 10
34.6677764271
 20
-15.5636494399
 30
0.0
 10
35.1200725903
 20
-14.566565435
 30
0.0
 10
35.3007871587
 20
-13.8584301363
 30
0.0
 10
35.3593446942
 20
-13.5
 30
0.0
  0
SPLINE
  5
37E
100
AcDbEntity
  8
0
100
AcDbSpline
 62
7
  6
CONTINUOUS
 70
0
 71
3
 72
23
 73
19
 74
0
 42
0.0000001
 43
0.0000001
 44
0.0000000001
 40
0.0
 40
0.0
 40
0.0
 40
0.0
 40
0.0625244416
 40
0.1250544259
 40
0.1875651017
 40
0.2500699787
 40
0.3125630951
 40
0.3750476463
 40
0.4375255378
 40
0.5
 40
0.5624744622
 40
0.6249523537
 40
0.6874369049
 40
0.7499300213
 40
0.8124348983
 40
0.8749455741
 40
0.9374755584
 40
1.0
 40
1.0
 40
1.0
 40
1.0
 10
35.3593446942
 20
-11.5
 30
0.0
 10
35.3007871587
 20
-11.1415698637
 30
0.0
 10
35.1200725903
 20
-10.433434565
 30
0.0
 10
34.6677764271
 20
-9.4363505601
 30
0.0
 10
34.0477291357
 20
-8.5337054693
 30
0.0
 10
33.2794322055
 20
-7.7537733191
 30
0.0
 10
32.3864474924
 20
-7.1206210723
 30
0.0
 10
31.3964764026
 20
-6.6538183316
 30
0.0
 10
30.3400991486
 20
-6.3678297303
 30
0.0
 10
29.25
 20
-6.2715017841
 30
0.0
 10
28.1599008514
 20
-6.3678297303
 30
0.0
 10
27.1035235974
 20
-6.6538183316
 30
0.0
 10
26.1135525076
 20
-7.1206210723
 30
0.0
 10
25.2205677945
 20
-7.7537733191
 30
0.0
 10
24.4522708643
 20
-8.5337054693
 30
0.0
 10
23.8322235729
 20
-9.4363505601
 30
0.0
 10
23.3799274097
 20
-10.433434565
 30
0.0
 10
23.1992128413
 20
-11.1415698637
 30
0.0
 10
23.1406553058
 20
-11.5
 30
0.0
  0
SPLINE
  5
37F
100
AcDbEntity
  8
ASSI
100
AcDbSpline
 62
250
  6
CONTINUOUS
 70
0
 71
3
 72
27
 73
23
 74
0
 42
0.0000001
 43
0.0000001
 44
0.0000000001
 40
0.0
 40
0.0
 40
0.0
 40
0.0
 40
0.0624993179
 40
0.0938083938
 40
0.125097716
 40
0.1875874106
 40
0.2500762689
 40
0.2813533284
 40
0.3126267522
 40
0.3750918785
 40
0.4375484013
 40
0.5
 40
0.5624515987
 40
0.6249081215
 40
0.6873732478
 40
0.7186466716
 40
0.7499237311
 40
0.8124125894
 40
0.874902284
 40
0.9061916062
 40
0.9375006821
 40
1.0
 40
1.0
 40
1.0
 40
1.0
 10
35.3514517628
 20
-12.5
 30
0.0
 10
35.3514517628
 20
-12.8917466434
 30
0.0
 10
35.2932540047
 20
-13.4818316876
 30
0.0
 10
35.1027485172
 20
-14.2433778105
 30
0.0
 10
34.83845767
 20
-14.9827736007
 30
0.0
 10
34.3739851479
 20
-15.8526939117
 30
0.0
 10
33.7487373558
 20
-16.615262038
 30
0.0
 10
33.1673586661
 20
-17.1425151987
 30
0.0
 10
32.5374082404
 20
-17.6103706932
 30
0.0
 10
31.6681469019
 20
-18.0755387245
 30
0.0
 10
30.5372277743
 20
-18.4188374277
 30
0.0
 10
29.3609443925
 20
-18.534819747
 30
0.0
 10
28.1846610107
 20
-18.4188374277
 30
0.0
 10
27.053741883
 20
-18.0755387245
 30
0.0
 10
26.1844805446
 20
-17.6103706932
 30
0.0
 10
25.5545301189
 20
-17.1425151987
 30
0.0
 10
24.9731514292
 20
-16.615262038
 30
0.0
 10
24.3479036371
 20
-15.8526939117
 30
0.0
 10
23.883431115
 20
-14.9827736007
 30
0.0
 10
23.6191402678
 20
-14.2433778105
 30
0.0
 10
23.4286347803
 20
-13.4818316876
 30
0.0
 10
23.3704370221
 20
-12.8917466434
 30
0.0
 10
23.3704370221
 20
-12.5
 30
0.0
  0
SPLINE
  5
380
100
AcDbEntity
  8
ASSI
100
AcDbSpline
 62
250
  6
CONTINUOUS
 70
0
 71
3
 72
25
 73
21
 74
0
 42
0.0000001
 43
0.0000001
 44
0.0000000001
 40
0.0
 40
0.0
 40
0.0
 40
0.0
 40
0.0625004621
 40
0.1250440105
 40
0.1875395284
 40
0.2500384929
 40
0.2813203644
 40
0.3125992767
 40
0.3750725949
 40
0.4375380412
 40
0.5
 40
0.5624619588
 40
0.6249274051
 40
0.6874007233
 40
0.7186796356
 40
0.7499615071
 40
0.8124604716
 40
0.8749559895
 40
0.9374995379
 40
1.0
 40
1.0
 40
1.0
 40
1.0
 10
35.0670445185
 20
-12.5
 30
0.0
 10
35.0670445185
 20
-12.8717393532
 30
0.0
 10
34.9935733535
 20
-13.6174899712
 30
0.0
 10
34.6682469836
 20
-14.6916402655
 30
0.0
 10
34.1393762054
 20
-15.6817942906
 30
0.0
 10
33.5460162258
 20
-16.4056600941
 30
0.0
 10
32.9942012474
 20
-16.9059868267
 30
0.0
 10
32.3963442872
 20
-17.3500070855
 30
0.0
 10
31.5713449823
 20
-17.7914130335
 30
0.0
 10
30.4980823872
 20
-18.1173086638
 30
0.0
 10
29.3817170794
 20
-18.2274602923
 30
0.0
 10
28.2653517716
 20
-18.1173086638
 30
0.0
 10
27.1920891766
 20
-17.7914130335
 30
0.0
 10
26.3670898717
 20
-17.3500070855
 30
0.0
 10
25.7692329114
 20
-16.9059868267
 30
0.0
 10
25.217417933
 20
-16.4056600941
 30
0.0
 10
24.6240579534
 20
-15.6817942906
 30
0.0
 10
24.0951871752
 20
-14.6916402655
 30
0.0
 10
23.7698608054
 20
-13.6174899712
 30
0.0
 10
23.6963896403
 20
-12.8717393532
 30
0.0
 10
23.6963896403
 20
-12.5
 30
0.0
  0
SPLINE
  5
381
100
AcDbEntity
  8
ASSI
100
AcDbSpline
 62
250
  6
CONTINUOUS
 70
0
 71
3
 72
25
 73
21
 74
0
 42
0.0000001
 43
0.0000001
 44
0.0000000001
 40
0.0
 40
0.0
 40
0.0
 40
0.0
 40
0.0625004621
 40
0.1250440105
 40
0.1875395284
 40
0.2500384929
 40
0.2813203644
 40
0.3125992767
 40
0.3750725949
 40
0.4375380412
 40
0.5
 40
0.5624619588
 40
0.6249274051
 40
0.6874007233
 40
0.7186796356
 40
0.7499615071
 40
0.8124604716
 40
0.8749559895
 40
0.9374995379
 40
1.0
 40
1.0
 40
1.0
 40
1.0
 10
35.0670445185
 20
-12.5
 30
0.0
 10
35.0670445185
 20
-12.1282606468
 30
0.0
 10
34.9935733535
 20
-11.3825100288
 30
0.0
 10
34.6682469836
 20
-10.3083597345
 30
0.0
 10
34.1393762054
 20
-9.3182057094
 30
0.0
 10
33.5460162258
 20
-8.5943399059
 30
0.0
 10
32.9942012474
 20
-8.0940131733
 30
0.0
 10
32.3963442872
 20
-7.6499929145
 30
0.0
 10
31.5713449823
 20
-7.2085869665
 30
0.0
 10
30.4980823872
 20
-6.8826913362
 30
0.0
 10
29.3817170794
 20
-6.7725397077
 30
0.0
 10
28.2653517716
 20
-6.8826913362
 30
0.0
 10
27.1920891766
 20
-7.2085869665
 30
0.0
 10
26.3670898717
 20
-7.6499929145
 30
0.0
 10
25.7692329114
 20
-8.0940131733
 30
0.0
 10
25.217417933
 20
-8.5943399059
 30
0.0
 10
24.6240579534
 20
-9.3182057094
 30
0.0
 10
24.0951871752
 20
-10.3083597345
 30
0.0
 10
23.7698608054
 20
-11.3825100288
 30
0.0
 10
23.6963896403
 20
-12.1282606468
 30
0.0
 10
23.6963896403
 20
-12.5
 30
0.0
  0
SPLINE
  5
382
100
AcDbEntity
  8
ASSI
100
AcDbSpline
 62
250
  6
CONTINUOUS
 70
0
 71
3
 72
27
 73
23
 74
0
 42
0.0000001
 43
0.0000001
 44
0.0000000001
 40
0.0
 40
0.0
 40
0.0
 40
0.0
 40
0.0624993179
 40
0.0938083938
 40
0.125097716
 40
0.1875874106
 40
0.2500762689
 40
0.2813533284
 40
0.3126267522
 40
0.3750918785
 40
0.4375484013
 40
0.5
 40
0.5624515987
 40
0.6249081215
 40
0.6873732478
 40
0.7186466716
 40
0.7499237311
 40
0.8124125894
 40
0.874902284
 40
0.9061916062
 40
0.9375006821
 40
1.0
 40
1.0
 40
1.0
 40
1.0
 10
35.3514517628
 20
-12.5
 30
0.0
 10
35.3514517628
 20
-12.1082533566
 30
0.0
 10
35.2932540047
 20
-11.5181683124
 30
0.0
 10
35.1027485172
 20
-10.7566221895
 30
0.0
 10
34.83845767
 20
-10.0172263993
 30
0.0
 10
34.3739851479
 20
-9.1473060883
 30
0.0
 10
33.7487373558
 20
-8.384737962
 30
0.0
 10
33.1673586661
 20
-7.8574848013
 30
0.0
 10
32.5374082404
 20
-7.3896293068
 30
0.0
 10
31.6681469019
 20
-6.9244612755
 30
0.0
 10
30.5372277743
 20
-6.5811625723
 30
0.0
 10
29.3609443925
 20
-6.465180253
 30
0.0
 10
28.1846610107
 20
-6.5811625723
 30
0.0
 10
27.053741883
 20
-6.9244612755
 30
0.0
 10
26.1844805446
 20
-7.3896293068
 30
0.0
 10
25.5545301189
 20
-7.8574848013
 30
0.0
 10
24.9731514292
 20
-8.384737962
 30
0.0
 10
24.3479036371
 20
-9.1473060883
 30
0.0
 10
23.883431115
 20
-10.0172263993
 30
0.0
 10
23.6191402678
 20
-10.7566221895
 30
0.0
 10
23.4286347803
 20
-11.5181683124
 30
0.0
 10
23.3704370221
 20
-12.1082533566
 30
0.0
 10
23.3704370221
 20
-12.5
 30
0.0
  0
SPLINE
  5
383
100
AcDbEntity
  8
0
100
AcDbSpline
 62
250
  6
CONTINUOUS
 70
0
 71
3
 72
27
 73
23
 74
0
 42
0.0000001
 43
0.0000001
 44
0.0000000001
 40
0.0
 40
0.0
 40
0.0
 40
0.0
 40
0.0624993179
 40
0.0938083938
 40
0.125097716
 40
0.1875874106
 40
0.2500762689
 40
0.2813533284
 40
0.3126267522
 40
0.3750918785
 40
0.4375484013
 40
0.5
 40
0.5624515987
 40
0.6249081215
 40
0.6873732478
 40
0.7186466716
 40
0.7499237311
 40
0.8124125894
 40
0.874902284
 40
0.9061916062
 40
0.9375006821
 40
1.0
 40
1.0
 40
1.0
 40
1.0
 10
35.3514517628
 20
-37.5
 30
0.0
 10
35.3514517628
 20
-37.8917466434
 30
0.0
 10
35.2932540047
 20
-38.4818316876
 30
0.0
 10
35.1027485172
 20
-39.2433778105
 30
0.0
 10
34.83845767
 20
-39.9827736007
 30
0.0
 10
34.3739851479
 20
-40.8526939117
 30
0.0
 10
33.7487373558
 20
-41.615262038
 30
0.0
 10
33.1673586661
 20
-42.1425151987
 30
0.0
 10
32.5374082404
 20
-42.6103706932
 30
0.0
 10
31.6681469019
 20
-43.0755387245
 30
0.0
 10
30.5372277743
 20
-43.4188374277
 30
0.0
 10
29.3609443925
 20
-43.534819747
 30
0.0
 10
28.1846610107
 20
-43.4188374277
 30
0.0
 10
27.053741883
 20
-43.0755387245
 30
0.0
 10
26.1844805446
 20
-42.6103706932
 30
0.0
 10
25.5545301189
 20
-42.1425151987
 30
0.0
 10
24.9731514292
 20
-41.615262038
 30
0.0
 10
24.3479036371
 20
-40.8526939117
 30
0.0
 10
23.883431115
 20
-39.9827736007
 30
0.0
 10
23.6191402678
 20
-39.2433778105
 30
0.0
 10
23.4286347803
 20
-38.4818316876
 30
0.0
 10
23.3704370221
 20
-37.8917466434
 30
0.0
 10
23.3704370221
 20
-37.5
 30
0.0
  0
SPLINE
  5
384
100
AcDbEntity
  8
0
100
AcDbSpline
 62
250
  6
CONTINUOUS
 70
0
 71
3
 72
25
 73
21
 74
0
 42
0.0000001
 43
0.0000001
 44
0.0000000001
 40
0.0
 40
0.0
 40
0.0
 40
0.0
 40
0.0625004621
 40
0.1250440105
 40
0.1875395284
 40
0.2500384929
 40
0.2813203644
 40
0.3125992767
 40
0.3750725949
 40
0.4375380412
 40
0.5
 40
0.5624619588
 40
0.6249274051
 40
0.6874007233
 40
0.7186796356
 40
0.7499615071
 40
0.8124604716
 40
0.8749559895
 40
0.9374995379
 40
1.0
 40
1.0
 40
1.0
 40
1.0
 10
35.0670445185
 20
-37.5
 30
0.0
 10
35.0670445185
 20
-37.8717393532
 30
0.0
 10
34.9935733535
 20
-38.6174899712
 30
0.0
 10
34.6682469836
 20
-39.6916402655
 30
0.0
 10
34.1393762054
 20
-40.6817942906
 30
0.0
 10
33.5460162258
 20
-41.4056600941
 30
0.0
 10
32.9942012474
 20
-41.9059868267
 30
0.0
 10
32.3963442872
 20
-42.3500070855
 30
0.0
 10
31.5713449823
 20
-42.7914130335
 30
0.0
 10
30.4980823872
 20
-43.1173086638
 30
0.0
 10
29.3817170794
 20
-43.2274602923
 30
0.0
 10
28.2653517716
 20
-43.1173086638
 30
0.0
 10
27.1920891766
 20
-42.7914130335
 30
0.0
 10
26.3670898717
 20
-42.3500070855
 30
0.0
 10
25.7692329114
 20
-41.9059868267
 30
0.0
 10
25.217417933
 20
-41.4056600941
 30
0.0
 10
24.6240579534
 20
-40.6817942906
 30
0.0
 10
24.0951871752
 20
-39.6916402655
 30
0.0
 10
23.7698608054
 20
-38.6174899712
 30
0.0
 10
23.6963896403
 20
-37.8717393532
 30
0.0
 10
23.6963896403
 20
-37.5
 30
0.0
  0
SPLINE
  5
385
100
AcDbEntity
  8
0
100
AcDbSpline
 62
250
  6
CONTINUOUS
 70
0
 71
3
 72
25
 73
21
 74
0
 42
0.0000001
 43
0.0000001
 44
0.0000000001
 40
0.0
 40
0.0
 40
0.0
 40
0.0
 40
0.0625004621
 40
0.1250440105
 40
0.1875395284
 40
0.2500384929
 40
0.2813203644
 40
0.3125992767
 40
0.3750725949
 40
0.4375380412
 40
0.5
 40
0.5624619588
 40
0.6249274051
 40
0.6874007233
 40
0.7186796356
 40
0.7499615071
 40
0.8124604716
 40
0.8749559895
 40
0.9374995379
 40
1.0
 40
1.0
 40
1.0
 40
1.0
 10
35.0670445185
 20
-37.5
 30
0.0
 10
35.0670445185
 20
-37.1282606468
 30
0.0
 10
34.9935733535
 20
-36.3825100288
 30
0.0
 10
34.6682469836
 20
-35.3083597345
 30
0.0
 10
34.1393762054
 20
-34.3182057094
 30
0.0
 10
33.5460162258
 20
-33.5943399059
 30
0.0
 10
32.9942012474
 20
-33.0940131733
 30
0.0
 10
32.3963442872
 20
-32.6499929145
 30
0.0
 10
31.5713449823
 20
-32.2085869665
 30
0.0
 10
30.4980823872
 20
-31.8826913362
 30
0.0
 10
29.3817170794
 20
-31.7725397077
 30
0.0
 10
28.2653517716
 20
-31.8826913362
 30
0.0
 10
27.1920891766
 20
-32.2085869665
 30
0.0
 10
26.3670898717
 20
-32.6499929145
 30
0.0
 10
25.7692329114
 20
-33.0940131733
 30
0.0
 10
25.217417933
 20
-33.5943399059
 30
0.0
 10
24.6240579534
 20
-34.3182057094
 30
0.0
 10
24.0951871752
 20
-35.3083597345
 30
0.0
 10
23.7698608054
 20
-36.3825100288
 30
0.0
 10
23.6963896403
 20
-37.1282606468
 30
0.0
 10
23.6963896403
 20
-37.5
 30
0.0
  0
SPLINE
  5
386
100
AcDbEntity
  8
0
100
AcDbSpline
 62
250
  6
CONTINUOUS
 70
0
 71
3
 72
27
 73
23
 74
0
 42
0.0000001
 43
0.0000001
 44
0.0000000001
 40
0.0
 40
0.0
 40
0.0
 40
0.0
 40
0.0624993179
 40
0.0938083938
 40
0.125097716
 40
0.1875874106
 40
0.2500762689
 40
0.2813533284
 40
0.3126267522
 40
0.3750918785
 40
0.4375484013
 40
0.5
 40
0.5624515987
 40
0.6249081215
 40
0.6873732478
 40
0.7186466716
 40
0.7499237311
 40
0.8124125894
 40
0.874902284
 40
0.9061916062
 40
0.9375006821
 40
1.0
 40
1.0
 40
1.0
 40
1.0
 10
35.3514517628
 20
-37.5
 30
0.0
 10
35.3514517628
 20
-37.1082533566
 30
0.0
 10
35.2932540047
 20
-36.5181683124
 30
0.0
 10
35.1027485172
 20
-35.7566221895
 30
0.0
 10
34.83845767
 20
-35.0172263993
 30
0.0
 10
34.3739851479
 20
-34.1473060883
 30
0.0
 10
33.7487373558
 20
-33.384737962
 30
0.0
 10
33.1673586661
 20
-32.8574848013
 30
0.0
 10
32.5374082404
 20
-32.3896293068
 30
0.0
 10
31.6681469019
 20
-31.9244612755
 30
0.0
 10
30.5372277743
 20
-31.5811625723
 30
0.0
 10
29.3609443925
 20
-31.465180253
 30
0.0
 10
28.1846610107
 20
-31.5811625723
 30
0.0
 10
27.053741883
 20
-31.9244612755
 30
0.0
 10
26.1844805446
 20
-32.3896293068
 30
0.0
 10
25.5545301189
 20
-32.8574848013
 30
0.0
 10
24.9731514292
 20
-33.384737962
 30
0.0
 10
24.3479036371
 20
-34.1473060883
 30
0.0
 10
23.883431115
 20
-35.0172263993
 30
0.0
 10
23.6191402678
 20
-35.7566221895
 30
0.0
 10
23.4286347803
 20
-36.5181683124
 30
0.0
 10
23.3704370221
 20
-37.1082533566
 30
0.0
 10
23.3704370221
 20
-37.5
 30
0.0
  0
SPLINE
  5
387
100
AcDbEntity
  8
0
100
AcDbSpline
 62
7
  6
CONTINUOUS
 70
0
 71
3
 72
23
 73
19
 74
0
 42
0.0000001
 43
0.0000001
 44
0.0000000001
 40
0.0
 40
0.0
 40
0.0
 40
0.0
 40
0.0625244416
 40
0.1250544259
 40
0.1875651017
 40
0.2500699787
 40
0.3125630951
 40
0.3750476463
 40
0.4375255378
 40
0.5
 40
0.5624744622
 40
0.6249523537
 40
0.6874369049
 40
0.7499300213
 40
0.8124348983
 40
0.8749455741
 40
0.9374755584
 40
1.0
 40
1.0
 40
1.0
 40
1.0
 10
23.1406553058
 20
-38.5
 30
0.0
 10
23.1992128413
 20
-38.8584301363
 30
0.0
 10
23.3799274097
 20
-39.566565435
 30
0.0
 10
23.8322235729
 20
-40.5636494399
 30
0.0
 10
24.4522708643
 20
-41.4662945307
 30
0.0
 10
25.2205677945
 20
-42.2462266809
 30
0.0
 10
26.1135525076
 20
-42.8793789277
 30
0.0
 10
27.1035235974
 20
-43.3461816684
 30
0.0
 10
28.1599008514
 20
-43.6321702697
 30
0.0
 10
29.25
 20
-43.7284982159
 30
0.0
 10
30.3400991486
 20
-43.6321702697
 30
0.0
 10
31.3964764026
 20
-43.3461816684
 30
0.0
 10
32.3864474924
 20
-42.8793789277
 30
0.0
 10
33.2794322055
 20
-42.2462266809
 30
0.0
 10
34.0477291357
 20
-41.4662945307
 30
0.0
 10
34.6677764271
 20
-40.5636494399
 30
0.0
 10
35.1200725903
 20
-39.566565435
 30
0.0
 10
35.3007871587
 20
-38.8584301363
 30
0.0
 10
35.3593446942
 20
-38.5
 30
0.0
  0
SPLINE
  5
388
100
AcDbEntity
  8
0
100
AcDbSpline
 62
7
  6
CONTINUOUS
 70
0
 71
3
 72
23
 73
19
 74
0
 42
0.0000001
 43
0.0000001
 44
0.0000000001
 40
0.0
 40
0.0
 40
0.0
 40
0.0
 40
0.0625244416
 40
0.1250544259
 40
0.1875651017
 40
0.2500699787
 40
0.3125630951
 40
0.3750476463
 40
0.4375255378
 40
0.5
 40
0.5624744622
 40
0.6249523537
 40
0.6874369049
 40
0.7499300213
 40
0.8124348983
 40
0.8749455741
 40
0.9374755584
 40
1.0
 40
1.0
 40
1.0
 40
1.0
 10
35.3593446942
 20
-36.5
 30
0.0
 10
35.3007871587
 20
-36.1415698637
 30
0.0
 10
35.1200725903
 20
-35.433434565
 30
0.0
 10
34.6677764271
 20
-34.4363505601
 30
0.0
 10
34.0477291357
 20
-33.5337054693
 30
0.0
 10
33.2794322055
 20
-32.7537733191
 30
0.0
 10
32.3864474924
 20
-32.1206210723
 30
0.0
 10
31.3964764026
 20
-31.6538183316
 30
0.0
 10
30.3400991486
 20
-31.3678297303
 30
0.0
 10
29.25
 20
-31.2715017841
 30
0.0
 10
28.1599008514
 20
-31.3678297303
 30
0.0
 10
27.1035235974
 20
-31.6538183316
 30
0.0
 10
26.1135525076
 20
-32.1206210723
 30
0.0
 10
25.2205677945
 20
-32.7537733191
 30
0.0
 10
24.4522708643
 20
-33.5337054693
 30
0.0
 10
23.8322235729
 20
-34.4363505601
 30
0.0
 10
23.3799274097
 20
-35.433434565
 30
0.0
 10
23.1992128413
 20
-36.1415698637
 30
0.0
 10
23.1406553058
 20
-36.5
 30
0.0
  0
SPLINE
  5
389
100
AcDbEntity
  8
ASSI
100
AcDbSpline
 62
250
  6
CONTINUOUS
 70
0
 71
3
 72
27
 73
23
 74
0
 42
0.0000001
 43
0.0000001
 44
0.0000000001
 40
0.0
 40
0.0
 40
0.0
 40
0.0
 40
0.0624993179
 40
0.0938083938
 40
0.125097716
 40
0.1875874106
 40
0.2500762689
 40
0.2813533284
 40
0.3126267522
 40
0.3750918785
 40
0.4375484013
 40
0.5
 40
0.5624515987
 40
0.6249081215
 40
0.6873732478
 40
0.7186466716
 40
0.7499237311
 40
0.8124125894
 40
0.874902284
 40
0.9061916062
 40
0.9375006821
 40
1.0
 40
1.0
 40
1.0
 40
1.0
 10
35.3514517628
 20
-37.5
 30
0.0
 10
35.3514517628
 20
-37.8917466434
 30
0.0
 10
35.2932540047
 20
-38.4818316876
 30
0.0
 10
35.1027485172
 20
-39.2433778105
 30
0.0
 10
34.83845767
 20
-39.9827736007
 30
0.0
 10
34.3739851479
 20
-40.8526939117
 30
0.0
 10
33.7487373558
 20
-41.615262038
 30
0.0
 10
33.1673586661
 20
-42.1425151987
 30
0.0
 10
32.5374082404
 20
-42.6103706932
 30
0.0
 10
31.6681469019
 20
-43.0755387245
 30
0.0
 10
30.5372277743
 20
-43.4188374277
 30
0.0
 10
29.3609443925
 20
-43.534819747
 30
0.0
 10
28.1846610107
 20
-43.4188374277
 30
0.0
 10
27.053741883
 20
-43.0755387245
 30
0.0
 10
26.1844805446
 20
-42.6103706932
 30
0.0
 10
25.5545301189
 20
-42.1425151987
 30
0.0
 10
24.9731514292
 20
-41.615262038
 30
0.0
 10
24.3479036371
 20
-40.8526939117
 30
0.0
 10
23.883431115
 20
-39.9827736007
 30
0.0
 10
23.6191402678
 20
-39.2433778105
 30
0.0
 10
23.4286347803
 20
-38.4818316876
 30
0.0
 10
23.3704370221
 20
-37.8917466434
 30
0.0
 10
23.3704370221
 20
-37.5
 30
0.0
  0
SPLINE
  5
38A
100
AcDbEntity
  8
ASSI
100
AcDbSpline
 62
250
  6
CONTINUOUS
 70
0
 71
3
 72
25
 73
21
 74
0
 42
0.0000001
 43
0.0000001
 44
0.0000000001
 40
0.0
 40
0.0
 40
0.0
 40
0.0
 40
0.0625004621
 40
0.1250440105
 40
0.1875395284
 40
0.2500384929
 40
0.2813203644
 40
0.3125992767
 40
0.3750725949
 40
0.4375380412
 40
0.5
 40
0.5624619588
 40
0.6249274051
 40
0.6874007233
 40
0.7186796356
 40
0.7499615071
 40
0.8124604716
 40
0.8749559895
 40
0.9374995379
 40
1.0
 40
1.0
 40
1.0
 40
1.0
 10
35.0670445185
 20
-37.5
 30
0.0
 10
35.0670445185
 20
-37.8717393532
 30
0.0
 10
34.9935733535
 20
-38.6174899712
 30
0.0
 10
34.6682469836
 20
-39.6916402655
 30
0.0
 10
34.1393762054
 20
-40.6817942906
 30
0.0
 10
33.5460162258
 20
-41.4056600941
 30
0.0
 10
32.9942012474
 20
-41.9059868267
 30
0.0
 10
32.3963442872
 20
-42.3500070855
 30
0.0
 10
31.5713449823
 20
-42.7914130335
 30
0.0
 10
30.4980823872
 20
-43.1173086638
 30
0.0
 10
29.3817170794
 20
-43.2274602923
 30
0.0
 10
28.2653517716
 20
-43.1173086638
 30
0.0
 10
27.1920891766
 20
-42.7914130335
 30
0.0
 10
26.3670898717
 20
-42.3500070855
 30
0.0
 10
25.7692329114
 20
-41.9059868267
 30
0.0
 10
25.217417933
 20
-41.4056600941
 30
0.0
 10
24.6240579534
 20
-40.6817942906
 30
0.0
 10
24.0951871752
 20
-39.6916402655
 30
0.0
 10
23.7698608054
 20
-38.6174899712
 30
0.0
 10
23.6963896403
 20
-37.8717393532
 30
0.0
 10
23.6963896403
 20
-37.5
 30
0.0
  0
SPLINE
  5
38B
100
AcDbEntity
  8
ASSI
100
AcDbSpline
 62
250
  6
CONTINUOUS
 70
0
 71
3
 72
25
 73
21
 74
0
 42
0.0000001
 43
0.0000001
 44
0.0000000001
 40
0.0
 40
0.0
 40
0.0
 40
0.0
 40
0.0625004621
 40
0.1250440105
 40
0.1875395284
 40
0.2500384929
 40
0.2813203644
 40
0.3125992767
 40
0.3750725949
 40
0.4375380412
 40
0.5
 40
0.5624619588
 40
0.6249274051
 40
0.6874007233
 40
0.7186796356
 40
0.7499615071
 40
0.8124604716
 40
0.8749559895
 40
0.9374995379
 40
1.0
 40
1.0
 40
1.0
 40
1.0
 10
35.0670445185
 20
-37.5
 30
0.0
 10
35.0670445185
 20
-37.1282606468
 30
0.0
 10
34.9935733535
 20
-36.3825100288
 30
0.0
 10
34.6682469836
 20
-35.3083597345
 30
0.0
 10
34.1393762054
 20
-34.3182057094
 30
0.0
 10
33.5460162258
 20
-33.5943399059
 30
0.0
 10
32.9942012474
 20
-33.0940131733
 30
0.0
 10
32.3963442872
 20
-32.6499929145
 30
0.0
 10
31.5713449823
 20
-32.2085869665
 30
0.0
 10
30.4980823872
 20
-31.8826913362
 30
0.0
 10
29.3817170794
 20
-31.7725397077
 30
0.0
 10
28.2653517716
 20
-31.8826913362
 30
0.0
 10
27.1920891766
 20
-32.2085869665
 30
0.0
 10
26.3670898717
 20
-32.6499929145
 30
0.0
 10
25.7692329114
 20
-33.0940131733
 30
0.0
 10
25.217417933
 20
-33.5943399059
 30
0.0
 10
24.6240579534
 20
-34.3182057094
 30
0.0
 10
24.0951871752
 20
-35.3083597345
 30
0.0
 10
23.7698608054
 20
-36.3825100288
 30
0.0
 10
23.6963896403
 20
-37.1282606468
 30
0.0
 10
23.6963896403
 20
-37.5
 30
0.0
  0
SPLINE
  5
38C
100
AcDbEntity
  8
ASSI
100
AcDbSpline
 62
250
  6
CONTINUOUS
 70
0
 71
3
 72
27
 73
23
 74
0
 42
0.0000001
 43
0.0000001
 44
0.0000000001
 40
0.0
 40
0.0
 40
0.0
 40
0.0
 40
0.0624993179
 40
0.0938083938
 40
0.125097716
 40
0.1875874106
 40
0.2500762689
 40
0.2813533284
 40
0.3126267522
 40
0.3750918785
 40
0.4375484013
 40
0.5
 40
0.5624515987
 40
0.6249081215
 40
0.6873732478
 40
0.7186466716
 40
0.7499237311
 40
0.8124125894
 40
0.874902284
 40
0.9061916062
 40
0.9375006821
 40
1.0
 40
1.0
 40
1.0
 40
1.0
 10
35.3514517628
 20
-37.5
 30
0.0
 10
35.3514517628
 20
-37.1082533566
 30
0.0
 10
35.2932540047
 20
-36.5181683124
 30
0.0
 10
35.1027485172
 20
-35.7566221895
 30
0.0
 10
34.83845767
 20
-35.0172263993
 30
0.0
 10
34.3739851479
 20
-34.1473060883
 30
0.0
 10
33.7487373558
 20
-33.384737962
 30
0.0
 10
33.1673586661
 20
-32.8574848013
 30
0.0
 10
32.5374082404
 20
-32.3896293068
 30
0.0
 10
31.6681469019
 20
-31.9244612755
 30
0.0
 10
30.5372277743
 20
-31.5811625723
 30
0.0
 10
29.3609443925
 20
-31.465180253
 30
0.0
 10
28.1846610107
 20
-31.5811625723
 30
0.0
 10
27.053741883
 20
-31.9244612755
 30
0.0
 10
26.1844805446
 20
-32.3896293068
 30
0.0
 10
25.5545301189
 20
-32.8574848013
 30
0.0
 10
24.9731514292
 20
-33.384737962
 30
0.0
 10
24.3479036371
 20
-34.1473060883
 30
0.0
 10
23.883431115
 20
-35.0172263993
 30
0.0
 10
23.6191402678
 20
-35.7566221895
 30
0.0
 10
23.4286347803
 20
-36.5181683124
 30
0.0
 10
23.3704370221
 20
-37.1082533566
 30
0.0
 10
23.3704370221
 20
-37.5
 30
0.0
  0
SPLINE
  5
38D
100
AcDbEntity
  8
RACCORDO
100
AcDbSpline
 62
250
  6
CONTINUOUS
 70
0
 71
3
 72
28
 73
24
 74
0
 42
0.0000001
 43
0.0000001
 44
0.0000000001
 40
0.0
 40
0.0
 40
0.0
 40
0.0
 40
0.0621829239
 40
0.0933027014
 40
0.1244276849
 40
0.1866540678
 40
0.248999399
 40
0.2802693356
 40
0.3115818214
 40
0.3429348277
 40
0.3743263103
 40
0.4371380959
 40
0.5000336142
 40
0.5629299728
 40
0.6257476518
 40
0.6884257342
 40
0.7197380703
 40
0.7510060345
 40
0.8133487075
 40
0.8755739766
 40
0.9066984996
 40
0.9378177111
 40
1.0
 40
1.0
 40
1.0
 40
1.0
 10
-28.7188011382
 20
-4.5023465785
 30
0.0
 10
-29.2338636113
 20
-4.5086018889
 30
0.0
 10
-30.0084349089
 20
-4.5938590146
 30
0.0
 10
-31.0071002008
 20
-4.8534680642
 30
0.0
 10
-31.9765553252
 20
-5.2089102571
 30
0.0
 10
-33.1179387497
 20
-5.8276386864
 30
0.0
 10
-34.1193689484
 20
-6.6559872252
 30
0.0
 10
-34.8135263555
 20
-7.4253362914
 30
0.0
 10
-35.2770733435
 20
-8.0518952583
 30
0.0
 10
-35.678007731
 20
-8.7214441747
 30
0.0
 10
-36.1235291611
 20
-9.6627579607
 30
0.0
 10
-36.5053815526
 20
-10.9162609006
 30
0.0
 10
-36.6626760944
 20
-12.4804640979
 30
0.0
 10
-36.512748002
 20
-14.0457599638
 30
0.0
 10
-36.0628472281
 20
-15.5502250455
 30
0.0
 10
-35.4517712644
 20
-16.7066152432
 30
0.0
 10
-34.8378049355
 20
-17.5448061107
 30
0.0
 10
-34.1473672829
 20
-18.3175333237
 30
0.0
 10
-33.1499638484
 20
-19.1506040788
 30
0.0
 10
-32.011607019
 20
-19.7748196331
 30
0.0
 10
-31.0438977006
 20
-20.1349349689
 30
0.0
 10
-30.046510616
 20
-20.3993594135
 30
0.0
 10
-29.27236954
 20
-20.4883521853
 30
0.0
 10
-28.7573484945
 20
-20.4970919336
 30
0.0
  0
SPLINE
  5
38E
100
AcDbEntity
  8
RACCORDO
100
AcDbSpline
 62
250
  6
CONTINUOUS
 70
0
 71
3
 72
30
 73
26
 74
0
 42
0.0000001
 43
0.0000001
 44
0.0000000001
 40
0.0
 40
0.0
 40
0.0
 40
0.0
 40
0.0312513015
 40
0.0624970126
 40
0.0937386878
 40
0.1249788797
 40
0.1873923677
 40
0.2498298756
 40
0.2810960761
 40
0.3123700901
 40
0.3436529795
 40
0.3749448449
 40
0.4374794636
 40
0.5000365973
 40
0.5625940043
 40
0.6251298676
 40
0.6564226659
 40
0.6877066143
 40
0.7189821894
 40
0.7502501795
 40
0.8126870873
 40
0.8750973235
 40
0.9063364288
 40
0.9375772228
 40
1.0
 40
1.0
 40
1.0
 40
1.0
 10
11.0392756929
 20
-20.4976143977
 30
0.0
 10
11.2980643305
 20
-20.4943333645
 30
0.0
 10
11.8156356678
 20
-20.4624719087
 30
0.0
 10
12.5832704768
 20
-20.3393687158
 30
0.0
 10
13.3355104235
 20
-20.142793225
 30
0.0
 10
14.3072533612
 20
-19.7844967117
 30
0.0
 10
15.4500474052
 20
-19.1618901248
 30
0.0
 10
16.4506976126
 20
-18.3295344427
 30
0.0
 10
17.1430707467
 20
-17.5583627118
 30
0.0
 10
17.6040925289
 20
-16.9313420406
 30
0.0
 10
18.0025107627
 20
-16.2625500809
 30
0.0
 10
18.4444183392
 20
-15.3239153631
 30
0.0
 10
18.8224646232
 20
-14.0759398093
 30
0.0
 10
18.9783080823
 20
-12.5200299952
 30
0.0
 10
18.8301927722
 20
-10.9633560006
 30
0.0
 10
18.4583566628
 20
-9.7134952055
 30
0.0
 10
18.0211096035
 20
-8.7726500665
 30
0.0
 10
17.6259938087
 20
-8.1018678283
 30
0.0
 10
17.1680775552
 20
-7.4725304601
 30
0.0
 10
16.479534364
 20
-6.6979085306
 30
0.0
 10
15.4830200043
 20
-5.8606070442
 30
0.0
 10
14.3434360677
 20
-5.2323587343
 30
0.0
 10
13.3733852171
 20
-4.86924958
 30
0.0
 10
12.3728447135
 20
-4.6022805
 30
0.0
 10
11.5959438396
 20
-4.5121146187
 30
0.0
 10
11.0790665937
 20
-4.5029894521
 30
0.0
  0
SPLINE
  5
38F
100
AcDbEntity
  8
RACCORDO
100
AcDbSpline
 62
250
  6
CONTINUOUS
 70
0
 71
3
 72
27
 73
23
 74
0
 42
0.0000001
 43
0.0000001
 44
0.0000000001
 40
0.0
 40
0.0
 40
0.0
 40
0.0
 40
0.0628833827
 40
0.0943306571
 40
0.1257468292
 40
0.1883743293
 40
0.2508115272
 40
0.2819986266
 40
0.3131456375
 40
0.3752746814
 40
0.4373415255
 40
0.4994189187
 40
0.561570392
 40
0.6238364335
 40
0.6862344141
 40
0.7175213426
 40
0.7488402881
 40
0.8114897968
 40
0.8742402355
 40
0.9056818119
 40
0.937137156
 40
1.0
 40
1.0
 40
1.0
 40
1.0
 10
36.6469228386
 20
-12.5
 30
0.0
 10
36.6469046296
 20
-12.0116396547
 30
0.0
 10
36.573888341
 20
-11.2764192294
 30
0.0
 10
36.3352497043
 20
-10.3283034818
 30
0.0
 10
36.0052677376
 20
-9.4097541879
 30
0.0
 10
35.4265475381
 20
-8.331655648
 30
0.0
 10
34.649275748
 20
-7.3890395539
 30
0.0
 10
33.9292244469
 20
-6.7385899964
 30
0.0
 10
33.1511690972
 20
-6.1628158934
 30
0.0
 10
32.0794229566
 20
-5.5909018234
 30
0.0
 10
30.6865423286
 20
-5.1681285025
 30
0.0
 10
29.237690634
 20
-5.0233315923
 30
0.0
 10
27.7867699443
 20
-5.1631674245
 30
0.0
 10
26.388447084
 20
-5.5827705748
 30
0.0
 10
25.311077084
 20
-6.1544134869
 30
0.0
 10
24.5286666417
 20
-6.7313851591
 30
0.0
 10
23.8049163918
 20
-7.3833704135
 30
0.0
 10
23.0245730893
 20
-8.3282716678
 30
0.0
 10
22.4442688254
 20
-9.4087547597
 30
0.0
 10
22.1138886302
 20
-10.3284548012
 30
0.0
 10
21.8752410863
 20
-11.2766726663
 30
0.0
 10
21.8022729713
 20
-12.0117991601
 30
0.0
 10
21.8022716792
 20
-12.5
 30
0.0
  0
SPLINE
  5
390
100
AcDbEntity
  8
RACCORDO
100
AcDbSpline
 62
250
  6
CONTINUOUS
 70
0
 71
3
 72
27
 73
23
 74
0
 42
0.0000001
 43
0.0000001
 44
0.0000000001
 40
0.0
 40
0.0
 40
0.0
 40
0.0
 40
0.0628563647
 40
0.0943102241
 40
0.1257510543
 40
0.1884990037
 40
0.2511501731
 40
0.2824714145
 40
0.3137613163
 40
0.3761657528
 40
0.438435568
 40
0.5005869815
 40
0.5626639827
 40
0.624730423
 40
0.6868587342
 40
0.7180054044
 40
0.749192027
 40
0.8116281477
 40
0.8742547619
 40
0.9056696946
 40
0.9371161184
 40
1.0
 40
1.0
 40
1.0
 40
1.0
 10
21.8022716792
 20
-12.5
 30
0.0
 10
21.8022720342
 20
-12.9881504753
 30
0.0
 10
21.8752313825
 20
-13.7232137275
 30
0.0
 10
22.113837643
 20
-14.6713718478
 30
0.0
 10
22.4441791145
 20
-15.5910463461
 30
0.0
 10
23.0244440304
 20
-16.6715389366
 30
0.0
 10
23.8047782533
 20
-17.6164559822
 30
0.0
 10
24.5285198074
 20
-18.2685361476
 30
0.0
 10
25.3110543473
 20
-18.8454903902
 30
0.0
 10
26.3884506405
 20
-19.4173040243
 30
0.0
 10
27.7868924414
 20
-19.8368014763
 30
0.0
 10
29.2378270431
 20
-19.9767335151
 30
0.0
 10
30.686664641
 20
-19.8318038421
 30
0.0
 10
32.0795337287
 20
-19.4090645479
 30
0.0
 10
33.1512677406
 20
-18.8371392786
 30
0.0
 10
33.9292883719
 20
-18.2613396375
 30
0.0
 10
34.6493239051
 20
-17.6108969581
 30
0.0
 10
35.4266007332
 20
-16.6683064144
 30
0.0
 10
36.0052693768
 20
-15.5902087341
 30
0.0
 10
36.3352547943
 20
-14.6716863247
 30
0.0
 10
36.5738875223
 20
-13.7235813763
 30
0.0
 10
36.6469038805
 20
-12.988364175
 30
0.0
 10
36.6469228386
 20
-12.5
 30
0.0
  0
SPLINE
  5
391
100
AcDbEntity
  8
RACCORDO
100
AcDbSpline
 62
250
  6
CONTINUOUS
 70
0
 71
3
 72
14
 73
10
 74
0
 42
0.0000001
 43
0.0000001
 44
0.0000000001
 40
0.0
 40
0.0
 40
0.0
 40
0.0
 40
0.3710793838
 40
0.6874627626
 40
0.8104954335
 40
0.9041186234
 40
0.9391763795
 40
0.966342363
 40
1.0
 40
1.0
 40
1.0
 40
1.0
 10
-28.7206781861
 20
-19.7849901814
 30
0.0
 10
-28.7206788968
 20
-19.8484636409
 30
0.0
 10
-28.7175115224
 20
-19.9660693415
 30
0.0
 10
-28.7058879449
 20
-20.1043525351
 30
0.0
 10
-28.6909757038
 20
-20.1944176749
 30
0.0
 10
-28.6808894638
 20
-20.2362258818
 30
0.0
 10
-28.6713148261
 20
-20.2614150484
 30
0.0
 10
-28.6640415436
 20
-20.2755368209
 30
0.0
 10
-28.6557271236
 20
-20.2846155416
 30
0.0
 10
-28.6499809225
 20
-20.2849707402
 30
0.0
  0
SPLINE
  5
392
100
AcDbEntity
  8
RACCORDO
100
AcDbSpline
 62
250
  6
CONTINUOUS
 70
0
 71
3
 72
14
 73
10
 74
0
 42
0.0000001
 43
0.0000001
 44
0.0000000001
 40
0.0
 40
0.0
 40
0.0
 40
0.0
 40
0.3710793826
 40
0.6874627605
 40
0.8104954311
 40
0.904118621
 40
0.9391763773
 40
0.9663423612
 40
1.0
 40
1.0
 40
1.0
 40
1.0
 10
-28.7206781861
 20
-5.2150098186
 30
0.0
 10
-28.7206788977
 20
-5.1515363591
 30
0.0
 10
-28.7175115246
 20
-5.0339306586
 30
0.0
 10
-28.7058879479
 20
-4.8956474648
 30
0.0
 10
-28.6909757066
 20
-4.805582325
 30
0.0
 10
-28.6808894661
 20
-4.7637741181
 30
0.0
 10
-28.6713148278
 20
-4.7385849516
 30
0.0
 10
-28.6640415447
 20
-4.7244631787
 30
0.0
 10
-28.655727124
 20
-4.7153844584
 30
0.0
 10
-28.6499809226
 20
-4.7150292598
 30
0.0
  0
SPLINE
  5
393
100
AcDbEntity
  8
RACCORDO
100
AcDbSpline
 62
250
  6
CONTINUOUS
 70
0
 71
3
 72
17
 73
13
 74
0
 42
0.0000001
 43
0.0000001
 44
0.0000000001
 40
0.0
 40
0.0
 40
0.0
 40
0.0
 40
0.1926622776
 40
0.3783908188
 40
0.549567006
 40
0.6999500448
 40
0.8239707127
 40
0.9169240322
 40
0.9507096219
 40
0.975645893
 40
0.9917850317
 40
1.0
 40
1.0
 40
1.0
 40
1.0
 10
10.9808408983
 20
-5.2148838723
 30
0.0
 10
10.9808410548
 20
-5.1825738821
 30
0.0
 10
10.9804588488
 20
-5.1191163599
 30
0.0
 10
10.9787686531
 20
-5.0269640698
 30
0.0
 10
10.9760245113
 20
-4.9419361607
 30
0.0
 10
10.9723496515
 20
-4.8672828593
 30
0.0
 10
10.9679357675
 20
-4.8058667296
 30
0.0
 10
10.9634713992
 20
-4.7639507285
 30
0.0
 10
10.9594398358
 20
-4.7389392333
 30
0.0
 10
10.9565270069
 20
-4.7265091606
 30
0.0
 10
10.9540724137
 20
-4.7190225282
 30
0.0
 10
10.9513560935
 20
-4.7150946318
 30
0.0
 10
10.9499918158
 20
-4.7149029861
 30
0.0
  0
SPLINE
  5
394
100
AcDbEntity
  8
RACCORDO
100
AcDbSpline
 62
250
  6
CONTINUOUS
 70
0
 71
3
 72
17
 73
13
 74
0
 42
0.0000001
 43
0.0000001
 44
0.0000000001
 40
0.0
 40
0.0
 40
0.0
 40
0.0
 40
0.1926622564
 40
0.378390777
 40
0.5495669435
 40
0.6999499641
 40
0.8239706196
 40
0.9169239358
 40
0.9507095298
 40
0.9756458121
 40
0.9917849746
 40
1.0
 40
1.0
 40
1.0
 40
1.0
 10
10.9808408983
 20
-19.7851161277
 30
0.0
 10
10.9808410827
 20
-19.8174261179
 30
0.0
 10
10.9804589256
 20
-19.8808836404
 30
0.0
 10
10.9787687846
 20
-19.973035931
 30
0.0
 10
10.9760246776
 20
-20.0580638408
 30
0.0
 10
10.9723498307
 20
-20.1327171422
 30
0.0
 10
10.9679359381
 20
-20.1941332735
 30
0.0
 10
10.9634715431
 20
-20.2360492726
 30
0.0
 10
10.9594399457
 20
-20.261060771
 30
0.0
 10
10.9565270865
 20
-20.2734908391
 30
0.0
 10
10.9540724642
 20
-20.2809774907
 30
0.0
 10
10.9513561036
 20
-20.2849053694
 30
0.0
 10
10.9499918158
 20
-20.2850970139
 30
0.0
  0
SPLINE
  5
395
100
AcDbEntity
  8
RACCORDO
100
AcDbSpline
 62
250
  6
CONTINUOUS
 70
0
 71
3
 72
13
 73
9
 74
0
 42
0.0000001
 43
0.0000001
 44
0.0000000001
 40
0.0
 40
0.0
 40
0.0
 40
0.0
 40
0.3709659029
 40
0.6873822906
 40
0.8103132613
 40
0.9040523336
 40
0.9661877585
 40
1.0
 40
1.0
 40
1.0
 40
1.0
 10
-28.6214947287
 20
-20.4982440572
 30
0.0
 10
-28.6214946954
 20
-20.4728574204
 30
0.0
 10
-28.6227384732
 20
-20.4258322704
 30
0.0
 10
-28.6275326911
 20
-20.3704557975
 30
0.0
 10
-28.6333776938
 20
-20.3345267883
 30
0.0
 10
-28.6382082236
 20
-20.3158228574
 30
0.0
 10
-28.6425557943
 20
-20.3040252207
 30
0.0
 10
-28.647688218
 20
-20.2983934855
 30
0.0
 10
-28.649997781
 20
-20.2982518337
 30
0.0
  0
SPLINE
  5
396
100
AcDbEntity
  8
RACCORDO
100
AcDbSpline
 62
250
  6
CONTINUOUS
 70
0
 71
3
 72
13
 73
9
 74
0
 42
0.0000001
 43
0.0000001
 44
0.0000000001
 40
0.0
 40
0.0
 40
0.0
 40
0.0
 40
0.3709659068
 40
0.6873822977
 40
0.8103132691
 40
0.9040523411
 40
0.9661877643
 40
1.0
 40
1.0
 40
1.0
 40
1.0
 10
-28.6214947287
 20
-4.5017559428
 30
0.0
 10
-28.6214946965
 20
-4.5271425797
 30
0.0
 10
-28.622738476
 20
-4.5741677297
 30
0.0
 10
-28.6275326948
 20
-4.6295442026
 30
0.0
 10
-28.6333776973
 20
-4.6654732116
 30
0.0
 10
-28.6382082264
 20
-4.6841771426
 30
0.0
 10
-28.642555796
 20
-4.6959747786
 30
0.0
 10
-28.6476882184
 20
-4.7016065145
 30
0.0
 10
-28.649997781
 20
-4.7017481663
 30
0.0
  0
SPLINE
  5
397
100
AcDbEntity
  8
RACCORDO
100
AcDbSpline
 62
250
  6
CONTINUOUS
 70
0
 71
3
 72
15
 73
11
 74
0
 42
0.0000001
 43
0.0000001
 44
0.0000000001
 40
0.0
 40
0.0
 40
0.0
 40
0.0
 40
0.3783259439
 40
0.5495966147
 40
0.6999525338
 40
0.8238655808
 40
0.9169125076
 40
0.9755783002
 40
0.9917504111
 40
1.0
 40
1.0
 40
1.0
 40
1.0
 10
10.9375616184
 20
-4.5017411763
 30
0.0
 10
10.937561604
 20
-4.5271206589
 30
0.0
 10
10.9379783485
 20
-4.5639892967
 30
0.0
 10
10.9395058539
 20
-4.6109296546
 30
0.0
 10
10.9409805815
 20
-4.6407634573
 30
0.0
 10
10.9427745203
 20
-4.6653985116
 30
0.0
 10
10.9447238195
 20
-4.6836533126
 30
0.0
 10
10.9466885535
 20
-4.6950101036
 30
0.0
 10
10.9483582376
 20
-4.700086416
 30
0.0
 10
10.9494509339
 20
-4.701657135
 30
0.0
 10
10.949999048
 20
-4.7017335307
 30
0.0
  0
SPLINE
  5
398
100
AcDbEntity
  8
RACCORDO
100
AcDbSpline
 62
250
  6
CONTINUOUS
 70
0
 71
3
 72
15
 73
11
 74
0
 42
0.0000001
 43
0.0000001
 44
0.0000000001
 40
0.0
 40
0.0
 40
0.0
 40
0.0
 40
0.3783259462
 40
0.549596618
 40
0.6999525378
 40
0.8238655851
 40
0.9169125118
 40
0.9755783037
 40
0.9917504135
 40
1.0
 40
1.0
 40
1.0
 40
1.0
 10
10.9375616184
 20
-20.4982588237
 30
0.0
 10
10.937561605
 20
-20.4728793411
 30
0.0
 10
10.9379783505
 20
-20.4360107033
 30
0.0
 10
10.9395058567
 20
-20.3890703453
 30
0.0
 10
10.9409805845
 20
-20.3592365426
 30
0.0
 10
10.9427745231
 20
-20.3346014883
 30
0.0
 10
10.9447238219
 20
-20.3163466875
 30
0.0
 10
10.9466885551
 20
-20.3049898964
 30
0.0
 10
10.9483582384
 20
-20.2999135843
 30
0.0
 10
10.9494509341
 20
-20.298342865
 30
0.0
 10
10.949999048
 20
-20.2982664693
 30
0.0
  0
SPLINE
  5
399
100
AcDbEntity
  8
RACCORDO
100
AcDbSpline
 62
250
  6
CONTINUOUS
 70
0
 71
3
 72
29
 73
25
 74
0
 42
0.0000001
 43
0.0000001
 44
0.0000000001
 40
0.0
 40
0.0
 40
0.0
 40
0.0
 40
0.0312560569
 40
0.062506915
 40
0.0937540032
 40
0.1249998282
 40
0.1874208485
 40
0.2498556985
 40
0.2811200372
 40
0.3123931492
 40
0.3748952602
 40
0.4374355792
 40
0.4999982733
 40
0.5625610603
 40
0.6251013892
 40
0.6876034058
 40
0.7188768061
 40
0.7501419066
 40
0.8125776811
 40
0.8749996667
 40
0.906245579
 40
0.9374928474
 40
0.9687438439
 40
1.0
 40
1.0
 40
1.0
 40
1.0
 10
10.9808408983
 20
-19.7851161277
 30
0.0
 10
11.2193200106
 20
-19.7851149317
 30
0.0
 10
11.696581004
 20
-19.7618180497
 30
0.0
 10
12.4052371522
 20
-19.6568178467
 30
0.0
 10
13.1004782441
 20
-19.483793798
 30
0.0
 10
13.9995148151
 20
-19.1636148023
 30
0.0
 10
15.058354326
 20
-18.6006992081
 30
0.0
 10
15.9870450915
 20
-17.8418568455
 30
0.0
 10
16.6301208045
 20
-17.1359983465
 30
0.0
 10
17.2009705898
 20
-16.3699504769
 30
0.0
 10
17.7698207975
 20
-15.312161682
 30
0.0
 10
18.1897571672
 20
-13.934219621
 30
0.0
 10
18.3321813587
 20
-12.5000396247
 30
0.0
 10
18.1897743571
 20
-11.0658581651
 30
0.0
 10
17.7698537873
 20
-9.6879100555
 30
0.0
 10
17.2010061703
 20
-8.6301195271
 30
0.0
 10
16.630171523
 20
-7.8640509835
 30
0.0
 10
15.9870819866
 20
-7.1581841798
 30
0.0
 10
15.0583838047
 20
-6.399319628
 30
0.0
 10
13.9995304576
 20
-5.8363968774
 30
0.0
 10
13.1004869738
 20
-5.5162088635
 30
0.0
 10
12.4052418557
 20
-5.3431886384
 30
0.0
 10
11.6965839392
 20
-5.238178868
 30
0.0
 10
11.2193207672
 20
-5.2148851066
 30
0.0
 10
10.9808408983
 20
-5.2148838723
 30
0.0
  0
SPLINE
  5
39A
100
AcDbEntity
  8
RACCORDO
100
AcDbSpline
 62
250
  6
CONTINUOUS
 70
0
 71
3
 72
31
 73
27
 74
0
 42
0.0000001
 43
0.0000001
 44
0.0000000001
 40
0.0
 40
0.0
 40
0.0
 40
0.0
 40
0.0311366276
 40
0.0622636817
 40
0.0933877373
 40
0.1245166843
 40
0.1867480295
 40
0.2490870429
 40
0.2803471806
 40
0.3116470919
 40
0.3429873715
 40
0.3743659885
 40
0.4371431361
 40
0.4999971336
 40
0.5628512742
 40
0.6256283066
 40
0.6570070039
 40
0.6883472789
 40
0.7196471146
 40
0.7509073396
 40
0.8132462042
 40
0.875480369
 40
0.9066107974
 40
0.9377356646
 40
0.9688631066
 40
1.0
 40
1.0
 40
1.0
 40
1.0
 10
-28.7206781861
 20
-5.2150098186
 30
0.0
 10
-28.9582758375
 20
-5.2150125788
 30
0.0
 10
-29.4337340444
 20
-5.2381725009
 30
0.0
 10
-30.1397653141
 20
-5.3423418862
 30
0.0
 10
-30.8325412581
 20
-5.5140952381
 30
0.0
 10
-31.7290007948
 20
-5.8320648353
 30
0.0
 10
-32.7861040003
 20
-6.3918266426
 30
0.0
 10
-33.7149432701
 20
-7.1472330881
 30
0.0
 10
-34.3591718902
 20
-7.8513544376
 30
0.0
 10
-34.7894297568
 20
-8.4258165637
 30
0.0
 10
-35.1616422235
 20
-9.0405579989
 30
0.0
 10
-35.5750542087
 20
-9.9057901841
 30
0.0
 10
-35.9286462632
 20
-11.059452869
 30
0.0
 10
-36.0720664483
 20
-12.4999365988
 30
0.0
 10
-35.9286640865
 20
-13.9404180288
 30
0.0
 10
-35.5751171407
 20
-15.0940970157
 30
0.0
 10
-35.161703028
 20
-15.9593280545
 30
0.0
 10
-34.7895039268
 20
-16.5740776809
 30
0.0
 10
-34.3592452838
 20
-17.1485386402
 30
0.0
 10
-33.7150530026
 20
-17.852691772
 30
0.0
 10
-32.7861920969
 20
-18.6081086101
 30
0.0
 10
-31.7290736294
 20
-19.1679065126
 30
0.0
 10
-30.8325789034
 20
-19.4858959396
 30
0.0
 10
-30.1397828602
 20
-19.6576527702
 30
0.0
 10
-29.4337412541
 20
-19.7618289824
 30
0.0
 10
-28.9582778653
 20
-19.7849873721
 30
0.0
 10
-28.7206781861
 20
-19.7849901814
 30
0.0
  0
SPLINE
  5
39B
100
AcDbEntity
  8
RACCORDO
100
AcDbSpline
 62
250
  6
CONTINUOUS
 70
0
 71
3
 72
25
 73
21
 74
0
 42
0.0000001
 43
0.0000001
 44
0.0000000001
 40
0.0
 40
0.0
 40
0.0
 40
0.0
 40
0.0628543986
 40
0.125631178
 40
0.1882631773
 40
0.2507150379
 40
0.3129941569
 40
0.3751446924
 40
0.4372324204
 40
0.4993269725
 40
0.5614898065
 40
0.6237657615
 40
0.6861787252
 40
0.7174762457
 40
0.748808229
 40
0.8114857377
 40
0.8742523342
 40
0.9056970059
 40
0.9371518763
 40
1.0
 40
1.0
 40
1.0
 40
1.0
 10
36.314872742
 20
-12.5
 30
0.0
 10
36.314866587
 20
-12.0383660546
 30
0.0
 10
36.2229040635
 20
-11.1131077484
 30
0.0
 10
35.8164997228
 20
-9.7825134086
 30
0.0
 10
35.1581589974
 20
-8.5596133182
 30
0.0
 10
34.2757511148
 20
-7.4922267308
 30
0.0
 10
33.2056789335
 20
-6.6187461799
 30
0.0
 10
31.9886295366
 20
-5.9711256381
 30
0.0
 10
30.6704706926
 20
-5.5722363908
 30
0.0
 10
29.2999912317
 20
-5.4355828507
 30
0.0
 10
27.9275498574
 20
-5.5673522739
 30
0.0
 10
26.604571155
 20
-5.9630433476
 30
0.0
 10
25.5847837306
 20
-6.5024265741
 30
0.0
 10
24.8437491943
 20
-7.0470558925
 30
0.0
 10
24.1580922074
 20
-7.6628810264
 30
0.0
 10
23.4185061215
 20
-8.5557056297
 30
0.0
 10
22.8682106583
 20
-9.5771578744
 30
0.0
 10
22.5549498961
 20
-10.4467882819
 30
0.0
 10
22.3286951511
 20
-11.3432970411
 30
0.0
 10
22.259494317
 20
-12.0384121406
 30
0.0
 10
22.2594948486
 20
-12.5
 30
0.0
  0
SPLINE
  5
39C
100
AcDbEntity
  8
RACCORDO
100
AcDbSpline
 62
250
  6
CONTINUOUS
 70
0
 71
3
 72
25
 73
21
 74
0
 42
0.0000001
 43
0.0000001
 44
0.0000000001
 40
0.0
 40
0.0
 40
0.0
 40
0.0
 40
0.0628634137
 40
0.1257021897
 40
0.1884810675
 40
0.2511622961
 40
0.3137164321
 40
0.3761296252
 40
0.4384061237
 40
0.5005694635
 40
0.5626641303
 40
0.6247517735
 40
0.6869024929
 40
0.718059812
 40
0.7492563145
 40
0.8117046376
 40
0.8743241553
 40
0.9057282761
 40
0.9371612689
 40
1.0
 40
1.0
 40
1.0
 40
1.0
 10
22.2594948486
 20
-12.5
 30
0.0
 10
22.2595007746
 20
-12.9616996054
 30
0.0
 10
22.3515245992
 20
-13.8874806575
 30
0.0
 10
22.7585820331
 20
-15.2195748997
 30
0.0
 10
23.4190204742
 20
-16.4450712325
 30
0.0
 10
24.3056633876
 20
-17.5152863636
 30
0.0
 10
25.38179727
 20
-18.3904239522
 30
0.0
 10
26.605395292
 20
-19.0373169863
 30
0.0
 10
27.9286384885
 20
-19.4328304765
 30
0.0
 10
29.301037086
 20
-19.5644160848
 30
0.0
 10
30.6715672729
 20
-19.4275746737
 30
0.0
 10
31.9894709384
 20
-19.0285068018
 30
0.0
 10
33.0038836176
 20
-18.4884659961
 30
0.0
 10
33.7406074254
 20
-17.94467612
 30
0.0
 10
34.4224932153
 20
-17.3302289673
 30
0.0
 10
35.1586878178
 20
-16.4395905453
 30
0.0
 10
35.7070486267
 20
-15.4206395985
 30
0.0
 10
36.0196404653
 20
-14.552410418
 30
0.0
 10
36.2457034575
 20
-13.6564013402
 30
0.0
 10
36.3148732372
 20
-12.9615183247
 30
0.0
 10
36.314872742
 20
-12.5
 30
0.0
  0
SPLINE
  5
39D
100
AcDbEntity
  8
RACCORDO
100
AcDbSpline
 62
250
  6
CONTINUOUS
 70
0
 71
3
 72
27
 73
23
 74
0
 42
0.0000001
 43
0.0000001
 44
0.0000000001
 40
0.0
 40
0.0
 40
0.0
 40
0.0
 40
0.0628472672
 40
0.0942814359
 40
0.1256837432
 40
0.1882891779
 40
0.250714686
 40
0.2819022042
 40
0.313054255
 40
0.3752040398
 40
0.437297257
 40
0.4993976764
 40
0.5615645068
 40
0.6238383324
 40
0.6862381461
 40
0.717524129
 40
0.7488415037
 40
0.8114890022
 40
0.8742386322
 40
0.9056806841
 40
0.9371366814
 40
1.0
 40
1.0
 40
1.0
 40
1.0
 10
36.1782054562
 20
-12.5
 30
0.0
 10
36.1782043026
 20
-12.9525972139
 30
0.0
 10
36.1105332696
 20
-13.6340547916
 30
0.0
 10
35.8885476854
 20
-14.5126143957
 30
0.0
 10
35.5817174907
 20
-15.3637117321
 30
0.0
 10
35.0440548263
 20
-16.3624952816
 30
0.0
 10
34.3223616066
 20
-17.2355340707
 30
0.0
 10
33.6537255467
 20
-17.8376067293
 30
0.0
 10
32.931225919
 20
-18.3704683219
 30
0.0
 10
31.9364938657
 20
-18.8998240774
 30
0.0
 10
30.6441300221
 20
-19.2910739321
 30
0.0
 10
29.3001542972
 20
-19.4249443293
 30
0.0
 10
27.9543747496
 20
-19.2958907285
 30
0.0
 10
26.6572278419
 20
-18.9078654029
 30
0.0
 10
25.6574409181
 20
-18.3791660453
 30
0.0
 10
24.9308730733
 20
-17.8455632726
 30
0.0
 10
24.2586575881
 20
-17.2422160933
 30
0.0
 10
23.5337183198
 20
-16.3671214821
 30
0.0
 10
22.9941701657
 20
-15.3659707521
 30
0.0
 10
22.6866818396
 20
-14.5135298896
 30
0.0
 10
22.4644819257
 20
-13.6344452554
 30
0.0
 10
22.3967673755
 20
-12.9527128089
 30
0.0
 10
22.396765334
 20
-12.5
 30
0.0
  0
SPLINE
  5
39E
100
AcDbEntity
  8
RACCORDO
100
AcDbSpline
 62
7
  6
CONTINUOUS
 70
0
 71
3
 72
18
 73
14
 74
0
 42
0.0000001
 43
0.0000001
 44
0.0000000001
 40
0.0
 40
0.0
 40
0.0
 40
0.0
 40
0.0059933301
 40
0.0212987152
 40
0.0458721477
 40
0.0795487052
 40
0.1219724652
 40
0.1727094812
 40
0.2972207447
 40
0.4482518465
 40
0.6201582086
 40
0.8066159026
 40
1.0
 40
1.0
 40
1.0
 40
1.0
 10
25.8601529877
 20
-6.9518983356
 30
0.0
 10
25.8599354604
 20
-6.9522354716
 30
0.0
 10
25.8608054347
 20
-6.9537762368
 30
0.0
 10
25.8615728969
 20
-6.956467709
 30
0.0
 10
25.8637748043
 20
-6.9610547061
 30
0.0
 10
25.8665205482
 20
-6.9671332147
 30
0.0
 10
25.8702054178
 20
-6.9748128177
 30
0.0
 10
25.8765502831
 20
-6.9879174236
 30
0.0
 10
25.886252727
 20
-7.0074958695
 30
0.0
 10
25.8997067989
 20
-7.034255278
 30
0.0
 10
25.915174113
 20
-7.064648369
 30
0.0
 10
25.9320531504
 20
-7.097502485
 30
0.0
 10
25.9437514797
 20
-7.120080331
 30
0.0
 10
25.9497265749
 20
-7.1315650243
 30
0.0
  0
SPLINE
  5
39F
100
AcDbEntity
  8
RACCORDO
100
AcDbSpline
 62
7
  6
CONTINUOUS
 70
0
 71
3
 72
18
 73
14
 74
0
 42
0.0000001
 43
0.0000001
 44
0.0000000001
 40
0.0
 40
0.0
 40
0.0
 40
0.0
 40
0.1933840974
 40
0.3798417914
 40
0.5517481535
 40
0.7027792553
 40
0.8272905188
 40
0.8780275348
 40
0.9204512948
 40
0.9541278523
 40
0.9787012848
 40
0.9940066699
 40
1.0
 40
1.0
 40
1.0
 40
1.0
 10
26.7481347545
 20
-6.7161804089
 30
0.0
 10
26.7421596593
 20
-6.7046957156
 30
0.0
 10
26.7303855343
 20
-6.6821573036
 30
0.0
 10
26.7131699179
 20
-6.6494782982
 30
0.0
 10
26.6971593072
 20
-6.619367866
 30
0.0
 10
26.6829687174
 20
-6.5929916426
 30
0.0
 10
26.6725051744
 20
-6.5738091707
 30
0.0
 10
26.6654157997
 20
-6.5610919077
 30
0.0
 10
26.6612421093
 20
-6.5536666215
 30
0.0
 10
26.6578404985
 20
-6.5479293381
 30
0.0
 10
26.6553481142
 20
-6.5434934663
 30
0.0
 10
26.653584617
 20
-6.5413201972
 30
0.0
 10
26.6528222493
 20
-6.539723448
 30
0.0
 10
26.6524213223
 20
-6.5397080727
 30
0.0
  0
SPLINE
  5
3A0
100
AcDbEntity
  8
RACCORDO
100
AcDbSpline
 62
7
  6
CONTINUOUS
 70
0
 71
3
 72
18
 73
14
 74
0
 42
0.0000001
 43
0.0000001
 44
0.0000000001
 40
0.0
 40
0.0
 40
0.0
 40
0.0
 40
0.0059933301
 40
0.0212987152
 40
0.0458721477
 40
0.0795487052
 40
0.1219724652
 40
0.1727094812
 40
0.2972207447
 40
0.4482518465
 40
0.6201582086
 40
0.8066159026
 40
1.0
 40
1.0
 40
1.0
 40
1.0
 10
31.8475786777
 20
-6.5397080727
 30
0.0
 10
31.8471777507
 20
-6.539723448
 30
0.0
 10
31.846415383
 20
-6.5413201972
 30
0.0
 10
31.8446518858
 20
-6.5434934663
 30
0.0
 10
31.8421595015
 20
-6.5479293381
 30
0.0
 10
31.8387578907
 20
-6.5536666215
 30
0.0
 10
31.8345842003
 20
-6.5610919077
 30
0.0
 10
31.8274948256
 20
-6.5738091707
 30
0.0
 10
31.8170312826
 20
-6.5929916426
 30
0.0
 10
31.8028406928
 20
-6.619367866
 30
0.0
 10
31.7868300821
 20
-6.6494782982
 30
0.0
 10
31.7696144657
 20
-6.6821573036
 30
0.0
 10
31.7578403407
 20
-6.7046957156
 30
0.0
 10
31.7518652455
 20
-6.7161804089
 30
0.0
  0
SPLINE
  5
3A1
100
AcDbEntity
  8
RACCORDO
100
AcDbSpline
 62
7
  6
CONTINUOUS
 70
0
 71
3
 72
18
 73
14
 74
0
 42
0.0000001
 43
0.0000001
 44
0.0000000001
 40
0.0
 40
0.0
 40
0.0
 40
0.0
 40
0.1933840974
 40
0.3798417914
 40
0.5517481535
 40
0.7027792553
 40
0.8272905188
 40
0.8780275348
 40
0.9204512948
 40
0.9541278523
 40
0.9787012848
 40
0.9940066699
 40
1.0
 40
1.0
 40
1.0
 40
1.0
 10
32.5502734251
 20
-7.1315650243
 30
0.0
 10
32.5562485203
 20
-7.120080331
 30
0.0
 10
32.5679468496
 20
-7.097502485
 30
0.0
 10
32.584825887
 20
-7.064648369
 30
0.0
 10
32.6002932011
 20
-7.034255278
 30
0.0
 10
32.613747273
 20
-7.0074958695
 30
0.0
 10
32.6234497169
 20
-6.9879174236
 30
0.0
 10
32.6297945822
 20
-6.9748128177
 30
0.0
 10
32.6334794518
 20
-6.9671332147
 30
0.0
 10
32.6362251957
 20
-6.9610547061
 30
0.0
 10
32.6384271031
 20
-6.956467709
 30
0.0
 10
32.6391945653
 20
-6.9537762368
 30
0.0
 10
32.6400645396
 20
-6.9522354716
 30
0.0
 10
32.6398470123
 20
-6.9518983356
 30
0.0
  0
SPLINE
  5
3A2
100
AcDbEntity
  8
RACCORDO
100
AcDbSpline
 62
7
  6
CONTINUOUS
 70
0
 71
3
 72
18
 73
14
 74
0
 42
0.0000001
 43
0.0000001
 44
0.0000000001
 40
0.0
 40
0.0
 40
0.0
 40
0.0
 40
0.0059933301
 40
0.0212987152
 40
0.0458721477
 40
0.0795487052
 40
0.1219724652
 40
0.1727094812
 40
0.2972207447
 40
0.4482518465
 40
0.6201582086
 40
0.8066159026
 40
1.0
 40
1.0
 40
1.0
 40
1.0
 10
26.6524213223
 20
-18.4602919273
 30
0.0
 10
26.6528222493
 20
-18.460276552
 30
0.0
 10
26.653584617
 20
-18.4586798028
 30
0.0
 10
26.6553481142
 20
-18.4565065337
 30
0.0
 10
26.6578404985
 20
-18.4520706619
 30
0.0
 10
26.6612421093
 20
-18.4463333785
 30
0.0
 10
26.6654157997
 20
-18.4389080923
 30
0.0
 10
26.6725051744
 20
-18.4261908293
 30
0.0
 10
26.6829687174
 20
-18.4070083574
 30
0.0
 10
26.6971593072
 20
-18.380632134
 30
0.0
 10
26.7131699179
 20
-18.3505217018
 30
0.0
 10
26.7303855343
 20
-18.3178426964
 30
0.0
 10
26.7421596593
 20
-18.2953042844
 30
0.0
 10
26.7481347545
 20
-18.2838195911
 30
0.0
  0
SPLINE
  5
3A3
100
AcDbEntity
  8
RACCORDO
100
AcDbSpline
 62
7
  6
CONTINUOUS
 70
0
 71
3
 72
18
 73
14
 74
0
 42
0.0000001
 43
0.0000001
 44
0.0000000001
 40
0.0
 40
0.0
 40
0.0
 40
0.0
 40
0.1933840974
 40
0.3798417914
 40
0.5517481535
 40
0.7027792553
 40
0.8272905188
 40
0.8780275348
 40
0.9204512948
 40
0.9541278523
 40
0.9787012848
 40
0.9940066699
 40
1.0
 40
1.0
 40
1.0
 40
1.0
 10
31.7518652455
 20
-18.2838195911
 30
0.0
 10
31.7578403407
 20
-18.2953042844
 30
0.0
 10
31.7696144657
 20
-18.3178426964
 30
0.0
 10
31.7868300821
 20
-18.3505217018
 30
0.0
 10
31.8028406928
 20
-18.380632134
 30
0.0
 10
31.8170312826
 20
-18.4070083574
 30
0.0
 10
31.8274948256
 20
-18.4261908293
 30
0.0
 10
31.8345842003
 20
-18.4389080923
 30
0.0
 10
31.8387578907
 20
-18.4463333785
 30
0.0
 10
31.8421595015
 20
-18.4520706619
 30
0.0
 10
31.8446518858
 20
-18.4565065337
 30
0.0
 10
31.846415383
 20
-18.4586798028
 30
0.0
 10
31.8471777507
 20
-18.460276552
 30
0.0
 10
31.8475786777
 20
-18.4602919273
 30
0.0
  0
SPLINE
  5
3A4
100
AcDbEntity
  8
RACCORDO
100
AcDbSpline
 62
7
  6
CONTINUOUS
 70
0
 71
3
 72
18
 73
14
 74
0
 42
0.0000001
 43
0.0000001
 44
0.0000000001
 40
0.0
 40
0.0
 40
0.0
 40
0.0
 40
0.1933840974
 40
0.3798417914
 40
0.5517481535
 40
0.7027792553
 40
0.8272905188
 40
0.8780275348
 40
0.9204512948
 40
0.9541278523
 40
0.9787012848
 40
0.9940066699
 40
1.0
 40
1.0
 40
1.0
 40
1.0
 10
22.9643497736
 20
-12.05
 30
0.0
 10
22.9514037339
 20
-12.05
 30
0.0
 10
22.9259752418
 20
-12.0500427201
 30
0.0
 10
22.8890393669
 20
-12.0502324233
 30
0.0
 10
22.8549382816
 20
-12.0505386369
 30
0.0
 10
22.8249898981
 20
-12.0509537542
 30
0.0
 10
22.8031434123
 20
-12.051382726
 30
0.0
 10
22.7885896523
 20
-12.0518023475
 30
0.0
 10
22.7800762123
 20
-12.0520778574
 30
0.0
 10
22.7734165781
 20
-12.052447518
 30
0.0
 10
22.7683310954
 20
-12.052611237
 30
0.0
 10
22.7655892227
 20
-12.0531726238
 30
0.0
 10
22.7638208522
 20
-12.0531119745
 30
0.0
 10
22.7636221692
 20
-12.0534605485
 30
0.0
  0
SPLINE
  5
3A5
100
AcDbEntity
  8
RACCORDO
100
AcDbSpline
 62
7
  6
CONTINUOUS
 70
0
 71
3
 72
18
 73
14
 74
0
 42
0.0000001
 43
0.0000001
 44
0.0000000001
 40
0.0
 40
0.0
 40
0.0
 40
0.0
 40
0.0059933301
 40
0.0212987152
 40
0.0458721477
 40
0.0795487052
 40
0.1219724652
 40
0.1727094812
 40
0.2972207447
 40
0.4482518465
 40
0.6201582086
 40
0.8066159026
 40
1.0
 40
1.0
 40
1.0
 40
1.0
 10
35.7363778308
 20
-12.0534605485
 30
0.0
 10
35.7361791478
 20
-12.0531119745
 30
0.0
 10
35.7344107773
 20
-12.0531726238
 30
0.0
 10
35.7316689046
 20
-12.052611237
 30
0.0
 10
35.7265834219
 20
-12.052447518
 30
0.0
 10
35.7199237877
 20
-12.0520778574
 30
0.0
 10
35.7114103477
 20
-12.0518023475
 30
0.0
 10
35.6968565877
 20
-12.051382726
 30
0.0
 10
35.6750101019
 20
-12.0509537542
 30
0.0
 10
35.6450617184
 20
-12.0505386369
 30
0.0
 10
35.6109606331
 20
-12.0502324233
 30
0.0
 10
35.5740247582
 20
-12.0500427201
 30
0.0
 10
35.5485962661
 20
-12.05
 30
0.0
 10
35.5356502264
 20
-12.05
 30
0.0
  0
SPLINE
  5
3A6
100
AcDbEntity
  8
RACCORDO
100
AcDbSpline
 62
250
  6
CONTINUOUS
 70
0
 71
3
 72
27
 73
23
 74
0
 42
0.0000001
 43
0.0000001
 44
0.0000000001
 40
0.0
 40
0.0
 40
0.0
 40
0.0
 40
0.0628578319
 40
0.0943136397
 40
0.1257557674
 40
0.188505326
 40
0.2511555352
 40
0.2824760893
 40
0.31376597
 40
0.3761737009
 40
0.438452291
 40
0.5006200781
 40
0.5627196815
 40
0.6248082937
 40
0.6869503526
 40
0.7180986186
 40
0.7492830726
 40
0.8117059468
 40
0.8743114737
 40
0.9057136493
 40
0.937147704
 40
1.0
 40
1.0
 40
1.0
 40
1.0
 10
22.396765334
 20
-12.5
 30
0.0
 10
22.3967666989
 20
-12.047326707
 30
0.0
 10
22.4644726705
 20
-11.3656359238
 30
0.0
 10
22.6866457381
 20
-10.4865861367
 30
0.0
 10
22.9941193656
 20
-9.6341413718
 30
0.0
 10
23.5336579226
 20
-8.6329632515
 30
0.0
 10
24.2586138113
 20
-7.7578265057
 30
0.0
 10
24.9308793887
 20
-7.1544292766
 30
0.0
 10
25.6575369727
 20
-6.6207651414
 30
0.0
 10
26.6574496605
 20
-6.0920424007
 30
0.0
 10
27.9547059148
 20
-5.7040372422
 30
0.0
 10
29.3005298101
 20
-5.5750504357
 30
0.0
 10
30.6444626666
 20
-5.7090083492
 30
0.0
 10
31.9367225436
 20
-6.1002684294
 30
0.0
 10
32.9313303957
 20
-6.6296065502
 30
0.0
 10
33.6537424979
 20
-7.1624085803
 30
0.0
 10
34.3223287643
 20
-7.7644343065
 30
0.0
 10
35.0440034543
 20
-8.6374343605
 30
0.0
 10
35.5816747222
 20
-9.6361914373
 30
0.0
 10
35.8885157296
 20
-10.4872837181
 30
0.0
 10
36.1105242812
 20
-11.3658729785
 30
0.0
 10
36.1782036268
 20
-12.0473665739
 30
0.0
 10
36.1782054562
 20
-12.5
 30
0.0
  0
SPLINE
  5
3A7
100
AcDbEntity
  8
RACCORDO
100
AcDbSpline
 62
250
  6
CONTINUOUS
 70
0
 71
3
 72
28
 73
24
 74
0
 42
0.0000001
 43
0.0000001
 44
0.0000000001
 40
0.0
 40
0.0
 40
0.0
 40
0.0
 40
0.0621829239
 40
0.0933027014
 40
0.1244276849
 40
0.1866540678
 40
0.248999399
 40
0.2802693356
 40
0.3115818214
 40
0.3429348277
 40
0.3743263103
 40
0.4371380959
 40
0.5000336142
 40
0.5629299728
 40
0.6257476518
 40
0.6884257342
 40
0.7197380703
 40
0.7510060345
 40
0.8133487075
 40
0.8755739766
 40
0.9066984996
 40
0.9378177111
 40
1.0
 40
1.0
 40
1.0
 40
1.0
 10
-28.7188011382
 20
-29.5023465785
 30
0.0
 10
-29.2338636113
 20
-29.5086018889
 30
0.0
 10
-30.0084349089
 20
-29.5938590146
 30
0.0
 10
-31.0071002008
 20
-29.8534680642
 30
0.0
 10
-31.9765553252
 20
-30.2089102571
 30
0.0
 10
-33.1179387497
 20
-30.8276386864
 30
0.0
 10
-34.1193689484
 20
-31.6559872252
 30
0.0
 10
-34.8135263555
 20
-32.4253362914
 30
0.0
 10
-35.2770733435
 20
-33.0518952583
 30
0.0
 10
-35.678007731
 20
-33.7214441747
 30
0.0
 10
-36.1235291611
 20
-34.6627579607
 30
0.0
 10
-36.5053815526
 20
-35.9162609006
 30
0.0
 10
-36.6626760944
 20
-37.4804640979
 30
0.0
 10
-36.512748002
 20
-39.0457599638
 30
0.0
 10
-36.0628472281
 20
-40.5502250455
 30
0.0
 10
-35.4517712644
 20
-41.7066152432
 30
0.0
 10
-34.8378049355
 20
-42.5448061107
 30
0.0
 10
-34.1473672829
 20
-43.3175333237
 30
0.0
 10
-33.1499638484
 20
-44.1506040788
 30
0.0
 10
-32.011607019
 20
-44.7748196331
 30
0.0
 10
-31.0438977006
 20
-45.1349349689
 30
0.0
 10
-30.046510616
 20
-45.3993594135
 30
0.0
 10
-29.27236954
 20
-45.4883521853
 30
0.0
 10
-28.7573484945
 20
-45.4970919336
 30
0.0
  0
SPLINE
  5
3A8
100
AcDbEntity
  8
RACCORDO
100
AcDbSpline
 62
250
  6
CONTINUOUS
 70
0
 71
3
 72
30
 73
26
 74
0
 42
0.0000001
 43
0.0000001
 44
0.0000000001
 40
0.0
 40
0.0
 40
0.0
 40
0.0
 40
0.0312513015
 40
0.0624970126
 40
0.0937386878
 40
0.1249788797
 40
0.1873923677
 40
0.2498298756
 40
0.2810960761
 40
0.3123700901
 40
0.3436529795
 40
0.3749448449
 40
0.4374794636
 40
0.5000365973
 40
0.5625940043
 40
0.6251298676
 40
0.6564226659
 40
0.6877066143
 40
0.7189821894
 40
0.7502501795
 40
0.8126870873
 40
0.8750973235
 40
0.9063364288
 40
0.9375772228
 40
1.0
 40
1.0
 40
1.0
 40
1.0
 10
11.0392756929
 20
-45.4976143977
 30
0.0
 10
11.2980643305
 20
-45.4943333645
 30
0.0
 10
11.8156356678
 20
-45.4624719087
 30
0.0
 10
12.5832704768
 20
-45.3393687158
 30
0.0
 10
13.3355104235
 20
-45.142793225
 30
0.0
 10
14.3072533612
 20
-44.7844967117
 30
0.0
 10
15.4500474052
 20
-44.1618901248
 30
0.0
 10
16.4506976126
 20
-43.3295344427
 30
0.0
 10
17.1430707467
 20
-42.5583627118
 30
0.0
 10
17.6040925289
 20
-41.9313420406
 30
0.0
 10
18.0025107627
 20
-41.2625500809
 30
0.0
 10
18.4444183392
 20
-40.3239153631
 30
0.0
 10
18.8224646232
 20
-39.0759398093
 30
0.0
 10
18.9783080823
 20
-37.5200299952
 30
0.0
 10
18.8301927722
 20
-35.9633560006
 30
0.0
 10
18.4583566628
 20
-34.7134952055
 30
0.0
 10
18.0211096035
 20
-33.7726500665
 30
0.0
 10
17.6259938087
 20
-33.1018678283
 30
0.0
 10
17.1680775552
 20
-32.4725304601
 30
0.0
 10
16.479534364
 20
-31.6979085306
 30
0.0
 10
15.4830200043
 20
-30.8606070442
 30
0.0
 10
14.3434360677
 20
-30.2323587343
 30
0.0
 10
13.3733852171
 20
-29.86924958
 30
0.0
 10
12.3728447135
 20
-29.6022805
 30
0.0
 10
11.5959438396
 20
-29.5121146187
 30
0.0
 10
11.0790665937
 20
-29.5029894521
 30
0.0
  0
SPLINE
  5
3A9
100
AcDbEntity
  8
RACCORDO
100
AcDbSpline
 62
250
  6
CONTINUOUS
 70
0
 71
3
 72
27
 73
23
 74
0
 42
0.0000001
 43
0.0000001
 44
0.0000000001
 40
0.0
 40
0.0
 40
0.0
 40
0.0
 40
0.0628833827
 40
0.0943306571
 40
0.1257468292
 40
0.1883743293
 40
0.2508115272
 40
0.2819986266
 40
0.3131456375
 40
0.3752746814
 40
0.4373415255
 40
0.4994189187
 40
0.561570392
 40
0.6238364335
 40
0.6862344141
 40
0.7175213426
 40
0.7488402881
 40
0.8114897968
 40
0.8742402355
 40
0.9056818119
 40
0.937137156
 40
1.0
 40
1.0
 40
1.0
 40
1.0
 10
36.6469228386
 20
-37.5
 30
0.0
 10
36.6469046296
 20
-37.0116396547
 30
0.0
 10
36.573888341
 20
-36.2764192294
 30
0.0
 10
36.3352497043
 20
-35.3283034818
 30
0.0
 10
36.0052677376
 20
-34.4097541879
 30
0.0
 10
35.4265475381
 20
-33.331655648
 30
0.0
 10
34.649275748
 20
-32.3890395539
 30
0.0
 10
33.9292244469
 20
-31.7385899964
 30
0.0
 10
33.1511690972
 20
-31.1628158934
 30
0.0
 10
32.0794229566
 20
-30.5909018234
 30
0.0
 10
30.6865423286
 20
-30.1681285025
 30
0.0
 10
29.237690634
 20
-30.0233315923
 30
0.0
 10
27.7867699443
 20
-30.1631674245
 30
0.0
 10
26.388447084
 20
-30.5827705748
 30
0.0
 10
25.311077084
 20
-31.1544134869
 30
0.0
 10
24.5286666417
 20
-31.7313851591
 30
0.0
 10
23.8049163918
 20
-32.3833704135
 30
0.0
 10
23.0245730893
 20
-33.3282716678
 30
0.0
 10
22.4442688254
 20
-34.4087547597
 30
0.0
 10
22.1138886302
 20
-35.3284548012
 30
0.0
 10
21.8752410863
 20
-36.2766726663
 30
0.0
 10
21.8022729713
 20
-37.0117991601
 30
0.0
 10
21.8022716792
 20
-37.5
 30
0.0
  0
SPLINE
  5
3AA
100
AcDbEntity
  8
RACCORDO
100
AcDbSpline
 62
250
  6
CONTINUOUS
 70
0
 71
3
 72
27
 73
23
 74
0
 42
0.0000001
 43
0.0000001
 44
0.0000000001
 40
0.0
 40
0.0
 40
0.0
 40
0.0
 40
0.0628563647
 40
0.0943102241
 40
0.1257510543
 40
0.1884990037
 40
0.2511501731
 40
0.2824714145
 40
0.3137613163
 40
0.3761657528
 40
0.438435568
 40
0.5005869815
 40
0.5626639827
 40
0.624730423
 40
0.6868587342
 40
0.7180054044
 40
0.749192027
 40
0.8116281477
 40
0.8742547619
 40
0.9056696946
 40
0.9371161184
 40
1.0
 40
1.0
 40
1.0
 40
1.0
 10
21.8022716792
 20
-37.5
 30
0.0
 10
21.8022720342
 20
-37.9881504753
 30
0.0
 10
21.8752313825
 20
-38.7232137275
 30
0.0
 10
22.113837643
 20
-39.6713718478
 30
0.0
 10
22.4441791145
 20
-40.5910463461
 30
0.0
 10
23.0244440304
 20
-41.6715389366
 30
0.0
 10
23.8047782533
 20
-42.6164559822
 30
0.0
 10
24.5285198074
 20
-43.2685361476
 30
0.0
 10
25.3110543473
 20
-43.8454903902
 30
0.0
 10
26.3884506405
 20
-44.4173040243
 30
0.0
 10
27.7868924414
 20
-44.8368014763
 30
0.0
 10
29.2378270431
 20
-44.9767335151
 30
0.0
 10
30.686664641
 20
-44.8318038421
 30
0.0
 10
32.0795337287
 20
-44.4090645479
 30
0.0
 10
33.1512677406
 20
-43.8371392786
 30
0.0
 10
33.9292883719
 20
-43.2613396375
 30
0.0
 10
34.6493239051
 20
-42.6108969581
 30
0.0
 10
35.4266007332
 20
-41.6683064144
 30
0.0
 10
36.0052693768
 20
-40.5902087341
 30
0.0
 10
36.3352547943
 20
-39.6716863247
 30
0.0
 10
36.5738875223
 20
-38.7235813763
 30
0.0
 10
36.6469038805
 20
-37.988364175
 30
0.0
 10
36.6469228386
 20
-37.5
 30
0.0
  0
SPLINE
  5
3AB
100
AcDbEntity
  8
RACCORDO
100
AcDbSpline
 62
250
  6
CONTINUOUS
 70
0
 71
3
 72
14
 73
10
 74
0
 42
0.0000001
 43
0.0000001
 44
0.0000000001
 40
0.0
 40
0.0
 40
0.0
 40
0.0
 40
0.3710793838
 40
0.6874627626
 40
0.8104954335
 40
0.9041186234
 40
0.9391763795
 40
0.966342363
 40
1.0
 40
1.0
 40
1.0
 40
1.0
 10
-28.7206781861
 20
-44.7849901814
 30
0.0
 10
-28.7206788968
 20
-44.8484636409
 30
0.0
 10
-28.7175115224
 20
-44.9660693415
 30
0.0
 10
-28.7058879449
 20
-45.1043525351
 30
0.0
 10
-28.6909757038
 20
-45.1944176749
 30
0.0
 10
-28.6808894638
 20
-45.2362258818
 30
0.0
 10
-28.6713148261
 20
-45.2614150484
 30
0.0
 10
-28.6640415436
 20
-45.2755368209
 30
0.0
 10
-28.6557271236
 20
-45.2846155416
 30
0.0
 10
-28.6499809225
 20
-45.2849707402
 30
0.0
  0
SPLINE
  5
3AC
100
AcDbEntity
  8
RACCORDO
100
AcDbSpline
 62
250
  6
CONTINUOUS
 70
0
 71
3
 72
14
 73
10
 74
0
 42
0.0000001
 43
0.0000001
 44
0.0000000001
 40
0.0
 40
0.0
 40
0.0
 40
0.0
 40
0.3710793826
 40
0.6874627605
 40
0.8104954311
 40
0.904118621
 40
0.9391763773
 40
0.9663423612
 40
1.0
 40
1.0
 40
1.0
 40
1.0
 10
-28.7206781861
 20
-30.2150098186
 30
0.0
 10
-28.7206788977
 20
-30.1515363591
 30
0.0
 10
-28.7175115246
 20
-30.0339306586
 30
0.0
 10
-28.7058879479
 20
-29.8956474648
 30
0.0
 10
-28.6909757066
 20
-29.805582325
 30
0.0
 10
-28.6808894661
 20
-29.7637741181
 30
0.0
 10
-28.6713148278
 20
-29.7385849516
 30
0.0
 10
-28.6640415447
 20
-29.7244631787
 30
0.0
 10
-28.655727124
 20
-29.7153844584
 30
0.0
 10
-28.6499809226
 20
-29.7150292598
 30
0.0
  0
SPLINE
  5
3AD
100
AcDbEntity
  8
RACCORDO
100
AcDbSpline
 62
250
  6
CONTINUOUS
 70
0
 71
3
 72
17
 73
13
 74
0
 42
0.0000001
 43
0.0000001
 44
0.0000000001
 40
0.0
 40
0.0
 40
0.0
 40
0.0
 40
0.1926622776
 40
0.3783908188
 40
0.549567006
 40
0.6999500448
 40
0.8239707127
 40
0.9169240322
 40
0.9507096219
 40
0.975645893
 40
0.9917850317
 40
1.0
 40
1.0
 40
1.0
 40
1.0
 10
10.9808408983
 20
-30.2148838723
 30
0.0
 10
10.9808410548
 20
-30.1825738821
 30
0.0
 10
10.9804588488
 20
-30.1191163599
 30
0.0
 10
10.9787686531
 20
-30.0269640698
 30
0.0
 10
10.9760245113
 20
-29.9419361607
 30
0.0
 10
10.9723496515
 20
-29.8672828593
 30
0.0
 10
10.9679357675
 20
-29.8058667296
 30
0.0
 10
10.9634713992
 20
-29.7639507285
 30
0.0
 10
10.9594398358
 20
-29.7389392333
 30
0.0
 10
10.9565270069
 20
-29.7265091606
 30
0.0
 10
10.9540724137
 20
-29.7190225282
 30
0.0
 10
10.9513560935
 20
-29.7150946318
 30
0.0
 10
10.9499918158
 20
-29.7149029861
 30
0.0
  0
SPLINE
  5
3AE
100
AcDbEntity
  8
RACCORDO
100
AcDbSpline
 62
250
  6
CONTINUOUS
 70
0
 71
3
 72
17
 73
13
 74
0
 42
0.0000001
 43
0.0000001
 44
0.0000000001
 40
0.0
 40
0.0
 40
0.0
 40
0.0
 40
0.1926622564
 40
0.378390777
 40
0.5495669435
 40
0.6999499641
 40
0.8239706196
 40
0.9169239358
 40
0.9507095298
 40
0.9756458121
 40
0.9917849746
 40
1.0
 40
1.0
 40
1.0
 40
1.0
 10
10.9808408983
 20
-44.7851161277
 30
0.0
 10
10.9808410827
 20
-44.8174261179
 30
0.0
 10
10.9804589256
 20
-44.8808836404
 30
0.0
 10
10.9787687846
 20
-44.973035931
 30
0.0
 10
10.9760246776
 20
-45.0580638408
 30
0.0
 10
10.9723498307
 20
-45.1327171422
 30
0.0
 10
10.9679359381
 20
-45.1941332735
 30
0.0
 10
10.9634715431
 20
-45.2360492726
 30
0.0
 10
10.9594399457
 20
-45.261060771
 30
0.0
 10
10.9565270865
 20
-45.2734908391
 30
0.0
 10
10.9540724642
 20
-45.2809774907
 30
0.0
 10
10.9513561036
 20
-45.2849053694
 30
0.0
 10
10.9499918158
 20
-45.2850970139
 30
0.0
  0
SPLINE
  5
3AF
100
AcDbEntity
  8
RACCORDO
100
AcDbSpline
 62
250
  6
CONTINUOUS
 70
0
 71
3
 72
13
 73
9
 74
0
 42
0.0000001
 43
0.0000001
 44
0.0000000001
 40
0.0
 40
0.0
 40
0.0
 40
0.0
 40
0.3709659029
 40
0.6873822906
 40
0.8103132613
 40
0.9040523336
 40
0.9661877585
 40
1.0
 40
1.0
 40
1.0
 40
1.0
 10
-28.6214947287
 20
-45.4982440572
 30
0.0
 10
-28.6214946954
 20
-45.4728574204
 30
0.0
 10
-28.6227384732
 20
-45.4258322704
 30
0.0
 10
-28.6275326911
 20
-45.3704557975
 30
0.0
 10
-28.6333776938
 20
-45.3345267883
 30
0.0
 10
-28.6382082236
 20
-45.3158228574
 30
0.0
 10
-28.6425557943
 20
-45.3040252207
 30
0.0
 10
-28.647688218
 20
-45.2983934855
 30
0.0
 10
-28.649997781
 20
-45.2982518337
 30
0.0
  0
SPLINE
  5
3B0
100
AcDbEntity
  8
RACCORDO
100
AcDbSpline
 62
250
  6
CONTINUOUS
 70
0
 71
3
 72
13
 73
9
 74
0
 42
0.0000001
 43
0.0000001
 44
0.0000000001
 40
0.0
 40
0.0
 40
0.0
 40
0.0
 40
0.3709659068
 40
0.6873822977
 40
0.8103132691
 40
0.9040523411
 40
0.9661877643
 40
1.0
 40
1.0
 40
1.0
 40
1.0
 10
-28.6214947287
 20
-29.5017559428
 30
0.0
 10
-28.6214946965
 20
-29.5271425797
 30
0.0
 10
-28.622738476
 20
-29.5741677297
 30
0.0
 10
-28.6275326948
 20
-29.6295442026
 30
0.0
 10
-28.6333776973
 20
-29.6654732116
 30
0.0
 10
-28.6382082264
 20
-29.6841771426
 30
0.0
 10
-28.642555796
 20
-29.6959747786
 30
0.0
 10
-28.6476882184
 20
-29.7016065145
 30
0.0
 10
-28.649997781
 20
-29.7017481663
 30
0.0
  0
SPLINE
  5
3B1
100
AcDbEntity
  8
RACCORDO
100
AcDbSpline
 62
250
  6
CONTINUOUS
 70
0
 71
3
 72
15
 73
11
 74
0
 42
0.0000001
 43
0.0000001
 44
0.0000000001
 40
0.0
 40
0.0
 40
0.0
 40
0.0
 40
0.3783259439
 40
0.5495966147
 40
0.6999525338
 40
0.8238655808
 40
0.9169125076
 40
0.9755783002
 40
0.9917504111
 40
1.0
 40
1.0
 40
1.0
 40
1.0
 10
10.9375616184
 20
-29.5017411763
 30
0.0
 10
10.937561604
 20
-29.5271206589
 30
0.0
 10
10.9379783485
 20
-29.5639892967
 30
0.0
 10
10.9395058539
 20
-29.6109296546
 30
0.0
 10
10.9409805815
 20
-29.6407634573
 30
0.0
 10
10.9427745203
 20
-29.6653985116
 30
0.0
 10
10.9447238195
 20
-29.6836533126
 30
0.0
 10
10.9466885535
 20
-29.6950101036
 30
0.0
 10
10.9483582376
 20
-29.700086416
 30
0.0
 10
10.9494509339
 20
-29.701657135
 30
0.0
 10
10.949999048
 20
-29.7017335307
 30
0.0
  0
SPLINE
  5
3B2
100
AcDbEntity
  8
RACCORDO
100
AcDbSpline
 62
250
  6
CONTINUOUS
 70
0
 71
3
 72
15
 73
11
 74
0
 42
0.0000001
 43
0.0000001
 44
0.0000000001
 40
0.0
 40
0.0
 40
0.0
 40
0.0
 40
0.3783259462
 40
0.549596618
 40
0.6999525378
 40
0.8238655851
 40
0.9169125118
 40
0.9755783037
 40
0.9917504135
 40
1.0
 40
1.0
 40
1.0
 40
1.0
 10
10.9375616184
 20
-45.4982588237
 30
0.0
 10
10.937561605
 20
-45.4728793411
 30
0.0
 10
10.9379783505
 20
-45.4360107033
 30
0.0
 10
10.9395058567
 20
-45.3890703453
 30
0.0
 10
10.9409805845
 20
-45.3592365426
 30
0.0
 10
10.9427745231
 20
-45.3346014883
 30
0.0
 10
10.9447238219
 20
-45.3163466875
 30
0.0
 10
10.9466885551
 20
-45.3049898964
 30
0.0
 10
10.9483582384
 20
-45.2999135843
 30
0.0
 10
10.9494509341
 20
-45.298342865
 30
0.0
 10
10.949999048
 20
-45.2982664693
 30
0.0
  0
SPLINE
  5
3B3
100
AcDbEntity
  8
RACCORDO
100
AcDbSpline
 62
250
  6
CONTINUOUS
 70
0
 71
3
 72
29
 73
25
 74
0
 42
0.0000001
 43
0.0000001
 44
0.0000000001
 40
0.0
 40
0.0
 40
0.0
 40
0.0
 40
0.0312560569
 40
0.062506915
 40
0.0937540032
 40
0.1249998282
 40
0.1874208485
 40
0.2498556985
 40
0.2811200372
 40
0.3123931492
 40
0.3748952602
 40
0.4374355792
 40
0.4999982733
 40
0.5625610603
 40
0.6251013892
 40
0.6876034058
 40
0.7188768061
 40
0.7501419066
 40
0.8125776811
 40
0.8749996667
 40
0.906245579
 40
0.9374928474
 40
0.9687438439
 40
1.0
 40
1.0
 40
1.0
 40
1.0
 10
10.9808408983
 20
-44.7851161277
 30
0.0
 10
11.2193200106
 20
-44.7851149317
 30
0.0
 10
11.696581004
 20
-44.7618180497
 30
0.0
 10
12.4052371522
 20
-44.6568178467
 30
0.0
 10
13.1004782441
 20
-44.483793798
 30
0.0
 10
13.9995148151
 20
-44.1636148023
 30
0.0
 10
15.058354326
 20
-43.6006992081
 30
0.0
 10
15.9870450915
 20
-42.8418568455
 30
0.0
 10
16.6301208045
 20
-42.1359983465
 30
0.0
 10
17.2009705898
 20
-41.3699504769
 30
0.0
 10
17.7698207975
 20
-40.312161682
 30
0.0
 10
18.1897571672
 20
-38.934219621
 30
0.0
 10
18.3321813587
 20
-37.5000396247
 30
0.0
 10
18.1897743571
 20
-36.0658581651
 30
0.0
 10
17.7698537873
 20
-34.6879100555
 30
0.0
 10
17.2010061703
 20
-33.6301195271
 30
0.0
 10
16.630171523
 20
-32.8640509835
 30
0.0
 10
15.9870819866
 20
-32.1581841798
 30
0.0
 10
15.0583838047
 20
-31.399319628
 30
0.0
 10
13.9995304576
 20
-30.8363968774
 30
0.0
 10
13.1004869738
 20
-30.5162088635
 30
0.0
 10
12.4052418557
 20
-30.3431886384
 30
0.0
 10
11.6965839392
 20
-30.238178868
 30
0.0
 10
11.2193207672
 20
-30.2148851066
 30
0.0
 10
10.9808408983
 20
-30.2148838723
 30
0.0
  0
SPLINE
  5
3B4
100
AcDbEntity
  8
RACCORDO
100
AcDbSpline
 62
250
  6
CONTINUOUS
 70
0
 71
3
 72
31
 73
27
 74
0
 42
0.0000001
 43
0.0000001
 44
0.0000000001
 40
0.0
 40
0.0
 40
0.0
 40
0.0
 40
0.0311366276
 40
0.0622636817
 40
0.0933877373
 40
0.1245166843
 40
0.1867480295
 40
0.2490870429
 40
0.2803471806
 40
0.3116470919
 40
0.3429873715
 40
0.3743659885
 40
0.4371431361
 40
0.4999971336
 40
0.5628512742
 40
0.6256283066
 40
0.6570070039
 40
0.6883472789
 40
0.7196471146
 40
0.7509073396
 40
0.8132462042
 40
0.875480369
 40
0.9066107974
 40
0.9377356646
 40
0.9688631066
 40
1.0
 40
1.0
 40
1.0
 40
1.0
 10
-28.7206781861
 20
-30.2150098186
 30
0.0
 10
-28.9582758375
 20
-30.2150125788
 30
0.0
 10
-29.4337340444
 20
-30.2381725009
 30
0.0
 10
-30.1397653141
 20
-30.3423418862
 30
0.0
 10
-30.8325412581
 20
-30.5140952381
 30
0.0
 10
-31.7290007948
 20
-30.8320648353
 30
0.0
 10
-32.7861040003
 20
-31.3918266426
 30
0.0
 10
-33.7149432701
 20
-32.1472330881
 30
0.0
 10
-34.3591718902
 20
-32.8513544376
 30
0.0
 10
-34.7894297568
 20
-33.4258165637
 30
0.0
 10
-35.1616422235
 20
-34.0405579989
 30
0.0
 10
-35.5750542087
 20
-34.9057901841
 30
0.0
 10
-35.9286462632
 20
-36.059452869
 30
0.0
 10
-36.0720664483
 20
-37.4999365988
 30
0.0
 10
-35.9286640865
 20
-38.9404180288
 30
0.0
 10
-35.5751171407
 20
-40.0940970157
 30
0.0
 10
-35.161703028
 20
-40.9593280545
 30
0.0
 10
-34.7895039268
 20
-41.5740776809
 30
0.0
 10
-34.3592452838
 20
-42.1485386402
 30
0.0
 10
-33.7150530026
 20
-42.852691772
 30
0.0
 10
-32.7861920969
 20
-43.6081086101
 30
0.0
 10
-31.7290736294
 20
-44.1679065126
 30
0.0
 10
-30.8325789034
 20
-44.4858959396
 30
0.0
 10
-30.1397828602
 20
-44.6576527702
 30
0.0
 10
-29.4337412541
 20
-44.7618289824
 30
0.0
 10
-28.9582778653
 20
-44.7849873721
 30
0.0
 10
-28.7206781861
 20
-44.7849901814
 30
0.0
  0
SPLINE
  5
3B5
100
AcDbEntity
  8
RACCORDO
100
AcDbSpline
 62
250
  6
CONTINUOUS
 70
0
 71
3
 72
25
 73
21
 74
0
 42
0.0000001
 43
0.0000001
 44
0.0000000001
 40
0.0
 40
0.0
 40
0.0
 40
0.0
 40
0.0628543986
 40
0.125631178
 40
0.1882631773
 40
0.2507150379
 40
0.3129941569
 40
0.3751446924
 40
0.4372324204
 40
0.4993269725
 40
0.5614898065
 40
0.6237657615
 40
0.6861787252
 40
0.7174762457
 40
0.748808229
 40
0.8114857377
 40
0.8742523342
 40
0.9056970059
 40
0.9371518763
 40
1.0
 40
1.0
 40
1.0
 40
1.0
 10
36.314872742
 20
-37.5
 30
0.0
 10
36.314866587
 20
-37.0383660546
 30
0.0
 10
36.2229040635
 20
-36.1131077484
 30
0.0
 10
35.8164997228
 20
-34.7825134086
 30
0.0
 10
35.1581589974
 20
-33.5596133182
 30
0.0
 10
34.2757511148
 20
-32.4922267308
 30
0.0
 10
33.2056789335
 20
-31.6187461799
 30
0.0
 10
31.9886295366
 20
-30.9711256381
 30
0.0
 10
30.6704706926
 20
-30.5722363908
 30
0.0
 10
29.2999912317
 20
-30.4355828507
 30
0.0
 10
27.9275498574
 20
-30.5673522739
 30
0.0
 10
26.604571155
 20
-30.9630433476
 30
0.0
 10
25.5847837306
 20
-31.5024265741
 30
0.0
 10
24.8437491943
 20
-32.0470558925
 30
0.0
 10
24.1580922074
 20
-32.6628810264
 30
0.0
 10
23.4185061215
 20
-33.5557056297
 30
0.0
 10
22.8682106583
 20
-34.5771578744
 30
0.0
 10
22.5549498961
 20
-35.4467882819
 30
0.0
 10
22.3286951511
 20
-36.3432970411
 30
0.0
 10
22.259494317
 20
-37.0384121406
 30
0.0
 10
22.2594948486
 20
-37.5
 30
0.0
  0
SPLINE
  5
3B6
100
AcDbEntity
  8
RACCORDO
100
AcDbSpline
 62
250
  6
CONTINUOUS
 70
0
 71
3
 72
25
 73
21
 74
0
 42
0.0000001
 43
0.0000001
 44
0.0000000001
 40
0.0
 40
0.0
 40
0.0
 40
0.0
 40
0.0628634137
 40
0.1257021897
 40
0.1884810675
 40
0.2511622961
 40
0.3137164321
 40
0.3761296252
 40
0.4384061237
 40
0.5005694635
 40
0.5626641303
 40
0.6247517735
 40
0.6869024929
 40
0.718059812
 40
0.7492563145
 40
0.8117046376
 40
0.8743241553
 40
0.9057282761
 40
0.9371612689
 40
1.0
 40
1.0
 40
1.0
 40
1.0
 10
22.2594948486
 20
-37.5
 30
0.0
 10
22.2595007746
 20
-37.9616996054
 30
0.0
 10
22.3515245992
 20
-38.8874806575
 30
0.0
 10
22.7585820331
 20
-40.2195748997
 30
0.0
 10
23.4190204742
 20
-41.4450712325
 30
0.0
 10
24.3056633876
 20
-42.5152863636
 30
0.0
 10
25.38179727
 20
-43.3904239522
 30
0.0
 10
26.605395292
 20
-44.0373169863
 30
0.0
 10
27.9286384885
 20
-44.4328304765
 30
0.0
 10
29.301037086
 20
-44.5644160848
 30
0.0
 10
30.6715672729
 20
-44.4275746737
 30
0.0
 10
31.9894709384
 20
-44.0285068018
 30
0.0
 10
33.0038836176
 20
-43.4884659961
 30
0.0
 10
33.7406074254
 20
-42.94467612
 30
0.0
 10
34.4224932153
 20
-42.3302289673
 30
0.0
 10
35.1586878178
 20
-41.4395905453
 30
0.0
 10
35.7070486267
 20
-40.4206395985
 30
0.0
 10
36.0196404653
 20
-39.552410418
 30
0.0
 10
36.2457034575
 20
-38.6564013402
 30
0.0
 10
36.3148732372
 20
-37.9615183247
 30
0.0
 10
36.314872742
 20
-37.5
 30
0.0
  0
SPLINE
  5
3B7
100
AcDbEntity
  8
RACCORDO
100
AcDbSpline
 62
250
  6
CONTINUOUS
 70
0
 71
3
 72
27
 73
23
 74
0
 42
0.0000001
 43
0.0000001
 44
0.0000000001
 40
0.0
 40
0.0
 40
0.0
 40
0.0
 40
0.0628472672
 40
0.0942814359
 40
0.1256837432
 40
0.1882891779
 40
0.250714686
 40
0.2819022042
 40
0.313054255
 40
0.3752040398
 40
0.437297257
 40
0.4993976764
 40
0.5615645068
 40
0.6238383324
 40
0.6862381461
 40
0.717524129
 40
0.7488415037
 40
0.8114890022
 40
0.8742386322
 40
0.9056806841
 40
0.9371366814
 40
1.0
 40
1.0
 40
1.0
 40
1.0
 10
36.1782054562
 20
-37.5
 30
0.0
 10
36.1782043026
 20
-37.9525972139
 30
0.0
 10
36.1105332696
 20
-38.6340547916
 30
0.0
 10
35.8885476854
 20
-39.5126143957
 30
0.0
 10
35.5817174907
 20
-40.3637117321
 30
0.0
 10
35.0440548263
 20
-41.3624952816
 30
0.0
 10
34.3223616066
 20
-42.2355340707
 30
0.0
 10
33.6537255467
 20
-42.8376067293
 30
0.0
 10
32.931225919
 20
-43.3704683219
 30
0.0
 10
31.9364938657
 20
-43.8998240774
 30
0.0
 10
30.6441300221
 20
-44.2910739321
 30
0.0
 10
29.3001542972
 20
-44.4249443293
 30
0.0
 10
27.9543747496
 20
-44.2958907285
 30
0.0
 10
26.6572278419
 20
-43.9078654029
 30
0.0
 10
25.6574409181
 20
-43.3791660453
 30
0.0
 10
24.9308730733
 20
-42.8455632726
 30
0.0
 10
24.2586575881
 20
-42.2422160933
 30
0.0
 10
23.5337183198
 20
-41.3671214821
 30
0.0
 10
22.9941701657
 20
-40.3659707521
 30
0.0
 10
22.6866818396
 20
-39.5135298896
 30
0.0
 10
22.4644819257
 20
-38.6344452554
 30
0.0
 10
22.3967673755
 20
-37.9527128089
 30
0.0
 10
22.396765334
 20
-37.5
 30
0.0
  0
SPLINE
  5
3B8
100
AcDbEntity
  8
RACCORDO
100
AcDbSpline
 62
7
  6
CONTINUOUS
 70
0
 71
3
 72
18
 73
14
 74
0
 42
0.0000001
 43
0.0000001
 44
0.0000000001
 40
0.0
 40
0.0
 40
0.0
 40
0.0
 40
0.0059933301
 40
0.0212987152
 40
0.0458721477
 40
0.0795487052
 40
0.1219724652
 40
0.1727094812
 40
0.2972207447
 40
0.4482518465
 40
0.6201582086
 40
0.8066159026
 40
1.0
 40
1.0
 40
1.0
 40
1.0
 10
25.8601529877
 20
-31.9518983356
 30
0.0
 10
25.8599354604
 20
-31.9522354716
 30
0.0
 10
25.8608054347
 20
-31.9537762368
 30
0.0
 10
25.8615728969
 20
-31.956467709
 30
0.0
 10
25.8637748043
 20
-31.9610547061
 30
0.0
 10
25.8665205482
 20
-31.9671332147
 30
0.0
 10
25.8702054178
 20
-31.9748128177
 30
0.0
 10
25.8765502831
 20
-31.9879174236
 30
0.0
 10
25.886252727
 20
-32.0074958695
 30
0.0
 10
25.8997067989
 20
-32.034255278
 30
0.0
 10
25.915174113
 20
-32.064648369
 30
0.0
 10
25.9320531504
 20
-32.097502485
 30
0.0
 10
25.9437514797
 20
-32.120080331
 30
0.0
 10
25.9497265749
 20
-32.1315650243
 30
0.0
  0
SPLINE
  5
3B9
100
AcDbEntity
  8
RACCORDO
100
AcDbSpline
 62
7
  6
CONTINUOUS
 70
0
 71
3
 72
18
 73
14
 74
0
 42
0.0000001
 43
0.0000001
 44
0.0000000001
 40
0.0
 40
0.0
 40
0.0
 40
0.0
 40
0.1933840974
 40
0.3798417914
 40
0.5517481535
 40
0.7027792553
 40
0.8272905188
 40
0.8780275348
 40
0.9204512948
 40
0.9541278523
 40
0.9787012848
 40
0.9940066699
 40
1.0
 40
1.0
 40
1.0
 40
1.0
 10
26.7481347545
 20
-31.7161804089
 30
0.0
 10
26.7421596593
 20
-31.7046957156
 30
0.0
 10
26.7303855343
 20
-31.6821573036
 30
0.0
 10
26.7131699179
 20
-31.6494782982
 30
0.0
 10
26.6971593072
 20
-31.619367866
 30
0.0
 10
26.6829687174
 20
-31.5929916426
 30
0.0
 10
26.6725051744
 20
-31.5738091707
 30
0.0
 10
26.6654157997
 20
-31.5610919077
 30
0.0
 10
26.6612421093
 20
-31.5536666215
 30
0.0
 10
26.6578404985
 20
-31.5479293381
 30
0.0
 10
26.6553481142
 20
-31.5434934663
 30
0.0
 10
26.653584617
 20
-31.5413201972
 30
0.0
 10
26.6528222493
 20
-31.539723448
 30
0.0
 10
26.6524213223
 20
-31.5397080727
 30
0.0
  0
SPLINE
  5
3BA
100
AcDbEntity
  8
RACCORDO
100
AcDbSpline
 62
7
  6
CONTINUOUS
 70
0
 71
3
 72
18
 73
14
 74
0
 42
0.0000001
 43
0.0000001
 44
0.0000000001
 40
0.0
 40
0.0
 40
0.0
 40
0.0
 40
0.0059933301
 40
0.0212987152
 40
0.0458721477
 40
0.0795487052
 40
0.1219724652
 40
0.1727094812
 40
0.2972207447
 40
0.4482518465
 40
0.6201582086
 40
0.8066159026
 40
1.0
 40
1.0
 40
1.0
 40
1.0
 10
31.8475786777
 20
-31.5397080727
 30
0.0
 10
31.8471777507
 20
-31.539723448
 30
0.0
 10
31.846415383
 20
-31.5413201972
 30
0.0
 10
31.8446518858
 20
-31.5434934663
 30
0.0
 10
31.8421595015
 20
-31.5479293381
 30
0.0
 10
31.8387578907
 20
-31.5536666215
 30
0.0
 10
31.8345842003
 20
-31.5610919077
 30
0.0
 10
31.8274948256
 20
-31.5738091707
 30
0.0
 10
31.8170312826
 20
-31.5929916426
 30
0.0
 10
31.8028406928
 20
-31.619367866
 30
0.0
 10
31.7868300821
 20
-31.6494782982
 30
0.0
 10
31.7696144657
 20
-31.6821573036
 30
0.0
 10
31.7578403407
 20
-31.7046957156
 30
0.0
 10
31.7518652455
 20
-31.7161804089
 30
0.0
  0
SPLINE
  5
3BB
100
AcDbEntity
  8
RACCORDO
100
AcDbSpline
 62
7
  6
CONTINUOUS
 70
0
 71
3
 72
18
 73
14
 74
0
 42
0.0000001
 43
0.0000001
 44
0.0000000001
 40
0.0
 40
0.0
 40
0.0
 40
0.0
 40
0.1933840974
 40
0.3798417914
 40
0.5517481535
 40
0.7027792553
 40
0.8272905188
 40
0.8780275348
 40
0.9204512948
 40
0.9541278523
 40
0.9787012848
 40
0.9940066699
 40
1.0
 40
1.0
 40
1.0
 40
1.0
 10
32.5502734251
 20
-32.1315650243
 30
0.0
 10
32.5562485203
 20
-32.120080331
 30
0.0
 10
32.5679468496
 20
-32.097502485
 30
0.0
 10
32.584825887
 20
-32.064648369
 30
0.0
 10
32.6002932011
 20
-32.034255278
 30
0.0
 10
32.613747273
 20
-32.0074958695
 30
0.0
 10
32.6234497169
 20
-31.9879174236
 30
0.0
 10
32.6297945822
 20
-31.9748128177
 30
0.0
 10
32.6334794518
 20
-31.9671332147
 30
0.0
 10
32.6362251957
 20
-31.9610547061
 30
0.0
 10
32.6384271031
 20
-31.956467709
 30
0.0
 10
32.6391945653
 20
-31.9537762368
 30
0.0
 10
32.6400645396
 20
-31.9522354716
 30
0.0
 10
32.6398470123
 20
-31.9518983356
 30
0.0
  0
SPLINE
  5
3BC
100
AcDbEntity
  8
RACCORDO
100
AcDbSpline
 62
7
  6
CONTINUOUS
 70
0
 71
3
 72
18
 73
14
 74
0
 42
0.0000001
 43
0.0000001
 44
0.0000000001
 40
0.0
 40
0.0
 40
0.0
 40
0.0
 40
0.0059933301
 40
0.0212987152
 40
0.0458721477
 40
0.0795487052
 40
0.1219724652
 40
0.1727094812
 40
0.2972207447
 40
0.4482518465
 40
0.6201582086
 40
0.8066159026
 40
1.0
 40
1.0
 40
1.0
 40
1.0
 10
26.6524213223
 20
-43.4602919273
 30
0.0
 10
26.6528222493
 20
-43.460276552
 30
0.0
 10
26.653584617
 20
-43.4586798028
 30
0.0
 10
26.6553481142
 20
-43.4565065337
 30
0.0
 10
26.6578404985
 20
-43.4520706619
 30
0.0
 10
26.6612421093
 20
-43.4463333785
 30
0.0
 10
26.6654157997
 20
-43.4389080923
 30
0.0
 10
26.6725051744
 20
-43.4261908293
 30
0.0
 10
26.6829687174
 20
-43.4070083574
 30
0.0
 10
26.6971593072
 20
-43.380632134
 30
0.0
 10
26.7131699179
 20
-43.3505217018
 30
0.0
 10
26.7303855343
 20
-43.3178426964
 30
0.0
 10
26.7421596593
 20
-43.2953042844
 30
0.0
 10
26.7481347545
 20
-43.2838195911
 30
0.0
  0
SPLINE
  5
3BD
100
AcDbEntity
  8
RACCORDO
100
AcDbSpline
 62
7
  6
CONTINUOUS
 70
0
 71
3
 72
18
 73
14
 74
0
 42
0.0000001
 43
0.0000001
 44
0.0000000001
 40
0.0
 40
0.0
 40
0.0
 40
0.0
 40
0.1933840974
 40
0.3798417914
 40
0.5517481535
 40
0.7027792553
 40
0.8272905188
 40
0.8780275348
 40
0.9204512948
 40
0.9541278523
 40
0.9787012848
 40
0.9940066699
 40
1.0
 40
1.0
 40
1.0
 40
1.0
 10
31.7518652455
 20
-43.2838195911
 30
0.0
 10
31.7578403407
 20
-43.2953042844
 30
0.0
 10
31.7696144657
 20
-43.3178426964
 30
0.0
 10
31.7868300821
 20
-43.3505217018
 30
0.0
 10
31.8028406928
 20
-43.380632134
 30
0.0
 10
31.8170312826
 20
-43.4070083574
 30
0.0
 10
31.8274948256
 20
-43.4261908293
 30
0.0
 10
31.8345842003
 20
-43.4389080923
 30
0.0
 10
31.8387578907
 20
-43.4463333785
 30
0.0
 10
31.8421595015
 20
-43.4520706619
 30
0.0
 10
31.8446518858
 20
-43.4565065337
 30
0.0
 10
31.846415383
 20
-43.4586798028
 30
0.0
 10
31.8471777507
 20
-43.460276552
 30
0.0
 10
31.8475786777
 20
-43.4602919273
 30
0.0
  0
SPLINE
  5
3BE
100
AcDbEntity
  8
RACCORDO
100
AcDbSpline
 62
7
  6
CONTINUOUS
 70
0
 71
3
 72
18
 73
14
 74
0
 42
0.0000001
 43
0.0000001
 44
0.0000000001
 40
0.0
 40
0.0
 40
0.0
 40
0.0
 40
0.1933840974
 40
0.3798417914
 40
0.5517481535
 40
0.7027792553
 40
0.8272905188
 40
0.8780275348
 40
0.9204512948
 40
0.9541278523
 40
0.9787012848
 40
0.9940066699
 40
1.0
 40
1.0
 40
1.0
 40
1.0
 10
22.9643497736
 20
-37.05
 30
0.0
 10
22.9514037339
 20
-37.05
 30
0.0
 10
22.9259752418
 20
-37.0500427201
 30
0.0
 10
22.8890393669
 20
-37.0502324233
 30
0.0
 10
22.8549382816
 20
-37.0505386369
 30
0.0
 10
22.8249898981
 20
-37.0509537542
 30
0.0
 10
22.8031434123
 20
-37.051382726
 30
0.0
 10
22.7885896523
 20
-37.0518023475
 30
0.0
 10
22.7800762123
 20
-37.0520778574
 30
0.0
 10
22.7734165781
 20
-37.052447518
 30
0.0
 10
22.7683310954
 20
-37.052611237
 30
0.0
 10
22.7655892227
 20
-37.0531726238
 30
0.0
 10
22.7638208522
 20
-37.0531119745
 30
0.0
 10
22.7636221692
 20
-37.0534605485
 30
0.0
  0
SPLINE
  5
3BF
100
AcDbEntity
  8
RACCORDO
100
AcDbSpline
 62
7
  6
CONTINUOUS
 70
0
 71
3
 72
18
 73
14
 74
0
 42
0.0000001
 43
0.0000001
 44
0.0000000001
 40
0.0
 40
0.0
 40
0.0
 40
0.0
 40
0.0059933301
 40
0.0212987152
 40
0.0458721477
 40
0.0795487052
 40
0.1219724652
 40
0.1727094812
 40
0.2972207447
 40
0.4482518465
 40
0.6201582086
 40
0.8066159026
 40
1.0
 40
1.0
 40
1.0
 40
1.0
 10
35.7363778308
 20
-37.0534605485
 30
0.0
 10
35.7361791478
 20
-37.0531119745
 30
0.0
 10
35.7344107773
 20
-37.0531726238
 30
0.0
 10
35.7316689046
 20
-37.052611237
 30
0.0
 10
35.7265834219
 20
-37.052447518
 30
0.0
 10
35.7199237877
 20
-37.0520778574
 30
0.0
 10
35.7114103477
 20
-37.0518023475
 30
0.0
 10
35.6968565877
 20
-37.051382726
 30
0.0
 10
35.6750101019
 20
-37.0509537542
 30
0.0
 10
35.6450617184
 20
-37.0505386369
 30
0.0
 10
35.6109606331
 20
-37.0502324233
 30
0.0
 10
35.5740247582
 20
-37.0500427201
 30
0.0
 10
35.5485962661
 20
-37.05
 30
0.0
 10
35.5356502264
 20
-37.05
 30
0.0
  0
SPLINE
  5
3C0
100
AcDbEntity
  8
RACCORDO
100
AcDbSpline
 62
250
  6
CONTINUOUS
 70
0
 71
3
 72
27
 73
23
 74
0
 42
0.0000001
 43
0.0000001
 44
0.0000000001
 40
0.0
 40
0.0
 40
0.0
 40
0.0
 40
0.0628578319
 40
0.0943136397
 40
0.1257557674
 40
0.188505326
 40
0.2511555352
 40
0.2824760893
 40
0.31376597
 40
0.3761737009
 40
0.438452291
 40
0.5006200781
 40
0.5627196815
 40
0.6248082937
 40
0.6869503526
 40
0.7180986186
 40
0.7492830726
 40
0.8117059468
 40
0.8743114737
 40
0.9057136493
 40
0.937147704
 40
1.0
 40
1.0
 40
1.0
 40
1.0
 10
22.396765334
 20
-37.5
 30
0.0
 10
22.3967666989
 20
-37.047326707
 30
0.0
 10
22.4644726705
 20
-36.3656359238
 30
0.0
 10
22.6866457381
 20
-35.4865861367
 30
0.0
 10
22.9941193656
 20
-34.6341413718
 30
0.0
 10
23.5336579226
 20
-33.6329632515
 30
0.0
 10
24.2586138113
 20
-32.7578265057
 30
0.0
 10
24.9308793887
 20
-32.1544292766
 30
0.0
 10
25.6575369727
 20
-31.6207651414
 30
0.0
 10
26.6574496605
 20
-31.0920424007
 30
0.0
 10
27.9547059148
 20
-30.7040372422
 30
0.0
 10
29.3005298101
 20
-30.5750504357
 30
0.0
 10
30.6444626666
 20
-30.7090083492
 30
0.0
 10
31.9367225436
 20
-31.1002684294
 30
0.0
 10
32.9313303957
 20
-31.6296065502
 30
0.0
 10
33.6537424979
 20
-32.1624085803
 30
0.0
 10
34.3223287643
 20
-32.7644343065
 30
0.0
 10
35.0440034543
 20
-33.6374343605
 30
0.0
 10
35.5816747222
 20
-34.6361914373
 30
0.0
 10
35.8885157296
 20
-35.4872837181
 30
0.0
 10
36.1105242812
 20
-36.3658729785
 30
0.0
 10
36.1782036268
 20
-37.0473665739
 30
0.0
 10
36.1782054562
 20
-37.5
 30
0.0
  0
SPLINE
  5
3C1
100
AcDbEntity
  8
0
100
AcDbSpline
 62
7
  6
CONTINUOUS
 70
0
 71
3
 72
11
 73
7
 74
0
 42
0.0000001
 43
0.0000001
 44
0.0000000001
 40
0.0
 40
0.0
 40
0.0
 40
0.0
 40
0.2017255914
 40
0.4467939359
 40
0.7183196609
 40
1.0
 40
1.0
 40
1.0
 40
1.0
 10
-90.8297196727
 20
-18.1732722328
 30
0.0
 10
-90.8096866735
 20
-18.209343734
 30
0.0
 10
-90.7582748044
 20
-18.2857008504
 30
0.0
 10
-90.6495786311
 20
-18.3866376684
 30
0.0
 10
-90.5052077817
 20
-18.4668487674
 30
0.0
 10
-90.3928465638
 20
-18.4916543079
 30
0.0
 10
-90.3354094779
 20
-18.4961790379
 30
0.0
  0
SPLINE
  5
3C2
100
AcDbEntity
  8
0
100
AcDbSpline
 62
7
  6
CONTINUOUS
 70
0
 71
3
 72
11
 73
7
 74
0
 42
0.0000001
 43
0.0000001
 44
0.0000000001
 40
0.0
 40
0.0
 40
0.0
 40
0.0
 40
0.2816838571
 40
0.5531770543
 40
0.7983396685
 40
1.0
 40
1.0
 40
1.0
 40
1.0
 10
-90.3354094779
 20
-6.5038209621
 30
0.0
 10
-90.3928471678
 20
-6.5083457396
 30
0.0
 10
-90.5052037312
 20
-6.5331456111
 30
0.0
 10
-90.6495832914
 20
-6.6133686246
 30
0.0
 10
-90.7582753406
 20
-6.7143085069
 30
0.0
 10
-90.8096931939
 20
-6.7906680066
 30
0.0
 10
-90.8297196727
 20
-6.8267277672
 30
0.0
  0
SPLINE
  5
3C3
100
AcDbEntity
  8
0
100
AcDbSpline
 62
250
  6
CONTINUOUS
 70
0
 71
3
 72
25
 73
21
 74
0
 42
0.0000001
 43
0.0000001
 44
0.0000000001
 40
0.0
 40
0.0
 40
0.0
 40
0.0
 40
0.1947245347
 40
0.3820346348
 40
0.5545496988
 40
0.6332094144
 40
0.7057525823
 40
0.7714883033
 40
0.8297932475
 40
0.8800972845
 40
0.9219525801
 40
0.9395809098
 40
0.9549537596
 40
0.9680489794
 40
0.9788498595
 40
0.987349541
 40
0.9935666085
 40
0.9958504568
 40
0.9976258813
 40
1.0
 40
1.0
 40
1.0
 40
1.0
 10
-90.0729595378
 20
-12.5
 30
0.0
 10
-90.0729595378
 20
-12.109291161
 30
0.0
 10
-90.0762004219
 20
-11.3427457358
 30
0.0
 10
-90.0906527685
 20
-10.2301388817
 30
0.0
 10
-90.1107082898
 20
-9.3505406585
 30
0.0
 10
-90.1315990985
 20
-8.7013422314
 30
0.0
 10
-90.1487021264
 20
-8.2663931647
 30
0.0
 10
-90.1675381704
 20
-7.8723984135
 30
0.0
 10
-90.1878798911
 20
-7.5231639291
 30
0.0
 10
-90.2095439141
 20
-7.2220309896
 30
0.0
 10
-90.2293589727
 20
-7.0026145507
 30
0.0
 10
-90.2462020832
 20
-6.8533584707
 30
0.0
 10
-90.2582805321
 20
-6.7616520314
 30
0.0
 10
-90.2705022593
 20
-6.6838043735
 30
0.0
 10
-90.2827474336
 20
-6.619946035
 30
0.0
 10
-90.2950919755
 20
-6.5702232344
 30
0.0
 10
-90.3058892828
 20
-6.5378065839
 30
0.0
 10
-90.3154116369
 20
-6.5193375819
 30
0.0
 10
-90.3225814244
 20
-6.5088778048
 30
0.0
 10
-90.3306605131
 20
-6.5035021412
 30
0.0
 10
-90.3354094698
 20
-6.5038753218
 30
0.0
  0
SPLINE
  5
3C4
100
AcDbEntity
  8
0
100
AcDbSpline
 62
250
  6
CONTINUOUS
 70
0
 71
3
 72
31
 73
27
 74
0
 42
0.0000001
 43
0.0000001
 44
0.0000000001
 40
0.0
 40
0.0
 40
0.0
 40
0.0
 40
0.2029019638
 40
0.301764075
 40
0.3973549277
 40
0.4887151405
 40
0.5749039095
 40
0.6550305261
 40
0.7282228325
 40
0.7936977807
 40
0.850794543
 40
0.8988889064
 40
0.9194121475
 40
0.9375208215
 40
0.9531683182
 40
0.9663126456
 40
0.9769367522
 40
0.98505213
 40
0.9881841146
 40
0.990716756
 40
0.9926825008
 40
0.9941548028
 40
0.9953096062
 40
0.9964800829
 40
0.9979888836
 40
1.0
 40
1.0
 40
1.0
 40
1.0
 10
-90.5620567324
 20
-12.5
 30
0.0
 10
-90.5620567324
 20
-12.1118160555
 30
0.0
 10
-90.5646105291
 20
-11.5344881237
 30
0.0
 10
-90.573282538
 20
-10.7743319268
 30
0.0
 10
-90.5822321496
 20
-10.2275962643
 30
0.0
 10
-90.5935528507
 20
-9.7051559944
 30
0.0
 10
-90.6071455155
 20
-9.2123655477
 30
0.0
 10
-90.6228325641
 20
-8.7544135991
 30
0.0
 10
-90.6404446511
 20
-8.336191617
 30
0.0
 10
-90.6597857613
 20
-7.9621557137
 30
0.0
 10
-90.6805935428
 20
-7.6362996072
 30
0.0
 10
-90.6998043286
 20
-7.3965369498
 30
0.0
 10
-90.7161816005
 20
-7.2314212127
 30
0.0
 10
-90.7280237191
 20
-7.1282475124
 30
0.0
 10
-90.7400385962
 20
-7.0393215116
 30
0.0
 10
-90.7521674606
 20
-6.9648756202
 30
0.0
 10
-90.764379904
 20
-6.9051028582
 30
0.0
 10
-90.7752019483
 20
-6.864611826
 30
0.0
 10
-90.7843441334
 20
-6.8398649325
 30
0.0
 10
-90.7905852535
 20
-6.8266318391
 30
0.0
 10
-90.7968555632
 20
-6.8170349005
 30
0.0
 10
-90.8032711048
 20
-6.8108170278
 30
0.0
 10
-90.8106025807
 20
-6.8084921038
 30
0.0
 10
-90.8178592805
 20
-6.8112112714
 30
0.0
 10
-90.8242334458
 20
-6.8176990687
 30
0.0
 10
-90.8278537493
 20
-6.8234121333
 30
0.0
 10
-90.8297195034
 20
-6.8267770839
 30
0.0
  0
SPLINE
  5
3C5
100
AcDbEntity
  8
0
100
AcDbSpline
 62
250
  6
CONTINUOUS
 70
0
 71
3
 72
31
 73
27
 74
0
 42
0.0000001
 43
0.0000001
 44
0.0000000001
 40
0.0
 40
0.0
 40
0.0
 40
0.0
 40
0.2029019638
 40
0.301764075
 40
0.3973549277
 40
0.4887151405
 40
0.5749039095
 40
0.6550305261
 40
0.7282228325
 40
0.7936977807
 40
0.850794543
 40
0.8988889064
 40
0.9194121475
 40
0.9375208215
 40
0.9531683182
 40
0.9663126456
 40
0.9769367522
 40
0.98505213
 40
0.9881841146
 40
0.990716756
 40
0.9926825008
 40
0.9941548028
 40
0.9953096062
 40
0.9964800829
 40
0.9979888836
 40
1.0
 40
1.0
 40
1.0
 40
1.0
 10
-90.5620567324
 20
-12.5
 30
0.0
 10
-90.5620567324
 20
-12.8881839445
 30
0.0
 10
-90.5646105291
 20
-13.4655118763
 30
0.0
 10
-90.573282538
 20
-14.2256680732
 30
0.0
 10
-90.5822321496
 20
-14.7724037357
 30
0.0
 10
-90.5935528507
 20
-15.2948440056
 30
0.0
 10
-90.6071455155
 20
-15.7876344523
 30
0.0
 10
-90.6228325641
 20
-16.2455864009
 30
0.0
 10
-90.6404446511
 20
-16.663808383
 30
0.0
 10
-90.6597857613
 20
-17.0378442863
 30
0.0
 10
-90.6805935428
 20
-17.3637003928
 30
0.0
 10
-90.6998043286
 20
-17.6034630502
 30
0.0
 10
-90.7161816005
 20
-17.7685787873
 30
0.0
 10
-90.7280237191
 20
-17.8717524876
 30
0.0
 10
-90.7400385962
 20
-17.9606784884
 30
0.0
 10
-90.7521674606
 20
-18.0351243798
 30
0.0
 10
-90.764379904
 20
-18.0948971418
 30
0.0
 10
-90.7752019483
 20
-18.135388174
 30
0.0
 10
-90.7843441334
 20
-18.1601350675
 30
0.0
 10
-90.7905852535
 20
-18.1733681609
 30
0.0
 10
-90.7968555632
 20
-18.1829650995
 30
0.0
 10
-90.8032711048
 20
-18.1891829722
 30
0.0
 10
-90.8106025807
 20
-18.1915078962
 30
0.0
 10
-90.8178592805
 20
-18.1887887286
 30
0.0
 10
-90.8242334458
 20
-18.1823009313
 30
0.0
 10
-90.8278537493
 20
-18.1765878667
 30
0.0
 10
-90.8297195034
 20
-18.1732229161
 30
0.0
  0
SPLINE
  5
3C6
100
AcDbEntity
  8
0
100
AcDbSpline
 62
250
  6
CONTINUOUS
 70
0
 71
3
 72
25
 73
21
 74
0
 42
0.0000001
 43
0.0000001
 44
0.0000000001
 40
0.0
 40
0.0
 40
0.0
 40
0.0
 40
0.1947245347
 40
0.3820346348
 40
0.5545496988
 40
0.6332094144
 40
0.7057525823
 40
0.7714883033
 40
0.8297932475
 40
0.8800972845
 40
0.9219525801
 40
0.9395809098
 40
0.9549537596
 40
0.9680489794
 40
0.9788498595
 40
0.987349541
 40
0.9935666085
 40
0.9958504568
 40
0.9976258813
 40
1.0
 40
1.0
 40
1.0
 40
1.0
 10
-90.0729595378
 20
-12.5
 30
0.0
 10
-90.0729595378
 20
-12.890708839
 30
0.0
 10
-90.0762004219
 20
-13.6572542642
 30
0.0
 10
-90.0906527685
 20
-14.7698611183
 30
0.0
 10
-90.1107082898
 20
-15.6494593415
 30
0.0
 10
-90.1315990985
 20
-16.2986577686
 30
0.0
 10
-90.1487021264
 20
-16.7336068353
 30
0.0
 10
-90.1675381704
 20
-17.1276015865
 30
0.0
 10
-90.1878798911
 20
-17.4768360709
 30
0.0
 10
-90.2095439141
 20
-17.7779690104
 30
0.0
 10
-90.2293589727
 20
-17.9973854493
 30
0.0
 10
-90.2462020832
 20
-18.1466415293
 30
0.0
 10
-90.2582805321
 20
-18.2383479686
 30
0.0
 10
-90.2705022593
 20
-18.3161956265
 30
0.0
 10
-90.2827474336
 20
-18.380053965
 30
0.0
 10
-90.2950919755
 20
-18.4297767656
 30
0.0
 10
-90.3058892828
 20
-18.4621934161
 30
0.0
 10
-90.3154116369
 20
-18.4806624181
 30
0.0
 10
-90.3225814244
 20
-18.4911221952
 30
0.0
 10
-90.3306605131
 20
-18.4964978588
 30
0.0
 10
-90.3354094698
 20
-18.4961246782
 30
0.0
  0
SPLINE
  5
3C7
100
AcDbEntity
  8
ASSI
100
AcDbSpline
 62
7
  6
CONTINUOUS
 70
0
 71
3
 72
11
 73
7
 74
0
 42
0.0000001
 43
0.0000001
 44
0.0000000001
 40
0.0
 40
0.0
 40
0.0
 40
0.0
 40
0.2017255914
 40
0.4467939359
 40
0.7183196609
 40
1.0
 40
1.0
 40
1.0
 40
1.0
 10
-90.8297196727
 20
-18.1732722328
 30
0.0
 10
-90.8096866735
 20
-18.209343734
 30
0.0
 10
-90.7582748044
 20
-18.2857008504
 30
0.0
 10
-90.6495786311
 20
-18.3866376684
 30
0.0
 10
-90.5052077817
 20
-18.4668487674
 30
0.0
 10
-90.3928465638
 20
-18.4916543079
 30
0.0
 10
-90.3354094779
 20
-18.4961790379
 30
0.0
  0
SPLINE
  5
3C8
100
AcDbEntity
  8
ASSI
100
AcDbSpline
 62
7
  6
CONTINUOUS
 70
0
 71
3
 72
11
 73
7
 74
0
 42
0.0000001
 43
0.0000001
 44
0.0000000001
 40
0.0
 40
0.0
 40
0.0
 40
0.0
 40
0.2816838571
 40
0.5531770543
 40
0.7983396685
 40
1.0
 40
1.0
 40
1.0
 40
1.0
 10
-90.3354094779
 20
-6.5038209621
 30
0.0
 10
-90.3928471678
 20
-6.5083457396
 30
0.0
 10
-90.5052037312
 20
-6.5331456111
 30
0.0
 10
-90.6495832914
 20
-6.6133686246
 30
0.0
 10
-90.7582753406
 20
-6.7143085069
 30
0.0
 10
-90.8096931939
 20
-6.7906680066
 30
0.0
 10
-90.8297196727
 20
-6.8267277672
 30
0.0
  0
SPLINE
  5
3C9
100
AcDbEntity
  8
ASSI
100
AcDbSpline
 62
250
  6
CONTINUOUS
 70
0
 71
3
 72
25
 73
21
 74
0
 42
0.0000001
 43
0.0000001
 44
0.0000000001
 40
0.0
 40
0.0
 40
0.0
 40
0.0
 40
0.1947245347
 40
0.3820346348
 40
0.5545496988
 40
0.6332094144
 40
0.7057525823
 40
0.7714883033
 40
0.8297932475
 40
0.8800972845
 40
0.9219525801
 40
0.9395809098
 40
0.9549537596
 40
0.9680489794
 40
0.9788498595
 40
0.987349541
 40
0.9935666085
 40
0.9958504568
 40
0.9976258813
 40
1.0
 40
1.0
 40
1.0
 40
1.0
 10
-90.0729595378
 20
-12.5
 30
0.0
 10
-90.0729595378
 20
-12.109291161
 30
0.0
 10
-90.0762004219
 20
-11.3427457358
 30
0.0
 10
-90.0906527685
 20
-10.2301388817
 30
0.0
 10
-90.1107082898
 20
-9.3505406585
 30
0.0
 10
-90.1315990985
 20
-8.7013422314
 30
0.0
 10
-90.1487021264
 20
-8.2663931647
 30
0.0
 10
-90.1675381704
 20
-7.8723984135
 30
0.0
 10
-90.1878798911
 20
-7.5231639291
 30
0.0
 10
-90.2095439141
 20
-7.2220309896
 30
0.0
 10
-90.2293589727
 20
-7.0026145507
 30
0.0
 10
-90.2462020832
 20
-6.8533584707
 30
0.0
 10
-90.2582805321
 20
-6.7616520314
 30
0.0
 10
-90.2705022593
 20
-6.6838043735
 30
0.0
 10
-90.2827474336
 20
-6.619946035
 30
0.0
 10
-90.2950919755
 20
-6.5702232344
 30
0.0
 10
-90.3058892828
 20
-6.5378065839
 30
0.0
 10
-90.3154116369
 20
-6.5193375819
 30
0.0
 10
-90.3225814244
 20
-6.5088778048
 30
0.0
 10
-90.3306605131
 20
-6.5035021412
 30
0.0
 10
-90.3354094698
 20
-6.5038753218
 30
0.0
  0
SPLINE
  5
3CA
100
AcDbEntity
  8
ASSI
100
AcDbSpline
 62
250
  6
CONTINUOUS
 70
0
 71
3
 72
31
 73
27
 74
0
 42
0.0000001
 43
0.0000001
 44
0.0000000001
 40
0.0
 40
0.0
 40
0.0
 40
0.0
 40
0.2029019638
 40
0.301764075
 40
0.3973549277
 40
0.4887151405
 40
0.5749039095
 40
0.6550305261
 40
0.7282228325
 40
0.7936977807
 40
0.850794543
 40
0.8988889064
 40
0.9194121475
 40
0.9375208215
 40
0.9531683182
 40
0.9663126456
 40
0.9769367522
 40
0.98505213
 40
0.9881841146
 40
0.990716756
 40
0.9926825008
 40
0.9941548028
 40
0.9953096062
 40
0.9964800829
 40
0.9979888836
 40
1.0
 40
1.0
 40
1.0
 40
1.0
 10
-90.5620567324
 20
-12.5
 30
0.0
 10
-90.5620567324
 20
-12.1118160555
 30
0.0
 10
-90.5646105291
 20
-11.5344881237
 30
0.0
 10
-90.573282538
 20
-10.7743319268
 30
0.0
 10
-90.5822321496
 20
-10.2275962643
 30
0.0
 10
-90.5935528507
 20
-9.7051559944
 30
0.0
 10
-90.6071455155
 20
-9.2123655477
 30
0.0
 10
-90.6228325641
 20
-8.7544135991
 30
0.0
 10
-90.6404446511
 20
-8.336191617
 30
0.0
 10
-90.6597857613
 20
-7.9621557137
 30
0.0
 10
-90.6805935428
 20
-7.6362996072
 30
0.0
 10
-90.6998043286
 20
-7.3965369498
 30
0.0
 10
-90.7161816005
 20
-7.2314212127
 30
0.0
 10
-90.7280237191
 20
-7.1282475124
 30
0.0
 10
-90.7400385962
 20
-7.0393215116
 30
0.0
 10
-90.7521674606
 20
-6.9648756202
 30
0.0
 10
-90.764379904
 20
-6.9051028582
 30
0.0
 10
-90.7752019483
 20
-6.864611826
 30
0.0
 10
-90.7843441334
 20
-6.8398649325
 30
0.0
 10
-90.7905852535
 20
-6.8266318391
 30
0.0
 10
-90.7968555632
 20
-6.8170349005
 30
0.0
 10
-90.8032711048
 20
-6.8108170278
 30
0.0
 10
-90.8106025807
 20
-6.8084921038
 30
0.0
 10
-90.8178592805
 20
-6.8112112714
 30
0.0
 10
-90.8242334458
 20
-6.8176990687
 30
0.0
 10
-90.8278537493
 20
-6.8234121333
 30
0.0
 10
-90.8297195034
 20
-6.8267770839
 30
0.0
  0
SPLINE
  5
3CB
100
AcDbEntity
  8
ASSI
100
AcDbSpline
 62
250
  6
CONTINUOUS
 70
0
 71
3
 72
31
 73
27
 74
0
 42
0.0000001
 43
0.0000001
 44
0.0000000001
 40
0.0
 40
0.0
 40
0.0
 40
0.0
 40
0.2029019638
 40
0.301764075
 40
0.3973549277
 40
0.4887151405
 40
0.5749039095
 40
0.6550305261
 40
0.7282228325
 40
0.7936977807
 40
0.850794543
 40
0.8988889064
 40
0.9194121475
 40
0.9375208215
 40
0.9531683182
 40
0.9663126456
 40
0.9769367522
 40
0.98505213
 40
0.9881841146
 40
0.990716756
 40
0.9926825008
 40
0.9941548028
 40
0.9953096062
 40
0.9964800829
 40
0.9979888836
 40
1.0
 40
1.0
 40
1.0
 40
1.0
 10
-90.5620567324
 20
-12.5
 30
0.0
 10
-90.5620567324
 20
-12.8881839445
 30
0.0
 10
-90.5646105291
 20
-13.4655118763
 30
0.0
 10
-90.573282538
 20
-14.2256680732
 30
0.0
 10
-90.5822321496
 20
-14.7724037357
 30
0.0
 10
-90.5935528507
 20
-15.2948440056
 30
0.0
 10
-90.6071455155
 20
-15.7876344523
 30
0.0
 10
-90.6228325641
 20
-16.2455864009
 30
0.0
 10
-90.6404446511
 20
-16.663808383
 30
0.0
 10
-90.6597857613
 20
-17.0378442863
 30
0.0
 10
-90.6805935428
 20
-17.3637003928
 30
0.0
 10
-90.6998043286
 20
-17.6034630502
 30
0.0
 10
-90.7161816005
 20
-17.7685787873
 30
0.0
 10
-90.7280237191
 20
-17.8717524876
 30
0.0
 10
-90.7400385962
 20
-17.9606784884
 30
0.0
 10
-90.7521674606
 20
-18.0351243798
 30
0.0
 10
-90.764379904
 20
-18.0948971418
 30
0.0
 10
-90.7752019483
 20
-18.135388174
 30
0.0
 10
-90.7843441334
 20
-18.1601350675
 30
0.0
 10
-90.7905852535
 20
-18.1733681609
 30
0.0
 10
-90.7968555632
 20
-18.1829650995
 30
0.0
 10
-90.8032711048
 20
-18.1891829722
 30
0.0
 10
-90.8106025807
 20
-18.1915078962
 30
0.0
 10
-90.8178592805
 20
-18.1887887286
 30
0.0
 10
-90.8242334458
 20
-18.1823009313
 30
0.0
 10
-90.8278537493
 20
-18.1765878667
 30
0.0
 10
-90.8297195034
 20
-18.1732229161
 30
0.0
  0
SPLINE
  5
3CC
100
AcDbEntity
  8
ASSI
100
AcDbSpline
 62
250
  6
CONTINUOUS
 70
0
 71
3
 72
25
 73
21
 74
0
 42
0.0000001
 43
0.0000001
 44
0.0000000001
 40
0.0
 40
0.0
 40
0.0
 40
0.0
 40
0.1947245347
 40
0.3820346348
 40
0.5545496988
 40
0.6332094144
 40
0.7057525823
 40
0.7714883033
 40
0.8297932475
 40
0.8800972845
 40
0.9219525801
 40
0.9395809098
 40
0.9549537596
 40
0.9680489794
 40
0.9788498595
 40
0.987349541
 40
0.9935666085
 40
0.9958504568
 40
0.9976258813
 40
1.0
 40
1.0
 40
1.0
 40
1.0
 10
-90.0729595378
 20
-12.5
 30
0.0
 10
-90.0729595378
 20
-12.890708839
 30
0.0
 10
-90.0762004219
 20
-13.6572542642
 30
0.0
 10
-90.0906527685
 20
-14.7698611183
 30
0.0
 10
-90.1107082898
 20
-15.6494593415
 30
0.0
 10
-90.1315990985
 20
-16.2986577686
 30
0.0
 10
-90.1487021264
 20
-16.7336068353
 30
0.0
 10
-90.1675381704
 20
-17.1276015865
 30
0.0
 10
-90.1878798911
 20
-17.4768360709
 30
0.0
 10
-90.2095439141
 20
-17.7779690104
 30
0.0
 10
-90.2293589727
 20
-17.9973854493
 30
0.0
 10
-90.2462020832
 20
-18.1466415293
 30
0.0
 10
-90.2582805321
 20
-18.2383479686
 30
0.0
 10
-90.2705022593
 20
-18.3161956265
 30
0.0
 10
-90.2827474336
 20
-18.380053965
 30
0.0
 10
-90.2950919755
 20
-18.4297767656
 30
0.0
 10
-90.3058892828
 20
-18.4621934161
 30
0.0
 10
-90.3154116369
 20
-18.4806624181
 30
0.0
 10
-90.3225814244
 20
-18.4911221952
 30
0.0
 10
-90.3306605131
 20
-18.4964978588
 30
0.0
 10
-90.3354094698
 20
-18.4961246782
 30
0.0
  0
SPLINE
  5
3CD
100
AcDbEntity
  8
0
100
AcDbSpline
 62
7
  6
CONTINUOUS
 70
0
 71
3
 72
11
 73
7
 74
0
 42
0.0000001
 43
0.0000001
 44
0.0000000001
 40
0.0
 40
0.0
 40
0.0
 40
0.0
 40
0.2017255914
 40
0.4467939359
 40
0.7183196609
 40
1.0
 40
1.0
 40
1.0
 40
1.0
 10
-90.8297196727
 20
-43.1732722328
 30
0.0
 10
-90.8096866735
 20
-43.209343734
 30
0.0
 10
-90.7582748044
 20
-43.2857008504
 30
0.0
 10
-90.6495786311
 20
-43.3866376684
 30
0.0
 10
-90.5052077817
 20
-43.4668487674
 30
0.0
 10
-90.3928465638
 20
-43.4916543079
 30
0.0
 10
-90.3354094779
 20
-43.4961790379
 30
0.0
  0
SPLINE
  5
3CE
100
AcDbEntity
  8
0
100
AcDbSpline
 62
7
  6
CONTINUOUS
 70
0
 71
3
 72
11
 73
7
 74
0
 42
0.0000001
 43
0.0000001
 44
0.0000000001
 40
0.0
 40
0.0
 40
0.0
 40
0.0
 40
0.2816838571
 40
0.5531770543
 40
0.7983396685
 40
1.0
 40
1.0
 40
1.0
 40
1.0
 10
-90.3354094779
 20
-31.5038209621
 30
0.0
 10
-90.3928471678
 20
-31.5083457396
 30
0.0
 10
-90.5052037312
 20
-31.5331456111
 30
0.0
 10
-90.6495832914
 20
-31.6133686246
 30
0.0
 10
-90.7582753406
 20
-31.7143085069
 30
0.0
 10
-90.8096931939
 20
-31.7906680066
 30
0.0
 10
-90.8297196727
 20
-31.8267277672
 30
0.0
  0
SPLINE
  5
3CF
100
AcDbEntity
  8
0
100
AcDbSpline
 62
250
  6
CONTINUOUS
 70
0
 71
3
 72
25
 73
21
 74
0
 42
0.0000001
 43
0.0000001
 44
0.0000000001
 40
0.0
 40
0.0
 40
0.0
 40
0.0
 40
0.1947245347
 40
0.3820346348
 40
0.5545496988
 40
0.6332094144
 40
0.7057525823
 40
0.7714883033
 40
0.8297932475
 40
0.8800972845
 40
0.9219525801
 40
0.9395809098
 40
0.9549537596
 40
0.9680489794
 40
0.9788498595
 40
0.987349541
 40
0.9935666085
 40
0.9958504568
 40
0.9976258813
 40
1.0
 40
1.0
 40
1.0
 40
1.0
 10
-90.0729595378
 20
-37.5
 30
0.0
 10
-90.0729595378
 20
-37.109291161
 30
0.0
 10
-90.0762004219
 20
-36.3427457358
 30
0.0
 10
-90.0906527685
 20
-35.2301388817
 30
0.0
 10
-90.1107082898
 20
-34.3505406585
 30
0.0
 10
-90.1315990985
 20
-33.7013422314
 30
0.0
 10
-90.1487021264
 20
-33.2663931647
 30
0.0
 10
-90.1675381704
 20
-32.8723984135
 30
0.0
 10
-90.1878798911
 20
-32.5231639291
 30
0.0
 10
-90.2095439141
 20
-32.2220309896
 30
0.0
 10
-90.2293589727
 20
-32.0026145507
 30
0.0
 10
-90.2462020832
 20
-31.8533584707
 30
0.0
 10
-90.2582805321
 20
-31.7616520314
 30
0.0
 10
-90.2705022593
 20
-31.6838043735
 30
0.0
 10
-90.2827474336
 20
-31.619946035
 30
0.0
 10
-90.2950919755
 20
-31.5702232344
 30
0.0
 10
-90.3058892828
 20
-31.5378065839
 30
0.0
 10
-90.3154116369
 20
-31.5193375819
 30
0.0
 10
-90.3225814244
 20
-31.5088778048
 30
0.0
 10
-90.3306605131
 20
-31.5035021412
 30
0.0
 10
-90.3354094698
 20
-31.5038753218
 30
0.0
  0
SPLINE
  5
3D0
100
AcDbEntity
  8
0
100
AcDbSpline
 62
250
  6
CONTINUOUS
 70
0
 71
3
 72
31
 73
27
 74
0
 42
0.0000001
 43
0.0000001
 44
0.0000000001
 40
0.0
 40
0.0
 40
0.0
 40
0.0
 40
0.2029019638
 40
0.301764075
 40
0.3973549277
 40
0.4887151405
 40
0.5749039095
 40
0.6550305261
 40
0.7282228325
 40
0.7936977807
 40
0.850794543
 40
0.8988889064
 40
0.9194121475
 40
0.9375208215
 40
0.9531683182
 40
0.9663126456
 40
0.9769367522
 40
0.98505213
 40
0.9881841146
 40
0.990716756
 40
0.9926825008
 40
0.9941548028
 40
0.9953096062
 40
0.9964800829
 40
0.9979888836
 40
1.0
 40
1.0
 40
1.0
 40
1.0
 10
-90.5620567324
 20
-37.5
 30
0.0
 10
-90.5620567324
 20
-37.1118160555
 30
0.0
 10
-90.5646105291
 20
-36.5344881237
 30
0.0
 10
-90.573282538
 20
-35.7743319268
 30
0.0
 10
-90.5822321496
 20
-35.2275962643
 30
0.0
 10
-90.5935528507
 20
-34.7051559944
 30
0.0
 10
-90.6071455155
 20
-34.2123655477
 30
0.0
 10
-90.6228325641
 20
-33.7544135991
 30
0.0
 10
-90.6404446511
 20
-33.336191617
 30
0.0
 10
-90.6597857613
 20
-32.9621557137
 30
0.0
 10
-90.6805935428
 20
-32.6362996072
 30
0.0
 10
-90.6998043286
 20
-32.3965369498
 30
0.0
 10
-90.7161816005
 20
-32.2314212127
 30
0.0
 10
-90.7280237191
 20
-32.1282475124
 30
0.0
 10
-90.7400385962
 20
-32.0393215116
 30
0.0
 10
-90.7521674606
 20
-31.9648756202
 30
0.0
 10
-90.764379904
 20
-31.9051028582
 30
0.0
 10
-90.7752019483
 20
-31.864611826
 30
0.0
 10
-90.7843441334
 20
-31.8398649325
 30
0.0
 10
-90.7905852535
 20
-31.8266318391
 30
0.0
 10
-90.7968555632
 20
-31.8170349005
 30
0.0
 10
-90.8032711048
 20
-31.8108170278
 30
0.0
 10
-90.8106025807
 20
-31.8084921038
 30
0.0
 10
-90.8178592805
 20
-31.8112112714
 30
0.0
 10
-90.8242334458
 20
-31.8176990687
 30
0.0
 10
-90.8278537493
 20
-31.8234121333
 30
0.0
 10
-90.8297195034
 20
-31.8267770839
 30
0.0
  0
SPLINE
  5
3D1
100
AcDbEntity
  8
0
100
AcDbSpline
 62
250
  6
CONTINUOUS
 70
0
 71
3
 72
31
 73
27
 74
0
 42
0.0000001
 43
0.0000001
 44
0.0000000001
 40
0.0
 40
0.0
 40
0.0
 40
0.0
 40
0.2029019638
 40
0.301764075
 40
0.3973549277
 40
0.4887151405
 40
0.5749039095
 40
0.6550305261
 40
0.7282228325
 40
0.7936977807
 40
0.850794543
 40
0.8988889064
 40
0.9194121475
 40
0.9375208215
 40
0.9531683182
 40
0.9663126456
 40
0.9769367522
 40
0.98505213
 40
0.9881841146
 40
0.990716756
 40
0.9926825008
 40
0.9941548028
 40
0.9953096062
 40
0.9964800829
 40
0.9979888836
 40
1.0
 40
1.0
 40
1.0
 40
1.0
 10
-90.5620567324
 20
-37.5
 30
0.0
 10
-90.5620567324
 20
-37.8881839445
 30
0.0
 10
-90.5646105291
 20
-38.4655118763
 30
0.0
 10
-90.573282538
 20
-39.2256680732
 30
0.0
 10
-90.5822321496
 20
-39.7724037357
 30
0.0
 10
-90.5935528507
 20
-40.2948440056
 30
0.0
 10
-90.6071455155
 20
-40.7876344523
 30
0.0
 10
-90.6228325641
 20
-41.2455864009
 30
0.0
 10
-90.6404446511
 20
-41.663808383
 30
0.0
 10
-90.6597857613
 20
-42.0378442863
 30
0.0
 10
-90.6805935428
 20
-42.3637003928
 30
0.0
 10
-90.6998043286
 20
-42.6034630502
 30
0.0
 10
-90.7161816005
 20
-42.7685787873
 30
0.0
 10
-90.7280237191
 20
-42.8717524876
 30
0.0
 10
-90.7400385962
 20
-42.9606784884
 30
0.0
 10
-90.7521674606
 20
-43.0351243798
 30
0.0
 10
-90.764379904
 20
-43.0948971418
 30
0.0
 10
-90.7752019483
 20
-43.135388174
 30
0.0
 10
-90.7843441334
 20
-43.1601350675
 30
0.0
 10
-90.7905852535
 20
-43.1733681609
 30
0.0
 10
-90.7968555632
 20
-43.1829650995
 30
0.0
 10
-90.8032711048
 20
-43.1891829722
 30
0.0
 10
-90.8106025807
 20
-43.1915078962
 30
0.0
 10
-90.8178592805
 20
-43.1887887286
 30
0.0
 10
-90.8242334458
 20
-43.1823009313
 30
0.0
 10
-90.8278537493
 20
-43.1765878667
 30
0.0
 10
-90.8297195034
 20
-43.1732229161
 30
0.0
  0
SPLINE
  5
3D2
100
AcDbEntity
  8
0
100
AcDbSpline
 62
250
  6
CONTINUOUS
 70
0
 71
3
 72
25
 73
21
 74
0
 42
0.0000001
 43
0.0000001
 44
0.0000000001
 40
0.0
 40
0.0
 40
0.0
 40
0.0
 40
0.1947245347
 40
0.3820346348
 40
0.5545496988
 40
0.6332094144
 40
0.7057525823
 40
0.7714883033
 40
0.8297932475
 40
0.8800972845
 40
0.9219525801
 40
0.9395809098
 40
0.9549537596
 40
0.9680489794
 40
0.9788498595
 40
0.987349541
 40
0.9935666085
 40
0.9958504568
 40
0.9976258813
 40
1.0
 40
1.0
 40
1.0
 40
1.0
 10
-90.0729595378
 20
-37.5
 30
0.0
 10
-90.0729595378
 20
-37.890708839
 30
0.0
 10
-90.0762004219
 20
-38.6572542642
 30
0.0
 10
-90.0906527685
 20
-39.7698611183
 30
0.0
 10
-90.1107082898
 20
-40.6494593415
 30
0.0
 10
-90.1315990985
 20
-41.2986577686
 30
0.0
 10
-90.1487021264
 20
-41.7336068353
 30
0.0
 10
-90.1675381704
 20
-42.1276015865
 30
0.0
 10
-90.1878798911
 20
-42.4768360709
 30
0.0
 10
-90.2095439141
 20
-42.7779690104
 30
0.0
 10
-90.2293589727
 20
-42.9973854493
 30
0.0
 10
-90.2462020832
 20
-43.1466415293
 30
0.0
 10
-90.2582805321
 20
-43.2383479686
 30
0.0
 10
-90.2705022593
 20
-43.3161956265
 30
0.0
 10
-90.2827474336
 20
-43.380053965
 30
0.0
 10
-90.2950919755
 20
-43.4297767656
 30
0.0
 10
-90.3058892828
 20
-43.4621934161
 30
0.0
 10
-90.3154116369
 20
-43.4806624181
 30
0.0
 10
-90.3225814244
 20
-43.4911221952
 30
0.0
 10
-90.3306605131
 20
-43.4964978588
 30
0.0
 10
-90.3354094698
 20
-43.4961246782
 30
0.0
  0
SPLINE
  5
3D3
100
AcDbEntity
  8
ASSI
100
AcDbSpline
 62
7
  6
CONTINUOUS
 70
0
 71
3
 72
11
 73
7
 74
0
 42
0.0000001
 43
0.0000001
 44
0.0000000001
 40
0.0
 40
0.0
 40
0.0
 40
0.0
 40
0.2017255914
 40
0.4467939359
 40
0.7183196609
 40
1.0
 40
1.0
 40
1.0
 40
1.0
 10
-90.8297196727
 20
-43.1732722328
 30
0.0
 10
-90.8096866735
 20
-43.209343734
 30
0.0
 10
-90.7582748044
 20
-43.2857008504
 30
0.0
 10
-90.6495786311
 20
-43.3866376684
 30
0.0
 10
-90.5052077817
 20
-43.4668487674
 30
0.0
 10
-90.3928465638
 20
-43.4916543079
 30
0.0
 10
-90.3354094779
 20
-43.4961790379
 30
0.0
  0
SPLINE
  5
3D4
100
AcDbEntity
  8
ASSI
100
AcDbSpline
 62
7
  6
CONTINUOUS
 70
0
 71
3
 72
11
 73
7
 74
0
 42
0.0000001
 43
0.0000001
 44
0.0000000001
 40
0.0
 40
0.0
 40
0.0
 40
0.0
 40
0.2816838571
 40
0.5531770543
 40
0.7983396685
 40
1.0
 40
1.0
 40
1.0
 40
1.0
 10
-90.3354094779
 20
-31.5038209621
 30
0.0
 10
-90.3928471678
 20
-31.5083457396
 30
0.0
 10
-90.5052037312
 20
-31.5331456111
 30
0.0
 10
-90.6495832914
 20
-31.6133686246
 30
0.0
 10
-90.7582753406
 20
-31.7143085069
 30
0.0
 10
-90.8096931939
 20
-31.7906680066
 30
0.0
 10
-90.8297196727
 20
-31.8267277672
 30
0.0
  0
SPLINE
  5
3D5
100
AcDbEntity
  8
ASSI
100
AcDbSpline
 62
250
  6
CONTINUOUS
 70
0
 71
3
 72
25
 73
21
 74
0
 42
0.0000001
 43
0.0000001
 44
0.0000000001
 40
0.0
 40
0.0
 40
0.0
 40
0.0
 40
0.1947245347
 40
0.3820346348
 40
0.5545496988
 40
0.6332094144
 40
0.7057525823
 40
0.7714883033
 40
0.8297932475
 40
0.8800972845
 40
0.9219525801
 40
0.9395809098
 40
0.9549537596
 40
0.9680489794
 40
0.9788498595
 40
0.987349541
 40
0.9935666085
 40
0.9958504568
 40
0.9976258813
 40
1.0
 40
1.0
 40
1.0
 40
1.0
 10
-90.0729595378
 20
-37.5
 30
0.0
 10
-90.0729595378
 20
-37.109291161
 30
0.0
 10
-90.0762004219
 20
-36.3427457358
 30
0.0
 10
-90.0906527685
 20
-35.2301388817
 30
0.0
 10
-90.1107082898
 20
-34.3505406585
 30
0.0
 10
-90.1315990985
 20
-33.7013422314
 30
0.0
 10
-90.1487021264
 20
-33.2663931647
 30
0.0
 10
-90.1675381704
 20
-32.8723984135
 30
0.0
 10
-90.1878798911
 20
-32.5231639291
 30
0.0
 10
-90.2095439141
 20
-32.2220309896
 30
0.0
 10
-90.2293589727
 20
-32.0026145507
 30
0.0
 10
-90.2462020832
 20
-31.8533584707
 30
0.0
 10
-90.2582805321
 20
-31.7616520314
 30
0.0
 10
-90.2705022593
 20
-31.6838043735
 30
0.0
 10
-90.2827474336
 20
-31.619946035
 30
0.0
 10
-90.2950919755
 20
-31.5702232344
 30
0.0
 10
-90.3058892828
 20
-31.5378065839
 30
0.0
 10
-90.3154116369
 20
-31.5193375819
 30
0.0
 10
-90.3225814244
 20
-31.5088778048
 30
0.0
 10
-90.3306605131
 20
-31.5035021412
 30
0.0
 10
-90.3354094698
 20
-31.5038753218
 30
0.0
  0
SPLINE
  5
3D6
100
AcDbEntity
  8
ASSI
100
AcDbSpline
 62
250
  6
CONTINUOUS
 70
0
 71
3
 72
31
 73
27
 74
0
 42
0.0000001
 43
0.0000001
 44
0.0000000001
 40
0.0
 40
0.0
 40
0.0
 40
0.0
 40
0.2029019638
 40
0.301764075
 40
0.3973549277
 40
0.4887151405
 40
0.5749039095
 40
0.6550305261
 40
0.7282228325
 40
0.7936977807
 40
0.850794543
 40
0.8988889064
 40
0.9194121475
 40
0.9375208215
 40
0.9531683182
 40
0.9663126456
 40
0.9769367522
 40
0.98505213
 40
0.9881841146
 40
0.990716756
 40
0.9926825008
 40
0.9941548028
 40
0.9953096062
 40
0.9964800829
 40
0.9979888836
 40
1.0
 40
1.0
 40
1.0
 40
1.0
 10
-90.5620567324
 20
-37.5
 30
0.0
 10
-90.5620567324
 20
-37.1118160555
 30
0.0
 10
-90.5646105291
 20
-36.5344881237
 30
0.0
 10
-90.573282538
 20
-35.7743319268
 30
0.0
 10
-90.5822321496
 20
-35.2275962643
 30
0.0
 10
-90.5935528507
 20
-34.7051559944
 30
0.0
 10
-90.6071455155
 20
-34.2123655477
 30
0.0
 10
-90.6228325641
 20
-33.7544135991
 30
0.0
 10
-90.6404446511
 20
-33.336191617
 30
0.0
 10
-90.6597857613
 20
-32.9621557137
 30
0.0
 10
-90.6805935428
 20
-32.6362996072
 30
0.0
 10
-90.6998043286
 20
-32.3965369498
 30
0.0
 10
-90.7161816005
 20
-32.2314212127
 30
0.0
 10
-90.7280237191
 20
-32.1282475124
 30
0.0
 10
-90.7400385962
 20
-32.0393215116
 30
0.0
 10
-90.7521674606
 20
-31.9648756202
 30
0.0
 10
-90.764379904
 20
-31.9051028582
 30
0.0
 10
-90.7752019483
 20
-31.864611826
 30
0.0
 10
-90.7843441334
 20
-31.8398649325
 30
0.0
 10
-90.7905852535
 20
-31.8266318391
 30
0.0
 10
-90.7968555632
 20
-31.8170349005
 30
0.0
 10
-90.8032711048
 20
-31.8108170278
 30
0.0
 10
-90.8106025807
 20
-31.8084921038
 30
0.0
 10
-90.8178592805
 20
-31.8112112714
 30
0.0
 10
-90.8242334458
 20
-31.8176990687
 30
0.0
 10
-90.8278537493
 20
-31.8234121333
 30
0.0
 10
-90.8297195034
 20
-31.8267770839
 30
0.0
  0
SPLINE
  5
3D7
100
AcDbEntity
  8
ASSI
100
AcDbSpline
 62
250
  6
CONTINUOUS
 70
0
 71
3
 72
31
 73
27
 74
0
 42
0.0000001
 43
0.0000001
 44
0.0000000001
 40
0.0
 40
0.0
 40
0.0
 40
0.0
 40
0.2029019638
 40
0.301764075
 40
0.3973549277
 40
0.4887151405
 40
0.5749039095
 40
0.6550305261
 40
0.7282228325
 40
0.7936977807
 40
0.850794543
 40
0.8988889064
 40
0.9194121475
 40
0.9375208215
 40
0.9531683182
 40
0.9663126456
 40
0.9769367522
 40
0.98505213
 40
0.9881841146
 40
0.990716756
 40
0.9926825008
 40
0.9941548028
 40
0.9953096062
 40
0.9964800829
 40
0.9979888836
 40
1.0
 40
1.0
 40
1.0
 40
1.0
 10
-90.5620567324
 20
-37.5
 30
0.0
 10
-90.5620567324
 20
-37.8881839445
 30
0.0
 10
-90.5646105291
 20
-38.4655118763
 30
0.0
 10
-90.573282538
 20
-39.2256680732
 30
0.0
 10
-90.5822321496
 20
-39.7724037357
 30
0.0
 10
-90.5935528507
 20
-40.2948440056
 30
0.0
 10
-90.6071455155
 20
-40.7876344523
 30
0.0
 10
-90.6228325641
 20
-41.2455864009
 30
0.0
 10
-90.6404446511
 20
-41.663808383
 30
0.0
 10
-90.6597857613
 20
-42.0378442863
 30
0.0
 10
-90.6805935428
 20
-42.3637003928
 30
0.0
 10
-90.6998043286
 20
-42.6034630502
 30
0.0
 10
-90.7161816005
 20
-42.7685787873
 30
0.0
 10
-90.7280237191
 20
-42.8717524876
 30
0.0
 10
-90.7400385962
 20
-42.9606784884
 30
0.0
 10
-90.7521674606
 20
-43.0351243798
 30
0.0
 10
-90.764379904
 20
-43.0948971418
 30
0.0
 10
-90.7752019483
 20
-43.135388174
 30
0.0
 10
-90.7843441334
 20
-43.1601350675
 30
0.0
 10
-90.7905852535
 20
-43.1733681609
 30
0.0
 10
-90.7968555632
 20
-43.1829650995
 30
0.0
 10
-90.8032711048
 20
-43.1891829722
 30
0.0
 10
-90.8106025807
 20
-43.1915078962
 30
0.0
 10
-90.8178592805
 20
-43.1887887286
 30
0.0
 10
-90.8242334458
 20
-43.1823009313
 30
0.0
 10
-90.8278537493
 20
-43.1765878667
 30
0.0
 10
-90.8297195034
 20
-43.1732229161
 30
0.0
  0
SPLINE
  5
3D8
100
AcDbEntity
  8
ASSI
100
AcDbSpline
 62
250
  6
CONTINUOUS
 70
0
 71
3
 72
25
 73
21
 74
0
 42
0.0000001
 43
0.0000001
 44
0.0000000001
 40
0.0
 40
0.0
 40
0.0
 40
0.0
 40
0.1947245347
 40
0.3820346348
 40
0.5545496988
 40
0.6332094144
 40
0.7057525823
 40
0.7714883033
 40
0.8297932475
 40
0.8800972845
 40
0.9219525801
 40
0.9395809098
 40
0.9549537596
 40
0.9680489794
 40
0.9788498595
 40
0.987349541
 40
0.9935666085
 40
0.9958504568
 40
0.9976258813
 40
1.0
 40
1.0
 40
1.0
 40
1.0
 10
-90.0729595378
 20
-37.5
 30
0.0
 10
-90.0729595378
 20
-37.890708839
 30
0.0
 10
-90.0762004219
 20
-38.6572542642
 30
0.0
 10
-90.0906527685
 20
-39.7698611183
 30
0.0
 10
-90.1107082898
 20
-40.6494593415
 30
0.0
 10
-90.1315990985
 20
-41.2986577686
 30
0.0
 10
-90.1487021264
 20
-41.7336068353
 30
0.0
 10
-90.1675381704
 20
-42.1276015865
 30
0.0
 10
-90.1878798911
 20
-42.4768360709
 30
0.0
 10
-90.2095439141
 20
-42.7779690104
 30
0.0
 10
-90.2293589727
 20
-42.9973854493
 30
0.0
 10
-90.2462020832
 20
-43.1466415293
 30
0.0
 10
-90.2582805321
 20
-43.2383479686
 30
0.0
 10
-90.2705022593
 20
-43.3161956265
 30
0.0
 10
-90.2827474336
 20
-43.380053965
 30
0.0
 10
-90.2950919755
 20
-43.4297767656
 30
0.0
 10
-90.3058892828
 20
-43.4621934161
 30
0.0
 10
-90.3154116369
 20
-43.4806624181
 30
0.0
 10
-90.3225814244
 20
-43.4911221952
 30
0.0
 10
-90.3306605131
 20
-43.4964978588
 30
0.0
 10
-90.3354094698
 20
-43.4961246782
 30
0.0
  0
SPLINE
  5
3D9
100
AcDbEntity
  8
RACCORDO
100
AcDbSpline
 62
250
  6
CONTINUOUS
 70
0
 71
3
 72
9
 73
5
 74
0
 42
0.0000001
 43
0.0000001
 44
0.0000000001
 40
0.0
 40
0.0
 40
0.0
 40
0.0
 40
0.2610410485
 40
1.0
 40
1.0
 40
1.0
 40
1.0
 10
-89.9042918549
 20
-5.9805691994
 30
0.0
 10
-89.9092307137
 20
-5.9691685288
 30
0.0
 10
-89.9284340824
 20
-5.9256188194
 30
0.0
 10
-89.9488061668
 20
-5.8825784461
 30
0.0
 10
-89.9646647121
 20
-5.8511852358
 30
0.0
  0
SPLINE
  5
3DA
100
AcDbEntity
  8
RACCORDO
100
AcDbSpline
 62
250
  6
CONTINUOUS
 70
0
 71
3
 72
22
 73
18
 74
0
 42
0.0000001
 43
0.0000001
 44
0.0000000001
 40
0.0
 40
0.0
 40
0.0
 40
0.0
 40
0.0673201783
 40
0.1249198214
 40
0.1733811525
 40
0.2138396117
 40
0.2483716354
 40
0.280359323
 40
0.3140093138
 40
0.3529918474
 40
0.399685957
 40
0.4554297994
 40
0.5209194055
 40
0.5965042216
 40
0.6822913452
 40
0.7782485602
 40
1.0
 40
1.0
 40
1.0
 40
1.0
 10
-89.9646647121
 20
-5.8511852358
 30
0.0
 10
-89.9855862918
 20
-5.8097693596
 30
0.0
 10
-90.0270017223
 20
-5.7341560613
 30
0.0
 10
-90.0942850975
 20
-5.6351082475
 30
0.0
 10
-90.1618031086
 20
-5.5594666739
 30
0.0
 10
-90.2299192004
 20
-5.5073031943
 30
0.0
 10
-90.2996662829
 20
-5.4795897379
 30
0.0
 10
-90.3704596454
 20
-5.4791278479
 30
0.0
 10
-90.4387871567
 20
-5.5064243147
 30
0.0
 10
-90.5034596772
 20
-5.5585450654
 30
0.0
 10
-90.5656265088
 20
-5.6342067797
 30
0.0
 10
-90.6258358734
 20
-5.733371035
 30
0.0
 10
-90.6842438188
 20
-5.8559933041
 30
0.0
 10
-90.7407307452
 20
-6.0019150841
 30
0.0
 10
-90.7952002741
 20
-6.1707878704
 30
0.0
 10
-90.8684848911
 20
-6.4391372385
 30
0.0
 10
-90.9141848786
 20
-6.6534919341
 30
0.0
 10
-90.9427310522
 20
-6.8036442176
 30
0.0
  0
SPLINE
  5
3DB
100
AcDbEntity
  8
RACCORDO
100
AcDbSpline
 62
250
  6
CONTINUOUS
 70
0
 71
3
 72
22
 73
18
 74
0
 42
0.0000001
 43
0.0000001
 44
0.0000000001
 40
0.0
 40
0.0
 40
0.0
 40
0.0
 40
0.2215225854
 40
0.3173049187
 40
0.4028780051
 40
0.4781978708
 40
0.5434001316
 40
0.5988295734
 40
0.6452110678
 40
0.6839179853
 40
0.7173957151
 40
0.7493866412
 40
0.7841232593
 40
0.8249465798
 40
0.8738894333
 40
0.9320566782
 40
1.0
 40
1.0
 40
1.0
 40
1.0
 10
-90.9427114037
 20
-18.1964182309
 30
0.0
 10
-90.9140508309
 20
-18.3471694483
 30
0.0
 10
-90.8681726005
 20
-18.5623288333
 30
0.0
 10
-90.7945146814
 20
-18.831582639
 30
0.0
 10
-90.7397928391
 20
-19.0008368945
 30
0.0
 10
-90.6830070554
 20
-19.1469185684
 30
0.0
 10
-90.6243205213
 20
-19.2695022954
 30
0.0
 10
-90.5637911285
 20
-19.3684208387
 30
0.0
 10
-90.5012908069
 20
-19.4436455799
 30
0.0
 10
-90.4362160685
 20
-19.4951373153
 30
0.0
 10
-90.3674061962
 20
-19.5214581199
 30
0.0
 10
-90.2962414858
 20
-19.5197442933
 30
0.0
 10
-90.2262690757
 20
-19.4905740811
 30
0.0
 10
-90.1579070446
 20
-19.4368736531
 30
0.0
 10
-90.0901171553
 20
-19.3594940763
 30
0.0
 10
-90.0225654944
 20
-19.2585119698
 30
0.0
 10
-89.980971917
 20
-19.1815656204
 30
0.0
 10
-89.9599663878
 20
-19.1394479249
 30
0.0
  0
SPLINE
  5
3DC
100
AcDbEntity
  8
RACCORDO
100
AcDbSpline
 62
250
  6
CONTINUOUS
 70
0
 71
3
 72
9
 73
5
 74
0
 42
0.0000001
 43
0.0000001
 44
0.0000000001
 40
0.0
 40
0.0
 40
0.0
 40
0.0
 40
0.2398585546
 40
1.0
 40
1.0
 40
1.0
 40
1.0
 10
-89.9599663878
 20
-19.1394479249
 30
0.0
 10
-89.9552292831
 20
-19.1299496671
 30
0.0
 10
-89.9357818139
 20
-19.0901998006
 30
0.0
 10
-89.917491194
 20
-19.0498881384
 30
0.0
 10
-89.9041261026
 20
-19.0190202243
 30
0.0
  0
SPLINE
  5
3DD
100
AcDbEntity
  8
RACCORDO
100
AcDbSpline
 62
250
  6
CONTINUOUS
 70
0
 71
3
 72
9
 73
5
 74
0
 42
0.0000001
 43
0.0000001
 44
0.0000000001
 40
0.0
 40
0.0
 40
0.0
 40
0.0
 40
0.5523337001
 40
1.0
 40
1.0
 40
1.0
 40
1.0
 10
-89.775667469
 20
-18.5178069484
 30
0.0
 10
-89.8098024962
 20
-18.6248018259
 30
0.0
 10
-89.8772749032
 20
-18.8167649173
 30
0.0
 10
-89.9618716715
 20
-19.0023028948
 30
0.0
 10
-90.0061368063
 20
-19.0818407412
 30
0.0
  0
SPLINE
  5
3DE
100
AcDbEntity
  8
RACCORDO
100
AcDbSpline
 62
250
  6
CONTINUOUS
 70
0
 71
3
 72
21
 73
17
 74
0
 42
0.0000001
 43
0.0000001
 44
0.0000000001
 40
0.0
 40
0.0
 40
0.0
 40
0.0
 40
0.0648796175
 40
0.1205368237
 40
0.1676673726
 40
0.2075635655
 40
0.2424277864
 40
0.2755742106
 40
0.3108324292
 40
0.3514352053
 40
0.3995049942
 40
0.4562843912
 40
0.522448658
 40
0.5983393876
 40
0.7796695606
 40
1.0
 40
1.0
 40
1.0
 40
1.0
 10
-90.0061368063
 20
-19.0818407412
 30
0.0
 10
-90.0253595481
 20
-19.1163811418
 30
0.0
 10
-90.0634200968
 20
-19.1793181926
 30
0.0
 10
-90.1251559049
 20
-19.2610048402
 30
0.0
 10
-90.1871429204
 20
-19.3225191456
 30
0.0
 10
-90.2497552717
 20
-19.3637137204
 30
0.0
 10
-90.313659931
 20
-19.3835001549
 30
0.0
 10
-90.377863281
 20
-19.3798797682
 30
0.0
 10
-90.4398448193
 20
-19.3530859399
 30
0.0
 10
-90.4990094687
 20
-19.3051380934
 30
0.0
 10
-90.5561507327
 20
-19.2369115088
 30
0.0
 10
-90.6116420074
 20
-19.1484543655
 30
0.0
 10
-90.6656034985
 20
-19.0398302544
 30
0.0
 10
-90.7398606662
 20
-18.8571826286
 30
0.0
 10
-90.8251499045
 20
-18.578499932
 30
0.0
 10
-90.8800386554
 20
-18.3398945861
 30
0.0
 10
-90.9070680744
 20
-18.2084034215
 30
0.0
  0
SPLINE
  5
3DF
100
AcDbEntity
  8
RACCORDO
100
AcDbSpline
 62
250
  6
CONTINUOUS
 70
0
 71
3
 72
21
 73
17
 74
0
 42
0.0000001
 43
0.0000001
 44
0.0000000001
 40
0.0
 40
0.0
 40
0.0
 40
0.0
 40
0.2195361418
 40
0.4001660029
 40
0.4757833388
 40
0.54173555
 40
0.5983948051
 40
0.6464523361
 40
0.6871683371
 40
0.7226813507
 40
0.7561886028
 40
0.7914463557
 40
0.8316963338
 40
0.879118197
 40
0.9349818932
 40
1.0
 40
1.0
 40
1.0
 40
1.0
 10
-90.8989914952
 20
-6.7527796094
 30
0.0
 10
-90.8721509944
 20
-6.6253436883
 30
0.0
 10
-90.8177106964
 20
-6.3941649385
 30
0.0
 10
-90.7332714253
 20
-6.1243446326
 30
0.0
 10
-90.6599096476
 20
-5.9477030521
 30
0.0
 10
-90.6066167383
 20
-5.8427175159
 30
0.0
 10
-90.5518557667
 20
-5.757293706
 30
0.0
 10
-90.49549319
 20
-5.6914848411
 30
0.0
 10
-90.4371409896
 20
-5.6453898796
 30
0.0
 10
-90.3761145601
 20
-5.6198166245
 30
0.0
 10
-90.3130097986
 20
-5.6167150661
 30
0.0
 10
-90.2501986986
 20
-5.6361921539
 30
0.0
 10
-90.1885736937
 20
-5.6764007301
 30
0.0
 10
-90.1275599429
 20
-5.7363433348
 30
0.0
 10
-90.0667656651
 20
-5.8158297639
 30
0.0
 10
-90.0292631128
 20
-5.8770788086
 30
0.0
 10
-90.0103255361
 20
-5.9106791661
 30
0.0
  0
SPLINE
  5
3E0
100
AcDbEntity
  8
RACCORDO
100
AcDbSpline
 62
250
  6
CONTINUOUS
 70
0
 71
3
 72
9
 73
5
 74
0
 42
0.0000001
 43
0.0000001
 44
0.0000000001
 40
0.0
 40
0.0
 40
0.0
 40
0.0
 40
0.4466704565
 40
1.0
 40
1.0
 40
1.0
 40
1.0
 10
-90.0103255361
 20
-5.9106791661
 30
0.0
 10
-89.9652870749
 20
-5.9905895173
 30
0.0
 10
-89.8793140716
 20
-6.1777703884
 30
0.0
 10
-89.8110068624
 20
-6.3715921327
 30
0.0
 10
-89.7764205371
 20
-6.4798328286
 30
0.0
  0
SPLINE
  5
3E1
100
AcDbEntity
  8
RACCORDO
100
AcDbSpline
 62
250
  6
CONTINUOUS
 70
0
 71
3
 72
13
 73
9
 74
0
 42
0.0000001
 43
0.0000001
 44
0.0000000001
 40
0.0
 40
0.0
 40
0.0
 40
0.0
 40
0.0758032905
 40
0.160666712
 40
0.2584636503
 40
0.3716741987
 40
0.6494670918
 40
1.0
 40
1.0
 40
1.0
 40
1.0
 10
-90.0809499717
 20
-19.0770166177
 30
0.0
 10
-90.0995858999
 20
-19.0729976393
 30
0.0
 10
-90.1378838327
 20
-19.0583169956
 30
0.0
 10
-90.1913028492
 20
-19.0204608515
 30
0.0
 10
-90.2431963389
 20
-18.9666767386
 30
0.0
 10
-90.3155175993
 20
-18.8669122821
 30
0.0
 10
-90.399652408
 20
-18.699387116
 30
0.0
 10
-90.4534700606
 20
-18.5506353562
 30
0.0
 10
-90.4804617046
 20
-18.4667107922
 30
0.0
  0
SPLINE
  5
3E2
100
AcDbEntity
  8
RACCORDO
100
AcDbSpline
 62
250
  6
CONTINUOUS
 70
0
 71
3
 72
21
 73
17
 74
0
 42
0.0000001
 43
0.0000001
 44
0.0000000001
 40
0.0
 40
0.0
 40
0.0
 40
0.0
 40
0.0089289199
 40
0.0156111649
 40
0.0241150725
 40
0.0345310423
 40
0.0468987656
 40
0.0775753656
 40
0.1162306243
 40
0.1627440749
 40
0.2169444507
 40
0.2785844092
 40
0.423102702
 40
0.5936728729
 40
0.7871833783
 40
1.0
 40
1.0
 40
1.0
 40
1.0
 10
-92.3548153851
 20
-19.7851161277
 30
0.0
 10
-92.3426346067
 20
-19.7851151482
 30
0.0
 10
-92.3230300963
 20
-19.7706627878
 30
0.0
 10
-92.304411146
 20
-19.7442671267
 30
0.0
 10
-92.2876825256
 20
-19.7132827157
 30
0.0
 10
-92.2709694221
 20
-19.6740513512
 30
0.0
 10
-92.2463806474
 20
-19.6053234902
 30
0.0
 10
-92.2162329488
 20
-19.4979322585
 30
0.0
 10
-92.1813310068
 20
-19.3437604676
 30
0.0
 10
-92.145984003
 20
-19.1569168307
 30
0.0
 10
-92.1104936952
 20
-18.9382785423
 30
0.0
 10
-92.0607111302
 20
-18.586585576
 30
0.0
 10
-92.0017023983
 20
-18.075975723
 30
0.0
 10
-91.9381119703
 20
-17.3850245757
 30
0.0
 10
-91.8811498178
 20
-16.6000459223
 30
0.0
 10
-91.8502874691
 20
-16.0465696369
 30
0.0
 10
-91.8362772955
 20
-15.756584734
 30
0.0
  0
SPLINE
  5
3E3
100
AcDbEntity
  8
RACCORDO
100
AcDbSpline
 62
250
  6
CONTINUOUS
 70
0
 71
3
 72
21
 73
17
 74
0
 42
0.0000001
 43
0.0000001
 44
0.0000000001
 40
0.0
 40
0.0
 40
0.0
 40
0.0
 40
0.2128099276
 40
0.4063206106
 40
0.5768933526
 40
0.721414389
 40
0.7830540612
 40
0.8372560243
 40
0.8837701214
 40
0.9224242425
 40
0.9531014746
 40
0.965469332
 40
0.9758858167
 40
0.9843897573
 40
0.9910719054
 40
1.0
 40
1.0
 40
1.0
 40
1.0
 10
-91.8362314231
 20
-9.2443640564
 30
0.0
 10
-91.8502397591
 20
-8.9543207467
 30
0.0
 10
-91.8811004594
 20
-8.4007244245
 30
0.0
 10
-91.9380620119
 20
-7.6155679461
 30
0.0
 10
-92.0016586757
 20
-6.9244481651
 30
0.0
 10
-92.0606703403
 20
-6.4137116037
 30
0.0
 10
-92.1104625826
 20
-6.0619311627
 30
0.0
 10
-92.14595648
 20
-5.8432387273
 30
0.0
 10
-92.1813068265
 20
-5.6563492156
 30
0.0
 10
-92.2162160913
 20
-5.5021413375
 30
0.0
 10
-92.2463660076
 20
-5.3947243464
 30
0.0
 10
-92.2709590834
 20
-5.3259782232
 30
0.0
 10
-92.287673325
 20
-5.2867355634
 30
0.0
 10
-92.3044047107
 20
-5.2557426684
 30
0.0
 10
-92.3230250248
 20
-5.2293402712
 30
0.0
 10
-92.3426329057
 20
-5.2148848832
 30
0.0
 10
-92.3548153851
 20
-5.2148838723
 30
0.0
  0
SPLINE
  5
3E4
100
AcDbEntity
  8
RACCORDO
100
AcDbSpline
 62
250
  6
CONTINUOUS
 70
0
 71
3
 72
11
 73
7
 74
0
 42
0.0000001
 43
0.0000001
 44
0.0000000001
 40
0.0
 40
0.0
 40
0.0
 40
0.0
 40
0.3329383895
 40
0.6073963863
 40
0.826866947
 40
1.0
 40
1.0
 40
1.0
 40
1.0
 10
-90.4555890372
 20
-6.4589642089
 30
0.0
 10
-90.4328308925
 20
-6.3936655027
 30
0.0
 10
-90.3873322542
 20
-6.2758243632
 30
0.0
 10
-90.308822701
 20
-6.1225247226
 30
0.0
 10
-90.2271227237
 20
-6.0098501324
 30
0.0
 10
-90.1627057708
 20
-5.9569236922
 30
0.0
 10
-90.1305802343
 20
-5.9407669811
 30
0.0
  0
SPLINE
  5
3E5
100
AcDbEntity
  8
RACCORDO
100
AcDbSpline
 62
250
  6
CONTINUOUS
 70
0
 71
3
 72
9
 73
5
 74
0
 42
0.0000001
 43
0.0000001
 44
0.0000000001
 40
0.0
 40
0.0
 40
0.0
 40
0.0
 40
0.2590414579
 40
1.0
 40
1.0
 40
1.0
 40
1.0
 10
-90.1305802343
 20
-5.9407669811
 30
0.0
 10
-90.1258088277
 20
-5.938367325
 30
0.0
 10
-90.1070896612
 20
-5.9297232715
 30
0.0
 10
-90.0870882357
 20
-5.9237667025
 30
0.0
 10
-90.0720156506
 20
-5.9212766126
 30
0.0
  0
SPLINE
  5
3E6
100
AcDbEntity
  8
RACCORDO
100
AcDbSpline
 62
250
  6
CONTINUOUS
 70
0
 71
3
 72
9
 73
5
 74
0
 42
0.0000001
 43
0.0000001
 44
0.0000000001
 40
0.0
 40
0.0
 40
0.0
 40
0.0
 40
0.2610410485
 40
1.0
 40
1.0
 40
1.0
 40
1.0
 10
-89.9042918549
 20
-30.9805691994
 30
0.0
 10
-89.9092307137
 20
-30.9691685288
 30
0.0
 10
-89.9284340824
 20
-30.9256188194
 30
0.0
 10
-89.9488061668
 20
-30.8825784461
 30
0.0
 10
-89.9646647121
 20
-30.8511852358
 30
0.0
  0
SPLINE
  5
3E7
100
AcDbEntity
  8
RACCORDO
100
AcDbSpline
 62
250
  6
CONTINUOUS
 70
0
 71
3
 72
22
 73
18
 74
0
 42
0.0000001
 43
0.0000001
 44
0.0000000001
 40
0.0
 40
0.0
 40
0.0
 40
0.0
 40
0.0673201783
 40
0.1249198214
 40
0.1733811525
 40
0.2138396117
 40
0.2483716354
 40
0.280359323
 40
0.3140093138
 40
0.3529918474
 40
0.399685957
 40
0.4554297994
 40
0.5209194055
 40
0.5965042216
 40
0.6822913452
 40
0.7782485602
 40
1.0
 40
1.0
 40
1.0
 40
1.0
 10
-89.9646647121
 20
-30.8511852358
 30
0.0
 10
-89.9855862918
 20
-30.8097693596
 30
0.0
 10
-90.0270017223
 20
-30.7341560613
 30
0.0
 10
-90.0942850975
 20
-30.6351082475
 30
0.0
 10
-90.1618031086
 20
-30.5594666739
 30
0.0
 10
-90.2299192004
 20
-30.5073031943
 30
0.0
 10
-90.2996662829
 20
-30.4795897379
 30
0.0
 10
-90.3704596454
 20
-30.4791278479
 30
0.0
 10
-90.4387871567
 20
-30.5064243147
 30
0.0
 10
-90.5034596772
 20
-30.5585450654
 30
0.0
 10
-90.5656265088
 20
-30.6342067797
 30
0.0
 10
-90.6258358734
 20
-30.733371035
 30
0.0
 10
-90.6842438188
 20
-30.8559933041
 30
0.0
 10
-90.7407307452
 20
-31.0019150841
 30
0.0
 10
-90.7952002741
 20
-31.1707878704
 30
0.0
 10
-90.8684848911
 20
-31.4391372385
 30
0.0
 10
-90.9141848786
 20
-31.6534919341
 30
0.0
 10
-90.9427310522
 20
-31.8036442176
 30
0.0
  0
SPLINE
  5
3E8
100
AcDbEntity
  8
RACCORDO
100
AcDbSpline
 62
250
  6
CONTINUOUS
 70
0
 71
3
 72
22
 73
18
 74
0
 42
0.0000001
 43
0.0000001
 44
0.0000000001
 40
0.0
 40
0.0
 40
0.0
 40
0.0
 40
0.2215225854
 40
0.3173049187
 40
0.4028780051
 40
0.4781978708
 40
0.5434001316
 40
0.5988295734
 40
0.6452110678
 40
0.6839179853
 40
0.7173957151
 40
0.7493866412
 40
0.7841232593
 40
0.8249465798
 40
0.8738894333
 40
0.9320566782
 40
1.0
 40
1.0
 40
1.0
 40
1.0
 10
-90.9427114037
 20
-43.1964182309
 30
0.0
 10
-90.9140508309
 20
-43.3471694483
 30
0.0
 10
-90.8681726005
 20
-43.5623288333
 30
0.0
 10
-90.7945146814
 20
-43.831582639
 30
0.0
 10
-90.7397928391
 20
-44.0008368945
 30
0.0
 10
-90.6830070554
 20
-44.1469185684
 30
0.0
 10
-90.6243205213
 20
-44.2695022954
 30
0.0
 10
-90.5637911285
 20
-44.3684208387
 30
0.0
 10
-90.5012908069
 20
-44.4436455799
 30
0.0
 10
-90.4362160685
 20
-44.4951373153
 30
0.0
 10
-90.3674061962
 20
-44.5214581199
 30
0.0
 10
-90.2962414858
 20
-44.5197442933
 30
0.0
 10
-90.2262690757
 20
-44.4905740811
 30
0.0
 10
-90.1579070446
 20
-44.4368736531
 30
0.0
 10
-90.0901171553
 20
-44.3594940763
 30
0.0
 10
-90.0225654944
 20
-44.2585119698
 30
0.0
 10
-89.980971917
 20
-44.1815656204
 30
0.0
 10
-89.9599663878
 20
-44.1394479249
 30
0.0
  0
SPLINE
  5
3E9
100
AcDbEntity
  8
RACCORDO
100
AcDbSpline
 62
250
  6
CONTINUOUS
 70
0
 71
3
 72
9
 73
5
 74
0
 42
0.0000001
 43
0.0000001
 44
0.0000000001
 40
0.0
 40
0.0
 40
0.0
 40
0.0
 40
0.2398585546
 40
1.0
 40
1.0
 40
1.0
 40
1.0
 10
-89.9599663878
 20
-44.1394479249
 30
0.0
 10
-89.9552292831
 20
-44.1299496671
 30
0.0
 10
-89.9357818139
 20
-44.0901998006
 30
0.0
 10
-89.917491194
 20
-44.0498881384
 30
0.0
 10
-89.9041261026
 20
-44.0190202243
 30
0.0
  0
SPLINE
  5
3EA
100
AcDbEntity
  8
RACCORDO
100
AcDbSpline
 62
250
  6
CONTINUOUS
 70
0
 71
3
 72
9
 73
5
 74
0
 42
0.0000001
 43
0.0000001
 44
0.0000000001
 40
0.0
 40
0.0
 40
0.0
 40
0.0
 40
0.5523337001
 40
1.0
 40
1.0
 40
1.0
 40
1.0
 10
-89.775667469
 20
-43.5178069484
 30
0.0
 10
-89.8098024962
 20
-43.6248018259
 30
0.0
 10
-89.8772749032
 20
-43.8167649173
 30
0.0
 10
-89.9618716715
 20
-44.0023028948
 30
0.0
 10
-90.0061368063
 20
-44.0818407412
 30
0.0
  0
SPLINE
  5
3EB
100
AcDbEntity
  8
RACCORDO
100
AcDbSpline
 62
250
  6
CONTINUOUS
 70
0
 71
3
 72
21
 73
17
 74
0
 42
0.0000001
 43
0.0000001
 44
0.0000000001
 40
0.0
 40
0.0
 40
0.0
 40
0.0
 40
0.0648796175
 40
0.1205368237
 40
0.1676673726
 40
0.2075635655
 40
0.2424277864
 40
0.2755742106
 40
0.3108324292
 40
0.3514352053
 40
0.3995049942
 40
0.4562843912
 40
0.522448658
 40
0.5983393876
 40
0.7796695606
 40
1.0
 40
1.0
 40
1.0
 40
1.0
 10
-90.0061368063
 20
-44.0818407412
 30
0.0
 10
-90.0253595481
 20
-44.1163811418
 30
0.0
 10
-90.0634200968
 20
-44.1793181926
 30
0.0
 10
-90.1251559049
 20
-44.2610048402
 30
0.0
 10
-90.1871429204
 20
-44.3225191456
 30
0.0
 10
-90.2497552717
 20
-44.3637137204
 30
0.0
 10
-90.313659931
 20
-44.3835001549
 30
0.0
 10
-90.377863281
 20
-44.3798797682
 30
0.0
 10
-90.4398448193
 20
-44.3530859399
 30
0.0
 10
-90.4990094687
 20
-44.3051380934
 30
0.0
 10
-90.5561507327
 20
-44.2369115088
 30
0.0
 10
-90.6116420074
 20
-44.1484543655
 30
0.0
 10
-90.6656034985
 20
-44.0398302544
 30
0.0
 10
-90.7398606662
 20
-43.8571826286
 30
0.0
 10
-90.8251499045
 20
-43.578499932
 30
0.0
 10
-90.8800386554
 20
-43.3398945861
 30
0.0
 10
-90.9070680744
 20
-43.2084034215
 30
0.0
  0
SPLINE
  5
3EC
100
AcDbEntity
  8
RACCORDO
100
AcDbSpline
 62
250
  6
CONTINUOUS
 70
0
 71
3
 72
21
 73
17
 74
0
 42
0.0000001
 43
0.0000001
 44
0.0000000001
 40
0.0
 40
0.0
 40
0.0
 40
0.0
 40
0.2195361418
 40
0.4001660029
 40
0.4757833388
 40
0.54173555
 40
0.5983948051
 40
0.6464523361
 40
0.6871683371
 40
0.7226813507
 40
0.7561886028
 40
0.7914463557
 40
0.8316963338
 40
0.879118197
 40
0.9349818932
 40
1.0
 40
1.0
 40
1.0
 40
1.0
 10
-90.8989914952
 20
-31.7527796094
 30
0.0
 10
-90.8721509944
 20
-31.6253436883
 30
0.0
 10
-90.8177106964
 20
-31.3941649385
 30
0.0
 10
-90.7332714253
 20
-31.1243446326
 30
0.0
 10
-90.6599096476
 20
-30.9477030521
 30
0.0
 10
-90.6066167383
 20
-30.8427175159
 30
0.0
 10
-90.5518557667
 20
-30.757293706
 30
0.0
 10
-90.49549319
 20
-30.6914848411
 30
0.0
 10
-90.4371409896
 20
-30.6453898796
 30
0.0
 10
-90.3761145601
 20
-30.6198166245
 30
0.0
 10
-90.3130097986
 20
-30.6167150661
 30
0.0
 10
-90.2501986986
 20
-30.6361921539
 30
0.0
 10
-90.1885736937
 20
-30.6764007301
 30
0.0
 10
-90.1275599429
 20
-30.7363433348
 30
0.0
 10
-90.0667656651
 20
-30.8158297639
 30
0.0
 10
-90.0292631128
 20
-30.8770788086
 30
0.0
 10
-90.0103255361
 20
-30.9106791661
 30
0.0
  0
SPLINE
  5
3ED
100
AcDbEntity
  8
RACCORDO
100
AcDbSpline
 62
250
  6
CONTINUOUS
 70
0
 71
3
 72
9
 73
5
 74
0
 42
0.0000001
 43
0.0000001
 44
0.0000000001
 40
0.0
 40
0.0
 40
0.0
 40
0.0
 40
0.4466704565
 40
1.0
 40
1.0
 40
1.0
 40
1.0
 10
-90.0103255361
 20
-30.9106791661
 30
0.0
 10
-89.9652870749
 20
-30.9905895173
 30
0.0
 10
-89.8793140716
 20
-31.1777703884
 30
0.0
 10
-89.8110068624
 20
-31.3715921327
 30
0.0
 10
-89.7764205371
 20
-31.4798328286
 30
0.0
  0
SPLINE
  5
3EE
100
AcDbEntity
  8
RACCORDO
100
AcDbSpline
 62
250
  6
CONTINUOUS
 70
0
 71
3
 72
13
 73
9
 74
0
 42
0.0000001
 43
0.0000001
 44
0.0000000001
 40
0.0
 40
0.0
 40
0.0
 40
0.0
 40
0.0758032905
 40
0.160666712
 40
0.2584636503
 40
0.3716741987
 40
0.6494670918
 40
1.0
 40
1.0
 40
1.0
 40
1.0
 10
-90.0809499717
 20
-44.0770166177
 30
0.0
 10
-90.0995858999
 20
-44.0729976393
 30
0.0
 10
-90.1378838327
 20
-44.0583169956
 30
0.0
 10
-90.1913028492
 20
-44.0204608515
 30
0.0
 10
-90.2431963389
 20
-43.9666767386
 30
0.0
 10
-90.3155175993
 20
-43.8669122821
 30
0.0
 10
-90.399652408
 20
-43.699387116
 30
0.0
 10
-90.4534700606
 20
-43.5506353562
 30
0.0
 10
-90.4804617046
 20
-43.4667107922
 30
0.0
  0
SPLINE
  5
3EF
100
AcDbEntity
  8
RACCORDO
100
AcDbSpline
 62
250
  6
CONTINUOUS
 70
0
 71
3
 72
21
 73
17
 74
0
 42
0.0000001
 43
0.0000001
 44
0.0000000001
 40
0.0
 40
0.0
 40
0.0
 40
0.0
 40
0.0089289199
 40
0.0156111649
 40
0.0241150725
 40
0.0345310423
 40
0.0468987656
 40
0.0775753656
 40
0.1162306243
 40
0.1627440749
 40
0.2169444507
 40
0.2785844092
 40
0.423102702
 40
0.5936728729
 40
0.7871833783
 40
1.0
 40
1.0
 40
1.0
 40
1.0
 10
-92.3548153851
 20
-44.7851161277
 30
0.0
 10
-92.3426346067
 20
-44.7851151482
 30
0.0
 10
-92.3230300963
 20
-44.7706627878
 30
0.0
 10
-92.304411146
 20
-44.7442671267
 30
0.0
 10
-92.2876825256
 20
-44.7132827157
 30
0.0
 10
-92.2709694221
 20
-44.6740513512
 30
0.0
 10
-92.2463806474
 20
-44.6053234902
 30
0.0
 10
-92.2162329488
 20
-44.4979322585
 30
0.0
 10
-92.1813310068
 20
-44.3437604676
 30
0.0
 10
-92.145984003
 20
-44.1569168307
 30
0.0
 10
-92.1104936952
 20
-43.9382785423
 30
0.0
 10
-92.0607111302
 20
-43.586585576
 30
0.0
 10
-92.0017023983
 20
-43.075975723
 30
0.0
 10
-91.9381119703
 20
-42.3850245757
 30
0.0
 10
-91.8811498178
 20
-41.6000459223
 30
0.0
 10
-91.8502874691
 20
-41.0465696369
 30
0.0
 10
-91.8362772955
 20
-40.756584734
 30
0.0
  0
SPLINE
  5
3F0
100
AcDbEntity
  8
RACCORDO
100
AcDbSpline
 62
250
  6
CONTINUOUS
 70
0
 71
3
 72
21
 73
17
 74
0
 42
0.0000001
 43
0.0000001
 44
0.0000000001
 40
0.0
 40
0.0
 40
0.0
 40
0.0
 40
0.2128099276
 40
0.4063206106
 40
0.5768933526
 40
0.721414389
 40
0.7830540612
 40
0.8372560243
 40
0.8837701214
 40
0.9224242425
 40
0.9531014746
 40
0.965469332
 40
0.9758858167
 40
0.9843897573
 40
0.9910719054
 40
1.0
 40
1.0
 40
1.0
 40
1.0
 10
-91.8362314231
 20
-34.2443640564
 30
0.0
 10
-91.8502397591
 20
-33.9543207467
 30
0.0
 10
-91.8811004594
 20
-33.4007244245
 30
0.0
 10
-91.9380620119
 20
-32.6155679461
 30
0.0
 10
-92.0016586757
 20
-31.9244481651
 30
0.0
 10
-92.0606703403
 20
-31.4137116037
 30
0.0
 10
-92.1104625826
 20
-31.0619311627
 30
0.0
 10
-92.14595648
 20
-30.8432387273
 30
0.0
 10
-92.1813068265
 20
-30.6563492156
 30
0.0
 10
-92.2162160913
 20
-30.5021413375
 30
0.0
 10
-92.2463660076
 20
-30.3947243464
 30
0.0
 10
-92.2709590834
 20
-30.3259782232
 30
0.0
 10
-92.287673325
 20
-30.2867355634
 30
0.0
 10
-92.3044047107
 20
-30.2557426684
 30
0.0
 10
-92.3230250248
 20
-30.2293402712
 30
0.0
 10
-92.3426329057
 20
-30.2148848832
 30
0.0
 10
-92.3548153851
 20
-30.2148838723
 30
0.0
  0
SPLINE
  5
3F1
100
AcDbEntity
  8
RACCORDO
100
AcDbSpline
 62
250
  6
CONTINUOUS
 70
0
 71
3
 72
11
 73
7
 74
0
 42
0.0000001
 43
0.0000001
 44
0.0000000001
 40
0.0
 40
0.0
 40
0.0
 40
0.0
 40
0.3329383895
 40
0.6073963863
 40
0.826866947
 40
1.0
 40
1.0
 40
1.0
 40
1.0
 10
-90.4555890372
 20
-31.4589642089
 30
0.0
 10
-90.4328308925
 20
-31.3936655027
 30
0.0
 10
-90.3873322542
 20
-31.2758243632
 30
0.0
 10
-90.308822701
 20
-31.1225247226
 30
0.0
 10
-90.2271227237
 20
-31.0098501324
 30
0.0
 10
-90.1627057708
 20
-30.9569236922
 30
0.0
 10
-90.1305802343
 20
-30.9407669811
 30
0.0
  0
SPLINE
  5
3F2
100
AcDbEntity
  8
RACCORDO
100
AcDbSpline
 62
250
  6
CONTINUOUS
 70
0
 71
3
 72
9
 73
5
 74
0
 42
0.0000001
 43
0.0000001
 44
0.0000000001
 40
0.0
 40
0.0
 40
0.0
 40
0.0
 40
0.2590414579
 40
1.0
 40
1.0
 40
1.0
 40
1.0
 10
-90.1305802343
 20
-30.9407669811
 30
0.0
 10
-90.1258088277
 20
-30.938367325
 30
0.0
 10
-90.1070896612
 20
-30.9297232715
 30
0.0
 10
-90.0870882357
 20
-30.9237667025
 30
0.0
 10
-90.0720156506
 20
-30.9212766126
 30
0.0
  0
SPLINE
  5
3F3
100
AcDbEntity
  8
ASSI
100
AcDbSpline
 62
7
  6
CONTINUOUS
 70
0
 71
3
 72
11
 73
7
 74
0
 42
0.0000001
 43
0.0000001
 44
0.0000000001
 40
0.0
 40
0.0
 40
0.0
 40
0.0
 40
0.1773247099
 40
0.3916557308
 40
0.662840503
 40
1.0
 40
1.0
 40
1.0
 40
1.0
 10
-90.4821254331
 20
-5.0000000021
 30
0.0
 10
-90.455142667
 20
-4.99999985
 30
0.0
 10
-90.3953147208
 20
-5.0162451797
 30
0.0
 10
-90.3143669083
 20
-5.0787645057
 30
0.0
 10
-90.2347559445
 20
-5.1761628647
 30
0.0
 10
-90.1872254807
 20
-5.2559033516
 30
0.0
 10
-90.1629306208
 20
-5.3010904839
 30
0.0
  0
SPLINE
  5
3F4
100
AcDbEntity
  8
ASSI
100
AcDbSpline
 62
7
  6
CONTINUOUS
 70
0
 71
3
 72
16
 73
12
 74
0
 42
0.0000001
 43
0.0000001
 44
0.0000000001
 40
0.0
 40
0.0
 40
0.0
 40
0.0
 40
0.0289427146
 40
0.0634906765
 40
0.1035861641
 40
0.1490847175
 40
0.2553988698
 40
0.3802196692
 40
0.5206852017
 40
0.6734100601
 40
1.0
 40
1.0
 40
1.0
 40
1.0
 10
-90.1629306208
 20
-5.3010904839
 30
0.0
 10
-90.1295902177
 20
-5.3631018399
 30
0.0
 10
-90.0648186465
 20
-5.5036242245
 30
0.0
 10
-89.9770141439
 20
-5.7399584135
 30
0.0
 10
-89.8907727501
 20
-6.0193377064
 30
0.0
 10
-89.7727494197
 20
-6.4711195666
 30
0.0
 10
-89.6383469697
 20
-7.1309752173
 30
0.0
 10
-89.5018075162
 20
-8.024802246
 30
0.0
 10
-89.3887736522
 20
-9.0356145821
 30
0.0
 10
-89.2734191903
 20
-10.539065476
 30
0.0
 10
-89.2399671724
 20
-11.7055389786
 30
0.0
 10
-89.2399671724
 20
-12.5
 30
0.0
  0
SPLINE
  5
3F5
100
AcDbEntity
  8
ASSI
100
AcDbSpline
 62
7
  6
CONTINUOUS
 70
0
 71
3
 72
11
 73
7
 74
0
 42
0.0000001
 43
0.0000001
 44
0.0000000001
 40
0.0
 40
0.0
 40
0.0
 40
0.0
 40
0.1773247099
 40
0.3916557308
 40
0.662840503
 40
1.0
 40
1.0
 40
1.0
 40
1.0
 10
-90.4821254331
 20
-30.0000000021
 30
0.0
 10
-90.455142667
 20
-29.99999985
 30
0.0
 10
-90.3953147208
 20
-30.0162451797
 30
0.0
 10
-90.3143669083
 20
-30.0787645057
 30
0.0
 10
-90.2347559445
 20
-30.1761628647
 30
0.0
 10
-90.1872254807
 20
-30.2559033516
 30
0.0
 10
-90.1629306208
 20
-30.3010904839
 30
0.0
  0
SPLINE
  5
3F6
100
AcDbEntity
  8
ASSI
100
AcDbSpline
 62
7
  6
CONTINUOUS
 70
0
 71
3
 72
16
 73
12
 74
0
 42
0.0000001
 43
0.0000001
 44
0.0000000001
 40
0.0
 40
0.0
 40
0.0
 40
0.0
 40
0.0289427146
 40
0.0634906765
 40
0.1035861641
 40
0.1490847175
 40
0.2553988698
 40
0.3802196692
 40
0.5206852017
 40
0.6734100601
 40
1.0
 40
1.0
 40
1.0
 40
1.0
 10
-90.1629306208
 20
-30.3010904839
 30
0.0
 10
-90.1295902177
 20
-30.3631018399
 30
0.0
 10
-90.0648186465
 20
-30.5036242245
 30
0.0
 10
-89.9770141439
 20
-30.7399584135
 30
0.0
 10
-89.8907727501
 20
-31.0193377064
 30
0.0
 10
-89.7727494197
 20
-31.4711195666
 30
0.0
 10
-89.6383469697
 20
-32.1309752173
 30
0.0
 10
-89.5018075162
 20
-33.024802246
 30
0.0
 10
-89.3887736522
 20
-34.0356145821
 30
0.0
 10
-89.2734191903
 20
-35.539065476
 30
0.0
 10
-89.2399671724
 20
-36.7055389786
 30
0.0
 10
-89.2399671724
 20
-37.5
 30
0.0
  0
SPLINE
  5
3F7
100
AcDbEntity
  8
ASSI
100
AcDbSpline
 62
7
  6
CONTINUOUS
 70
0
 71
3
 72
12
 73
8
 74
0
 42
0.0000001
 43
0.0000001
 44
0.0000000001
 40
0.0
 40
0.0
 40
0.0
 40
0.0
 40
0.1148167709
 40
0.2007297589
 40
0.3100614596
 40
0.6036059745
 40
1.0
 40
1.0
 40
1.0
 40
1.0
 10
-92.3113459341
 20
-29.5
 30
0.0
 10
-92.3011222661
 20
-29.5
 30
0.0
 10
-92.2847071776
 20
-29.512187542
 30
0.0
 10
-92.2690262697
 20
-29.5342918074
 30
0.0
 10
-92.2481656593
 20
-29.5728705694
 30
0.0
 10
-92.2234367788
 20
-29.639676218
 30
0.0
 10
-92.2065559232
 20
-29.6988072921
 30
0.0
 10
-92.197685211
 20
-29.7329706556
 30
0.0
  0
SPLINE
  5
3F8
100
AcDbEntity
  8
ASSI
100
AcDbSpline
 62
7
  6
CONTINUOUS
 70
0
 71
3
 72
14
 73
10
 74
0
 42
0.0000001
 43
0.0000001
 44
0.0000000001
 40
0.0
 40
0.0
 40
0.0
 40
0.0
 40
0.0607974854
 40
0.142360172
 40
0.2438064122
 40
0.3639600232
 40
0.5013965867
 40
0.6544732002
 40
1.0
 40
1.0
 40
1.0
 40
1.0
 10
-92.197685211
 20
-29.7329706556
 30
0.0
 10
-92.1754337675
 20
-29.8186666102
 30
0.0
 10
-92.1338926806
 20
-30.0219910083
 30
0.0
 10
-92.0782962088
 20
-30.3726768978
 30
0.0
 10
-92.0223582274
 20
-30.8106743211
 30
0.0
 10
-91.9673620206
 20
-31.3306523267
 30
0.0
 10
-91.9147769463
 20
-31.926407252
 30
0.0
 10
-91.8468968786
 20
-32.8501863515
 30
0.0
 10
-91.8082338668
 20
-33.5753560934
 30
0.0
 10
-91.7866760475
 20
-34.0780751913
 30
0.0
  0
SPLINE
  5
3F9
100
AcDbEntity
  8
ASSI
100
AcDbSpline
 62
7
  6
CONTINUOUS
 70
0
 71
3
 72
14
 73
10
 74
0
 42
0.0000001
 43
0.0000001
 44
0.0000000001
 40
0.0
 40
0.0
 40
0.0
 40
0.0
 40
0.3455288653
 40
0.4986052971
 40
0.6360412789
 40
0.7561941877
 40
0.8576398391
 40
0.9392022793
 40
1.0
 40
1.0
 40
1.0
 40
1.0
 10
-91.7867013545
 20
-40.9225149053
 30
0.0
 10
-91.8082606954
 20
-41.4251712514
 30
0.0
 10
-91.8469244851
 20
-42.1502488308
 30
0.0
 10
-91.9148026911
 20
-43.0739088167
 30
0.0
 10
-91.9673850697
 20
-43.6695835197
 30
0.0
 10
-92.0223776455
 20
-44.1894905819
 30
0.0
 10
-92.078311421
 20
-44.6274282207
 30
0.0
 10
-92.1339034127
 20
-44.9780670464
 30
0.0
 10
-92.1754409913
 20
-45.1813645187
 30
0.0
 10
-92.1976904234
 20
-45.2670494175
 30
0.0
  0
SPLINE
  5
3FA
100
AcDbEntity
  8
ASSI
100
AcDbSpline
 62
7
  6
CONTINUOUS
 70
0
 71
3
 72
12
 73
8
 74
0
 42
0.0000001
 43
0.0000001
 44
0.0000000001
 40
0.0
 40
0.0
 40
0.0
 40
0.0
 40
0.3963918216
 40
0.6899352471
 40
0.7992669856
 40
0.8851805016
 40
1.0
 40
1.0
 40
1.0
 40
1.0
 10
-92.1976904234
 20
-45.2670494175
 30
0.0
 10
-92.2065607215
 20
-45.3012098667
 30
0.0
 10
-92.2234407891
 20
-45.3603359112
 30
0.0
 10
-92.2481685531
 20
-45.4271358275
 30
0.0
 10
-92.2690281745
 20
-45.465711191
 30
0.0
 10
-92.2847085204
 20
-45.4878137188
 30
0.0
 10
-92.3011228136
 20
-45.5
 30
0.0
 10
-92.3113459341
 20
-45.5
 30
0.0
  0
SPLINE
  5
3FB
100
AcDbEntity
  8
ASSI
100
AcDbSpline
 62
7
  6
CONTINUOUS
 70
0
 71
3
 72
16
 73
12
 74
0
 42
0.0000001
 43
0.0000001
 44
0.0000000001
 40
0.0
 40
0.0
 40
0.0
 40
0.0
 40
0.3265865004
 40
0.4793101572
 40
0.6197750766
 40
0.7445959716
 40
0.8509110261
 40
0.896410347
 40
0.9365068106
 40
0.9710559442
 40
1.0
 40
1.0
 40
1.0
 40
1.0
 10
-89.2399671724
 20
-37.5
 30
0.0
 10
-89.2399671724
 20
-38.2944462788
 30
0.0
 10
-89.2734180126
 20
-39.4608991023
 30
0.0
 10
-89.3887682504
 20
-40.9643253543
 30
0.0
 10
-89.5017982917
 20
-41.9751256794
 30
0.0
 10
-89.6383334699
 20
-42.8689469545
 30
0.0
 10
-89.7727318855
 20
-43.5288022438
 30
0.0
 10
-89.8907517139
 20
-43.9805877843
 30
0.0
 10
-89.9769909782
 20
-44.259972679
 30
0.0
 10
-90.0647935118
 20
-44.4963144758
 30
0.0
 10
-90.1295633764
 20
-44.6368429392
 30
0.0
 10
-90.1629028476
 20
-44.6988578588
 30
0.0
  0
SPLINE
  5
3FC
100
AcDbEntity
  8
ASSI
100
AcDbSpline
 62
7
  6
CONTINUOUS
 70
0
 71
3
 72
11
 73
7
 74
0
 42
0.0000001
 43
0.0000001
 44
0.0000000001
 40
0.0
 40
0.0
 40
0.0
 40
0.0
 40
0.3371661781
 40
0.6083532148
 40
0.8226817096
 40
1.0
 40
1.0
 40
1.0
 40
1.0
 10
-90.1629028476
 20
-44.6988578588
 30
0.0
 10
-90.1871996863
 20
-44.7440525318
 30
0.0
 10
-90.2347338966
 20
-44.8238061821
 30
0.0
 10
-90.3143515159
 20
-44.9212210835
 30
0.0
 10
-90.3953060477
 20
-44.9837514819
 30
0.0
 10
-90.4551401928
 20
-45.0000001555
 30
0.0
 10
-90.482125433
 20
-44.9999999978
 30
0.0
  0
SPLINE
  5
3FD
100
AcDbEntity
  8
ASSI
100
AcDbSpline
 62
7
  6
CONTINUOUS
 70
0
 71
3
 72
16
 73
12
 74
0
 42
0.0000001
 43
0.0000001
 44
0.0000000001
 40
0.0
 40
0.0
 40
0.0
 40
0.0
 40
0.3265865004
 40
0.4793101572
 40
0.6197750766
 40
0.7445959716
 40
0.8509110261
 40
0.896410347
 40
0.9365068106
 40
0.9710559442
 40
1.0
 40
1.0
 40
1.0
 40
1.0
 10
-89.2399671724
 20
-12.5
 30
0.0
 10
-89.2399671724
 20
-13.2944462788
 30
0.0
 10
-89.2734180126
 20
-14.4608991023
 30
0.0
 10
-89.3887682504
 20
-15.9643253543
 30
0.0
 10
-89.5017982917
 20
-16.9751256794
 30
0.0
 10
-89.6383334699
 20
-17.8689469545
 30
0.0
 10
-89.7727318855
 20
-18.5288022438
 30
0.0
 10
-89.8907517139
 20
-18.9805877843
 30
0.0
 10
-89.9769909782
 20
-19.259972679
 30
0.0
 10
-90.0647935118
 20
-19.4963144758
 30
0.0
 10
-90.1295633764
 20
-19.6368429392
 30
0.0
 10
-90.1629028476
 20
-19.6988578588
 30
0.0
  0
SPLINE
  5
3FE
100
AcDbEntity
  8
ASSI
100
AcDbSpline
 62
7
  6
CONTINUOUS
 70
0
 71
3
 72
11
 73
7
 74
0
 42
0.0000001
 43
0.0000001
 44
0.0000000001
 40
0.0
 40
0.0
 40
0.0
 40
0.0
 40
0.3371661781
 40
0.6083532148
 40
0.8226817096
 40
1.0
 40
1.0
 40
1.0
 40
1.0
 10
-90.1629028476
 20
-19.6988578588
 30
0.0
 10
-90.1871996863
 20
-19.7440525318
 30
0.0
 10
-90.2347338966
 20
-19.8238061821
 30
0.0
 10
-90.3143515159
 20
-19.9212210835
 30
0.0
 10
-90.3953060477
 20
-19.9837514819
 30
0.0
 10
-90.4551401928
 20
-20.0000001555
 30
0.0
 10
-90.482125433
 20
-19.9999999978
 30
0.0
  0
SPLINE
  5
3FF
100
AcDbEntity
  8
ASSI
100
AcDbSpline
 62
7
  6
CONTINUOUS
 70
0
 71
3
 72
12
 73
8
 74
0
 42
0.0000001
 43
0.0000001
 44
0.0000000001
 40
0.0
 40
0.0
 40
0.0
 40
0.0
 40
0.1148167709
 40
0.2007297589
 40
0.3100614596
 40
0.6036059745
 40
1.0
 40
1.0
 40
1.0
 40
1.0
 10
-92.3113459341
 20
-4.5
 30
0.0
 10
-92.3011222661
 20
-4.5
 30
0.0
 10
-92.2847071776
 20
-4.512187542
 30
0.0
 10
-92.2690262697
 20
-4.5342918074
 30
0.0
 10
-92.2481656593
 20
-4.5728705694
 30
0.0
 10
-92.2234367788
 20
-4.639676218
 30
0.0
 10
-92.2065559232
 20
-4.6988072921
 30
0.0
 10
-92.197685211
 20
-4.7329706556
 30
0.0
  0
SPLINE
  5
400
100
AcDbEntity
  8
ASSI
100
AcDbSpline
 62
7
  6
CONTINUOUS
 70
0
 71
3
 72
14
 73
10
 74
0
 42
0.0000001
 43
0.0000001
 44
0.0000000001
 40
0.0
 40
0.0
 40
0.0
 40
0.0
 40
0.0607974854
 40
0.142360172
 40
0.2438064122
 40
0.3639600232
 40
0.5013965867
 40
0.6544732002
 40
1.0
 40
1.0
 40
1.0
 40
1.0
 10
-92.197685211
 20
-4.7329706556
 30
0.0
 10
-92.1754337675
 20
-4.8186666102
 30
0.0
 10
-92.1338926806
 20
-5.0219910083
 30
0.0
 10
-92.0782962088
 20
-5.3726768978
 30
0.0
 10
-92.0223582274
 20
-5.8106743211
 30
0.0
 10
-91.9673620206
 20
-6.3306523267
 30
0.0
 10
-91.9147769463
 20
-6.926407252
 30
0.0
 10
-91.8468968786
 20
-7.8501863515
 30
0.0
 10
-91.8082338668
 20
-8.5753560934
 30
0.0
 10
-91.7866760475
 20
-9.0780751913
 30
0.0
  0
SPLINE
  5
401
100
AcDbEntity
  8
ASSI
100
AcDbSpline
 62
7
  6
CONTINUOUS
 70
0
 71
3
 72
14
 73
10
 74
0
 42
0.0000001
 43
0.0000001
 44
0.0000000001
 40
0.0
 40
0.0
 40
0.0
 40
0.0
 40
0.3455288653
 40
0.4986052971
 40
0.6360412789
 40
0.7561941877
 40
0.8576398391
 40
0.9392022793
 40
1.0
 40
1.0
 40
1.0
 40
1.0
 10
-91.7867013545
 20
-15.9225149053
 30
0.0
 10
-91.8082606954
 20
-16.4251712514
 30
0.0
 10
-91.8469244851
 20
-17.1502488308
 30
0.0
 10
-91.9148026911
 20
-18.0739088167
 30
0.0
 10
-91.9673850697
 20
-18.6695835197
 30
0.0
 10
-92.0223776455
 20
-19.1894905819
 30
0.0
 10
-92.078311421
 20
-19.6274282207
 30
0.0
 10
-92.1339034127
 20
-19.9780670464
 30
0.0
 10
-92.1754409913
 20
-20.1813645187
 30
0.0
 10
-92.1976904234
 20
-20.2670494175
 30
0.0
  0
SPLINE
  5
402
100
AcDbEntity
  8
ASSI
100
AcDbSpline
 62
7
  6
CONTINUOUS
 70
0
 71
3
 72
12
 73
8
 74
0
 42
0.0000001
 43
0.0000001
 44
0.0000000001
 40
0.0
 40
0.0
 40
0.0
 40
0.0
 40
0.3963918216
 40
0.6899352471
 40
0.7992669856
 40
0.8851805016
 40
1.0
 40
1.0
 40
1.0
 40
1.0
 10
-92.1976904234
 20
-20.2670494175
 30
0.0
 10
-92.2065607215
 20
-20.3012098667
 30
0.0
 10
-92.2234407891
 20
-20.3603359112
 30
0.0
 10
-92.2481685531
 20
-20.4271358275
 30
0.0
 10
-92.2690281745
 20
-20.465711191
 30
0.0
 10
-92.2847085204
 20
-20.4878137188
 30
0.0
 10
-92.3011228136
 20
-20.5
 30
0.0
 10
-92.3113459341
 20
-20.5
 30
0.0
  0
SPLINE
  5
403
100
AcDbEntity
  8
ASSI
100
AcDbSpline
 62
7
  6
CONTINUOUS
 70
0
 71
3
 72
19
 73
15
 74
0
 42
0.0000001
 43
0.0000001
 44
0.0000000001
 40
0.0
 40
0.0
 40
0.0
 40
0.0
 40
0.2097288755
 40
0.3971761933
 40
0.5604640687
 40
0.6981598128
 40
0.757134289
 40
0.8094602231
 40
0.8551880978
 40
0.8944763096
 40
0.9276653516
 40
0.9554042034
 40
0.9788657356
 40
1.0
 40
1.0
 40
1.0
 40
1.0
 10
-91.2333676456
 20
-7.6232827356
 30
0.0
 10
-91.2136803554
 20
-7.4273324895
 30
0.0
 10
-91.1722045858
 20
-7.0566473035
 30
0.0
 10
-91.0981439362
 20
-6.5354971094
 30
0.0
 10
-91.015934745
 20
-6.0841607735
 30
0.0
 10
-90.9378029648
 20
-5.7550122133
 30
0.0
 10
-90.8696718069
 20
-5.5312690535
 30
0.0
 10
-90.8195436662
 20
-5.3925153704
 30
0.0
 10
-90.7678460266
 20
-5.2742365634
 30
0.0
 10
-90.7146369959
 20
-5.1766140014
 30
0.0
 10
-90.6598991828
 20
-5.0996953228
 30
0.0
 10
-90.6033230483
 20
-5.0434448311
 30
0.0
 10
-90.5441470492
 20
-5.0082362176
 30
0.0
 10
-90.5019706432
 20
-5.0000001139
 30
0.0
 10
-90.4821254331
 20
-5.0000000021
 30
0.0
  0
SPLINE
  5
404
100
AcDbEntity
  8
ASSI
100
AcDbSpline
 62
7
  6
CONTINUOUS
 70
0
 71
3
 72
19
 73
15
 74
0
 42
0.0000001
 43
0.0000001
 44
0.0000000001
 40
0.0
 40
0.0
 40
0.0
 40
0.0
 40
0.0211347244
 40
0.044596632
 40
0.0723357409
 40
0.1055249241
 40
0.1448131814
 40
0.1905410201
 40
0.2428668568
 40
0.3018411869
 40
0.4395365526
 40
0.6028240473
 40
0.7902711108
 40
1.0
 40
1.0
 40
1.0
 40
1.0
 10
-90.482125433
 20
-19.9999999978
 30
0.0
 10
-90.501970041
 20
-19.9999998818
 30
0.0
 10
-90.5441450302
 20
-19.9917643329
 30
0.0
 10
-90.6033193296
 20
-19.9565579013
 30
0.0
 10
-90.6598939394
 20
-19.9003107316
 30
0.0
 10
-90.7146303306
 20
-19.8233965602
 30
0.0
 10
-90.7678380113
 20
-19.7257796925
 30
0.0
 10
-90.8195344073
 20
-19.607507769
 30
0.0
 10
-90.8696614028
 20
-19.4687621218
 30
0.0
 10
-90.9377911159
 20
-19.2450318698
 30
0.0
 10
-91.0159215168
 20
-18.9159019613
 30
0.0
 10
-91.0981296474
 20
-18.4645906934
 30
0.0
 10
-91.1721898018
 20
-17.9434687191
 30
0.0
 10
-91.2136655823
 20
-17.572803318
 30
0.0
 10
-91.233352964
 20
-17.3768633822
 30
0.0
  0
SPLINE
  5
405
100
AcDbEntity
  8
ASSI
100
AcDbSpline
 62
7
  6
CONTINUOUS
 70
0
 71
3
 72
19
 73
15
 74
0
 42
0.0000001
 43
0.0000001
 44
0.0000000001
 40
0.0
 40
0.0
 40
0.0
 40
0.0
 40
0.0211347244
 40
0.044596632
 40
0.0723357409
 40
0.1055249241
 40
0.1448131814
 40
0.1905410201
 40
0.2428668568
 40
0.3018411869
 40
0.4395365526
 40
0.6028240473
 40
0.7902711108
 40
1.0
 40
1.0
 40
1.0
 40
1.0
 10
-90.482125433
 20
-44.9999999978
 30
0.0
 10
-90.501970041
 20
-44.9999998818
 30
0.0
 10
-90.5441450302
 20
-44.9917643329
 30
0.0
 10
-90.6033193296
 20
-44.9565579013
 30
0.0
 10
-90.6598939394
 20
-44.9003107316
 30
0.0
 10
-90.7146303306
 20
-44.8233965602
 30
0.0
 10
-90.7678380113
 20
-44.7257796925
 30
0.0
 10
-90.8195344073
 20
-44.607507769
 30
0.0
 10
-90.8696614028
 20
-44.4687621218
 30
0.0
 10
-90.9377911159
 20
-44.2450318698
 30
0.0
 10
-91.0159215168
 20
-43.9159019613
 30
0.0
 10
-91.0981296474
 20
-43.4645906934
 30
0.0
 10
-91.1721898018
 20
-42.9434687191
 30
0.0
 10
-91.2136655823
 20
-42.572803318
 30
0.0
 10
-91.233352964
 20
-42.3768633822
 30
0.0
  0
SPLINE
  5
406
100
AcDbEntity
  8
ASSI
100
AcDbSpline
 62
7
  6
CONTINUOUS
 70
0
 71
3
 72
19
 73
15
 74
0
 42
0.0000001
 43
0.0000001
 44
0.0000000001
 40
0.0
 40
0.0
 40
0.0
 40
0.0
 40
0.2097288755
 40
0.3971761933
 40
0.5604640687
 40
0.6981598128
 40
0.757134289
 40
0.8094602231
 40
0.8551880978
 40
0.8944763096
 40
0.9276653516
 40
0.9554042034
 40
0.9788657356
 40
1.0
 40
1.0
 40
1.0
 40
1.0
 10
-91.2333676455
 20
-32.6232827356
 30
0.0
 10
-91.2136803554
 20
-32.4273324895
 30
0.0
 10
-91.1722045858
 20
-32.0566473035
 30
0.0
 10
-91.0981439362
 20
-31.5354971094
 30
0.0
 10
-91.015934745
 20
-31.0841607735
 30
0.0
 10
-90.9378029648
 20
-30.7550122133
 30
0.0
 10
-90.8696718069
 20
-30.5312690535
 30
0.0
 10
-90.8195436662
 20
-30.3925153704
 30
0.0
 10
-90.7678460266
 20
-30.2742365634
 30
0.0
 10
-90.7146369959
 20
-30.1766140014
 30
0.0
 10
-90.6598991828
 20
-30.0996953228
 30
0.0
 10
-90.6033230483
 20
-30.0434448311
 30
0.0
 10
-90.5441470492
 20
-30.0082362176
 30
0.0
 10
-90.5019706432
 20
-30.0000001139
 30
0.0
 10
-90.4821254331
 20
-30.0000000021
 30
0.0
  0
ENDSEC
  0
SECTION
  2
OBJECTS
  0
DICTIONARY
  5
C
100
AcDbDictionary
280
0
281
1
  3
ACAD_GROUP
350
D
  3
ACAD_MLINESTYLE
350
17
  3
ACAD_LAYOUT
350
1A
  3
ACAD_PLOTSETTINGS
350
19
  3
ACAD_PLOTSTYLENAME
350
E
  0
DICTIONARY
  5
D
102
{ACAD_REACTORS
330
C
102
}
100
AcDbDictionary
280
0
281
1
  0
ACDBDICTIONARYWDFLT
  5
E
102
{ACAD_REACTORS
330
C
102
}
100
AcDbDictionary
281
1
  3
Normal
350
F
100
AcDbDictionaryWithDefault
340
F
  0
DICTIONARY
  5
17
102
{ACAD_REACTORS
330
C
102
}
100
AcDbDictionary
280
0
281
1
  3
Standard
350
18
  0
DICTIONARY
  5
19
102
{ACAD_REACTORS
330
C
102
}
100
AcDbDictionary
281
1
  0
DICTIONARY
  5
1A
102
{ACAD_REACTORS
330
C
102
}
100
AcDbDictionary
281
1
  3
Model
350
407
  3
Layout1
350
408
  0
ACDBPLACEHOLDER
  5
F
102
{ACAD_REACTORS
330
E
102
}
  0
MLINESTYLE
  5
18
102
{ACAD_REACTORS
330
17
102
}
100
AcDbMlineStyle
  2
STANDARD
 70
0
  3

 62
256
 51
90.0
 52
90.0
 71
2
 49
0.5
 62
256
  6
BYLAYER
 49
-0.5
 62
256
  6
BYLAYER
  0
LAYOUT
  5
407
102
{ACAD_REACTORS
330
1A
102
}
100
AcDbPlotSettings
  1

  2
none_device
  4
ISO_A4_(297.00_x_210.00_MM)
  6

 40
0.0
 41
0.0
 42
0.0
 43
0.0
 44
297.0
 45
210.0
 46
0.0
 47
0.0
 48
0.0
 49
0.0
140
0.0
141
0.0
142
1.0
143
1.0
 70
1024
 72
1
 73
0
 74
0
  7

 75
0
147
1.0
148
0.0
149
0.0
100
AcDbLayout
  1
Model
 70
0
 71
0
 10
0.0
 20
0.0
 11
297.0
 21
210.0
 12
0.0
 22
0.0
 32
0.0
 14
0.0
 24
0.0
 34
0.0
 15
0.0
 25
0.0
 35
0.0
146
0.0
 13
0.0
 23
0.0
 33
0.0
 16
1.0
 26
0.0
 36
0.0
 17
0.0
 27
1.0
 37
0.0
 76
0
330
222
345
0
346
0
  0
LAYOUT
  5
408
102
{ACAD_REACTORS
330
1A
102
}
100
AcDbPlotSettings
  1

  2
none_device
  4
ISO_A4_(297.00_x_210.00_MM)
  6

 40
0.0
 41
0.0
 42
0.0
 43
0.0
 44
297.0
 45
210.0
 46
0.0
 47
0.0
 48
0.0
 49
0.0
140
0.0
141
0.0
142
1.0
143
1.0
 70
0
 72
1
 73
0
 74
0
  7

 75
0
147
1.0
148
0.0
149
0.0
100
AcDbLayout
  1
Layout1
 70
0
 71
1
 10
0.0
 20
0.0
 11
297.0
 21
210.0
 12
0.0
 22
0.0
 32
0.0
 14
0.0
 24
0.0
 34
0.0
 15
0.0
 25
0.0
 35
0.0
146
0.0
 13
0.0
 23
0.0
 33
0.0
 16
1.0
 26
0.0
 36
0.0
 17
0.0
 27
1.0
 37
0.0
 76
0
330
223
345
0
346
0
  0
ENDSEC
  0
EOF
