  0
SECTION
  2
HEADER
  9
$ACADVER
  1
AC1024
  9
$DWGCODEPAGE
  3
ANSI_1252
  9
$EXTMAX
 10
297.0
 20
210.0
 30
0.0
  9
$EXTMIN
 10
0.0
 20
0.0
 30
0.0
  9
$LIMMIN
 10
0.0
 20
0.0
  9
$LIMMAX
 10
297.0
 20
210.0
  9
$VIEWCTR
 10
148.5
 20
105.0
  9
$VIEWSIZE
 40
210.0
  9
$CLAYER
  8
0
  9
$LTSCALE
 40
16.335
  9
$CELTYPE
  6
BYLAYER
  9
$DIMSCALE
 40
1.0
  9
$DIMASZ
 40
3.0
  9
$DIMEXO
 40
0.5
  9
$DIMDLI
 40
11.286
  9
$DIMEXE
 40
1.5
  9
$DIMCEN
 40
2.673
  9
$DIMLFAC
 40
1.0
  9
$DIMBLK
  1
_FILLED
  9
$DIMALT
 70
0
  9
$DIMALTF
 40
0.0393700787
  9
$DIMTXT
 40
3.0
  9
$DIMTOL
 70
1
  9
$DIMLIM
 70
0
  9
$DIMTFAC
 40
1.0
  9
$DIMTP
 40
0.01
  9
$DIMTM
 40
0.01
  9
$DIMGAP
 40
0.625
  9
$DIMDSEP
 70
44
  9
$AUNITS
 70
0
  9
$PDMODE
 70
3
  9
$PDSIZE
 40
3.0
  9
$HANDSEED
  5
4C1
  9
$TILEMODE
 70
1
  9
$MEASUREMENT
 70
1
  9
$INSUNITS
 70
4
  0
ENDSEC
  0
SECTION
  2
CLASSES
  0
CLASS
  1
ACDBDICTIONARYWDFLT
  2
AcDbDictionaryWithDefault
  3
AutoCAD 2000
 90
0
 91
1
280
0
281
0
  0
CLASS
  1
ACDBPLACEHOLDER
  2
AcDbPlaceHolder
  3
AutoCAD 2000
 90
0
 91
1
280
0
281
0
  0
CLASS
  1
LAYOUT
  2
AcDbLayout
  3
AutoCAD 2000
 90
0
 91
0
280
0
281
0
  0
ENDSEC
  0
SECTION
  2
TABLES
  0
TABLE
  2
VPORT
  5
8
100
AcDbSymbolTable
 70
2
  0
VPORT
  5
1F4
100
AcDbSymbolTableRecord
100
AcDbViewportTableRecord
  2
*ACTIVE
 70
0
 10
0.0
 20
0.0
 11
1.0
 21
1.0
 12
148.5
 22
105.0
 13
0.0
 23
0.0
 14
1.0
 24
1.0
 15
0.0
 25
0.0
 16
0.0
 26
0.0
 36
1.0
 17
0.0
 27
0.0
 37
0.0
 40
210.0
 41
1.4142857143
 42
50.0
 43
0.0
 44
0.0
 50
0.0
 51
0.0
 71
0
 72
100
 73
1
 74
1
 75
0
 76
0
 77
0
 78
0
  0
ENDTAB
  0
TABLE
  2
LTYPE
  5
5
100
AcDbSymbolTable
 70
6
  0
LTYPE
  5
14
100
AcDbSymbolTableRecord
100
AcDbLinetypeTableRecord
  2
BYBLOCK
 70
0
  3

 72
65
 73
0
 40
0.0
  0
LTYPE
  5
15
100
AcDbSymbolTableRecord
100
AcDbLinetypeTableRecord
  2
BYLAYER
 70
0
  3

 72
65
 73
0
 40
0.0
  0
LTYPE
  5
16
100
AcDbSymbolTableRecord
100
AcDbLinetypeTableRecord
  2
CONTINUOUS
 70
64
  3
Solid line
 72
65
 73
0
 40
0.0
  0
LTYPE
  5
1F5
100
AcDbSymbolTableRecord
100
AcDbLinetypeTableRecord
  2
CENTER
 70
64
  3
____ _ ____ _ ____ _ ____ _ ____ _ ____ _ ____
 72
65
 73
4
 40
0.6
 49
0.375
 74
0
 49
-0.075
 74
0
 49
0.075
 74
0
 49
-0.075
 74
0
  0
LTYPE
  5
1F6
100
AcDbSymbolTableRecord
100
AcDbLinetypeTableRecord
  2
HIDDEN
 70
64
  3
- - - - - - - - - - - - - - - - - - - -
 72
65
 73
2
 40
0.2
 49
0.1
 74
0
 49
-0.1
 74
0
  0
LTYPE
  5
1F7
100
AcDbSymbolTableRecord
100
AcDbLinetypeTableRecord
  2
PHANTOM
 70
64
  3
_____ _ _ _____ _ _ _____ _ _ _____
 72
65
 73
6
 40
0.8
 49
0.45
 74
0
 49
-0.05
 74
0
 49
0.1
 74
0
 49
-0.05
 74
0
 49
0.1
 74
0
 49
-0.05
 74
0
  0
LTYPE
  5
1F8
100
AcDbSymbolTableRecord
100
AcDbLinetypeTableRecord
  2
DOT
 70
64
  3
. . . . . . . . . . . . . . . . . . . .
 72
65
 73
2
 40
0.2
 49
0.1
 74
0
 49
-0.1
 74
0
  0
LTYPE
  5
1F9
100
AcDbSymbolTableRecord
100
AcDbLinetypeTableRecord
  2
DASHED
 70
64
  3
- - - - - - - - - - - - - - - - - - - -
 72
65
 73
2
 40
0.2
 49
0.1
 74
0
 49
-0.1
 74
0
  0
ENDTAB
  0
TABLE
  2
LAYER
  5
2
100
AcDbSymbolTable
 70
36
  0
LAYER
  5
10
100
AcDbSymbolTableRecord
100
AcDbLayerTableRecord
  2
0
 70
0
 62
7
  6
CONTINUOUS
370
-3
390
F
  0
LAYER
  5
1FA
100
AcDbSymbolTableRecord
100
AcDbLayerTableRecord
  2
DEFAULT_1
 70
0
 62
7
  6
CENTER
370
-3
390
F
  0
LAYER
  5
1FB
100
AcDbSymbolTableRecord
100
AcDbLayerTableRecord
  2
DEFAULT_2
 70
0
 62
7
  6
HIDDEN
370
-3
390
F
  0
LAYER
  5
1FC
100
AcDbSymbolTableRecord
100
AcDbLayerTableRecord
  2
DEFAULT_3
 70
0
 62
7
  6
PHANTOM
370
-3
390
F
  0
LAYER
  5
1FD
100
AcDbSymbolTableRecord
100
AcDbLayerTableRecord
  2
ASSI
 70
0
 62
7
  6
CONTINUOUS
370
-3
390
F
  0
LAYER
  5
1FE
100
AcDbSymbolTableRecord
100
AcDbLayerTableRecord
  2
COORDINATE
 70
0
 62
7
  6
CONTINUOUS
370
-3
390
F
  0
LAYER
  5
1FF
100
AcDbSymbolTableRecord
100
AcDbLayerTableRecord
  2
COPY_PUBLISH
 70
0
 62
7
  6
CONTINUOUS
370
-3
390
F
  0
LAYER
  5
200
100
AcDbSymbolTableRecord
100
AcDbLayerTableRecord
  2
COSMETIC
 70
0
 62
7
  6
CONTINUOUS
370
-3
390
F
  0
LAYER
  5
201
100
AcDbSymbolTableRecord
100
AcDbLayerTableRecord
  2
COSMETICI
 70
0
 62
7
  6
CONTINUOUS
370
-3
390
F
  0
LAYER
  5
202
100
AcDbSymbolTableRecord
100
AcDbLayerTableRecord
  2
CURVE
 70
0
 62
7
  6
CONTINUOUS
370
-3
390
F
  0
LAYER
  5
203
100
AcDbSymbolTableRecord
100
AcDbLayerTableRecord
  2
CURVE_VERN
 70
0
 62
7
  6
CONTINUOUS
370
-3
390
F
  0
LAYER
  5
204
100
AcDbSymbolTableRecord
100
AcDbLayerTableRecord
  2
DRAFT
 70
0
 62
7
  6
CONTINUOUS
370
-3
390
F
  0
LAYER
  5
205
100
AcDbSymbolTableRecord
100
AcDbLayerTableRecord
  2
IMPORT_IGES
 70
0
 62
7
  6
CONTINUOUS
370
-3
390
F
  0
LAYER
  5
206
100
AcDbSymbolTableRecord
100
AcDbLayerTableRecord
  2
INTFCLR_1
 70
0
 62
7
  6
CONTINUOUS
370
-3
390
F
  0
LAYER
  5
207
100
AcDbSymbolTableRecord
100
AcDbLayerTableRecord
  2
INTF_1
 70
0
 62
7
  6
CONTINUOUS
370
-3
390
F
  0
LAYER
  5
208
100
AcDbSymbolTableRecord
100
AcDbLayerTableRecord
  2
NOTE
 70
0
 62
7
  6
CONTINUOUS
370
-3
390
F
  0
LAYER
  5
209
100
AcDbSymbolTableRecord
100
AcDbLayerTableRecord
  2
PIANI
 70
0
 62
7
  6
CONTINUOUS
370
-3
390
F
  0
LAYER
  5
20A
100
AcDbSymbolTableRecord
100
AcDbLayerTableRecord
  2
PUNTI
 70
0
 62
7
  6
CONTINUOUS
370
-3
390
F
  0
LAYER
  5
20B
100
AcDbSymbolTableRecord
100
AcDbLayerTableRecord
  2
RACCORDO
 70
0
 62
7
  6
CONTINUOUS
370
-3
390
F
  0
LAYER
  5
20C
100
AcDbSymbolTableRecord
100
AcDbLayerTableRecord
  2
RGB____0____0____0__
 70
0
 62
7
  6
CONTINUOUS
370
-3
390
F
  0
LAYER
  5
20D
100
AcDbSymbolTableRecord
100
AcDbLayerTableRecord
  2
SIMBOLI
 70
0
 62
7
  6
CONTINUOUS
370
-3
390
F
  0
LAYER
  5
20E
100
AcDbSymbolTableRecord
100
AcDbLayerTableRecord
  2
SMUSSO
 70
0
 62
7
  6
CONTINUOUS
370
-3
390
F
  0
LAYER
  5
20F
100
AcDbSymbolTableRecord
100
AcDbLayerTableRecord
  2
SNAPLINE
 70
0
 62
7
  6
CONTINUOUS
370
-3
390
F
  0
LAYER
  5
210
100
AcDbSymbolTableRecord
100
AcDbLayerTableRecord
  2
SUPERFICI
 70
0
 62
7
  6
CONTINUOUS
370
-3
390
F
  0
LAYER
  5
211
100
AcDbSymbolTableRecord
100
AcDbLayerTableRecord
  2
TRASH
 70
0
 62
7
  6
CONTINUOUS
370
-3
390
F
  0
LAYER
  5
212
100
AcDbSymbolTableRecord
100
AcDbLayerTableRecord
  2
XSEC_DATUMS
 70
0
 62
7
  6
CONTINUOUS
370
-3
390
F
  0
ENDTAB
  0
TABLE
  2
STYLE
  5
3
100
AcDbSymbolTable
 70
1
  0
STYLE
  5
11
100
AcDbSymbolTableRecord
100
AcDbTextStyleTableRecord
  2
STANDARD
 70
0
 40
0.0
 41
0.8
 50
0.0
 71
0
 42
0.2
  3
txt
  4

  0
STYLE
  5
213
100
AcDbSymbolTableRecord
100
AcDbTextStyleTableRecord
  2
TEXTSTYLE_1
 70
0
 40
0.0
 41
0.8
 50
0.0
 71
0
 42
0.2
  3
gdt
  4

  0
ENDTAB
  0
TABLE
  2
VIEW
  5
6
100
AcDbSymbolTable
 70
0
  0
ENDTAB
  0
TABLE
  2
UCS
  5
7
100
AcDbSymbolTable
 70
0
  0
ENDTAB
  0
TABLE
  2
APPID
  5
9
100
AcDbSymbolTable
 70
1
  0
APPID
  5
214
100
AcDbSymbolTableRecord
100
AcDbRegAppTableRecord
  2
ACAD
 70
0
  0
ENDTAB
  0
TABLE
  2
BLOCK_RECORD
  5
1
100
AcDbSymbolTable
 70
0
  0
BLOCK_RECORD
  5
215
100
AcDbSymbolTableRecord
100
AcDbBlockTableRecord
  2
*Model_Space
  0
BLOCK_RECORD
  5
216
100
AcDbSymbolTableRecord
100
AcDbBlockTableRecord
  2
*Paper_Space
  0
BLOCK_RECORD
  5
217
100
AcDbSymbolTableRecord
100
AcDbBlockTableRecord
  2
_FILLED
  0
BLOCK_RECORD
  5
218
100
AcDbSymbolTableRecord
100
AcDbBlockTableRecord
  2
*D0
  0
BLOCK_RECORD
  5
219
100
AcDbSymbolTableRecord
100
AcDbBlockTableRecord
  2
*D1
  0
BLOCK_RECORD
  5
21A
100
AcDbSymbolTableRecord
100
AcDbBlockTableRecord
  2
*D2
  0
ENDTAB
  0
TABLE
  2
DIMSTYLE
  5
A
100
AcDbSymbolTable
 70
1
100
AcDbDimStyleTable
 71
0
  0
DIMSTYLE
105
21B
100
AcDbSymbolTableRecord
100
AcDbDimStyleTableRecord
  2
STANDARD
 70
0
  3

  4

 40
1.0
 41
3.0
 42
0.5
 43
0.38
 44
1.5
 45
0.0
 46
0.0
 47
0.01
 48
0.01
140
3.0
141
0.09
142
0.0
143
25.4
144
1.0
145
0.0
146
1.0
147
0.625
 71
1
 72
0
 73
0
 74
0
 75
0
 76
0
 77
1
 78
8
 79
2
170
0
171
1
172
0
173
0
174
0
175
0
176
0
177
0
178
0
270
2
179
2
271
2
272
2
273
2
274
2
275
0
280
0
281
0
282
0
283
1
284
8
285
0
286
0
287
3
288
0
340
11
278
44
341
217
342
217
343
217
344
217
  0
DIMSTYLE
105
21C
100
AcDbSymbolTableRecord
100
AcDbDimStyleTableRecord
  2
DIMSTYLE_1
 70
0
  3

  4

 40
1.0
 41
3.0
 42
0.5
 43
0.38
 44
1.5
 45
0.0
 46
0.0
 47
0.0
 48
0.0
140
3.0
141
0.09
142
0.0
143
25.4
144
1.0
145
0.0
146
1.0
147
0.75
 71
0
 72
0
 73
0
 74
0
 75
0
 76
0
 77
1
 78
8
 79
2
170
0
171
1
172
0
173
0
174
0
175
0
176
0
177
0
178
0
270
2
179
2
271
1
272
1
273
2
274
2
275
0
280
0
281
0
282
0
283
1
284
8
285
0
286
0
287
3
288
0
340
11
278
44
341
217
342
217
343
217
344
217
  0
DIMSTYLE
105
21D
100
AcDbSymbolTableRecord
100
AcDbDimStyleTableRecord
  2
DIMSTYLE_2
 70
0
  3

  4

 40
1.0
 41
3.0
 42
0.5
 43
0.38
 44
1.5
 45
0.0
 46
0.0
 47
0.0
 48
0.0
140
3.0
141
0.09
142
0.0
143
25.4
144
1.0
145
0.0
146
1.0
147
0.75
 71
0
 72
0
 73
0
 74
0
 75
0
 76
0
 77
1
 78
8
 79
2
170
0
171
1
172
0
173
0
174
0
175
0
176
0
177
0
178
0
270
2
179
2
271
2
272
2
273
2
274
2
275
0
280
0
281
0
282
0
283
1
284
8
285
0
286
0
287
3
288
0
340
11
278
44
341
217
342
217
343
217
344
217
  0
ENDTAB
  0
ENDSEC
  0
SECTION
  2
BLOCKS
  0
BLOCK
  5
20
100
AcDbEntity
  8
0
100
AcDbBlockBegin
  2
*Model_Space
 70
0
 10
0.0
 20
0.0
 30
0.0
  3
*Model_Space
  1

  0
ENDBLK
  5
21
100
AcDbEntity
  8
0
100
AcDbBlockEnd
  0
BLOCK
  5
1C
100
AcDbEntity
  8
0
100
AcDbBlockBegin
  2
*Paper_Space
 70
0
 10
0.0
 20
0.0
 30
0.0
  3
*Paper_Space
  1

  0
ENDBLK
  5
1D
100
AcDbEntity
  8
0
100
AcDbBlockEnd
  0
BLOCK
  5
21E
100
AcDbEntity
  8
0
100
AcDbBlockBegin
  2
_FILLED
 70
64
 10
0.0
 20
0.0
  3
_FILLED
  1

  0
SOLID
  5
21F
100
AcDbEntity
  8
0
  6
BYBLOCK
 62
0
100
AcDbTrace
 10
0.0
 20
0.0
 11
-1.0
 21
0.3166666667
 12
-1.0
 22
-0.3166666667
 13
-1.0
 23
-0.3166666667
  0
ENDBLK
  5
220
100
AcDbEntity
  8
0
  6
BYBLOCK
 62
0
100
AcDbBlockEnd
  0
BLOCK
  5
221
100
AcDbEntity
  8
0
100
AcDbBlockBegin
 62
7
  6
CONTINUOUS
  2
*D0
 70
65
 10
0.0
 20
0.0
  3
*D0
  1

  0
LINE
  5
222
100
AcDbEntity
  8
0
100
AcDbLine
 62
7
  6
CONTINUOUS
 10
62.0372412119
 20
156.1808335685
 11
62.0372412344
 21
174.251582684
  0
LINE
  5
223
100
AcDbEntity
  8
0
100
AcDbLine
 62
7
  6
CONTINUOUS
 10
53.4659620464
 20
113.0837587839
 11
53.4659621225
 21
174.2515826947
  0
LINE
  5
224
100
AcDbEntity
  8
0
100
AcDbLine
 62
7
  6
CONTINUOUS
 10
62.0372412325
 20
172.751582684
 11
57.7516016766
 21
172.7515826894
  0
LINE
  5
225
100
AcDbEntity
  8
0
100
AcDbLine
 62
7
  6
CONTINUOUS
 10
57.7516016766
 20
172.7515826894
 11
73.631025138
 21
172.7515826776
  0
LINE
  5
226
100
AcDbEntity
  8
0
100
AcDbLine
 62
7
  6
CONTINUOUS
 10
53.4659621207
 20
172.7515826947
 11
57.7516016766
 21
172.7515826894
  0
INSERT
  5
227
100
AcDbEntity
  8
0
100
AcDbBlockReference
 62
7
  6
CONTINUOUS
  2
_FILLED
 10
62.0372412325
 20
172.751582684
 41
3.0
 42
3.0
 43
3.0
 50
359.9999999287
  0
INSERT
  5
228
100
AcDbEntity
  8
0
100
AcDbBlockReference
 62
7
  6
CONTINUOUS
  2
_FILLED
 10
53.4659621207
 20
172.7515826947
 41
3.0
 42
3.0
 43
3.0
 50
179.9999999287
  0
ENDBLK
  5
229
100
AcDbEntity
  8
0
  6
BYBLOCK
 62
0
100
AcDbBlockEnd
  0
BLOCK
  5
22A
100
AcDbEntity
  8
0
100
AcDbBlockBegin
 62
7
  6
CONTINUOUS
  2
*D1
 70
65
 10
0.0
 20
0.0
  3
*D1
  1

  0
LINE
  5
22B
100
AcDbEntity
  8
0
100
AcDbLine
 62
7
  6
CONTINUOUS
 10
102.7863692434
 20
157.0851286889
 11
102.7863692434
 21
174.0837582237
  0
LINE
  5
22C
100
AcDbEntity
  8
0
100
AcDbLine
 62
7
  6
CONTINUOUS
 10
263.7863692434
 20
157.0851286889
 11
263.7863692434
 21
174.0837582237
  0
LINE
  5
22D
100
AcDbEntity
  8
0
100
AcDbLine
 62
7
  6
CONTINUOUS
 10
102.7863692434
 20
172.5837582237
 11
183.2863692434
 21
172.5837582237
  0
LINE
  5
22E
100
AcDbEntity
  8
0
100
AcDbLine
 62
7
  6
CONTINUOUS
 10
263.7863692434
 20
172.5837582237
 11
183.2863692434
 21
172.5837582237
  0
INSERT
  5
22F
100
AcDbEntity
  8
0
100
AcDbBlockReference
 62
7
  6
CONTINUOUS
  2
_FILLED
 10
102.7863692434
 20
172.5837582237
 41
3.0
 42
3.0
 43
3.0
 50
180.0
  0
INSERT
  5
230
100
AcDbEntity
  8
0
100
AcDbBlockReference
 62
7
  6
CONTINUOUS
  2
_FILLED
 10
263.7863692434
 20
172.5837582237
 41
3.0
 42
3.0
 43
3.0
  0
ENDBLK
  5
231
100
AcDbEntity
  8
0
  6
BYBLOCK
 62
0
100
AcDbBlockEnd
  0
BLOCK
  5
232
100
AcDbEntity
  8
0
100
AcDbBlockBegin
 62
7
  6
CONTINUOUS
  2
*D2
 70
65
 10
0.0
 20
0.0
  3
*D2
  1

  0
LINE
  5
233
100
AcDbEntity
  8
0
100
AcDbLine
 62
7
  6
CONTINUOUS
 10
263.2877397087
 20
157.5837582237
 11
284.7863692434
 21
157.5837582237
  0
LINE
  5
234
100
AcDbEntity
  8
0
100
AcDbLine
 62
7
  6
CONTINUOUS
 10
263.2877397087
 20
67.5837582237
 11
284.7863692434
 21
67.5837582237
  0
LINE
  5
235
100
AcDbEntity
  8
0
100
AcDbLine
 62
7
  6
CONTINUOUS
 10
283.2863692434
 20
157.5837582237
 11
283.2863692434
 21
112.5837582237
  0
LINE
  5
236
100
AcDbEntity
  8
0
100
AcDbLine
 62
7
  6
CONTINUOUS
 10
283.2863692434
 20
67.5837582237
 11
283.2863692434
 21
112.5837582237
  0
INSERT
  5
237
100
AcDbEntity
  8
0
100
AcDbBlockReference
 62
7
  6
CONTINUOUS
  2
_FILLED
 10
283.2863692434
 20
157.5837582237
 41
3.0
 42
3.0
 43
3.0
 50
90.0
  0
INSERT
  5
238
100
AcDbEntity
  8
0
100
AcDbBlockReference
 62
7
  6
CONTINUOUS
  2
_FILLED
 10
283.2863692434
 20
67.5837582237
 41
3.0
 42
3.0
 43
3.0
 50
270.0
  0
ENDBLK
  5
239
100
AcDbEntity
  8
0
  6
BYBLOCK
 62
0
100
AcDbBlockEnd
  0
ENDSEC
  0
SECTION
  2
ENTITIES
  0
DIMENSION
  5
23A
100
AcDbEntity
  8
0
100
AcDbDimension
 62
7
  6
CONTINUOUS
  2
*D0
 10
53.4659621207
 20
172.7515826947
 11
67.2024537085
 21
172.7515826776
 70
160
 71
1
 72
2
 41
0.9
 42
8.5712791118
  3
DIMSTYLE_1
100
AcDbAlignedDimension
 13
62.0372412113
 23
155.6808335685
 14
53.4659620458
 24
112.5837587839
 50
179.9999999287
100
AcDbRotatedDimension
  0
DIMENSION
  5
23B
100
AcDbEntity
  8
0
100
AcDbDimension
 62
7
  6
CONTINUOUS
  2
*D1
 10
263.7863692434
 20
172.5837582237
 11
180.3935121006
 21
172.5837582237
 70
160
 71
2
 72
2
 41
0.9
 42
161.0
  3
DIMSTYLE_2
100
AcDbAlignedDimension
 13
102.7863692434
 23
156.5851286889
 14
263.7863692434
 24
156.5851286889
100
AcDbRotatedDimension
  0
DIMENSION
  5
23C
100
AcDbEntity
  8
0
100
AcDbDimension
 62
7
  6
CONTINUOUS
  2
*D2
 10
283.2863692434
 20
67.5837582237
 11
283.2863692434
 21
110.2266153665
 70
160
 71
2
 72
2
 41
0.9
 42
90.0
  3
DIMSTYLE_2
100
AcDbAlignedDimension
 13
262.7877397087
 23
157.5837582237
 14
262.7877397087
 24
67.5837582237
 50
270.0
100
AcDbRotatedDimension
  0
LINE
  5
23D
100
AcDbEntity
  8
RACCORDO
100
AcDbLine
 62
7
  6
CONTINUOUS
 10
102.7863692434
 20
68.5823877584
 11
102.7863692434
 21
156.5851286889
  0
LINE
  5
23E
100
AcDbEntity
  8
ASSI
100
AcDbLine
 62
7
  6
CONTINUOUS
 10
102.7863692434
 20
68.5823877584
 11
102.7863692434
 21
156.5851286889
  0
LINE
  5
23F
100
AcDbEntity
  8
RACCORDO
100
AcDbLine
 62
250
  6
CONTINUOUS
 10
103.9081933665
 20
67.9520757189
 11
103.9081933665
 21
67.706952812
  0
LINE
  5
240
100
AcDbEntity
  8
ASSI
100
AcDbLine
 62
250
  6
CONTINUOUS
 10
103.9081933665
 20
67.9520757189
 11
103.9081933665
 21
67.706952812
  0
LINE
  5
241
100
AcDbEntity
  8
RACCORDO
100
AcDbLine
 62
250
  6
CONTINUOUS
 10
103.9081933665
 20
157.2154407285
 11
103.9081933662
 21
157.4605636353
  0
LINE
  5
242
100
AcDbEntity
  8
ASSI
100
AcDbLine
 62
250
  6
CONTINUOUS
 10
103.9081933665
 20
157.2154407285
 11
103.9081933662
 21
157.4605636353
  0
LINE
  5
243
100
AcDbEntity
  8
0
100
AcDbLine
 62
250
  6
CONTINUOUS
 10
118.4880862434
 20
136.6830282237
 11
118.4880862434
 21
134.9844882265
  0
LINE
  5
244
100
AcDbEntity
  8
0
100
AcDbLine
 62
250
  6
CONTINUOUS
 10
118.5880002434
 20
136.5831142237
 11
118.5880002434
 21
135.0844022256
  0
LINE
  5
245
100
AcDbEntity
  8
0
100
AcDbLine
 62
250
  6
CONTINUOUS
 10
118.6879152434
 20
136.4832002237
 11
118.6879152434
 21
135.1843162244
  0
LINE
  5
246
100
AcDbEntity
  8
0
100
AcDbLine
 62
250
  6
CONTINUOUS
 10
119.0875712434
 20
124.3436322237
 11
119.0875712434
 21
122.9448342289
  0
LINE
  5
247
100
AcDbEntity
  8
0
100
AcDbLine
 62
250
  6
CONTINUOUS
 10
119.0875712434
 20
121.7208862237
 11
119.0875712434
 21
121.3711872228
  0
LINE
  5
248
100
AcDbEntity
  8
0
100
AcDbLine
 62
250
  6
CONTINUOUS
 10
119.0875712434
 20
119.7392562237
 11
119.0875712434
 21
119.389556229
  0
LINE
  5
249
100
AcDbEntity
  8
0
100
AcDbLine
 62
250
  6
CONTINUOUS
 10
119.0875712434
 20
117.9907592237
 11
119.0875712434
 21
117.4662092467
  0
LINE
  5
24A
100
AcDbEntity
  8
0
100
AcDbLine
 62
250
  6
CONTINUOUS
 10
119.0875712434
 20
115.2514462237
 11
119.0875712434
 21
114.9017462347
  0
LINE
  5
24B
100
AcDbEntity
  8
0
100
AcDbLine
 62
250
  6
CONTINUOUS
 10
119.0875712434
 20
113.5029492237
 11
119.0875712434
 21
111.4047521385
  0
LINE
  5
24C
100
AcDbEntity
  8
0
100
AcDbLine
 62
250
  6
CONTINUOUS
 10
119.0875712434
 20
108.2574562237
 11
119.0875712434
 21
107.9077572319
  0
LINE
  5
24D
100
AcDbEntity
  8
0
100
AcDbLine
 62
250
  6
CONTINUOUS
 10
119.0875712434
 20
107.4414912237
 11
119.0875712434
 21
107.0917922355
  0
LINE
  5
24E
100
AcDbEntity
  8
0
100
AcDbLine
 62
250
  6
CONTINUOUS
 10
119.0875712434
 20
105.4598612237
 11
119.0875712434
 21
105.1101612235
  0
LINE
  5
24F
100
AcDbEntity
  8
0
100
AcDbLine
 62
250
  6
CONTINUOUS
 10
119.0875712434
 20
104.6438962237
 11
119.0875712434
 21
102.5456993239
  0
LINE
  5
250
100
AcDbEntity
  8
0
100
AcDbLine
 62
250
  6
CONTINUOUS
 10
119.0875712434
 20
108.7237222237
 11
119.0875712434
 21
109.131705215
  0
LINE
  5
251
100
AcDbEntity
  8
0
100
AcDbLine
 62
250
  6
CONTINUOUS
 10
119.0875712434
 20
110.5887872237
 11
119.0875712434
 21
110.9384862343
  0
LINE
  5
252
100
AcDbEntity
  8
0
100
AcDbLine
 62
250
  6
CONTINUOUS
 10
119.4447112434
 20
123.9626872237
 11
119.4447112434
 21
122.8553062388
  0
LINE
  5
253
100
AcDbEntity
  8
0
100
AcDbLine
 62
250
  6
CONTINUOUS
 10
119.4447112434
 20
102.5144532237
 11
119.4447112434
 21
104.2629502324
  0
LINE
  5
254
100
AcDbEntity
  8
0
100
AcDbLine
 62
250
  6
CONTINUOUS
 10
119.4447112434
 20
111.3735062237
 11
119.4447112434
 21
113.1220032703
  0
LINE
  5
255
100
AcDbEntity
  8
0
100
AcDbLine
 62
250
  6
CONTINUOUS
 10
119.4447112434
 20
117.4349642237
 11
119.4447112434
 21
117.9595132015
  0
LINE
  5
256
100
AcDbEntity
  8
0
100
AcDbLine
 62
250
  6
CONTINUOUS
 10
119.6370992434
 20
137.8320412237
 11
119.6370992434
 21
136.683028202
  0
LINE
  5
257
100
AcDbEntity
  8
0
100
AcDbLine
 62
250
  6
CONTINUOUS
 10
119.6370992434
 20
134.9844882237
 11
119.6370992434
 21
133.835475182
  0
LINE
  5
258
100
AcDbEntity
  8
0
100
AcDbLine
 62
250
  6
CONTINUOUS
 10
119.7370132434
 20
137.7321272237
 11
119.7370132434
 21
136.5831142091
  0
LINE
  5
259
100
AcDbEntity
  8
0
100
AcDbLine
 62
250
  6
CONTINUOUS
 10
119.7370132434
 20
135.0844022237
 11
119.7370132434
 21
133.9353892649
  0
LINE
  5
25A
100
AcDbEntity
  8
0
100
AcDbLine
 62
250
  6
CONTINUOUS
 10
119.8018512434
 20
121.0755622237
 11
119.8018512434
 21
119.9098972194
  0
LINE
  5
25B
100
AcDbEntity
  8
0
100
AcDbLine
 62
250
  6
CONTINUOUS
 10
119.8018512434
 20
106.7961672237
 11
119.8018512434
 21
105.6305031889
  0
LINE
  5
25C
100
AcDbEntity
  8
0
100
AcDbLine
 62
250
  6
CONTINUOUS
 10
119.8018512434
 20
116.5877522237
 11
119.8018512434
 21
116.937452217
  0
LINE
  5
25D
100
AcDbEntity
  8
0
100
AcDbLine
 62
250
  6
CONTINUOUS
 10
119.8369272434
 20
137.6322122237
 11
119.8369272434
 21
136.4832002541
  0
LINE
  5
25E
100
AcDbEntity
  8
0
100
AcDbLine
 62
250
  6
CONTINUOUS
 10
119.8369272434
 20
135.1843162237
 11
119.8369272434
 21
134.0353042422
  0
LINE
  5
25F
100
AcDbEntity
  8
0
100
AcDbLine
 62
250
  6
CONTINUOUS
 10
119.8868842434
 20
131.5041452237
 11
119.8868842434
 21
132.5698962156
  0
LINE
  5
260
100
AcDbEntity
  8
0
100
AcDbLine
 62
250
  6
CONTINUOUS
 10
120.0399442434
 20
120.9964492237
 11
120.0399442434
 21
119.9473502095
  0
LINE
  5
261
100
AcDbEntity
  8
0
100
AcDbLine
 62
250
  6
CONTINUOUS
 10
120.0399442434
 20
106.7170532237
 11
120.0399442434
 21
105.6679551882
  0
LINE
  5
262
100
AcDbEntity
  8
0
100
AcDbLine
 62
250
  6
CONTINUOUS
 10
120.3375612434
 20
109.4886112237
 11
120.3375612434
 21
110.4794272251
  0
LINE
  5
263
100
AcDbEntity
  8
0
100
AcDbLine
 62
250
  6
CONTINUOUS
 10
120.3375612434
 20
122.7771912237
 11
120.3375612434
 21
123.8845732575
  0
LINE
  5
264
100
AcDbEntity
  8
0
100
AcDbLine
 62
250
  6
CONTINUOUS
 10
120.3970842434
 20
113.0386822237
 11
120.3970842434
 21
111.5233182749
  0
LINE
  5
265
100
AcDbEntity
  8
0
100
AcDbLine
 62
250
  6
CONTINUOUS
 10
120.6947012434
 20
109.3407992237
 11
120.6947012434
 21
110.4481812333
  0
LINE
  5
266
100
AcDbEntity
  8
0
100
AcDbLine
 62
250
  6
CONTINUOUS
 10
120.6947012434
 20
122.7459462237
 11
120.6947012434
 21
123.8533272641
  0
LINE
  5
267
100
AcDbEntity
  8
0
100
AcDbLine
 62
250
  6
CONTINUOUS
 10
120.7542242434
 20
111.4920722237
 11
120.7542242434
 21
113.0074362028
  0
LINE
  5
268
100
AcDbEntity
  8
0
100
AcDbLine
 62
250
  6
CONTINUOUS
 10
121.1358112434
 20
134.0353042237
 11
121.1358112434
 21
135.1843162052
  0
LINE
  5
269
100
AcDbEntity
  8
0
100
AcDbLine
 62
250
  6
CONTINUOUS
 10
121.1358112434
 20
136.4832002237
 11
121.1358112434
 21
137.6322121933
  0
LINE
  5
26A
100
AcDbEntity
  8
0
100
AcDbLine
 62
250
  6
CONTINUOUS
 10
121.1708872434
 20
116.8176772237
 11
121.1708872434
 21
116.4679772165
  0
LINE
  5
26B
100
AcDbEntity
  8
0
100
AcDbLine
 62
250
  6
CONTINUOUS
 10
121.2357252434
 20
133.9353892237
 11
121.2357252434
 21
135.0844021825
  0
LINE
  5
26C
100
AcDbEntity
  8
0
100
AcDbLine
 62
250
  6
CONTINUOUS
 10
121.2357252434
 20
136.5831142237
 11
121.2357252434
 21
137.7321272382
  0
LINE
  5
26D
100
AcDbEntity
  8
0
100
AcDbLine
 62
250
  6
CONTINUOUS
 10
121.3356392434
 20
133.8354752237
 11
121.3356392434
 21
134.9844882654
  0
LINE
  5
26E
100
AcDbEntity
  8
0
100
AcDbLine
 62
250
  6
CONTINUOUS
 10
121.3356392434
 20
136.6830282237
 11
121.3356392434
 21
137.8320412453
  0
LINE
  5
26F
100
AcDbEntity
  8
0
100
AcDbLine
 62
250
  6
CONTINUOUS
 10
121.5280272434
 20
123.7804212237
 11
121.5280272434
 21
122.6730392749
  0
LINE
  5
270
100
AcDbEntity
  8
0
100
AcDbLine
 62
250
  6
CONTINUOUS
 10
121.5280272434
 20
117.7772462237
 11
121.5280272434
 21
117.2526972316
  0
LINE
  5
271
100
AcDbEntity
  8
0
100
AcDbLine
 62
250
  6
CONTINUOUS
 10
121.5280272434
 20
112.9397372237
 11
121.5280272434
 21
111.1912391729
  0
LINE
  5
272
100
AcDbEntity
  8
0
100
AcDbLine
 62
250
  6
CONTINUOUS
 10
121.5875502434
 20
115.9652582237
 11
121.5875502434
 21
115.032726272
  0
LINE
  5
273
100
AcDbEntity
  8
0
100
AcDbLine
 62
250
  6
CONTINUOUS
 10
121.5875502434
 20
114.6830272237
 11
121.5875502434
 21
113.7504952543
  0
LINE
  5
274
100
AcDbEntity
  8
0
100
AcDbLine
 62
250
  6
CONTINUOUS
 10
121.5875502434
 20
110.3700672237
 11
121.5875502434
 21
109.2626852271
  0
LINE
  5
275
100
AcDbEntity
  8
0
100
AcDbLine
 62
250
  6
CONTINUOUS
 10
121.8851672434
 20
110.6937282237
 11
121.8851672434
 21
109.2949301771
  0
LINE
  5
276
100
AcDbEntity
  8
0
100
AcDbLine
 62
250
  6
CONTINUOUS
 10
121.8851672434
 20
104.0494382237
 11
121.8851672434
 21
104.3991382301
  0
LINE
  5
277
100
AcDbEntity
  8
0
100
AcDbLine
 62
250
  6
CONTINUOUS
 10
121.8851672434
 20
105.7979362237
 11
121.8851672434
 21
106.2642012149
  0
LINE
  5
278
100
AcDbEntity
  8
0
100
AcDbLine
 62
250
  6
CONTINUOUS
 10
121.8851672434
 20
107.6629992237
 11
121.8851672434
 21
108.0126982255
  0
LINE
  5
279
100
AcDbEntity
  8
0
100
AcDbLine
 62
250
  6
CONTINUOUS
 10
121.8851672434
 20
111.1599942237
 11
121.8851672434
 21
113.2581912976
  0
LINE
  5
27A
100
AcDbEntity
  8
0
100
AcDbLine
 62
250
  6
CONTINUOUS
 10
121.8851672434
 20
113.7244572237
 11
121.8851672434
 21
115.9392201634
  0
LINE
  5
27B
100
AcDbEntity
  8
0
100
AcDbLine
 62
250
  6
CONTINUOUS
 10
121.8851672434
 20
117.2214522237
 11
121.8851672434
 21
117.746001247
  0
LINE
  5
27C
100
AcDbEntity
  8
0
100
AcDbLine
 62
250
  6
CONTINUOUS
 10
121.8851672434
 20
120.0773302237
 11
121.8851672434
 21
120.5435962333
  0
LINE
  5
27D
100
AcDbEntity
  8
0
100
AcDbLine
 62
250
  6
CONTINUOUS
 10
121.8851672434
 20
122.7000762237
 11
121.8851672434
 21
124.0988741831
  0
LINE
  5
27E
100
AcDbEntity
  8
0
100
AcDbLine
 62
250
  6
CONTINUOUS
 10
121.8851672434
 20
126.6416582237
 11
121.8851672434
 21
128.2402832059
  0
LINE
  5
27F
100
AcDbEntity
  8
0
100
AcDbLine
 62
250
  6
CONTINUOUS
 10
122.2848232434
 20
135.1843162237
 11
122.2848232434
 21
136.4832002089
  0
LINE
  5
280
100
AcDbEntity
  8
0
100
AcDbLine
 62
250
  6
CONTINUOUS
 10
122.3847382434
 20
135.0844022237
 11
122.3847382434
 21
136.5831142957
  0
LINE
  5
281
100
AcDbEntity
  8
0
100
AcDbLine
 62
250
  6
CONTINUOUS
 10
119.1470942434
 20
118.2769672237
 11
119.0875712434
 21
117.9907592237
  0
LINE
  5
282
100
AcDbEntity
  8
0
100
AcDbLine
 62
250
  6
CONTINUOUS
 10
121.8256442434
 20
122.4138682237
 11
121.8851672434
 21
122.7000762237
  0
LINE
  5
283
100
AcDbEntity
  8
0
100
AcDbLine
 62
250
  6
CONTINUOUS
 10
121.8256442434
 20
116.9352432237
 11
121.8851672434
 21
117.2214522237
  0
LINE
  5
284
100
AcDbEntity
  8
0
100
AcDbLine
 62
250
  6
CONTINUOUS
 10
119.4447112434
 20
117.9595132237
 11
119.5042342434
 21
118.1874382237
  0
LINE
  5
285
100
AcDbEntity
  8
0
100
AcDbLine
 62
250
  6
CONTINUOUS
 10
121.5280272434
 20
117.2526972237
 11
121.4685042434
 21
117.0247712237
  0
LINE
  5
286
100
AcDbEntity
  8
0
100
AcDbLine
 62
250
  6
CONTINUOUS
 10
120.2780372434
 20
122.6075492237
 11
120.3375612434
 21
122.7771912237
  0
LINE
  5
287
100
AcDbEntity
  8
0
100
AcDbLine
 62
250
  6
CONTINUOUS
 10
121.5280272434
 20
122.6730392237
 11
121.4685042434
 21
122.5033972237
  0
LINE
  5
288
100
AcDbEntity
  8
0
100
AcDbLine
 62
250
  6
CONTINUOUS
 10
119.0875712434
 20
117.4662092237
 11
119.1470942434
 21
117.1695852237
  0
LINE
  5
289
100
AcDbEntity
  8
0
100
AcDbLine
 62
250
  6
CONTINUOUS
 10
119.0875712434
 20
122.9448342237
 11
119.1470942434
 21
122.6482112237
  0
LINE
  5
28A
100
AcDbEntity
  8
0
100
AcDbLine
 62
250
  6
CONTINUOUS
 10
122.4846522434
 20
134.9844882237
 11
122.4846522434
 21
136.683028162
  0
LINE
  5
28B
100
AcDbEntity
  8
0
100
AcDbLine
 62
7
  6
CONTINUOUS
 10
125.0863692434
 20
90.6826618515
 11
125.0863692434
 21
134.4848545959
  0
LINE
  5
28C
100
AcDbEntity
  8
ASSI
100
AcDbLine
 62
7
  6
CONTINUOUS
 10
125.0863692434
 20
90.6826618515
 11
125.0863692434
 21
134.4848545959
  0
LINE
  5
28D
100
AcDbEntity
  8
RACCORDO
100
AcDbLine
 62
250
  6
CONTINUOUS
 10
125.7442883602
 20
135.9513338401
 11
125.7442883602
 21
135.4247427347
  0
LINE
  5
28E
100
AcDbEntity
  8
ASSI
100
AcDbLine
 62
250
  6
CONTINUOUS
 10
125.7442883602
 20
135.9513338401
 11
125.7442883602
 21
135.4247427347
  0
LINE
  5
28F
100
AcDbEntity
  8
RACCORDO
100
AcDbLine
 62
250
  6
CONTINUOUS
 10
125.7442883602
 20
89.2161826073
 11
125.7442883601
 21
89.7427737127
  0
LINE
  5
290
100
AcDbEntity
  8
ASSI
100
AcDbLine
 62
250
  6
CONTINUOUS
 10
125.7442883602
 20
89.2161826073
 11
125.7442883601
 21
89.7427737127
  0
LINE
  5
291
100
AcDbEntity
  8
0
100
AcDbLine
 62
250
  6
CONTINUOUS
 10
121.8851672434
 20
109.2949302237
 11
121.8256442434
 21
109.0087212237
  0
LINE
  5
292
100
AcDbEntity
  8
0
100
AcDbLine
 62
250
  6
CONTINUOUS
 10
121.5875502434
 20
109.2626852237
 11
121.5280272434
 21
109.0930432237
  0
LINE
  5
293
100
AcDbEntity
  8
0
100
AcDbLine
 62
250
  6
CONTINUOUS
 10
120.4566072434
 20
122.3005102237
 11
120.5161312434
 21
122.4118692237
  0
LINE
  5
294
100
AcDbEntity
  8
0
100
AcDbLine
 62
250
  6
CONTINUOUS
 10
119.2661412434
 20
118.4996852237
 11
119.1470942434
 21
118.2769672237
  0
LINE
  5
295
100
AcDbEntity
  8
0
100
AcDbLine
 62
250
  6
CONTINUOUS
 10
121.7065972434
 20
116.7125252237
 11
121.8256442434
 21
116.9352432237
  0
LINE
  5
296
100
AcDbEntity
  8
0
100
AcDbLine
 62
250
  6
CONTINUOUS
 10
119.5042342434
 20
118.1874382237
 11
119.6232812434
 21
118.3518732237
  0
LINE
  5
297
100
AcDbEntity
  8
0
100
AcDbLine
 62
250
  6
CONTINUOUS
 10
120.5756542434
 20
108.8849492237
 11
120.4566072434
 21
109.1284962237
  0
LINE
  5
298
100
AcDbEntity
  8
0
100
AcDbLine
 62
250
  6
CONTINUOUS
 10
119.1470942434
 20
117.1695852237
 11
119.2661412434
 21
116.9260372237
  0
LINE
  5
299
100
AcDbEntity
  8
0
100
AcDbLine
 62
250
  6
CONTINUOUS
 10
120.7542242434
 20
109.1607422237
 11
120.6947012434
 21
109.3407992237
  0
LINE
  5
29A
100
AcDbEntity
  8
0
100
AcDbLine
 62
250
  6
CONTINUOUS
 10
119.4447112434
 20
122.8553062237
 11
119.5042342434
 21
122.6752482237
  0
LINE
  5
29B
100
AcDbEntity
  8
0
100
AcDbLine
 62
250
  6
CONTINUOUS
 10
120.7542242434
 20
122.5658882237
 11
120.6947012434
 21
122.7459462237
  0
LINE
  5
29C
100
AcDbEntity
  8
0
100
AcDbLine
 62
250
  6
CONTINUOUS
 10
119.5042342434
 20
117.1966232237
 11
119.4447112434
 21
117.4349642237
  0
LINE
  5
29D
100
AcDbEntity
  8
0
100
AcDbLine
 62
250
  6
CONTINUOUS
 10
121.4685042434
 20
118.0155872237
 11
121.5280272434
 21
117.7772462237
  0
LINE
  5
29E
100
AcDbEntity
  8
0
100
AcDbLine
 62
250
  6
CONTINUOUS
 10
121.8851672434
 20
117.7460012237
 11
121.8256442434
 21
118.0426242237
  0
LINE
  5
29F
100
AcDbEntity
  8
0
100
AcDbLine
 62
250
  6
CONTINUOUS
 10
121.4685042434
 20
117.0247712237
 11
121.3494572434
 21
116.8603372237
  0
LINE
  5
2A0
100
AcDbEntity
  8
0
100
AcDbLine
 62
250
  6
CONTINUOUS
 10
121.6470742434
 20
122.1963582237
 11
121.8256442434
 21
122.4138682237
  0
LINE
  5
2A1
100
AcDbEntity
  8
0
100
AcDbLine
 62
250
  6
CONTINUOUS
 10
120.1589912434
 20
122.5013982237
 11
120.2780372434
 21
122.6075492237
  0
LINE
  5
2A2
100
AcDbEntity
  8
0
100
AcDbLine
 62
250
  6
CONTINUOUS
 10
121.4685042434
 20
122.5033972237
 11
121.3494572434
 21
122.3972462237
  0
LINE
  5
2A3
100
AcDbEntity
  8
0
100
AcDbLine
 62
250
  6
CONTINUOUS
 10
120.8732712434
 20
109.0337602237
 11
120.7542242434
 21
109.1607422237
  0
LINE
  5
2A4
100
AcDbEntity
  8
0
100
AcDbLine
 62
250
  6
CONTINUOUS
 10
119.6232812434
 20
117.0113582237
 11
119.5042342434
 21
117.1966232237
  0
LINE
  5
2A5
100
AcDbEntity
  8
0
100
AcDbLine
 62
250
  6
CONTINUOUS
 10
121.3494572434
 20
118.2008522237
 11
121.4685042434
 21
118.0155872237
  0
LINE
  5
2A6
100
AcDbEntity
  8
0
100
AcDbLine
 62
250
  6
CONTINUOUS
 10
121.8256442434
 20
118.0426242237
 11
121.7065972434
 21
118.2861732237
  0
LINE
  5
2A7
100
AcDbEntity
  8
0
100
AcDbLine
 62
250
  6
CONTINUOUS
 10
120.5161312434
 20
122.4118692237
 11
120.5756542434
 21
122.2900952237
  0
LINE
  5
2A8
100
AcDbEntity
  8
0
100
AcDbLine
 62
250
  6
CONTINUOUS
 10
121.8256442434
 20
109.0087212237
 11
121.6470742434
 21
108.7912122237
  0
LWPOLYLINE
  5
2A9
100
AcDbEntity
  8
0
100
AcDbPolyline
 62
7
  6
CONTINUOUS
 90
3
 70
0
 43
0.3500000006
 10
180.3935110474
 20
175.4766099243
 10
181.2506489868
 20
176.3337659912
 10
181.2506489868
 20
173.3337650757
  0
LWPOLYLINE
  5
2AA
100
AcDbEntity
  8
0
100
AcDbPolyline
 62
7
  6
CONTINUOUS
 90
10
 70
0
 43
0.3500000006
 10
183.179227478
 20
176.3337659912
 10
182.5363740234
 20
175.6908944092
 10
182.1078050537
 20
174.8337564697
 10
182.1078050537
 20
173.7623340454
 10
182.5363740234
 20
173.3337650757
 10
183.179227478
 20
173.3337650757
 10
183.6077964478
 20
173.7623340454
 10
183.6077964478
 20
174.6194719849
 10
183.179227478
 20
175.0480409546
 10
182.250649292
 20
175.0480409546
  0
LWPOLYLINE
  5
2AB
100
AcDbEntity
  8
0
100
AcDbPolyline
 62
7
  6
CONTINUOUS
 90
3
 70
0
 43
0.3500000006
 10
184.4649343872
 20
175.4766099243
 10
185.3220904541
 20
176.3337659912
 10
185.3220904541
 20
173.3337650757
  0
LINE
  5
2AC
100
AcDbEntity
  8
0
100
AcDbLine
 62
250
  6
CONTINUOUS
 10
119.5042342434
 20
118.7119872237
 11
119.2661412434
 21
118.4996852237
  0
LINE
  5
2AD
100
AcDbEntity
  8
0
100
AcDbLine
 62
250
  6
CONTINUOUS
 10
121.4685042434
 20
116.5002222237
 11
121.7065972434
 21
116.7125252237
  0
LINE
  5
2AE
100
AcDbEntity
  8
0
100
AcDbLine
 62
250
  6
CONTINUOUS
 10
120.2185142434
 20
122.1464912237
 11
120.4566072434
 21
122.3005102237
  0
LINE
  5
2AF
100
AcDbEntity
  8
0
100
AcDbLine
 62
250
  6
CONTINUOUS
 10
121.4089802434
 20
122.0423382237
 11
121.6470742434
 21
122.1963582237
  0
LINE
  5
2B0
100
AcDbEntity
  8
0
100
AcDbLine
 62
250
  6
CONTINUOUS
 10
119.0875712434
 20
129.0395972237
 11
121.8851672434
 21
130.4383952237
  0
LINE
  5
2B1
100
AcDbEntity
  8
RACCORDO
100
AcDbLine
 62
7
  6
CONTINUOUS
 10
103.7849987782
 20
67.5837582237
 11
262.7877397087
 21
67.5837582237
  0
LINE
  5
2B2
100
AcDbEntity
  8
ASSI
100
AcDbLine
 62
7
  6
CONTINUOUS
 10
103.7849987782
 20
67.5837582237
 11
262.7877397087
 21
67.5837582237
  0
LINE
  5
2B3
100
AcDbEntity
  8
RACCORDO
100
AcDbLine
 62
250
  6
CONTINUOUS
 10
103.9081933665
 20
67.706952812
 11
262.6645451203
 21
67.706952812
  0
LINE
  5
2B4
100
AcDbEntity
  8
ASSI
100
AcDbLine
 62
250
  6
CONTINUOUS
 10
103.9081933665
 20
67.706952812
 11
262.6645451203
 21
67.706952812
  0
LINE
  5
2B5
100
AcDbEntity
  8
RACCORDO
100
AcDbLine
 62
250
  6
CONTINUOUS
 10
103.9081933665
 20
67.9520757189
 11
262.6645451203
 21
67.9520757189
  0
LINE
  5
2B6
100
AcDbEntity
  8
ASSI
100
AcDbLine
 62
250
  6
CONTINUOUS
 10
103.9081933665
 20
67.9520757189
 11
262.6645451203
 21
67.9520757189
  0
LINE
  5
2B7
100
AcDbEntity
  8
0
100
AcDbLine
 62
250
  6
CONTINUOUS
 10
120.8137472434
 20
108.6892682237
 11
120.5756542434
 21
108.8849492237
  0
LINE
  5
2B8
100
AcDbEntity
  8
0
100
AcDbLine
 62
250
  6
CONTINUOUS
 10
119.2661412434
 20
116.9260372237
 11
119.5042342434
 21
116.6720742237
  0
LINE
  5
2B9
100
AcDbEntity
  8
0
100
AcDbLine
 62
250
  6
CONTINUOUS
 10
121.7065972434
 20
118.2861732237
 11
121.4685042434
 21
118.5401362237
  0
LINE
  5
2BA
100
AcDbEntity
  8
0
100
AcDbLine
 62
250
  6
CONTINUOUS
 10
119.1470942434
 20
122.6482112237
 11
119.3256642434
 21
122.3994552237
  0
LINE
  5
2BB
100
AcDbEntity
  8
0
100
AcDbLine
 62
250
  6
CONTINUOUS
 10
121.5280272434
 20
109.0930432237
 11
121.4089802434
 21
108.9868922237
  0
LINE
  5
2BC
100
AcDbEntity
  8
0
100
AcDbLine
 62
250
  6
CONTINUOUS
 10
119.6232812434
 20
118.3518732237
 11
119.8018512434
 21
118.4528172237
  0
LINE
  5
2BD
100
AcDbEntity
  8
0
100
AcDbLine
 62
250
  6
CONTINUOUS
 10
119.0875712434
 20
131.2377082237
 11
121.8851672434
 21
132.0370212237
  0
LINE
  5
2BE
100
AcDbEntity
  8
0
100
AcDbLine
 62
250
  6
CONTINUOUS
 10
119.5042342434
 20
122.6752482237
 11
119.6232812434
 21
122.5482662237
  0
LINE
  5
2BF
100
AcDbEntity
  8
0
100
AcDbLine
 62
250
  6
CONTINUOUS
 10
120.8732712434
 20
122.4389062237
 11
120.7542242434
 21
122.5658882237
  0
LINE
  5
2C0
100
AcDbEntity
  8
0
100
AcDbLine
 62
250
  6
CONTINUOUS
 10
121.6470742434
 20
108.7912122237
 11
121.4089802434
 21
108.6371922237
  0
LINE
  5
2C1
100
AcDbEntity
  8
0
100
AcDbLine
 62
250
  6
CONTINUOUS
 10
119.7423282434
 20
118.8077232237
 11
119.5042342434
 21
118.7119872237
  0
LINE
  5
2C2
100
AcDbEntity
  8
0
100
AcDbLine
 62
250
  6
CONTINUOUS
 10
119.0875712434
 20
107.0917922237
 11
119.8018512434
 21
106.7961672237
  0
LINE
  5
2C3
100
AcDbEntity
  8
0
100
AcDbLine
 62
250
  6
CONTINUOUS
 10
121.6470742434
 20
106.0518982237
 11
120.0399442434
 21
106.7170532237
  0
LINE
  5
2C4
100
AcDbEntity
  8
0
100
AcDbLine
 62
250
  6
CONTINUOUS
 10
120.9923172434
 20
108.6153622237
 11
120.8137472434
 21
108.6892682237
  0
LINE
  5
2C5
100
AcDbEntity
  8
0
100
AcDbLine
 62
250
  6
CONTINUOUS
 10
121.0518402434
 20
108.9598542237
 11
120.8732712434
 21
109.0337602237
  0
LINE
  5
2C6
100
AcDbEntity
  8
0
100
AcDbLine
 62
250
  6
CONTINUOUS
 10
121.8851672434
 20
106.2642012237
 11
119.0875712434
 21
107.4414912237
  0
LINE
  5
2C7
100
AcDbEntity
  8
0
100
AcDbLine
 62
250
  6
CONTINUOUS
 10
121.1708872434
 20
118.3330412237
 11
121.3494572434
 21
118.2008522237
  0
LINE
  5
2C8
100
AcDbEntity
  8
0
100
AcDbLine
 62
250
  6
CONTINUOUS
 10
119.3256642434
 20
122.3994552237
 11
119.5637582434
 21
122.2037752237
  0
LINE
  5
2C9
100
AcDbEntity
  8
0
100
AcDbLine
 62
250
  6
CONTINUOUS
 10
120.5756542434
 20
122.2900952237
 11
120.8137472434
 21
122.0944152237
  0
LINE
  5
2CA
100
AcDbEntity
  8
RACCORDO
100
AcDbLine
 62
250
  6
CONTINUOUS
 10
102.9163106848
 20
68.7123291998
 11
102.7863692434
 21
68.5823877584
  0
LINE
  5
2CB
100
AcDbEntity
  8
ASSI
100
AcDbLine
 62
250
  6
CONTINUOUS
 10
102.9163106848
 20
68.7123291998
 11
102.7863692434
 21
68.5823877584
  0
LINE
  5
2CC
100
AcDbEntity
  8
0
100
AcDbLine
 62
250
  6
CONTINUOUS
 10
124.9419065574
 20
90.5381649253
 11
125.0863692434
 21
90.6826618515
  0
LINE
  5
2CD
100
AcDbEntity
  8
ASSI
100
AcDbLine
 62
250
  6
CONTINUOUS
 10
124.9419065574
 20
90.5381649253
 11
125.0863692434
 21
90.6826618515
  0
LINE
  5
2CE
100
AcDbEntity
  8
0
100
AcDbLine
 62
250
  6
CONTINUOUS
 10
169.8284562336
 20
135.4247427347
 11
169.6874656156
 21
135.2837582237
  0
LINE
  5
2CF
100
AcDbEntity
  8
ASSI
100
AcDbLine
 62
250
  6
CONTINUOUS
 10
169.8284562336
 20
135.4247427347
 11
169.6874656156
 21
135.2837582237
  0
LINE
  5
2D0
100
AcDbEntity
  8
0
100
AcDbLine
 62
250
  6
CONTINUOUS
 10
170.630831928
 20
134.6293522798
 11
170.4863692434
 21
134.4848545959
  0
LINE
  5
2D1
100
AcDbEntity
  8
ASSI
100
AcDbLine
 62
250
  6
CONTINUOUS
 10
170.630831928
 20
134.6293522798
 11
170.4863692434
 21
134.4848545959
  0
LINE
  5
2D2
100
AcDbEntity
  8
0
100
AcDbLine
 62
250
  6
CONTINUOUS
 10
125.7442822533
 20
89.7427737127
 11
125.8852728712
 21
89.8837582237
  0
LINE
  5
2D3
100
AcDbEntity
  8
ASSI
100
AcDbLine
 62
250
  6
CONTINUOUS
 10
125.7442822533
 20
89.7427737127
 11
125.8852728712
 21
89.8837582237
  0
LINE
  5
2D4
100
AcDbEntity
  8
RACCORDO
100
AcDbLine
 62
250
  6
CONTINUOUS
 10
103.9081933665
 20
67.706952812
 11
103.7849987782
 21
67.5837582237
  0
LINE
  5
2D5
100
AcDbEntity
  8
ASSI
100
AcDbLine
 62
250
  6
CONTINUOUS
 10
103.9081933665
 20
67.706952812
 11
103.7849987782
 21
67.5837582237
  0
LINE
  5
2D6
100
AcDbEntity
  8
RACCORDO
100
AcDbLine
 62
250
  6
CONTINUOUS
 10
240.8284501266
 20
89.2161826073
 11
196.7442883602
 21
89.2161826073
  0
LINE
  5
2D7
100
AcDbEntity
  8
ASSI
100
AcDbLine
 62
250
  6
CONTINUOUS
 10
240.8284501266
 20
89.2161826073
 11
196.7442883602
 21
89.2161826073
  0
LINE
  5
2D8
100
AcDbEntity
  8
RACCORDO
100
AcDbLine
 62
250
  6
CONTINUOUS
 10
169.8284501266
 20
89.2161826073
 11
125.7442883602
 21
89.2161826073
  0
LINE
  5
2D9
100
AcDbEntity
  8
ASSI
100
AcDbLine
 62
250
  6
CONTINUOUS
 10
169.8284501266
 20
89.2161826073
 11
125.7442883602
 21
89.2161826073
  0
LINE
  5
2DA
100
AcDbEntity
  8
RACCORDO
100
AcDbLine
 62
250
  6
CONTINUOUS
 10
240.8284772242
 20
89.7427737127
 11
196.7442822533
 21
89.7427737127
  0
LINE
  5
2DB
100
AcDbEntity
  8
ASSI
100
AcDbLine
 62
250
  6
CONTINUOUS
 10
240.8284772242
 20
89.7427737127
 11
196.7442822533
 21
89.7427737127
  0
LINE
  5
2DC
100
AcDbEntity
  8
RACCORDO
100
AcDbLine
 62
250
  6
CONTINUOUS
 10
169.8284772242
 20
89.7427737127
 11
125.7442822533
 21
89.7427737127
  0
LINE
  5
2DD
100
AcDbEntity
  8
ASSI
100
AcDbLine
 62
250
  6
CONTINUOUS
 10
169.8284772242
 20
89.7427737127
 11
125.7442822533
 21
89.7427737127
  0
LINE
  5
2DE
100
AcDbEntity
  8
0
100
AcDbLine
 62
7
  6
CONTINUOUS
 10
240.6874656156
 20
89.8837582237
 11
196.8852728712
 21
89.8837582237
  0
LINE
  5
2DF
100
AcDbEntity
  8
ASSI
100
AcDbLine
 62
7
  6
CONTINUOUS
 10
240.6874656156
 20
89.8837582237
 11
196.8852728712
 21
89.8837582237
  0
LINE
  5
2E0
100
AcDbEntity
  8
0
100
AcDbLine
 62
7
  6
CONTINUOUS
 10
169.6874656156
 20
89.8837582237
 11
125.8852728712
 21
89.8837582237
  0
LINE
  5
2E1
100
AcDbEntity
  8
ASSI
100
AcDbLine
 62
7
  6
CONTINUOUS
 10
169.6874656156
 20
89.8837582237
 11
125.8852728712
 21
89.8837582237
  0
LINE
  5
2E2
100
AcDbEntity
  8
RACCORDO
100
AcDbLine
 62
250
  6
CONTINUOUS
 10
103.3435992411
 20
89.9161108348
 11
124.5901048781
 21
89.91605333
  0
LINE
  5
2E3
100
AcDbEntity
  8
ASSI
100
AcDbLine
 62
250
  6
CONTINUOUS
 10
103.3435992411
 20
89.9161108348
 11
124.5901048781
 21
89.91605333
  0
LINE
  5
2E4
100
AcDbEntity
  8
RACCORDO
100
AcDbLine
 62
250
  6
CONTINUOUS
 10
241.9826336087
 20
89.91605333
 11
263.2291392463
 21
89.916110687
  0
LINE
  5
2E5
100
AcDbEntity
  8
ASSI
100
AcDbLine
 62
250
  6
CONTINUOUS
 10
241.9826336087
 20
89.91605333
 11
263.2291392463
 21
89.916110687
  0
LINE
  5
2E6
100
AcDbEntity
  8
RACCORDO
100
AcDbLine
 62
250
  6
CONTINUOUS
 10
170.9826336087
 20
89.91605333
 11
195.5901048781
 21
89.91605333
  0
LINE
  5
2E7
100
AcDbEntity
  8
ASSI
100
AcDbLine
 62
250
  6
CONTINUOUS
 10
170.9826336087
 20
89.91605333
 11
195.5901048781
 21
89.91605333
  0
LINE
  5
2E8
100
AcDbEntity
  8
0
100
AcDbLine
 62
250
  6
CONTINUOUS
 10
119.8018512434
 20
116.9374522237
 11
119.6232812434
 21
117.0113582237
  0
LINE
  5
2E9
100
AcDbEntity
  8
0
100
AcDbLine
 62
250
  6
CONTINUOUS
 10
121.4685042434
 20
118.5401362237
 11
121.2304112434
 21
118.6775332237
  0
LINE
  5
2EA
100
AcDbEntity
  8
RACCORDO
100
AcDbLine
 62
250
  6
CONTINUOUS
 10
102.9163106848
 20
156.4551872475
 11
102.7863692434
 21
156.5851286889
  0
LINE
  5
2EB
100
AcDbEntity
  8
ASSI
100
AcDbLine
 62
250
  6
CONTINUOUS
 10
102.9163106848
 20
156.4551872475
 11
102.7863692434
 21
156.5851286889
  0
LINE
  5
2EC
100
AcDbEntity
  8
0
100
AcDbLine
 62
250
  6
CONTINUOUS
 10
124.9419065159
 20
134.6293300182
 11
125.0863692434
 21
134.4848545959
  0
LINE
  5
2ED
100
AcDbEntity
  8
ASSI
100
AcDbLine
 62
250
  6
CONTINUOUS
 10
124.9419065159
 20
134.6293300182
 11
125.0863692434
 21
134.4848545959
  0
LINE
  5
2EE
100
AcDbEntity
  8
0
100
AcDbLine
 62
250
  6
CONTINUOUS
 10
169.8284772242
 20
89.7427737127
 11
169.6874656156
 21
89.8837582237
  0
LINE
  5
2EF
100
AcDbEntity
  8
ASSI
100
AcDbLine
 62
250
  6
CONTINUOUS
 10
169.8284772242
 20
89.7427737127
 11
169.6874656156
 21
89.8837582237
  0
LINE
  5
2F0
100
AcDbEntity
  8
0
100
AcDbLine
 62
250
  6
CONTINUOUS
 10
170.6308319703
 20
90.5381861028
 11
170.4863692434
 21
90.6826618515
  0
LINE
  5
2F1
100
AcDbEntity
  8
ASSI
100
AcDbLine
 62
250
  6
CONTINUOUS
 10
170.6308319703
 20
90.5381861028
 11
170.4863692434
 21
90.6826618515
  0
LINE
  5
2F2
100
AcDbEntity
  8
0
100
AcDbLine
 62
250
  6
CONTINUOUS
 10
125.7442612627
 20
135.4247427347
 11
125.8852728712
 21
135.2837582237
  0
LINE
  5
2F3
100
AcDbEntity
  8
ASSI
100
AcDbLine
 62
250
  6
CONTINUOUS
 10
125.7442612627
 20
135.4247427347
 11
125.8852728712
 21
135.2837582237
  0
LINE
  5
2F4
100
AcDbEntity
  8
RACCORDO
100
AcDbLine
 62
250
  6
CONTINUOUS
 10
103.9081933665
 20
157.4605636354
 11
103.7849987782
 21
157.5837582237
  0
LINE
  5
2F5
100
AcDbEntity
  8
ASSI
100
AcDbLine
 62
250
  6
CONTINUOUS
 10
103.9081933665
 20
157.4605636354
 11
103.7849987782
 21
157.5837582237
  0
LINE
  5
2F6
100
AcDbEntity
  8
RACCORDO
100
AcDbLine
 62
250
  6
CONTINUOUS
 10
169.8284501266
 20
135.9513338401
 11
169.8284501267
 21
135.4247427347
  0
LINE
  5
2F7
100
AcDbEntity
  8
ASSI
100
AcDbLine
 62
250
  6
CONTINUOUS
 10
169.8284501266
 20
135.9513338401
 11
169.8284501267
 21
135.4247427347
  0
LINE
  5
2F8
100
AcDbEntity
  8
RACCORDO
100
AcDbLine
 62
250
  6
CONTINUOUS
 10
169.8284501266
 20
89.2161826073
 11
169.8284501266
 21
89.7427737127
  0
LINE
  5
2F9
100
AcDbEntity
  8
ASSI
100
AcDbLine
 62
250
  6
CONTINUOUS
 10
169.8284501266
 20
89.2161826073
 11
169.8284501266
 21
89.7427737127
  0
LINE
  5
2FA
100
AcDbEntity
  8
0
100
AcDbLine
 62
250
  6
CONTINUOUS
 10
120.4566072434
 20
109.1284962237
 11
119.0875712434
 21
108.7237222237
  0
LINE
  5
2FB
100
AcDbEntity
  8
0
100
AcDbLine
 62
250
  6
CONTINUOUS
 10
119.0875712434
 20
109.1317052237
 11
120.3375612434
 21
109.4886112237
  0
LINE
  5
2FC
100
AcDbEntity
  8
0
100
AcDbLine
 62
250
  6
CONTINUOUS
 10
119.0875712434
 20
102.5456992237
 11
119.4447112434
 21
102.5144532237
  0
LINE
  5
2FD
100
AcDbEntity
  8
0
100
AcDbLine
 62
250
  6
CONTINUOUS
 10
119.4447112434
 20
104.2629502237
 11
121.8851672434
 21
104.0494382237
  0
LINE
  5
2FE
100
AcDbEntity
  8
0
100
AcDbLine
 62
250
  6
CONTINUOUS
 10
121.8851672434
 20
104.3991382237
 11
119.0875712434
 21
104.6438962237
  0
LINE
  5
2FF
100
AcDbEntity
  8
0
100
AcDbLine
 62
250
  6
CONTINUOUS
 10
119.5042342434
 20
116.6720742237
 11
119.8018512434
 21
116.5877522237
  0
LINE
  5
300
100
AcDbEntity
  8
0
100
AcDbLine
 62
250
  6
CONTINUOUS
 10
120.9327942434
 20
118.4121552237
 11
121.1708872434
 21
118.3330412237
  0
LINE
  5
301
100
AcDbEntity
  8
0
100
AcDbLine
 62
250
  6
CONTINUOUS
 10
119.0875712434
 20
121.3711872237
 11
119.8018512434
 21
121.0755622237
  0
LINE
  5
302
100
AcDbEntity
  8
0
100
AcDbLine
 62
250
  6
CONTINUOUS
 10
121.6470742434
 20
120.3312942237
 11
120.0399442434
 21
120.9964492237
  0
LINE
  5
303
100
AcDbEntity
  8
0
100
AcDbLine
 62
250
  6
CONTINUOUS
 10
119.5637582434
 20
122.2037752237
 11
119.7423282434
 21
122.1298682237
  0
LINE
  5
304
100
AcDbEntity
  8
0
100
AcDbLine
 62
250
  6
CONTINUOUS
 10
119.6232812434
 20
122.5482662237
 11
119.8018512434
 21
122.4743602237
  0
LINE
  5
305
100
AcDbEntity
  8
0
100
AcDbLine
 62
250
  6
CONTINUOUS
 10
120.8137472434
 20
122.0944152237
 11
120.9923172434
 21
122.0205092237
  0
LINE
  5
306
100
AcDbEntity
  8
0
100
AcDbLine
 62
250
  6
CONTINUOUS
 10
121.0518402434
 20
122.3650002237
 11
120.8732712434
 21
122.4389062237
  0
LINE
  5
307
100
AcDbEntity
  8
0
100
AcDbLine
 62
250
  6
CONTINUOUS
 10
121.8851672434
 20
120.5435962237
 11
119.0875712434
 21
121.7208862237
  0
LINE
  5
308
100
AcDbEntity
  8
0
100
AcDbLine
 62
7
  6
CONTINUOUS
 10
170.4863692434
 20
134.4848545959
 11
170.4863692434
 21
90.6826618515
  0
LINE
  5
309
100
AcDbEntity
  8
ASSI
100
AcDbLine
 62
7
  6
CONTINUOUS
 10
170.4863692434
 20
134.4848545959
 11
170.4863692434
 21
90.6826618515
  0
LINE
  5
30A
100
AcDbEntity
  8
0
100
AcDbLine
 62
250
  6
CONTINUOUS
 10
119.0875712434
 20
107.9077572237
 11
121.8851672434
 21
107.6629992237
  0
LINE
  5
30B
100
AcDbEntity
  8
0
100
AcDbLine
 62
250
  6
CONTINUOUS
 10
121.8851672434
 20
108.0126982237
 11
119.0875712434
 21
108.2574562237
  0
LINE
  5
30C
100
AcDbEntity
  8
0
100
AcDbLine
 62
250
  6
CONTINUOUS
 10
121.2304112434
 20
108.5945312237
 11
120.9923172434
 21
108.6153622237
  0
LINE
  5
30D
100
AcDbEntity
  8
0
100
AcDbLine
 62
250
  6
CONTINUOUS
 10
121.2304112434
 20
108.9442312237
 11
121.0518402434
 21
108.9598542237
  0
LINE
  5
30E
100
AcDbEntity
  8
0
100
AcDbLine
 62
250
  6
CONTINUOUS
 10
120.3375612434
 20
110.4794272237
 11
119.0875712434
 21
110.5887872237
  0
LINE
  5
30F
100
AcDbEntity
  8
0
100
AcDbLine
 62
250
  6
CONTINUOUS
 10
120.6947012434
 20
110.4481812237
 11
121.5875502434
 21
110.3700672237
  0
LINE
  5
310
100
AcDbEntity
  8
0
100
AcDbLine
 62
250
  6
CONTINUOUS
 10
119.0875712434
 20
110.9384862237
 11
121.8851672434
 21
110.6937282237
  0
LINE
  5
311
100
AcDbEntity
  8
0
100
AcDbLine
 62
250
  6
CONTINUOUS
 10
119.0875712434
 20
111.4047522237
 11
119.4447112434
 21
111.3735062237
  0
LINE
  5
312
100
AcDbEntity
  8
0
100
AcDbLine
 62
250
  6
CONTINUOUS
 10
121.5280272434
 20
111.1912392237
 11
121.8851672434
 21
111.1599942237
  0
LINE
  5
313
100
AcDbEntity
  8
0
100
AcDbLine
 62
250
  6
CONTINUOUS
 10
120.3970842434
 20
111.5233182237
 11
120.7542242434
 21
111.4920722237
  0
LINE
  5
314
100
AcDbEntity
  8
0
100
AcDbLine
 62
250
  6
CONTINUOUS
 10
121.2304112434
 20
118.6775332237
 11
120.9327942434
 21
118.7618542237
  0
LWPOLYLINE
  5
315
100
AcDbEntity
  8
0
100
AcDbPolyline
 62
7
  6
CONTINUOUS
 90
13
 70
0
 43
0.3500000006
 10
281.6792303467
 20
112.5837601318
 10
280.3935053101
 20
112.5837601318
 10
279.9649363403
 20
112.7980446167
 10
279.5363673706
 20
113.2266135864
 10
279.5363673706
 20
113.4408980713
 10
279.9649363403
 20
113.8694761047
 10
280.3935053101
 20
114.0837605896
 10
281.6792303467
 20
114.0837605896
 10
282.1077993164
 20
113.8694761047
 10
282.5363682861
 20
113.4408980713
 10
282.5363682861
 20
113.2266135864
 10
282.1077993164
 20
112.7980446167
 10
281.6792303467
 20
112.5837601318
  0
LINE
  5
316
100
AcDbEntity
  8
0
100
AcDbLine
 62
250
  6
CONTINUOUS
 10
120.7542242434
 20
113.0074362237
 11
121.5280272434
 21
112.9397372237
  0
LINE
  5
317
100
AcDbEntity
  8
0
100
AcDbLine
 62
250
  6
CONTINUOUS
 10
119.4447112434
 20
113.1220032237
 11
120.3970842434
 21
113.0386822237
  0
LINE
  5
318
100
AcDbEntity
  8
0
100
AcDbLine
 62
250
  6
CONTINUOUS
 10
121.8851672434
 20
113.2581912237
 11
119.0875712434
 21
113.5029492237
  0
LINE
  5
319
100
AcDbEntity
  8
0
100
AcDbLine
 62
250
  6
CONTINUOUS
 10
121.5875502434
 20
113.7504952237
 11
121.8851672434
 21
113.7244572237
  0
LINE
  5
31A
100
AcDbEntity
  8
0
100
AcDbLine
 62
250
  6
CONTINUOUS
 10
119.0875712434
 20
114.9017462237
 11
121.5875502434
 21
114.6830272237
  0
LINE
  5
31B
100
AcDbEntity
  8
0
100
AcDbLine
 62
250
  6
CONTINUOUS
 10
121.5875502434
 20
115.0327262237
 11
119.0875712434
 21
115.2514462237
  0
LINE
  5
31C
100
AcDbEntity
  8
0
100
AcDbLine
 62
250
  6
CONTINUOUS
 10
121.8851672434
 20
115.9392202237
 11
121.5875502434
 21
115.9652582237
  0
LINE
  5
31D
100
AcDbEntity
  8
0
100
AcDbLine
 62
250
  6
CONTINUOUS
 10
120.0399442434
 20
118.4902692237
 11
120.9327942434
 21
118.4121552237
  0
LINE
  5
31E
100
AcDbEntity
  8
0
100
AcDbLine
 62
250
  6
CONTINUOUS
 10
120.9327942434
 20
118.7618542237
 11
120.0399442434
 21
118.8399692237
  0
LINE
  5
31F
100
AcDbEntity
  8
0
100
AcDbLine
 62
250
  6
CONTINUOUS
 10
120.9923172434
 20
122.0205092237
 11
121.2304112434
 21
121.9996782237
  0
LINE
  5
320
100
AcDbEntity
  8
0
100
AcDbLine
 62
250
  6
CONTINUOUS
 10
119.7423282434
 20
122.1298682237
 11
120.0399442434
 21
122.1038302237
  0
LINE
  5
321
100
AcDbEntity
  8
0
100
AcDbLine
 62
250
  6
CONTINUOUS
 10
121.1708872434
 20
122.3545852237
 11
121.0518402434
 21
122.3650002237
  0
LINE
  5
322
100
AcDbEntity
  8
0
100
AcDbLine
 62
250
  6
CONTINUOUS
 10
119.8018512434
 20
122.4743602237
 11
119.9804212434
 21
122.4587382237
  0
LINE
  5
323
100
AcDbEntity
  8
0
100
AcDbLine
 62
250
  6
CONTINUOUS
 10
120.3375612434
 20
123.8845732237
 11
119.4447112434
 21
123.9626872237
  0
LINE
  5
324
100
AcDbEntity
  8
0
100
AcDbLine
 62
250
  6
CONTINUOUS
 10
120.6947012434
 20
123.8533272237
 11
121.5280272434
 21
123.7804212237
  0
LINE
  5
325
100
AcDbEntity
  8
0
100
AcDbLine
 62
250
  6
CONTINUOUS
 10
121.8851672434
 20
124.0988742237
 11
119.0875712434
 21
124.3436322237
  0
LINE
  5
326
100
AcDbEntity
  8
0
100
AcDbLine
 62
250
  6
CONTINUOUS
 10
121.8851672434
 20
132.0370212237
 11
119.0875712434
 21
132.8363342237
  0
LINE
  5
327
100
AcDbEntity
  8
0
100
AcDbLine
 62
7
  6
CONTINUOUS
 10
196.0863692434
 20
90.6826618515
 11
196.0863692434
 21
134.4848545959
  0
LINE
  5
328
100
AcDbEntity
  8
ASSI
100
AcDbLine
 62
7
  6
CONTINUOUS
 10
196.0863692434
 20
90.6826618515
 11
196.0863692434
 21
134.4848545959
  0
LINE
  5
329
100
AcDbEntity
  8
RACCORDO
100
AcDbLine
 62
250
  6
CONTINUOUS
 10
196.7442883602
 20
135.9513338401
 11
196.7442883602
 21
135.4247427347
  0
LINE
  5
32A
100
AcDbEntity
  8
ASSI
100
AcDbLine
 62
250
  6
CONTINUOUS
 10
196.7442883602
 20
135.9513338401
 11
196.7442883602
 21
135.4247427347
  0
LINE
  5
32B
100
AcDbEntity
  8
RACCORDO
100
AcDbLine
 62
250
  6
CONTINUOUS
 10
196.7442883602
 20
89.2161826073
 11
196.7442883601
 21
89.7427737127
  0
LINE
  5
32C
100
AcDbEntity
  8
ASSI
100
AcDbLine
 62
250
  6
CONTINUOUS
 10
196.7442883602
 20
89.2161826073
 11
196.7442883601
 21
89.7427737127
  0
LINE
  5
32D
100
AcDbEntity
  8
0
100
AcDbLine
 62
250
  6
CONTINUOUS
 10
119.0875712434
 20
105.1101612237
 11
121.8851672434
 21
105.7979362237
  0
LINE
  5
32E
100
AcDbEntity
  8
0
100
AcDbLine
 62
250
  6
CONTINUOUS
 10
120.0399442434
 20
105.6679552237
 11
121.6470742434
 21
106.0518982237
  0
LINE
  5
32F
100
AcDbEntity
  8
0
100
AcDbLine
 62
250
  6
CONTINUOUS
 10
119.8018512434
 20
105.6305032237
 11
119.0875712434
 21
105.4598612237
  0
LINE
  5
330
100
AcDbEntity
  8
0
100
AcDbLine
 62
250
  6
CONTINUOUS
 10
121.4089802434
 20
108.6371922237
 11
121.2304112434
 21
108.5945312237
  0
LINE
  5
331
100
AcDbEntity
  8
0
100
AcDbLine
 62
250
  6
CONTINUOUS
 10
121.4089802434
 20
108.9868922237
 11
121.2304112434
 21
108.9442312237
  0
LINE
  5
332
100
AcDbEntity
  8
0
100
AcDbLine
 62
250
  6
CONTINUOUS
 10
121.1708872434
 20
116.4679772237
 11
121.4685042434
 21
116.5002222237
  0
LINE
  5
333
100
AcDbEntity
  8
0
100
AcDbLine
 62
250
  6
CONTINUOUS
 10
120.0399442434
 20
118.8399692237
 11
119.7423282434
 21
118.8077232237
  0
LINE
  5
334
100
AcDbEntity
  8
0
100
AcDbLine
 62
250
  6
CONTINUOUS
 10
121.8851672434
 20
125.3094692237
 11
119.0875712434
 21
125.3094692237
  0
LINE
  5
335
100
AcDbEntity
  8
0
100
AcDbLine
 62
250
  6
CONTINUOUS
 10
121.3494572434
 20
116.8603372237
 11
121.1708872434
 21
116.8176772237
  0
LINE
  5
336
100
AcDbEntity
  8
0
100
AcDbLine
 62
250
  6
CONTINUOUS
 10
119.8018512434
 20
118.4528172237
 11
120.0399442434
 21
118.4902692237
  0
LINE
  5
337
100
AcDbEntity
  8
0
100
AcDbLine
 62
250
  6
CONTINUOUS
 10
121.8851672434
 20
127.4409702237
 11
119.0875712434
 21
127.4409702237
  0
LINE
  5
338
100
AcDbEntity
  8
0
100
AcDbLine
 62
250
  6
CONTINUOUS
 10
121.8851672434
 20
129.0395972237
 11
119.0875712434
 21
129.0395972237
  0
LINE
  5
339
100
AcDbEntity
  8
0
100
AcDbLine
 62
250
  6
CONTINUOUS
 10
121.8851672434
 20
130.4383952237
 11
119.0875712434
 21
130.4383952237
  0
LINE
  5
33A
100
AcDbEntity
  8
0
100
AcDbLine
 62
250
  6
CONTINUOUS
 10
119.6370992434
 20
133.8354752237
 11
121.3356392434
 21
133.8354752237
  0
LINE
  5
33B
100
AcDbEntity
  8
0
100
AcDbLine
 62
250
  6
CONTINUOUS
 10
119.7370132434
 20
133.9353892237
 11
121.2357252434
 21
133.9353892237
  0
LINE
  5
33C
100
AcDbEntity
  8
0
100
AcDbLine
 62
250
  6
CONTINUOUS
 10
119.8369272434
 20
134.0353042237
 11
121.1358112434
 21
134.0353042237
  0
LINE
  5
33D
100
AcDbEntity
  8
RACCORDO
100
AcDbLine
 62
250
  6
CONTINUOUS
 10
262.6645451203
 20
157.4605636354
 11
262.7877397087
 21
157.5837582237
  0
LINE
  5
33E
100
AcDbEntity
  8
ASSI
100
AcDbLine
 62
250
  6
CONTINUOUS
 10
262.6645451203
 20
157.4605636354
 11
262.7877397087
 21
157.5837582237
  0
LINE
  5
33F
100
AcDbEntity
  8
0
100
AcDbLine
 62
250
  6
CONTINUOUS
 10
240.8284562336
 20
135.4247427347
 11
240.6874656156
 21
135.2837582237
  0
LINE
  5
340
100
AcDbEntity
  8
ASSI
100
AcDbLine
 62
250
  6
CONTINUOUS
 10
240.8284562336
 20
135.4247427347
 11
240.6874656156
 21
135.2837582237
  0
LINE
  5
341
100
AcDbEntity
  8
0
100
AcDbLine
 62
250
  6
CONTINUOUS
 10
195.9419065574
 20
90.5381649253
 11
196.0863692434
 21
90.6826618515
  0
LINE
  5
342
100
AcDbEntity
  8
ASSI
100
AcDbLine
 62
250
  6
CONTINUOUS
 10
195.9419065574
 20
90.5381649253
 11
196.0863692434
 21
90.6826618515
  0
LINE
  5
343
100
AcDbEntity
  8
0
100
AcDbLine
 62
250
  6
CONTINUOUS
 10
196.7442822533
 20
89.7427737127
 11
196.8852728712
 21
89.8837582237
  0
LINE
  5
344
100
AcDbEntity
  8
ASSI
100
AcDbLine
 62
250
  6
CONTINUOUS
 10
196.7442822533
 20
89.7427737127
 11
196.8852728712
 21
89.8837582237
  0
LINE
  5
345
100
AcDbEntity
  8
0
100
AcDbLine
 62
250
  6
CONTINUOUS
 10
241.630831928
 20
134.6293522798
 11
241.4863692434
 21
134.4848545959
  0
LINE
  5
346
100
AcDbEntity
  8
ASSI
100
AcDbLine
 62
250
  6
CONTINUOUS
 10
241.630831928
 20
134.6293522798
 11
241.4863692434
 21
134.4848545959
  0
LINE
  5
347
100
AcDbEntity
  8
RACCORDO
100
AcDbLine
 62
250
  6
CONTINUOUS
 10
263.656427802
 20
156.4551872475
 11
263.7863692434
 21
156.5851286889
  0
LINE
  5
348
100
AcDbEntity
  8
ASSI
100
AcDbLine
 62
250
  6
CONTINUOUS
 10
263.656427802
 20
156.4551872475
 11
263.7863692434
 21
156.5851286889
  0
LINE
  5
349
100
AcDbEntity
  8
0
100
AcDbLine
 62
250
  6
CONTINUOUS
 10
119.0875712434
 20
119.3895562237
 11
121.8851672434
 21
120.0773302237
  0
LINE
  5
34A
100
AcDbEntity
  8
0
100
AcDbLine
 62
250
  6
CONTINUOUS
 10
120.0399442434
 20
119.9473502237
 11
121.6470742434
 21
120.3312942237
  0
LINE
  5
34B
100
AcDbEntity
  8
0
100
AcDbLine
 62
250
  6
CONTINUOUS
 10
119.8018512434
 20
119.9098972237
 11
119.0875712434
 21
119.7392562237
  0
LINE
  5
34C
100
AcDbEntity
  8
0
100
AcDbLine
 62
250
  6
CONTINUOUS
 10
121.2304112434
 20
121.9996782237
 11
121.4089802434
 21
122.0423382237
  0
LINE
  5
34D
100
AcDbEntity
  8
0
100
AcDbLine
 62
250
  6
CONTINUOUS
 10
121.3494572434
 20
122.3972462237
 11
121.1708872434
 21
122.3545852237
  0
LINE
  5
34E
100
AcDbEntity
  8
0
100
AcDbLine
 62
250
  6
CONTINUOUS
 10
120.0399442434
 20
122.1038302237
 11
120.2185142434
 21
122.1464912237
  0
LINE
  5
34F
100
AcDbEntity
  8
0
100
AcDbLine
 62
250
  6
CONTINUOUS
 10
119.9804212434
 20
122.4587382237
 11
120.1589912434
 21
122.5013982237
  0
LINE
  5
350
100
AcDbEntity
  8
0
100
AcDbLine
 62
250
  6
CONTINUOUS
 10
118.4880862434
 20
134.9844882237
 11
119.6370992434
 21
134.9844882237
  0
LINE
  5
351
100
AcDbEntity
  8
0
100
AcDbLine
 62
250
  6
CONTINUOUS
 10
121.3356392434
 20
134.9844882237
 11
122.4846522434
 21
134.9844882237
  0
LINE
  5
352
100
AcDbEntity
  8
0
100
AcDbLine
 62
250
  6
CONTINUOUS
 10
118.5880002434
 20
135.0844022237
 11
119.7370132434
 21
135.0844022237
  0
LINE
  5
353
100
AcDbEntity
  8
0
100
AcDbLine
 62
250
  6
CONTINUOUS
 10
121.2357252434
 20
135.0844022237
 11
122.3847382434
 21
135.0844022237
  0
LINE
  5
354
100
AcDbEntity
  8
0
100
AcDbLine
 62
250
  6
CONTINUOUS
 10
118.6879152434
 20
135.1843162237
 11
119.8369272434
 21
135.1843162237
  0
LINE
  5
355
100
AcDbEntity
  8
0
100
AcDbLine
 62
250
  6
CONTINUOUS
 10
121.1358112434
 20
135.1843162237
 11
122.2848232434
 21
135.1843162237
  0
LINE
  5
356
100
AcDbEntity
  8
RACCORDO
100
AcDbLine
 62
250
  6
CONTINUOUS
 10
195.5901048781
 20
135.2514631174
 11
170.9826336087
 21
135.2514631174
  0
LINE
  5
357
100
AcDbEntity
  8
ASSI
100
AcDbLine
 62
250
  6
CONTINUOUS
 10
195.5901048781
 20
135.2514631174
 11
170.9826336087
 21
135.2514631174
  0
LINE
  5
358
100
AcDbEntity
  8
RACCORDO
100
AcDbLine
 62
250
  6
CONTINUOUS
 10
263.2291392452
 20
135.2514054807
 11
241.9826336087
 21
135.2514631174
  0
LINE
  5
359
100
AcDbEntity
  8
ASSI
100
AcDbLine
 62
250
  6
CONTINUOUS
 10
263.2291392452
 20
135.2514054807
 11
241.9826336087
 21
135.2514631174
  0
LINE
  5
35A
100
AcDbEntity
  8
RACCORDO
100
AcDbLine
 62
250
  6
CONTINUOUS
 10
124.5901048781
 20
135.2514631174
 11
103.3435992411
 21
135.2514056286
  0
LINE
  5
35B
100
AcDbEntity
  8
ASSI
100
AcDbLine
 62
250
  6
CONTINUOUS
 10
124.5901048781
 20
135.2514631174
 11
103.3435992411
 21
135.2514056286
  0
LINE
  5
35C
100
AcDbEntity
  8
0
100
AcDbLine
 62
7
  6
CONTINUOUS
 10
125.8852728712
 20
135.2837582237
 11
169.6874656156
 21
135.2837582237
  0
LINE
  5
35D
100
AcDbEntity
  8
ASSI
100
AcDbLine
 62
7
  6
CONTINUOUS
 10
125.8852728712
 20
135.2837582237
 11
169.6874656156
 21
135.2837582237
  0
LINE
  5
35E
100
AcDbEntity
  8
0
100
AcDbLine
 62
7
  6
CONTINUOUS
 10
196.8852728712
 20
135.2837582237
 11
240.6874656156
 21
135.2837582237
  0
LINE
  5
35F
100
AcDbEntity
  8
ASSI
100
AcDbLine
 62
7
  6
CONTINUOUS
 10
196.8852728712
 20
135.2837582237
 11
240.6874656156
 21
135.2837582237
  0
LINE
  5
360
100
AcDbEntity
  8
RACCORDO
100
AcDbLine
 62
250
  6
CONTINUOUS
 10
125.7442612627
 20
135.4247427347
 11
169.8284562336
 21
135.4247427347
  0
LINE
  5
361
100
AcDbEntity
  8
ASSI
100
AcDbLine
 62
250
  6
CONTINUOUS
 10
125.7442612627
 20
135.4247427347
 11
169.8284562336
 21
135.4247427347
  0
LINE
  5
362
100
AcDbEntity
  8
RACCORDO
100
AcDbLine
 62
250
  6
CONTINUOUS
 10
196.7442612627
 20
135.4247427347
 11
240.8284562336
 21
135.4247427347
  0
LINE
  5
363
100
AcDbEntity
  8
ASSI
100
AcDbLine
 62
250
  6
CONTINUOUS
 10
196.7442612627
 20
135.4247427347
 11
240.8284562336
 21
135.4247427347
  0
LINE
  5
364
100
AcDbEntity
  8
RACCORDO
100
AcDbLine
 62
250
  6
CONTINUOUS
 10
125.7442883602
 20
135.9513338401
 11
169.8284501266
 21
135.9513338401
  0
LINE
  5
365
100
AcDbEntity
  8
ASSI
100
AcDbLine
 62
250
  6
CONTINUOUS
 10
125.7442883602
 20
135.9513338401
 11
169.8284501266
 21
135.9513338401
  0
LINE
  5
366
100
AcDbEntity
  8
RACCORDO
100
AcDbLine
 62
250
  6
CONTINUOUS
 10
196.7442883602
 20
135.9513338401
 11
240.8284501266
 21
135.9513338401
  0
LINE
  5
367
100
AcDbEntity
  8
ASSI
100
AcDbLine
 62
250
  6
CONTINUOUS
 10
196.7442883602
 20
135.9513338401
 11
240.8284501266
 21
135.9513338401
  0
LINE
  5
368
100
AcDbEntity
  8
0
100
AcDbLine
 62
250
  6
CONTINUOUS
 10
122.2848232434
 20
136.4832002237
 11
121.1358112434
 21
136.4832002237
  0
LINE
  5
369
100
AcDbEntity
  8
0
100
AcDbLine
 62
250
  6
CONTINUOUS
 10
119.8369272434
 20
136.4832002237
 11
118.6879152434
 21
136.4832002237
  0
LINE
  5
36A
100
AcDbEntity
  8
0
100
AcDbLine
 62
250
  6
CONTINUOUS
 10
122.3847382434
 20
136.5831142237
 11
121.2357252434
 21
136.5831142237
  0
LINE
  5
36B
100
AcDbEntity
  8
0
100
AcDbLine
 62
250
  6
CONTINUOUS
 10
119.7370132434
 20
136.5831142237
 11
118.5880002434
 21
136.5831142237
  0
LINE
  5
36C
100
AcDbEntity
  8
0
100
AcDbLine
 62
250
  6
CONTINUOUS
 10
122.4846522434
 20
136.6830282237
 11
121.3356392434
 21
136.6830282237
  0
LINE
  5
36D
100
AcDbEntity
  8
0
100
AcDbLine
 62
250
  6
CONTINUOUS
 10
119.6370992434
 20
136.6830282237
 11
118.4880862434
 21
136.6830282237
  0
LINE
  5
36E
100
AcDbEntity
  8
0
100
AcDbLine
 62
250
  6
CONTINUOUS
 10
121.1358112434
 20
137.6322122237
 11
119.8369272434
 21
137.6322122237
  0
LINE
  5
36F
100
AcDbEntity
  8
0
100
AcDbLine
 62
250
  6
CONTINUOUS
 10
121.2357252434
 20
137.7321272237
 11
119.7370132434
 21
137.7321272237
  0
LINE
  5
370
100
AcDbEntity
  8
0
100
AcDbLine
 62
250
  6
CONTINUOUS
 10
121.3356392434
 20
137.8320412237
 11
119.6370992434
 21
137.8320412237
  0
LINE
  5
371
100
AcDbEntity
  8
RACCORDO
100
AcDbLine
 62
250
  6
CONTINUOUS
 10
262.6645451203
 20
67.706952812
 11
262.7877397087
 21
67.5837582237
  0
LINE
  5
372
100
AcDbEntity
  8
ASSI
100
AcDbLine
 62
250
  6
CONTINUOUS
 10
262.6645451203
 20
67.706952812
 11
262.7877397087
 21
67.5837582237
  0
LINE
  5
373
100
AcDbEntity
  8
0
100
AcDbLine
 62
250
  6
CONTINUOUS
 10
240.8284772242
 20
89.7427737127
 11
240.6874656156
 21
89.8837582237
  0
LINE
  5
374
100
AcDbEntity
  8
ASSI
100
AcDbLine
 62
250
  6
CONTINUOUS
 10
240.8284772242
 20
89.7427737127
 11
240.6874656156
 21
89.8837582237
  0
LINE
  5
375
100
AcDbEntity
  8
0
100
AcDbLine
 62
250
  6
CONTINUOUS
 10
195.9419065159
 20
134.6293300182
 11
196.0863692434
 21
134.4848545959
  0
LINE
  5
376
100
AcDbEntity
  8
ASSI
100
AcDbLine
 62
250
  6
CONTINUOUS
 10
195.9419065159
 20
134.6293300182
 11
196.0863692434
 21
134.4848545959
  0
LINE
  5
377
100
AcDbEntity
  8
0
100
AcDbLine
 62
250
  6
CONTINUOUS
 10
196.7442612627
 20
135.4247427347
 11
196.8852728712
 21
135.2837582237
  0
LINE
  5
378
100
AcDbEntity
  8
ASSI
100
AcDbLine
 62
250
  6
CONTINUOUS
 10
196.7442612627
 20
135.4247427347
 11
196.8852728712
 21
135.2837582237
  0
LINE
  5
379
100
AcDbEntity
  8
0
100
AcDbLine
 62
250
  6
CONTINUOUS
 10
241.6308319703
 20
90.5381861028
 11
241.4863692434
 21
90.6826618515
  0
LINE
  5
37A
100
AcDbEntity
  8
ASSI
100
AcDbLine
 62
250
  6
CONTINUOUS
 10
241.6308319703
 20
90.5381861028
 11
241.4863692434
 21
90.6826618515
  0
LINE
  5
37B
100
AcDbEntity
  8
RACCORDO
100
AcDbLine
 62
250
  6
CONTINUOUS
 10
263.656427802
 20
68.7123291998
 11
263.7863692434
 21
68.5823877584
  0
LINE
  5
37C
100
AcDbEntity
  8
ASSI
100
AcDbLine
 62
250
  6
CONTINUOUS
 10
263.656427802
 20
68.7123291998
 11
263.7863692434
 21
68.5823877584
  0
LINE
  5
37D
100
AcDbEntity
  8
RACCORDO
100
AcDbLine
 62
250
  6
CONTINUOUS
 10
262.6645451203
 20
157.2154407285
 11
103.9081933665
 21
157.2154407285
  0
LINE
  5
37E
100
AcDbEntity
  8
ASSI
100
AcDbLine
 62
250
  6
CONTINUOUS
 10
262.6645451203
 20
157.2154407285
 11
103.9081933665
 21
157.2154407285
  0
LINE
  5
37F
100
AcDbEntity
  8
RACCORDO
100
AcDbLine
 62
250
  6
CONTINUOUS
 10
262.6645451203
 20
157.4605636354
 11
103.9081933665
 21
157.4605636354
  0
LINE
  5
380
100
AcDbEntity
  8
ASSI
100
AcDbLine
 62
250
  6
CONTINUOUS
 10
262.6645451203
 20
157.4605636354
 11
103.9081933665
 21
157.4605636354
  0
LINE
  5
381
100
AcDbEntity
  8
RACCORDO
100
AcDbLine
 62
7
  6
CONTINUOUS
 10
103.7849987782
 20
157.5837582237
 11
262.7877397087
 21
157.5837582237
  0
LINE
  5
382
100
AcDbEntity
  8
ASSI
100
AcDbLine
 62
7
  6
CONTINUOUS
 10
103.7849987782
 20
157.5837582237
 11
262.7877397087
 21
157.5837582237
  0
LINE
  5
383
100
AcDbEntity
  8
RACCORDO
100
AcDbLine
 62
250
  6
CONTINUOUS
 10
240.8284501266
 20
135.9513338401
 11
240.8284501267
 21
135.4247427347
  0
LINE
  5
384
100
AcDbEntity
  8
ASSI
100
AcDbLine
 62
250
  6
CONTINUOUS
 10
240.8284501266
 20
135.9513338401
 11
240.8284501267
 21
135.4247427347
  0
LINE
  5
385
100
AcDbEntity
  8
RACCORDO
100
AcDbLine
 62
250
  6
CONTINUOUS
 10
240.8284501266
 20
89.2161826073
 11
240.8284501266
 21
89.7427737127
  0
LINE
  5
386
100
AcDbEntity
  8
ASSI
100
AcDbLine
 62
250
  6
CONTINUOUS
 10
240.8284501266
 20
89.2161826073
 11
240.8284501266
 21
89.7427737127
  0
LINE
  5
387
100
AcDbEntity
  8
0
100
AcDbLine
 62
7
  6
CONTINUOUS
 10
241.4863692434
 20
134.4848545959
 11
241.4863692434
 21
90.6826618515
  0
LINE
  5
388
100
AcDbEntity
  8
ASSI
100
AcDbLine
 62
7
  6
CONTINUOUS
 10
241.4863692434
 20
134.4848545959
 11
241.4863692434
 21
90.6826618515
  0
LWPOLYLINE
  5
389
100
AcDbEntity
  8
0
100
AcDbPolyline
 62
7
  6
CONTINUOUS
 90
10
 70
0
 43
0.3500000006
 10
282.5363682861
 20
110.6551907043
 10
281.6792303467
 20
111.5123286438
 10
280.8220924072
 20
111.7266131287
 10
279.9649363403
 20
111.7266131287
 10
279.5363673706
 20
111.2980441589
 10
279.5363673706
 20
110.6551907043
 10
279.9649363403
 20
110.2266126709
 10
280.8220924072
 20
110.2266126709
 10
281.250661377
 20
110.6551907043
 10
281.250661377
 20
111.5837598267
  0
LINE
  5
38A
100
AcDbEntity
  8
RACCORDO
100
AcDbLine
 62
250
  6
CONTINUOUS
 10
262.6645451203
 20
67.9520757189
 11
262.6645451206
 21
67.706952812
  0
LINE
  5
38B
100
AcDbEntity
  8
ASSI
100
AcDbLine
 62
250
  6
CONTINUOUS
 10
262.6645451203
 20
67.9520757189
 11
262.6645451206
 21
67.706952812
  0
LINE
  5
38C
100
AcDbEntity
  8
RACCORDO
100
AcDbLine
 62
250
  6
CONTINUOUS
 10
262.6645451203
 20
157.2154407285
 11
262.6645451203
 21
157.4605636354
  0
LINE
  5
38D
100
AcDbEntity
  8
ASSI
100
AcDbLine
 62
250
  6
CONTINUOUS
 10
262.6645451203
 20
157.2154407285
 11
262.6645451203
 21
157.4605636354
  0
LINE
  5
38E
100
AcDbEntity
  8
RACCORDO
100
AcDbLine
 62
7
  6
CONTINUOUS
 10
263.7863692434
 20
68.5823877584
 11
263.7863692434
 21
156.5851286889
  0
LINE
  5
38F
100
AcDbEntity
  8
ASSI
100
AcDbLine
 62
7
  6
CONTINUOUS
 10
263.7863692434
 20
68.5823877584
 11
263.7863692434
 21
156.5851286889
  0
LINE
  5
390
100
AcDbEntity
  8
RACCORDO
100
AcDbLine
 62
7
  6
CONTINUOUS
 10
56.8865483832
 20
67.706952812
 11
59.2372411624
 21
67.5837582237
  0
LINE
  5
391
100
AcDbEntity
  8
ASSI
100
AcDbLine
 62
7
  6
CONTINUOUS
 10
56.8865483832
 20
67.706952812
 11
59.2372411624
 21
67.5837582237
  0
LINE
  5
392
100
AcDbEntity
  8
RACCORDO
100
AcDbLine
 62
250
  6
CONTINUOUS
 10
56.7578107576
 20
68.7123291998
 11
59.2372411624
 21
68.5823877584
  0
LINE
  5
393
100
AcDbEntity
  8
ASSI
100
AcDbLine
 62
250
  6
CONTINUOUS
 10
56.7578107576
 20
68.7123291998
 11
59.2372411624
 21
68.5823877584
  0
LWPOLYLINE
  5
394
100
AcDbEntity
  8
0
100
AcDbPolyline
 62
7
  6
CONTINUOUS
 90
10
 70
0
 43
0.3500000006
 10
72.3453089447
 20
176.5015898438
 10
71.7024554901
 20
175.8587182617
 10
71.2738819885
 20
175.0015803223
 10
71.2738819885
 20
173.9301578979
 10
71.7024554901
 20
173.5015889282
 10
72.3453089447
 20
173.5015889282
 10
72.7738824463
 20
173.9301578979
 10
72.7738824463
 20
174.7872958374
 10
72.3453089447
 20
175.2158648071
 10
71.4167398224
 20
175.2158648071
  0
LWPOLYLINE
  5
395
100
AcDbEntity
  8
0
100
AcDbPolyline
 62
7
  6
CONTINUOUS
 90
3
 70
0
 43
0.3500000006
 10
70.2738816833
 20
173.7872955322
 10
70.2024550323
 20
173.5730110474
 10
70.0595971985
 20
173.2873044434
  0
LINE
  5
396
100
AcDbEntity
  8
0
100
AcDbLine
 62
250
  6
CONTINUOUS
 10
53.5720512849
 20
122.3545852237
 11
53.5722775992
 21
122.3650002237
  0
LINE
  5
397
100
AcDbEntity
  8
0
100
AcDbLine
 62
250
  6
CONTINUOUS
 10
53.6011356816
 20
123.6127201131
 11
53.6016078948
 21
123.6319646102
  0
LINE
  5
398
100
AcDbEntity
  8
0
100
AcDbLine
 62
250
  6
CONTINUOUS
 10
53.6098517451
 20
123.9626872237
 11
53.6085629254
 21
123.9116201851
  0
LINE
  5
399
100
AcDbEntity
  8
0
100
AcDbLine
 62
250
  6
CONTINUOUS
 10
54.0546380544
 20
135.5895924284
 11
54.0542337148
 21
135.5818820713
  0
LINE
  5
39A
100
AcDbEntity
  8
0
100
AcDbLine
 62
250
  6
CONTINUOUS
 10
54.0748836447
 20
135.967329533
 11
54.0740089683
 21
135.9513338452
  0
LINE
  5
39B
100
AcDbEntity
  8
DRAFT
100
AcDbLine
 62
7
  6
CONTINUOUS
 10
62.0372411624
 20
108.7311042623
 11
60.0372411624
 21
109.0837582237
  0
LINE
  5
39C
100
AcDbEntity
  8
ASSI
100
AcDbLine
 62
7
  6
CONTINUOUS
 10
62.0372411624
 20
108.7311042623
 11
60.0372411624
 21
109.0837582237
  0
LINE
  5
39D
100
AcDbEntity
  8
RACCORDO
100
AcDbLine
 62
7
  6
CONTINUOUS
 10
59.2372411624
 20
67.5837582237
 11
59.2372411624
 21
157.5837582237
  0
LINE
  5
39E
100
AcDbEntity
  8
ASSI
100
AcDbLine
 62
7
  6
CONTINUOUS
 10
59.2372411624
 20
67.5837582237
 11
59.2372411624
 21
157.5837582237
  0
LINE
  5
39F
100
AcDbEntity
  8
DRAFT
100
AcDbLine
 62
7
  6
CONTINUOUS
 10
60.0372411624
 20
116.0837582237
 11
60.0372411624
 21
109.0837582237
  0
LINE
  5
3A0
100
AcDbEntity
  8
ASSI
100
AcDbLine
 62
7
  6
CONTINUOUS
 10
60.0372411624
 20
116.0837582237
 11
60.0372411624
 21
109.0837582237
  0
LINE
  5
3A1
100
AcDbEntity
  8
DRAFT
100
AcDbLine
 62
7
  6
CONTINUOUS
 10
62.0372411624
 20
155.6808339615
 11
62.0372411624
 21
116.4364121851
  0
LINE
  5
3A2
100
AcDbEntity
  8
RACCORDO
100
AcDbLine
 62
7
  6
CONTINUOUS
 10
62.0372411624
 20
156.0837581589
 11
62.0372411624
 21
155.6808339615
  0
LINE
  5
3A3
100
AcDbEntity
  8
ASSI
100
AcDbLine
 62
7
  6
CONTINUOUS
 10
62.0372411624
 20
156.0837581589
 11
62.0372411624
 21
116.4364121851
  0
LINE
  5
3A4
100
AcDbEntity
  8
DRAFT
100
AcDbLine
 62
7
  6
CONTINUOUS
 10
62.0372411624
 20
108.7311042623
 11
62.0372411624
 21
69.4866826902
  0
LINE
  5
3A5
100
AcDbEntity
  8
RACCORDO
100
AcDbLine
 62
7
  6
CONTINUOUS
 10
62.0372411624
 20
69.4866826902
 11
62.0372411624
 21
69.0837582399
  0
LINE
  5
3A6
100
AcDbEntity
  8
ASSI
100
AcDbLine
 62
7
  6
CONTINUOUS
 10
62.0372411624
 20
108.7311042623
 11
62.0372411624
 21
69.0837582399
  0
LINE
  5
3A7
100
AcDbEntity
  8
DRAFT
100
AcDbLine
 62
7
  6
CONTINUOUS
 10
62.0372411624
 20
116.4364121851
 11
60.0372411624
 21
116.0837582237
  0
LINE
  5
3A8
100
AcDbEntity
  8
ASSI
100
AcDbLine
 62
7
  6
CONTINUOUS
 10
62.0372411624
 20
116.4364121851
 11
60.0372411624
 21
116.0837582237
  0
LWPOLYLINE
  5
3A9
100
AcDbEntity
  8
0
100
AcDbPolyline
 62
7
  6
CONTINUOUS
 90
4
 70
0
 43
0.3500000006
 10
67.2024541168
 20
173.9301578979
 10
67.2024541168
 20
174.7872958374
 10
67.6310230865
 20
175.2158648071
 10
68.273881073
 20
175.2158648071
  0
LWPOLYLINE
  5
3AA
100
AcDbEntity
  8
0
100
AcDbPolyline
 62
7
  6
CONTINUOUS
 90
10
 70
0
 43
0.3500000006
 10
70.2024550323
 20
174.0015800171
 10
70.2738816833
 20
173.8587176514
 10
70.2738816833
 20
173.7872955322
 10
70.1310238495
 20
173.6444331665
 10
70.0595971985
 20
173.6444331665
 10
69.9881660156
 20
173.7158734131
 10
69.9881660156
 20
173.7872955322
 10
70.0595971985
 20
173.9301578979
 10
70.1310238495
 20
174.0015800171
 10
70.2024550323
 20
174.0015800171
  0
LINE
  5
3AB
100
AcDbEntity
  8
RACCORDO
100
AcDbLine
 62
250
  6
CONTINUOUS
 10
56.7578107576
 20
156.4551872475
 11
59.2372411624
 21
156.5851286889
  0
LINE
  5
3AC
100
AcDbEntity
  8
ASSI
100
AcDbLine
 62
250
  6
CONTINUOUS
 10
56.7578107576
 20
156.4551872475
 11
59.2372411624
 21
156.5851286889
  0
LINE
  5
3AD
100
AcDbEntity
  8
RACCORDO
100
AcDbLine
 62
7
  6
CONTINUOUS
 10
56.8865483832
 20
157.4605636354
 11
59.2372411624
 21
157.5837582237
  0
LINE
  5
3AE
100
AcDbEntity
  8
ASSI
100
AcDbLine
 62
7
  6
CONTINUOUS
 10
56.8865483832
 20
157.4605636354
 11
59.2372411624
 21
157.5837582237
  0
LWPOLYLINE
  5
3AF
100
AcDbEntity
  8
0
100
AcDbPolyline
 62
7
  6
CONTINUOUS
 90
13
 70
0
 43
0.3500000006
 10
67.6310230865
 20
175.2158648071
 10
67.3453119507
 20
175.430149292
 10
67.3453119507
 20
176.0730027466
 10
67.6310230865
 20
176.5015898438
 10
68.273881073
 20
176.5015898438
 10
68.5595967407
 20
176.0730027466
 10
68.5595967407
 20
175.430149292
 10
68.273881073
 20
175.2158648071
 10
68.7024545746
 20
174.7872958374
 10
68.7024545746
 20
173.9301578979
 10
68.273881073
 20
173.5015889282
 10
67.6310230865
 20
173.5015889282
 10
67.2024541168
 20
173.9301578979
  0
ARC
  5
3B0
100
AcDbEntity
  8
RACCORDO
100
AcDbCircle
 62
250
  6
CONTINUOUS
 10
-3042.5922153791
 20
98.1862071829
 40
3145.9466848953
100
AcDbArc
 50
359.4622280965
 51
359.8493801039
  0
ARC
  5
3B1
100
AcDbEntity
  8
ASSI
100
AcDbCircle
 62
250
  6
CONTINUOUS
 10
-3042.5922153791
 20
98.1862071829
 40
3145.9466848953
100
AcDbArc
 50
359.4622280965
 51
359.8493801039
  0
ARC
  5
3B2
100
AcDbEntity
  8
RACCORDO
100
AcDbCircle
 62
250
  6
CONTINUOUS
 10
-3031.6190699262
 20
98.1864338677
 40
3134.6739503732
100
AcDbArc
 50
359.4612624109
 51
359.8491094731
  0
ARC
  5
3B3
100
AcDbEntity
  8
ASSI
100
AcDbCircle
 62
250
  6
CONTINUOUS
 10
-3031.6190699262
 20
98.1864338677
 40
3134.6739503732
100
AcDbArc
 50
359.4612624109
 51
359.8491094731
  0
ARC
  5
3B4
100
AcDbEntity
  8
RACCORDO
100
AcDbCircle
 62
250
  6
CONTINUOUS
 10
169.8284486212
 20
90.5178244355
 40
1.3016418282
100
AcDbArc
 50
270.000066268
 51
332.463281331
  0
ARC
  5
3B5
100
AcDbEntity
  8
ASSI
100
AcDbCircle
 62
250
  6
CONTINUOUS
 10
169.8284486212
 20
90.5178244355
 40
1.3016418282
100
AcDbArc
 50
270.000066268
 51
332.463281331
  0
ARC
  5
3B6
100
AcDbEntity
  8
RACCORDO
100
AcDbCircle
 62
250
  6
CONTINUOUS
 10
125.7442852951
 20
90.517816898
 40
1.3016342907
100
AcDbArc
 50
207.5365174792
 51
270.0001349209
  0
ARC
  5
3B7
100
AcDbEntity
  8
ASSI
100
AcDbCircle
 62
250
  6
CONTINUOUS
 10
125.7442852951
 20
90.517816898
 40
1.3016342907
100
AcDbArc
 50
207.5365174792
 51
270.0001349209
  0
ARC
  5
3B8
100
AcDbEntity
  8
RACCORDO
100
AcDbCircle
 62
250
  6
CONTINUOUS
 10
125.7405213478
 20
90.517031289
 40
1.2979339586
100
AcDbArc
 50
180.1480807486
 51
207.5825821293
  0
ARC
  5
3B9
100
AcDbEntity
  8
ASSI
100
AcDbCircle
 62
250
  6
CONTINUOUS
 10
125.7405213478
 20
90.517031289
 40
1.2979339586
100
AcDbArc
 50
180.1480807486
 51
207.5825821293
  0
ARC
  5
3BA
100
AcDbEntity
  8
RACCORDO
100
AcDbCircle
 62
250
  6
CONTINUOUS
 10
169.8322209577
 20
90.5170303464
 40
1.2979301375
100
AcDbArc
 50
332.4173766964
 51
359.8519604251
  0
ARC
  5
3BB
100
AcDbEntity
  8
ASSI
100
AcDbCircle
 62
250
  6
CONTINUOUS
 10
169.8322209577
 20
90.5170303464
 40
1.2979301375
100
AcDbArc
 50
332.4173766964
 51
359.8519604251
  0
ARC
  5
3BC
100
AcDbEntity
  8
RACCORDO
100
AcDbCircle
 62
250
  6
CONTINUOUS
 10
125.7369856818
 20
90.5401340291
 40
0.7950815307
100
AcDbArc
 50
180.1418969745
 51
207.6661337456
  0
ARC
  5
3BD
100
AcDbEntity
  8
ASSI
100
AcDbCircle
 62
250
  6
CONTINUOUS
 10
125.7369856818
 20
90.5401340291
 40
0.7950815307
100
AcDbArc
 50
180.1418969745
 51
207.6661337456
  0
ARC
  5
3BE
100
AcDbEntity
  8
RACCORDO
100
AcDbCircle
 62
250
  6
CONTINUOUS
 10
169.8357589791
 20
90.5401325197
 40
0.7950753618
100
AcDbArc
 50
332.3337560065
 51
359.8597354253
  0
ARC
  5
3BF
100
AcDbEntity
  8
ASSI
100
AcDbCircle
 62
250
  6
CONTINUOUS
 10
169.8357589791
 20
90.5401325197
 40
0.7950753618
100
AcDbArc
 50
332.3337560065
 51
359.8597354253
  0
ARC
  5
3C0
100
AcDbEntity
  8
RACCORDO
100
AcDbCircle
 62
250
  6
CONTINUOUS
 10
-8347.456225261
 20
112.5837582237
 40
8589.6147254083
100
AcDbArc
 50
359.85278456
 51
0.14721544
  0
ARC
  5
3C1
100
AcDbEntity
  8
RACCORDO
100
AcDbCircle
 62
250
  6
CONTINUOUS
 10
-8418.456225261
 20
112.5837582237
 40
8589.6147254084
100
AcDbArc
 50
359.85278456
 51
0.14721544
  0
ARC
  5
3C2
100
AcDbEntity
  8
ASSI
100
AcDbCircle
 62
250
  6
CONTINUOUS
 10
-8418.456225261
 20
112.5837582237
 40
8589.6147254084
100
AcDbArc
 50
359.85278456
 51
0.14721544
  0
ARC
  5
3C3
100
AcDbEntity
  8
ASSI
100
AcDbCircle
 62
250
  6
CONTINUOUS
 10
-8347.456225261
 20
112.5837582237
 40
8589.6147254083
100
AcDbArc
 50
359.85278456
 51
0.14721544
  0
ARC
  5
3C4
100
AcDbEntity
  8
RACCORDO
100
AcDbCircle
 62
250
  6
CONTINUOUS
 10
-8482.052576352
 20
112.5837582257
 40
8585.4260996399
100
AcDbArc
 50
359.8487248017
 51
0.1512751984
  0
ARC
  5
3C5
100
AcDbEntity
  8
ASSI
100
AcDbCircle
 62
250
  6
CONTINUOUS
 10
-8482.052576352
 20
112.5837582257
 40
8585.4260996399
100
AcDbArc
 50
359.8487248017
 51
0.1512751984
  0
ARC
  5
3C6
100
AcDbEntity
  8
RACCORDO
100
AcDbCircle
 62
250
  6
CONTINUOUS
 10
-8470.9232368642
 20
112.5837582237
 40
8573.9971712791
100
AcDbArc
 50
359.8486237559
 51
0.1513762441
  0
ARC
  5
3C7
100
AcDbEntity
  8
ASSI
100
AcDbCircle
 62
250
  6
CONTINUOUS
 10
-8470.9232368642
 20
112.5837582237
 40
8573.9971712791
100
AcDbArc
 50
359.8486237559
 51
0.1513762441
  0
ARC
  5
3C8
100
AcDbEntity
  8
RACCORDO
100
AcDbCircle
 62
250
  6
CONTINUOUS
 10
-8399.8857779495
 20
112.5837609648
 40
8570.5449633196
100
AcDbArc
 50
359.8526208316
 51
0.1473792784
  0
ARC
  5
3C9
100
AcDbEntity
  8
RACCORDO
100
AcDbCircle
 62
250
  6
CONTINUOUS
 10
-8328.8857779495
 20
112.5837609648
 40
8570.5449633196
100
AcDbArc
 50
359.8526208316
 51
0.1473792784
  0
ARC
  5
3CA
100
AcDbEntity
  8
ASSI
100
AcDbCircle
 62
250
  6
CONTINUOUS
 10
-8399.8857779495
 20
112.5837609648
 40
8570.5449633196
100
AcDbArc
 50
359.8526208316
 51
0.1473792784
  0
ARC
  5
3CB
100
AcDbEntity
  8
ASSI
100
AcDbCircle
 62
250
  6
CONTINUOUS
 10
-8328.8857779495
 20
112.5837609648
 40
8570.5449633196
100
AcDbArc
 50
359.8526208316
 51
0.1473792784
  0
ARC
  5
3CC
100
AcDbEntity
  8
RACCORDO
100
AcDbCircle
 62
250
  6
CONTINUOUS
 10
-3019.6096902628
 20
127.1193750399
 40
3122.9638772078
100
AcDbArc
 50
0.1491953082
 51
0.5391964915
  0
ARC
  5
3CD
100
AcDbEntity
  8
ASSI
100
AcDbCircle
 62
250
  6
CONTINUOUS
 10
-3019.6096902628
 20
127.1193750399
 40
3122.9638772078
100
AcDbArc
 50
0.1491953082
 51
0.5391964915
  0
ARC
  5
3CE
100
AcDbEntity
  8
RACCORDO
100
AcDbCircle
 62
250
  6
CONTINUOUS
 10
-3008.7252178276
 20
127.1188626643
 40
3111.7798157812
100
AcDbArc
 50
0.1494637779
 51
0.5401643381
  0
ARC
  5
3CF
100
AcDbEntity
  8
ASSI
100
AcDbCircle
 62
250
  6
CONTINUOUS
 10
-3008.7252178276
 20
127.1188626643
 40
3111.7798157812
100
AcDbArc
 50
0.1494637779
 51
0.5401643381
  0
ARC
  5
3D0
100
AcDbEntity
  8
RACCORDO
100
AcDbCircle
 62
250
  6
CONTINUOUS
 10
125.7442898657
 20
134.6496920118
 40
1.3016418283
100
AcDbArc
 50
90.0000662685
 51
152.4632813312
  0
ARC
  5
3D1
100
AcDbEntity
  8
ASSI
100
AcDbCircle
 62
250
  6
CONTINUOUS
 10
125.7442898657
 20
134.6496920118
 40
1.3016418283
100
AcDbArc
 50
90.0000662685
 51
152.4632813312
  0
ARC
  5
3D2
100
AcDbEntity
  8
RACCORDO
100
AcDbCircle
 62
250
  6
CONTINUOUS
 10
169.8284531918
 20
134.6496995494
 40
1.3016342907
100
AcDbArc
 50
27.5365174795
 51
90.0001349215
  0
ARC
  5
3D3
100
AcDbEntity
  8
ASSI
100
AcDbCircle
 62
250
  6
CONTINUOUS
 10
169.8284531918
 20
134.6496995494
 40
1.3016342907
100
AcDbArc
 50
27.5365174795
 51
90.0001349215
  0
ARC
  5
3D4
100
AcDbEntity
  8
RACCORDO
100
AcDbCircle
 62
250
  6
CONTINUOUS
 10
169.8322073501
 20
134.6504827422
 40
1.2979437538
100
AcDbArc
 50
0.148186292
 51
27.5824765865
  0
ARC
  5
3D5
100
AcDbEntity
  8
ASSI
100
AcDbCircle
 62
250
  6
CONTINUOUS
 10
169.8322073501
 20
134.6504827422
 40
1.2979437538
100
AcDbArc
 50
0.148186292
 51
27.5824765865
  0
ARC
  5
3D6
100
AcDbEntity
  8
RACCORDO
100
AcDbCircle
 62
250
  6
CONTINUOUS
 10
125.7405240016
 20
134.6504845034
 40
1.2979366141
100
AcDbArc
 50
152.4174464834
 51
179.8518906386
  0
ARC
  5
3D7
100
AcDbEntity
  8
ASSI
100
AcDbCircle
 62
250
  6
CONTINUOUS
 10
125.7405240016
 20
134.6504845034
 40
1.2979366141
100
AcDbArc
 50
152.4174464834
 51
179.8518906386
  0
ARC
  5
3D8
100
AcDbEntity
  8
RACCORDO
100
AcDbCircle
 62
250
  6
CONTINUOUS
 10
169.8357515751
 20
134.6273821144
 40
0.7950827611
100
AcDbArc
 50
0.1419732007
 51
27.666111981
  0
ARC
  5
3D9
100
AcDbEntity
  8
ASSI
100
AcDbCircle
 62
250
  6
CONTINUOUS
 10
169.8357515751
 20
134.6273821144
 40
0.7950827611
100
AcDbArc
 50
0.1419732007
 51
27.666111981
  0
ARC
  5
3DA
100
AcDbEntity
  8
RACCORDO
100
AcDbCircle
 62
250
  6
CONTINUOUS
 10
125.7369803045
 20
134.6273837301
 40
0.7950761592
100
AcDbArc
 50
152.3337700604
 51
179.8597448321
  0
ARC
  5
3DB
100
AcDbEntity
  8
ASSI
100
AcDbCircle
 62
250
  6
CONTINUOUS
 10
125.7369803045
 20
134.6273837301
 40
0.7950761592
100
AcDbArc
 50
152.3337700604
 51
179.8597448321
  0
ARC
  5
3DC
100
AcDbEntity
  8
RACCORDO
100
AcDbCircle
 62
250
  6
CONTINUOUS
 10
8766.4583481082
 20
112.5837555365
 40
8570.5447949916
100
AcDbArc
 50
179.8526208312
 51
180.1473792766
  0
ARC
  5
3DD
100
AcDbEntity
  8
ASSI
100
AcDbCircle
 62
250
  6
CONTINUOUS
 10
8766.4583481082
 20
112.5837555365
 40
8570.5447949916
100
AcDbArc
 50
179.8526208312
 51
180.1473792766
  0
ARC
  5
3DE
100
AcDbEntity
  8
RACCORDO
100
AcDbCircle
 62
250
  6
CONTINUOUS
 10
8695.458348103
 20
112.5837555365
 40
8570.5447949865
100
AcDbArc
 50
179.8526208312
 51
180.1473792766
  0
ARC
  5
3DF
100
AcDbEntity
  8
ASSI
100
AcDbCircle
 62
250
  6
CONTINUOUS
 10
8695.458348103
 20
112.5837555365
 40
8570.5447949865
100
AcDbArc
 50
179.8526208312
 51
180.1473792766
  0
ARC
  5
3E0
100
AcDbEntity
  8
RACCORDO
100
AcDbCircle
 62
250
  6
CONTINUOUS
 10
3386.182420277
 20
98.0481413343
 40
3122.9638687348
100
AcDbArc
 50
180.1491953097
 51
180.5391964916
  0
ARC
  5
3E1
100
AcDbEntity
  8
ASSI
100
AcDbCircle
 62
250
  6
CONTINUOUS
 10
3386.182420277
 20
98.0481413343
 40
3122.9638687348
100
AcDbArc
 50
180.1491953097
 51
180.5391964916
  0
ARC
  5
3E2
100
AcDbEntity
  8
RACCORDO
100
AcDbCircle
 62
250
  6
CONTINUOUS
 10
3375.2979563223
 20
98.0486537832
 40
3111.779815789
100
AcDbArc
 50
180.1494637779
 51
180.5401643381
  0
ARC
  5
3E3
100
AcDbEntity
  8
ASSI
100
AcDbCircle
 62
250
  6
CONTINUOUS
 10
3375.2979563223
 20
98.0486537832
 40
3111.779815789
100
AcDbArc
 50
180.1494637779
 51
180.5401643381
  0
ARC
  5
3E4
100
AcDbEntity
  8
RACCORDO
100
AcDbCircle
 62
250
  6
CONTINUOUS
 10
240.8284486212
 20
90.5178244355
 40
1.3016418282
100
AcDbArc
 50
270.000066268
 51
332.4632813316
  0
ARC
  5
3E5
100
AcDbEntity
  8
ASSI
100
AcDbCircle
 62
250
  6
CONTINUOUS
 10
240.8284486212
 20
90.5178244355
 40
1.3016418282
100
AcDbArc
 50
270.000066268
 51
332.4632813316
  0
ARC
  5
3E6
100
AcDbEntity
  8
RACCORDO
100
AcDbCircle
 62
250
  6
CONTINUOUS
 10
196.7442852951
 20
90.517816898
 40
1.3016342907
100
AcDbArc
 50
207.53651748
 51
270.000134921
  0
ARC
  5
3E7
100
AcDbEntity
  8
ASSI
100
AcDbCircle
 62
250
  6
CONTINUOUS
 10
196.7442852951
 20
90.517816898
 40
1.3016342907
100
AcDbArc
 50
207.53651748
 51
270.000134921
  0
ARC
  5
3E8
100
AcDbEntity
  8
RACCORDO
100
AcDbCircle
 62
250
  6
CONTINUOUS
 10
196.7405213479
 20
90.517031289
 40
1.2979339587
100
AcDbArc
 50
180.1480807487
 51
207.5825821298
  0
ARC
  5
3E9
100
AcDbEntity
  8
ASSI
100
AcDbCircle
 62
250
  6
CONTINUOUS
 10
196.7405213479
 20
90.517031289
 40
1.2979339587
100
AcDbArc
 50
180.1480807487
 51
207.5825821298
  0
ARC
  5
3EA
100
AcDbEntity
  8
RACCORDO
100
AcDbCircle
 62
250
  6
CONTINUOUS
 10
240.8322209578
 20
90.5170303464
 40
1.2979301375
100
AcDbArc
 50
332.4173766967
 51
359.8519604253
  0
ARC
  5
3EB
100
AcDbEntity
  8
ASSI
100
AcDbCircle
 62
250
  6
CONTINUOUS
 10
240.8322209578
 20
90.5170303464
 40
1.2979301375
100
AcDbArc
 50
332.4173766967
 51
359.8519604253
  0
ARC
  5
3EC
100
AcDbEntity
  8
RACCORDO
100
AcDbCircle
 62
250
  6
CONTINUOUS
 10
196.7369856818
 20
90.5401340291
 40
0.7950815307
100
AcDbArc
 50
180.1418969745
 51
207.6661337456
  0
ARC
  5
3ED
100
AcDbEntity
  8
ASSI
100
AcDbCircle
 62
250
  6
CONTINUOUS
 10
196.7369856818
 20
90.5401340291
 40
0.7950815307
100
AcDbArc
 50
180.1418969745
 51
207.6661337456
  0
ARC
  5
3EE
100
AcDbEntity
  8
RACCORDO
100
AcDbCircle
 62
250
  6
CONTINUOUS
 10
240.8357589791
 20
90.5401325197
 40
0.7950753618
100
AcDbArc
 50
332.3337560065
 51
359.8597354253
  0
ARC
  5
3EF
100
AcDbEntity
  8
ASSI
100
AcDbCircle
 62
250
  6
CONTINUOUS
 10
240.8357589791
 20
90.5401325197
 40
0.7950753618
100
AcDbArc
 50
332.3337560065
 51
359.8597354253
  0
ARC
  5
3F0
100
AcDbEntity
  8
RACCORDO
100
AcDbCircle
 62
250
  6
CONTINUOUS
 10
8714.0289637616
 20
112.5837582237
 40
8589.6147254221
100
AcDbArc
 50
179.85278456
 51
180.14721544
  0
ARC
  5
3F1
100
AcDbEntity
  8
ASSI
100
AcDbCircle
 62
250
  6
CONTINUOUS
 10
8714.0289637616
 20
112.5837582237
 40
8589.6147254221
100
AcDbArc
 50
179.85278456
 51
180.14721544
  0
ARC
  5
3F2
100
AcDbEntity
  8
RACCORDO
100
AcDbCircle
 62
250
  6
CONTINUOUS
 10
8785.028963748
 20
112.5837582237
 40
8589.6147254085
100
AcDbArc
 50
179.85278456
 51
180.14721544
  0
ARC
  5
3F3
100
AcDbEntity
  8
ASSI
100
AcDbCircle
 62
250
  6
CONTINUOUS
 10
8785.028963748
 20
112.5837582237
 40
8589.6147254085
100
AcDbArc
 50
179.85278456
 51
180.14721544
  0
ARC
  5
3F4
100
AcDbEntity
  8
RACCORDO
100
AcDbCircle
 62
250
  6
CONTINUOUS
 10
8848.6253492153
 20
112.5837581888
 40
8585.4261340163
100
AcDbArc
 50
179.8487248029
 51
180.1512751985
  0
ARC
  5
3F5
100
AcDbEntity
  8
ASSI
100
AcDbCircle
 62
250
  6
CONTINUOUS
 10
8848.6253492153
 20
112.5837581888
 40
8585.4261340163
100
AcDbArc
 50
179.8487248029
 51
180.1512751985
  0
ARC
  5
3F6
100
AcDbEntity
  8
RACCORDO
100
AcDbCircle
 62
250
  6
CONTINUOUS
 10
8837.4959931008
 20
112.5837582237
 40
8573.9971890288
100
AcDbArc
 50
179.8486237562
 51
180.1513762438
  0
ARC
  5
3F7
100
AcDbEntity
  8
ASSI
100
AcDbCircle
 62
250
  6
CONTINUOUS
 10
8837.4959931008
 20
112.5837582237
 40
8573.9971890288
100
AcDbArc
 50
179.8486237562
 51
180.1513762438
  0
ARC
  5
3F8
100
AcDbEntity
  8
RACCORDO
100
AcDbCircle
 62
250
  6
CONTINUOUS
 10
3409.1649764831
 20
126.9813091067
 40
3145.946707513
100
AcDbArc
 50
179.4622280975
 51
179.8493801046
  0
ARC
  5
3F9
100
AcDbEntity
  8
ASSI
100
AcDbCircle
 62
250
  6
CONTINUOUS
 10
3409.1649764831
 20
126.9813091067
 40
3145.946707513
100
AcDbArc
 50
179.4622280975
 51
179.8493801046
  0
ARC
  5
3FA
100
AcDbEntity
  8
RACCORDO
100
AcDbCircle
 62
250
  6
CONTINUOUS
 10
3398.1918084248
 20
126.9810825796
 40
3134.673950385
100
AcDbArc
 50
179.4612624109
 51
179.8491094731
  0
ARC
  5
3FB
100
AcDbEntity
  8
ASSI
100
AcDbCircle
 62
250
  6
CONTINUOUS
 10
3398.1918084248
 20
126.9810825796
 40
3134.673950385
100
AcDbArc
 50
179.4612624109
 51
179.8491094731
  0
ARC
  5
3FC
100
AcDbEntity
  8
RACCORDO
100
AcDbCircle
 62
250
  6
CONTINUOUS
 10
196.7442898657
 20
134.6496920118
 40
1.3016418283
100
AcDbArc
 50
90.0000662684
 51
152.4632813305
  0
ARC
  5
3FD
100
AcDbEntity
  8
ASSI
100
AcDbCircle
 62
250
  6
CONTINUOUS
 10
196.7442898657
 20
134.6496920118
 40
1.3016418283
100
AcDbArc
 50
90.0000662684
 51
152.4632813305
  0
ARC
  5
3FE
100
AcDbEntity
  8
RACCORDO
100
AcDbCircle
 62
250
  6
CONTINUOUS
 10
240.8284531917
 20
134.6496995494
 40
1.3016342907
100
AcDbArc
 50
27.5365174787
 51
90.0001349214
  0
ARC
  5
3FF
100
AcDbEntity
  8
ASSI
100
AcDbCircle
 62
250
  6
CONTINUOUS
 10
240.8284531917
 20
134.6496995494
 40
1.3016342907
100
AcDbArc
 50
27.5365174787
 51
90.0001349214
  0
ARC
  5
400
100
AcDbEntity
  8
RACCORDO
100
AcDbCircle
 62
250
  6
CONTINUOUS
 10
240.8322073501
 20
134.6504827422
 40
1.2979437537
100
AcDbArc
 50
0.1481862918
 51
27.582476586
  0
ARC
  5
401
100
AcDbEntity
  8
ASSI
100
AcDbCircle
 62
250
  6
CONTINUOUS
 10
240.8322073501
 20
134.6504827422
 40
1.2979437537
100
AcDbArc
 50
0.1481862918
 51
27.582476586
  0
ARC
  5
402
100
AcDbEntity
  8
RACCORDO
100
AcDbCircle
 62
250
  6
CONTINUOUS
 10
196.7405240016
 20
134.6504845034
 40
1.2979366141
100
AcDbArc
 50
152.4174464831
 51
179.8518906384
  0
ARC
  5
403
100
AcDbEntity
  8
ASSI
100
AcDbCircle
 62
250
  6
CONTINUOUS
 10
196.7405240016
 20
134.6504845034
 40
1.2979366141
100
AcDbArc
 50
152.4174464831
 51
179.8518906384
  0
ARC
  5
404
100
AcDbEntity
  8
RACCORDO
100
AcDbCircle
 62
250
  6
CONTINUOUS
 10
240.8357515751
 20
134.6273821144
 40
0.7950827611
100
AcDbArc
 50
0.1419732007
 51
27.6661119809
  0
ARC
  5
405
100
AcDbEntity
  8
ASSI
100
AcDbCircle
 62
250
  6
CONTINUOUS
 10
240.8357515751
 20
134.6273821144
 40
0.7950827611
100
AcDbArc
 50
0.1419732007
 51
27.6661119809
  0
ARC
  5
406
100
AcDbEntity
  8
RACCORDO
100
AcDbCircle
 62
250
  6
CONTINUOUS
 10
196.7369803045
 20
134.6273837301
 40
0.7950761592
100
AcDbArc
 50
152.3337700604
 51
179.8597448321
  0
ARC
  5
407
100
AcDbEntity
  8
ASSI
100
AcDbCircle
 62
250
  6
CONTINUOUS
 10
196.7369803045
 20
134.6273837301
 40
0.7950761592
100
AcDbArc
 50
152.3337700604
 51
179.8597448321
  0
ARC
  5
408
100
AcDbEntity
  8
RACCORDO
100
AcDbCircle
 62
7
  6
CONTINUOUS
 10
56.9022479201
 20
68.0065482557
 40
0.3000000001
100
AcDbArc
 50
190.4615209043
 51
267.0003041861
  0
ARC
  5
409
100
AcDbEntity
  8
ASSI
100
AcDbCircle
 62
7
  6
CONTINUOUS
 10
56.9022479201
 20
68.0065482557
 40
0.3000000001
100
AcDbArc
 50
190.4615209043
 51
267.0003041861
  0
ARC
  5
40A
100
AcDbEntity
  8
RACCORDO
100
AcDbCircle
 62
250
  6
CONTINUOUS
 10
58.9741025794
 20
74.2403244063
 40
5.6633678566
100
AcDbArc
 50
272.6631083111
 51
287.2574750878
  0
ARC
  5
40B
100
AcDbEntity
  8
ASSI
100
AcDbCircle
 62
250
  6
CONTINUOUS
 10
58.9741025794
 20
74.2403244063
 40
5.6633678566
100
AcDbArc
 50
272.6631083111
 51
287.2574750878
  0
ARC
  5
40C
100
AcDbEntity
  8
RACCORDO
100
AcDbCircle
 62
7
  6
CONTINUOUS
 10
58.9657613459
 20
73.2639017098
 40
5.1872524353
100
AcDbArc
 50
273.0000002146
 51
306.307648455
  0
ARC
  5
40D
100
AcDbEntity
  8
ASSI
100
AcDbCircle
 62
7
  6
CONTINUOUS
 10
58.9657613459
 20
73.2639017098
 40
5.1872524353
100
AcDbArc
 50
273.0000002146
 51
306.307648455
  0
ARC
  5
40E
100
AcDbEntity
  8
RACCORDO
100
AcDbCircle
 62
7
  6
CONTINUOUS
 10
221.25793293
 20
98.3501144324
 40
167.4332498099
100
AcDbArc
 50
182.887344071
 51
190.4602411505
  0
ARC
  5
40F
100
AcDbEntity
  8
ASSI
100
AcDbCircle
 62
7
  6
CONTINUOUS
 10
221.25793293
 20
98.3501144324
 40
167.4332498099
100
AcDbArc
 50
182.887344071
 51
190.4602411505
  0
ARC
  5
410
100
AcDbEntity
  8
RACCORDO
100
AcDbCircle
 62
250
  6
CONTINUOUS
 10
221.241398929
 20
98.3500187508
 40
167.1324128339
100
AcDbArc
 50
182.8873454031
 51
190.2143127298
  0
ARC
  5
411
100
AcDbEntity
  8
ASSI
100
AcDbCircle
 62
250
  6
CONTINUOUS
 10
221.241398929
 20
98.3500187508
 40
167.1324128339
100
AcDbArc
 50
182.8873454031
 51
190.2143127298
  0
ARC
  5
412
100
AcDbEntity
  8
RACCORDO
100
AcDbCircle
 62
7
  6
CONTINUOUS
 10
56.9022491701
 20
157.1609747749
 40
0.3
100
AcDbArc
 50
93.0
 51
169.5397588495
  0
ARC
  5
413
100
AcDbEntity
  8
ASSI
100
AcDbCircle
 62
7
  6
CONTINUOUS
 10
56.9022491701
 20
157.1609747749
 40
0.3
100
AcDbArc
 50
93.0
 51
169.5397588495
  0
ARC
  5
414
100
AcDbEntity
  8
RACCORDO
100
AcDbCircle
 62
250
  6
CONTINUOUS
 10
58.9693207617
 20
150.8999562558
 40
5.6907974891
100
AcDbArc
 50
72.777681319
 51
87.3015404786
  0
ARC
  5
415
100
AcDbEntity
  8
ASSI
100
AcDbCircle
 62
250
  6
CONTINUOUS
 10
58.9693207617
 20
150.8999562558
 40
5.6907974891
100
AcDbArc
 50
72.777681319
 51
87.3015404786
  0
ARC
  5
416
100
AcDbEntity
  8
RACCORDO
100
AcDbCircle
 62
7
  6
CONTINUOUS
 10
58.9657613459
 20
151.9036147376
 40
5.1872524353
100
AcDbArc
 50
53.6923506758
 51
86.9999996094
  0
ARC
  5
417
100
AcDbEntity
  8
ASSI
100
AcDbCircle
 62
7
  6
CONTINUOUS
 10
58.9657613459
 20
151.9036147376
 40
5.1872524353
100
AcDbArc
 50
53.6923506758
 51
86.9999996094
  0
ARC
  5
418
100
AcDbEntity
  8
RACCORDO
100
AcDbCircle
 62
7
  6
CONTINUOUS
 10
221.25793293
 20
126.817402015
 40
167.4332498099
100
AcDbArc
 50
169.5397588495
 51
177.1126362258
  0
ARC
  5
419
100
AcDbEntity
  8
ASSI
100
AcDbCircle
 62
7
  6
CONTINUOUS
 10
221.25793293
 20
126.817402015
 40
167.4332498099
100
AcDbArc
 50
169.5397588495
 51
177.1126362258
  0
ARC
  5
41A
100
AcDbEntity
  8
0
100
AcDbCircle
 62
250
  6
CONTINUOUS
 10
221.25793293
 20
126.817402015
 40
167.4332498099
100
AcDbArc
 50
176.2280584927
 51
177.0053839517
  0
ARC
  5
41B
100
AcDbEntity
  8
RACCORDO
100
AcDbCircle
 62
250
  6
CONTINUOUS
 10
221.2413888446
 20
126.8174988546
 40
167.1324027039
100
AcDbArc
 50
169.7856870479
 51
177.1126548193
  0
ARC
  5
41C
100
AcDbEntity
  8
ASSI
100
AcDbCircle
 62
250
  6
CONTINUOUS
 10
221.2413888446
 20
126.8174988546
 40
167.1324027039
100
AcDbArc
 50
169.7856870479
 51
177.1126548193
  0
ARC
  5
41D
100
AcDbEntity
  8
RACCORDO
100
AcDbCircle
 62
7
  6
CONTINUOUS
 10
503.4659620458
 20
112.5837582237
 40
450.0
100
AcDbArc
 50
177.1126435736
 51
182.8873564621
  0
ARC
  5
41E
100
AcDbEntity
  8
ASSI
100
AcDbCircle
 62
7
  6
CONTINUOUS
 10
503.4659620458
 20
112.5837582237
 40
450.0
100
AcDbArc
 50
177.1126435736
 51
182.8873564621
  0
ARC
  5
41F
100
AcDbEntity
  8
0
100
AcDbCircle
 62
250
  6
CONTINUOUS
 10
503.4659620458
 20
112.5837582237
 40
450.0
100
AcDbArc
 50
179.5727653499
 51
179.8547615369
  0
ARC
  5
420
100
AcDbEntity
  8
0
100
AcDbCircle
 62
250
  6
CONTINUOUS
 10
503.4659620458
 20
112.5837582237
 40
450.0
100
AcDbArc
 50
179.4456618152
 51
179.5054397356
  0
ARC
  5
421
100
AcDbEntity
  8
0
100
AcDbCircle
 62
250
  6
CONTINUOUS
 10
503.4659620458
 20
112.5837582237
 40
450.0
100
AcDbArc
 50
179.3115426843
 51
179.4095000068
  0
ARC
  5
422
100
AcDbEntity
  8
0
100
AcDbCircle
 62
250
  6
CONTINUOUS
 10
503.4659620458
 20
112.5837582237
 40
450.0
100
AcDbArc
 50
179.0888953009
 51
179.1334258471
  0
ARC
  5
423
100
AcDbEntity
  8
0
100
AcDbCircle
 62
250
  6
CONTINUOUS
 10
503.4659620458
 20
112.5837582237
 40
450.0
100
AcDbArc
 50
178.9187257536
 51
179.0671658007
  0
ARC
  5
424
100
AcDbEntity
  8
0
100
AcDbCircle
 62
250
  6
CONTINUOUS
 10
503.4659620458
 20
112.5837582237
 40
450.0
100
AcDbArc
 50
181.0109870885
 51
181.2821707428
  0
ARC
  5
425
100
AcDbEntity
  8
0
100
AcDbCircle
 62
250
  6
CONTINUOUS
 10
503.4659620458
 20
112.5837582237
 40
450.0
100
AcDbArc
 50
178.8365447759
 51
178.8810786697
  0
ARC
  5
426
100
AcDbEntity
  8
0
100
AcDbCircle
 62
250
  6
CONTINUOUS
 10
503.4659620458
 20
112.5837582237
 40
450.0
100
AcDbArc
 50
180.6547480197
 51
180.6992761888
  0
ARC
  5
427
100
AcDbEntity
  8
0
100
AcDbCircle
 62
250
  6
CONTINUOUS
 10
503.4659620458
 20
112.5837582237
 40
450.0
100
AcDbArc
 50
180.43953335
 51
180.4914810752
  0
ARC
  5
428
100
AcDbEntity
  8
0
100
AcDbCircle
 62
250
  6
CONTINUOUS
 10
503.4659620458
 20
112.5837582237
 40
450.0
100
AcDbArc
 50
178.5025158575
 51
178.5552320937
  0
ARC
  5
429
100
AcDbEntity
  8
0
100
AcDbCircle
 62
250
  6
CONTINUOUS
 10
503.4659620458
 20
112.5837582237
 40
450.0
100
AcDbArc
 50
178.556486214
 51
178.7152851956
  0
ARC
  5
42A
100
AcDbEntity
  8
0
100
AcDbCircle
 62
250
  6
CONTINUOUS
 10
503.4659620458
 20
112.5837582237
 40
450.0
100
AcDbArc
 50
178.0061469249
 51
178.209801317
  0
ARC
  5
42B
100
AcDbEntity
  8
0
100
AcDbCircle
 62
250
  6
CONTINUOUS
 10
503.4659620458
 20
112.5837582237
 40
450.0
100
AcDbArc
 50
177.4544485266
 51
177.5902711615
  0
ARC
  5
42C
100
AcDbEntity
  8
0
100
AcDbCircle
 62
250
  6
CONTINUOUS
 10
503.4659620458
 20
112.5837582237
 40
450.0
100
AcDbArc
 50
180.5508503649
 51
180.6265429818
  0
ARC
  5
42D
100
AcDbEntity
  8
0
100
AcDbCircle
 62
250
  6
CONTINUOUS
 10
503.4659620458
 20
112.5837582237
 40
450.0
100
AcDbArc
 50
180.9070806283
 51
180.9516116741
  0
ARC
  5
42E
100
AcDbEntity
  8
0
100
AcDbCircle
 62
250
  6
CONTINUOUS
 10
503.4659620458
 20
112.5837582237
 40
450.0
100
AcDbArc
 50
180.73691929
 51
180.8853511557
  0
ARC
  5
42F
100
AcDbEntity
  8
RACCORDO
100
AcDbCircle
 62
250
  6
CONTINUOUS
 10
503.4502612592
 20
112.5837582237
 40
449.7000000003
100
AcDbArc
 50
177.1126362257
 51
182.8873637743
  0
ARC
  5
430
100
AcDbEntity
  8
ASSI
100
AcDbCircle
 62
250
  6
CONTINUOUS
 10
503.4502612592
 20
112.5837582237
 40
449.7000000003
100
AcDbArc
 50
177.1126362257
 51
182.8873637743
  0
SPLINE
  5
431
100
AcDbEntity
  8
RACCORDO
100
AcDbSpline
 62
250
  6
CONTINUOUS
 70
0
 71
3
 72
18
 73
14
 74
0
 42
0.0000001
 43
0.0000001
 44
0.0000000001
 40
0.0
 40
0.0
 40
0.0
 40
0.0
 40
0.1882963903
 40
0.3699862012
 40
0.5383097251
 40
0.6874071214
 40
0.8118961096
 40
0.8635014642
 40
0.9073779864
 40
0.9431793529
 40
0.9705968186
 40
0.9894859685
 40
1.0
 40
1.0
 40
1.0
 40
1.0
 10
124.442591724
 20
90.5136767875
 30
0.0
 10
124.4740286418
 20
90.5137574932
 30
0.0
 10
124.5357991936
 20
90.5141999912
 30
0.0
 10
124.6256614748
 20
90.5156953057
 30
0.0
 10
124.7089620852
 20
90.5179613285
 30
0.0
 10
124.7826830744
 20
90.5209074367
 30
0.0
 10
124.8368965832
 20
90.5239714453
 30
0.0
 10
124.873509755
 20
90.5267981526
 30
0.0
 10
124.8953417843
 20
90.5288681274
 30
0.0
 10
124.9130677011
 20
90.5310147063
 30
0.0
 10
124.9266832528
 20
90.5331403537
 30
0.0
 10
124.935784756
 20
90.5353333891
 30
0.0
 10
124.9406271788
 20
90.5369971499
 30
0.0
 10
124.9419064914
 20
90.5381990995
 30
0.0
  0
SPLINE
  5
432
100
AcDbEntity
  8
RACCORDO
100
AcDbSpline
 62
250
  6
CONTINUOUS
 70
0
 71
3
 72
18
 73
14
 74
0
 42
0.0000001
 43
0.0000001
 44
0.0000000001
 40
0.0
 40
0.0
 40
0.0
 40
0.0
 40
0.1882955833
 40
0.3699849614
 40
0.5383083918
 40
0.6874059645
 40
0.8118952941
 40
0.8635008425
 40
0.9073775531
 40
0.9431790884
 40
0.9705966898
 40
0.9894859314
 40
1.0
 40
1.0
 40
1.0
 40
1.0
 10
124.4425917241
 20
134.6538394889
 30
0.0
 10
124.4740287011
 20
134.6537587993
 30
0.0
 10
124.5357994273
 20
134.6533163312
 30
0.0
 10
124.6256620412
 20
134.6518210576
 30
0.0
 10
124.7089631084
 20
134.6495550689
 30
0.0
 10
124.782684625
 20
134.6466089867
 30
0.0
 10
124.8368985892
 20
134.6435449939
 30
0.0
 10
124.8735121101
 20
134.6407182948
 30
0.0
 10
124.8953443679
 20
134.6386483231
 30
0.0
 10
124.9130704787
 20
134.636501745
 30
0.0
 10
124.9266861836
 20
134.6343760989
 30
0.0
 10
124.9357877905
 20
134.6321830599
 30
0.0
 10
124.9406302698
 20
134.6305193024
 30
0.0
 10
124.9419096014
 20
134.629317348
 30
0.0
  0
SPLINE
  5
433
100
AcDbEntity
  8
RACCORDO
100
AcDbSpline
 62
250
  6
CONTINUOUS
 70
0
 71
3
 72
17
 73
13
 74
0
 42
0.0000001
 43
0.0000001
 44
0.0000000001
 40
0.0
 40
0.0
 40
0.0
 40
0.0
 40
0.1853273245
 40
0.3649250643
 40
0.5320649864
 40
0.6808835187
 40
0.8059662092
 40
0.902843603
 40
0.9396145243
 40
0.9681550158
 40
0.9882776336
 40
1.0
 40
1.0
 40
1.0
 40
1.0
 10
124.5901048781
 20
135.251462957
 30
0.0
 10
124.6181235661
 20
135.2368484441
 30
0.0
 10
124.6731737031
 20
135.2078386694
 30
0.0
 10
124.7530721082
 20
135.1648554467
 30
0.0
 10
124.827102371
 20
135.1241141901
 30
0.0
 10
124.8925824142
 20
135.0871177985
 30
0.0
 10
124.947147329
 20
135.0551906392
 30
0.0
 10
124.9847779493
 20
135.0321222144
 30
0.0
 10
125.0078460276
 20
135.0168946272
 30
0.0
 10
125.0197930903
 20
135.0084947953
 30
0.0
 10
125.0277698097
 20
135.0020796917
 30
0.0
 10
125.0318064336
 20
134.9982810431
 30
0.0
 10
125.0328097734
 20
134.9965522643
 30
0.0
  0
SPLINE
  5
434
100
AcDbEntity
  8
RACCORDO
100
AcDbSpline
 62
250
  6
CONTINUOUS
 70
0
 71
3
 72
17
 73
13
 74
0
 42
0.0000001
 43
0.0000001
 44
0.0000000001
 40
0.0
 40
0.0
 40
0.0
 40
0.0
 40
0.1853270728
 40
0.3649246831
 40
0.5320645833
 40
0.6808831764
 40
0.8059659758
 40
0.9028434865
 40
0.9396144574
 40
0.9681549868
 40
0.9882776276
 40
1.0
 40
1.0
 40
1.0
 40
1.0
 10
170.9826336086
 20
135.2514629021
 30
0.0
 10
170.9546148982
 20
135.2368483848
 30
0.0
 10
170.8995647003
 20
135.2078385914
 30
0.0
 10
170.819666184
 20
135.1648553276
 30
0.0
 10
170.7456357757
 20
135.1241140081
 30
0.0
 10
170.6801555693
 20
135.0871175404
 30
0.0
 10
170.625590494
 20
135.0551903021
 30
0.0
 10
170.5879597508
 20
135.0321218145
 30
0.0
 10
170.5648915917
 20
135.0168941838
 30
0.0
 10
170.5529444857
 20
135.0084943284
 30
0.0
 10
170.5449677387
 20
135.002079208
 30
0.0
 10
170.5409310999
 20
134.998280551
 30
0.0
 10
170.5399277568
 20
134.9965517682
 30
0.0
  0
SPLINE
  5
435
100
AcDbEntity
  8
RACCORDO
100
AcDbSpline
 62
250
  6
CONTINUOUS
 70
0
 71
3
 72
18
 73
14
 74
0
 42
0.0000001
 43
0.0000001
 44
0.0000000001
 40
0.0
 40
0.0
 40
0.0
 40
0.0
 40
0.1882963903
 40
0.3699862012
 40
0.5383097251
 40
0.6874071214
 40
0.8118961096
 40
0.8635014642
 40
0.9073779864
 40
0.9431793529
 40
0.9705968186
 40
0.9894859685
 40
1.0
 40
1.0
 40
1.0
 40
1.0
 10
171.1301467628
 20
134.6538396599
 30
0.0
 10
171.0987098451
 20
134.6537589542
 30
0.0
 10
171.0369392932
 20
134.6533164562
 30
0.0
 10
170.947077012
 20
134.6518211417
 30
0.0
 10
170.8637764016
 20
134.6495551189
 30
0.0
 10
170.7900554125
 20
134.6466090107
 30
0.0
 10
170.7358419037
 20
134.6435450021
 30
0.0
 10
170.6992287318
 20
134.6407182948
 30
0.0
 10
170.6773967026
 20
134.63864832
 30
0.0
 10
170.6596707857
 20
134.6365017411
 30
0.0
 10
170.646055234
 20
134.6343760936
 30
0.0
 10
170.6369537308
 20
134.6321830583
 30
0.0
 10
170.6321113081
 20
134.6305192975
 30
0.0
 10
170.6308319954
 20
134.6293173479
 30
0.0
  0
SPLINE
  5
436
100
AcDbEntity
  8
RACCORDO
100
AcDbSpline
 62
250
  6
CONTINUOUS
 70
0
 71
3
 72
18
 73
14
 74
0
 42
0.0000001
 43
0.0000001
 44
0.0000000001
 40
0.0
 40
0.0
 40
0.0
 40
0.0
 40
0.188295619
 40
0.3699850163
 40
0.5383084509
 40
0.6874060158
 40
0.8118953304
 40
0.8635008703
 40
0.9073775725
 40
0.9431791003
 40
0.9705966957
 40
0.9894859331
 40
1.0
 40
1.0
 40
1.0
 40
1.0
 10
242.1301467628
 20
90.5136769509
 30
0.0
 10
242.0987097884
 20
90.5137576412
 30
0.0
 10
242.03693907
 20
90.5142001107
 30
0.0
 10
241.9470764709
 20
90.5156953861
 30
0.0
 10
241.863775424
 20
90.5179613762
 30
0.0
 10
241.7900539308
 20
90.5209074596
 30
0.0
 10
241.7358399868
 20
90.5239714531
 30
0.0
 10
241.6992264814
 20
90.5267981526
 30
0.0
 10
241.6773942337
 20
90.5288681244
 30
0.0
 10
241.6596681316
 20
90.5310147026
 30
0.0
 10
241.6460524334
 20
90.5331403487
 30
0.0
 10
241.6369508312
 20
90.5353333876
 30
0.0
 10
241.6321083544
 20
90.5369971452
 30
0.0
 10
241.6308290237
 20
90.5381990994
 30
0.0
  0
SPLINE
  5
437
100
AcDbEntity
  8
RACCORDO
100
AcDbSpline
 62
250
  6
CONTINUOUS
 70
0
 71
3
 72
17
 73
13
 74
0
 42
0.0000001
 43
0.0000001
 44
0.0000000001
 40
0.0
 40
0.0
 40
0.0
 40
0.0
 40
0.1853273245
 40
0.3649250643
 40
0.5320649864
 40
0.6808835187
 40
0.8059662092
 40
0.902843603
 40
0.9396145243
 40
0.9681550158
 40
0.9882776336
 40
1.0
 40
1.0
 40
1.0
 40
1.0
 10
241.9826336087
 20
89.9160534903
 30
0.0
 10
241.9546149207
 20
89.9306680033
 30
0.0
 10
241.8995647838
 20
89.959677778
 30
0.0
 10
241.8196663786
 20
90.0026610006
 30
0.0
 10
241.7456361159
 20
90.0434022573
 30
0.0
 10
241.6801560726
 20
90.0803986489
 30
0.0
 10
241.6255911579
 20
90.1123258082
 30
0.0
 10
241.5879605375
 20
90.135394233
 30
0.0
 10
241.5648924593
 20
90.1506218202
 30
0.0
 10
241.5529453965
 20
90.1590216521
 30
0.0
 10
241.5449686772
 20
90.1654367556
 30
0.0
 10
241.5409320533
 20
90.1692354043
 30
0.0
 10
241.5399287135
 20
90.170964183
 30
0.0
  0
SPLINE
  5
438
100
AcDbEntity
  8
RACCORDO
100
AcDbSpline
 62
250
  6
CONTINUOUS
 70
0
 71
3
 72
17
 73
13
 74
0
 42
0.0000001
 43
0.0000001
 44
0.0000000001
 40
0.0
 40
0.0
 40
0.0
 40
0.0
 40
0.1853271497
 40
0.3649248018
 40
0.5320647111
 40
0.6808832871
 40
0.8059660532
 40
0.9028435267
 40
0.9396144814
 40
0.968154998
 40
0.9882776306
 40
1.0
 40
1.0
 40
1.0
 40
1.0
 10
195.5901048782
 20
89.9160535277
 30
0.0
 10
195.6181235843
 20
89.9306680442
 30
0.0
 10
195.6731737688
 20
89.9596778333
 30
0.0
 10
195.7530722586
 20
90.0026610872
 30
0.0
 10
195.8271026295
 20
90.0434023906
 30
0.0
 10
195.8925827918
 20
90.080398838
 30
0.0
 10
195.9471478222
 20
90.1123260549
 30
0.0
 10
195.9847785301
 20
90.1353945254
 30
0.0
 10
196.0078466654
 20
90.1506221441
 30
0.0
 10
196.0197937584
 20
90.1590219931
 30
0.0
 10
196.0277704967
 20
90.1654371089
 30
0.0
 10
196.0318071307
 20
90.1692357638
 30
0.0
 10
196.0328104724
 20
90.1709645455
 30
0.0
  0
SPLINE
  5
439
100
AcDbEntity
  8
RACCORDO
100
AcDbSpline
 62
250
  6
CONTINUOUS
 70
0
 71
3
 72
18
 73
14
 74
0
 42
0.0000001
 43
0.0000001
 44
0.0000000001
 40
0.0
 40
0.0
 40
0.0
 40
0.0
 40
0.1882963903
 40
0.3699862012
 40
0.5383097251
 40
0.6874071214
 40
0.8118961096
 40
0.8635014642
 40
0.9073779864
 40
0.9431793529
 40
0.9705968186
 40
0.9894859685
 40
1.0
 40
1.0
 40
1.0
 40
1.0
 10
195.442591724
 20
90.5136767875
 30
0.0
 10
195.4740286418
 20
90.5137574932
 30
0.0
 10
195.5357991936
 20
90.5141999912
 30
0.0
 10
195.6256614748
 20
90.5156953057
 30
0.0
 10
195.7089620852
 20
90.5179613285
 30
0.0
 10
195.7826830744
 20
90.5209074367
 30
0.0
 10
195.8368965832
 20
90.5239714453
 30
0.0
 10
195.873509755
 20
90.5267981526
 30
0.0
 10
195.8953417843
 20
90.5288681274
 30
0.0
 10
195.9130677011
 20
90.5310147063
 30
0.0
 10
195.9266832528
 20
90.5331403537
 30
0.0
 10
195.935784756
 20
90.5353333891
 30
0.0
 10
195.9406271788
 20
90.5369971499
 30
0.0
 10
195.9419064914
 20
90.5381990995
 30
0.0
  0
SPLINE
  5
43A
100
AcDbEntity
  8
RACCORDO
100
AcDbSpline
 62
250
  6
CONTINUOUS
 70
0
 71
3
 72
18
 73
14
 74
0
 42
0.0000001
 43
0.0000001
 44
0.0000000001
 40
0.0
 40
0.0
 40
0.0
 40
0.0
 40
0.1882955833
 40
0.3699849614
 40
0.5383083918
 40
0.6874059645
 40
0.8118952941
 40
0.8635008425
 40
0.9073775531
 40
0.9431790884
 40
0.9705966898
 40
0.9894859314
 40
1.0
 40
1.0
 40
1.0
 40
1.0
 10
195.4425917241
 20
134.6538394889
 30
0.0
 10
195.4740287011
 20
134.6537587993
 30
0.0
 10
195.5357994273
 20
134.6533163312
 30
0.0
 10
195.6256620412
 20
134.6518210576
 30
0.0
 10
195.7089631084
 20
134.6495550689
 30
0.0
 10
195.782684625
 20
134.6466089867
 30
0.0
 10
195.8368985892
 20
134.6435449939
 30
0.0
 10
195.8735121101
 20
134.6407182948
 30
0.0
 10
195.8953443679
 20
134.6386483231
 30
0.0
 10
195.9130704787
 20
134.636501745
 30
0.0
 10
195.9266861836
 20
134.6343760989
 30
0.0
 10
195.9357877905
 20
134.6321830599
 30
0.0
 10
195.9406302698
 20
134.6305193024
 30
0.0
 10
195.9419096014
 20
134.629317348
 30
0.0
  0
SPLINE
  5
43B
100
AcDbEntity
  8
RACCORDO
100
AcDbSpline
 62
250
  6
CONTINUOUS
 70
0
 71
3
 72
17
 73
13
 74
0
 42
0.0000001
 43
0.0000001
 44
0.0000000001
 40
0.0
 40
0.0
 40
0.0
 40
0.0
 40
0.1853273245
 40
0.3649250643
 40
0.5320649864
 40
0.6808835187
 40
0.8059662092
 40
0.902843603
 40
0.9396145243
 40
0.9681550158
 40
0.9882776336
 40
1.0
 40
1.0
 40
1.0
 40
1.0
 10
195.5901048781
 20
135.251462957
 30
0.0
 10
195.6181235661
 20
135.2368484441
 30
0.0
 10
195.6731737031
 20
135.2078386694
 30
0.0
 10
195.7530721082
 20
135.1648554467
 30
0.0
 10
195.827102371
 20
135.1241141901
 30
0.0
 10
195.8925824142
 20
135.0871177985
 30
0.0
 10
195.947147329
 20
135.0551906392
 30
0.0
 10
195.9847779493
 20
135.0321222144
 30
0.0
 10
196.0078460276
 20
135.0168946272
 30
0.0
 10
196.0197930903
 20
135.0084947953
 30
0.0
 10
196.0277698097
 20
135.0020796917
 30
0.0
 10
196.0318064336
 20
134.9982810431
 30
0.0
 10
196.0328097734
 20
134.9965522643
 30
0.0
  0
SPLINE
  5
43C
100
AcDbEntity
  8
RACCORDO
100
AcDbSpline
 62
250
  6
CONTINUOUS
 70
0
 71
3
 72
17
 73
13
 74
0
 42
0.0000001
 43
0.0000001
 44
0.0000000001
 40
0.0
 40
0.0
 40
0.0
 40
0.0
 40
0.1853270728
 40
0.3649246831
 40
0.5320645833
 40
0.6808831764
 40
0.8059659758
 40
0.9028434865
 40
0.9396144574
 40
0.9681549868
 40
0.9882776276
 40
1.0
 40
1.0
 40
1.0
 40
1.0
 10
241.9826336086
 20
135.2514629021
 30
0.0
 10
241.9546148982
 20
135.2368483848
 30
0.0
 10
241.8995647003
 20
135.2078385914
 30
0.0
 10
241.819666184
 20
135.1648553276
 30
0.0
 10
241.7456357757
 20
135.1241140081
 30
0.0
 10
241.6801555693
 20
135.0871175404
 30
0.0
 10
241.625590494
 20
135.0551903021
 30
0.0
 10
241.5879597508
 20
135.0321218145
 30
0.0
 10
241.5648915917
 20
135.0168941838
 30
0.0
 10
241.5529444857
 20
135.0084943284
 30
0.0
 10
241.5449677387
 20
135.002079208
 30
0.0
 10
241.5409310999
 20
134.998280551
 30
0.0
 10
241.5399277568
 20
134.9965517682
 30
0.0
  0
SPLINE
  5
43D
100
AcDbEntity
  8
RACCORDO
100
AcDbSpline
 62
250
  6
CONTINUOUS
 70
0
 71
3
 72
18
 73
14
 74
0
 42
0.0000001
 43
0.0000001
 44
0.0000000001
 40
0.0
 40
0.0
 40
0.0
 40
0.0
 40
0.1882963903
 40
0.3699862012
 40
0.5383097251
 40
0.6874071214
 40
0.8118961096
 40
0.8635014642
 40
0.9073779864
 40
0.9431793529
 40
0.9705968186
 40
0.9894859685
 40
1.0
 40
1.0
 40
1.0
 40
1.0
 10
242.1301467628
 20
134.6538396599
 30
0.0
 10
242.0987098451
 20
134.6537589542
 30
0.0
 10
242.0369392932
 20
134.6533164562
 30
0.0
 10
241.947077012
 20
134.6518211417
 30
0.0
 10
241.8637764016
 20
134.6495551189
 30
0.0
 10
241.7900554125
 20
134.6466090107
 30
0.0
 10
241.7358419037
 20
134.6435450021
 30
0.0
 10
241.6992287318
 20
134.6407182948
 30
0.0
 10
241.6773967026
 20
134.63864832
 30
0.0
 10
241.6596707857
 20
134.6365017411
 30
0.0
 10
241.646055234
 20
134.6343760936
 30
0.0
 10
241.6369537308
 20
134.6321830583
 30
0.0
 10
241.6321113081
 20
134.6305192975
 30
0.0
 10
241.6308319954
 20
134.6293173479
 30
0.0
  0
SPLINE
  5
43E
100
AcDbEntity
  8
RACCORDO
100
AcDbSpline
 62
250
  6
CONTINUOUS
 70
0
 71
3
 72
11
 73
7
 74
0
 42
0.0000001
 43
0.0000001
 44
0.0000000001
 40
0.0
 40
0.0
 40
0.0
 40
0.0
 40
0.2518132804
 40
0.5024878192
 40
0.7516926537
 40
1.0
 40
1.0
 40
1.0
 40
1.0
 10
103.9081933665
 20
157.2154407285
 30
0.0
 10
103.8163674544
 20
157.2154439008
 30
0.0
 10
103.6309832721
 20
157.1779791382
 30
0.0
 10
103.3994934503
 20
157.0180927365
 30
0.0
 10
103.2484734874
 20
156.7826200001
 30
0.0
 10
103.2150516389
 20
156.5989298028
 30
0.0
 10
103.2158995453
 20
156.5083863302
 30
0.0
  0
SPLINE
  5
43F
100
AcDbEntity
  8
RACCORDO
100
AcDbSpline
 62
250
  6
CONTINUOUS
 70
0
 71
3
 72
11
 73
7
 74
0
 42
0.0000001
 43
0.0000001
 44
0.0000000001
 40
0.0
 40
0.0
 40
0.0
 40
0.0
 40
0.2483065073
 40
0.4975112282
 40
0.7481857848
 40
1.0
 40
1.0
 40
1.0
 40
1.0
 10
263.3568389416
 20
156.5083863302
 30
0.0
 10
263.3576945449
 20
156.5989294295
 30
0.0
 10
263.3242592746
 20
156.7826192995
 30
0.0
 10
263.1732463291
 20
157.0180906842
 30
0.0
 10
262.9417563668
 20
157.1779862345
 30
0.0
 10
262.7563713783
 20
157.2154343097
 30
0.0
 10
262.6645451203
 20
157.2154407285
 30
0.0
  0
SPLINE
  5
440
100
AcDbEntity
  8
RACCORDO
100
AcDbSpline
 62
250
  6
CONTINUOUS
 70
0
 71
3
 72
11
 73
7
 74
0
 42
0.0000001
 43
0.0000001
 44
0.0000000001
 40
0.0
 40
0.0
 40
0.0
 40
0.0
 40
0.2494342068
 40
0.4990858824
 40
0.7492754921
 40
1.0
 40
1.0
 40
1.0
 40
1.0
 10
102.9163106848
 20
68.7123291998
 30
0.0
 10
102.9155543278
 20
68.5826122877
 30
0.0
 10
102.96503658
 20
68.3199491041
 30
0.0
 10
103.1835207884
 20
67.9854682685
 30
0.0
 10
103.5143837592
 20
67.7599311595
 30
0.0
 10
103.7778032716
 20
67.7070645613
 30
0.0
 10
103.9081933665
 20
67.706952812
 30
0.0
  0
SPLINE
  5
441
100
AcDbEntity
  8
RACCORDO
100
AcDbSpline
 62
250
  6
CONTINUOUS
 70
0
 71
3
 72
11
 73
7
 74
0
 42
0.0000001
 43
0.0000001
 44
0.0000000001
 40
0.0
 40
0.0
 40
0.0
 40
0.0
 40
0.2507235208
 40
0.5009133858
 40
0.7505648805
 40
1.0
 40
1.0
 40
1.0
 40
1.0
 10
103.9081933665
 20
157.4605636354
 30
0.0
 10
103.777803778
 20
157.4604589839
 30
0.0
 10
103.5143845562
 20
157.407582212
 30
0.0
 10
103.1835222644
 20
157.1820501939
 30
0.0
 10
102.9650346701
 20
156.8475679342
 30
0.0
 10
102.9155591576
 20
156.5849046635
 30
0.0
 10
102.9163106848
 20
156.4551872475
 30
0.0
  0
SPLINE
  5
442
100
AcDbEntity
  8
RACCORDO
100
AcDbSpline
 62
250
  6
CONTINUOUS
 70
0
 71
3
 72
11
 73
7
 74
0
 42
0.0000001
 43
0.0000001
 44
0.0000000001
 40
0.0
 40
0.0
 40
0.0
 40
0.0
 40
0.2507235208
 40
0.5009133858
 40
0.7505648805
 40
1.0
 40
1.0
 40
1.0
 40
1.0
 10
262.6645451203
 20
67.706952812
 30
0.0
 10
262.7949347088
 20
67.7070574635
 30
0.0
 10
263.0583539306
 20
67.7599342353
 30
0.0
 10
263.3892162224
 20
67.9854662535
 30
0.0
 10
263.6077038167
 20
68.3199485132
 30
0.0
 10
263.6571793292
 20
68.5826117839
 30
0.0
 10
263.656427802
 20
68.7123291998
 30
0.0
  0
SPLINE
  5
443
100
AcDbEntity
  8
RACCORDO
100
AcDbSpline
 62
250
  6
CONTINUOUS
 70
0
 71
3
 72
11
 73
7
 74
0
 42
0.0000001
 43
0.0000001
 44
0.0000000001
 40
0.0
 40
0.0
 40
0.0
 40
0.0
 40
0.2494342068
 40
0.4990858824
 40
0.7492754921
 40
1.0
 40
1.0
 40
1.0
 40
1.0
 10
263.656427802
 20
156.4551872475
 30
0.0
 10
263.6571841591
 20
156.5849041597
 30
0.0
 10
263.6077019069
 20
156.8475673432
 30
0.0
 10
263.3892176985
 20
157.1820481788
 30
0.0
 10
263.0583547277
 20
157.4075852879
 30
0.0
 10
262.7949352152
 20
157.4604518861
 30
0.0
 10
262.6645451203
 20
157.4605636354
 30
0.0
  0
SPLINE
  5
444
100
AcDbEntity
  8
RACCORDO
100
AcDbSpline
 62
250
  6
CONTINUOUS
 70
0
 71
3
 72
13
 73
9
 74
0
 42
0.0000001
 43
0.0000001
 44
0.0000000001
 40
0.0
 40
0.0
 40
0.0
 40
0.0
 40
0.3594637566
 40
0.6696706049
 40
0.7929532182
 40
0.8896584024
 40
0.9579009014
 40
1.0
 40
1.0
 40
1.0
 40
1.0
 10
103.2158995453
 20
156.508386318
 30
0.0
 10
103.1787905886
 20
156.5080469122
 30
0.0
 10
103.109681269
 20
156.5051912527
 30
0.0
 10
103.0281531494
 20
156.4960395035
 30
0.0
 10
102.9745421015
 20
156.4851187572
 30
0.0
 10
102.9458631204
 20
156.4764662581
 30
0.0
 10
102.9265863857
 20
156.4677913455
 30
0.0
 10
102.9175214465
 20
156.4593614464
 30
0.0
 10
102.9163106848
 20
156.4551872475
 30
0.0
  0
SPLINE
  5
445
100
AcDbEntity
  8
RACCORDO
100
AcDbSpline
 62
250
  6
CONTINUOUS
 70
0
 71
3
 72
16
 73
12
 74
0
 42
0.0000001
 43
0.0000001
 44
0.0000000001
 40
0.0
 40
0.0
 40
0.0
 40
0.0
 40
0.3699259212
 40
0.5382268072
 40
0.6873077625
 40
0.811788968
 40
0.9072712504
 40
0.9430816484
 40
0.9705150828
 40
0.9894318306
 40
1.0
 40
1.0
 40
1.0
 40
1.0
 10
103.3435990254
 20
135.2514631168
 30
0.0
 10
103.3065367433
 20
135.2513653995
 30
0.0
 10
103.2526106501
 20
135.2507445982
 30
0.0
 10
103.1837770568
 20
135.24882155
 30
0.0
 10
103.1395396503
 20
135.2470121825
 30
0.0
 10
103.1026348014
 20
135.2448502775
 30
0.0
 10
103.0770739333
 20
135.2427331149
 30
0.0
 10
103.061311519
 20
135.2407796692
 30
0.0
 10
103.0531411899
 20
135.2394667594
 30
0.0
 10
103.0476778464
 20
135.2381187297
 30
0.0
 10
103.0447720601
 20
135.2370865676
 30
0.0
 10
103.0440101649
 20
135.2363513141
 30
0.0
  0
SPLINE
  5
446
100
AcDbEntity
  8
RACCORDO
100
AcDbSpline
 62
250
  6
CONTINUOUS
 70
0
 71
3
 72
16
 73
12
 74
0
 42
0.0000001
 43
0.0000001
 44
0.0000000001
 40
0.0
 40
0.0
 40
0.0
 40
0.0
 40
0.3699259182
 40
0.5382268031
 40
0.6873077578
 40
0.8117889634
 40
0.9072712467
 40
0.9430816454
 40
0.9705150807
 40
0.9894318295
 40
1.0
 40
1.0
 40
1.0
 40
1.0
 10
103.3435990254
 20
89.9160533308
 30
0.0
 10
103.3065367436
 20
89.916151048
 30
0.0
 10
103.2526106509
 20
89.9167718494
 30
0.0
 10
103.183777058
 20
89.9186948975
 30
0.0
 10
103.1395396517
 20
89.920504265
 30
0.0
 10
103.1026348028
 20
89.92266617
 30
0.0
 10
103.0770739345
 20
89.9247833326
 30
0.0
 10
103.0613115199
 20
89.9267367782
 30
0.0
 10
103.0531411906
 20
89.928049688
 30
0.0
 10
103.0476778467
 20
89.9293977177
 30
0.0
 10
103.0447720603
 20
89.9304298798
 30
0.0
 10
103.0440101649
 20
89.9311651332
 30
0.0
  0
SPLINE
  5
447
100
AcDbEntity
  8
RACCORDO
100
AcDbSpline
 62
250
  6
CONTINUOUS
 70
0
 71
3
 72
13
 73
9
 74
0
 42
0.0000001
 43
0.0000001
 44
0.0000000001
 40
0.0
 40
0.0
 40
0.0
 40
0.0
 40
0.3594655749
 40
0.6696721421
 40
0.7929541827
 40
0.8896587751
 40
0.9579008811
 40
1.0
 40
1.0
 40
1.0
 40
1.0
 10
103.2158995453
 20
68.6591301282
 30
0.0
 10
103.1787912334
 20
68.6594696479
 30
0.0
 10
103.1096833119
 20
68.662325456
 30
0.0
 10
103.0281569507
 20
68.6714772886
 30
0.0
 10
102.9745472953
 20
68.6823980113
 30
0.0
 10
102.9458691709
 20
68.6910504428
 30
0.0
 10
102.9265930071
 20
68.6997252814
 30
0.0
 10
102.917528427
 20
68.7081550828
 30
0.0
 10
102.9163177248
 20
68.7123291997
 30
0.0
  0
SPLINE
  5
448
100
AcDbEntity
  8
RACCORDO
100
AcDbSpline
 62
250
  6
CONTINUOUS
 70
0
 71
3
 72
13
 73
9
 74
0
 42
0.0000001
 43
0.0000001
 44
0.0000000001
 40
0.0
 40
0.0
 40
0.0
 40
0.0
 40
0.3594637566
 40
0.6696706049
 40
0.7929532182
 40
0.8896584024
 40
0.9579009014
 40
1.0
 40
1.0
 40
1.0
 40
1.0
 10
263.3568389416
 20
68.6591301294
 30
0.0
 10
263.3939478982
 20
68.6594695352
 30
0.0
 10
263.4630572178
 20
68.6623251947
 30
0.0
 10
263.5445853374
 20
68.6714769439
 30
0.0
 10
263.5981963854
 20
68.6823976902
 30
0.0
 10
263.6268753665
 20
68.6910501893
 30
0.0
 10
263.6461521011
 20
68.6997251019
 30
0.0
 10
263.6552170403
 20
68.708155001
 30
0.0
 10
263.656427802
 20
68.7123291998
 30
0.0
  0
SPLINE
  5
449
100
AcDbEntity
  8
RACCORDO
100
AcDbSpline
 62
250
  6
CONTINUOUS
 70
0
 71
3
 72
16
 73
12
 74
0
 42
0.0000001
 43
0.0000001
 44
0.0000000001
 40
0.0
 40
0.0
 40
0.0
 40
0.0
 40
0.3699259219
 40
0.5382268082
 40
0.6873077635
 40
0.811788969
 40
0.9072712513
 40
0.9430816491
 40
0.9705150833
 40
0.9894318309
 40
1.0
 40
1.0
 40
1.0
 40
1.0
 10
263.2291394615
 20
89.9160533305
 30
0.0
 10
263.2662017436
 20
89.9161510478
 30
0.0
 10
263.3201278369
 20
89.9167718491
 30
0.0
 10
263.3889614303
 20
89.9186948973
 30
0.0
 10
263.4331988368
 20
89.9205042648
 30
0.0
 10
263.4701036857
 20
89.9226661698
 30
0.0
 10
263.4956645538
 20
89.9247833325
 30
0.0
 10
263.5114269681
 20
89.9267367781
 30
0.0
 10
263.5195972971
 20
89.928049688
 30
0.0
 10
263.5250606405
 20
89.9293977176
 30
0.0
 10
263.5279664268
 20
89.9304298798
 30
0.0
 10
263.5287283219
 20
89.9311651332
 30
0.0
  0
SPLINE
  5
44A
100
AcDbEntity
  8
RACCORDO
100
AcDbSpline
 62
250
  6
CONTINUOUS
 70
0
 71
3
 72
16
 73
12
 74
0
 42
0.0000001
 43
0.0000001
 44
0.0000000001
 40
0.0
 40
0.0
 40
0.0
 40
0.0
 40
0.3699259182
 40
0.5382268031
 40
0.6873077578
 40
0.8117889634
 40
0.9072712467
 40
0.9430816454
 40
0.9705150807
 40
0.9894318295
 40
1.0
 40
1.0
 40
1.0
 40
1.0
 10
263.2291394615
 20
135.2514631166
 30
0.0
 10
263.2662017432
 20
135.2513653993
 30
0.0
 10
263.320127836
 20
135.250744598
 30
0.0
 10
263.3889614288
 20
135.2488215499
 30
0.0
 10
263.4331988351
 20
135.2470121824
 30
0.0
 10
263.470103684
 20
135.2448502774
 30
0.0
 10
263.4956645523
 20
135.2427331148
 30
0.0
 10
263.5114269669
 20
135.2407796692
 30
0.0
 10
263.5195972963
 20
135.2394667593
 30
0.0
 10
263.5250606401
 20
135.2381187297
 30
0.0
 10
263.5279664265
 20
135.2370865675
 30
0.0
 10
263.5287283219
 20
135.2363513141
 30
0.0
  0
SPLINE
  5
44B
100
AcDbEntity
  8
RACCORDO
100
AcDbSpline
 62
250
  6
CONTINUOUS
 70
0
 71
3
 72
13
 73
9
 74
0
 42
0.0000001
 43
0.0000001
 44
0.0000000001
 40
0.0
 40
0.0
 40
0.0
 40
0.0
 40
0.3594655749
 40
0.6696721421
 40
0.7929541827
 40
0.8896587751
 40
0.9579008811
 40
1.0
 40
1.0
 40
1.0
 40
1.0
 10
263.3568389416
 20
156.5083863192
 30
0.0
 10
263.3939472534
 20
156.5080467995
 30
0.0
 10
263.4630551749
 20
156.5051909914
 30
0.0
 10
263.5445815362
 20
156.4960391587
 30
0.0
 10
263.5981911915
 20
156.485118436
 30
0.0
 10
263.6268693159
 20
156.4764660046
 30
0.0
 10
263.6461454798
 20
156.4677911659
 30
0.0
 10
263.6552100599
 20
156.4593613645
 30
0.0
 10
263.656420762
 20
156.4551872476
 30
0.0
  0
SPLINE
  5
44C
100
AcDbEntity
  8
RACCORDO
100
AcDbSpline
 62
250
  6
CONTINUOUS
 70
0
 71
3
 72
11
 73
7
 74
0
 42
0.0000001
 43
0.0000001
 44
0.0000000001
 40
0.0
 40
0.0
 40
0.0
 40
0.0
 40
0.2518132804
 40
0.5024878192
 40
0.7516926537
 40
1.0
 40
1.0
 40
1.0
 40
1.0
 10
262.6645451203
 20
67.9520757189
 30
0.0
 10
262.7563710325
 20
67.9520725466
 30
0.0
 10
262.9417552148
 20
67.9895373092
 30
0.0
 10
263.1732450365
 20
68.1494237108
 30
0.0
 10
263.3242649994
 20
68.3848964472
 30
0.0
 10
263.3576868479
 20
68.5685866446
 30
0.0
 10
263.3568389416
 20
68.6591301172
 30
0.0
  0
SPLINE
  5
44D
100
AcDbEntity
  8
RACCORDO
100
AcDbSpline
 62
250
  6
CONTINUOUS
 70
0
 71
3
 72
11
 73
7
 74
0
 42
0.0000001
 43
0.0000001
 44
0.0000000001
 40
0.0
 40
0.0
 40
0.0
 40
0.0
 40
0.2483065073
 40
0.4975112282
 40
0.7481857848
 40
1.0
 40
1.0
 40
1.0
 40
1.0
 10
103.2158995453
 20
68.6591301172
 30
0.0
 10
103.2150439419
 20
68.5685870179
 30
0.0
 10
103.2484792123
 20
68.3848971478
 30
0.0
 10
103.3994921578
 20
68.1494257631
 30
0.0
 10
103.6309821201
 20
67.9895302129
 30
0.0
 10
103.8163671086
 20
67.9520821377
 30
0.0
 10
103.9081933665
 20
67.9520757189
 30
0.0
  0
SPLINE
  5
44E
100
AcDbEntity
  8
RACCORDO
100
AcDbSpline
 62
250
  6
CONTINUOUS
 70
0
 71
3
 72
11
 73
7
 74
0
 42
0.0000001
 43
0.0000001
 44
0.0000000001
 40
0.0
 40
0.0
 40
0.0
 40
0.0
 40
0.2498971202
 40
0.4998189159
 40
0.749841834
 40
1.0
 40
1.0
 40
1.0
 40
1.0
 10
170.5399312562
 20
90.1709628635
 30
0.0
 10
170.5062759582
 20
90.1067613793
 30
0.0
 10
170.4208368702
 20
89.9869812883
 30
0.0
 10
170.2492610068
 20
89.8490719786
 30
0.0
 10
170.0469241704
 20
89.7622290196
 30
0.0
 10
169.9010408814
 20
89.7426488059
 30
0.0
 10
169.8284772704
 20
89.742773667
 30
0.0
  0
SPLINE
  5
44F
100
AcDbEntity
  8
RACCORDO
100
AcDbSpline
 62
250
  6
CONTINUOUS
 70
0
 71
3
 72
11
 73
7
 74
0
 42
0.0000001
 43
0.0000001
 44
0.0000000001
 40
0.0
 40
0.0
 40
0.0
 40
0.0
 40
0.250156208
 40
0.5001792874
 40
0.7501014489
 40
1.0
 40
1.0
 40
1.0
 40
1.0
 10
169.828456244
 20
135.4247427451
 30
0.0
 10
169.9010210274
 20
135.4248668795
 30
0.0
 10
170.0469078818
 20
135.4052937338
 30
0.0
 10
170.2492506471
 20
135.3184506743
 30
0.0
 10
170.4208334865
 20
135.1805405416
 30
0.0
 10
170.5062740462
 20
135.0607564959
 30
0.0
 10
170.5399312562
 20
134.9965535839
 30
0.0
  0
SPLINE
  5
450
100
AcDbEntity
  8
RACCORDO
100
AcDbSpline
 62
250
  6
CONTINUOUS
 70
0
 71
3
 72
11
 73
7
 74
0
 42
0.0000001
 43
0.0000001
 44
0.0000000001
 40
0.0
 40
0.0
 40
0.0
 40
0.0
 40
0.2498971202
 40
0.4998189159
 40
0.749841834
 40
1.0
 40
1.0
 40
1.0
 40
1.0
 10
125.0328072307
 20
134.9965535839
 30
0.0
 10
125.0664625286
 20
135.0607550681
 30
0.0
 10
125.1519016167
 20
135.180535159
 30
0.0
 10
125.3234774801
 20
135.3184444688
 30
0.0
 10
125.5258143164
 20
135.4052874277
 30
0.0
 10
125.6716976054
 20
135.4248676415
 30
0.0
 10
125.7442612165
 20
135.4247427804
 30
0.0
  0
SPLINE
  5
451
100
AcDbEntity
  8
RACCORDO
100
AcDbSpline
 62
250
  6
CONTINUOUS
 70
0
 71
3
 72
11
 73
7
 74
0
 42
0.0000001
 43
0.0000001
 44
0.0000000001
 40
0.0
 40
0.0
 40
0.0
 40
0.0
 40
0.250156208
 40
0.5001792874
 40
0.7501014489
 40
1.0
 40
1.0
 40
1.0
 40
1.0
 10
125.7442822429
 20
89.7427737023
 30
0.0
 10
125.6717174594
 20
89.7426495679
 30
0.0
 10
125.525830605
 20
89.7622227136
 30
0.0
 10
125.3234878397
 20
89.8490657731
 30
0.0
 10
125.1519050003
 20
89.9869759058
 30
0.0
 10
125.0664644407
 20
90.1067599515
 30
0.0
 10
125.0328072307
 20
90.1709628635
 30
0.0
  0
SPLINE
  5
452
100
AcDbEntity
  8
RACCORDO
100
AcDbSpline
 62
250
  6
CONTINUOUS
 70
0
 71
3
 72
11
 73
7
 74
0
 42
0.0000001
 43
0.0000001
 44
0.0000000001
 40
0.0
 40
0.0
 40
0.0
 40
0.0
 40
0.2498971202
 40
0.4998189159
 40
0.749841834
 40
1.0
 40
1.0
 40
1.0
 40
1.0
 10
241.5399312562
 20
90.1709628635
 30
0.0
 10
241.5062759582
 20
90.1067613793
 30
0.0
 10
241.4208368702
 20
89.9869812883
 30
0.0
 10
241.2492610068
 20
89.8490719786
 30
0.0
 10
241.0469241704
 20
89.7622290196
 30
0.0
 10
240.9010408814
 20
89.7426488059
 30
0.0
 10
240.8284772704
 20
89.742773667
 30
0.0
  0
SPLINE
  5
453
100
AcDbEntity
  8
RACCORDO
100
AcDbSpline
 62
250
  6
CONTINUOUS
 70
0
 71
3
 72
11
 73
7
 74
0
 42
0.0000001
 43
0.0000001
 44
0.0000000001
 40
0.0
 40
0.0
 40
0.0
 40
0.0
 40
0.250156208
 40
0.5001792874
 40
0.7501014489
 40
1.0
 40
1.0
 40
1.0
 40
1.0
 10
196.7442822429
 20
89.7427737023
 30
0.0
 10
196.6717174594
 20
89.7426495679
 30
0.0
 10
196.525830605
 20
89.7622227136
 30
0.0
 10
196.3234878397
 20
89.8490657731
 30
0.0
 10
196.1519050003
 20
89.9869759058
 30
0.0
 10
196.0664644407
 20
90.1067599515
 30
0.0
 10
196.0328072307
 20
90.1709628635
 30
0.0
  0
SPLINE
  5
454
100
AcDbEntity
  8
RACCORDO
100
AcDbSpline
 62
250
  6
CONTINUOUS
 70
0
 71
3
 72
11
 73
7
 74
0
 42
0.0000001
 43
0.0000001
 44
0.0000000001
 40
0.0
 40
0.0
 40
0.0
 40
0.0
 40
0.2498971202
 40
0.4998189159
 40
0.749841834
 40
1.0
 40
1.0
 40
1.0
 40
1.0
 10
196.0328072307
 20
134.9965535839
 30
0.0
 10
196.0664625286
 20
135.0607550681
 30
0.0
 10
196.1519016167
 20
135.180535159
 30
0.0
 10
196.3234774801
 20
135.3184444688
 30
0.0
 10
196.5258143164
 20
135.4052874277
 30
0.0
 10
196.6716976054
 20
135.4248676415
 30
0.0
 10
196.7442612165
 20
135.4247427804
 30
0.0
  0
SPLINE
  5
455
100
AcDbEntity
  8
RACCORDO
100
AcDbSpline
 62
250
  6
CONTINUOUS
 70
0
 71
3
 72
11
 73
7
 74
0
 42
0.0000001
 43
0.0000001
 44
0.0000000001
 40
0.0
 40
0.0
 40
0.0
 40
0.0
 40
0.250156208
 40
0.5001792874
 40
0.7501014489
 40
1.0
 40
1.0
 40
1.0
 40
1.0
 10
240.828456244
 20
135.4247427451
 30
0.0
 10
240.9010210274
 20
135.4248668795
 30
0.0
 10
241.0469078818
 20
135.4052937338
 30
0.0
 10
241.2492506471
 20
135.3184506743
 30
0.0
 10
241.4208334865
 20
135.1805405416
 30
0.0
 10
241.5062740462
 20
135.0607564959
 30
0.0
 10
241.5399312562
 20
134.9965535839
 30
0.0
  0
SPLINE
  5
456
100
AcDbEntity
  8
RACCORDO
100
AcDbSpline
 62
250
  6
CONTINUOUS
 70
0
 71
3
 72
18
 73
14
 74
0
 42
0.0000001
 43
0.0000001
 44
0.0000000001
 40
0.0
 40
0.0
 40
0.0
 40
0.0
 40
0.188295619
 40
0.3699850163
 40
0.5383084509
 40
0.6874060158
 40
0.8118953304
 40
0.8635008703
 40
0.9073775725
 40
0.9431791003
 40
0.9705966957
 40
0.9894859331
 40
1.0
 40
1.0
 40
1.0
 40
1.0
 10
171.1301467628
 20
90.5136769509
 30
0.0
 10
171.0987097884
 20
90.5137576412
 30
0.0
 10
171.03693907
 20
90.5142001107
 30
0.0
 10
170.9470764709
 20
90.5156953861
 30
0.0
 10
170.863775424
 20
90.5179613762
 30
0.0
 10
170.7900539308
 20
90.5209074596
 30
0.0
 10
170.7358399868
 20
90.5239714531
 30
0.0
 10
170.6992264814
 20
90.5267981526
 30
0.0
 10
170.6773942337
 20
90.5288681244
 30
0.0
 10
170.6596681316
 20
90.5310147026
 30
0.0
 10
170.6460524334
 20
90.5331403487
 30
0.0
 10
170.6369508312
 20
90.5353333876
 30
0.0
 10
170.6321083544
 20
90.5369971452
 30
0.0
 10
170.6308290237
 20
90.5381990994
 30
0.0
  0
SPLINE
  5
457
100
AcDbEntity
  8
RACCORDO
100
AcDbSpline
 62
250
  6
CONTINUOUS
 70
0
 71
3
 72
17
 73
13
 74
0
 42
0.0000001
 43
0.0000001
 44
0.0000000001
 40
0.0
 40
0.0
 40
0.0
 40
0.0
 40
0.1853273245
 40
0.3649250643
 40
0.5320649864
 40
0.6808835187
 40
0.8059662092
 40
0.902843603
 40
0.9396145243
 40
0.9681550158
 40
0.9882776336
 40
1.0
 40
1.0
 40
1.0
 40
1.0
 10
170.9826336087
 20
89.9160534903
 30
0.0
 10
170.9546149207
 20
89.9306680033
 30
0.0
 10
170.8995647838
 20
89.959677778
 30
0.0
 10
170.8196663786
 20
90.0026610006
 30
0.0
 10
170.7456361159
 20
90.0434022573
 30
0.0
 10
170.6801560726
 20
90.0803986489
 30
0.0
 10
170.6255911579
 20
90.1123258082
 30
0.0
 10
170.5879605375
 20
90.135394233
 30
0.0
 10
170.5648924593
 20
90.1506218202
 30
0.0
 10
170.5529453965
 20
90.1590216521
 30
0.0
 10
170.5449686772
 20
90.1654367556
 30
0.0
 10
170.5409320533
 20
90.1692354043
 30
0.0
 10
170.5399287135
 20
90.170964183
 30
0.0
  0
SPLINE
  5
458
100
AcDbEntity
  8
RACCORDO
100
AcDbSpline
 62
250
  6
CONTINUOUS
 70
0
 71
3
 72
17
 73
13
 74
0
 42
0.0000001
 43
0.0000001
 44
0.0000000001
 40
0.0
 40
0.0
 40
0.0
 40
0.0
 40
0.1853271497
 40
0.3649248018
 40
0.5320647111
 40
0.6808832871
 40
0.8059660532
 40
0.9028435267
 40
0.9396144814
 40
0.968154998
 40
0.9882776306
 40
1.0
 40
1.0
 40
1.0
 40
1.0
 10
124.5901048782
 20
89.9160535277
 30
0.0
 10
124.6181235843
 20
89.9306680442
 30
0.0
 10
124.6731737688
 20
89.9596778333
 30
0.0
 10
124.7530722586
 20
90.0026610872
 30
0.0
 10
124.8271026295
 20
90.0434023906
 30
0.0
 10
124.8925827918
 20
90.080398838
 30
0.0
 10
124.9471478222
 20
90.1123260549
 30
0.0
 10
124.9847785301
 20
90.1353945254
 30
0.0
 10
125.0078466654
 20
90.1506221441
 30
0.0
 10
125.0197937584
 20
90.1590219931
 30
0.0
 10
125.0277704967
 20
90.1654371089
 30
0.0
 10
125.0318071307
 20
90.1692357638
 30
0.0
 10
125.0328104724
 20
90.1709645455
 30
0.0
  0
SPLINE
  5
459
100
AcDbEntity
  8
ASSI
100
AcDbSpline
 62
250
  6
CONTINUOUS
 70
0
 71
3
 72
11
 73
7
 74
0
 42
0.0000001
 43
0.0000001
 44
0.0000000001
 40
0.0
 40
0.0
 40
0.0
 40
0.0
 40
0.2518132804
 40
0.5024878192
 40
0.7516926537
 40
1.0
 40
1.0
 40
1.0
 40
1.0
 10
262.6645451203
 20
67.9520757189
 30
0.0
 10
262.7563710325
 20
67.9520725466
 30
0.0
 10
262.9417552148
 20
67.9895373092
 30
0.0
 10
263.1732450365
 20
68.1494237108
 30
0.0
 10
263.3242649994
 20
68.3848964472
 30
0.0
 10
263.3576868479
 20
68.5685866446
 30
0.0
 10
263.3568389416
 20
68.6591301172
 30
0.0
  0
SPLINE
  5
45A
100
AcDbEntity
  8
ASSI
100
AcDbSpline
 62
250
  6
CONTINUOUS
 70
0
 71
3
 72
11
 73
7
 74
0
 42
0.0000001
 43
0.0000001
 44
0.0000000001
 40
0.0
 40
0.0
 40
0.0
 40
0.0
 40
0.2483065073
 40
0.4975112282
 40
0.7481857848
 40
1.0
 40
1.0
 40
1.0
 40
1.0
 10
103.2158995453
 20
68.6591301172
 30
0.0
 10
103.2150439419
 20
68.5685870179
 30
0.0
 10
103.2484792123
 20
68.3848971478
 30
0.0
 10
103.3994921578
 20
68.1494257631
 30
0.0
 10
103.6309821201
 20
67.9895302129
 30
0.0
 10
103.8163671086
 20
67.9520821377
 30
0.0
 10
103.9081933665
 20
67.9520757189
 30
0.0
  0
SPLINE
  5
45B
100
AcDbEntity
  8
ASSI
100
AcDbSpline
 62
250
  6
CONTINUOUS
 70
0
 71
3
 72
17
 73
13
 74
0
 42
0.0000001
 43
0.0000001
 44
0.0000000001
 40
0.0
 40
0.0
 40
0.0
 40
0.0
 40
0.1853270728
 40
0.3649246831
 40
0.5320645833
 40
0.6808831764
 40
0.8059659758
 40
0.9028434865
 40
0.9396144574
 40
0.9681549868
 40
0.9882776276
 40
1.0
 40
1.0
 40
1.0
 40
1.0
 10
170.9826336086
 20
135.2514629021
 30
0.0
 10
170.9546148982
 20
135.2368483848
 30
0.0
 10
170.8995647003
 20
135.2078385914
 30
0.0
 10
170.819666184
 20
135.1648553276
 30
0.0
 10
170.7456357757
 20
135.1241140081
 30
0.0
 10
170.6801555693
 20
135.0871175404
 30
0.0
 10
170.625590494
 20
135.0551903021
 30
0.0
 10
170.5879597508
 20
135.0321218145
 30
0.0
 10
170.5648915917
 20
135.0168941838
 30
0.0
 10
170.5529444857
 20
135.0084943284
 30
0.0
 10
170.5449677387
 20
135.002079208
 30
0.0
 10
170.5409310999
 20
134.998280551
 30
0.0
 10
170.5399277568
 20
134.9965517682
 30
0.0
  0
SPLINE
  5
45C
100
AcDbEntity
  8
ASSI
100
AcDbSpline
 62
250
  6
CONTINUOUS
 70
0
 71
3
 72
18
 73
14
 74
0
 42
0.0000001
 43
0.0000001
 44
0.0000000001
 40
0.0
 40
0.0
 40
0.0
 40
0.0
 40
0.1882963903
 40
0.3699862012
 40
0.5383097251
 40
0.6874071214
 40
0.8118961096
 40
0.8635014642
 40
0.9073779864
 40
0.9431793529
 40
0.9705968186
 40
0.9894859685
 40
1.0
 40
1.0
 40
1.0
 40
1.0
 10
171.1301467628
 20
134.6538396599
 30
0.0
 10
171.0987098451
 20
134.6537589542
 30
0.0
 10
171.0369392932
 20
134.6533164562
 30
0.0
 10
170.947077012
 20
134.6518211417
 30
0.0
 10
170.8637764016
 20
134.6495551189
 30
0.0
 10
170.7900554125
 20
134.6466090107
 30
0.0
 10
170.7358419037
 20
134.6435450021
 30
0.0
 10
170.6992287318
 20
134.6407182948
 30
0.0
 10
170.6773967026
 20
134.63864832
 30
0.0
 10
170.6596707857
 20
134.6365017411
 30
0.0
 10
170.646055234
 20
134.6343760936
 30
0.0
 10
170.6369537308
 20
134.6321830583
 30
0.0
 10
170.6321113081
 20
134.6305192975
 30
0.0
 10
170.6308319954
 20
134.6293173479
 30
0.0
  0
SPLINE
  5
45D
100
AcDbEntity
  8
ASSI
100
AcDbSpline
 62
250
  6
CONTINUOUS
 70
0
 71
3
 72
18
 73
14
 74
0
 42
0.0000001
 43
0.0000001
 44
0.0000000001
 40
0.0
 40
0.0
 40
0.0
 40
0.0
 40
0.188295619
 40
0.3699850163
 40
0.5383084509
 40
0.6874060158
 40
0.8118953304
 40
0.8635008703
 40
0.9073775725
 40
0.9431791003
 40
0.9705966957
 40
0.9894859331
 40
1.0
 40
1.0
 40
1.0
 40
1.0
 10
242.1301467628
 20
90.5136769509
 30
0.0
 10
242.0987097884
 20
90.5137576412
 30
0.0
 10
242.03693907
 20
90.5142001107
 30
0.0
 10
241.9470764709
 20
90.5156953861
 30
0.0
 10
241.863775424
 20
90.5179613762
 30
0.0
 10
241.7900539308
 20
90.5209074596
 30
0.0
 10
241.7358399868
 20
90.5239714531
 30
0.0
 10
241.6992264814
 20
90.5267981526
 30
0.0
 10
241.6773942337
 20
90.5288681244
 30
0.0
 10
241.6596681316
 20
90.5310147026
 30
0.0
 10
241.6460524334
 20
90.5331403487
 30
0.0
 10
241.6369508312
 20
90.5353333876
 30
0.0
 10
241.6321083544
 20
90.5369971452
 30
0.0
 10
241.6308290237
 20
90.5381990994
 30
0.0
  0
SPLINE
  5
45E
100
AcDbEntity
  8
ASSI
100
AcDbSpline
 62
250
  6
CONTINUOUS
 70
0
 71
3
 72
17
 73
13
 74
0
 42
0.0000001
 43
0.0000001
 44
0.0000000001
 40
0.0
 40
0.0
 40
0.0
 40
0.0
 40
0.1853273245
 40
0.3649250643
 40
0.5320649864
 40
0.6808835187
 40
0.8059662092
 40
0.902843603
 40
0.9396145243
 40
0.9681550158
 40
0.9882776336
 40
1.0
 40
1.0
 40
1.0
 40
1.0
 10
241.9826336087
 20
89.9160534903
 30
0.0
 10
241.9546149207
 20
89.9306680033
 30
0.0
 10
241.8995647838
 20
89.959677778
 30
0.0
 10
241.8196663786
 20
90.0026610006
 30
0.0
 10
241.7456361159
 20
90.0434022573
 30
0.0
 10
241.6801560726
 20
90.0803986489
 30
0.0
 10
241.6255911579
 20
90.1123258082
 30
0.0
 10
241.5879605375
 20
90.135394233
 30
0.0
 10
241.5648924593
 20
90.1506218202
 30
0.0
 10
241.5529453965
 20
90.1590216521
 30
0.0
 10
241.5449686772
 20
90.1654367556
 30
0.0
 10
241.5409320533
 20
90.1692354043
 30
0.0
 10
241.5399287135
 20
90.170964183
 30
0.0
  0
SPLINE
  5
45F
100
AcDbEntity
  8
ASSI
100
AcDbSpline
 62
250
  6
CONTINUOUS
 70
0
 71
3
 72
17
 73
13
 74
0
 42
0.0000001
 43
0.0000001
 44
0.0000000001
 40
0.0
 40
0.0
 40
0.0
 40
0.0
 40
0.1853271497
 40
0.3649248018
 40
0.5320647111
 40
0.6808832871
 40
0.8059660532
 40
0.9028435267
 40
0.9396144814
 40
0.968154998
 40
0.9882776306
 40
1.0
 40
1.0
 40
1.0
 40
1.0
 10
195.5901048782
 20
89.9160535277
 30
0.0
 10
195.6181235843
 20
89.9306680442
 30
0.0
 10
195.6731737688
 20
89.9596778333
 30
0.0
 10
195.7530722586
 20
90.0026610872
 30
0.0
 10
195.8271026295
 20
90.0434023906
 30
0.0
 10
195.8925827918
 20
90.080398838
 30
0.0
 10
195.9471478222
 20
90.1123260549
 30
0.0
 10
195.9847785301
 20
90.1353945254
 30
0.0
 10
196.0078466654
 20
90.1506221441
 30
0.0
 10
196.0197937584
 20
90.1590219931
 30
0.0
 10
196.0277704967
 20
90.1654371089
 30
0.0
 10
196.0318071307
 20
90.1692357638
 30
0.0
 10
196.0328104724
 20
90.1709645455
 30
0.0
  0
SPLINE
  5
460
100
AcDbEntity
  8
ASSI
100
AcDbSpline
 62
250
  6
CONTINUOUS
 70
0
 71
3
 72
18
 73
14
 74
0
 42
0.0000001
 43
0.0000001
 44
0.0000000001
 40
0.0
 40
0.0
 40
0.0
 40
0.0
 40
0.1882963903
 40
0.3699862012
 40
0.5383097251
 40
0.6874071214
 40
0.8118961096
 40
0.8635014642
 40
0.9073779864
 40
0.9431793529
 40
0.9705968186
 40
0.9894859685
 40
1.0
 40
1.0
 40
1.0
 40
1.0
 10
195.442591724
 20
90.5136767875
 30
0.0
 10
195.4740286418
 20
90.5137574932
 30
0.0
 10
195.5357991936
 20
90.5141999912
 30
0.0
 10
195.6256614748
 20
90.5156953057
 30
0.0
 10
195.7089620852
 20
90.5179613285
 30
0.0
 10
195.7826830744
 20
90.5209074367
 30
0.0
 10
195.8368965832
 20
90.5239714453
 30
0.0
 10
195.873509755
 20
90.5267981526
 30
0.0
 10
195.8953417843
 20
90.5288681274
 30
0.0
 10
195.9130677011
 20
90.5310147063
 30
0.0
 10
195.9266832528
 20
90.5331403537
 30
0.0
 10
195.935784756
 20
90.5353333891
 30
0.0
 10
195.9406271788
 20
90.5369971499
 30
0.0
 10
195.9419064914
 20
90.5381990995
 30
0.0
  0
SPLINE
  5
461
100
AcDbEntity
  8
ASSI
100
AcDbSpline
 62
250
  6
CONTINUOUS
 70
0
 71
3
 72
18
 73
14
 74
0
 42
0.0000001
 43
0.0000001
 44
0.0000000001
 40
0.0
 40
0.0
 40
0.0
 40
0.0
 40
0.1882955833
 40
0.3699849614
 40
0.5383083918
 40
0.6874059645
 40
0.8118952941
 40
0.8635008425
 40
0.9073775531
 40
0.9431790884
 40
0.9705966898
 40
0.9894859314
 40
1.0
 40
1.0
 40
1.0
 40
1.0
 10
195.4425917241
 20
134.6538394889
 30
0.0
 10
195.4740287011
 20
134.6537587993
 30
0.0
 10
195.5357994273
 20
134.6533163312
 30
0.0
 10
195.6256620412
 20
134.6518210576
 30
0.0
 10
195.7089631084
 20
134.6495550689
 30
0.0
 10
195.782684625
 20
134.6466089867
 30
0.0
 10
195.8368985892
 20
134.6435449939
 30
0.0
 10
195.8735121101
 20
134.6407182948
 30
0.0
 10
195.8953443679
 20
134.6386483231
 30
0.0
 10
195.9130704787
 20
134.636501745
 30
0.0
 10
195.9266861836
 20
134.6343760989
 30
0.0
 10
195.9357877905
 20
134.6321830599
 30
0.0
 10
195.9406302698
 20
134.6305193024
 30
0.0
 10
195.9419096014
 20
134.629317348
 30
0.0
  0
SPLINE
  5
462
100
AcDbEntity
  8
ASSI
100
AcDbSpline
 62
250
  6
CONTINUOUS
 70
0
 71
3
 72
17
 73
13
 74
0
 42
0.0000001
 43
0.0000001
 44
0.0000000001
 40
0.0
 40
0.0
 40
0.0
 40
0.0
 40
0.1853273245
 40
0.3649250643
 40
0.5320649864
 40
0.6808835187
 40
0.8059662092
 40
0.902843603
 40
0.9396145243
 40
0.9681550158
 40
0.9882776336
 40
1.0
 40
1.0
 40
1.0
 40
1.0
 10
195.5901048781
 20
135.251462957
 30
0.0
 10
195.6181235661
 20
135.2368484441
 30
0.0
 10
195.6731737031
 20
135.2078386694
 30
0.0
 10
195.7530721082
 20
135.1648554467
 30
0.0
 10
195.827102371
 20
135.1241141901
 30
0.0
 10
195.8925824142
 20
135.0871177985
 30
0.0
 10
195.947147329
 20
135.0551906392
 30
0.0
 10
195.9847779493
 20
135.0321222144
 30
0.0
 10
196.0078460276
 20
135.0168946272
 30
0.0
 10
196.0197930903
 20
135.0084947953
 30
0.0
 10
196.0277698097
 20
135.0020796917
 30
0.0
 10
196.0318064336
 20
134.9982810431
 30
0.0
 10
196.0328097734
 20
134.9965522643
 30
0.0
  0
SPLINE
  5
463
100
AcDbEntity
  8
ASSI
100
AcDbSpline
 62
250
  6
CONTINUOUS
 70
0
 71
3
 72
17
 73
13
 74
0
 42
0.0000001
 43
0.0000001
 44
0.0000000001
 40
0.0
 40
0.0
 40
0.0
 40
0.0
 40
0.1853270728
 40
0.3649246831
 40
0.5320645833
 40
0.6808831764
 40
0.8059659758
 40
0.9028434865
 40
0.9396144574
 40
0.9681549868
 40
0.9882776276
 40
1.0
 40
1.0
 40
1.0
 40
1.0
 10
241.9826336086
 20
135.2514629021
 30
0.0
 10
241.9546148982
 20
135.2368483848
 30
0.0
 10
241.8995647003
 20
135.2078385914
 30
0.0
 10
241.819666184
 20
135.1648553276
 30
0.0
 10
241.7456357757
 20
135.1241140081
 30
0.0
 10
241.6801555693
 20
135.0871175404
 30
0.0
 10
241.625590494
 20
135.0551903021
 30
0.0
 10
241.5879597508
 20
135.0321218145
 30
0.0
 10
241.5648915917
 20
135.0168941838
 30
0.0
 10
241.5529444857
 20
135.0084943284
 30
0.0
 10
241.5449677387
 20
135.002079208
 30
0.0
 10
241.5409310999
 20
134.998280551
 30
0.0
 10
241.5399277568
 20
134.9965517682
 30
0.0
  0
SPLINE
  5
464
100
AcDbEntity
  8
ASSI
100
AcDbSpline
 62
250
  6
CONTINUOUS
 70
0
 71
3
 72
18
 73
14
 74
0
 42
0.0000001
 43
0.0000001
 44
0.0000000001
 40
0.0
 40
0.0
 40
0.0
 40
0.0
 40
0.1882963903
 40
0.3699862012
 40
0.5383097251
 40
0.6874071214
 40
0.8118961096
 40
0.8635014642
 40
0.9073779864
 40
0.9431793529
 40
0.9705968186
 40
0.9894859685
 40
1.0
 40
1.0
 40
1.0
 40
1.0
 10
242.1301467628
 20
134.6538396599
 30
0.0
 10
242.0987098451
 20
134.6537589542
 30
0.0
 10
242.0369392932
 20
134.6533164562
 30
0.0
 10
241.947077012
 20
134.6518211417
 30
0.0
 10
241.8637764016
 20
134.6495551189
 30
0.0
 10
241.7900554125
 20
134.6466090107
 30
0.0
 10
241.7358419037
 20
134.6435450021
 30
0.0
 10
241.6992287318
 20
134.6407182948
 30
0.0
 10
241.6773967026
 20
134.63864832
 30
0.0
 10
241.6596707857
 20
134.6365017411
 30
0.0
 10
241.646055234
 20
134.6343760936
 30
0.0
 10
241.6369537308
 20
134.6321830583
 30
0.0
 10
241.6321113081
 20
134.6305192975
 30
0.0
 10
241.6308319954
 20
134.6293173479
 30
0.0
  0
SPLINE
  5
465
100
AcDbEntity
  8
ASSI
100
AcDbSpline
 62
250
  6
CONTINUOUS
 70
0
 71
3
 72
18
 73
14
 74
0
 42
0.0000001
 43
0.0000001
 44
0.0000000001
 40
0.0
 40
0.0
 40
0.0
 40
0.0
 40
0.1882963903
 40
0.3699862012
 40
0.5383097251
 40
0.6874071214
 40
0.8118961096
 40
0.8635014642
 40
0.9073779864
 40
0.9431793529
 40
0.9705968186
 40
0.9894859685
 40
1.0
 40
1.0
 40
1.0
 40
1.0
 10
124.442591724
 20
90.5136767875
 30
0.0
 10
124.4740286418
 20
90.5137574932
 30
0.0
 10
124.5357991936
 20
90.5141999912
 30
0.0
 10
124.6256614748
 20
90.5156953057
 30
0.0
 10
124.7089620852
 20
90.5179613285
 30
0.0
 10
124.7826830744
 20
90.5209074367
 30
0.0
 10
124.8368965832
 20
90.5239714453
 30
0.0
 10
124.873509755
 20
90.5267981526
 30
0.0
 10
124.8953417843
 20
90.5288681274
 30
0.0
 10
124.9130677011
 20
90.5310147063
 30
0.0
 10
124.9266832528
 20
90.5331403537
 30
0.0
 10
124.935784756
 20
90.5353333891
 30
0.0
 10
124.9406271788
 20
90.5369971499
 30
0.0
 10
124.9419064914
 20
90.5381990995
 30
0.0
  0
SPLINE
  5
466
100
AcDbEntity
  8
ASSI
100
AcDbSpline
 62
250
  6
CONTINUOUS
 70
0
 71
3
 72
18
 73
14
 74
0
 42
0.0000001
 43
0.0000001
 44
0.0000000001
 40
0.0
 40
0.0
 40
0.0
 40
0.0
 40
0.1882955833
 40
0.3699849614
 40
0.5383083918
 40
0.6874059645
 40
0.8118952941
 40
0.8635008425
 40
0.9073775531
 40
0.9431790884
 40
0.9705966898
 40
0.9894859314
 40
1.0
 40
1.0
 40
1.0
 40
1.0
 10
124.4425917241
 20
134.6538394889
 30
0.0
 10
124.4740287011
 20
134.6537587993
 30
0.0
 10
124.5357994273
 20
134.6533163312
 30
0.0
 10
124.6256620412
 20
134.6518210576
 30
0.0
 10
124.7089631084
 20
134.6495550689
 30
0.0
 10
124.782684625
 20
134.6466089867
 30
0.0
 10
124.8368985892
 20
134.6435449939
 30
0.0
 10
124.8735121101
 20
134.6407182948
 30
0.0
 10
124.8953443679
 20
134.6386483231
 30
0.0
 10
124.9130704787
 20
134.636501745
 30
0.0
 10
124.9266861836
 20
134.6343760989
 30
0.0
 10
124.9357877905
 20
134.6321830599
 30
0.0
 10
124.9406302698
 20
134.6305193024
 30
0.0
 10
124.9419096014
 20
134.629317348
 30
0.0
  0
SPLINE
  5
467
100
AcDbEntity
  8
ASSI
100
AcDbSpline
 62
250
  6
CONTINUOUS
 70
0
 71
3
 72
17
 73
13
 74
0
 42
0.0000001
 43
0.0000001
 44
0.0000000001
 40
0.0
 40
0.0
 40
0.0
 40
0.0
 40
0.1853273245
 40
0.3649250643
 40
0.5320649864
 40
0.6808835187
 40
0.8059662092
 40
0.902843603
 40
0.9396145243
 40
0.9681550158
 40
0.9882776336
 40
1.0
 40
1.0
 40
1.0
 40
1.0
 10
124.5901048781
 20
135.251462957
 30
0.0
 10
124.6181235661
 20
135.2368484441
 30
0.0
 10
124.6731737031
 20
135.2078386694
 30
0.0
 10
124.7530721082
 20
135.1648554467
 30
0.0
 10
124.827102371
 20
135.1241141901
 30
0.0
 10
124.8925824142
 20
135.0871177985
 30
0.0
 10
124.947147329
 20
135.0551906392
 30
0.0
 10
124.9847779493
 20
135.0321222144
 30
0.0
 10
125.0078460276
 20
135.0168946272
 30
0.0
 10
125.0197930903
 20
135.0084947953
 30
0.0
 10
125.0277698097
 20
135.0020796917
 30
0.0
 10
125.0318064336
 20
134.9982810431
 30
0.0
 10
125.0328097734
 20
134.9965522643
 30
0.0
  0
SPLINE
  5
468
100
AcDbEntity
  8
ASSI
100
AcDbSpline
 62
250
  6
CONTINUOUS
 70
0
 71
3
 72
11
 73
7
 74
0
 42
0.0000001
 43
0.0000001
 44
0.0000000001
 40
0.0
 40
0.0
 40
0.0
 40
0.0
 40
0.2518132804
 40
0.5024878192
 40
0.7516926537
 40
1.0
 40
1.0
 40
1.0
 40
1.0
 10
103.9081933665
 20
157.2154407285
 30
0.0
 10
103.8163674544
 20
157.2154439008
 30
0.0
 10
103.6309832721
 20
157.1779791382
 30
0.0
 10
103.3994934503
 20
157.0180927365
 30
0.0
 10
103.2484734874
 20
156.7826200001
 30
0.0
 10
103.2150516389
 20
156.5989298028
 30
0.0
 10
103.2158995453
 20
156.5083863302
 30
0.0
  0
SPLINE
  5
469
100
AcDbEntity
  8
ASSI
100
AcDbSpline
 62
250
  6
CONTINUOUS
 70
0
 71
3
 72
11
 73
7
 74
0
 42
0.0000001
 43
0.0000001
 44
0.0000000001
 40
0.0
 40
0.0
 40
0.0
 40
0.0
 40
0.2483065073
 40
0.4975112282
 40
0.7481857848
 40
1.0
 40
1.0
 40
1.0
 40
1.0
 10
263.3568389416
 20
156.5083863302
 30
0.0
 10
263.3576945449
 20
156.5989294295
 30
0.0
 10
263.3242592746
 20
156.7826192995
 30
0.0
 10
263.1732463291
 20
157.0180906842
 30
0.0
 10
262.9417563668
 20
157.1779862345
 30
0.0
 10
262.7563713783
 20
157.2154343097
 30
0.0
 10
262.6645451203
 20
157.2154407285
 30
0.0
  0
SPLINE
  5
46A
100
AcDbEntity
  8
ASSI
100
AcDbSpline
 62
250
  6
CONTINUOUS
 70
0
 71
3
 72
11
 73
7
 74
0
 42
0.0000001
 43
0.0000001
 44
0.0000000001
 40
0.0
 40
0.0
 40
0.0
 40
0.0
 40
0.2494342068
 40
0.4990858824
 40
0.7492754921
 40
1.0
 40
1.0
 40
1.0
 40
1.0
 10
102.9163106848
 20
68.7123291998
 30
0.0
 10
102.9155543278
 20
68.5826122877
 30
0.0
 10
102.96503658
 20
68.3199491041
 30
0.0
 10
103.1835207884
 20
67.9854682685
 30
0.0
 10
103.5143837592
 20
67.7599311595
 30
0.0
 10
103.7778032716
 20
67.7070645613
 30
0.0
 10
103.9081933665
 20
67.706952812
 30
0.0
  0
SPLINE
  5
46B
100
AcDbEntity
  8
ASSI
100
AcDbSpline
 62
250
  6
CONTINUOUS
 70
0
 71
3
 72
11
 73
7
 74
0
 42
0.0000001
 43
0.0000001
 44
0.0000000001
 40
0.0
 40
0.0
 40
0.0
 40
0.0
 40
0.2507235208
 40
0.5009133858
 40
0.7505648805
 40
1.0
 40
1.0
 40
1.0
 40
1.0
 10
103.9081933665
 20
157.4605636354
 30
0.0
 10
103.777803778
 20
157.4604589839
 30
0.0
 10
103.5143845562
 20
157.407582212
 30
0.0
 10
103.1835222644
 20
157.1820501939
 30
0.0
 10
102.9650346701
 20
156.8475679342
 30
0.0
 10
102.9155591576
 20
156.5849046635
 30
0.0
 10
102.9163106848
 20
156.4551872475
 30
0.0
  0
SPLINE
  5
46C
100
AcDbEntity
  8
ASSI
100
AcDbSpline
 62
250
  6
CONTINUOUS
 70
0
 71
3
 72
11
 73
7
 74
0
 42
0.0000001
 43
0.0000001
 44
0.0000000001
 40
0.0
 40
0.0
 40
0.0
 40
0.0
 40
0.2507235208
 40
0.5009133858
 40
0.7505648805
 40
1.0
 40
1.0
 40
1.0
 40
1.0
 10
262.6645451203
 20
67.706952812
 30
0.0
 10
262.7949347088
 20
67.7070574635
 30
0.0
 10
263.0583539306
 20
67.7599342353
 30
0.0
 10
263.3892162224
 20
67.9854662535
 30
0.0
 10
263.6077038167
 20
68.3199485132
 30
0.0
 10
263.6571793292
 20
68.5826117839
 30
0.0
 10
263.656427802
 20
68.7123291998
 30
0.0
  0
SPLINE
  5
46D
100
AcDbEntity
  8
ASSI
100
AcDbSpline
 62
250
  6
CONTINUOUS
 70
0
 71
3
 72
11
 73
7
 74
0
 42
0.0000001
 43
0.0000001
 44
0.0000000001
 40
0.0
 40
0.0
 40
0.0
 40
0.0
 40
0.2494342068
 40
0.4990858824
 40
0.7492754921
 40
1.0
 40
1.0
 40
1.0
 40
1.0
 10
263.656427802
 20
156.4551872475
 30
0.0
 10
263.6571841591
 20
156.5849041597
 30
0.0
 10
263.6077019069
 20
156.8475673432
 30
0.0
 10
263.3892176985
 20
157.1820481788
 30
0.0
 10
263.0583547277
 20
157.4075852879
 30
0.0
 10
262.7949352152
 20
157.4604518861
 30
0.0
 10
262.6645451203
 20
157.4605636354
 30
0.0
  0
SPLINE
  5
46E
100
AcDbEntity
  8
ASSI
100
AcDbSpline
 62
250
  6
CONTINUOUS
 70
0
 71
3
 72
13
 73
9
 74
0
 42
0.0000001
 43
0.0000001
 44
0.0000000001
 40
0.0
 40
0.0
 40
0.0
 40
0.0
 40
0.3594637566
 40
0.6696706049
 40
0.7929532182
 40
0.8896584024
 40
0.9579009014
 40
1.0
 40
1.0
 40
1.0
 40
1.0
 10
103.2158995453
 20
156.508386318
 30
0.0
 10
103.1787905886
 20
156.5080469122
 30
0.0
 10
103.109681269
 20
156.5051912527
 30
0.0
 10
103.0281531494
 20
156.4960395035
 30
0.0
 10
102.9745421015
 20
156.4851187572
 30
0.0
 10
102.9458631204
 20
156.4764662581
 30
0.0
 10
102.9265863857
 20
156.4677913455
 30
0.0
 10
102.9175214465
 20
156.4593614464
 30
0.0
 10
102.9163106848
 20
156.4551872475
 30
0.0
  0
SPLINE
  5
46F
100
AcDbEntity
  8
ASSI
100
AcDbSpline
 62
250
  6
CONTINUOUS
 70
0
 71
3
 72
16
 73
12
 74
0
 42
0.0000001
 43
0.0000001
 44
0.0000000001
 40
0.0
 40
0.0
 40
0.0
 40
0.0
 40
0.3699259212
 40
0.5382268072
 40
0.6873077625
 40
0.811788968
 40
0.9072712504
 40
0.9430816484
 40
0.9705150828
 40
0.9894318306
 40
1.0
 40
1.0
 40
1.0
 40
1.0
 10
103.3435990254
 20
135.2514631168
 30
0.0
 10
103.3065367433
 20
135.2513653995
 30
0.0
 10
103.2526106501
 20
135.2507445982
 30
0.0
 10
103.1837770568
 20
135.24882155
 30
0.0
 10
103.1395396503
 20
135.2470121825
 30
0.0
 10
103.1026348014
 20
135.2448502775
 30
0.0
 10
103.0770739333
 20
135.2427331149
 30
0.0
 10
103.061311519
 20
135.2407796692
 30
0.0
 10
103.0531411899
 20
135.2394667594
 30
0.0
 10
103.0476778464
 20
135.2381187297
 30
0.0
 10
103.0447720601
 20
135.2370865676
 30
0.0
 10
103.0440101649
 20
135.2363513141
 30
0.0
  0
SPLINE
  5
470
100
AcDbEntity
  8
ASSI
100
AcDbSpline
 62
250
  6
CONTINUOUS
 70
0
 71
3
 72
16
 73
12
 74
0
 42
0.0000001
 43
0.0000001
 44
0.0000000001
 40
0.0
 40
0.0
 40
0.0
 40
0.0
 40
0.3699259182
 40
0.5382268031
 40
0.6873077578
 40
0.8117889634
 40
0.9072712467
 40
0.9430816454
 40
0.9705150807
 40
0.9894318295
 40
1.0
 40
1.0
 40
1.0
 40
1.0
 10
103.3435990254
 20
89.9160533308
 30
0.0
 10
103.3065367436
 20
89.916151048
 30
0.0
 10
103.2526106509
 20
89.9167718494
 30
0.0
 10
103.183777058
 20
89.9186948975
 30
0.0
 10
103.1395396517
 20
89.920504265
 30
0.0
 10
103.1026348028
 20
89.92266617
 30
0.0
 10
103.0770739345
 20
89.9247833326
 30
0.0
 10
103.0613115199
 20
89.9267367782
 30
0.0
 10
103.0531411906
 20
89.928049688
 30
0.0
 10
103.0476778467
 20
89.9293977177
 30
0.0
 10
103.0447720603
 20
89.9304298798
 30
0.0
 10
103.0440101649
 20
89.9311651332
 30
0.0
  0
SPLINE
  5
471
100
AcDbEntity
  8
ASSI
100
AcDbSpline
 62
250
  6
CONTINUOUS
 70
0
 71
3
 72
13
 73
9
 74
0
 42
0.0000001
 43
0.0000001
 44
0.0000000001
 40
0.0
 40
0.0
 40
0.0
 40
0.0
 40
0.3594655749
 40
0.6696721421
 40
0.7929541827
 40
0.8896587751
 40
0.9579008811
 40
1.0
 40
1.0
 40
1.0
 40
1.0
 10
103.2158995453
 20
68.6591301282
 30
0.0
 10
103.1787912334
 20
68.6594696479
 30
0.0
 10
103.1096833119
 20
68.662325456
 30
0.0
 10
103.0281569507
 20
68.6714772886
 30
0.0
 10
102.9745472953
 20
68.6823980113
 30
0.0
 10
102.9458691709
 20
68.6910504428
 30
0.0
 10
102.9265930071
 20
68.6997252814
 30
0.0
 10
102.917528427
 20
68.7081550828
 30
0.0
 10
102.9163177248
 20
68.7123291997
 30
0.0
  0
SPLINE
  5
472
100
AcDbEntity
  8
ASSI
100
AcDbSpline
 62
250
  6
CONTINUOUS
 70
0
 71
3
 72
13
 73
9
 74
0
 42
0.0000001
 43
0.0000001
 44
0.0000000001
 40
0.0
 40
0.0
 40
0.0
 40
0.0
 40
0.3594637566
 40
0.6696706049
 40
0.7929532182
 40
0.8896584024
 40
0.9579009014
 40
1.0
 40
1.0
 40
1.0
 40
1.0
 10
263.3568389416
 20
68.6591301294
 30
0.0
 10
263.3939478982
 20
68.6594695352
 30
0.0
 10
263.4630572178
 20
68.6623251947
 30
0.0
 10
263.5445853374
 20
68.6714769439
 30
0.0
 10
263.5981963854
 20
68.6823976902
 30
0.0
 10
263.6268753665
 20
68.6910501893
 30
0.0
 10
263.6461521011
 20
68.6997251019
 30
0.0
 10
263.6552170403
 20
68.708155001
 30
0.0
 10
263.656427802
 20
68.7123291998
 30
0.0
  0
SPLINE
  5
473
100
AcDbEntity
  8
ASSI
100
AcDbSpline
 62
250
  6
CONTINUOUS
 70
0
 71
3
 72
16
 73
12
 74
0
 42
0.0000001
 43
0.0000001
 44
0.0000000001
 40
0.0
 40
0.0
 40
0.0
 40
0.0
 40
0.3699259219
 40
0.5382268082
 40
0.6873077635
 40
0.811788969
 40
0.9072712513
 40
0.9430816491
 40
0.9705150833
 40
0.9894318309
 40
1.0
 40
1.0
 40
1.0
 40
1.0
 10
263.2291394615
 20
89.9160533305
 30
0.0
 10
263.2662017436
 20
89.9161510478
 30
0.0
 10
263.3201278369
 20
89.9167718491
 30
0.0
 10
263.3889614303
 20
89.9186948973
 30
0.0
 10
263.4331988368
 20
89.9205042648
 30
0.0
 10
263.4701036857
 20
89.9226661698
 30
0.0
 10
263.4956645538
 20
89.9247833325
 30
0.0
 10
263.5114269681
 20
89.9267367781
 30
0.0
 10
263.5195972971
 20
89.928049688
 30
0.0
 10
263.5250606405
 20
89.9293977176
 30
0.0
 10
263.5279664268
 20
89.9304298798
 30
0.0
 10
263.5287283219
 20
89.9311651332
 30
0.0
  0
SPLINE
  5
474
100
AcDbEntity
  8
ASSI
100
AcDbSpline
 62
250
  6
CONTINUOUS
 70
0
 71
3
 72
16
 73
12
 74
0
 42
0.0000001
 43
0.0000001
 44
0.0000000001
 40
0.0
 40
0.0
 40
0.0
 40
0.0
 40
0.3699259182
 40
0.5382268031
 40
0.6873077578
 40
0.8117889634
 40
0.9072712467
 40
0.9430816454
 40
0.9705150807
 40
0.9894318295
 40
1.0
 40
1.0
 40
1.0
 40
1.0
 10
263.2291394615
 20
135.2514631166
 30
0.0
 10
263.2662017432
 20
135.2513653993
 30
0.0
 10
263.320127836
 20
135.250744598
 30
0.0
 10
263.3889614288
 20
135.2488215499
 30
0.0
 10
263.4331988351
 20
135.2470121824
 30
0.0
 10
263.470103684
 20
135.2448502774
 30
0.0
 10
263.4956645523
 20
135.2427331148
 30
0.0
 10
263.5114269669
 20
135.2407796692
 30
0.0
 10
263.5195972963
 20
135.2394667593
 30
0.0
 10
263.5250606401
 20
135.2381187297
 30
0.0
 10
263.5279664265
 20
135.2370865675
 30
0.0
 10
263.5287283219
 20
135.2363513141
 30
0.0
  0
SPLINE
  5
475
100
AcDbEntity
  8
ASSI
100
AcDbSpline
 62
250
  6
CONTINUOUS
 70
0
 71
3
 72
13
 73
9
 74
0
 42
0.0000001
 43
0.0000001
 44
0.0000000001
 40
0.0
 40
0.0
 40
0.0
 40
0.0
 40
0.3594655749
 40
0.6696721421
 40
0.7929541827
 40
0.8896587751
 40
0.9579008811
 40
1.0
 40
1.0
 40
1.0
 40
1.0
 10
263.3568389416
 20
156.5083863192
 30
0.0
 10
263.3939472534
 20
156.5080467995
 30
0.0
 10
263.4630551749
 20
156.5051909914
 30
0.0
 10
263.5445815362
 20
156.4960391587
 30
0.0
 10
263.5981911915
 20
156.485118436
 30
0.0
 10
263.6268693159
 20
156.4764660046
 30
0.0
 10
263.6461454798
 20
156.4677911659
 30
0.0
 10
263.6552100599
 20
156.4593613645
 30
0.0
 10
263.656420762
 20
156.4551872476
 30
0.0
  0
SPLINE
  5
476
100
AcDbEntity
  8
ASSI
100
AcDbSpline
 62
250
  6
CONTINUOUS
 70
0
 71
3
 72
11
 73
7
 74
0
 42
0.0000001
 43
0.0000001
 44
0.0000000001
 40
0.0
 40
0.0
 40
0.0
 40
0.0
 40
0.2498971202
 40
0.4998189159
 40
0.749841834
 40
1.0
 40
1.0
 40
1.0
 40
1.0
 10
170.5399312562
 20
90.1709628635
 30
0.0
 10
170.5062759582
 20
90.1067613793
 30
0.0
 10
170.4208368702
 20
89.9869812883
 30
0.0
 10
170.2492610068
 20
89.8490719786
 30
0.0
 10
170.0469241704
 20
89.7622290196
 30
0.0
 10
169.9010408814
 20
89.7426488059
 30
0.0
 10
169.8284772704
 20
89.742773667
 30
0.0
  0
SPLINE
  5
477
100
AcDbEntity
  8
ASSI
100
AcDbSpline
 62
250
  6
CONTINUOUS
 70
0
 71
3
 72
11
 73
7
 74
0
 42
0.0000001
 43
0.0000001
 44
0.0000000001
 40
0.0
 40
0.0
 40
0.0
 40
0.0
 40
0.250156208
 40
0.5001792874
 40
0.7501014489
 40
1.0
 40
1.0
 40
1.0
 40
1.0
 10
169.828456244
 20
135.4247427451
 30
0.0
 10
169.9010210274
 20
135.4248668795
 30
0.0
 10
170.0469078818
 20
135.4052937338
 30
0.0
 10
170.2492506471
 20
135.3184506743
 30
0.0
 10
170.4208334865
 20
135.1805405416
 30
0.0
 10
170.5062740462
 20
135.0607564959
 30
0.0
 10
170.5399312562
 20
134.9965535839
 30
0.0
  0
SPLINE
  5
478
100
AcDbEntity
  8
ASSI
100
AcDbSpline
 62
250
  6
CONTINUOUS
 70
0
 71
3
 72
11
 73
7
 74
0
 42
0.0000001
 43
0.0000001
 44
0.0000000001
 40
0.0
 40
0.0
 40
0.0
 40
0.0
 40
0.2498971202
 40
0.4998189159
 40
0.749841834
 40
1.0
 40
1.0
 40
1.0
 40
1.0
 10
125.0328072307
 20
134.9965535839
 30
0.0
 10
125.0664625286
 20
135.0607550681
 30
0.0
 10
125.1519016167
 20
135.180535159
 30
0.0
 10
125.3234774801
 20
135.3184444688
 30
0.0
 10
125.5258143164
 20
135.4052874277
 30
0.0
 10
125.6716976054
 20
135.4248676415
 30
0.0
 10
125.7442612165
 20
135.4247427804
 30
0.0
  0
SPLINE
  5
479
100
AcDbEntity
  8
ASSI
100
AcDbSpline
 62
250
  6
CONTINUOUS
 70
0
 71
3
 72
11
 73
7
 74
0
 42
0.0000001
 43
0.0000001
 44
0.0000000001
 40
0.0
 40
0.0
 40
0.0
 40
0.0
 40
0.250156208
 40
0.5001792874
 40
0.7501014489
 40
1.0
 40
1.0
 40
1.0
 40
1.0
 10
125.7442822429
 20
89.7427737023
 30
0.0
 10
125.6717174594
 20
89.7426495679
 30
0.0
 10
125.525830605
 20
89.7622227136
 30
0.0
 10
125.3234878397
 20
89.8490657731
 30
0.0
 10
125.1519050003
 20
89.9869759058
 30
0.0
 10
125.0664644407
 20
90.1067599515
 30
0.0
 10
125.0328072307
 20
90.1709628635
 30
0.0
  0
SPLINE
  5
47A
100
AcDbEntity
  8
ASSI
100
AcDbSpline
 62
250
  6
CONTINUOUS
 70
0
 71
3
 72
11
 73
7
 74
0
 42
0.0000001
 43
0.0000001
 44
0.0000000001
 40
0.0
 40
0.0
 40
0.0
 40
0.0
 40
0.2498971202
 40
0.4998189159
 40
0.749841834
 40
1.0
 40
1.0
 40
1.0
 40
1.0
 10
241.5399312562
 20
90.1709628635
 30
0.0
 10
241.5062759582
 20
90.1067613793
 30
0.0
 10
241.4208368702
 20
89.9869812883
 30
0.0
 10
241.2492610068
 20
89.8490719786
 30
0.0
 10
241.0469241704
 20
89.7622290196
 30
0.0
 10
240.9010408814
 20
89.7426488059
 30
0.0
 10
240.8284772704
 20
89.742773667
 30
0.0
  0
SPLINE
  5
47B
100
AcDbEntity
  8
ASSI
100
AcDbSpline
 62
250
  6
CONTINUOUS
 70
0
 71
3
 72
11
 73
7
 74
0
 42
0.0000001
 43
0.0000001
 44
0.0000000001
 40
0.0
 40
0.0
 40
0.0
 40
0.0
 40
0.250156208
 40
0.5001792874
 40
0.7501014489
 40
1.0
 40
1.0
 40
1.0
 40
1.0
 10
196.7442822429
 20
89.7427737023
 30
0.0
 10
196.6717174594
 20
89.7426495679
 30
0.0
 10
196.525830605
 20
89.7622227136
 30
0.0
 10
196.3234878397
 20
89.8490657731
 30
0.0
 10
196.1519050003
 20
89.9869759058
 30
0.0
 10
196.0664644407
 20
90.1067599515
 30
0.0
 10
196.0328072307
 20
90.1709628635
 30
0.0
  0
SPLINE
  5
47C
100
AcDbEntity
  8
ASSI
100
AcDbSpline
 62
250
  6
CONTINUOUS
 70
0
 71
3
 72
11
 73
7
 74
0
 42
0.0000001
 43
0.0000001
 44
0.0000000001
 40
0.0
 40
0.0
 40
0.0
 40
0.0
 40
0.2498971202
 40
0.4998189159
 40
0.749841834
 40
1.0
 40
1.0
 40
1.0
 40
1.0
 10
196.0328072307
 20
134.9965535839
 30
0.0
 10
196.0664625286
 20
135.0607550681
 30
0.0
 10
196.1519016167
 20
135.180535159
 30
0.0
 10
196.3234774801
 20
135.3184444688
 30
0.0
 10
196.5258143164
 20
135.4052874277
 30
0.0
 10
196.6716976054
 20
135.4248676415
 30
0.0
 10
196.7442612165
 20
135.4247427804
 30
0.0
  0
SPLINE
  5
47D
100
AcDbEntity
  8
ASSI
100
AcDbSpline
 62
250
  6
CONTINUOUS
 70
0
 71
3
 72
11
 73
7
 74
0
 42
0.0000001
 43
0.0000001
 44
0.0000000001
 40
0.0
 40
0.0
 40
0.0
 40
0.0
 40
0.250156208
 40
0.5001792874
 40
0.7501014489
 40
1.0
 40
1.0
 40
1.0
 40
1.0
 10
240.828456244
 20
135.4247427451
 30
0.0
 10
240.9010210274
 20
135.4248668795
 30
0.0
 10
241.0469078818
 20
135.4052937338
 30
0.0
 10
241.2492506471
 20
135.3184506743
 30
0.0
 10
241.4208334865
 20
135.1805405416
 30
0.0
 10
241.5062740462
 20
135.0607564959
 30
0.0
 10
241.5399312562
 20
134.9965535839
 30
0.0
  0
SPLINE
  5
47E
100
AcDbEntity
  8
ASSI
100
AcDbSpline
 62
250
  6
CONTINUOUS
 70
0
 71
3
 72
18
 73
14
 74
0
 42
0.0000001
 43
0.0000001
 44
0.0000000001
 40
0.0
 40
0.0
 40
0.0
 40
0.0
 40
0.188295619
 40
0.3699850163
 40
0.5383084509
 40
0.6874060158
 40
0.8118953304
 40
0.8635008703
 40
0.9073775725
 40
0.9431791003
 40
0.9705966957
 40
0.9894859331
 40
1.0
 40
1.0
 40
1.0
 40
1.0
 10
171.1301467628
 20
90.5136769509
 30
0.0
 10
171.0987097884
 20
90.5137576412
 30
0.0
 10
171.03693907
 20
90.5142001107
 30
0.0
 10
170.9470764709
 20
90.5156953861
 30
0.0
 10
170.863775424
 20
90.5179613762
 30
0.0
 10
170.7900539308
 20
90.5209074596
 30
0.0
 10
170.7358399868
 20
90.5239714531
 30
0.0
 10
170.6992264814
 20
90.5267981526
 30
0.0
 10
170.6773942337
 20
90.5288681244
 30
0.0
 10
170.6596681316
 20
90.5310147026
 30
0.0
 10
170.6460524334
 20
90.5331403487
 30
0.0
 10
170.6369508312
 20
90.5353333876
 30
0.0
 10
170.6321083544
 20
90.5369971452
 30
0.0
 10
170.6308290237
 20
90.5381990994
 30
0.0
  0
SPLINE
  5
47F
100
AcDbEntity
  8
ASSI
100
AcDbSpline
 62
250
  6
CONTINUOUS
 70
0
 71
3
 72
17
 73
13
 74
0
 42
0.0000001
 43
0.0000001
 44
0.0000000001
 40
0.0
 40
0.0
 40
0.0
 40
0.0
 40
0.1853273245
 40
0.3649250643
 40
0.5320649864
 40
0.6808835187
 40
0.8059662092
 40
0.902843603
 40
0.9396145243
 40
0.9681550158
 40
0.9882776336
 40
1.0
 40
1.0
 40
1.0
 40
1.0
 10
170.9826336087
 20
89.9160534903
 30
0.0
 10
170.9546149207
 20
89.9306680033
 30
0.0
 10
170.8995647838
 20
89.959677778
 30
0.0
 10
170.8196663786
 20
90.0026610006
 30
0.0
 10
170.7456361159
 20
90.0434022573
 30
0.0
 10
170.6801560726
 20
90.0803986489
 30
0.0
 10
170.6255911579
 20
90.1123258082
 30
0.0
 10
170.5879605375
 20
90.135394233
 30
0.0
 10
170.5648924593
 20
90.1506218202
 30
0.0
 10
170.5529453965
 20
90.1590216521
 30
0.0
 10
170.5449686772
 20
90.1654367556
 30
0.0
 10
170.5409320533
 20
90.1692354043
 30
0.0
 10
170.5399287135
 20
90.170964183
 30
0.0
  0
SPLINE
  5
480
100
AcDbEntity
  8
ASSI
100
AcDbSpline
 62
250
  6
CONTINUOUS
 70
0
 71
3
 72
17
 73
13
 74
0
 42
0.0000001
 43
0.0000001
 44
0.0000000001
 40
0.0
 40
0.0
 40
0.0
 40
0.0
 40
0.1853271497
 40
0.3649248018
 40
0.5320647111
 40
0.6808832871
 40
0.8059660532
 40
0.9028435267
 40
0.9396144814
 40
0.968154998
 40
0.9882776306
 40
1.0
 40
1.0
 40
1.0
 40
1.0
 10
124.5901048782
 20
89.9160535277
 30
0.0
 10
124.6181235843
 20
89.9306680442
 30
0.0
 10
124.6731737688
 20
89.9596778333
 30
0.0
 10
124.7530722586
 20
90.0026610872
 30
0.0
 10
124.8271026295
 20
90.0434023906
 30
0.0
 10
124.8925827918
 20
90.080398838
 30
0.0
 10
124.9471478222
 20
90.1123260549
 30
0.0
 10
124.9847785301
 20
90.1353945254
 30
0.0
 10
125.0078466654
 20
90.1506221441
 30
0.0
 10
125.0197937584
 20
90.1590219931
 30
0.0
 10
125.0277704967
 20
90.1654371089
 30
0.0
 10
125.0318071307
 20
90.1692357638
 30
0.0
 10
125.0328104724
 20
90.1709645455
 30
0.0
  0
SPLINE
  5
481
100
AcDbEntity
  8
RACCORDO
100
AcDbSpline
 62
250
  6
CONTINUOUS
 70
0
 71
3
 72
21
 73
17
 74
0
 42
0.0000001
 43
0.0000001
 44
0.0000000001
 40
0.0
 40
0.0
 40
0.0
 40
0.0
 40
0.0012790813
 40
0.0048754235
 40
0.0108198821
 40
0.0191049931
 40
0.0426464913
 40
0.0753099907
 40
0.1167724955
 40
0.166689072
 40
0.2246018962
 40
0.2899803913
 40
0.4407659148
 40
0.6135602147
 40
0.8023222888
 40
1.0
 40
1.0
 40
1.0
 40
1.0
 10
56.478266193
 20
68.6591301294
 30
0.0
 10
56.4782446746
 20
68.6592495517
 30
0.0
 10
56.4789215148
 20
68.6593821354
 30
0.0
 10
56.4796761267
 20
68.6597130895
 30
0.0
 10
56.4814426561
 20
68.6601114996
 30
0.0
 10
56.4848531596
 20
68.660946618
 30
0.0
 10
56.4908897192
 20
68.6622339208
 30
0.0
 10
56.4999354203
 20
68.6641182355
 30
0.0
 10
56.5114835337
 20
68.6664328942
 30
0.0
 10
56.5253769794
 20
68.6691659474
 30
0.0
 10
56.5415109031
 20
68.6722883579
 30
0.0
 10
56.5670492206
 20
68.6771715643
 30
0.0
 10
56.6033126121
 20
68.6839990511
 30
0.0
 10
56.6511014932
 20
68.6928707864
 30
0.0
 10
56.7032846261
 20
68.7024449605
 30
0.0
 10
56.7393560429
 20
68.708994786
 30
0.0
 10
56.7578107576
 20
68.7123291998
 30
0.0
  0
SPLINE
  5
482
100
AcDbEntity
  8
RACCORDO
100
AcDbSpline
 62
250
  6
CONTINUOUS
 70
0
 71
3
 72
21
 73
17
 74
0
 42
0.0000001
 43
0.0000001
 44
0.0000000001
 40
0.0
 40
0.0
 40
0.0
 40
0.0
 40
0.0011992043
 40
0.0047679412
 40
0.010695841
 40
0.0189692261
 40
0.0424947786
 40
0.0751477294
 40
0.1166032418
 40
0.1665157432
 40
0.2244273066
 40
0.2898075252
 40
0.4406068219
 40
0.6134317262
 40
0.8022453641
 40
1.0
 40
1.0
 40
1.0
 40
1.0
 10
54.0372411732
 20
89.9160533305
 30
0.0
 10
54.037235448
 20
89.9161668404
 30
0.0
 10
54.037966371
 20
89.9160150038
 30
0.0
 10
54.0387062232
 20
89.9162910256
 30
0.0
 10
54.0405386309
 20
89.9163017289
 30
0.0
 10
54.0440142658
 20
89.9166017363
 30
0.0
 10
54.050179751
 20
89.9169219634
 30
0.0
 10
54.0593849898
 20
89.9174796516
 30
0.0
 10
54.0711330677
 20
89.9181290966
 30
0.0
 10
54.0852552567
 20
89.9189086508
 30
0.0
 10
54.101648121
 20
89.9197947005
 30
0.0
 10
54.1275873519
 20
89.9211822048
 30
0.0
 10
54.1644044478
 20
89.9231210109
 30
0.0
 10
54.2129050615
 20
89.9256403623
 30
0.0
 10
54.2658516666
 20
89.9283588572
 30
0.0
 10
54.3024413158
 20
89.9302184555
 30
0.0
 10
54.3211595228
 20
89.9311651332
 30
0.0
  0
SPLINE
  5
483
100
AcDbEntity
  8
RACCORDO
100
AcDbSpline
 62
250
  6
CONTINUOUS
 70
0
 71
3
 72
21
 73
17
 74
0
 42
0.0000001
 43
0.0000001
 44
0.0000000001
 40
0.0
 40
0.0
 40
0.0
 40
0.0
 40
0.0011992042
 40
0.0047679411
 40
0.0106958408
 40
0.0189692258
 40
0.0424947782
 40
0.0751477288
 40
0.116603241
 40
0.1665157422
 40
0.2244273054
 40
0.2898075238
 40
0.4406068203
 40
0.6134317246
 40
0.8022453631
 40
1.0
 40
1.0
 40
1.0
 40
1.0
 10
54.0372411786
 20
135.2514631166
 30
0.0
 10
54.0372354534
 20
135.2513496067
 30
0.0
 10
54.0379663764
 20
135.2515014433
 30
0.0
 10
54.0387062286
 20
135.2512254215
 30
0.0
 10
54.0405386362
 20
135.2512147182
 30
0.0
 10
54.044014271
 20
135.2509147108
 30
0.0
 10
54.050179756
 20
135.2505944837
 30
0.0
 10
54.0593849946
 20
135.2500367955
 30
0.0
 10
54.0711330722
 20
135.2493873505
 30
0.0
 10
54.0852552609
 20
135.2486077963
 30
0.0
 10
54.1016481249
 20
135.2477217467
 30
0.0
 10
54.1275873552
 20
135.2463342424
 30
0.0
 10
54.1644044504
 20
135.2443954363
 30
0.0
 10
54.2129050632
 20
135.241876085
 30
0.0
 10
54.2658516674
 20
135.2391575901
 30
0.0
 10
54.302441316
 20
135.2372979918
 30
0.0
 10
54.3211595228
 20
135.2363513141
 30
0.0
  0
SPLINE
  5
484
100
AcDbEntity
  8
RACCORDO
100
AcDbSpline
 62
250
  6
CONTINUOUS
 70
0
 71
3
 72
21
 73
17
 74
0
 42
0.0000001
 43
0.0000001
 44
0.0000000001
 40
0.0
 40
0.0
 40
0.0
 40
0.0
 40
0.0012799504
 40
0.0048771717
 40
0.0108224623
 40
0.0191083515
 40
0.0426512324
 40
0.0753158672
 40
0.1167792486
 40
0.1666964324
 40
0.2246095889
 40
0.2899881404
 40
0.4407729652
 40
0.6135655892
 40
0.8023252109
 40
1.0
 40
1.0
 40
1.0
 40
1.0
 10
56.4782661862
 20
156.5083863192
 30
0.0
 10
56.4782449016
 20
156.5082667712
 30
0.0
 10
56.4789215416
 20
156.5081344432
 30
0.0
 10
56.4796767979
 20
156.5078031847
 30
0.0
 10
56.4814433201
 20
156.5074048751
 30
0.0
 10
56.4848542621
 20
156.5065696294
 30
0.0
 10
56.4908910233
 20
156.5052823375
 30
0.0
 10
56.4999371097
 20
156.5033979421
 30
0.0
 10
56.5114854616
 20
156.5010832553
 30
0.0
 10
56.5253791028
 20
156.4983501715
 30
0.0
 10
56.5415131377
 20
156.4952277485
 30
0.0
 10
56.5670514598
 20
156.4903445496
 30
0.0
 10
56.6033146794
 20
156.4835171008
 30
0.0
 10
56.6511031684
 20
156.4746454388
 30
0.0
 10
56.7032857055
 20
156.465071369
 30
0.0
 10
56.739356663
 20
156.4585216203
 30
0.0
 10
56.7578111266
 20
156.4551872476
 30
0.0
  0
SPLINE
  5
485
100
AcDbEntity
  8
RACCORDO
100
AcDbSpline
 62
250
  6
CONTINUOUS
 70
0
 71
3
 72
23
 73
19
 74
0
 42
0.0000001
 43
0.0000001
 44
0.0000000001
 40
0.0
 40
0.0
 40
0.0
 40
0.0
 40
0.0015340252
 40
0.0053674024
 40
0.0115827224
 40
0.020185436
 40
0.0311601726
 40
0.0444777571
 40
0.0780138888
 40
0.120457171
 40
0.1713741302
 40
0.230236567
 40
0.2964484699
 40
0.369331472
 40
0.4481604618
 40
0.6204931569
 40
0.8067721668
 40
1.0
 40
1.0
 40
1.0
 40
1.0
 10
56.8865483832
 20
67.706952812
 30
0.0
 10
56.8860305717
 20
67.7069794093
 30
0.0
 10
56.8853198885
 20
67.7092517698
 30
0.0
 10
56.8841850597
 20
67.712485249
 30
0.0
 10
56.8827910567
 20
67.7189178086
 30
0.0
 10
56.8810780958
 20
67.7273432254
 30
0.0
 10
56.8791030639
 20
67.7383324086
 30
0.0
 10
56.8758528635
 20
67.7575841281
 30
0.0
 10
56.8712295511
 20
67.7874253716
 30
0.0
 10
56.8650516907
 20
67.8298626432
 30
0.0
 10
56.8579756934
 20
67.8808268776
 30
0.0
 10
56.8500768424
 20
67.9397838688
 30
0.0
 10
56.8414445416
 20
68.0061338159
 30
0.0
 10
56.8321698684
 20
68.0792049752
 30
0.0
 10
56.8186720724
 20
68.187895972
 30
0.0
 10
56.800982339
 20
68.3346875888
 30
0.0
 10
56.7793990113
 20
68.5199545065
 30
0.0
 10
56.7650214452
 20
68.6474182632
 30
0.0
 10
56.7578107576
 20
68.7123291998
 30
0.0
  0
SPLINE
  5
486
100
AcDbEntity
  8
RACCORDO
100
AcDbSpline
 62
250
  6
CONTINUOUS
 70
0
 71
3
 72
23
 73
19
 74
0
 42
0.0000001
 43
0.0000001
 44
0.0000000001
 40
0.0
 40
0.0
 40
0.0
 40
0.0
 40
0.1932274757
 40
0.3795055261
 40
0.5518384659
 40
0.6306674686
 40
0.703550534
 40
0.7697625925
 40
0.8286252474
 40
0.8795422813
 40
0.9219856852
 40
0.9555222934
 40
0.9688401667
 40
0.9798148332
 40
0.9884168169
 40
0.9946311463
 40
0.9984643095
 40
1.0
 40
1.0
 40
1.0
 40
1.0
 10
56.7578107576
 20
156.4551872475
 30
0.0
 10
56.7650220196
 20
156.5200979982
 30
0.0
 10
56.7793986932
 20
156.647561406
 30
0.0
 10
56.800982823
 20
156.8328278639
 30
0.0
 10
56.8186711013
 20
156.9796194143
 30
0.0
 10
56.8321684558
 20
157.0883105751
 30
0.0
 10
56.8414433364
 20
157.1613817873
 30
0.0
 10
56.8500761755
 20
157.2277318116
 30
0.0
 10
56.8579755359
 20
157.2866888915
 30
0.0
 10
56.8650520522
 20
157.3376531817
 30
0.0
 10
56.8712304241
 20
157.3800906464
 30
0.0
 10
56.875853939
 20
157.4099320715
 30
0.0
 10
56.8791039733
 20
157.4291841924
 30
0.0
 10
56.881078663
 20
157.4401729691
 30
0.0
 10
56.8827911367
 20
157.4485986383
 30
0.0
 10
56.884184408
 20
157.455028889
 30
0.0
 10
56.885319415
 20
157.4582657127
 30
0.0
 10
56.8860301023
 20
157.4605352615
 30
0.0
 10
56.8865483832
 20
157.4605636354
 30
0.0
  0
SPLINE
  5
487
100
AcDbEntity
  8
RACCORDO
100
AcDbSpline
 62
250
  6
CONTINUOUS
 70
0
 71
3
 72
9
 73
5
 74
0
 42
0.0000001
 43
0.0000001
 44
0.0000000001
 40
0.0
 40
0.0
 40
0.0
 40
0.0
 40
0.5136147991
 40
1.0
 40
1.0
 40
1.0
 40
1.0
 10
60.6542528873
 20
156.3355960336
 30
0.0
 10
60.9050331885
 20
156.257587685
 30
0.0
 10
61.3832269104
 20
156.0709222375
 30
0.0
 10
61.8300427045
 20
155.8184020735
 30
0.0
 10
62.0372412113
 20
155.6808335685
 30
0.0
  0
SPLINE
  5
488
100
AcDbEntity
  8
RACCORDO
100
AcDbSpline
 62
250
  6
CONTINUOUS
 70
0
 71
3
 72
9
 73
5
 74
0
 42
0.0000001
 43
0.0000001
 44
0.0000000001
 40
0.0
 40
0.0
 40
0.0
 40
0.0
 40
0.4863774239
 40
1.0
 40
1.0
 40
1.0
 40
1.0
 10
62.0372411845
 20
69.4866828627
 30
0.0
 10
61.8300435916
 20
69.3491139821
 30
0.0
 10
61.383218764
 20
69.0965958729
 30
0.0
 10
60.9050205106
 20
68.9099225423
 30
0.0
 10
60.6542322252
 20
68.8319143024
 30
0.0
  0
SPLINE
  5
489
100
AcDbEntity
  8
ASSI
100
AcDbSpline
 62
250
  6
CONTINUOUS
 70
0
 71
3
 72
9
 73
5
 74
0
 42
0.0000001
 43
0.0000001
 44
0.0000000001
 40
0.0
 40
0.0
 40
0.0
 40
0.0
 40
0.5136147991
 40
1.0
 40
1.0
 40
1.0
 40
1.0
 10
60.6542528873
 20
156.3355960336
 30
0.0
 10
60.9050331885
 20
156.257587685
 30
0.0
 10
61.3832269104
 20
156.0709222375
 30
0.0
 10
61.8300427045
 20
155.8184020735
 30
0.0
 10
62.0372412113
 20
155.6808335685
 30
0.0
  0
SPLINE
  5
48A
100
AcDbEntity
  8
ASSI
100
AcDbSpline
 62
250
  6
CONTINUOUS
 70
0
 71
3
 72
9
 73
5
 74
0
 42
0.0000001
 43
0.0000001
 44
0.0000000001
 40
0.0
 40
0.0
 40
0.0
 40
0.0
 40
0.4863774239
 40
1.0
 40
1.0
 40
1.0
 40
1.0
 10
62.0372411845
 20
69.4866828627
 30
0.0
 10
61.8300435916
 20
69.3491139821
 30
0.0
 10
61.383218764
 20
69.0965958729
 30
0.0
 10
60.9050205106
 20
68.9099225423
 30
0.0
 10
60.6542322252
 20
68.8319143024
 30
0.0
  0
SPLINE
  5
48B
100
AcDbEntity
  8
ASSI
100
AcDbSpline
 62
250
  6
CONTINUOUS
 70
0
 71
3
 72
23
 73
19
 74
0
 42
0.0000001
 43
0.0000001
 44
0.0000000001
 40
0.0
 40
0.0
 40
0.0
 40
0.0
 40
0.0015340252
 40
0.0053674024
 40
0.0115827224
 40
0.020185436
 40
0.0311601726
 40
0.0444777571
 40
0.0780138888
 40
0.120457171
 40
0.1713741302
 40
0.230236567
 40
0.2964484699
 40
0.369331472
 40
0.4481604618
 40
0.6204931569
 40
0.8067721668
 40
1.0
 40
1.0
 40
1.0
 40
1.0
 10
56.8865483832
 20
67.706952812
 30
0.0
 10
56.8860305717
 20
67.7069794093
 30
0.0
 10
56.8853198885
 20
67.7092517698
 30
0.0
 10
56.8841850597
 20
67.712485249
 30
0.0
 10
56.8827910567
 20
67.7189178086
 30
0.0
 10
56.8810780958
 20
67.7273432254
 30
0.0
 10
56.8791030639
 20
67.7383324086
 30
0.0
 10
56.8758528635
 20
67.7575841281
 30
0.0
 10
56.8712295511
 20
67.7874253716
 30
0.0
 10
56.8650516907
 20
67.8298626432
 30
0.0
 10
56.8579756934
 20
67.8808268776
 30
0.0
 10
56.8500768424
 20
67.9397838688
 30
0.0
 10
56.8414445416
 20
68.0061338159
 30
0.0
 10
56.8321698684
 20
68.0792049752
 30
0.0
 10
56.8186720724
 20
68.187895972
 30
0.0
 10
56.800982339
 20
68.3346875888
 30
0.0
 10
56.7793990113
 20
68.5199545065
 30
0.0
 10
56.7650214452
 20
68.6474182632
 30
0.0
 10
56.7578107576
 20
68.7123291998
 30
0.0
  0
SPLINE
  5
48C
100
AcDbEntity
  8
ASSI
100
AcDbSpline
 62
250
  6
CONTINUOUS
 70
0
 71
3
 72
23
 73
19
 74
0
 42
0.0000001
 43
0.0000001
 44
0.0000000001
 40
0.0
 40
0.0
 40
0.0
 40
0.0
 40
0.1932274757
 40
0.3795055261
 40
0.5518384659
 40
0.6306674686
 40
0.703550534
 40
0.7697625925
 40
0.8286252474
 40
0.8795422813
 40
0.9219856852
 40
0.9555222934
 40
0.9688401667
 40
0.9798148332
 40
0.9884168169
 40
0.9946311463
 40
0.9984643095
 40
1.0
 40
1.0
 40
1.0
 40
1.0
 10
56.7578107576
 20
156.4551872475
 30
0.0
 10
56.7650220196
 20
156.5200979982
 30
0.0
 10
56.7793986932
 20
156.647561406
 30
0.0
 10
56.800982823
 20
156.8328278639
 30
0.0
 10
56.8186711013
 20
156.9796194143
 30
0.0
 10
56.8321684558
 20
157.0883105751
 30
0.0
 10
56.8414433364
 20
157.1613817873
 30
0.0
 10
56.8500761755
 20
157.2277318116
 30
0.0
 10
56.8579755359
 20
157.2866888915
 30
0.0
 10
56.8650520522
 20
157.3376531817
 30
0.0
 10
56.8712304241
 20
157.3800906464
 30
0.0
 10
56.875853939
 20
157.4099320715
 30
0.0
 10
56.8791039733
 20
157.4291841924
 30
0.0
 10
56.881078663
 20
157.4401729691
 30
0.0
 10
56.8827911367
 20
157.4485986383
 30
0.0
 10
56.884184408
 20
157.455028889
 30
0.0
 10
56.885319415
 20
157.4582657127
 30
0.0
 10
56.8860301023
 20
157.4605352615
 30
0.0
 10
56.8865483832
 20
157.4605636354
 30
0.0
  0
SPLINE
  5
48D
100
AcDbEntity
  8
ASSI
100
AcDbSpline
 62
250
  6
CONTINUOUS
 70
0
 71
3
 72
21
 73
17
 74
0
 42
0.0000001
 43
0.0000001
 44
0.0000000001
 40
0.0
 40
0.0
 40
0.0
 40
0.0
 40
0.0012790813
 40
0.0048754235
 40
0.0108198821
 40
0.0191049931
 40
0.0426464913
 40
0.0753099907
 40
0.1167724955
 40
0.166689072
 40
0.2246018962
 40
0.2899803913
 40
0.4407659148
 40
0.6135602147
 40
0.8023222888
 40
1.0
 40
1.0
 40
1.0
 40
1.0
 10
56.478266193
 20
68.6591301294
 30
0.0
 10
56.4782446746
 20
68.6592495517
 30
0.0
 10
56.4789215148
 20
68.6593821354
 30
0.0
 10
56.4796761267
 20
68.6597130895
 30
0.0
 10
56.4814426561
 20
68.6601114996
 30
0.0
 10
56.4848531596
 20
68.660946618
 30
0.0
 10
56.4908897192
 20
68.6622339208
 30
0.0
 10
56.4999354203
 20
68.6641182355
 30
0.0
 10
56.5114835337
 20
68.6664328942
 30
0.0
 10
56.5253769794
 20
68.6691659474
 30
0.0
 10
56.5415109031
 20
68.6722883579
 30
0.0
 10
56.5670492206
 20
68.6771715643
 30
0.0
 10
56.6033126121
 20
68.6839990511
 30
0.0
 10
56.6511014932
 20
68.6928707864
 30
0.0
 10
56.7032846261
 20
68.7024449605
 30
0.0
 10
56.7393560429
 20
68.708994786
 30
0.0
 10
56.7578107576
 20
68.7123291998
 30
0.0
  0
SPLINE
  5
48E
100
AcDbEntity
  8
ASSI
100
AcDbSpline
 62
250
  6
CONTINUOUS
 70
0
 71
3
 72
21
 73
17
 74
0
 42
0.0000001
 43
0.0000001
 44
0.0000000001
 40
0.0
 40
0.0
 40
0.0
 40
0.0
 40
0.0011992043
 40
0.0047679412
 40
0.010695841
 40
0.0189692261
 40
0.0424947786
 40
0.0751477294
 40
0.1166032418
 40
0.1665157432
 40
0.2244273066
 40
0.2898075252
 40
0.4406068219
 40
0.6134317262
 40
0.8022453641
 40
1.0
 40
1.0
 40
1.0
 40
1.0
 10
54.0372411732
 20
89.9160533305
 30
0.0
 10
54.037235448
 20
89.9161668404
 30
0.0
 10
54.037966371
 20
89.9160150038
 30
0.0
 10
54.0387062232
 20
89.9162910256
 30
0.0
 10
54.0405386309
 20
89.9163017289
 30
0.0
 10
54.0440142658
 20
89.9166017363
 30
0.0
 10
54.050179751
 20
89.9169219634
 30
0.0
 10
54.0593849898
 20
89.9174796516
 30
0.0
 10
54.0711330677
 20
89.9181290966
 30
0.0
 10
54.0852552567
 20
89.9189086508
 30
0.0
 10
54.101648121
 20
89.9197947005
 30
0.0
 10
54.1275873519
 20
89.9211822048
 30
0.0
 10
54.1644044478
 20
89.9231210109
 30
0.0
 10
54.2129050615
 20
89.9256403623
 30
0.0
 10
54.2658516666
 20
89.9283588572
 30
0.0
 10
54.3024413158
 20
89.9302184555
 30
0.0
 10
54.3211595228
 20
89.9311651332
 30
0.0
  0
SPLINE
  5
48F
100
AcDbEntity
  8
ASSI
100
AcDbSpline
 62
250
  6
CONTINUOUS
 70
0
 71
3
 72
21
 73
17
 74
0
 42
0.0000001
 43
0.0000001
 44
0.0000000001
 40
0.0
 40
0.0
 40
0.0
 40
0.0
 40
0.0011992042
 40
0.0047679411
 40
0.0106958408
 40
0.0189692258
 40
0.0424947782
 40
0.0751477288
 40
0.116603241
 40
0.1665157422
 40
0.2244273054
 40
0.2898075238
 40
0.4406068203
 40
0.6134317246
 40
0.8022453631
 40
1.0
 40
1.0
 40
1.0
 40
1.0
 10
54.0372411786
 20
135.2514631166
 30
0.0
 10
54.0372354534
 20
135.2513496067
 30
0.0
 10
54.0379663764
 20
135.2515014433
 30
0.0
 10
54.0387062286
 20
135.2512254215
 30
0.0
 10
54.0405386362
 20
135.2512147182
 30
0.0
 10
54.044014271
 20
135.2509147108
 30
0.0
 10
54.050179756
 20
135.2505944837
 30
0.0
 10
54.0593849946
 20
135.2500367955
 30
0.0
 10
54.0711330722
 20
135.2493873505
 30
0.0
 10
54.0852552609
 20
135.2486077963
 30
0.0
 10
54.1016481249
 20
135.2477217467
 30
0.0
 10
54.1275873552
 20
135.2463342424
 30
0.0
 10
54.1644044504
 20
135.2443954363
 30
0.0
 10
54.2129050632
 20
135.241876085
 30
0.0
 10
54.2658516674
 20
135.2391575901
 30
0.0
 10
54.302441316
 20
135.2372979918
 30
0.0
 10
54.3211595228
 20
135.2363513141
 30
0.0
  0
SPLINE
  5
490
100
AcDbEntity
  8
ASSI
100
AcDbSpline
 62
250
  6
CONTINUOUS
 70
0
 71
3
 72
21
 73
17
 74
0
 42
0.0000001
 43
0.0000001
 44
0.0000000001
 40
0.0
 40
0.0
 40
0.0
 40
0.0
 40
0.0012799504
 40
0.0048771717
 40
0.0108224623
 40
0.0191083515
 40
0.0426512324
 40
0.0753158672
 40
0.1167792486
 40
0.1666964324
 40
0.2246095889
 40
0.2899881404
 40
0.4407729652
 40
0.6135655892
 40
0.8023252109
 40
1.0
 40
1.0
 40
1.0
 40
1.0
 10
56.4782661862
 20
156.5083863192
 30
0.0
 10
56.4782449016
 20
156.5082667712
 30
0.0
 10
56.4789215416
 20
156.5081344432
 30
0.0
 10
56.4796767979
 20
156.5078031847
 30
0.0
 10
56.4814433201
 20
156.5074048751
 30
0.0
 10
56.4848542621
 20
156.5065696294
 30
0.0
 10
56.4908910233
 20
156.5052823375
 30
0.0
 10
56.4999371097
 20
156.5033979421
 30
0.0
 10
56.5114854616
 20
156.5010832553
 30
0.0
 10
56.5253791028
 20
156.4983501715
 30
0.0
 10
56.5415131377
 20
156.4952277485
 30
0.0
 10
56.5670514598
 20
156.4903445496
 30
0.0
 10
56.6033146794
 20
156.4835171008
 30
0.0
 10
56.6511031684
 20
156.4746454388
 30
0.0
 10
56.7032857055
 20
156.465071369
 30
0.0
 10
56.739356663
 20
156.4585216203
 30
0.0
 10
56.7578111266
 20
156.4551872476
 30
0.0
  0
ELLIPSE
  5
491
100
AcDbEntity
  8
RACCORDO
100
AcDbEllipse
 62
7
  6
CONTINUOUS
 10
103.7877415894
 20
68.5851305697
 30
0.0
 11
0.7090462434
 21
0.7090462434
 31
0.0
 40
0.9972646886
 41
-3.9256212891
 42
-2.3575640181
  0
ELLIPSE
  5
492
100
AcDbEntity
  8
RACCORDO
100
AcDbEllipse
 62
7
  6
CONTINUOUS
 10
262.7849968974
 20
68.5851305697
 30
0.0
 11
-0.7090462434
 21
0.7090462434
 31
0.0
 40
0.9972646886
 41
-3.9256212891
 42
-2.3575640181
  0
ELLIPSE
  5
493
100
AcDbEntity
  8
RACCORDO
100
AcDbEllipse
 62
7
  6
CONTINUOUS
 10
262.7849968974
 20
156.5823858777
 30
0.0
 11
0.7090462434
 21
0.7090462434
 31
0.0
 40
0.9972646886
 41
-0.7840286355
 42
0.7840286355
  0
ELLIPSE
  5
494
100
AcDbEntity
  8
RACCORDO
100
AcDbEllipse
 62
7
  6
CONTINUOUS
 10
103.7877415894
 20
156.5823858777
 30
0.0
 11
-0.7090462434
 21
0.7090462434
 31
0.0
 40
0.9972646886
 41
-0.7840286355
 42
0.7840286355
  0
ELLIPSE
  5
495
100
AcDbEntity
  8
0
100
AcDbEllipse
 62
7
  6
CONTINUOUS
 10
169.6852713666
 20
90.6848561005
 30
0.0
 11
0.5672369947
 21
-0.5672369947
 31
0.0
 40
0.9972646886
 41
-0.7840286355
 42
0.7840286355
  0
ELLIPSE
  5
496
100
AcDbEntity
  8
0
100
AcDbEllipse
 62
7
  6
CONTINUOUS
 10
169.6852713666
 20
134.4826603469
 30
0.0
 11
0.5672369947
 21
0.5672369947
 31
0.0
 40
0.9972646886
 41
-0.7840286355
 42
0.7840286355
  0
ELLIPSE
  5
497
100
AcDbEntity
  8
0
100
AcDbEllipse
 62
7
  6
CONTINUOUS
 10
125.8874671202
 20
134.4826603469
 30
0.0
 11
0.5672369947
 21
-0.5672369947
 31
0.0
 40
0.9972646886
 41
2.3575640181
 42
3.9256212891
  0
ELLIPSE
  5
498
100
AcDbEntity
  8
0
100
AcDbEllipse
 62
7
  6
CONTINUOUS
 10
125.8874671202
 20
90.6848561005
 30
0.0
 11
0.5672369947
 21
0.5672369947
 31
0.0
 40
0.9972646886
 41
-3.9256212891
 42
-2.3575640181
  0
ELLIPSE
  5
499
100
AcDbEntity
  8
0
100
AcDbEllipse
 62
7
  6
CONTINUOUS
 10
240.6852713666
 20
90.6848561005
 30
0.0
 11
0.5672369947
 21
-0.5672369947
 31
0.0
 40
0.9972646886
 41
-0.7840286355
 42
0.7840286355
  0
ELLIPSE
  5
49A
100
AcDbEntity
  8
0
100
AcDbEllipse
 62
7
  6
CONTINUOUS
 10
196.8874671202
 20
90.6848561005
 30
0.0
 11
0.5672369947
 21
0.5672369947
 31
0.0
 40
0.9972646886
 41
2.3575640181
 42
3.9256212891
  0
ELLIPSE
  5
49B
100
AcDbEntity
  8
0
100
AcDbEllipse
 62
7
  6
CONTINUOUS
 10
196.8874671202
 20
134.4826603469
 30
0.0
 11
0.5672369947
 21
-0.5672369947
 31
0.0
 40
0.9972646886
 41
2.3575640181
 42
3.9256212891
  0
ELLIPSE
  5
49C
100
AcDbEntity
  8
0
100
AcDbEllipse
 62
7
  6
CONTINUOUS
 10
240.6852713666
 20
134.4826603469
 30
0.0
 11
0.5672369947
 21
0.5672369947
 31
0.0
 40
0.9972646886
 41
-0.7840286355
 42
0.7840286355
  0
ELLIPSE
  5
49D
100
AcDbEntity
  8
ASSI
100
AcDbEllipse
 62
7
  6
CONTINUOUS
 10
103.7877415894
 20
68.5851305697
 30
0.0
 11
0.7090462434
 21
0.7090462434
 31
0.0
 40
0.9972646886
 41
-3.9256212891
 42
-2.3575640181
  0
ELLIPSE
  5
49E
100
AcDbEntity
  8
ASSI
100
AcDbEllipse
 62
7
  6
CONTINUOUS
 10
262.7849968974
 20
68.5851305697
 30
0.0
 11
-0.7090462434
 21
0.7090462434
 31
0.0
 40
0.9972646886
 41
-3.9256212891
 42
-2.3575640181
  0
ELLIPSE
  5
49F
100
AcDbEntity
  8
ASSI
100
AcDbEllipse
 62
7
  6
CONTINUOUS
 10
262.7849968974
 20
156.5823858777
 30
0.0
 11
0.7090462434
 21
0.7090462434
 31
0.0
 40
0.9972646886
 41
-0.7840286355
 42
0.7840286355
  0
ELLIPSE
  5
4A0
100
AcDbEntity
  8
ASSI
100
AcDbEllipse
 62
7
  6
CONTINUOUS
 10
103.7877415894
 20
156.5823858777
 30
0.0
 11
-0.7090462434
 21
0.7090462434
 31
0.0
 40
0.9972646886
 41
-0.7840286355
 42
0.7840286355
  0
ELLIPSE
  5
4A1
100
AcDbEntity
  8
ASSI
100
AcDbEllipse
 62
7
  6
CONTINUOUS
 10
169.6852713666
 20
90.6848561005
 30
0.0
 11
0.5672369947
 21
-0.5672369947
 31
0.0
 40
0.9972646886
 41
-0.7840286355
 42
0.7840286355
  0
ELLIPSE
  5
4A2
100
AcDbEntity
  8
ASSI
100
AcDbEllipse
 62
7
  6
CONTINUOUS
 10
169.6852713666
 20
134.4826603469
 30
0.0
 11
0.5672369947
 21
0.5672369947
 31
0.0
 40
0.9972646886
 41
-0.7840286355
 42
0.7840286355
  0
ELLIPSE
  5
4A3
100
AcDbEntity
  8
ASSI
100
AcDbEllipse
 62
7
  6
CONTINUOUS
 10
125.8874671202
 20
134.4826603469
 30
0.0
 11
0.5672369947
 21
-0.5672369947
 31
0.0
 40
0.9972646886
 41
2.3575640181
 42
3.9256212891
  0
ELLIPSE
  5
4A4
100
AcDbEntity
  8
ASSI
100
AcDbEllipse
 62
7
  6
CONTINUOUS
 10
125.8874671202
 20
90.6848561005
 30
0.0
 11
0.5672369947
 21
0.5672369947
 31
0.0
 40
0.9972646886
 41
-3.9256212891
 42
-2.3575640181
  0
ELLIPSE
  5
4A5
100
AcDbEntity
  8
ASSI
100
AcDbEllipse
 62
7
  6
CONTINUOUS
 10
240.6852713666
 20
90.6848561005
 30
0.0
 11
0.5672369947
 21
-0.5672369947
 31
0.0
 40
0.9972646886
 41
-0.7840286355
 42
0.7840286355
  0
ELLIPSE
  5
4A6
100
AcDbEntity
  8
ASSI
100
AcDbEllipse
 62
7
  6
CONTINUOUS
 10
196.8874671202
 20
90.6848561005
 30
0.0
 11
0.5672369947
 21
0.5672369947
 31
0.0
 40
0.9972646886
 41
2.3575640181
 42
3.9256212891
  0
ELLIPSE
  5
4A7
100
AcDbEntity
  8
ASSI
100
AcDbEllipse
 62
7
  6
CONTINUOUS
 10
196.8874671202
 20
134.4826603469
 30
0.0
 11
0.5672369947
 21
-0.5672369947
 31
0.0
 40
0.9972646886
 41
2.3575640181
 42
3.9256212891
  0
ELLIPSE
  5
4A8
100
AcDbEntity
  8
ASSI
100
AcDbEllipse
 62
7
  6
CONTINUOUS
 10
240.6852713666
 20
134.4826603469
 30
0.0
 11
0.5672369947
 21
0.5672369947
 31
0.0
 40
0.9972646886
 41
-0.7840286355
 42
0.7840286355
  0
ELLIPSE
  5
4A9
100
AcDbEntity
  8
0
100
AcDbEllipse
 62
250
  6
CONTINUOUS
 10
503.4659620458
 20
112.5837582237
 30
0.0
 11
450.0
 21
0.0
 31
0.0
 40
1.0
 41
3.1340781384
 42
3.1341360023
  0
ELLIPSE
  5
4AA
100
AcDbEntity
  8
0
100
AcDbEllipse
 62
250
  6
CONTINUOUS
 10
503.4659620458
 20
112.5837582237
 30
0.0
 11
450.0
 21
0.0
 31
0.0
 40
1.0
 41
3.1389999018
 42
3.1390577642
  0
ELLIPSE
  5
4AB
100
AcDbEntity
  8
0
100
AcDbEllipse
 62
250
  6
CONTINUOUS
 10
503.4659620458
 20
112.5837582237
 30
0.0
 11
450.0
 21
0.0
 31
0.0
 40
1.0
 41
3.1364415464
 42
3.1369275944
  0
ELLIPSE
  5
4AC
100
AcDbEntity
  8
0
100
AcDbEllipse
 62
250
  6
CONTINUOUS
 10
503.4659620458
 20
112.5837582237
 30
0.0
 11
450.0
 21
0.0
 31
0.0
 40
1.0
 41
3.1356644233
 42
3.1361504756
  0
ELLIPSE
  5
4AD
100
AcDbEntity
  8
0
100
AcDbEllipse
 62
250
  6
CONTINUOUS
 10
503.4659620458
 20
112.5837582237
 30
0.0
 11
450.0
 21
0.0
 31
0.0
 40
1.0
 41
-3.1192840054
 42
-3.1192145526
  0
ELLIPSE
  5
4AE
100
AcDbEntity
  8
0
100
AcDbEllipse
 62
250
  6
CONTINUOUS
 10
503.4659620458
 20
112.5837582237
 30
0.0
 11
0.0
 21
450.0
 31
0.0
 40
1.0
 41
7.84313153
 42
7.845349929
  0
ELLIPSE
  5
4AF
100
AcDbEntity
  8
0
100
AcDbEllipse
 62
250
  6
CONTINUOUS
 10
503.4659620458
 20
112.5837582237
 30
0.0
 11
-0.0
 21
450.0
 31
0.0
 40
1.0
 41
7.840078495
 42
7.8425097312
  0
ELLIPSE
  5
4B0
100
AcDbEntity
  8
0
100
AcDbEllipse
 62
250
  6
CONTINUOUS
 10
503.4659620458
 20
112.5837582237
 30
0.0
 11
450.0
 21
0.0
 31
0.0
 40
1.0
 41
3.1212865292
 42
3.1264680814
  0
ELLIPSE
  5
4B1
100
AcDbEntity
  8
0
100
AcDbEllipse
 62
250
  6
CONTINUOUS
 10
503.4659620458
 20
112.5837582237
 30
0.0
 11
450.0
 21
0.0
 31
0.0
 40
1.0
 41
3.1165465484
 42
3.1167086122
  0
ELLIPSE
  5
4B2
100
AcDbEntity
  8
0
100
AcDbEllipse
 62
250
  6
CONTINUOUS
 10
503.4659620458
 20
112.5837582237
 30
0.0
 11
450.0
 21
0.0
 31
0.0
 40
1.0
 41
3.1163034492
 42
3.116477091
  0
ELLIPSE
  5
4B3
100
AcDbEntity
  8
0
100
AcDbEllipse
 62
250
  6
CONTINUOUS
 10
503.4659620458
 20
112.5837582237
 30
0.0
 11
450.0
 21
0.0
 31
0.0
 40
1.0
 41
-3.1312013533
 42
-3.1306574157
  0
ELLIPSE
  5
4B4
100
AcDbEntity
  8
0
100
AcDbEllipse
 62
250
  6
CONTINUOUS
 10
503.4659620458
 20
112.5837582237
 30
0.0
 11
-0.0
 21
450.0
 31
0.0
 40
1.0
 41
1.5477696786
 42
1.549870533
  0
ELLIPSE
  5
4B5
100
AcDbEntity
  8
0
100
AcDbEllipse
 62
250
  6
CONTINUOUS
 10
503.4659620458
 20
112.5837582237
 30
0.0
 11
450.0
 21
0.0
 31
0.0
 40
1.0
 41
3.1154566248
 42
3.1160007135
  0
ELLIPSE
  5
4B6
100
AcDbEntity
  8
0
100
AcDbEllipse
 62
250
  6
CONTINUOUS
 10
503.4659620458
 20
112.5837582237
 30
0.0
 11
0.0
 21
450.0
 31
0.0
 40
1.0
 41
1.531108938
 42
1.5342196405
  0
ELLIPSE
  5
4B7
100
AcDbEntity
  8
0
100
AcDbEllipse
 62
250
  6
CONTINUOUS
 10
503.4659620458
 20
112.5837582237
 30
0.0
 11
0.0
 21
450.0
 31
0.0
 40
1.0
 41
7.8089607024
 42
7.8125165306
  0
ELLIPSE
  5
4B8
100
AcDbEntity
  8
0
100
AcDbEllipse
 62
250
  6
CONTINUOUS
 10
503.4659620458
 20
112.5837582237
 30
0.0
 11
450.0
 21
0.0
 31
0.0
 40
1.0
 41
-3.131978501
 42
-3.1314345678
  0
ELLIPSE
  5
4B9
100
AcDbEntity
  8
0
100
AcDbEllipse
 62
250
  6
CONTINUOUS
 10
503.4659620458
 20
112.5837582237
 30
0.0
 11
0.0
 21
450.0
 31
0.0
 40
1.0
 41
1.5776744855
 42
1.5796613918
  0
ELLIPSE
  5
4BA
100
AcDbEntity
  8
0
100
AcDbEllipse
 62
250
  6
CONTINUOUS
 10
503.4659620458
 20
112.5837582237
 30
0.0
 11
450.0
 21
0.0
 31
0.0
 40
1.0
 41
-3.1239476002
 42
-3.1234036062
  0
ELLIPSE
  5
4BB
100
AcDbEntity
  8
0
100
AcDbEllipse
 62
250
  6
CONTINUOUS
 10
503.4659620458
 20
112.5837582237
 30
0.0
 11
0.0
 21
450.0
 31
0.0
 40
1.0
 41
1.5822238355
 42
1.5874050837
  0
ELLIPSE
  5
4BC
100
AcDbEntity
  8
0
100
AcDbEllipse
 62
250
  6
CONTINUOUS
 10
503.4659620458
 20
112.5837582237
 30
0.0
 11
450.0
 21
0.0
 31
0.0
 40
1.0
 41
-3.1231009153
 42
-3.122626361
  0
ELLIPSE
  5
4BD
100
AcDbEntity
  8
0
100
AcDbEllipse
 62
250
  6
CONTINUOUS
 10
503.4659620458
 20
112.5837582237
 30
0.0
 11
450.0
 21
0.0
 31
0.0
 40
1.0
 41
3.1403965533
 42
3.1405817112
  0
ELLIPSE
  5
4BE
100
AcDbEntity
  8
0
100
AcDbEllipse
 62
250
  6
CONTINUOUS
 10
503.4659620458
 20
112.5837582237
 30
0.0
 11
450.0
 21
0.0
 31
0.0
 40
1.0
 41
3.1395500055
 42
3.140093913
  0
ENDSEC
  0
SECTION
  2
OBJECTS
  0
DICTIONARY
  5
C
100
AcDbDictionary
280
0
281
1
  3
ACAD_GROUP
350
D
  3
ACAD_MLINESTYLE
350
17
  3
ACAD_LAYOUT
350
1A
  3
ACAD_PLOTSETTINGS
350
19
  3
ACAD_PLOTSTYLENAME
350
E
  0
DICTIONARY
  5
D
102
{ACAD_REACTORS
330
C
102
}
100
AcDbDictionary
280
0
281
1
  0
ACDBDICTIONARYWDFLT
  5
E
102
{ACAD_REACTORS
330
C
102
}
100
AcDbDictionary
281
1
  3
Normal
350
F
100
AcDbDictionaryWithDefault
340
F
  0
DICTIONARY
  5
17
102
{ACAD_REACTORS
330
C
102
}
100
AcDbDictionary
280
0
281
1
  3
Standard
350
18
  0
DICTIONARY
  5
19
102
{ACAD_REACTORS
330
C
102
}
100
AcDbDictionary
281
1
  0
DICTIONARY
  5
1A
102
{ACAD_REACTORS
330
C
102
}
100
AcDbDictionary
281
1
  3
Model
350
4BF
  3
Layout1
350
4C0
  0
ACDBPLACEHOLDER
  5
F
102
{ACAD_REACTORS
330
E
102
}
  0
MLINESTYLE
  5
18
102
{ACAD_REACTORS
330
17
102
}
100
AcDbMlineStyle
  2
STANDARD
 70
0
  3

 62
256
 51
90.0
 52
90.0
 71
2
 49
0.5
 62
256
  6
BYLAYER
 49
-0.5
 62
256
  6
BYLAYER
  0
LAYOUT
  5
4BF
102
{ACAD_REACTORS
330
1A
102
}
100
AcDbPlotSettings
  1

  2
none_device
  4
ISO_A4_(297.00_x_210.00_MM)
  6

 40
0.0
 41
0.0
 42
0.0
 43
0.0
 44
297.0
 45
210.0
 46
0.0
 47
0.0
 48
0.0
 49
0.0
140
0.0
141
0.0
142
1.0
143
1.0
 70
1024
 72
1
 73
0
 74
0
  7

 75
0
147
1.0
148
0.0
149
0.0
100
AcDbLayout
  1
Model
 70
0
 71
0
 10
0.0
 20
0.0
 11
297.0
 21
210.0
 12
0.0
 22
0.0
 32
0.0
 14
0.0
 24
0.0
 34
0.0
 15
0.0
 25
0.0
 35
0.0
146
0.0
 13
0.0
 23
0.0
 33
0.0
 16
1.0
 26
0.0
 36
0.0
 17
0.0
 27
1.0
 37
0.0
 76
0
330
215
345
0
346
0
  0
LAYOUT
  5
4C0
102
{ACAD_REACTORS
330
1A
102
}
100
AcDbPlotSettings
  1

  2
none_device
  4
ISO_A4_(297.00_x_210.00_MM)
  6

 40
0.0
 41
0.0
 42
0.0
 43
0.0
 44
297.0
 45
210.0
 46
0.0
 47
0.0
 48
0.0
 49
0.0
140
0.0
141
0.0
142
1.0
143
1.0
 70
0
 72
1
 73
0
 74
0
  7

 75
0
147
1.0
148
0.0
149
0.0
100
AcDbLayout
  1
Layout1
 70
0
 71
1
 10
0.0
 20
0.0
 11
297.0
 21
210.0
 12
0.0
 22
0.0
 32
0.0
 14
0.0
 24
0.0
 34
0.0
 15
0.0
 25
0.0
 35
0.0
146
0.0
 13
0.0
 23
0.0
 33
0.0
 16
1.0
 26
0.0
 36
0.0
 17
0.0
 27
1.0
 37
0.0
 76
0
330
216
345
0
346
0
  0
ENDSEC
  0
EOF
