  0
SECTION
  2
HEADER
  9
$ACADVER
  1
AC1021
  9
$DWGCODEPAGE
  3
ANSI_1252
  9
$EXTMAX
 10
297.0
 20
210.0
 30
0.0
  9
$EXTMIN
 10
0.0
 20
0.0
 30
0.0
  9
$LIMMIN
 10
0.0
 20
0.0
  9
$LIMMAX
 10
297.0
 20
210.0
  9
$VIEWCTR
 10
148.5
 20
105.0
  9
$VIEWSIZE
 40
210.0
  9
$CLAYER
  8
0
  9
$LTSCALE
 40
16.335
  9
$CELTYPE
  6
BYLAYER
  9
$DIMSCALE
 40
1.0
  9
$DIMASZ
 40
3.0
  9
$DIMEXO
 40
0.5
  9
$DIMDLI
 40
11.286
  9
$DIMEXE
 40
1.5
  9
$DIMCEN
 40
2.673
  9
$DIMLFAC
 40
1.0
  9
$DIMBLK
  1
_FILLED
  9
$DIMALT
 70
0
  9
$DIMALTF
 40
25.4
  9
$DIMTXT
 40
3.0
  9
$DIMTOL
 70
1
  9
$DIMLIM
 70
0
  9
$DIMTFAC
 40
1.0
  9
$DIMTP
 40
0.01
  9
$DIMTM
 40
0.01
  9
$DIMGAP
 40
0.625
  9
$DIMDSEP
 70
44
  9
$AUNITS
 70
0
  9
$PDMODE
 70
3
  9
$PDSIZE
 40
3.0
  9
$HANDSEED
  5
390
  9
$TILEMODE
 70
1
  9
$MEASUREMENT
 70
1
  9
$INSUNITS
 70
4
  0
ENDSEC
  0
SECTION
  2
CLASSES
  0
CLASS
  1
ACDBDICTIONARYWDFLT
  2
AcDbDictionaryWithDefault
  3
AutoCAD 2000
 90
0
 91
1
280
0
281
0
  0
CLASS
  1
ACDBPLACEHOLDER
  2
AcDbPlaceHolder
  3
AutoCAD 2000
 90
0
 91
1
280
0
281
0
  0
CLASS
  1
LAYOUT
  2
AcDbLayout
  3
AutoCAD 2000
 90
0
 91
0
280
0
281
0
  0
ENDSEC
  0
SECTION
  2
TABLES
  0
TABLE
  2
VPORT
  5
8
100
AcDbSymbolTable
 70
2
  0
VPORT
  5
1F4
100
AcDbSymbolTableRecord
100
AcDbViewportTableRecord
  2
*ACTIVE
 70
0
 10
0.0
 20
0.0
 11
1.0
 21
1.0
 12
148.5
 22
105.0
 13
0.0
 23
0.0
 14
1.0
 24
1.0
 15
0.0
 25
0.0
 16
0.0
 26
0.0
 36
1.0
 17
0.0
 27
0.0
 37
0.0
 40
210.0
 41
1.4142857143
 42
50.0
 43
0.0
 44
0.0
 50
0.0
 51
0.0
 71
0
 72
100
 73
1
 74
1
 75
0
 76
0
 77
0
 78
0
  0
ENDTAB
  0
TABLE
  2
LTYPE
  5
5
100
AcDbSymbolTable
 70
6
  0
LTYPE
  5
14
100
AcDbSymbolTableRecord
100
AcDbLinetypeTableRecord
  2
BYBLOCK
 70
0
  3

 72
65
 73
0
 40
0.0
  0
LTYPE
  5
15
100
AcDbSymbolTableRecord
100
AcDbLinetypeTableRecord
  2
BYLAYER
 70
0
  3

 72
65
 73
0
 40
0.0
  0
LTYPE
  5
16
100
AcDbSymbolTableRecord
100
AcDbLinetypeTableRecord
  2
CONTINUOUS
 70
64
  3
Solid line
 72
65
 73
0
 40
0.0
  0
LTYPE
  5
1F5
100
AcDbSymbolTableRecord
100
AcDbLinetypeTableRecord
  2
CENTER
 70
64
  3
____ _ ____ _ ____ _ ____ _ ____ _ ____ _ ____
 72
65
 73
4
 40
0.6
 49
0.375
 74
0
 49
-0.075
 74
0
 49
0.075
 74
0
 49
-0.075
 74
0
  0
LTYPE
  5
1F6
100
AcDbSymbolTableRecord
100
AcDbLinetypeTableRecord
  2
HIDDEN
 70
64
  3
- - - - - - - - - - - - - - - - - - - -
 72
65
 73
2
 40
0.2
 49
0.1
 74
0
 49
-0.1
 74
0
  0
LTYPE
  5
1F7
100
AcDbSymbolTableRecord
100
AcDbLinetypeTableRecord
  2
PHANTOM
 70
64
  3
_____ _ _ _____ _ _ _____ _ _ _____
 72
65
 73
6
 40
0.8
 49
0.45
 74
0
 49
-0.05
 74
0
 49
0.1
 74
0
 49
-0.05
 74
0
 49
0.1
 74
0
 49
-0.05
 74
0
  0
LTYPE
  5
1F8
100
AcDbSymbolTableRecord
100
AcDbLinetypeTableRecord
  2
DOT
 70
64
  3
. . . . . . . . . . . . . . . . . . . .
 72
65
 73
2
 40
0.2
 49
0.1
 74
0
 49
-0.1
 74
0
  0
LTYPE
  5
1F9
100
AcDbSymbolTableRecord
100
AcDbLinetypeTableRecord
  2
DASHED
 70
64
  3
- - - - - - - - - - - - - - - - - - - -
 72
65
 73
2
 40
0.2
 49
0.1
 74
0
 49
-0.1
 74
0
  0
ENDTAB
  0
TABLE
  2
LAYER
  5
2
100
AcDbSymbolTable
 70
36
  0
LAYER
  5
10
100
AcDbSymbolTableRecord
100
AcDbLayerTableRecord
  2
0
 70
0
 62
7
  6
CONTINUOUS
370
-3
390
F
  0
LAYER
  5
1FA
100
AcDbSymbolTableRecord
100
AcDbLayerTableRecord
  2
DEFAULT_1
 70
0
 62
7
  6
CENTER
370
-3
390
F
  0
LAYER
  5
1FB
100
AcDbSymbolTableRecord
100
AcDbLayerTableRecord
  2
DEFAULT_2
 70
0
 62
7
  6
HIDDEN
370
-3
390
F
  0
LAYER
  5
1FC
100
AcDbSymbolTableRecord
100
AcDbLayerTableRecord
  2
DEFAULT_3
 70
0
 62
7
  6
PHANTOM
370
-3
390
F
  0
LAYER
  5
1FD
100
AcDbSymbolTableRecord
100
AcDbLayerTableRecord
  2
ASSI
 70
0
 62
7
  6
CONTINUOUS
370
-3
390
F
  0
LAYER
  5
1FE
100
AcDbSymbolTableRecord
100
AcDbLayerTableRecord
  2
COORDINATE
 70
0
 62
7
  6
CONTINUOUS
370
-3
390
F
  0
LAYER
  5
1FF
100
AcDbSymbolTableRecord
100
AcDbLayerTableRecord
  2
COPY_PUBLISH
 70
0
 62
7
  6
CONTINUOUS
370
-3
390
F
  0
LAYER
  5
200
100
AcDbSymbolTableRecord
100
AcDbLayerTableRecord
  2
COSMETICI
 70
0
 62
7
  6
CONTINUOUS
370
-3
390
F
  0
LAYER
  5
201
100
AcDbSymbolTableRecord
100
AcDbLayerTableRecord
  2
CURVE
 70
0
 62
7
  6
CONTINUOUS
370
-3
390
F
  0
LAYER
  5
202
100
AcDbSymbolTableRecord
100
AcDbLayerTableRecord
  2
DRAFT
 70
0
 62
7
  6
CONTINUOUS
370
-3
390
F
  0
LAYER
  5
203
100
AcDbSymbolTableRecord
100
AcDbLayerTableRecord
  2
IMPORT_IGES
 70
0
 62
7
  6
CONTINUOUS
370
-3
390
F
  0
LAYER
  5
204
100
AcDbSymbolTableRecord
100
AcDbLayerTableRecord
  2
INTF_1
 70
0
 62
7
  6
CONTINUOUS
370
-3
390
F
  0
LAYER
  5
205
100
AcDbSymbolTableRecord
100
AcDbLayerTableRecord
  2
NOTE
 70
0
 62
7
  6
CONTINUOUS
370
-3
390
F
  0
LAYER
  5
206
100
AcDbSymbolTableRecord
100
AcDbLayerTableRecord
  2
PIANI
 70
0
 62
7
  6
CONTINUOUS
370
-3
390
F
  0
LAYER
  5
207
100
AcDbSymbolTableRecord
100
AcDbLayerTableRecord
  2
PUNTI
 70
0
 62
7
  6
CONTINUOUS
370
-3
390
F
  0
LAYER
  5
208
100
AcDbSymbolTableRecord
100
AcDbLayerTableRecord
  2
RACCORDO
 70
0
 62
7
  6
CONTINUOUS
370
-3
390
F
  0
LAYER
  5
209
100
AcDbSymbolTableRecord
100
AcDbLayerTableRecord
  2
SIMBOLI
 70
0
 62
7
  6
CONTINUOUS
370
-3
390
F
  0
LAYER
  5
20A
100
AcDbSymbolTableRecord
100
AcDbLayerTableRecord
  2
SMUSSO
 70
0
 62
7
  6
CONTINUOUS
370
-3
390
F
  0
LAYER
  5
20B
100
AcDbSymbolTableRecord
100
AcDbLayerTableRecord
  2
SNAPLINE
 70
0
 62
7
  6
CONTINUOUS
370
-3
390
F
  0
LAYER
  5
20C
100
AcDbSymbolTableRecord
100
AcDbLayerTableRecord
  2
SUPERFICI
 70
0
 62
7
  6
CONTINUOUS
370
-3
390
F
  0
LAYER
  5
20D
100
AcDbSymbolTableRecord
100
AcDbLayerTableRecord
  2
TRASH
 70
0
 62
7
  6
CONTINUOUS
370
-3
390
F
  0
ENDTAB
  0
TABLE
  2
STYLE
  5
3
100
AcDbSymbolTable
 70
1
  0
STYLE
  5
11
100
AcDbSymbolTableRecord
100
AcDbTextStyleTableRecord
  2
STANDARD
 70
0
 40
0.0
 41
0.8
 50
0.0
 71
0
 42
0.2
  3
txt
  4

  0
STYLE
  5
20E
100
AcDbSymbolTableRecord
100
AcDbTextStyleTableRecord
  2
TEXTSTYLE_1
 70
0
 40
0.0
 41
0.8
 50
0.0
 71
0
 42
0.2
  3
gdt
  4

  0
ENDTAB
  0
TABLE
  2
VIEW
  5
6
100
AcDbSymbolTable
 70
0
  0
ENDTAB
  0
TABLE
  2
UCS
  5
7
100
AcDbSymbolTable
 70
0
  0
ENDTAB
  0
TABLE
  2
APPID
  5
9
100
AcDbSymbolTable
 70
1
  0
APPID
  5
20F
100
AcDbSymbolTableRecord
100
AcDbRegAppTableRecord
  2
ACAD
 70
0
  0
ENDTAB
  0
TABLE
  2
BLOCK_RECORD
  5
1
100
AcDbSymbolTable
 70
0
  0
BLOCK_RECORD
  5
210
100
AcDbSymbolTableRecord
100
AcDbBlockTableRecord
  2
*Model_Space
  0
BLOCK_RECORD
  5
211
100
AcDbSymbolTableRecord
100
AcDbBlockTableRecord
  2
*Paper_Space
  0
BLOCK_RECORD
  5
212
100
AcDbSymbolTableRecord
100
AcDbBlockTableRecord
  2
_FILLED
  0
BLOCK_RECORD
  5
213
100
AcDbSymbolTableRecord
100
AcDbBlockTableRecord
  2
*D0
  0
BLOCK_RECORD
  5
214
100
AcDbSymbolTableRecord
100
AcDbBlockTableRecord
  2
*D1
  0
BLOCK_RECORD
  5
215
100
AcDbSymbolTableRecord
100
AcDbBlockTableRecord
  2
*D2
  0
BLOCK_RECORD
  5
216
100
AcDbSymbolTableRecord
100
AcDbBlockTableRecord
  2
*D3
  0
BLOCK_RECORD
  5
217
100
AcDbSymbolTableRecord
100
AcDbBlockTableRecord
  2
*D4
  0
BLOCK_RECORD
  5
218
100
AcDbSymbolTableRecord
100
AcDbBlockTableRecord
  2
*D5
  0
BLOCK_RECORD
  5
219
100
AcDbSymbolTableRecord
100
AcDbBlockTableRecord
  2
*D6
  0
BLOCK_RECORD
  5
21A
100
AcDbSymbolTableRecord
100
AcDbBlockTableRecord
  2
*D7
  0
BLOCK_RECORD
  5
21B
100
AcDbSymbolTableRecord
100
AcDbBlockTableRecord
  2
*D8
  0
BLOCK_RECORD
  5
21C
100
AcDbSymbolTableRecord
100
AcDbBlockTableRecord
  2
*D9
  0
BLOCK_RECORD
  5
21D
100
AcDbSymbolTableRecord
100
AcDbBlockTableRecord
  2
*D10
  0
BLOCK_RECORD
  5
21E
100
AcDbSymbolTableRecord
100
AcDbBlockTableRecord
  2
*D11
  0
BLOCK_RECORD
  5
21F
100
AcDbSymbolTableRecord
100
AcDbBlockTableRecord
  2
*D12
  0
ENDTAB
  0
TABLE
  2
DIMSTYLE
  5
A
100
AcDbSymbolTable
 70
1
100
AcDbDimStyleTable
 71
0
  0
DIMSTYLE
105
220
100
AcDbSymbolTableRecord
100
AcDbDimStyleTableRecord
  2
STANDARD
 70
0
  3

  4

 40
1.0
 41
3.0
 42
0.5
 43
0.38
 44
1.5
 45
0.0
 46
0.0
 47
0.01
 48
0.01
140
3.0
141
0.09
142
0.0
143
25.4
144
1.0
145
0.0
146
1.0
147
0.625
 71
1.0
 72
0.0
 73
0
 74
0
 75
0
 76
0
 77
1
 78
8
170
0
171
1
172
0
173
0
174
0
175
0
176
0
177
0
178
0
270
2
271
2
272
2
273
2
274
2
275
0
280
0
281
0
282
0
283
1
284
8
285
0
286
0
287
3
288
0
340
11
278
44
341
212
342
212
343
212
344
212
  0
DIMSTYLE
105
221
100
AcDbSymbolTableRecord
100
AcDbDimStyleTableRecord
  2
DIMSTYLE_1
 70
0
  3

  4

 40
1.0
 41
3.0
 42
0.5
 43
0.38
 44
1.5
 45
0.0
 46
0.0
 47
0.0
 48
0.0
140
3.0
141
0.09
142
0.0
143
25.4
144
1.0
145
0.0
146
1.0
147
0.75
 71
0.0
 72
0.0
 73
0
 74
0
 75
0
 76
0
 77
1
 78
8
170
0
171
1
172
0
173
0
174
0
175
0
176
0
177
0
178
0
270
2
271
2
272
2
273
2
274
2
275
0
280
0
281
0
282
0
283
1
284
8
285
0
286
0
287
3
288
0
340
11
278
44
341
212
342
212
343
212
344
212
  0
DIMSTYLE
105
222
100
AcDbSymbolTableRecord
100
AcDbDimStyleTableRecord
  2
DIMSTYLE_2
 70
0
  3

  4

 40
1.0
 41
3.0
 42
0.5
 43
0.38
 44
1.5
 45
0.0
 46
0.0
 47
0.0
 48
0.0
140
3.0
141
0.09
142
0.0
143
25.4
144
1.0
145
0.0
146
1.0
147
0.75
 71
0.0
 72
0.0
 73
0
 74
0
 75
0
 76
0
 77
1
 78
8
170
0
171
1
172
0
173
0
174
0
175
0
176
0
177
0
178
0
270
2
271
1
272
1
273
2
274
2
275
0
280
0
281
0
282
0
283
1
284
8
285
0
286
0
287
3
288
0
340
11
278
44
341
212
342
212
343
212
344
212
  0
ENDTAB
  0
ENDSEC
  0
SECTION
  2
BLOCKS
  0
BLOCK
  5
20
100
AcDbEntity
  8
0
100
AcDbBlockBegin
  2
*Model_Space
 70
0
 10
0.0
 20
0.0
 30
0.0
  3
*Model_Space
  1

  0
ENDBLK
  5
21
100
AcDbEntity
  8
0
100
AcDbBlockEnd
  0
BLOCK
  5
1C
100
AcDbEntity
  8
0
100
AcDbBlockBegin
  2
*Paper_Space
 70
0
 10
0.0
 20
0.0
 30
0.0
  3
*Paper_Space
  1

  0
ENDBLK
  5
1D
100
AcDbEntity
  8
0
100
AcDbBlockEnd
  0
BLOCK
  5
223
100
AcDbEntity
  8
0
100
AcDbBlockBegin
  2
_FILLED
 70
64
 10
0.0
 20
0.0
  3
_FILLED
  1

  0
SOLID
  5
224
100
AcDbEntity
  8
0
  6
BYBLOCK
 62
0
100
AcDbTrace
 10
0.0
 20
0.0
 11
-1.0
 21
0.3166666667
 12
-1.0
 22
-0.3166666667
 13
-1.0
 23
-0.3166666667
  0
ENDBLK
  5
225
100
AcDbEntity
  8
0
  6
BYBLOCK
 62
0
100
AcDbBlockEnd
  0
BLOCK
  5
226
100
AcDbEntity
  8
0
100
AcDbBlockBegin
 62
7
  6
CONTINUOUS
  2
*D0
 70
65
 10
0.0
 20
0.0
  3
*D0
  1

  0
MTEXT
  5
227
100
AcDbEntity
  8
0
100
AcDbMText
 62
7
  6
CONTINUOUS
  7
STANDARD
 71
2
 72
1
 10
174.8281141663
 20
158.4063663798
 30
0.0
 11
1.0
 21
0.0
 31
0.0
 44
0.9
  1
39
 40
3.0
 41
6.75
  0
LINE
  5
228
100
AcDbEntity
  8
0
100
AcDbLine
 62
7
  6
CONTINUOUS
 10
194.3281141663
 20
145.7611882775
 11
194.3281141663
 21
156.1563663798
  0
LINE
  5
229
100
AcDbEntity
  8
0
100
AcDbLine
 62
7
  6
CONTINUOUS
 10
155.3281141663
 20
143.3676798538
 11
155.3281141663
 21
156.1563663798
  0
LINE
  5
22A
100
AcDbEntity
  8
0
100
AcDbLine
 62
7
  6
CONTINUOUS
 10
194.3281141663
 20
154.6563663798
 11
174.8281141663
 21
154.6563663798
  0
LINE
  5
22B
100
AcDbEntity
  8
0
100
AcDbLine
 62
7
  6
CONTINUOUS
 10
155.3281141663
 20
154.6563663798
 11
174.8281141663
 21
154.6563663798
  0
INSERT
  5
22C
100
AcDbEntity
  8
0
100
AcDbBlockReference
 62
7
  6
CONTINUOUS
  2
_FILLED
 10
194.3281141663
 20
154.6563663798
 41
3.0
 42
3.0
 43
3.0
  0
INSERT
  5
22D
100
AcDbEntity
  8
0
100
AcDbBlockReference
 62
7
  6
CONTINUOUS
  2
_FILLED
 10
155.3281141663
 20
154.6563663798
 41
3.0
 42
3.0
 43
3.0
 50
180.0
  0
ENDBLK
  5
22E
100
AcDbEntity
  8
0
  6
BYBLOCK
 62
0
100
AcDbBlockEnd
  0
BLOCK
  5
22F
100
AcDbEntity
  8
0
100
AcDbBlockBegin
 62
7
  6
CONTINUOUS
  2
*D1
 70
65
 10
0.0
 20
0.0
  3
*D1
  1

  0
MTEXT
  5
230
100
AcDbEntity
  8
0
100
AcDbMText
 62
7
  6
CONTINUOUS
  7
STANDARD
 71
2
 72
1
 10
173.3281141663
 20
167.4063663798
 30
0.0
 11
1.0
 21
0.0
 31
0.0
 44
0.9
  1
42
 40
3.0
 41
7.0714285714
  0
LINE
  5
231
100
AcDbEntity
  8
0
100
AcDbLine
 62
7
  6
CONTINUOUS
 10
194.3281141663
 20
146.0975295152
 11
194.3281141663
 21
165.1563663798
  0
LINE
  5
232
100
AcDbEntity
  8
0
100
AcDbLine
 62
7
  6
CONTINUOUS
 10
152.3281141663
 20
138.974273441
 11
152.3281141663
 21
165.1563663798
  0
LINE
  5
233
100
AcDbEntity
  8
0
100
AcDbLine
 62
7
  6
CONTINUOUS
 10
194.3281141663
 20
163.6563663798
 11
173.3281141663
 21
163.6563663798
  0
LINE
  5
234
100
AcDbEntity
  8
0
100
AcDbLine
 62
7
  6
CONTINUOUS
 10
152.3281141663
 20
163.6563663798
 11
173.3281141663
 21
163.6563663798
  0
INSERT
  5
235
100
AcDbEntity
  8
0
100
AcDbBlockReference
 62
7
  6
CONTINUOUS
  2
_FILLED
 10
194.3281141663
 20
163.6563663798
 41
3.0
 42
3.0
 43
3.0
  0
INSERT
  5
236
100
AcDbEntity
  8
0
100
AcDbBlockReference
 62
7
  6
CONTINUOUS
  2
_FILLED
 10
152.3281141663
 20
163.6563663798
 41
3.0
 42
3.0
 43
3.0
 50
180.0
  0
ENDBLK
  5
237
100
AcDbEntity
  8
0
  6
BYBLOCK
 62
0
100
AcDbBlockEnd
  0
BLOCK
  5
238
100
AcDbEntity
  8
0
100
AcDbBlockBegin
 62
7
  6
CONTINUOUS
  2
*D2
 70
65
 10
0.0
 20
0.0
  3
*D2
  1

  0
MTEXT
  5
239
100
AcDbEntity
  8
0
100
AcDbMText
 62
7
  6
CONTINUOUS
  7
STANDARD
 71
2
 72
1
 10
0.0
 20
158.4063663798
 30
0.0
 11
1.0
 21
0.0
 31
0.0
 44
0.9
  1
100
 40
3.0
 41
9.6428571429
  0
LINE
  5
23A
100
AcDbEntity
  8
0
100
AcDbLine
 62
7
  6
CONTINUOUS
 10
-50.0
 20
111.5936336202
 11
-50.0
 21
156.1563663798
  0
LINE
  5
23B
100
AcDbEntity
  8
0
100
AcDbLine
 62
7
  6
CONTINUOUS
 10
50.0
 20
111.5936336202
 11
50.0
 21
156.1563663798
  0
LINE
  5
23C
100
AcDbEntity
  8
0
100
AcDbLine
 62
7
  6
CONTINUOUS
 10
-50.0
 20
154.6563663798
 11
0.0
 21
154.6563663798
  0
LINE
  5
23D
100
AcDbEntity
  8
0
100
AcDbLine
 62
7
  6
CONTINUOUS
 10
50.0
 20
154.6563663798
 11
0.0
 21
154.6563663798
  0
INSERT
  5
23E
100
AcDbEntity
  8
0
100
AcDbBlockReference
 62
7
  6
CONTINUOUS
  2
_FILLED
 10
-50.0
 20
154.6563663798
 41
3.0
 42
3.0
 43
3.0
 50
180.0
  0
INSERT
  5
23F
100
AcDbEntity
  8
0
100
AcDbBlockReference
 62
7
  6
CONTINUOUS
  2
_FILLED
 10
50.0
 20
154.6563663798
 41
3.0
 42
3.0
 43
3.0
  0
ENDBLK
  5
240
100
AcDbEntity
  8
0
  6
BYBLOCK
 62
0
100
AcDbBlockEnd
  0
BLOCK
  5
241
100
AcDbEntity
  8
0
100
AcDbBlockBegin
 62
7
  6
CONTINUOUS
  2
*D3
 70
65
 10
0.0
 20
0.0
  3
*D3
  1

  0
MTEXT
  5
242
100
AcDbEntity
  8
0
100
AcDbMText
 62
7
  6
CONTINUOUS
  7
STANDARD
 71
2
 72
1
 10
-50.0
 20
-150.9063663798
 30
0.0
 11
1.0
 21
0.0
 31
0.0
 44
0.9
  1
50,5
 40
3.0
 41
12.5357142857
  0
LINE
  5
243
100
AcDbEntity
  8
0
100
AcDbLine
 62
7
  6
CONTINUOUS
 10
-75.25
 20
-129.0907592476
 11
-75.25
 21
-156.1563663798
  0
LINE
  5
244
100
AcDbEntity
  8
0
100
AcDbLine
 62
7
  6
CONTINUOUS
 10
-24.75
 20
-128.8976470053
 11
-24.75
 21
-156.1563663798
  0
LINE
  5
245
100
AcDbEntity
  8
0
100
AcDbLine
 62
7
  6
CONTINUOUS
 10
-75.25
 20
-154.6563663798
 11
-50.0
 21
-154.6563663798
  0
LINE
  5
246
100
AcDbEntity
  8
0
100
AcDbLine
 62
7
  6
CONTINUOUS
 10
-24.75
 20
-154.6563663798
 11
-50.0
 21
-154.6563663798
  0
INSERT
  5
247
100
AcDbEntity
  8
0
100
AcDbBlockReference
 62
7
  6
CONTINUOUS
  2
_FILLED
 10
-75.25
 20
-154.6563663798
 41
3.0
 42
3.0
 43
3.0
 50
180.0
  0
INSERT
  5
248
100
AcDbEntity
  8
0
100
AcDbBlockReference
 62
7
  6
CONTINUOUS
  2
_FILLED
 10
-24.75
 20
-154.6563663798
 41
3.0
 42
3.0
 43
3.0
  0
ENDBLK
  5
249
100
AcDbEntity
  8
0
  6
BYBLOCK
 62
0
100
AcDbBlockEnd
  0
BLOCK
  5
24A
100
AcDbEntity
  8
0
100
AcDbBlockBegin
 62
7
  6
CONTINUOUS
  2
*D4
 70
65
 10
0.0
 20
0.0
  3
*D4
  1

  0
MTEXT
  5
24B
100
AcDbEntity
  8
0
100
AcDbMText
 62
7
  6
CONTINUOUS
  7
STANDARD
 71
2
 72
1
 10
-134.0627327596
 20
-4.9063663798
 30
0.0
 11
0.0
 21
1.0
 31
0.0
 44
0.9
  1
245
 40
3.0
 41
10.2857142857
  0
LINE
  5
24C
100
AcDbEntity
  8
0
100
AcDbLine
 62
7
  6
CONTINUOUS
 10
-53.25
 20
-127.4063663798
 11
-131.8127327596
 21
-127.4063663798
  0
LINE
  5
24D
100
AcDbEntity
  8
0
100
AcDbLine
 62
7
  6
CONTINUOUS
 10
-51.75
 20
117.5936336202
 11
-131.8127327596
 21
117.5936336202
  0
LINE
  5
24E
100
AcDbEntity
  8
0
100
AcDbLine
 62
7
  6
CONTINUOUS
 10
-130.3127327596
 20
-127.4063663798
 11
-130.3127327596
 21
-4.9063663798
  0
LINE
  5
24F
100
AcDbEntity
  8
0
100
AcDbLine
 62
7
  6
CONTINUOUS
 10
-130.3127327596
 20
117.5936336202
 11
-130.3127327596
 21
-4.9063663798
  0
INSERT
  5
250
100
AcDbEntity
  8
0
100
AcDbBlockReference
 62
7
  6
CONTINUOUS
  2
_FILLED
 10
-130.3127327596
 20
-127.4063663798
 41
3.0
 42
3.0
 43
3.0
 50
270.0
  0
INSERT
  5
251
100
AcDbEntity
  8
0
100
AcDbBlockReference
 62
7
  6
CONTINUOUS
  2
_FILLED
 10
-130.3127327596
 20
117.5936336202
 41
3.0
 42
3.0
 43
3.0
 50
90.0
  0
ENDBLK
  5
252
100
AcDbEntity
  8
0
  6
BYBLOCK
 62
0
100
AcDbBlockEnd
  0
BLOCK
  5
253
100
AcDbEntity
  8
0
100
AcDbBlockBegin
 62
7
  6
CONTINUOUS
  2
*D5
 70
65
 10
0.0
 20
0.0
  3
*D5
  1

  0
MTEXT
  5
254
100
AcDbEntity
  8
0
100
AcDbMText
 62
7
  6
CONTINUOUS
  7
STANDARD
 71
2
 72
1
 10
-134.0627327596
 20
-136.0313663798
 30
0.0
 11
0.0
 21
1.0
 31
0.0
 44
0.9
  1
17,3
 40
3.0
 41
11.8928571429
  0
LINE
  5
255
100
AcDbEntity
  8
0
100
AcDbLine
 62
7
  6
CONTINUOUS
 10
-111.0855028267
 20
-144.6563663798
 11
-131.8127327596
 21
-144.6563663798
  0
LINE
  5
256
100
AcDbEntity
  8
0
100
AcDbLine
 62
7
  6
CONTINUOUS
 10
-53.25
 20
-127.4063663798
 11
-131.8127327596
 21
-127.4063663798
  0
LINE
  5
257
100
AcDbEntity
  8
0
100
AcDbLine
 62
7
  6
CONTINUOUS
 10
-130.3127327596
 20
-144.6563663798
 11
-130.3127327596
 21
-136.0313663798
  0
LINE
  5
258
100
AcDbEntity
  8
0
100
AcDbLine
 62
7
  6
CONTINUOUS
 10
-130.3127327596
 20
-127.4063663798
 11
-130.3127327596
 21
-136.0313663798
  0
INSERT
  5
259
100
AcDbEntity
  8
0
100
AcDbBlockReference
 62
7
  6
CONTINUOUS
  2
_FILLED
 10
-130.3127327596
 20
-144.6563663798
 41
3.0
 42
3.0
 43
3.0
 50
270.0
  0
INSERT
  5
25A
100
AcDbEntity
  8
0
100
AcDbBlockReference
 62
7
  6
CONTINUOUS
  2
_FILLED
 10
-130.3127327596
 20
-127.4063663798
 41
3.0
 42
3.0
 43
3.0
 50
90.0
  0
ENDBLK
  5
25B
100
AcDbEntity
  8
0
  6
BYBLOCK
 62
0
100
AcDbBlockEnd
  0
BLOCK
  5
25C
100
AcDbEntity
  8
0
100
AcDbBlockBegin
 62
7
  6
CONTINUOUS
  2
*D6
 70
65
 10
0.0
 20
0.0
  3
*D6
  1

  0
MTEXT
  5
25D
100
AcDbEntity
  8
0
100
AcDbMText
 62
7
  6
CONTINUOUS
  7
STANDARD
 71
2
 72
1
 10
-125.0627327596
 20
-4.6563663798
 30
0.0
 11
0.0
 21
1.0
 31
0.0
 44
0.9
  1
231,5
 40
3.0
 41
15.1071428571
  0
LINE
  5
25E
100
AcDbEntity
  8
0
100
AcDbLine
 62
7
  6
CONTINUOUS
 10
-89.5
 20
-120.4063663798
 11
-122.8127327596
 21
-120.4063663798
  0
LINE
  5
25F
100
AcDbEntity
  8
0
100
AcDbLine
 62
7
  6
CONTINUOUS
 10
-68.77361344
 20
111.0936336202
 11
-122.8127327596
 21
111.0936336202
  0
LINE
  5
260
100
AcDbEntity
  8
0
100
AcDbLine
 62
7
  6
CONTINUOUS
 10
-121.3127327596
 20
-120.4063663798
 11
-121.3127327596
 21
-4.6563663798
  0
LINE
  5
261
100
AcDbEntity
  8
0
100
AcDbLine
 62
7
  6
CONTINUOUS
 10
-121.3127327596
 20
111.0936336202
 11
-121.3127327596
 21
-4.6563663798
  0
INSERT
  5
262
100
AcDbEntity
  8
0
100
AcDbBlockReference
 62
7
  6
CONTINUOUS
  2
_FILLED
 10
-121.3127327596
 20
-120.4063663798
 41
3.0
 42
3.0
 43
3.0
 50
270.0
  0
INSERT
  5
263
100
AcDbEntity
  8
0
100
AcDbBlockReference
 62
7
  6
CONTINUOUS
  2
_FILLED
 10
-121.3127327596
 20
111.0936336202
 41
3.0
 42
3.0
 43
3.0
 50
90.0
  0
ENDBLK
  5
264
100
AcDbEntity
  8
0
  6
BYBLOCK
 62
0
100
AcDbBlockEnd
  0
BLOCK
  5
265
100
AcDbEntity
  8
0
100
AcDbBlockBegin
 62
7
  6
CONTINUOUS
  2
*D7
 70
65
 10
0.0
 20
0.0
  3
*D7
  1

  0
MTEXT
  5
266
100
AcDbEntity
  8
0
100
AcDbMText
 62
7
  6
CONTINUOUS
  7
STANDARD
 71
2
 72
1
 10
-125.0627327596
 20
-132.5313663798
 30
0.0
 11
0.0
 21
1.0
 31
0.0
 44
0.9
  1
24,3
 40
3.0
 41
12.8571428571
  0
LINE
  5
267
100
AcDbEntity
  8
0
100
AcDbLine
 62
7
  6
CONTINUOUS
 10
-89.5
 20
-120.4063663798
 11
-122.8127327596
 21
-120.4063663798
  0
LINE
  5
268
100
AcDbEntity
  8
0
100
AcDbLine
 62
7
  6
CONTINUOUS
 10
-110.9305167843
 20
-144.6563663798
 11
-122.8127327596
 21
-144.6563663798
  0
LINE
  5
269
100
AcDbEntity
  8
0
100
AcDbLine
 62
7
  6
CONTINUOUS
 10
-121.3127327596
 20
-120.4063663798
 11
-121.3127327596
 21
-132.5313663798
  0
LINE
  5
26A
100
AcDbEntity
  8
0
100
AcDbLine
 62
7
  6
CONTINUOUS
 10
-121.3127327596
 20
-144.6563663798
 11
-121.3127327596
 21
-132.5313663798
  0
INSERT
  5
26B
100
AcDbEntity
  8
0
100
AcDbBlockReference
 62
7
  6
CONTINUOUS
  2
_FILLED
 10
-121.3127327596
 20
-120.4063663798
 41
3.0
 42
3.0
 43
3.0
 50
90.0
  0
INSERT
  5
26C
100
AcDbEntity
  8
0
100
AcDbBlockReference
 62
7
  6
CONTINUOUS
  2
_FILLED
 10
-121.3127327596
 20
-144.6563663798
 41
3.0
 42
3.0
 43
3.0
 50
270.0
  0
ENDBLK
  5
26D
100
AcDbEntity
  8
0
  6
BYBLOCK
 62
0
100
AcDbBlockEnd
  0
BLOCK
  5
26E
100
AcDbEntity
  8
0
100
AcDbBlockBegin
 62
7
  6
CONTINUOUS
  2
*D8
 70
65
 10
0.0
 20
0.0
  3
*D8
  1

  0
MTEXT
  5
26F
100
AcDbEntity
  8
0
100
AcDbMText
 62
7
  6
CONTINUOUS
  7
STANDARD
 71
2
 72
1
 10
-50.0
 20
-159.9063663798
 30
0.0
 11
1.0
 21
0.0
 31
0.0
 44
0.9
  1
80
 40
3.0
 41
7.0714285714
  0
LINE
  5
270
100
AcDbEntity
  8
0
100
AcDbLine
 62
7
  6
CONTINUOUS
 10
-90.0
 20
-119.9063663798
 11
-90.0
 21
-165.1563663798
  0
LINE
  5
271
100
AcDbEntity
  8
0
100
AcDbLine
 62
7
  6
CONTINUOUS
 10
-10.0
 20
-119.9063663798
 11
-10.0
 21
-165.1563663798
  0
LINE
  5
272
100
AcDbEntity
  8
0
100
AcDbLine
 62
7
  6
CONTINUOUS
 10
-90.0
 20
-163.6563663798
 11
-50.0
 21
-163.6563663798
  0
LINE
  5
273
100
AcDbEntity
  8
0
100
AcDbLine
 62
7
  6
CONTINUOUS
 10
-10.0
 20
-163.6563663798
 11
-50.0
 21
-163.6563663798
  0
INSERT
  5
274
100
AcDbEntity
  8
0
100
AcDbBlockReference
 62
7
  6
CONTINUOUS
  2
_FILLED
 10
-90.0
 20
-163.6563663798
 41
3.0
 42
3.0
 43
3.0
 50
180.0
  0
INSERT
  5
275
100
AcDbEntity
  8
0
100
AcDbBlockReference
 62
7
  6
CONTINUOUS
  2
_FILLED
 10
-10.0
 20
-163.6563663798
 41
3.0
 42
3.0
 43
3.0
  0
ENDBLK
  5
276
100
AcDbEntity
  8
0
  6
BYBLOCK
 62
0
100
AcDbBlockEnd
  0
BLOCK
  5
277
100
AcDbEntity
  8
0
100
AcDbBlockBegin
 62
7
  6
CONTINUOUS
  2
*D9
 70
65
 10
0.0
 20
0.0
  3
*D9
  1

  0
MTEXT
  5
278
100
AcDbEntity
  8
0
100
AcDbMText
 62
7
  6
CONTINUOUS
  7
STANDARD
 71
2
 72
1
 10
-143.0627327596
 20
-0.6563663798
 30
0.0
 11
0.0
 21
1.0
 31
0.0
 44
0.9
  1
288
 40
3.0
 41
10.6071428571
  0
LINE
  5
279
100
AcDbEntity
  8
0
100
AcDbLine
 62
7
  6
CONTINUOUS
 10
-110.9649581271
 20
-144.6563663798
 11
-140.8127327596
 21
-144.6563663798
  0
LINE
  5
27A
100
AcDbEntity
  8
0
100
AcDbLine
 62
7
  6
CONTINUOUS
 10
-111.802680832
 20
143.3436336202
 11
-140.8127327596
 21
143.3436336202
  0
LINE
  5
27B
100
AcDbEntity
  8
0
100
AcDbLine
 62
7
  6
CONTINUOUS
 10
-139.3127327596
 20
-144.6563663798
 11
-139.3127327596
 21
-0.6563663798
  0
LINE
  5
27C
100
AcDbEntity
  8
0
100
AcDbLine
 62
7
  6
CONTINUOUS
 10
-139.3127327596
 20
143.3436336202
 11
-139.3127327596
 21
-0.6563663798
  0
INSERT
  5
27D
100
AcDbEntity
  8
0
100
AcDbBlockReference
 62
7
  6
CONTINUOUS
  2
_FILLED
 10
-139.3127327596
 20
-144.6563663798
 41
3.0
 42
3.0
 43
3.0
 50
270.0
  0
INSERT
  5
27E
100
AcDbEntity
  8
0
100
AcDbBlockReference
 62
7
  6
CONTINUOUS
  2
_FILLED
 10
-139.3127327596
 20
143.3436336202
 41
3.0
 42
3.0
 43
3.0
 50
90.0
  0
ENDBLK
  5
27F
100
AcDbEntity
  8
0
  6
BYBLOCK
 62
0
100
AcDbBlockEnd
  0
BLOCK
  5
280
100
AcDbEntity
  8
0
100
AcDbBlockBegin
 62
7
  6
CONTINUOUS
  2
*D10
 70
65
 10
0.0
 20
0.0
  3
*D10
  1

  0
MTEXT
  5
281
100
AcDbEntity
  8
0
100
AcDbMText
 62
7
  6
CONTINUOUS
  7
STANDARD
 71
2
 72
1
 10
0.0
 20
167.4063663798
 30
0.0
 11
1.0
 21
0.0
 31
0.0
 44
0.9
  1
220
 40
3.0
 41
10.6071428571
  0
LINE
  5
282
100
AcDbEntity
  8
0
100
AcDbLine
 62
7
  6
CONTINUOUS
 10
-110.0
 20
143.2406736202
 11
-110.0
 21
165.1563663798
  0
LINE
  5
283
100
AcDbEntity
  8
0
100
AcDbLine
 62
7
  6
CONTINUOUS
 10
110.0
 20
144.2414448202
 11
110.0
 21
165.1563663798
  0
LINE
  5
284
100
AcDbEntity
  8
0
100
AcDbLine
 62
7
  6
CONTINUOUS
 10
-110.0
 20
163.6563663798
 11
0.0
 21
163.6563663798
  0
LINE
  5
285
100
AcDbEntity
  8
0
100
AcDbLine
 62
7
  6
CONTINUOUS
 10
110.0
 20
163.6563663798
 11
0.0
 21
163.6563663798
  0
INSERT
  5
286
100
AcDbEntity
  8
0
100
AcDbBlockReference
 62
7
  6
CONTINUOUS
  2
_FILLED
 10
-110.0
 20
163.6563663798
 41
3.0
 42
3.0
 43
3.0
 50
180.0
  0
INSERT
  5
287
100
AcDbEntity
  8
0
100
AcDbBlockReference
 62
7
  6
CONTINUOUS
  2
_FILLED
 10
110.0
 20
163.6563663798
 41
3.0
 42
3.0
 43
3.0
 50
360.0
  0
ENDBLK
  5
288
100
AcDbEntity
  8
0
  6
BYBLOCK
 62
0
100
AcDbBlockEnd
  0
BLOCK
  5
289
100
AcDbEntity
  8
0
100
AcDbBlockBegin
 62
7
  6
CONTINUOUS
  2
*D11
 70
65
 10
0.0
 20
0.0
  3
*D11
  1

  0
MTEXT
  5
28A
100
AcDbEntity
  8
0
100
AcDbMText
 62
7
  6
CONTINUOUS
  7
STANDARD
 71
1
 72
1
 10
58.0000297
 20
-150.9063663798
 30
0.0
 11
1.0
 21
0.0
 31
0.0
 44
0.9
  1
5,5
 40
3.0
 41
9.0
  0
LINE
  5
28B
100
AcDbEntity
  8
0
100
AcDbLine
 62
7
  6
CONTINUOUS
 10
47.25
 20
-131.1071455588
 11
47.25
 21
-156.1563663798
  0
LINE
  5
28C
100
AcDbEntity
  8
0
100
AcDbLine
 62
7
  6
CONTINUOUS
 10
52.75
 20
-131.1071455588
 11
52.75
 21
-156.1563663798
  0
LINE
  5
28D
100
AcDbEntity
  8
0
100
AcDbLine
 62
7
  6
CONTINUOUS
 10
47.25
 20
-154.6563663798
 11
43.25
 21
-154.6563663798
  0
LINE
  5
28E
100
AcDbEntity
  8
0
100
AcDbLine
 62
7
  6
CONTINUOUS
 10
43.25
 20
-154.6563663798
 11
50.0
 21
-154.6563663798
  0
LINE
  5
28F
100
AcDbEntity
  8
0
100
AcDbLine
 62
7
  6
CONTINUOUS
 10
52.75
 20
-154.6563663798
 11
64.0000297
 21
-154.6563663798
  0
LINE
  5
290
100
AcDbEntity
  8
0
100
AcDbLine
 62
7
  6
CONTINUOUS
 10
64.0000297
 20
-154.6563663798
 11
50.0
 21
-154.6563663798
  0
INSERT
  5
291
100
AcDbEntity
  8
0
100
AcDbBlockReference
 62
7
  6
CONTINUOUS
  2
_FILLED
 10
47.25
 20
-154.6563663798
 41
3.0
 42
3.0
 43
3.0
 50
0.0
  0
INSERT
  5
292
100
AcDbEntity
  8
0
100
AcDbBlockReference
 62
7
  6
CONTINUOUS
  2
_FILLED
 10
52.75
 20
-154.6563663798
 41
3.0
 42
3.0
 43
3.0
 50
180.0
  0
ENDBLK
  5
293
100
AcDbEntity
  8
0
  6
BYBLOCK
 62
0
100
AcDbBlockEnd
  0
BLOCK
  5
294
100
AcDbEntity
  8
0
100
AcDbBlockBegin
 62
7
  6
CONTINUOUS
  2
*D12
 70
65
 10
0.0
 20
0.0
  3
*D12
  1

  0
MTEXT
  5
295
100
AcDbEntity
  8
0
100
AcDbMText
 62
7
  6
CONTINUOUS
  7
STANDARD
 71
1
 72
1
 10
-68.1473271
 20
158.4063663798
 30
0.0
 11
1.0
 21
0.0
 31
0.0
 44
0.9
  1
3,5
 40
3.0
 41
9.0
  0
LINE
  5
296
100
AcDbEntity
  8
0
100
AcDbLine
 62
7
  6
CONTINUOUS
 10
-77.0
 20
120.3421466698
 11
-77.0
 21
156.1563663798
  0
LINE
  5
297
100
AcDbEntity
  8
0
100
AcDbLine
 62
7
  6
CONTINUOUS
 10
-73.5
 20
120.3421466698
 11
-73.5
 21
156.1563663798
  0
LINE
  5
298
100
AcDbEntity
  8
0
100
AcDbLine
 62
7
  6
CONTINUOUS
 10
-77.0
 20
154.6563663798
 11
-81.0
 21
154.6563663798
  0
LINE
  5
299
100
AcDbEntity
  8
0
100
AcDbLine
 62
7
  6
CONTINUOUS
 10
-81.0
 20
154.6563663798
 11
-75.25
 21
154.6563663798
  0
LINE
  5
29A
100
AcDbEntity
  8
0
100
AcDbLine
 62
7
  6
CONTINUOUS
 10
-73.5
 20
154.6563663798
 11
-62.1473271
 21
154.6563663798
  0
LINE
  5
29B
100
AcDbEntity
  8
0
100
AcDbLine
 62
7
  6
CONTINUOUS
 10
-62.1473271
 20
154.6563663798
 11
-75.25
 21
154.6563663798
  0
INSERT
  5
29C
100
AcDbEntity
  8
0
100
AcDbBlockReference
 62
7
  6
CONTINUOUS
  2
_FILLED
 10
-77.0
 20
154.6563663798
 41
3.0
 42
3.0
 43
3.0
  0
INSERT
  5
29D
100
AcDbEntity
  8
0
100
AcDbBlockReference
 62
7
  6
CONTINUOUS
  2
_FILLED
 10
-73.5
 20
154.6563663798
 41
3.0
 42
3.0
 43
3.0
 50
180.0
  0
ENDBLK
  5
29E
100
AcDbEntity
  8
0
  6
BYBLOCK
 62
0
100
AcDbBlockEnd
  0
ENDSEC
  0
SECTION
  2
ENTITIES
  0
DIMENSION
  5
29F
100
AcDbEntity
  8
0
100
AcDbDimension
 62
7
  6
CONTINUOUS
  2
*D0
 10
155.3281141663
 20
154.6563663798
 11
174.3995456543
 21
154.6563663798
 70
160
 71
2
 42
39.0
  3
DIMSTYLE_1
100
AcDbAlignedDimension
 13
194.3281141663
 23
145.2611882775
 14
155.3281141663
 24
142.8676798538
 50
180.0
100
AcDbRotatedDimension
  0
DIMENSION
  5
2A0
100
AcDbEntity
  8
0
100
AcDbDimension
 62
7
  6
CONTINUOUS
  2
*D1
 10
152.3281141663
 20
163.6563663798
 11
172.8995451965
 21
163.6563663798
 70
160
 71
2
 42
42.0
  3
DIMSTYLE_1
100
AcDbAlignedDimension
 13
194.3281141663
 23
145.5975295152
 14
152.3281141663
 24
138.474273441
 50
180.0
100
AcDbRotatedDimension
  0
DIMENSION
  5
2A1
100
AcDbEntity
  8
0
100
AcDbDimension
 62
7
  6
CONTINUOUS
  2
*D2
 10
50.0
 20
154.6563663798
 11
-0.4285714481
 21
154.6563663798
 70
160
 71
2
 42
100.0
  3
DIMSTYLE_1
100
AcDbAlignedDimension
 13
-50.0
 23
111.0936336202
 14
50.0
 24
111.0936336202
100
AcDbRotatedDimension
  0
DIMENSION
  5
2A2
100
AcDbEntity
  8
0
100
AcDbDimension
 62
7
  6
CONTINUOUS
  2
*D3
 10
-24.75
 20
-154.6563663798
 11
-50.4285706329
 21
-154.6563663798
 70
160
 71
2
 42
50.5
  3
DIMSTYLE_1
100
AcDbAlignedDimension
 13
-75.25
 23
-128.5907592476
 14
-24.75
 24
-128.3976470053
100
AcDbRotatedDimension
  0
DIMENSION
  5
2A3
100
AcDbEntity
  8
0
100
AcDbDimension
 62
7
  6
CONTINUOUS
  2
*D4
 10
-130.3127327596
 20
117.5936336202
 11
-130.3127327596
 21
-5.3349378674
 70
160
 71
2
 42
245.0
  3
DIMSTYLE_1
100
AcDbAlignedDimension
 13
-52.75
 23
-127.4063663798
 14
-51.25
 24
117.5936336202
 50
90.0
100
AcDbRotatedDimension
  0
DIMENSION
  5
2A4
100
AcDbEntity
  8
0
100
AcDbDimension
 62
7
  6
CONTINUOUS
  2
*D5
 10
-130.3127327596
 20
-127.4063663798
 11
-130.3127327596
 21
-136.4599364091
 70
160
 71
2
 42
17.25
  3
DIMSTYLE_2
100
AcDbAlignedDimension
 13
-110.5855028267
 23
-144.6563663798
 14
-52.75
 24
-127.4063663798
 50
90.0
100
AcDbRotatedDimension
  0
DIMENSION
  5
2A5
100
AcDbEntity
  8
0
100
AcDbDimension
 62
7
  6
CONTINUOUS
  2
*D6
 10
-121.3127327596
 20
111.0936336202
 11
-121.3127327596
 21
-5.0849352777
 70
160
 71
2
 42
231.5
  3
DIMSTYLE_1
100
AcDbAlignedDimension
 13
-89.0
 23
-120.4063663798
 14
-68.27361344
 24
111.0936336202
 50
90.0
100
AcDbRotatedDimension
  0
DIMENSION
  5
2A6
100
AcDbEntity
  8
0
100
AcDbDimension
 62
7
  6
CONTINUOUS
  2
*D7
 10
-121.3127327596
 20
-144.6563663798
 11
-121.3127327596
 21
-132.9599355066
 70
160
 71
2
 42
24.25
  3
DIMSTYLE_2
100
AcDbAlignedDimension
 13
-89.0
 23
-120.4063663798
 14
-110.4305167843
 24
-144.6563663798
 50
270.0
100
AcDbRotatedDimension
  0
DIMENSION
  5
2A7
100
AcDbEntity
  8
0
100
AcDbDimension
 62
7
  6
CONTINUOUS
  2
*D8
 10
-10.0
 20
-163.6563663798
 11
-50.4285728989
 21
-163.6563663798
 70
160
 71
2
 42
80.0
  3
DIMSTYLE_1
100
AcDbAlignedDimension
 13
-90.0
 23
-119.4063663798
 14
-10.0
 24
-119.4063663798
100
AcDbRotatedDimension
  0
DIMENSION
  5
2A8
100
AcDbEntity
  8
0
100
AcDbDimension
 62
7
  6
CONTINUOUS
  2
*D9
 10
-139.3127327596
 20
143.3436336202
 11
-139.3127327596
 21
-1.0849412287
 70
160
 71
2
 42
288.0
  3
DIMSTYLE_1
100
AcDbAlignedDimension
 13
-110.4649581271
 23
-144.6563663798
 14
-111.302680832
 24
143.3436336202
 50
90.0
100
AcDbRotatedDimension
  0
DIMENSION
  5
2A9
100
AcDbEntity
  8
0
100
AcDbDimension
 62
7
  6
CONTINUOUS
  2
*D10
 10
110.0
 20
163.6563663798
 11
-0.4285715189
 21
163.6563663798
 70
160
 71
2
 42
220.0
  3
DIMSTYLE_1
100
AcDbAlignedDimension
 13
-110.0
 23
142.7406736202
 14
110.0
 24
143.7414448202
 50
360.0
100
AcDbRotatedDimension
  0
DIMENSION
  5
2AA
100
AcDbEntity
  8
0
100
AcDbDimension
 62
7
  6
CONTINUOUS
  2
*D11
 10
52.75
 20
-154.6563663798
 11
60.5714587097
 21
-154.6563663798
 70
160
 71
1
 42
5.5
  3
DIMSTYLE_1
100
AcDbAlignedDimension
 13
47.25
 23
-130.6071455588
 14
52.75
 24
-130.6071455588
100
AcDbRotatedDimension
  0
DIMENSION
  5
2AB
100
AcDbEntity
  8
0
100
AcDbDimension
 62
7
  6
CONTINUOUS
  2
*D12
 10
-73.5
 20
154.6563663798
 11
-65.5758991928
 21
154.6563663798
 70
160
 71
1
 42
3.5
  3
DIMSTYLE_1
100
AcDbAlignedDimension
 13
-77.0
 23
119.8421466698
 14
-73.5
 24
119.8421466698
100
AcDbRotatedDimension
  0
LINE
  5
2AC
100
AcDbEntity
  8
0
100
AcDbLine
 62
7
  6
CONTINUOUS
 10
-110.0
 20
-144.6563663798
 11
-108.5
 21
-144.6563663798
  0
LINE
  5
2AD
100
AcDbEntity
  8
0
100
AcDbLine
 62
7
  6
CONTINUOUS
 10
110.0
 20
-144.6563663798
 11
108.5
 21
-144.6563663798
  0
LINE
  5
2AE
100
AcDbEntity
  8
0
100
AcDbLine
 62
7
  6
CONTINUOUS
 10
-108.5
 20
-144.6563663798
 11
-107.7
 21
-144.6563663798
  0
LINE
  5
2AF
100
AcDbEntity
  8
0
100
AcDbLine
 62
7
  6
CONTINUOUS
 10
-107.7
 20
-144.6563663798
 11
107.7
 21
-144.6563663798
  0
LINE
  5
2B0
100
AcDbEntity
  8
0
100
AcDbLine
 62
7
  6
CONTINUOUS
 10
108.5
 20
-144.6563663798
 11
107.7
 21
-144.6563663798
  0
LINE
  5
2B1
100
AcDbEntity
  8
CURVE
100
AcDbLine
 62
253
  6
CONTINUOUS
 10
-11.998087
 20
-139.1646263798
 11
-6.615202
 21
-139.1646263798
  0
LINE
  5
2B2
100
AcDbEntity
  8
CURVE
100
AcDbLine
 62
253
  6
CONTINUOUS
 10
-6.085098
 20
-139.1646263798
 11
-1.758978
 21
-139.1646263798
  0
LINE
  5
2B3
100
AcDbEntity
  8
CURVE
100
AcDbLine
 62
253
  6
CONTINUOUS
 10
1.797228
 20
-139.1646263798
 11
6.76628
 21
-139.1646263798
  0
LINE
  5
2B4
100
AcDbEntity
  8
CURVE
100
AcDbLine
 62
253
  6
CONTINUOUS
 10
7.233658
 20
-139.1520043798
 11
8.908878
 21
-139.1520043798
  0
LINE
  5
2B5
100
AcDbEntity
  8
CURVE
100
AcDbLine
 62
253
  6
CONTINUOUS
 10
10.865595
 20
-139.1520043798
 11
12.540432
 21
-139.1520043798
  0
LINE
  5
2B6
100
AcDbEntity
  8
CURVE
100
AcDbLine
 62
253
  6
CONTINUOUS
 10
5.172655
 20
-138.1686113798
 11
3.390853
 21
-138.1686113798
  0
LINE
  5
2B7
100
AcDbEntity
  8
CURVE
100
AcDbLine
 62
253
  6
CONTINUOUS
 10
-1.758978
 20
-137.9154793798
 11
-4.577018
 21
-137.9154793798
  0
LINE
  5
2B8
100
AcDbEntity
  8
CURVE
100
AcDbLine
 62
253
  6
CONTINUOUS
 10
-6.615202
 20
-137.9154793798
 11
-10.457497
 21
-137.9154793798
  0
LINE
  5
2B9
100
AcDbEntity
  8
CURVE
100
AcDbLine
 62
253
  6
CONTINUOUS
 10
-10.457497
 20
-137.2909063798
 11
-8.584158
 21
-137.2909063798
  0
LINE
  5
2BA
100
AcDbEntity
  8
CURVE
100
AcDbLine
 62
253
  6
CONTINUOUS
 10
3.390853
 20
-137.0377743798
 11
5.172655
 21
-137.0377743798
  0
LINE
  5
2BB
100
AcDbEntity
  8
CURVE
100
AcDbLine
 62
253
  6
CONTINUOUS
 10
6.76628
 20
-136.0417583798
 11
1.797228
 21
-136.0417583798
  0
LINE
  5
2BC
100
AcDbEntity
  8
CURVE
100
AcDbLine
 62
253
  6
CONTINUOUS
 10
-4.577018
 20
-136.0417583798
 11
-6.085098
 21
-136.0417583798
  0
LINE
  5
2BD
100
AcDbEntity
  8
CURVE
100
AcDbLine
 62
253
  6
CONTINUOUS
 10
-8.584158
 20
-136.0417583798
 11
-10.457497
 21
-136.0417583798
  0
LINE
  5
2BE
100
AcDbEntity
  8
CURVE
100
AcDbLine
 62
253
  6
CONTINUOUS
 10
-10.457497
 20
-135.4171843798
 11
-7.178198
 21
-135.4171843798
  0
LINE
  5
2BF
100
AcDbEntity
  8
CURVE
100
AcDbLine
 62
253
  6
CONTINUOUS
 10
-6.652302
 20
-135.4171843798
 11
-2.640572
 21
-135.4171843798
  0
LINE
  5
2C0
100
AcDbEntity
  8
CURVE
100
AcDbLine
 62
253
  6
CONTINUOUS
 10
1.668718
 20
-135.4171843798
 11
7.455492
 21
-135.4171843798
  0
LINE
  5
2C1
100
AcDbEntity
  8
CURVE
100
AcDbLine
 62
253
  6
CONTINUOUS
 10
6.547507
 20
-134.1680383798
 11
0.888097
 21
-134.1680383798
  0
LINE
  5
2C2
100
AcDbEntity
  8
CURVE
100
AcDbLine
 62
253
  6
CONTINUOUS
 10
-1.859952
 20
-134.1680383798
 11
-6.652302
 21
-134.1680383798
  0
LINE
  5
2C3
100
AcDbEntity
  8
CURVE
100
AcDbLine
 62
253
  6
CONTINUOUS
 10
-7.178198
 20
-134.1680383798
 11
-11.998087
 21
-134.1680383798
  0
LINE
  5
2C4
100
AcDbEntity
  8
CURVE
100
AcDbLine
 62
253
  6
CONTINUOUS
 10
12.540432
 20
-134.1630643798
 11
10.865595
 21
-134.1630643798
  0
LINE
  5
2C5
100
AcDbEntity
  8
CURVE
100
AcDbLine
 62
253
  6
CONTINUOUS
 10
8.908878
 20
-134.1630643798
 11
7.233658
 21
-134.1630643798
  0
LINE
  5
2C6
100
AcDbEntity
  8
0
100
AcDbLine
 62
253
  6
CONTINUOUS
 10
-110.0
 20
-124.6563663798
 11
-108.5
 21
-124.6563663798
  0
LINE
  5
2C7
100
AcDbEntity
  8
0
100
AcDbLine
 62
253
  6
CONTINUOUS
 10
110.0
 20
-124.6563663798
 11
108.5
 21
-124.6563663798
  0
LINE
  5
2C8
100
AcDbEntity
  8
0
100
AcDbLine
 62
7
  6
CONTINUOUS
 10
89.0
 20
-120.4063663798
 11
11.0
 21
-120.4063663798
  0
LINE
  5
2C9
100
AcDbEntity
  8
0
100
AcDbLine
 62
7
  6
CONTINUOUS
 10
-11.0
 20
-120.4063663798
 11
-89.0
 21
-120.4063663798
  0
LWPOLYLINE
  5
2CA
100
AcDbEntity
  8
ASSI
100
AcDbPolyline
 62
7
  6
CONTINUOUS
 90
31
 70
0
 10
-109.8818239575
 20
119.6067255935
 10
-109.8809137877
 20
119.4337946656
 10
-109.8780857088
 20
119.2608097075
 10
-109.8733454823
 20
119.0877707191
 10
-109.8666973821
 20
118.9143005451
 10
-109.8581604244
 20
118.7407763409
 10
-109.8477682063
 20
118.5683295723
 10
-109.8355272423
 20
118.3970739797
 10
-109.8214774823
 20
118.2268958228
 10
-109.8057073966
 20
118.0585853467
 10
-109.788267926
 20
117.8923430857
 10
-109.769174895
 20
117.7279685056
 10
-109.7484686122
 20
117.5656502481
 10
-109.7261560928
 20
117.405145651
 10
-109.7023198726
 20
117.2466973765
 10
-109.6771159258
 20
117.0912220532
 10
-109.6505751766
 20
116.9387392451
 10
-109.6227708216
 20
116.7892293882
 10
-109.5939182429
 20
116.6435504199
 10
-109.5641123635
 20
116.5019276207
 10
-109.5333670334
 20
116.3641357102
 10
-109.5017728284
 20
116.2303567841
 10
-109.469362805
 20
116.1004594657
 10
-109.4362275844
 20
115.9745751319
 10
-109.4025408512
 20
115.8532800087
 10
-109.3683328172
 20
115.7365251176
 10
-109.3337002473
 20
115.6243594371
 10
-109.2989022498
 20
115.5175061287
 10
-109.2640574344
 20
115.4162062463
 10
-109.2291572082
 20
115.3202187361
 10
-109.1942601375
 20
115.229543598
  0
LWPOLYLINE
  5
2CB
100
AcDbEntity
  8
ASSI
100
AcDbPolyline
 62
7
  6
CONTINUOUS
 90
31
 70
0
 10
-111.3127327596
 20
119.6067255935
 10
-111.3118680983
 20
119.4337946656
 10
-111.3091814234
 20
119.2608097075
 10
-111.3046782081
 20
119.0877707191
 10
-111.298362513
 20
118.9143005451
 10
-111.2902524032
 20
118.7407763409
 10
-111.280379796
 20
118.5683295723
 10
-111.2687508802
 20
118.3970739797
 10
-111.2554036081
 20
118.2268958228
 10
-111.2404220268
 20
118.0585853467
 10
-111.2238545297
 20
117.8923430857
 10
-111.2057161502
 20
117.7279685056
 10
-111.1860451816
 20
117.5656502481
 10
-111.1648482881
 20
117.405145651
 10
-111.142203879
 20
117.2466973765
 10
-111.1182601295
 20
117.0912220532
 10
-111.0930464178
 20
116.9387392451
 10
-111.0666322805
 20
116.7892293882
 10
-111.0392223308
 20
116.6435504199
 10
-111.0109067453
 20
116.5019276207
 10
-110.9816986818
 20
116.3641357102
 10
-110.951684187
 20
116.2303567841
 10
-110.9208946647
 20
116.1004594657
 10
-110.8894162052
 20
115.9745751319
 10
-110.8574138086
 20
115.8532800087
 10
-110.8249161764
 20
115.7365251176
 10
-110.7920152349
 20
115.6243594371
 10
-110.7589571374
 20
115.5175061287
 10
-110.7258545627
 20
115.4162062463
 10
-110.6926993477
 20
115.3202187361
 10
-110.6595471306
 20
115.229543598
  0
LINE
  5
2CC
100
AcDbEntity
  8
ASSI
100
AcDbLine
 62
7
  6
CONTINUOUS
 10
-111.3127327596
 20
119.6067255935
 11
-111.3127327596
 21
135.8436336202
  0
LINE
  5
2CD
100
AcDbEntity
  8
ASSI
100
AcDbLine
 62
7
  6
CONTINUOUS
 10
-110.0
 20
110.158805341
 11
-110.0
 21
93.3436336202
  0
LINE
  5
2CE
100
AcDbEntity
  8
0
100
AcDbLine
 62
7
  6
CONTINUOUS
 10
-110.0
 20
-144.6563663798
 11
-110.0
 21
93.3436336202
  0
LINE
  5
2CF
100
AcDbEntity
  8
ASSI
100
AcDbLine
 62
7
  6
CONTINUOUS
 10
-109.8818239575
 20
119.6067255935
 11
-109.8818239575
 21
135.8436336202
  0
LINE
  5
2D0
100
AcDbEntity
  8
0
100
AcDbLine
 62
7
  6
CONTINUOUS
 10
-108.5
 20
-144.6563663798
 11
-108.5
 21
93.3436336202
  0
LINE
  5
2D1
100
AcDbEntity
  8
ASSI
100
AcDbLine
 62
7
  6
CONTINUOUS
 10
-108.5
 20
93.3436336202
 11
-108.5
 21
135.8436336202
  0
LINE
  5
2D2
100
AcDbEntity
  8
0
100
AcDbLine
 62
253
  6
CONTINUOUS
 10
-108.0
 20
-144.6563663798
 11
-108.0
 21
135.8436336202
  0
LWPOLYLINE
  5
2D3
100
AcDbEntity
  8
0
100
AcDbPolyline
 62
253
  6
CONTINUOUS
 90
46
 70
0
 10
-108.0
 20
135.8436336202
 10
-107.9964756651
 20
136.0488177068
 10
-107.9859881548
 20
136.2525390901
 10
-107.968667854
 20
136.4544472404
 10
-107.9446636564
 20
136.6540975017
 10
-107.9141034828
 20
136.8512946448
 10
-107.8770546873
 20
137.0460891929
 10
-107.8335910481
 20
137.2383316828
 10
-107.7838421761
 20
137.427629907
 10
-107.7279317672
 20
137.613691521
 10
-107.6659971493
 20
137.7962262949
 10
-107.5981398984
 20
137.9750773488
 10
-107.5244702069
 20
138.150171141
 10
-107.4453752432
 20
138.321064296
 10
-107.3610274588
 20
138.4878352803
 10
-107.2712092519
 20
138.6511657171
 10
-107.175983405
 20
138.8110300571
 10
-107.0756189919
 20
138.967042947
 10
-106.9700812006
 20
139.1192924481
 10
-106.8595064269
 20
139.2675678553
 10
-106.7440304084
 20
139.4116601849
 10
-106.6235564273
 20
139.5516223119
 10
-106.4981808501
 20
139.6872353646
 10
-106.368019509
 20
139.8182615828
 10
-106.2330039711
 20
139.9447305666
 10
-106.0933260135
 20
140.0665171008
 10
-105.9492057496
 20
140.183479394
 10
-105.8006431432
 20
140.2956390132
 10
-105.6478362323
 20
140.4028400406
 10
-105.4909884483
 20
140.5049235507
 10
-105.3300823753
 20
140.6018589065
 10
-105.1654947428
 20
140.6933644018
 10
-104.9972587546
 20
140.7793575451
 10
-104.8247981264
 20
140.8599965208
 10
-104.6480665088
 20
140.9350920181
 10
-104.4674876027
 20
141.0042559914
 10
-104.2831682029
 20
141.0673551201
 10
-104.0952419357
 20
141.1242970988
 10
-103.9040374621
 20
141.1749342294
 10
-103.7099769308
 20
141.219118215
 10
-103.5134744568
 20
141.2567311216
 10
-103.3146773008
 20
141.2877160615
 10
-103.1136306485
 20
141.3120106273
 10
-102.9105661242
 20
141.3295075482
 10
-102.7059046156
 20
141.3400844832
 10
-102.5
 20
141.3436336202
  0
LINE
  5
2D4
100
AcDbEntity
  8
0
100
AcDbLine
 62
7
  6
CONTINUOUS
 10
-107.7
 20
135.8436336202
 11
-107.7
 21
-144.6563663798
  0
LINE
  5
2D5
100
AcDbEntity
  8
0
100
AcDbLine
 62
253
  6
CONTINUOUS
 10
-102.5
 20
141.0436336202
 11
-102.5
 21
144.6563663798
  0
LINE
  5
2D6
100
AcDbEntity
  8
0
100
AcDbLine
 62
7
  6
CONTINUOUS
 10
-90.0
 20
-119.4063663798
 11
-90.0
 21
108.5936336202
  0
LINE
  5
2D7
100
AcDbEntity
  8
ASSI
100
AcDbLine
 62
7
  6
CONTINUOUS
 10
-77.0
 20
-128.6563663798
 11
-77.0
 21
-126.1563663798
  0
LINE
  5
2D8
100
AcDbEntity
  8
ASSI
100
AcDbLine
 62
7
  6
CONTINUOUS
 10
-77.0
 20
116.3436336202
 11
-77.0
 21
118.8436336202
  0
LINE
  5
2D9
100
AcDbEntity
  8
ASSI
100
AcDbLine
 62
7
  6
CONTINUOUS
 10
-73.5
 20
118.8436336202
 11
-73.5
 21
116.3436336202
  0
LINE
  5
2DA
100
AcDbEntity
  8
ASSI
100
AcDbLine
 62
7
  6
CONTINUOUS
 10
-73.5
 20
-126.1563663798
 11
-73.5
 21
-128.6563663798
  0
LINE
  5
2DB
100
AcDbEntity
  8
CURVE
100
AcDbLine
 62
253
  6
CONTINUOUS
 10
9.887237
 20
-135.5066833798
 11
8.908878
 21
-134.1630643798
  0
LINE
  5
2DC
100
AcDbEntity
  8
CURVE
100
AcDbLine
 62
253
  6
CONTINUOUS
 10
7.233658
 20
-134.1630643798
 11
9.049627
 21
-136.6575343798
  0
LINE
  5
2DD
100
AcDbEntity
  8
CURVE
100
AcDbLine
 62
253
  6
CONTINUOUS
 10
9.887237
 20
-137.8080043798
 11
10.865595
 21
-139.1520043798
  0
LINE
  5
2DE
100
AcDbEntity
  8
CURVE
100
AcDbLine
 62
253
  6
CONTINUOUS
 10
12.540432
 20
-139.1520043798
 11
10.724847
 21
-136.6575343798
  0
LINE
  5
2DF
100
AcDbEntity
  8
CURVE
100
AcDbLine
 62
253
  6
CONTINUOUS
 10
7.455492
 20
-135.4171843798
 11
6.547507
 21
-134.1680383798
  0
LINE
  5
2E0
100
AcDbEntity
  8
CURVE
100
AcDbLine
 62
253
  6
CONTINUOUS
 10
-2.640572
 20
-135.4171843798
 11
-0.485735
 21
-139.1646263798
  0
LINE
  5
2E1
100
AcDbEntity
  8
CURVE
100
AcDbLine
 62
253
  6
CONTINUOUS
 10
-0.485735
 20
-136.5577113798
 11
-1.859952
 21
-134.1680383798
  0
LWPOLYLINE
  5
2E2
100
AcDbEntity
  8
ASSI
100
AcDbPolyline
 62
7
  6
CONTINUOUS
 90
16
 70
0
 10
-109.1942601375
 20
115.229543598
 10
-109.099230484
 20
114.9750618747
 10
-109.011784327
 20
114.7088750251
 10
-108.9317815725
 20
114.4309830493
 10
-108.8590559408
 20
114.1415374954
 10
-108.7934947829
 20
113.8403868152
 10
-108.7350153924
 20
113.5270763646
 10
-108.6834293044
 20
113.2014465085
 10
-108.6385998994
 20
112.863656882
 10
-108.6004521179
 20
112.5137317467
 10
-108.5687769007
 20
112.1517006133
 10
-108.5433555977
 20
111.7775339711
 10
-108.5240136353
 20
111.3911675498
 10
-108.5105115379
 20
110.9925799259
 10
-108.5025878106
 20
110.581792523
 10
-108.5
 20
110.158805341
  0
LWPOLYLINE
  5
2E3
100
AcDbEntity
  8
ASSI
100
AcDbPolyline
 62
7
  6
CONTINUOUS
 90
16
 70
0
 10
-110.6595471306
 20
115.229543598
 10
-110.5692689598
 20
114.9750618747
 10
-110.4861951106
 20
114.7088750251
 10
-110.4101924939
 20
114.4309830493
 10
-110.3411031438
 20
114.1415374954
 10
-110.2788200437
 20
113.8403868152
 10
-110.2232646228
 20
113.5270763646
 10
-110.1742578392
 20
113.2014465085
 10
-110.1316699045
 20
112.863656882
 10
-110.095429512
 20
112.5137317467
 10
-110.0653380557
 20
112.1517006133
 10
-110.0411878178
 20
111.7775339711
 10
-110.0228129535
 20
111.3911675498
 10
-110.009985961
 20
110.9925799259
 10
-110.0024584201
 20
110.581792523
 10
-110.0
 20
110.158805341
  0
LINE
  5
2E4
100
AcDbEntity
  8
ASSI
100
AcDbLine
 62
7
  6
CONTINUOUS
 10
-52.75
 20
-128.6563663798
 11
-52.75
 21
-126.1563663798
  0
LINE
  5
2E5
100
AcDbEntity
  8
ASSI
100
AcDbLine
 62
7
  6
CONTINUOUS
 10
-47.25
 20
-126.1563663798
 11
-47.25
 21
-128.6563663798
  0
LINE
  5
2E6
100
AcDbEntity
  8
ASSI
100
AcDbLine
 62
7
  6
CONTINUOUS
 10
-26.5
 20
-128.6563663798
 11
-26.5
 21
-126.1563663798
  0
LINE
  5
2E7
100
AcDbEntity
  8
ASSI
100
AcDbLine
 62
7
  6
CONTINUOUS
 10
-26.5
 20
116.3436336202
 11
-26.5
 21
118.8436336202
  0
LINE
  5
2E8
100
AcDbEntity
  8
ASSI
100
AcDbLine
 62
7
  6
CONTINUOUS
 10
-23.0
 20
118.8436336202
 11
-23.0
 21
116.3436336202
  0
LINE
  5
2E9
100
AcDbEntity
  8
ASSI
100
AcDbLine
 62
7
  6
CONTINUOUS
 10
-23.0
 20
-126.1563663798
 11
-23.0
 21
-128.6563663798
  0
LINE
  5
2EA
100
AcDbEntity
  8
CURVE
100
AcDbLine
 62
253
  6
CONTINUOUS
 10
-11.998087
 20
-134.1680383798
 11
-11.998087
 21
-139.1646263798
  0
LINE
  5
2EB
100
AcDbEntity
  8
CURVE
100
AcDbLine
 62
253
  6
CONTINUOUS
 10
-10.457497
 20
-137.9154793798
 11
-10.457497
 21
-137.2909063798
  0
LINE
  5
2EC
100
AcDbEntity
  8
CURVE
100
AcDbLine
 62
253
  6
CONTINUOUS
 10
-10.457497
 20
-136.0417583798
 11
-10.457497
 21
-135.4171843798
  0
LINE
  5
2ED
100
AcDbEntity
  8
0
100
AcDbLine
 62
7
  6
CONTINUOUS
 10
-10.0
 20
108.5936336202
 11
-10.0
 21
-119.4063663798
  0
LINE
  5
2EE
100
AcDbEntity
  8
CURVE
100
AcDbLine
 62
253
  6
CONTINUOUS
 10
-8.584158
 20
-137.2909063798
 11
-8.584158
 21
-136.0417583798
  0
LINE
  5
2EF
100
AcDbEntity
  8
CURVE
100
AcDbLine
 62
253
  6
CONTINUOUS
 10
-7.178198
 20
-135.4171843798
 11
-7.178198
 21
-134.1680383798
  0
LINE
  5
2F0
100
AcDbEntity
  8
CURVE
100
AcDbLine
 62
253
  6
CONTINUOUS
 10
-6.652302
 20
-134.1680383798
 11
-6.652302
 21
-135.4171843798
  0
LINE
  5
2F1
100
AcDbEntity
  8
CURVE
100
AcDbLine
 62
253
  6
CONTINUOUS
 10
-6.615202
 20
-139.1646263798
 11
-6.615202
 21
-137.9154793798
  0
LINE
  5
2F2
100
AcDbEntity
  8
CURVE
100
AcDbLine
 62
253
  6
CONTINUOUS
 10
-6.085098
 20
-136.0417583798
 11
-6.085098
 21
-139.1646263798
  0
LINE
  5
2F3
100
AcDbEntity
  8
CURVE
100
AcDbLine
 62
253
  6
CONTINUOUS
 10
-4.577018
 20
-137.9154793798
 11
-4.577018
 21
-136.0417583798
  0
LINE
  5
2F4
100
AcDbEntity
  8
CURVE
100
AcDbLine
 62
253
  6
CONTINUOUS
 10
-1.758978
 20
-139.1646263798
 11
-1.758978
 21
-137.9154793798
  0
LINE
  5
2F5
100
AcDbEntity
  8
CURVE
100
AcDbLine
 62
253
  6
CONTINUOUS
 10
1.797228
 20
-136.0417583798
 11
1.797228
 21
-139.1646263798
  0
LINE
  5
2F6
100
AcDbEntity
  8
CURVE
100
AcDbLine
 62
253
  6
CONTINUOUS
 10
3.390853
 20
-138.1686113798
 11
3.390853
 21
-137.0377743798
  0
LINE
  5
2F7
100
AcDbEntity
  8
CURVE
100
AcDbLine
 62
253
  6
CONTINUOUS
 10
5.172655
 20
-137.0377743798
 11
5.172655
 21
-138.1686113798
  0
LINE
  5
2F8
100
AcDbEntity
  8
CURVE
100
AcDbLine
 62
253
  6
CONTINUOUS
 10
6.76628
 20
-139.1646263798
 11
6.76628
 21
-136.0417583798
  0
LINE
  5
2F9
100
AcDbEntity
  8
0
100
AcDbLine
 62
7
  6
CONTINUOUS
 10
10.0
 20
-119.4063663798
 11
10.0
 21
108.5936336202
  0
LINE
  5
2FA
100
AcDbEntity
  8
ASSI
100
AcDbLine
 62
7
  6
CONTINUOUS
 10
23.0
 20
-128.6563663798
 11
23.0
 21
-126.1563663798
  0
LINE
  5
2FB
100
AcDbEntity
  8
ASSI
100
AcDbLine
 62
7
  6
CONTINUOUS
 10
23.0
 20
116.3436336202
 11
23.0
 21
118.8436336202
  0
LINE
  5
2FC
100
AcDbEntity
  8
ASSI
100
AcDbLine
 62
7
  6
CONTINUOUS
 10
26.5
 20
118.8436336202
 11
26.5
 21
116.3436336202
  0
LINE
  5
2FD
100
AcDbEntity
  8
ASSI
100
AcDbLine
 62
7
  6
CONTINUOUS
 10
26.5
 20
-126.1563663798
 11
26.5
 21
-128.6563663798
  0
LINE
  5
2FE
100
AcDbEntity
  8
ASSI
100
AcDbLine
 62
7
  6
CONTINUOUS
 10
47.25
 20
-128.6563663798
 11
47.25
 21
-126.1563663798
  0
LINE
  5
2FF
100
AcDbEntity
  8
ASSI
100
AcDbLine
 62
7
  6
CONTINUOUS
 10
52.75
 20
-126.1563663798
 11
52.75
 21
-128.6563663798
  0
LWPOLYLINE
  5
300
100
AcDbEntity
  8
ASSI
100
AcDbPolyline
 62
7
  6
CONTINUOUS
 90
31
 70
0
 10
109.1942601375
 20
115.229543598
 10
109.2291572082
 20
115.3202187361
 10
109.2640574344
 20
115.4162062463
 10
109.2989022498
 20
115.5175061287
 10
109.3337002473
 20
115.6243594371
 10
109.3683328172
 20
115.7365251176
 10
109.4025408512
 20
115.8532800087
 10
109.4362275844
 20
115.9745751319
 10
109.469362805
 20
116.1004594657
 10
109.5017728284
 20
116.2303567841
 10
109.5333670334
 20
116.3641357102
 10
109.5641123635
 20
116.5019276207
 10
109.5939182429
 20
116.6435504199
 10
109.6227708216
 20
116.7892293882
 10
109.6505751766
 20
116.9387392451
 10
109.6771159258
 20
117.0912220532
 10
109.7023198726
 20
117.2466973765
 10
109.7261560928
 20
117.405145651
 10
109.7484686122
 20
117.5656502481
 10
109.769174895
 20
117.7279685056
 10
109.788267926
 20
117.8923430857
 10
109.8057073966
 20
118.0585853467
 10
109.8214774823
 20
118.2268958228
 10
109.8355272423
 20
118.3970739797
 10
109.8477682063
 20
118.5683295723
 10
109.8581604244
 20
118.7407763409
 10
109.8666973821
 20
118.9143005451
 10
109.8733454823
 20
119.0877707191
 10
109.8780857088
 20
119.2608097075
 10
109.8809137877
 20
119.4337946656
 10
109.8818239575
 20
119.6067255935
  0
LINE
  5
301
100
AcDbEntity
  8
ASSI
100
AcDbLine
 62
7
  6
CONTINUOUS
 10
73.5
 20
-128.6563663798
 11
73.5
 21
-126.1563663798
  0
LINE
  5
302
100
AcDbEntity
  8
ASSI
100
AcDbLine
 62
7
  6
CONTINUOUS
 10
73.5
 20
116.3436336202
 11
73.5
 21
118.8436336202
  0
LWPOLYLINE
  5
303
100
AcDbEntity
  8
ASSI
100
AcDbPolyline
 62
7
  6
CONTINUOUS
 90
31
 70
0
 10
110.6595471306
 20
115.229543598
 10
110.6926993477
 20
115.3202187361
 10
110.7258545627
 20
115.4162062463
 10
110.7589571374
 20
115.5175061287
 10
110.7920152349
 20
115.6243594371
 10
110.8249161764
 20
115.7365251176
 10
110.8574138086
 20
115.8532800087
 10
110.8894162052
 20
115.9745751319
 10
110.9208946647
 20
116.1004594657
 10
110.951684187
 20
116.2303567841
 10
110.9816986818
 20
116.3641357102
 10
111.0109067453
 20
116.5019276207
 10
111.0392223308
 20
116.6435504199
 10
111.0666322805
 20
116.7892293882
 10
111.0930464178
 20
116.9387392451
 10
111.1182601295
 20
117.0912220532
 10
111.142203879
 20
117.2466973765
 10
111.1648482881
 20
117.405145651
 10
111.1860451816
 20
117.5656502481
 10
111.2057161502
 20
117.7279685056
 10
111.2238545297
 20
117.8923430857
 10
111.2404220268
 20
118.0585853467
 10
111.2554036081
 20
118.2268958228
 10
111.2687508802
 20
118.3970739797
 10
111.280379796
 20
118.5683295723
 10
111.2902524032
 20
118.7407763409
 10
111.298362513
 20
118.9143005451
 10
111.3046782081
 20
119.0877707191
 10
111.3091814234
 20
119.2608097075
 10
111.3118680983
 20
119.4337946656
 10
111.3127327596
 20
119.6067255935
  0
LINE
  5
304
100
AcDbEntity
  8
CURVE
100
AcDbLine
 62
253
  6
CONTINUOUS
 10
0.888097
 20
-134.1680383798
 11
-0.485735
 21
-136.5577113798
  0
LINE
  5
305
100
AcDbEntity
  8
CURVE
100
AcDbLine
 62
253
  6
CONTINUOUS
 10
-0.485735
 20
-139.1646263798
 11
1.668718
 21
-135.4171843798
  0
LINE
  5
306
100
AcDbEntity
  8
ASSI
100
AcDbLine
 62
7
  6
CONTINUOUS
 10
77.0
 20
118.8436336202
 11
77.0
 21
116.3436336202
  0
LINE
  5
307
100
AcDbEntity
  8
ASSI
100
AcDbLine
 62
7
  6
CONTINUOUS
 10
77.0
 20
-126.1563663798
 11
77.0
 21
-128.6563663798
  0
LINE
  5
308
100
AcDbEntity
  8
0
100
AcDbLine
 62
7
  6
CONTINUOUS
 10
90.0
 20
108.5936336202
 11
90.0
 21
-119.4063663798
  0
LINE
  5
309
100
AcDbEntity
  8
CURVE
100
AcDbLine
 62
253
  6
CONTINUOUS
 10
10.724847
 20
-136.6575343798
 11
12.540432
 21
-134.1630643798
  0
LINE
  5
30A
100
AcDbEntity
  8
CURVE
100
AcDbLine
 62
253
  6
CONTINUOUS
 10
8.908878
 20
-139.1520043798
 11
9.887237
 21
-137.8080043798
  0
LINE
  5
30B
100
AcDbEntity
  8
CURVE
100
AcDbLine
 62
253
  6
CONTINUOUS
 10
9.049627
 20
-136.6575343798
 11
7.233658
 21
-139.1520043798
  0
LINE
  5
30C
100
AcDbEntity
  8
CURVE
100
AcDbLine
 62
253
  6
CONTINUOUS
 10
10.865595
 20
-134.1630643798
 11
9.887237
 21
-135.5066833798
  0
LINE
  5
30D
100
AcDbEntity
  8
ASSI
100
AcDbLine
 62
253
  6
CONTINUOUS
 10
108.5
 20
93.3436336202
 11
110.0
 21
93.3436336202
  0
LINE
  5
30E
100
AcDbEntity
  8
ASSI
100
AcDbLine
 62
253
  6
CONTINUOUS
 10
-108.5
 20
93.3436336202
 11
-110.0
 21
93.3436336202
  0
LINE
  5
30F
100
AcDbEntity
  8
0
100
AcDbLine
 62
253
  6
CONTINUOUS
 10
102.5
 20
141.0436336202
 11
102.5
 21
144.6563663798
  0
LINE
  5
310
100
AcDbEntity
  8
0
100
AcDbLine
 62
7
  6
CONTINUOUS
 10
107.7
 20
-144.6563663798
 11
107.7
 21
135.8436336202
  0
LINE
  5
311
100
AcDbEntity
  8
0
100
AcDbLine
 62
253
  6
CONTINUOUS
 10
108.0
 20
135.8436336202
 11
108.0
 21
-144.6563663798
  0
LINE
  5
312
100
AcDbEntity
  8
ASSI
100
AcDbLine
 62
7
  6
CONTINUOUS
 10
108.5
 20
135.8436336202
 11
108.5
 21
93.3436336202
  0
LINE
  5
313
100
AcDbEntity
  8
0
100
AcDbLine
 62
7
  6
CONTINUOUS
 10
108.5
 20
-144.6563663798
 11
108.5
 21
93.3436336202
  0
LINE
  5
314
100
AcDbEntity
  8
ASSI
100
AcDbLine
 62
7
  6
CONTINUOUS
 10
109.8818239575
 20
135.8436336202
 11
109.8818239575
 21
119.6067255935
  0
LINE
  5
315
100
AcDbEntity
  8
ASSI
100
AcDbLine
 62
7
  6
CONTINUOUS
 10
110.0
 20
110.158805341
 11
110.0
 21
93.3436336202
  0
LINE
  5
316
100
AcDbEntity
  8
0
100
AcDbLine
 62
7
  6
CONTINUOUS
 10
110.0
 20
-144.6563663798
 11
110.0
 21
93.3436336202
  0
LWPOLYLINE
  5
317
100
AcDbEntity
  8
ASSI
100
AcDbPolyline
 62
7
  6
CONTINUOUS
 90
16
 70
0
 10
110.0
 20
110.158805341
 10
110.0024584201
 20
110.581792523
 10
110.009985961
 20
110.9925799259
 10
110.0228129535
 20
111.3911675498
 10
110.0411878178
 20
111.7775339711
 10
110.0653380557
 20
112.1517006133
 10
110.095429512
 20
112.5137317467
 10
110.1316699045
 20
112.863656882
 10
110.1742578392
 20
113.2014465085
 10
110.2232646228
 20
113.5270763646
 10
110.2788200437
 20
113.8403868152
 10
110.3411031438
 20
114.1415374954
 10
110.4101924939
 20
114.4309830493
 10
110.4861951106
 20
114.7088750251
 10
110.5692689598
 20
114.9750618747
 10
110.6595471306
 20
115.229543598
  0
LWPOLYLINE
  5
318
100
AcDbEntity
  8
ASSI
100
AcDbPolyline
 62
7
  6
CONTINUOUS
 90
16
 70
0
 10
108.5
 20
110.158805341
 10
108.5025878106
 20
110.581792523
 10
108.5105115379
 20
110.9925799259
 10
108.5240136353
 20
111.3911675498
 10
108.5433555977
 20
111.7775339711
 10
108.5687769007
 20
112.1517006133
 10
108.6004521179
 20
112.5137317467
 10
108.6385998994
 20
112.863656882
 10
108.6834293044
 20
113.2014465085
 10
108.7350153924
 20
113.5270763646
 10
108.7934947829
 20
113.8403868152
 10
108.8590559408
 20
114.1415374954
 10
108.9317815725
 20
114.4309830493
 10
109.011784327
 20
114.7088750251
 10
109.099230484
 20
114.9750618747
 10
109.1942601375
 20
115.229543598
  0
LINE
  5
319
100
AcDbEntity
  8
0
100
AcDbLine
 62
7
  6
CONTINUOUS
 10
-89.0
 20
109.5936336202
 11
-65.75
 21
109.5936336202
  0
LINE
  5
31A
100
AcDbEntity
  8
0
100
AcDbLine
 62
7
  6
CONTINUOUS
 10
-34.25
 20
109.5936336202
 11
-11.0
 21
109.5936336202
  0
LINE
  5
31B
100
AcDbEntity
  8
0
100
AcDbLine
 62
7
  6
CONTINUOUS
 10
11.0
 20
109.5936336202
 11
34.25
 21
109.5936336202
  0
LINE
  5
31C
100
AcDbEntity
  8
0
100
AcDbLine
 62
7
  6
CONTINUOUS
 10
65.75
 20
109.5936336202
 11
89.0
 21
109.5936336202
  0
LINE
  5
31D
100
AcDbEntity
  8
ASSI
100
AcDbLine
 62
253
  6
CONTINUOUS
 10
108.5
 20
110.158805341
 11
110.0
 21
110.158805341
  0
LINE
  5
31E
100
AcDbEntity
  8
ASSI
100
AcDbLine
 62
253
  6
CONTINUOUS
 10
-108.5
 20
110.158805341
 11
-110.0
 21
110.158805341
  0
LINE
  5
31F
100
AcDbEntity
  8
0
100
AcDbLine
 62
7
  6
CONTINUOUS
 10
-64.25
 20
111.0936336202
 11
-35.75
 21
111.0936336202
  0
LINE
  5
320
100
AcDbEntity
  8
0
100
AcDbLine
 62
7
  6
CONTINUOUS
 10
35.75
 20
111.0936336202
 11
64.25
 21
111.0936336202
  0
LINE
  5
321
100
AcDbEntity
  8
ASSI
100
AcDbLine
 62
7
  6
CONTINUOUS
 10
111.3127327596
 20
135.8436336202
 11
111.3127327596
 21
119.6067255935
  0
LINE
  5
322
100
AcDbEntity
  8
ASSI
100
AcDbLine
 62
7
  6
CONTINUOUS
 10
51.25
 20
114.8436336202
 11
48.75
 21
114.8436336202
  0
LINE
  5
323
100
AcDbEntity
  8
ASSI
100
AcDbLine
 62
7
  6
CONTINUOUS
 10
-48.75
 20
114.8436336202
 11
-51.25
 21
114.8436336202
  0
LINE
  5
324
100
AcDbEntity
  8
ASSI
100
AcDbLine
 62
253
  6
CONTINUOUS
 10
109.1942601375
 20
115.229543598
 11
110.6595471306
 21
115.229543598
  0
LINE
  5
325
100
AcDbEntity
  8
ASSI
100
AcDbLine
 62
253
  6
CONTINUOUS
 10
-109.1942601375
 20
115.229543598
 11
-110.6595471306
 21
115.229543598
  0
LINE
  5
326
100
AcDbEntity
  8
ASSI
100
AcDbLine
 62
253
  6
CONTINUOUS
 10
109.8818239575
 20
119.6067255935
 11
111.3127327596
 21
119.6067255935
  0
LINE
  5
327
100
AcDbEntity
  8
ASSI
100
AcDbLine
 62
253
  6
CONTINUOUS
 10
-109.8818239575
 20
119.6067255935
 11
-111.3127327596
 21
119.6067255935
  0
LINE
  5
328
100
AcDbEntity
  8
ASSI
100
AcDbLine
 62
7
  6
CONTINUOUS
 10
-51.25
 20
120.3436336202
 11
-48.75
 21
120.3436336202
  0
LINE
  5
329
100
AcDbEntity
  8
ASSI
100
AcDbLine
 62
7
  6
CONTINUOUS
 10
48.75
 20
120.3436336202
 11
51.25
 21
120.3436336202
  0
LINE
  5
32A
100
AcDbEntity
  8
0
100
AcDbLine
 62
253
  6
CONTINUOUS
 10
107.7
 20
135.8436336202
 11
111.3127327596
 21
135.8436336202
  0
LINE
  5
32B
100
AcDbEntity
  8
0
100
AcDbLine
 62
253
  6
CONTINUOUS
 10
-107.7
 20
135.8436336202
 11
-111.3127327596
 21
135.8436336202
  0
LINE
  5
32C
100
AcDbEntity
  8
0
100
AcDbLine
 62
7
  6
CONTINUOUS
 10
102.5
 20
141.0436336202
 11
-102.5
 21
141.0436336202
  0
LINE
  5
32D
100
AcDbEntity
  8
0
100
AcDbLine
 62
253
  6
CONTINUOUS
 10
-102.5
 20
141.3436336202
 11
102.5
 21
141.3436336202
  0
LINE
  5
32E
100
AcDbEntity
  8
0
100
AcDbLine
 62
7
  6
CONTINUOUS
 10
-102.5
 20
141.8436336202
 11
102.5
 21
141.8436336202
  0
LINE
  5
32F
100
AcDbEntity
  8
0
100
AcDbLine
 62
7
  6
CONTINUOUS
 10
-102.5
 20
143.2254575777
 11
102.5
 21
143.2254575777
  0
LINE
  5
330
100
AcDbEntity
  8
0
100
AcDbLine
 62
7
  6
CONTINUOUS
 10
-102.5
 20
144.6563663798
 11
102.5
 21
144.6563663798
  0
LWPOLYLINE
  5
331
100
AcDbEntity
  8
0
100
AcDbPolyline
 62
253
  6
CONTINUOUS
 90
46
 70
0
 10
102.5
 20
141.3436336202
 10
102.7051840866
 20
141.3401092853
 10
102.90890547
 20
141.329621775
 10
103.1108136202
 20
141.3123014742
 10
103.3104638816
 20
141.2882972765
 10
103.5076610246
 20
141.257737103
 10
103.7024555727
 20
141.2206883075
 10
103.8946980626
 20
141.1772246683
 10
104.0839962868
 20
141.1274757963
 10
104.2700579008
 20
141.0715653874
 10
104.4525926748
 20
141.0096307695
 10
104.6314437286
 20
140.9417735186
 10
104.8065375208
 20
140.868103827
 10
104.9774306758
 20
140.7890088634
 10
105.1442016601
 20
140.704661079
 10
105.3075320969
 20
140.6148428721
 10
105.4673964369
 20
140.5196170251
 10
105.6234093269
 20
140.4192526121
 10
105.7756588279
 20
140.3137148208
 10
105.9239342351
 20
140.2031400471
 10
106.0680265647
 20
140.0876640286
 10
106.2079886917
 20
139.9671900475
 10
106.3436017444
 20
139.8418144702
 10
106.4746279626
 20
139.7116531292
 10
106.6010969464
 20
139.5766375913
 10
106.7228834806
 20
139.4369596337
 10
106.8398457738
 20
139.2928393698
 10
106.952005393
 20
139.1442767634
 10
107.0592064204
 20
138.9914698525
 10
107.1612899306
 20
138.8346220685
 10
107.2582252863
 20
138.6737159954
 10
107.3497307816
 20
138.509128363
 10
107.4357239249
 20
138.3408923748
 10
107.5163629006
 20
138.1684317466
 10
107.5914583979
 20
137.991700129
 10
107.6606223712
 20
137.8111212228
 10
107.7237214999
 20
137.6268018231
 10
107.7806634786
 20
137.4388755559
 10
107.8313006092
 20
137.2476710823
 10
107.8754845948
 20
137.053610551
 10
107.9130975014
 20
136.857108077
 10
107.9440824413
 20
136.658310921
 10
107.9683770072
 20
136.4572642687
 10
107.985873928
 20
136.2541997444
 10
107.996450863
 20
136.0495382358
 10
108.0
 20
135.8436336202
  0
LINE
  5
332
100
AcDbEntity
  8
0
100
AcDbLine
 62
7
  6
CONTINUOUS
 10
158.8281141663
 20
-144.6563663798
 11
152.3281141663
 21
-144.6563663798
  0
LWPOLYLINE
  5
333
100
AcDbEntity
  8
0
100
AcDbPolyline
 62
7
  6
CONTINUOUS
 90
15
 70
0
 10
155.8986472249
 20
142.7424539512
 10
155.8621237
 20
142.7041664614
 10
155.8029070733
 20
142.6374525603
 10
155.746798038
 20
142.5682281572
 10
155.6937752651
 20
142.496495584
 10
155.6440504825
 20
142.4225588936
 10
155.5977768384
 20
142.3466793446
 10
155.5550082496
 20
142.2689775474
 10
155.5157793839
 20
142.1895400513
 10
155.4801720361
 20
142.1085585138
 10
155.44821208
 20
142.0261336283
 10
155.4199447463
 20
141.9424680397
 10
155.3954479763
 20
141.8579174977
 10
155.3747234016
 20
141.7726269457
 10
155.3644752585
 20
141.7230815258
  0
LWPOLYLINE
  5
334
100
AcDbEntity
  8
ASSI
100
AcDbPolyline
 62
7
  6
CONTINUOUS
 90
16
 70
0
 10
191.4239474996
 20
115.229543598
 10
190.9959412241
 20
114.9750618747
 10
190.5699397663
 20
114.7088750251
 10
190.1460716453
 20
114.4309830493
 10
189.7243088663
 20
114.1415374954
 10
189.3049221671
 20
113.8403868152
 10
188.8884844287
 20
113.5270763646
 10
188.4749111155
 20
113.2014465085
 10
188.064507338
 20
112.863656882
 10
187.6584307526
 20
112.5137317467
 10
187.2568443476
 20
112.1517006133
 10
186.8597829223
 20
111.7775339711
 10
186.4682097415
 20
111.3911675498
 10
186.0825013726
 20
110.9925799259
 10
185.7024454395
 20
110.581792523
 10
185.3281141663
 20
110.158805341
  0
LWPOLYLINE
  5
335
100
AcDbEntity
  8
ASSI
100
AcDbPolyline
 62
7
  6
CONTINUOUS
 90
16
 70
0
 10
191.7447808329
 20
115.229543598
 10
191.2942479114
 20
114.9750618747
 10
190.8458253242
 20
114.7088750251
 10
190.3996483547
 20
114.4309830493
 10
189.9556875347
 20
114.1415374954
 10
189.5142278514
 20
113.8403868152
 10
189.0758723372
 20
113.5270763646
 10
188.6405320076
 20
113.2014465085
 10
188.2085280313
 20
112.863656882
 10
187.781078994
 20
112.5137317467
 10
187.3583564624
 20
112.1517006133
 10
186.9403970674
 20
111.7775339711
 10
186.5282147717
 20
111.3911675498
 10
186.1222059624
 20
110.9925799259
 10
185.7221470854
 20
110.581792523
 10
185.3281141663
 20
110.158805341
  0
LINE
  5
336
100
AcDbEntity
  8
0
100
AcDbLine
 62
7
  6
CONTINUOUS
 10
152.3281141663
 20
-144.6563663798
 11
152.3281141663
 21
137.8436336202
  0
LINE
  5
337
100
AcDbEntity
  8
0
100
AcDbLine
 62
7
  6
CONTINUOUS
 10
155.3281141663
 20
-144.6563663798
 11
155.3281141663
 21
141.3436336202
  0
LINE
  5
338
100
AcDbEntity
  8
0
100
AcDbLine
 62
253
  6
CONTINUOUS
 10
157.3281141663
 20
-144.6563663798
 11
157.3281141663
 21
143.3436336202
  0
LINE
  5
339
100
AcDbEntity
  8
0
100
AcDbLine
 62
7
  6
CONTINUOUS
 10
178.8281141663
 20
-124.6563663798
 11
178.8281141663
 21
93.3436336202
  0
LINE
  5
33A
100
AcDbEntity
  8
ASSI
100
AcDbLine
 62
253
  6
CONTINUOUS
 10
185.3281141663
 20
110.158805341
 11
185.3281141663
 21
135.8436336202
  0
LINE
  5
33B
100
AcDbEntity
  8
0
100
AcDbLine
 62
253
  6
CONTINUOUS
 10
185.3281141663
 20
135.8436336202
 11
185.3281141663
 21
143.3436336202
  0
LINE
  5
33C
100
AcDbEntity
  8
ASSI
100
AcDbLine
 62
7
  6
CONTINUOUS
 10
193.8781141663
 20
119.6067255935
 11
193.8781141663
 21
135.8436336202
  0
LINE
  5
33D
100
AcDbEntity
  8
0
100
AcDbLine
 62
7
  6
CONTINUOUS
 10
193.8781141663
 20
135.8436336202
 11
193.8781141663
 21
144.6563663798
  0
LWPOLYLINE
  5
33E
100
AcDbEntity
  8
ASSI
100
AcDbPolyline
 62
7
  6
CONTINUOUS
 90
31
 70
0
 10
193.8781141663
 20
119.6067255935
 10
193.8753642325
 20
119.4337946656
 10
193.866813431
 20
119.2608097075
 10
193.8524600436
 20
119.0877707191
 10
193.8322847918
 20
118.9143005451
 10
193.8063000405
 20
118.7407763409
 10
193.7745498612
 20
118.5683295723
 10
193.7369827807
 20
118.3970739797
 10
193.6936367109
 20
118.2268958228
 10
193.6446885045
 20
118.0585853467
 10
193.5901894676
 20
117.8923430857
 10
193.5300693678
 20
117.7279685056
 10
193.4643216474
 20
117.5656502481
 10
193.3928200436
 20
117.405145651
 10
193.3156664447
 20
117.2466973765
 10
193.2331961812
 20
117.0912220532
 10
193.1453320436
 20
116.9387392451
 10
193.0521244956
 20
116.7892293882
 10
192.9541019582
 20
116.6435504199
 10
192.851394836
 20
116.5019276207
 10
192.7438469391
 20
116.3641357102
 10
192.6315582761
 20
116.2303567841
 10
192.514417034
 20
116.1004594657
 10
192.3925081606
 20
115.9745751319
 10
192.2662283664
 20
115.8532800087
 10
192.135443698
 20
115.7365251176
 10
192.0002637643
 20
115.6243594371
 10
191.8614548808
 20
115.5175061287
 10
191.7192678357
 20
115.4162062463
 10
191.5734348494
 20
115.3202187361
 10
191.4239474996
 20
115.229543598
  0
LWPOLYLINE
  5
33F
100
AcDbEntity
  8
ASSI
100
AcDbPolyline
 62
7
  6
CONTINUOUS
 90
31
 70
0
 10
194.3281141663
 20
119.6067255935
 10
194.3252194992
 20
119.4337946656
 10
194.3162186555
 20
119.2608097075
 10
194.3011098267
 20
119.0877707191
 10
194.2798727194
 20
118.9143005451
 10
194.2525203497
 20
118.7407763409
 10
194.2190991083
 20
118.5683295723
 10
194.179554813
 20
118.3970739797
 10
194.1339273712
 20
118.2268958228
 10
194.0824029434
 20
118.0585853467
 10
194.025035536
 20
117.8923430857
 10
193.9617512206
 20
117.7279685056
 10
193.8925430938
 20
117.5656502481
 10
193.8172782477
 20
117.405145651
 10
193.736063933
 20
117.2466973765
 10
193.6492531294
 20
117.0912220532
 10
193.5567645634
 20
116.9387392451
 10
193.4586513551
 20
116.7892293882
 10
193.3554697367
 20
116.6435504199
 10
193.2473569765
 20
116.5019276207
 10
193.134148664
 20
116.3641357102
 10
193.0159500713
 20
116.2303567841
 10
192.8926435007
 20
116.1004594657
 10
192.7643183709
 20
115.9745751319
 10
192.6313922716
 20
115.8532800087
 10
192.4937241997
 20
115.7365251176
 10
192.3514295326
 20
115.6243594371
 10
192.2053149184
 20
115.5175061287
 10
192.0556443446
 20
115.4162062463
 10
191.902135938
 20
115.3202187361
 10
191.7447808329
 20
115.229543598
  0
LINE
  5
340
100
AcDbEntity
  8
ASSI
100
AcDbLine
 62
7
  6
CONTINUOUS
 10
194.3281141663
 20
119.6067255935
 11
194.3281141663
 21
135.8436336202
  0
LINE
  5
341
100
AcDbEntity
  8
0
100
AcDbLine
 62
7
  6
CONTINUOUS
 10
194.3281141663
 20
135.8436336202
 11
194.3281141663
 21
143.2254575777
  0
LINE
  5
342
100
AcDbEntity
  8
0
100
AcDbLine
 62
7
  6
CONTINUOUS
 10
194.3281141663
 20
143.2254575777
 11
193.8781141663
 21
144.6563663798
  0
LINE
  5
343
100
AcDbEntity
  8
ASSI
100
AcDbLine
 62
253
  6
CONTINUOUS
 10
191.7447808329
 20
115.229543598
 11
191.4239474996
 21
115.229543598
  0
LINE
  5
344
100
AcDbEntity
  8
ASSI
100
AcDbLine
 62
253
  6
CONTINUOUS
 10
194.3281141663
 20
119.6067255935
 11
193.8781141663
 21
119.6067255935
  0
LINE
  5
345
100
AcDbEntity
  8
0
100
AcDbLine
 62
7
  6
CONTINUOUS
 10
155.3281141663
 20
130.8436336202
 11
152.3281141663
 21
130.8436336202
  0
LINE
  5
346
100
AcDbEntity
  8
0
100
AcDbLine
 62
7
  6
CONTINUOUS
 10
157.3281141663
 20
135.8436336202
 11
155.5261764305
 21
135.8436336202
  0
LINE
  5
347
100
AcDbEntity
  8
0
100
AcDbLine
 62
253
  6
CONTINUOUS
 10
157.3281141663
 20
135.8436336202
 11
194.3281141663
 21
135.8436336202
  0
LINE
  5
348
100
AcDbEntity
  8
0
100
AcDbLine
 62
7
  6
CONTINUOUS
 10
152.3281141663
 20
137.8436336202
 11
155.3281141663
 21
137.8436336202
  0
LINE
  5
349
100
AcDbEntity
  8
0
100
AcDbLine
 62
7
  6
CONTINUOUS
 10
185.3281141663
 20
143.3436336202
 11
157.3281141663
 21
143.3436336202
  0
ARC
  5
34A
100
AcDbEntity
  8
ASSI
100
AcDbCircle
 62
7
  6
CONTINUOUS
 10
-50.0
 20
-128.6563663798
 40
2.75
100
AcDbArc
 50
180.0
 51
360.0
  0
ARC
  5
34B
100
AcDbEntity
  8
ASSI
100
AcDbCircle
 62
7
  6
CONTINUOUS
 10
-50.0
 20
-126.1563663798
 40
2.75
100
AcDbArc
 50
0.0
 51
180.0
  0
ARC
  5
34C
100
AcDbEntity
  8
ASSI
100
AcDbCircle
 62
7
  6
CONTINUOUS
 10
-75.25
 20
-126.1563663798
 40
1.75
100
AcDbArc
 50
0.0
 51
180.0
  0
ARC
  5
34D
100
AcDbEntity
  8
ASSI
100
AcDbCircle
 62
7
  6
CONTINUOUS
 10
-75.25
 20
-128.6563663798
 40
1.75
100
AcDbArc
 50
180.0
 51
360.0
  0
ARC
  5
34E
100
AcDbEntity
  8
ASSI
100
AcDbCircle
 62
7
  6
CONTINUOUS
 10
-24.75
 20
-126.1563663798
 40
1.75
100
AcDbArc
 50
0.0
 51
180.0
  0
ARC
  5
34F
100
AcDbEntity
  8
ASSI
100
AcDbCircle
 62
7
  6
CONTINUOUS
 10
-24.75
 20
-128.6563663798
 40
1.75
100
AcDbArc
 50
180.0
 51
360.0
  0
CIRCLE
  5
350
100
AcDbEntity
  8
ASSI
100
AcDbCircle
 62
7
  6
CONTINUOUS
 10
-95.5
 20
-121.1563663798
 40
1.275
  0
CIRCLE
  5
351
100
AcDbEntity
  8
ASSI
100
AcDbCircle
 62
7
  6
CONTINUOUS
 10
-95.5
 20
-6.1563663798
 40
1.275
  0
CIRCLE
  5
352
100
AcDbEntity
  8
ASSI
100
AcDbCircle
 62
7
  6
CONTINUOUS
 10
-65.0
 20
-136.6563663798
 40
1.275
  0
CIRCLE
  5
353
100
AcDbEntity
  8
ASSI
100
AcDbCircle
 62
7
  6
CONTINUOUS
 10
-35.0
 20
-136.6563663798
 40
1.275
  0
ARC
  5
354
100
AcDbEntity
  8
0
100
AcDbCircle
 62
7
  6
CONTINUOUS
 10
-11.0
 20
-119.4063663798
 40
1.0
100
AcDbArc
 50
270.0
 51
360.0
  0
ARC
  5
355
100
AcDbEntity
  8
0
100
AcDbCircle
 62
7
  6
CONTINUOUS
 10
-89.0
 20
-119.4063663798
 40
1.0
100
AcDbArc
 50
180.0
 51
270.0
  0
ARC
  5
356
100
AcDbEntity
  8
0
100
AcDbCircle
 62
7
  6
CONTINUOUS
 10
-102.5
 20
135.8436336202
 40
8.8127327596
100
AcDbArc
 50
90.0
 51
180.0
  0
ARC
  5
357
100
AcDbEntity
  8
0
100
AcDbCircle
 62
7
  6
CONTINUOUS
 10
-102.5
 20
135.8436336202
 40
7.3818239575
100
AcDbArc
 50
90.0
 51
180.0
  0
ARC
  5
358
100
AcDbEntity
  8
0
100
AcDbCircle
 62
7
  6
CONTINUOUS
 10
-102.5
 20
135.8436336202
 40
6.0
100
AcDbArc
 50
90.0
 51
180.0
  0
ARC
  5
359
100
AcDbEntity
  8
0
100
AcDbCircle
 62
7
  6
CONTINUOUS
 10
-102.5
 20
135.8436336202
 40
5.2
100
AcDbArc
 50
90.0
 51
180.0
  0
ARC
  5
35A
100
AcDbEntity
  8
ASSI
100
AcDbCircle
 62
7
  6
CONTINUOUS
 10
-48.75
 20
117.5936336202
 40
2.75
100
AcDbArc
 50
270.0
 51
90.0
  0
ARC
  5
35B
100
AcDbEntity
  8
ASSI
100
AcDbCircle
 62
7
  6
CONTINUOUS
 10
-51.25
 20
117.5936336202
 40
2.75
100
AcDbArc
 50
90.0
 51
270.0
  0
ARC
  5
35C
100
AcDbEntity
  8
ASSI
100
AcDbCircle
 62
7
  6
CONTINUOUS
 10
-75.25
 20
116.3436336202
 40
1.75
100
AcDbArc
 50
180.0
 51
360.0
  0
ARC
  5
35D
100
AcDbEntity
  8
ASSI
100
AcDbCircle
 62
7
  6
CONTINUOUS
 10
-75.25
 20
118.8436336202
 40
1.75
100
AcDbArc
 50
0.0
 51
180.0
  0
ARC
  5
35E
100
AcDbEntity
  8
ASSI
100
AcDbCircle
 62
7
  6
CONTINUOUS
 10
-24.75
 20
116.3436336202
 40
1.75
100
AcDbArc
 50
180.0
 51
360.0
  0
ARC
  5
35F
100
AcDbEntity
  8
ASSI
100
AcDbCircle
 62
7
  6
CONTINUOUS
 10
-24.75
 20
118.8436336202
 40
1.75
100
AcDbArc
 50
0.0
 51
180.0
  0
CIRCLE
  5
360
100
AcDbEntity
  8
ASSI
100
AcDbCircle
 62
7
  6
CONTINUOUS
 10
-95.5
 20
108.8436336202
 40
1.275
  0
CIRCLE
  5
361
100
AcDbEntity
  8
ASSI
100
AcDbCircle
 62
7
  6
CONTINUOUS
 10
-75.5
 20
128.8436336202
 40
1.275
  0
CIRCLE
  5
362
100
AcDbEntity
  8
ASSI
100
AcDbCircle
 62
7
  6
CONTINUOUS
 10
-24.5
 20
128.8436336202
 40
1.275
  0
ARC
  5
363
100
AcDbEntity
  8
0
100
AcDbCircle
 62
7
  6
CONTINUOUS
 10
-89.0
 20
108.5936336202
 40
1.0
100
AcDbArc
 50
90.0
 51
180.0
  0
ARC
  5
364
100
AcDbEntity
  8
0
100
AcDbCircle
 62
7
  6
CONTINUOUS
 10
-11.0
 20
108.5936336202
 40
1.0
100
AcDbArc
 50
0.0
 51
90.0
  0
ARC
  5
365
100
AcDbEntity
  8
0
100
AcDbCircle
 62
7
  6
CONTINUOUS
 10
-35.75
 20
110.3436336202
 40
0.75
100
AcDbArc
 50
0.0
 51
90.0
  0
ARC
  5
366
100
AcDbEntity
  8
0
100
AcDbCircle
 62
7
  6
CONTINUOUS
 10
-64.25
 20
110.3436336202
 40
0.75
100
AcDbArc
 50
90.0
 51
180.0
  0
ARC
  5
367
100
AcDbEntity
  8
0
100
AcDbCircle
 62
7
  6
CONTINUOUS
 10
-34.25
 20
110.3436336202
 40
0.75
100
AcDbArc
 50
180.0
 51
270.0
  0
ARC
  5
368
100
AcDbEntity
  8
0
100
AcDbCircle
 62
7
  6
CONTINUOUS
 10
-65.75
 20
110.3436336202
 40
0.75
100
AcDbArc
 50
270.0
 51
360.0
  0
ARC
  5
369
100
AcDbEntity
  8
0
100
AcDbCircle
 62
7
  6
CONTINUOUS
 10
-106.0885669145
 20
139.4322005347
 40
0.375
100
AcDbArc
 50
62.4153148528
 51
207.5843786097
  0
ARC
  5
36A
100
AcDbEntity
  8
ASSI
100
AcDbCircle
 62
7
  6
CONTINUOUS
 10
50.0
 20
-128.6563663798
 40
2.75
100
AcDbArc
 50
180.0
 51
360.0
  0
ARC
  5
36B
100
AcDbEntity
  8
ASSI
100
AcDbCircle
 62
7
  6
CONTINUOUS
 10
50.0
 20
-126.1563663798
 40
2.75
100
AcDbArc
 50
0.0
 51
180.0
  0
ARC
  5
36C
100
AcDbEntity
  8
ASSI
100
AcDbCircle
 62
7
  6
CONTINUOUS
 10
75.25
 20
-126.1563663798
 40
1.75
100
AcDbArc
 50
0.0
 51
180.0
  0
ARC
  5
36D
100
AcDbEntity
  8
ASSI
100
AcDbCircle
 62
7
  6
CONTINUOUS
 10
75.25
 20
-128.6563663798
 40
1.75
100
AcDbArc
 50
180.0
 51
360.0
  0
ARC
  5
36E
100
AcDbEntity
  8
ASSI
100
AcDbCircle
 62
7
  6
CONTINUOUS
 10
24.75
 20
-126.1563663798
 40
1.75
100
AcDbArc
 50
0.0
 51
180.0
  0
ARC
  5
36F
100
AcDbEntity
  8
ASSI
100
AcDbCircle
 62
7
  6
CONTINUOUS
 10
24.75
 20
-128.6563663798
 40
1.75
100
AcDbArc
 50
180.0
 51
360.0
  0
CIRCLE
  5
370
100
AcDbEntity
  8
ASSI
100
AcDbCircle
 62
7
  6
CONTINUOUS
 10
95.5
 20
-121.1563663798
 40
1.275
  0
CIRCLE
  5
371
100
AcDbEntity
  8
ASSI
100
AcDbCircle
 62
7
  6
CONTINUOUS
 10
95.5
 20
-6.1563663798
 40
1.275
  0
CIRCLE
  5
372
100
AcDbEntity
  8
ASSI
100
AcDbCircle
 62
7
  6
CONTINUOUS
 10
65.0
 20
-136.6563663798
 40
1.275
  0
CIRCLE
  5
373
100
AcDbEntity
  8
ASSI
100
AcDbCircle
 62
7
  6
CONTINUOUS
 10
35.0
 20
-136.6563663798
 40
1.275
  0
ARC
  5
374
100
AcDbEntity
  8
0
100
AcDbCircle
 62
7
  6
CONTINUOUS
 10
11.0
 20
-119.4063663798
 40
1.0
100
AcDbArc
 50
180.0
 51
270.0
  0
ARC
  5
375
100
AcDbEntity
  8
0
100
AcDbCircle
 62
7
  6
CONTINUOUS
 10
89.0
 20
-119.4063663798
 40
1.0
100
AcDbArc
 50
270.0
 51
360.0
  0
ARC
  5
376
100
AcDbEntity
  8
0
100
AcDbCircle
 62
7
  6
CONTINUOUS
 10
102.5
 20
135.8436336202
 40
8.8127327596
100
AcDbArc
 50
0.0
 51
90.0
  0
ARC
  5
377
100
AcDbEntity
  8
0
100
AcDbCircle
 62
7
  6
CONTINUOUS
 10
102.5
 20
135.8436336202
 40
7.3818239575
100
AcDbArc
 50
0.0
 51
90.0
  0
ARC
  5
378
100
AcDbEntity
  8
0
100
AcDbCircle
 62
7
  6
CONTINUOUS
 10
102.5
 20
135.8436336202
 40
6.0
100
AcDbArc
 50
0.0
 51
90.0
  0
ARC
  5
379
100
AcDbEntity
  8
0
100
AcDbCircle
 62
7
  6
CONTINUOUS
 10
102.5
 20
135.8436336202
 40
5.2
100
AcDbArc
 50
0.0
 51
90.0
  0
ARC
  5
37A
100
AcDbEntity
  8
ASSI
100
AcDbCircle
 62
7
  6
CONTINUOUS
 10
48.75
 20
117.5936336202
 40
2.75
100
AcDbArc
 50
90.0
 51
270.0
  0
ARC
  5
37B
100
AcDbEntity
  8
ASSI
100
AcDbCircle
 62
7
  6
CONTINUOUS
 10
51.25
 20
117.5936336202
 40
2.75
100
AcDbArc
 50
270.0
 51
90.0
  0
ARC
  5
37C
100
AcDbEntity
  8
ASSI
100
AcDbCircle
 62
7
  6
CONTINUOUS
 10
75.25
 20
116.3436336202
 40
1.75
100
AcDbArc
 50
180.0
 51
360.0
  0
ARC
  5
37D
100
AcDbEntity
  8
ASSI
100
AcDbCircle
 62
7
  6
CONTINUOUS
 10
75.25
 20
118.8436336202
 40
1.75
100
AcDbArc
 50
0.0
 51
180.0
  0
ARC
  5
37E
100
AcDbEntity
  8
ASSI
100
AcDbCircle
 62
7
  6
CONTINUOUS
 10
24.75
 20
116.3436336202
 40
1.75
100
AcDbArc
 50
180.0
 51
360.0
  0
ARC
  5
37F
100
AcDbEntity
  8
ASSI
100
AcDbCircle
 62
7
  6
CONTINUOUS
 10
24.75
 20
118.8436336202
 40
1.75
100
AcDbArc
 50
0.0
 51
180.0
  0
CIRCLE
  5
380
100
AcDbEntity
  8
ASSI
100
AcDbCircle
 62
7
  6
CONTINUOUS
 10
95.5
 20
108.8436336202
 40
1.275
  0
CIRCLE
  5
381
100
AcDbEntity
  8
ASSI
100
AcDbCircle
 62
7
  6
CONTINUOUS
 10
75.5
 20
128.8436336202
 40
1.275
  0
CIRCLE
  5
382
100
AcDbEntity
  8
ASSI
100
AcDbCircle
 62
7
  6
CONTINUOUS
 10
24.5
 20
128.8436336202
 40
1.275
  0
ARC
  5
383
100
AcDbEntity
  8
0
100
AcDbCircle
 62
7
  6
CONTINUOUS
 10
89.0
 20
108.5936336202
 40
1.0
100
AcDbArc
 50
0.0
 51
90.0
  0
ARC
  5
384
100
AcDbEntity
  8
0
100
AcDbCircle
 62
7
  6
CONTINUOUS
 10
11.0
 20
108.5936336202
 40
1.0
100
AcDbArc
 50
90.0
 51
180.0
  0
ARC
  5
385
100
AcDbEntity
  8
0
100
AcDbCircle
 62
7
  6
CONTINUOUS
 10
64.25
 20
110.3436336202
 40
0.75
100
AcDbArc
 50
0.0
 51
90.0
  0
ARC
  5
386
100
AcDbEntity
  8
0
100
AcDbCircle
 62
7
  6
CONTINUOUS
 10
35.75
 20
110.3436336202
 40
0.75
100
AcDbArc
 50
90.0
 51
180.0
  0
ARC
  5
387
100
AcDbEntity
  8
0
100
AcDbCircle
 62
7
  6
CONTINUOUS
 10
65.75
 20
110.3436336202
 40
0.75
100
AcDbArc
 50
180.0
 51
270.0
  0
ARC
  5
388
100
AcDbEntity
  8
0
100
AcDbCircle
 62
7
  6
CONTINUOUS
 10
34.25
 20
110.3436336202
 40
0.75
100
AcDbArc
 50
270.0
 51
360.0
  0
ARC
  5
389
100
AcDbEntity
  8
0
100
AcDbCircle
 62
7
  6
CONTINUOUS
 10
106.0885669145
 20
139.4322005347
 40
0.375
100
AcDbArc
 50
332.4152878075
 51
117.5844000295
  0
ARC
  5
38A
100
AcDbEntity
  8
0
100
AcDbCircle
 62
7
  6
CONTINUOUS
 10
185.3281141663
 20
171.8436336202
 40
28.5
100
AcDbArc
 50
270.0
 51
287.4576031237
  0
ARC
  5
38B
100
AcDbEntity
  8
ASSI
100
AcDbCircle
 62
7
  6
CONTINUOUS
 10
203.8281141663
 20
93.3436336202
 40
25.0
100
AcDbArc
 50
137.7314155704
 51
180.0
  0
ARC
  5
38C
100
AcDbEntity
  8
0
100
AcDbCircle
 62
7
  6
CONTINUOUS
 10
158.8281141663
 20
-124.6563663798
 40
20.0
100
AcDbArc
 50
270.0
 51
360.0
  0
ARC
  5
38D
100
AcDbEntity
  8
0
100
AcDbCircle
 62
7
  6
CONTINUOUS
 10
157.3281141663
 20
141.3436336202
 40
2.0
100
AcDbArc
 50
90.0
 51
154.2857142857
  0
ENDSEC
  0
SECTION
  2
OBJECTS
  0
DICTIONARY
  5
C
100
AcDbDictionary
280
0
281
1
  3
ACAD_GROUP
350
D
  3
ACAD_MLINESTYLE
350
17
  3
ACAD_LAYOUT
350
1A
  3
ACAD_PLOTSETTINGS
350
19
  3
ACAD_PLOTSTYLENAME
350
E
  0
DICTIONARY
  5
D
102
{ACAD_REACTORS
330
C
102
}
100
AcDbDictionary
280
0
281
1
  0
ACDBDICTIONARYWDFLT
  5
E
102
{ACAD_REACTORS
330
C
102
}
100
AcDbDictionary
281
1
  3
Normal
350
F
100
AcDbDictionaryWithDefault
340
F
  0
DICTIONARY
  5
17
102
{ACAD_REACTORS
330
C
102
}
100
AcDbDictionary
280
0
281
1
  3
Standard
350
18
  0
DICTIONARY
  5
19
102
{ACAD_REACTORS
330
C
102
}
100
AcDbDictionary
281
1
  0
DICTIONARY
  5
1A
102
{ACAD_REACTORS
330
C
102
}
100
AcDbDictionary
281
1
  3
Model
350
38E
  3
Layout1
350
38F
  0
ACDBPLACEHOLDER
  5
F
102
{ACAD_REACTORS
330
E
102
}
  0
MLINESTYLE
  5
18
102
{ACAD_REACTORS
330
17
102
}
100
AcDbMlineStyle
  2
STANDARD
 70
0
  3

 62
256
 51
90.0
 52
90.0
 71
2
 49
0.5
 62
256
  6
BYLAYER
 49
-0.5
 62
256
  6
BYLAYER
  0
LAYOUT
  5
38E
102
{ACAD_REACTORS
330
1A
102
}
100
AcDbPlotSettings
  1

  2
none_device
  4
ISO_A4_(297.00_x_210.00_MM)
  6

 40
0.0
 41
0.0
 42
0.0
 43
0.0
 44
297.0
 45
210.0
 46
0.0
 47
0.0
 48
0.0
 49
0.0
140
0.0
141
0.0
142
1.0
143
1.0
 70
1024
 72
1
 73
0
 74
0
  7

 75
0
147
1.0
148
0.0
149
0.0
100
AcDbLayout
  1
Model
 70
0
 71
0
 10
0.0
 20
0.0
 11
297.0
 21
210.0
 12
0.0
 22
0.0
 32
0.0
 14
0.0
 24
0.0
 34
0.0
 15
0.0
 25
0.0
 35
0.0
146
0.0
 13
0.0
 23
0.0
 33
0.0
 16
1.0
 26
0.0
 36
0.0
 17
0.0
 27
1.0
 37
0.0
 76
0
330
210
345
0
346
0
  0
LAYOUT
  5
38F
102
{ACAD_REACTORS
330
1A
102
}
100
AcDbPlotSettings
  1

  2
none_device
  4
ISO_A4_(297.00_x_210.00_MM)
  6

 40
0.0
 41
0.0
 42
0.0
 43
0.0
 44
297.0
 45
210.0
 46
0.0
 47
0.0
 48
0.0
 49
0.0
140
0.0
141
0.0
142
1.0
143
1.0
 70
0
 72
1
 73
0
 74
0
  7

 75
0
147
1.0
148
0.0
149
0.0
100
AcDbLayout
  1
Layout1
 70
0
 71
1
 10
0.0
 20
0.0
 11
297.0
 21
210.0
 12
0.0
 22
0.0
 32
0.0
 14
0.0
 24
0.0
 34
0.0
 15
0.0
 25
0.0
 35
0.0
146
0.0
 13
0.0
 23
0.0
 33
0.0
 16
1.0
 26
0.0
 36
0.0
 17
0.0
 27
1.0
 37
0.0
 76
0
330
211
345
0
346
0
  0
ENDSEC
  0
EOF
