  0
SECTION
  2
HEADER
  9
$ACADVER
  1
AC1021
  9
$DWGCODEPAGE
  3
ANSI_1252
  9
$EXTMAX
 10
297.0
 20
210.0
 30
0.0
  9
$EXTMIN
 10
0.0
 20
0.0
 30
0.0
  9
$LIMMIN
 10
0.0
 20
0.0
  9
$LIMMAX
 10
297.0
 20
210.0
  9
$VIEWCTR
 10
148.5
 20
105.0
  9
$VIEWSIZE
 40
210.0
  9
$CLAYER
  8
0
  9
$LTSCALE
 40
16.335
  9
$CELTYPE
  6
BYLAYER
  9
$DIMSCALE
 40
1.0
  9
$DIMASZ
 40
3.0
  9
$DIMEXO
 40
0.5
  9
$DIMDLI
 40
11.286
  9
$DIMEXE
 40
1.5
  9
$DIMCEN
 40
2.673
  9
$DIMLFAC
 40
1.0
  9
$DIMBLK
  1
_FILLED
  9
$DIMALT
 70
0
  9
$DIMALTF
 40
25.4
  9
$DIMTXT
 40
3.0
  9
$DIMTOL
 70
1
  9
$DIMLIM
 70
0
  9
$DIMTFAC
 40
1.0
  9
$DIMTP
 40
0.01
  9
$DIMTM
 40
0.01
  9
$DIMGAP
 40
0.625
  9
$DIMDSEP
 70
44
  9
$AUNITS
 70
0
  9
$PDMODE
 70
3
  9
$PDSIZE
 40
3.0
  9
$HANDSEED
  5
3F8
  9
$TILEMODE
 70
1
  9
$MEASUREMENT
 70
1
  9
$INSUNITS
 70
4
  0
ENDSEC
  0
SECTION
  2
CLASSES
  0
CLASS
  1
ACDBDICTIONARYWDFLT
  2
AcDbDictionaryWithDefault
  3
AutoCAD 2000
 90
0
 91
1
280
0
281
0
  0
CLASS
  1
ACDBPLACEHOLDER
  2
AcDbPlaceHolder
  3
AutoCAD 2000
 90
0
 91
1
280
0
281
0
  0
CLASS
  1
LAYOUT
  2
AcDbLayout
  3
AutoCAD 2000
 90
0
 91
0
280
0
281
0
  0
ENDSEC
  0
SECTION
  2
TABLES
  0
TABLE
  2
VPORT
  5
8
100
AcDbSymbolTable
 70
2
  0
VPORT
  5
1F4
100
AcDbSymbolTableRecord
100
AcDbViewportTableRecord
  2
*ACTIVE
 70
0
 10
0.0
 20
0.0
 11
1.0
 21
1.0
 12
148.5
 22
105.0
 13
0.0
 23
0.0
 14
1.0
 24
1.0
 15
0.0
 25
0.0
 16
0.0
 26
0.0
 36
1.0
 17
0.0
 27
0.0
 37
0.0
 40
210.0
 41
1.4142857143
 42
50.0
 43
0.0
 44
0.0
 50
0.0
 51
0.0
 71
0
 72
100
 73
1
 74
1
 75
0
 76
0
 77
0
 78
0
  0
ENDTAB
  0
TABLE
  2
LTYPE
  5
5
100
AcDbSymbolTable
 70
6
  0
LTYPE
  5
14
100
AcDbSymbolTableRecord
100
AcDbLinetypeTableRecord
  2
BYBLOCK
 70
0
  3

 72
65
 73
0
 40
0.0
  0
LTYPE
  5
15
100
AcDbSymbolTableRecord
100
AcDbLinetypeTableRecord
  2
BYLAYER
 70
0
  3

 72
65
 73
0
 40
0.0
  0
LTYPE
  5
16
100
AcDbSymbolTableRecord
100
AcDbLinetypeTableRecord
  2
CONTINUOUS
 70
64
  3
Solid line
 72
65
 73
0
 40
0.0
  0
LTYPE
  5
1F5
100
AcDbSymbolTableRecord
100
AcDbLinetypeTableRecord
  2
CENTER
 70
64
  3
____ _ ____ _ ____ _ ____ _ ____ _ ____ _ ____
 72
65
 73
4
 40
0.6
 49
0.375
 74
0
 49
-0.075
 74
0
 49
0.075
 74
0
 49
-0.075
 74
0
  0
LTYPE
  5
1F6
100
AcDbSymbolTableRecord
100
AcDbLinetypeTableRecord
  2
HIDDEN
 70
64
  3
- - - - - - - - - - - - - - - - - - - -
 72
65
 73
2
 40
0.2
 49
0.1
 74
0
 49
-0.1
 74
0
  0
LTYPE
  5
1F7
100
AcDbSymbolTableRecord
100
AcDbLinetypeTableRecord
  2
PHANTOM
 70
64
  3
_____ _ _ _____ _ _ _____ _ _ _____
 72
65
 73
6
 40
0.8
 49
0.45
 74
0
 49
-0.05
 74
0
 49
0.1
 74
0
 49
-0.05
 74
0
 49
0.1
 74
0
 49
-0.05
 74
0
  0
LTYPE
  5
1F8
100
AcDbSymbolTableRecord
100
AcDbLinetypeTableRecord
  2
DOT
 70
64
  3
. . . . . . . . . . . . . . . . . . . .
 72
65
 73
2
 40
0.2
 49
0.1
 74
0
 49
-0.1
 74
0
  0
LTYPE
  5
1F9
100
AcDbSymbolTableRecord
100
AcDbLinetypeTableRecord
  2
DASHED
 70
64
  3
- - - - - - - - - - - - - - - - - - - -
 72
65
 73
2
 40
0.2
 49
0.1
 74
0
 49
-0.1
 74
0
  0
ENDTAB
  0
TABLE
  2
LAYER
  5
2
100
AcDbSymbolTable
 70
36
  0
LAYER
  5
10
100
AcDbSymbolTableRecord
100
AcDbLayerTableRecord
  2
0
 70
0
 62
7
  6
CONTINUOUS
370
-3
390
F
  0
LAYER
  5
1FA
100
AcDbSymbolTableRecord
100
AcDbLayerTableRecord
  2
DEFAULT_1
 70
0
 62
7
  6
CENTER
370
-3
390
F
  0
LAYER
  5
1FB
100
AcDbSymbolTableRecord
100
AcDbLayerTableRecord
  2
DEFAULT_2
 70
0
 62
7
  6
HIDDEN
370
-3
390
F
  0
LAYER
  5
1FC
100
AcDbSymbolTableRecord
100
AcDbLayerTableRecord
  2
DEFAULT_3
 70
0
 62
7
  6
PHANTOM
370
-3
390
F
  0
LAYER
  5
1FD
100
AcDbSymbolTableRecord
100
AcDbLayerTableRecord
  2
ASSI
 70
0
 62
7
  6
CONTINUOUS
370
-3
390
F
  0
LAYER
  5
1FE
100
AcDbSymbolTableRecord
100
AcDbLayerTableRecord
  2
COORDINATE
 70
0
 62
7
  6
CONTINUOUS
370
-3
390
F
  0
LAYER
  5
1FF
100
AcDbSymbolTableRecord
100
AcDbLayerTableRecord
  2
COPY_PUBLISH
 70
0
 62
7
  6
CONTINUOUS
370
-3
390
F
  0
LAYER
  5
200
100
AcDbSymbolTableRecord
100
AcDbLayerTableRecord
  2
COSMETICI
 70
0
 62
7
  6
CONTINUOUS
370
-3
390
F
  0
LAYER
  5
201
100
AcDbSymbolTableRecord
100
AcDbLayerTableRecord
  2
CURVE
 70
0
 62
7
  6
CONTINUOUS
370
-3
390
F
  0
LAYER
  5
202
100
AcDbSymbolTableRecord
100
AcDbLayerTableRecord
  2
DRAFT
 70
0
 62
7
  6
CONTINUOUS
370
-3
390
F
  0
LAYER
  5
203
100
AcDbSymbolTableRecord
100
AcDbLayerTableRecord
  2
IMPORT_IGES
 70
0
 62
7
  6
CONTINUOUS
370
-3
390
F
  0
LAYER
  5
204
100
AcDbSymbolTableRecord
100
AcDbLayerTableRecord
  2
INTF_1
 70
0
 62
7
  6
CONTINUOUS
370
-3
390
F
  0
LAYER
  5
205
100
AcDbSymbolTableRecord
100
AcDbLayerTableRecord
  2
NOTE
 70
0
 62
7
  6
CONTINUOUS
370
-3
390
F
  0
LAYER
  5
206
100
AcDbSymbolTableRecord
100
AcDbLayerTableRecord
  2
PIANI
 70
0
 62
7
  6
CONTINUOUS
370
-3
390
F
  0
LAYER
  5
207
100
AcDbSymbolTableRecord
100
AcDbLayerTableRecord
  2
PUNTI
 70
0
 62
7
  6
CONTINUOUS
370
-3
390
F
  0
LAYER
  5
208
100
AcDbSymbolTableRecord
100
AcDbLayerTableRecord
  2
RACCORDO
 70
0
 62
7
  6
CONTINUOUS
370
-3
390
F
  0
LAYER
  5
209
100
AcDbSymbolTableRecord
100
AcDbLayerTableRecord
  2
SIMBOLI
 70
0
 62
7
  6
CONTINUOUS
370
-3
390
F
  0
LAYER
  5
20A
100
AcDbSymbolTableRecord
100
AcDbLayerTableRecord
  2
SMUSSO
 70
0
 62
7
  6
CONTINUOUS
370
-3
390
F
  0
LAYER
  5
20B
100
AcDbSymbolTableRecord
100
AcDbLayerTableRecord
  2
SNAPLINE
 70
0
 62
7
  6
CONTINUOUS
370
-3
390
F
  0
LAYER
  5
20C
100
AcDbSymbolTableRecord
100
AcDbLayerTableRecord
  2
SUPERFICI
 70
0
 62
7
  6
CONTINUOUS
370
-3
390
F
  0
LAYER
  5
20D
100
AcDbSymbolTableRecord
100
AcDbLayerTableRecord
  2
TRASH
 70
0
 62
7
  6
CONTINUOUS
370
-3
390
F
  0
ENDTAB
  0
TABLE
  2
STYLE
  5
3
100
AcDbSymbolTable
 70
1
  0
STYLE
  5
11
100
AcDbSymbolTableRecord
100
AcDbTextStyleTableRecord
  2
STANDARD
 70
0
 40
0.0
 41
0.8
 50
0.0
 71
0
 42
0.2
  3
txt
  4

  0
STYLE
  5
20E
100
AcDbSymbolTableRecord
100
AcDbTextStyleTableRecord
  2
TEXTSTYLE_1
 70
0
 40
0.0
 41
0.8
 50
0.0
 71
0
 42
0.2
  3
gdt
  4

  0
ENDTAB
  0
TABLE
  2
VIEW
  5
6
100
AcDbSymbolTable
 70
0
  0
ENDTAB
  0
TABLE
  2
UCS
  5
7
100
AcDbSymbolTable
 70
0
  0
ENDTAB
  0
TABLE
  2
APPID
  5
9
100
AcDbSymbolTable
 70
1
  0
APPID
  5
20F
100
AcDbSymbolTableRecord
100
AcDbRegAppTableRecord
  2
ACAD
 70
0
  0
ENDTAB
  0
TABLE
  2
BLOCK_RECORD
  5
1
100
AcDbSymbolTable
 70
0
  0
BLOCK_RECORD
  5
210
100
AcDbSymbolTableRecord
100
AcDbBlockTableRecord
  2
*Model_Space
  0
BLOCK_RECORD
  5
211
100
AcDbSymbolTableRecord
100
AcDbBlockTableRecord
  2
*Paper_Space
  0
BLOCK_RECORD
  5
212
100
AcDbSymbolTableRecord
100
AcDbBlockTableRecord
  2
_FILLED
  0
BLOCK_RECORD
  5
213
100
AcDbSymbolTableRecord
100
AcDbBlockTableRecord
  2
*D0
  0
BLOCK_RECORD
  5
214
100
AcDbSymbolTableRecord
100
AcDbBlockTableRecord
  2
*D1
  0
BLOCK_RECORD
  5
215
100
AcDbSymbolTableRecord
100
AcDbBlockTableRecord
  2
*D2
  0
BLOCK_RECORD
  5
216
100
AcDbSymbolTableRecord
100
AcDbBlockTableRecord
  2
*D3
  0
BLOCK_RECORD
  5
217
100
AcDbSymbolTableRecord
100
AcDbBlockTableRecord
  2
*D4
  0
BLOCK_RECORD
  5
218
100
AcDbSymbolTableRecord
100
AcDbBlockTableRecord
  2
*D5
  0
BLOCK_RECORD
  5
219
100
AcDbSymbolTableRecord
100
AcDbBlockTableRecord
  2
*D6
  0
BLOCK_RECORD
  5
21A
100
AcDbSymbolTableRecord
100
AcDbBlockTableRecord
  2
*D7
  0
BLOCK_RECORD
  5
21B
100
AcDbSymbolTableRecord
100
AcDbBlockTableRecord
  2
*D8
  0
BLOCK_RECORD
  5
21C
100
AcDbSymbolTableRecord
100
AcDbBlockTableRecord
  2
*D9
  0
BLOCK_RECORD
  5
21D
100
AcDbSymbolTableRecord
100
AcDbBlockTableRecord
  2
*D10
  0
BLOCK_RECORD
  5
21E
100
AcDbSymbolTableRecord
100
AcDbBlockTableRecord
  2
*D11
  0
BLOCK_RECORD
  5
21F
100
AcDbSymbolTableRecord
100
AcDbBlockTableRecord
  2
*D12
  0
BLOCK_RECORD
  5
220
100
AcDbSymbolTableRecord
100
AcDbBlockTableRecord
  2
*D13
  0
BLOCK_RECORD
  5
221
100
AcDbSymbolTableRecord
100
AcDbBlockTableRecord
  2
*D14
  0
ENDTAB
  0
TABLE
  2
DIMSTYLE
  5
A
100
AcDbSymbolTable
 70
1
100
AcDbDimStyleTable
 71
0
  0
DIMSTYLE
105
222
100
AcDbSymbolTableRecord
100
AcDbDimStyleTableRecord
  2
STANDARD
 70
0
  3

  4

 40
1.0
 41
3.0
 42
0.5
 43
0.38
 44
1.5
 45
0.0
 46
0.0
 47
0.01
 48
0.01
140
3.0
141
0.09
142
0.0
143
25.4
144
1.0
145
0.0
146
1.0
147
0.625
 71
1.0
 72
0.0
 73
0
 74
0
 75
0
 76
0
 77
1
 78
8
170
0
171
1
172
0
173
0
174
0
175
0
176
0
177
0
178
0
270
2
271
2
272
2
273
2
274
2
275
0
280
0
281
0
282
0
283
1
284
8
285
0
286
0
287
3
288
0
340
11
278
44
341
212
342
212
343
212
344
212
  0
DIMSTYLE
105
223
100
AcDbSymbolTableRecord
100
AcDbDimStyleTableRecord
  2
DIMSTYLE_1
 70
0
  3

  4

 40
1.0
 41
3.0
 42
0.5
 43
0.38
 44
1.5
 45
0.0
 46
0.0
 47
0.0
 48
0.0
140
3.0
141
0.09
142
0.0
143
25.4
144
1.0
145
0.0
146
1.0
147
0.75
 71
0.0
 72
0.0
 73
0
 74
0
 75
0
 76
0
 77
1
 78
8
170
0
171
1
172
0
173
0
174
0
175
0
176
0
177
0
178
0
270
2
271
2
272
2
273
2
274
2
275
0
280
0
281
0
282
0
283
1
284
8
285
0
286
0
287
3
288
0
340
11
278
44
341
212
342
212
343
212
344
212
  0
DIMSTYLE
105
224
100
AcDbSymbolTableRecord
100
AcDbDimStyleTableRecord
  2
DIMSTYLE_2
 70
0
  3

  4

 40
1.0
 41
3.0
 42
0.5
 43
0.38
 44
1.5
 45
0.0
 46
0.0
 47
0.0
 48
0.0
140
3.0
141
0.09
142
0.0
143
25.4
144
1.0
145
0.0
146
1.0
147
0.75
 71
0.0
 72
0.0
 73
0
 74
0
 75
0
 76
0
 77
1
 78
8
170
0
171
1
172
0
173
0
174
0
175
0
176
0
177
0
178
0
270
2
271
1
272
1
273
2
274
2
275
0
280
0
281
0
282
0
283
1
284
8
285
0
286
0
287
3
288
0
340
11
278
44
341
212
342
212
343
212
344
212
  0
ENDTAB
  0
ENDSEC
  0
SECTION
  2
BLOCKS
  0
BLOCK
  5
20
100
AcDbEntity
  8
0
100
AcDbBlockBegin
  2
*Model_Space
 70
0
 10
0.0
 20
0.0
 30
0.0
  3
*Model_Space
  1

  0
ENDBLK
  5
21
100
AcDbEntity
  8
0
100
AcDbBlockEnd
  0
BLOCK
  5
1C
100
AcDbEntity
  8
0
100
AcDbBlockBegin
  2
*Paper_Space
 70
0
 10
0.0
 20
0.0
 30
0.0
  3
*Paper_Space
  1

  0
ENDBLK
  5
1D
100
AcDbEntity
  8
0
100
AcDbBlockEnd
  0
BLOCK
  5
225
100
AcDbEntity
  8
0
100
AcDbBlockBegin
  2
_FILLED
 70
64
 10
0.0
 20
0.0
  3
_FILLED
  1

  0
SOLID
  5
226
100
AcDbEntity
  8
0
  6
BYBLOCK
 62
0
100
AcDbTrace
 10
0.0
 20
0.0
 11
-1.0
 21
0.3166666667
 12
-1.0
 22
-0.3166666667
 13
-1.0
 23
-0.3166666667
  0
ENDBLK
  5
227
100
AcDbEntity
  8
0
  6
BYBLOCK
 62
0
100
AcDbBlockEnd
  0
BLOCK
  5
228
100
AcDbEntity
  8
0
100
AcDbBlockBegin
 62
7
  6
CONTINUOUS
  2
*D0
 70
65
 10
0.0
 20
0.0
  3
*D0
  1

  0
MTEXT
  5
229
100
AcDbEntity
  8
0
100
AcDbMText
 62
7
  6
CONTINUOUS
  7
STANDARD
 71
2
 72
1
 10
271.9049729633
 20
158.4063663798
 30
0.0
 11
1.0
 21
0.0
 31
0.0
 44
0.9
  1
39
 40
3.0
 41
6.75
  0
LINE
  5
22A
100
AcDbEntity
  8
0
100
AcDbLine
 62
7
  6
CONTINUOUS
 10
252.4049729633
 20
144.3891849802
 11
252.4049729633
 21
156.1563663798
  0
LINE
  5
22B
100
AcDbEntity
  8
0
100
AcDbLine
 62
7
  6
CONTINUOUS
 10
291.4049729633
 20
145.7046934602
 11
291.4049729633
 21
156.1563663798
  0
LINE
  5
22C
100
AcDbEntity
  8
0
100
AcDbLine
 62
7
  6
CONTINUOUS
 10
252.4049729633
 20
154.6563663798
 11
271.9049729633
 21
154.6563663798
  0
LINE
  5
22D
100
AcDbEntity
  8
0
100
AcDbLine
 62
7
  6
CONTINUOUS
 10
291.4049729633
 20
154.6563663798
 11
271.9049729633
 21
154.6563663798
  0
INSERT
  5
22E
100
AcDbEntity
  8
0
100
AcDbBlockReference
 62
7
  6
CONTINUOUS
  2
_FILLED
 10
252.4049729633
 20
154.6563663798
 41
3.0
 42
3.0
 43
3.0
 50
180.0
  0
INSERT
  5
22F
100
AcDbEntity
  8
0
100
AcDbBlockReference
 62
7
  6
CONTINUOUS
  2
_FILLED
 10
291.4049729633
 20
154.6563663798
 41
3.0
 42
3.0
 43
3.0
  0
ENDBLK
  5
230
100
AcDbEntity
  8
0
  6
BYBLOCK
 62
0
100
AcDbBlockEnd
  0
BLOCK
  5
231
100
AcDbEntity
  8
0
100
AcDbBlockBegin
 62
7
  6
CONTINUOUS
  2
*D1
 70
65
 10
0.0
 20
0.0
  3
*D1
  1

  0
MTEXT
  5
232
100
AcDbEntity
  8
0
100
AcDbMText
 62
7
  6
CONTINUOUS
  7
STANDARD
 71
2
 72
1
 10
100.0
 20
158.4063663798
 30
0.0
 11
1.0
 21
0.0
 31
0.0
 44
0.9
  1
100
 40
3.0
 41
9.6428571429
  0
LINE
  5
233
100
AcDbEntity
  8
0
100
AcDbLine
 62
7
  6
CONTINUOUS
 10
150.0
 20
111.5936336202
 11
150.0
 21
156.1563663798
  0
LINE
  5
234
100
AcDbEntity
  8
0
100
AcDbLine
 62
7
  6
CONTINUOUS
 10
50.0
 20
111.5936336202
 11
50.0
 21
156.1563663798
  0
LINE
  5
235
100
AcDbEntity
  8
0
100
AcDbLine
 62
7
  6
CONTINUOUS
 10
150.0
 20
154.6563663798
 11
100.0
 21
154.6563663798
  0
LINE
  5
236
100
AcDbEntity
  8
0
100
AcDbLine
 62
7
  6
CONTINUOUS
 10
50.0
 20
154.6563663798
 11
100.0
 21
154.6563663798
  0
INSERT
  5
237
100
AcDbEntity
  8
0
100
AcDbBlockReference
 62
7
  6
CONTINUOUS
  2
_FILLED
 10
150.0
 20
154.6563663798
 41
3.0
 42
3.0
 43
3.0
  0
INSERT
  5
238
100
AcDbEntity
  8
0
100
AcDbBlockReference
 62
7
  6
CONTINUOUS
  2
_FILLED
 10
50.0
 20
154.6563663798
 41
3.0
 42
3.0
 43
3.0
 50
180.0
  0
ENDBLK
  5
239
100
AcDbEntity
  8
0
  6
BYBLOCK
 62
0
100
AcDbBlockEnd
  0
BLOCK
  5
23A
100
AcDbEntity
  8
0
100
AcDbBlockBegin
 62
7
  6
CONTINUOUS
  2
*D2
 70
65
 10
0.0
 20
0.0
  3
*D2
  1

  0
MTEXT
  5
23B
100
AcDbEntity
  8
0
100
AcDbMText
 62
7
  6
CONTINUOUS
  7
STANDARD
 71
2
 72
1
 10
0.0
 20
158.4063663798
 30
0.0
 11
1.0
 21
0.0
 31
0.0
 44
0.9
  1
100
 40
3.0
 41
9.6428571429
  0
LINE
  5
23C
100
AcDbEntity
  8
0
100
AcDbLine
 62
7
  6
CONTINUOUS
 10
50.0
 20
111.5936336202
 11
50.0
 21
156.1563663798
  0
LINE
  5
23D
100
AcDbEntity
  8
0
100
AcDbLine
 62
7
  6
CONTINUOUS
 10
-50.0
 20
111.5936336202
 11
-50.0
 21
156.1563663798
  0
LINE
  5
23E
100
AcDbEntity
  8
0
100
AcDbLine
 62
7
  6
CONTINUOUS
 10
50.0
 20
154.6563663798
 11
0.0
 21
154.6563663798
  0
LINE
  5
23F
100
AcDbEntity
  8
0
100
AcDbLine
 62
7
  6
CONTINUOUS
 10
-50.0
 20
154.6563663798
 11
0.0
 21
154.6563663798
  0
INSERT
  5
240
100
AcDbEntity
  8
0
100
AcDbBlockReference
 62
7
  6
CONTINUOUS
  2
_FILLED
 10
50.0
 20
154.6563663798
 41
3.0
 42
3.0
 43
3.0
  0
INSERT
  5
241
100
AcDbEntity
  8
0
100
AcDbBlockReference
 62
7
  6
CONTINUOUS
  2
_FILLED
 10
-50.0
 20
154.6563663798
 41
3.0
 42
3.0
 43
3.0
 50
180.0
  0
ENDBLK
  5
242
100
AcDbEntity
  8
0
  6
BYBLOCK
 62
0
100
AcDbBlockEnd
  0
BLOCK
  5
243
100
AcDbEntity
  8
0
100
AcDbBlockBegin
 62
7
  6
CONTINUOUS
  2
*D3
 70
65
 10
0.0
 20
0.0
  3
*D3
  1

  0
MTEXT
  5
244
100
AcDbEntity
  8
0
100
AcDbMText
 62
7
  6
CONTINUOUS
  7
STANDARD
 71
2
 72
1
 10
-100.0
 20
158.4063663798
 30
0.0
 11
1.0
 21
0.0
 31
0.0
 44
0.9
  1
100
 40
3.0
 41
9.6428571429
  0
LINE
  5
245
100
AcDbEntity
  8
0
100
AcDbLine
 62
7
  6
CONTINUOUS
 10
-50.0
 20
111.5936336202
 11
-50.0
 21
156.1563663798
  0
LINE
  5
246
100
AcDbEntity
  8
0
100
AcDbLine
 62
7
  6
CONTINUOUS
 10
-150.0
 20
111.5936336202
 11
-150.0
 21
156.1563663798
  0
LINE
  5
247
100
AcDbEntity
  8
0
100
AcDbLine
 62
7
  6
CONTINUOUS
 10
-50.0
 20
154.6563663798
 11
-100.0
 21
154.6563663798
  0
LINE
  5
248
100
AcDbEntity
  8
0
100
AcDbLine
 62
7
  6
CONTINUOUS
 10
-150.0
 20
154.6563663798
 11
-100.0
 21
154.6563663798
  0
INSERT
  5
249
100
AcDbEntity
  8
0
100
AcDbBlockReference
 62
7
  6
CONTINUOUS
  2
_FILLED
 10
-50.0
 20
154.6563663798
 41
3.0
 42
3.0
 43
3.0
  0
INSERT
  5
24A
100
AcDbEntity
  8
0
100
AcDbBlockReference
 62
7
  6
CONTINUOUS
  2
_FILLED
 10
-150.0
 20
154.6563663798
 41
3.0
 42
3.0
 43
3.0
 50
180.0
  0
ENDBLK
  5
24B
100
AcDbEntity
  8
0
  6
BYBLOCK
 62
0
100
AcDbBlockEnd
  0
BLOCK
  5
24C
100
AcDbEntity
  8
0
100
AcDbBlockBegin
 62
7
  6
CONTINUOUS
  2
*D4
 70
65
 10
0.0
 20
0.0
  3
*D4
  1

  0
MTEXT
  5
24D
100
AcDbEntity
  8
0
100
AcDbMText
 62
7
  6
CONTINUOUS
  7
STANDARD
 71
2
 72
1
 10
270.4049729633
 20
167.4063663798
 30
0.0
 11
1.0
 21
0.0
 31
0.0
 44
0.9
  1
42
 40
3.0
 41
7.0714285714
  0
LINE
  5
24E
100
AcDbEntity
  8
0
100
AcDbLine
 62
7
  6
CONTINUOUS
 10
291.4049729633
 20
145.6140924577
 11
291.4049729633
 21
165.1563663798
  0
LINE
  5
24F
100
AcDbEntity
  8
0
100
AcDbLine
 62
7
  6
CONTINUOUS
 10
249.4049729633
 20
139.3290083402
 11
249.4049729633
 21
165.1563663798
  0
LINE
  5
250
100
AcDbEntity
  8
0
100
AcDbLine
 62
7
  6
CONTINUOUS
 10
291.4049729633
 20
163.6563663798
 11
270.4049729633
 21
163.6563663798
  0
LINE
  5
251
100
AcDbEntity
  8
0
100
AcDbLine
 62
7
  6
CONTINUOUS
 10
249.4049729633
 20
163.6563663798
 11
270.4049729633
 21
163.6563663798
  0
INSERT
  5
252
100
AcDbEntity
  8
0
100
AcDbBlockReference
 62
7
  6
CONTINUOUS
  2
_FILLED
 10
291.4049729633
 20
163.6563663798
 41
3.0
 42
3.0
 43
3.0
 50
360.0
  0
INSERT
  5
253
100
AcDbEntity
  8
0
100
AcDbBlockReference
 62
7
  6
CONTINUOUS
  2
_FILLED
 10
249.4049729633
 20
163.6563663798
 41
3.0
 42
3.0
 43
3.0
 50
180.0
  0
ENDBLK
  5
254
100
AcDbEntity
  8
0
  6
BYBLOCK
 62
0
100
AcDbBlockEnd
  0
BLOCK
  5
255
100
AcDbEntity
  8
0
100
AcDbBlockBegin
 62
7
  6
CONTINUOUS
  2
*D5
 70
65
 10
0.0
 20
0.0
  3
*D5
  1

  0
MTEXT
  5
256
100
AcDbEntity
  8
0
100
AcDbMText
 62
7
  6
CONTINUOUS
  7
STANDARD
 71
2
 72
1
 10
-234.0627327596
 20
-4.9063663798
 30
0.0
 11
0.0
 21
1.0
 31
0.0
 44
0.9
  1
245
 40
3.0
 41
10.2857142857
  0
LINE
  5
257
100
AcDbEntity
  8
0
100
AcDbLine
 62
7
  6
CONTINUOUS
 10
-151.75
 20
117.5936336202
 11
-231.8127327596
 21
117.5936336202
  0
LINE
  5
258
100
AcDbEntity
  8
0
100
AcDbLine
 62
7
  6
CONTINUOUS
 10
-153.25
 20
-127.4063663798
 11
-231.8127327596
 21
-127.4063663798
  0
LINE
  5
259
100
AcDbEntity
  8
0
100
AcDbLine
 62
7
  6
CONTINUOUS
 10
-230.3127327596
 20
117.5936336202
 11
-230.3127327596
 21
-4.9063663798
  0
LINE
  5
25A
100
AcDbEntity
  8
0
100
AcDbLine
 62
7
  6
CONTINUOUS
 10
-230.3127327596
 20
-127.4063663798
 11
-230.3127327596
 21
-4.9063663798
  0
INSERT
  5
25B
100
AcDbEntity
  8
0
100
AcDbBlockReference
 62
7
  6
CONTINUOUS
  2
_FILLED
 10
-230.3127327596
 20
117.5936336202
 41
3.0
 42
3.0
 43
3.0
 50
90.0
  0
INSERT
  5
25C
100
AcDbEntity
  8
0
100
AcDbBlockReference
 62
7
  6
CONTINUOUS
  2
_FILLED
 10
-230.3127327596
 20
-127.4063663798
 41
3.0
 42
3.0
 43
3.0
 50
270.0
  0
ENDBLK
  5
25D
100
AcDbEntity
  8
0
  6
BYBLOCK
 62
0
100
AcDbBlockEnd
  0
BLOCK
  5
25E
100
AcDbEntity
  8
0
100
AcDbBlockBegin
 62
7
  6
CONTINUOUS
  2
*D6
 70
65
 10
0.0
 20
0.0
  3
*D6
  1

  0
MTEXT
  5
25F
100
AcDbEntity
  8
0
100
AcDbMText
 62
7
  6
CONTINUOUS
  7
STANDARD
 71
2
 72
1
 10
-150.0
 20
-150.9063663798
 30
0.0
 11
1.0
 21
0.0
 31
0.0
 44
0.9
  1
50,5
 40
3.0
 41
12.5357142857
  0
LINE
  5
260
100
AcDbEntity
  8
0
100
AcDbLine
 62
7
  6
CONTINUOUS
 10
-124.75
 20
-128.8096834618
 11
-124.75
 21
-156.1563663798
  0
LINE
  5
261
100
AcDbEntity
  8
0
100
AcDbLine
 62
7
  6
CONTINUOUS
 10
-175.25
 20
-128.8537859671
 11
-175.25
 21
-156.1563663798
  0
LINE
  5
262
100
AcDbEntity
  8
0
100
AcDbLine
 62
7
  6
CONTINUOUS
 10
-124.75
 20
-154.6563663798
 11
-150.0
 21
-154.6563663798
  0
LINE
  5
263
100
AcDbEntity
  8
0
100
AcDbLine
 62
7
  6
CONTINUOUS
 10
-175.25
 20
-154.6563663798
 11
-150.0
 21
-154.6563663798
  0
INSERT
  5
264
100
AcDbEntity
  8
0
100
AcDbBlockReference
 62
7
  6
CONTINUOUS
  2
_FILLED
 10
-124.75
 20
-154.6563663798
 41
3.0
 42
3.0
 43
3.0
  0
INSERT
  5
265
100
AcDbEntity
  8
0
100
AcDbBlockReference
 62
7
  6
CONTINUOUS
  2
_FILLED
 10
-175.25
 20
-154.6563663798
 41
3.0
 42
3.0
 43
3.0
 50
180.0
  0
ENDBLK
  5
266
100
AcDbEntity
  8
0
  6
BYBLOCK
 62
0
100
AcDbBlockEnd
  0
BLOCK
  5
267
100
AcDbEntity
  8
0
100
AcDbBlockBegin
 62
7
  6
CONTINUOUS
  2
*D7
 70
65
 10
0.0
 20
0.0
  3
*D7
  1

  0
MTEXT
  5
268
100
AcDbEntity
  8
0
100
AcDbMText
 62
7
  6
CONTINUOUS
  7
STANDARD
 71
2
 72
1
 10
0.0
 20
167.4063663798
 30
0.0
 11
1.0
 21
0.0
 31
0.0
 44
0.9
  1
420
 40
3.0
 41
10.6071428571
  0
LINE
  5
269
100
AcDbEntity
  8
0
100
AcDbLine
 62
7
  6
CONTINUOUS
 10
-210.0
 20
143.7218136202
 11
-210.0
 21
165.1563663798
  0
LINE
  5
26A
100
AcDbEntity
  8
0
100
AcDbLine
 62
7
  6
CONTINUOUS
 10
210.0
 20
144.2540494052
 11
210.0
 21
165.1563663798
  0
LINE
  5
26B
100
AcDbEntity
  8
0
100
AcDbLine
 62
7
  6
CONTINUOUS
 10
-210.0
 20
163.6563663798
 11
0.0
 21
163.6563663798
  0
LINE
  5
26C
100
AcDbEntity
  8
0
100
AcDbLine
 62
7
  6
CONTINUOUS
 10
210.0
 20
163.6563663798
 11
0.0
 21
163.6563663798
  0
INSERT
  5
26D
100
AcDbEntity
  8
0
100
AcDbBlockReference
 62
7
  6
CONTINUOUS
  2
_FILLED
 10
-210.0
 20
163.6563663798
 41
3.0
 42
3.0
 43
3.0
 50
180.0
  0
INSERT
  5
26E
100
AcDbEntity
  8
0
100
AcDbBlockReference
 62
7
  6
CONTINUOUS
  2
_FILLED
 10
210.0
 20
163.6563663798
 41
3.0
 42
3.0
 43
3.0
  0
ENDBLK
  5
26F
100
AcDbEntity
  8
0
  6
BYBLOCK
 62
0
100
AcDbBlockEnd
  0
BLOCK
  5
270
100
AcDbEntity
  8
0
100
AcDbBlockBegin
 62
7
  6
CONTINUOUS
  2
*D8
 70
65
 10
0.0
 20
0.0
  3
*D8
  1

  0
MTEXT
  5
271
100
AcDbEntity
  8
0
100
AcDbMText
 62
7
  6
CONTINUOUS
  7
STANDARD
 71
2
 72
1
 10
-243.0627327596
 20
-0.6563663798
 30
0.0
 11
0.0
 21
1.0
 31
0.0
 44
0.9
  1
288
 40
3.0
 41
10.6071428571
  0
LINE
  5
272
100
AcDbEntity
  8
0
100
AcDbLine
 62
7
  6
CONTINUOUS
 10
-211.2860389648
 20
143.3436336202
 11
-240.8127327596
 21
143.3436336202
  0
LINE
  5
273
100
AcDbEntity
  8
0
100
AcDbLine
 62
7
  6
CONTINUOUS
 10
-211.2063165993
 20
-144.6563663798
 11
-240.8127327596
 21
-144.6563663798
  0
LINE
  5
274
100
AcDbEntity
  8
0
100
AcDbLine
 62
7
  6
CONTINUOUS
 10
-239.3127327596
 20
143.3436336202
 11
-239.3127327596
 21
-0.6563663798
  0
LINE
  5
275
100
AcDbEntity
  8
0
100
AcDbLine
 62
7
  6
CONTINUOUS
 10
-239.3127327596
 20
-144.6563663798
 11
-239.3127327596
 21
-0.6563663798
  0
INSERT
  5
276
100
AcDbEntity
  8
0
100
AcDbBlockReference
 62
7
  6
CONTINUOUS
  2
_FILLED
 10
-239.3127327596
 20
143.3436336202
 41
3.0
 42
3.0
 43
3.0
 50
90.0
  0
INSERT
  5
277
100
AcDbEntity
  8
0
100
AcDbBlockReference
 62
7
  6
CONTINUOUS
  2
_FILLED
 10
-239.3127327596
 20
-144.6563663798
 41
3.0
 42
3.0
 43
3.0
 50
270.0
  0
ENDBLK
  5
278
100
AcDbEntity
  8
0
  6
BYBLOCK
 62
0
100
AcDbBlockEnd
  0
BLOCK
  5
279
100
AcDbEntity
  8
0
100
AcDbBlockBegin
 62
7
  6
CONTINUOUS
  2
*D9
 70
65
 10
0.0
 20
0.0
  3
*D9
  1

  0
MTEXT
  5
27A
100
AcDbEntity
  8
0
100
AcDbMText
 62
7
  6
CONTINUOUS
  7
STANDARD
 71
2
 72
1
 10
-234.0627327596
 20
-136.0313663798
 30
0.0
 11
0.0
 21
1.0
 31
0.0
 44
0.9
  1
17,3
 40
3.0
 41
11.8928571429
  0
LINE
  5
27B
100
AcDbEntity
  8
0
100
AcDbLine
 62
7
  6
CONTINUOUS
 10
-211.15612416
 20
-144.6563663798
 11
-231.8127327596
 21
-144.6563663798
  0
LINE
  5
27C
100
AcDbEntity
  8
0
100
AcDbLine
 62
7
  6
CONTINUOUS
 10
-153.25
 20
-127.4063663798
 11
-231.8127327596
 21
-127.4063663798
  0
LINE
  5
27D
100
AcDbEntity
  8
0
100
AcDbLine
 62
7
  6
CONTINUOUS
 10
-230.3127327596
 20
-144.6563663798
 11
-230.3127327596
 21
-136.0313663798
  0
LINE
  5
27E
100
AcDbEntity
  8
0
100
AcDbLine
 62
7
  6
CONTINUOUS
 10
-230.3127327596
 20
-127.4063663798
 11
-230.3127327596
 21
-136.0313663798
  0
INSERT
  5
27F
100
AcDbEntity
  8
0
100
AcDbBlockReference
 62
7
  6
CONTINUOUS
  2
_FILLED
 10
-230.3127327596
 20
-144.6563663798
 41
3.0
 42
3.0
 43
3.0
 50
270.0
  0
INSERT
  5
280
100
AcDbEntity
  8
0
100
AcDbBlockReference
 62
7
  6
CONTINUOUS
  2
_FILLED
 10
-230.3127327596
 20
-127.4063663798
 41
3.0
 42
3.0
 43
3.0
 50
90.0
  0
ENDBLK
  5
281
100
AcDbEntity
  8
0
  6
BYBLOCK
 62
0
100
AcDbBlockEnd
  0
BLOCK
  5
282
100
AcDbEntity
  8
0
100
AcDbBlockBegin
 62
7
  6
CONTINUOUS
  2
*D10
 70
65
 10
0.0
 20
0.0
  3
*D10
  1

  0
MTEXT
  5
283
100
AcDbEntity
  8
0
100
AcDbMText
 62
7
  6
CONTINUOUS
  7
STANDARD
 71
2
 72
1
 10
-225.0627327596
 20
-4.6563663798
 30
0.0
 11
0.0
 21
1.0
 31
0.0
 44
0.9
  1
231,5
 40
3.0
 41
15.1071428571
  0
LINE
  5
284
100
AcDbEntity
  8
0
100
AcDbLine
 62
7
  6
CONTINUOUS
 10
-167.2134368
 20
111.0936336202
 11
-222.8127327596
 21
111.0936336202
  0
LINE
  5
285
100
AcDbEntity
  8
0
100
AcDbLine
 62
7
  6
CONTINUOUS
 10
-189.5
 20
-120.4063663798
 11
-222.8127327596
 21
-120.4063663798
  0
LINE
  5
286
100
AcDbEntity
  8
0
100
AcDbLine
 62
7
  6
CONTINUOUS
 10
-221.3127327596
 20
111.0936336202
 11
-221.3127327596
 21
-4.6563663798
  0
LINE
  5
287
100
AcDbEntity
  8
0
100
AcDbLine
 62
7
  6
CONTINUOUS
 10
-221.3127327596
 20
-120.4063663798
 11
-221.3127327596
 21
-4.6563663798
  0
INSERT
  5
288
100
AcDbEntity
  8
0
100
AcDbBlockReference
 62
7
  6
CONTINUOUS
  2
_FILLED
 10
-221.3127327596
 20
111.0936336202
 41
3.0
 42
3.0
 43
3.0
 50
90.0
  0
INSERT
  5
289
100
AcDbEntity
  8
0
100
AcDbBlockReference
 62
7
  6
CONTINUOUS
  2
_FILLED
 10
-221.3127327596
 20
-120.4063663798
 41
3.0
 42
3.0
 43
3.0
 50
270.0
  0
ENDBLK
  5
28A
100
AcDbEntity
  8
0
  6
BYBLOCK
 62
0
100
AcDbBlockEnd
  0
BLOCK
  5
28B
100
AcDbEntity
  8
0
100
AcDbBlockBegin
 62
7
  6
CONTINUOUS
  2
*D11
 70
65
 10
0.0
 20
0.0
  3
*D11
  1

  0
MTEXT
  5
28C
100
AcDbEntity
  8
0
100
AcDbMText
 62
7
  6
CONTINUOUS
  7
STANDARD
 71
2
 72
1
 10
-225.0627327596
 20
-133.0910381994
 30
0.0
 11
0.0
 21
1.0
 31
0.0
 44
0.9
  1
24,3
 40
3.0
 41
12.8571428571
  0
LINE
  5
28D
100
AcDbEntity
  8
0
100
AcDbLine
 62
7
  6
CONTINUOUS
 10
-189.5
 20
-120.4063663798
 11
-222.8127327596
 21
-120.4063663798
  0
LINE
  5
28E
100
AcDbEntity
  8
0
100
AcDbLine
 62
7
  6
CONTINUOUS
 10
-211.15612416
 20
-144.6563663798
 11
-222.8127327596
 21
-144.6563663798
  0
LINE
  5
28F
100
AcDbEntity
  8
0
100
AcDbLine
 62
7
  6
CONTINUOUS
 10
-221.3127327596
 20
-120.4063663798
 11
-221.3127327596
 21
-132.5313663798
  0
LINE
  5
290
100
AcDbEntity
  8
0
100
AcDbLine
 62
7
  6
CONTINUOUS
 10
-221.3127327596
 20
-144.6563663798
 11
-221.3127327596
 21
-132.5313663798
  0
INSERT
  5
291
100
AcDbEntity
  8
0
100
AcDbBlockReference
 62
7
  6
CONTINUOUS
  2
_FILLED
 10
-221.3127327596
 20
-120.4063663798
 41
3.0
 42
3.0
 43
3.0
 50
90.0
  0
INSERT
  5
292
100
AcDbEntity
  8
0
100
AcDbBlockReference
 62
7
  6
CONTINUOUS
  2
_FILLED
 10
-221.3127327596
 20
-144.6563663798
 41
3.0
 42
3.0
 43
3.0
 50
270.0
  0
ENDBLK
  5
293
100
AcDbEntity
  8
0
  6
BYBLOCK
 62
0
100
AcDbBlockEnd
  0
BLOCK
  5
294
100
AcDbEntity
  8
0
100
AcDbBlockBegin
 62
7
  6
CONTINUOUS
  2
*D12
 70
65
 10
0.0
 20
0.0
  3
*D12
  1

  0
MTEXT
  5
295
100
AcDbEntity
  8
0
100
AcDbMText
 62
7
  6
CONTINUOUS
  7
STANDARD
 71
2
 72
1
 10
-150.0
 20
-159.9063663798
 30
0.0
 11
1.0
 21
0.0
 31
0.0
 44
0.9
  1
80
 40
3.0
 41
7.0714285714
  0
LINE
  5
296
100
AcDbEntity
  8
0
100
AcDbLine
 62
7
  6
CONTINUOUS
 10
-190.0
 20
-119.9063663798
 11
-190.0
 21
-165.1563663798
  0
LINE
  5
297
100
AcDbEntity
  8
0
100
AcDbLine
 62
7
  6
CONTINUOUS
 10
-110.0
 20
-119.9063663798
 11
-110.0
 21
-165.1563663798
  0
LINE
  5
298
100
AcDbEntity
  8
0
100
AcDbLine
 62
7
  6
CONTINUOUS
 10
-190.0
 20
-163.6563663798
 11
-150.0
 21
-163.6563663798
  0
LINE
  5
299
100
AcDbEntity
  8
0
100
AcDbLine
 62
7
  6
CONTINUOUS
 10
-110.0
 20
-163.6563663798
 11
-150.0
 21
-163.6563663798
  0
INSERT
  5
29A
100
AcDbEntity
  8
0
100
AcDbBlockReference
 62
7
  6
CONTINUOUS
  2
_FILLED
 10
-190.0
 20
-163.6563663798
 41
3.0
 42
3.0
 43
3.0
 50
180.0
  0
INSERT
  5
29B
100
AcDbEntity
  8
0
100
AcDbBlockReference
 62
7
  6
CONTINUOUS
  2
_FILLED
 10
-110.0
 20
-163.6563663798
 41
3.0
 42
3.0
 43
3.0
  0
ENDBLK
  5
29C
100
AcDbEntity
  8
0
  6
BYBLOCK
 62
0
100
AcDbBlockEnd
  0
BLOCK
  5
29D
100
AcDbEntity
  8
0
100
AcDbBlockBegin
 62
7
  6
CONTINUOUS
  2
*D13
 70
65
 10
0.0
 20
0.0
  3
*D13
  1

  0
MTEXT
  5
29E
100
AcDbEntity
  8
0
100
AcDbMText
 62
7
  6
CONTINUOUS
  7
STANDARD
 71
3
 72
1
 10
-181.6585932403
 20
158.4063663798
 30
0.0
 11
1.0
 21
0.0
 31
0.0
 44
0.9
  1
3,5
 40
3.0
 41
9.0
  0
LINE
  5
29F
100
AcDbEntity
  8
0
100
AcDbLine
 62
7
  6
CONTINUOUS
 10
-177.0
 20
120.268572024
 11
-177.0
 21
156.1563663798
  0
LINE
  5
2A0
100
AcDbEntity
  8
0
100
AcDbLine
 62
7
  6
CONTINUOUS
 10
-173.5
 20
120.3106146787
 11
-173.5
 21
156.1563663798
  0
LINE
  5
2A1
100
AcDbEntity
  8
0
100
AcDbLine
 62
7
  6
CONTINUOUS
 10
-177.0
 20
154.6563663798
 11
-187.6585932403
 21
154.6563663798
  0
LINE
  5
2A2
100
AcDbEntity
  8
0
100
AcDbLine
 62
7
  6
CONTINUOUS
 10
-187.6585932403
 20
154.6563663798
 11
-175.25
 21
154.6563663798
  0
LINE
  5
2A3
100
AcDbEntity
  8
0
100
AcDbLine
 62
7
  6
CONTINUOUS
 10
-173.5
 20
154.6563663798
 11
-169.5
 21
154.6563663798
  0
LINE
  5
2A4
100
AcDbEntity
  8
0
100
AcDbLine
 62
7
  6
CONTINUOUS
 10
-169.5
 20
154.6563663798
 11
-175.25
 21
154.6563663798
  0
INSERT
  5
2A5
100
AcDbEntity
  8
0
100
AcDbBlockReference
 62
7
  6
CONTINUOUS
  2
_FILLED
 10
-177.0
 20
154.6563663798
 41
3.0
 42
3.0
 43
3.0
  0
INSERT
  5
2A6
100
AcDbEntity
  8
0
100
AcDbBlockReference
 62
7
  6
CONTINUOUS
  2
_FILLED
 10
-173.5
 20
154.6563663798
 41
3.0
 42
3.0
 43
3.0
 50
180.0
  0
ENDBLK
  5
2A7
100
AcDbEntity
  8
0
  6
BYBLOCK
 62
0
100
AcDbBlockEnd
  0
BLOCK
  5
2A8
100
AcDbEntity
  8
0
100
AcDbBlockBegin
 62
7
  6
CONTINUOUS
  2
*D14
 70
65
 10
0.0
 20
0.0
  3
*D14
  1

  0
MTEXT
  5
2A9
100
AcDbEntity
  8
0
100
AcDbMText
 62
7
  6
CONTINUOUS
  7
STANDARD
 71
1
 72
1
 10
-41.8397295556
 20
-150.9063663798
 30
0.0
 11
1.0
 21
0.0
 31
0.0
 44
0.9
  1
5,5
 40
3.0
 41
9.0
  0
LINE
  5
2AA
100
AcDbEntity
  8
0
100
AcDbLine
 62
7
  6
CONTINUOUS
 10
-52.75
 20
-131.2092303798
 11
-52.75
 21
-156.1563663798
  0
LINE
  5
2AB
100
AcDbEntity
  8
0
100
AcDbLine
 62
7
  6
CONTINUOUS
 10
-47.25
 20
-131.4658383798
 11
-47.25
 21
-156.1563663798
  0
LINE
  5
2AC
100
AcDbEntity
  8
0
100
AcDbLine
 62
7
  6
CONTINUOUS
 10
-52.75
 20
-154.6563663798
 11
-56.75
 21
-154.6563663798
  0
LINE
  5
2AD
100
AcDbEntity
  8
0
100
AcDbLine
 62
7
  6
CONTINUOUS
 10
-56.75
 20
-154.6563663798
 11
-50.0
 21
-154.6563663798
  0
LINE
  5
2AE
100
AcDbEntity
  8
0
100
AcDbLine
 62
7
  6
CONTINUOUS
 10
-47.25
 20
-154.6563663798
 11
-35.8397295556
 21
-154.6563663798
  0
LINE
  5
2AF
100
AcDbEntity
  8
0
100
AcDbLine
 62
7
  6
CONTINUOUS
 10
-35.8397295556
 20
-154.6563663798
 11
-50.0
 21
-154.6563663798
  0
INSERT
  5
2B0
100
AcDbEntity
  8
0
100
AcDbBlockReference
 62
7
  6
CONTINUOUS
  2
_FILLED
 10
-52.75
 20
-154.6563663798
 41
3.0
 42
3.0
 43
3.0
  0
INSERT
  5
2B1
100
AcDbEntity
  8
0
100
AcDbBlockReference
 62
7
  6
CONTINUOUS
  2
_FILLED
 10
-47.25
 20
-154.6563663798
 41
3.0
 42
3.0
 43
3.0
 50
180.0
  0
ENDBLK
  5
2B2
100
AcDbEntity
  8
0
  6
BYBLOCK
 62
0
100
AcDbBlockEnd
  0
ENDSEC
  0
SECTION
  2
ENTITIES
  0
DIMENSION
  5
2B3
100
AcDbEntity
  8
0
100
AcDbDimension
 62
7
  6
CONTINUOUS
  2
*D0
 10
291.4049729633
 20
154.6563663798
 11
271.476399353
 21
154.6563663798
 70
160
 71
2
 42
39.0
  3
DIMSTYLE_1
100
AcDbAlignedDimension
 13
252.4049729633
 23
143.8891849802
 14
291.4049729633
 24
145.2046934602
100
AcDbRotatedDimension
  0
DIMENSION
  5
2B4
100
AcDbEntity
  8
0
100
AcDbDimension
 62
7
  6
CONTINUOUS
  2
*D1
 10
50.0
 20
154.6563663798
 11
99.5714298248
 21
154.6563663798
 70
160
 71
2
 42
100.0
  3
DIMSTYLE_1
100
AcDbAlignedDimension
 13
150.0
 23
111.0936336202
 14
50.0
 24
111.0936336202
 50
180.0
100
AcDbRotatedDimension
  0
DIMENSION
  5
2B5
100
AcDbEntity
  8
0
100
AcDbDimension
 62
7
  6
CONTINUOUS
  2
*D2
 10
-50.0
 20
154.6563663798
 11
-0.4285714481
 21
154.6563663798
 70
160
 71
2
 42
100.0
  3
DIMSTYLE_1
100
AcDbAlignedDimension
 13
50.0
 23
111.0936336202
 14
-50.0
 24
111.0936336202
 50
180.0
100
AcDbRotatedDimension
  0
DIMENSION
  5
2B6
100
AcDbEntity
  8
0
100
AcDbDimension
 62
7
  6
CONTINUOUS
  2
*D3
 10
-150.0
 20
154.6563663798
 11
-100.4285722961
 21
154.6563663798
 70
160
 71
2
 42
100.0
  3
DIMSTYLE_1
100
AcDbAlignedDimension
 13
-50.0
 23
111.0936336202
 14
-150.0
 24
111.0936336202
 50
180.0
100
AcDbRotatedDimension
  0
DIMENSION
  5
2B7
100
AcDbEntity
  8
0
100
AcDbDimension
 62
7
  6
CONTINUOUS
  2
*D4
 10
249.4049729633
 20
163.6563663798
 11
269.9763988953
 21
163.6563663798
 70
160
 71
2
 42
42.0
  3
DIMSTYLE_1
100
AcDbAlignedDimension
 13
291.4049729633
 23
145.1140924577
 14
249.4049729633
 24
138.8290083402
 50
180.0
100
AcDbRotatedDimension
  0
DIMENSION
  5
2B8
100
AcDbEntity
  8
0
100
AcDbDimension
 62
7
  6
CONTINUOUS
  2
*D5
 10
-230.3127327596
 20
-127.4063663798
 11
-230.3127327596
 21
-5.3349411938
 70
160
 71
2
 42
245.0
  3
DIMSTYLE_1
100
AcDbAlignedDimension
 13
-151.25
 23
117.5936336202
 14
-152.75
 24
-127.4063663798
 50
270.0
100
AcDbRotatedDimension
  0
DIMENSION
  5
2B9
100
AcDbEntity
  8
0
100
AcDbDimension
 62
7
  6
CONTINUOUS
  2
*D6
 10
-175.25
 20
-154.6563663798
 11
-150.4285694275
 21
-154.6563663798
 70
160
 71
2
 42
50.5
  3
DIMSTYLE_1
100
AcDbAlignedDimension
 13
-124.75
 23
-128.3096834618
 14
-175.25
 24
-128.3537859671
 50
180.0
100
AcDbRotatedDimension
  0
DIMENSION
  5
2BA
100
AcDbEntity
  8
0
100
AcDbDimension
 62
7
  6
CONTINUOUS
  2
*D7
 10
210.0
 20
163.6563663798
 11
-0.4285715189
 21
163.6563663798
 70
160
 71
2
 42
420.0
  3
DIMSTYLE_1
100
AcDbAlignedDimension
 13
-210.0
 23
143.2218136202
 14
210.0
 24
143.7540494052
100
AcDbRotatedDimension
  0
DIMENSION
  5
2BB
100
AcDbEntity
  8
0
100
AcDbDimension
 62
7
  6
CONTINUOUS
  2
*D8
 10
-239.3127327596
 20
-144.6563663798
 11
-239.3127327596
 21
-1.0849445551
 70
160
 71
2
 42
288.0
  3
DIMSTYLE_1
100
AcDbAlignedDimension
 13
-210.7860389648
 23
143.3436336202
 14
-210.7063165993
 24
-144.6563663798
 50
270.0
100
AcDbRotatedDimension
  0
DIMENSION
  5
2BC
100
AcDbEntity
  8
0
100
AcDbDimension
 62
7
  6
CONTINUOUS
  2
*D9
 10
-230.3127327596
 20
-127.4063663798
 11
-230.3127327596
 21
-136.4599442673
 70
160
 71
2
 42
17.25
  3
DIMSTYLE_2
100
AcDbAlignedDimension
 13
-210.65612416
 23
-144.6563663798
 14
-152.75
 24
-127.4063663798
 50
90.0
100
AcDbRotatedDimension
  0
DIMENSION
  5
2BD
100
AcDbEntity
  8
0
100
AcDbDimension
 62
7
  6
CONTINUOUS
  2
*D10
 10
-221.3127327596
 20
-120.4063663798
 11
-221.3127327596
 21
-5.0849386041
 70
160
 71
2
 42
231.5
  3
DIMSTYLE_1
100
AcDbAlignedDimension
 13
-166.7134368
 23
111.0936336202
 14
-189.0
 24
-120.4063663798
 50
270.0
100
AcDbRotatedDimension
  0
DIMENSION
  5
2BE
100
AcDbEntity
  8
0
100
AcDbDimension
 62
7
  6
CONTINUOUS
  2
*D11
 10
-221.3127327596
 20
-144.6563663798
 11
-221.3127327596
 21
-133.5196061208
 70
160
 71
2
 42
24.25
  3
DIMSTYLE_2
100
AcDbAlignedDimension
 13
-189.0
 23
-120.4063663798
 14
-210.65612416
 24
-144.6563663798
 50
270.0
100
AcDbRotatedDimension
  0
DIMENSION
  5
2BF
100
AcDbEntity
  8
0
100
AcDbDimension
 62
7
  6
CONTINUOUS
  2
*D12
 10
-110.0
 20
-163.6563663798
 11
-150.4285694275
 21
-163.6563663798
 70
160
 71
2
 42
80.0
  3
DIMSTYLE_1
100
AcDbAlignedDimension
 13
-190.0
 23
-119.4063663798
 14
-110.0
 24
-119.4063663798
100
AcDbRotatedDimension
  0
DIMENSION
  5
2C0
100
AcDbEntity
  8
0
100
AcDbDimension
 62
7
  6
CONTINUOUS
  2
*D13
 10
-173.5
 20
154.6563663798
 11
-185.0871678772
 21
154.6563663798
 70
160
 71
3
 42
3.5
  3
DIMSTYLE_1
100
AcDbAlignedDimension
 13
-177.0
 23
119.768572024
 14
-173.5
 24
119.8106146787
100
AcDbRotatedDimension
  0
DIMENSION
  5
2C1
100
AcDbEntity
  8
0
100
AcDbDimension
 62
7
  6
CONTINUOUS
  2
*D14
 10
-47.25
 20
-154.6563663798
 11
-39.2683014336
 21
-154.6563663798
 70
160
 71
1
 42
5.5
  3
DIMSTYLE_1
100
AcDbAlignedDimension
 13
-52.75
 23
-130.7092303798
 14
-47.25
 24
-130.9658383798
100
AcDbRotatedDimension
  0
LWPOLYLINE
  5
2C2
100
AcDbEntity
  8
ASSI
100
AcDbPolyline
 62
7
  6
CONTINUOUS
 90
34
 70
0
 10
-209.8818239575
 20
119.6067255935
 10
-209.8810723788
 20
119.449612425
 10
-209.8787365275
 20
119.2923768303
 10
-209.874820333
 20
119.1350188094
 10
-209.8693287347
 20
118.9772504065
 10
-209.8622726626
 20
118.8193595774
 10
-209.8536689976
 20
118.6622101897
 10
-209.8435175611
 20
118.5058532124
 10
-209.8318504368
 20
118.3502376764
 10
-209.8187362292
 20
118.1960745421
 10
-209.8042122099
 20
118.0435630418
 10
-209.788287017
 20
117.8925039432
 10
-209.7709894106
 20
117.7430105101
 10
-209.7523339987
 20
117.5949448119
 10
-209.7323674828
 20
117.4484447791
 10
-209.7111694358
 20
117.304037468
 10
-209.6887542346
 20
117.1616613556
 10
-209.6651816378
 20
117.0213779647
 10
-209.6405986186
 20
116.8838989208
 10
-209.6150437411
 20
116.749294747
 10
-209.5885592287
 20
116.6174949202
 10
-209.5612936603
 20
116.488999496
 10
-209.5333226477
 20
116.3639537687
 10
-209.504654207
 20
116.2422124441
 10
-209.4753342928
 20
116.1238396948
 10
-209.4453722858
 20
116.0086780584
 10
-209.4148548125
 20
115.8968849973
 10
-209.3839408666
 20
115.7889970719
 10
-209.3526607294
 20
115.6850156132
 10
-209.3210783093
 20
115.5849392901
 10
-209.2893912183
 20
115.4893006703
 10
-209.2576894013
 20
115.3982772762
 10
-209.2259646194
 20
115.3116915855
 10
-209.1942601375
 20
115.229543598
  0
LWPOLYLINE
  5
2C3
100
AcDbEntity
  8
ASSI
100
AcDbPolyline
 62
7
  6
CONTINUOUS
 90
34
 70
0
 10
-211.3127327596
 20
119.6067255935
 10
-211.3120187598
 20
119.449612425
 10
-211.3097997011
 20
119.2923768303
 10
-211.3060793163
 20
119.1350188094
 10
-211.3008622979
 20
118.9772504065
 10
-211.2941590294
 20
118.8193595774
 10
-211.2859855478
 20
118.6622101897
 10
-211.276341683
 20
118.5058532124
 10
-211.265257915
 20
118.3502376764
 10
-211.2527994178
 20
118.1960745421
 10
-211.2390015994
 20
118.0435630418
 10
-211.2238726662
 20
117.8925039432
 10
-211.2074399401
 20
117.7430105101
 10
-211.1897172987
 20
117.5949448119
 10
-211.1707491086
 20
117.4484447791
 10
-211.150610964
 20
117.304037468
 10
-211.1293165229
 20
117.1616613556
 10
-211.1069225559
 20
117.0213779647
 10
-211.0835686877
 20
116.8838989208
 10
-211.059291554
 20
116.749294747
 10
-211.0341312673
 20
116.6174949202
 10
-211.0082289773
 20
116.488999496
 10
-210.9816565153
 20
116.3639537687
 10
-210.9544214966
 20
116.2422124441
 10
-210.9265675782
 20
116.1238396948
 10
-210.8981036715
 20
116.0086780584
 10
-210.8691120718
 20
115.8968849973
 10
-210.8397438232
 20
115.7889970719
 10
-210.8100276929
 20
115.6850156132
 10
-210.7800243939
 20
115.5849392901
 10
-210.7499216574
 20
115.4893006703
 10
-210.7198049312
 20
115.3982772762
 10
-210.6896663885
 20
115.3116915855
 10
-210.6595471306
 20
115.229543598
  0
LINE
  5
2C4
100
AcDbEntity
  8
ASSI
100
AcDbLine
 62
7
  6
CONTINUOUS
 10
-211.3127327596
 20
119.6067255935
 11
-211.3127327596
 21
135.8436336202
  0
LINE
  5
2C5
100
AcDbEntity
  8
ASSI
100
AcDbLine
 62
7
  6
CONTINUOUS
 10
-210.0
 20
110.158805341
 11
-210.0
 21
93.3436336202
  0
LINE
  5
2C6
100
AcDbEntity
  8
0
100
AcDbLine
 62
7
  6
CONTINUOUS
 10
-210.0
 20
-144.6563663798
 11
-210.0
 21
93.3436336202
  0
LINE
  5
2C7
100
AcDbEntity
  8
ASSI
100
AcDbLine
 62
7
  6
CONTINUOUS
 10
-209.8818239575
 20
119.6067255935
 11
-209.8818239575
 21
135.8436336202
  0
LINE
  5
2C8
100
AcDbEntity
  8
0
100
AcDbLine
 62
7
  6
CONTINUOUS
 10
-208.5
 20
-144.6563663798
 11
-208.5
 21
93.3436336202
  0
LINE
  5
2C9
100
AcDbEntity
  8
ASSI
100
AcDbLine
 62
7
  6
CONTINUOUS
 10
-208.5
 20
93.3436336202
 11
-208.5
 21
135.8436336202
  0
LINE
  5
2CA
100
AcDbEntity
  8
0
100
AcDbLine
 62
253
  6
CONTINUOUS
 10
-208.0
 20
-144.6563663798
 11
-208.0
 21
135.8436336202
  0
LINE
  5
2CB
100
AcDbEntity
  8
0
100
AcDbLine
 62
7
  6
CONTINUOUS
 10
-207.7
 20
135.8436336202
 11
-207.7
 21
-144.6563663798
  0
LWPOLYLINE
  5
2CC
100
AcDbEntity
  8
0
100
AcDbPolyline
 62
253
  6
CONTINUOUS
 90
49
 70
0
 10
-208.0
 20
135.8436336202
 10
-207.9969892923
 20
136.0332811286
 10
-207.988009374
 20
136.2219419072
 10
-207.973140049
 20
136.4093379961
 10
-207.9524746504
 20
136.5951133519
 10
-207.9260910535
 20
136.7791069557
 10
-207.8940224861
 20
136.9613506499
 10
-207.8563192275
 20
137.1416600249
 10
-207.813051289
 20
137.3197660039
 10
-207.7642449903
 20
137.4955840976
 10
-207.7098773453
 20
137.6691368609
 10
-207.6500628254
 20
137.8399936945
 10
-207.5850811976
 20
138.0074173691
 10
-207.5153621765
 20
138.1706731165
 10
-207.4409398601
 20
138.3302021145
 10
-207.3614594181
 20
138.4870165095
 10
-207.2768474913
 20
138.6412945788
 10
-207.1874154533
 20
138.792485361
 10
-207.0932611475
 20
138.9404597788
 10
-206.9945513511
 20
139.0849792478
 10
-206.8913682714
 20
139.2259340882
 10
-206.7836535097
 20
139.3633733951
 10
-206.6714645627
 20
139.4971561636
 10
-206.5549355711
 20
139.6270470787
 10
-206.434092424
 20
139.7529317264
 10
-206.3090753426
 20
139.874593947
 10
-206.1800184788
 20
139.9919602565
 10
-206.0469149813
 20
140.1051056742
 10
-205.9099948983
 20
140.213880295
 10
-205.7693863722
 20
140.3182184793
 10
-205.6248880042
 20
140.418264591
 10
-205.4765301535
 20
140.5139484028
 10
-205.3245983939
 20
140.6050297718
 10
-205.1692541248
 20
140.6913572735
 10
-205.0109938432
 20
140.772613098
 10
-204.8496802205
 20
140.8488182357
 10
-204.6844884486
 20
140.9202251146
 10
-204.5150213441
 20
140.9867718144
 10
-204.3419794562
 20
141.0480196993
 10
-204.1661807577
 20
141.1036559463
 10
-203.9880220922
 20
141.1535779495
 10
-203.8075320712
 20
141.197796724
 10
-203.6250101153
 20
141.236247631
 10
-203.4407529947
 20
141.268879444
 10
-203.2549394548
 20
141.2956668525
 10
-203.067705078
 20
141.3165826938
 10
-202.8792705652
 20
141.3315818348
 10
-202.6899427017
 20
141.3406135308
 10
-202.5
 20
141.3436336202
  0
LINE
  5
2CD
100
AcDbEntity
  8
0
100
AcDbLine
 62
253
  6
CONTINUOUS
 10
-202.5
 20
141.0436336202
 11
-202.5
 21
144.6563663798
  0
LINE
  5
2CE
100
AcDbEntity
  8
0
100
AcDbLine
 62
7
  6
CONTINUOUS
 10
-190.0
 20
-119.4063663798
 11
-190.0
 21
108.5936336202
  0
LINE
  5
2CF
100
AcDbEntity
  8
ASSI
100
AcDbLine
 62
7
  6
CONTINUOUS
 10
-177.0
 20
-128.6563663798
 11
-177.0
 21
-126.1563663798
  0
LINE
  5
2D0
100
AcDbEntity
  8
ASSI
100
AcDbLine
 62
7
  6
CONTINUOUS
 10
-177.0
 20
116.3436336202
 11
-177.0
 21
118.8436336202
  0
LINE
  5
2D1
100
AcDbEntity
  8
ASSI
100
AcDbLine
 62
7
  6
CONTINUOUS
 10
-173.5
 20
118.8436336202
 11
-173.5
 21
116.3436336202
  0
LINE
  5
2D2
100
AcDbEntity
  8
ASSI
100
AcDbLine
 62
7
  6
CONTINUOUS
 10
-173.5
 20
-126.1563663798
 11
-173.5
 21
-128.6563663798
  0
LINE
  5
2D3
100
AcDbEntity
  8
ASSI
100
AcDbLine
 62
7
  6
CONTINUOUS
 10
-152.75
 20
-128.6563663798
 11
-152.75
 21
-126.1563663798
  0
LWPOLYLINE
  5
2D4
100
AcDbEntity
  8
ASSI
100
AcDbPolyline
 62
7
  6
CONTINUOUS
 90
19
 70
0
 10
-209.1942601375
 20
115.229543598
 10
-209.1145607416
 20
115.0182142595
 10
-209.0401309313
 20
114.7988079752
 10
-208.9708918293
 20
114.5713247452
 10
-208.90675182
 20
114.3358634291
 10
-208.8476447684
 20
114.0923251673
 10
-208.7935209802
 20
113.8404133805
 10
-208.7442785555
 20
113.5800633476
 10
-208.6998431508
 20
113.3113397896
 10
-208.6601787718
 20
113.0341402913
 10
-208.6251712094
 20
112.7484002651
 10
-208.5947187173
 20
112.4541842985
 10
-208.5687602353
 20
112.1515837378
 10
-208.5471683117
 20
111.8406764855
 10
-208.5298033098
 20
111.5213846391
 10
-208.51654774
 20
111.1935658375
 10
-208.5072602548
 20
110.8571726271
 10
-208.5017916025
 20
110.5122524616
 10
-208.5
 20
110.158805341
  0
LWPOLYLINE
  5
2D5
100
AcDbEntity
  8
ASSI
100
AcDbPolyline
 62
7
  6
CONTINUOUS
 90
19
 70
0
 10
-210.6595471306
 20
115.229543598
 10
-210.5838327046
 20
115.0182142595
 10
-210.5131243848
 20
114.7988079752
 10
-210.4473472378
 20
114.5713247452
 10
-210.386414229
 20
114.3358634291
 10
-210.3302625299
 20
114.0923251673
 10
-210.2788449312
 20
113.8404133805
 10
-210.2320646277
 20
113.5800633476
 10
-210.1898509933
 20
113.3113397896
 10
-210.1521698333
 20
113.0341402913
 10
-210.1189126489
 20
112.7484002651
 10
-210.0899827814
 20
112.4541842985
 10
-210.0653222236
 20
112.1515837378
 10
-210.0448098961
 20
111.8406764855
 10
-210.0283131443
 20
111.5213846391
 10
-210.015720353
 20
111.1935658375
 10
-210.006897242
 20
110.8571726271
 10
-210.0017020224
 20
110.5122524616
 10
-210.0
 20
110.158805341
  0
LINE
  5
2D6
100
AcDbEntity
  8
ASSI
100
AcDbLine
 62
7
  6
CONTINUOUS
 10
-147.25
 20
-126.1563663798
 11
-147.25
 21
-128.6563663798
  0
LINE
  5
2D7
100
AcDbEntity
  8
0
100
AcDbLine
 62
7
  6
CONTINUOUS
 10
-210.0
 20
-144.6563663798
 11
-208.5
 21
-144.6563663798
  0
LINE
  5
2D8
100
AcDbEntity
  8
0
100
AcDbLine
 62
7
  6
CONTINUOUS
 10
210.0
 20
-144.6563663798
 11
208.5
 21
-144.6563663798
  0
LINE
  5
2D9
100
AcDbEntity
  8
0
100
AcDbLine
 62
7
  6
CONTINUOUS
 10
-208.5
 20
-144.6563663798
 11
-207.7
 21
-144.6563663798
  0
LINE
  5
2DA
100
AcDbEntity
  8
0
100
AcDbLine
 62
7
  6
CONTINUOUS
 10
-207.7
 20
-144.6563663798
 11
207.7
 21
-144.6563663798
  0
LINE
  5
2DB
100
AcDbEntity
  8
0
100
AcDbLine
 62
7
  6
CONTINUOUS
 10
208.5
 20
-144.6563663798
 11
207.7
 21
-144.6563663798
  0
LINE
  5
2DC
100
AcDbEntity
  8
CURVE
100
AcDbLine
 62
253
  6
CONTINUOUS
 10
-11.998087
 20
-139.1646263798
 11
-6.615202
 21
-139.1646263798
  0
LINE
  5
2DD
100
AcDbEntity
  8
CURVE
100
AcDbLine
 62
253
  6
CONTINUOUS
 10
-6.085098
 20
-139.1646263798
 11
-1.758978
 21
-139.1646263798
  0
LINE
  5
2DE
100
AcDbEntity
  8
CURVE
100
AcDbLine
 62
253
  6
CONTINUOUS
 10
1.797228
 20
-139.1646263798
 11
6.76628
 21
-139.1646263798
  0
LINE
  5
2DF
100
AcDbEntity
  8
CURVE
100
AcDbLine
 62
253
  6
CONTINUOUS
 10
7.233658
 20
-139.1520043798
 11
8.908878
 21
-139.1520043798
  0
LINE
  5
2E0
100
AcDbEntity
  8
CURVE
100
AcDbLine
 62
253
  6
CONTINUOUS
 10
10.865595
 20
-139.1520043798
 11
12.540432
 21
-139.1520043798
  0
LINE
  5
2E1
100
AcDbEntity
  8
CURVE
100
AcDbLine
 62
253
  6
CONTINUOUS
 10
5.172655
 20
-138.1686113798
 11
3.390853
 21
-138.1686113798
  0
LINE
  5
2E2
100
AcDbEntity
  8
CURVE
100
AcDbLine
 62
253
  6
CONTINUOUS
 10
-1.758978
 20
-137.9154793798
 11
-4.577018
 21
-137.9154793798
  0
LINE
  5
2E3
100
AcDbEntity
  8
CURVE
100
AcDbLine
 62
253
  6
CONTINUOUS
 10
-6.615202
 20
-137.9154793798
 11
-10.457497
 21
-137.9154793798
  0
LINE
  5
2E4
100
AcDbEntity
  8
CURVE
100
AcDbLine
 62
253
  6
CONTINUOUS
 10
-10.457497
 20
-137.2909063798
 11
-8.584158
 21
-137.2909063798
  0
LINE
  5
2E5
100
AcDbEntity
  8
CURVE
100
AcDbLine
 62
253
  6
CONTINUOUS
 10
3.390853
 20
-137.0377743798
 11
5.172655
 21
-137.0377743798
  0
LINE
  5
2E6
100
AcDbEntity
  8
CURVE
100
AcDbLine
 62
253
  6
CONTINUOUS
 10
6.76628
 20
-136.0417583798
 11
1.797228
 21
-136.0417583798
  0
LINE
  5
2E7
100
AcDbEntity
  8
CURVE
100
AcDbLine
 62
253
  6
CONTINUOUS
 10
-4.577018
 20
-136.0417583798
 11
-6.085098
 21
-136.0417583798
  0
LINE
  5
2E8
100
AcDbEntity
  8
CURVE
100
AcDbLine
 62
253
  6
CONTINUOUS
 10
-8.584158
 20
-136.0417583798
 11
-10.457497
 21
-136.0417583798
  0
LINE
  5
2E9
100
AcDbEntity
  8
CURVE
100
AcDbLine
 62
253
  6
CONTINUOUS
 10
-10.457497
 20
-135.4171843798
 11
-7.178198
 21
-135.4171843798
  0
LINE
  5
2EA
100
AcDbEntity
  8
CURVE
100
AcDbLine
 62
253
  6
CONTINUOUS
 10
-6.652302
 20
-135.4171843798
 11
-2.640572
 21
-135.4171843798
  0
LINE
  5
2EB
100
AcDbEntity
  8
CURVE
100
AcDbLine
 62
253
  6
CONTINUOUS
 10
1.668718
 20
-135.4171843798
 11
7.455492
 21
-135.4171843798
  0
LINE
  5
2EC
100
AcDbEntity
  8
ASSI
100
AcDbLine
 62
7
  6
CONTINUOUS
 10
-126.5
 20
-128.6563663798
 11
-126.5
 21
-126.1563663798
  0
LINE
  5
2ED
100
AcDbEntity
  8
ASSI
100
AcDbLine
 62
7
  6
CONTINUOUS
 10
-126.5
 20
116.3436336202
 11
-126.5
 21
118.8436336202
  0
LINE
  5
2EE
100
AcDbEntity
  8
ASSI
100
AcDbLine
 62
7
  6
CONTINUOUS
 10
-123.0
 20
118.8436336202
 11
-123.0
 21
116.3436336202
  0
LINE
  5
2EF
100
AcDbEntity
  8
ASSI
100
AcDbLine
 62
7
  6
CONTINUOUS
 10
-123.0
 20
-126.1563663798
 11
-123.0
 21
-128.6563663798
  0
LINE
  5
2F0
100
AcDbEntity
  8
CURVE
100
AcDbLine
 62
253
  6
CONTINUOUS
 10
6.547507
 20
-134.1680383798
 11
0.888097
 21
-134.1680383798
  0
LINE
  5
2F1
100
AcDbEntity
  8
CURVE
100
AcDbLine
 62
253
  6
CONTINUOUS
 10
-1.859952
 20
-134.1680383798
 11
-6.652302
 21
-134.1680383798
  0
LINE
  5
2F2
100
AcDbEntity
  8
CURVE
100
AcDbLine
 62
253
  6
CONTINUOUS
 10
-7.178198
 20
-134.1680383798
 11
-11.998087
 21
-134.1680383798
  0
LINE
  5
2F3
100
AcDbEntity
  8
CURVE
100
AcDbLine
 62
253
  6
CONTINUOUS
 10
12.540432
 20
-134.1630643798
 11
10.865595
 21
-134.1630643798
  0
LINE
  5
2F4
100
AcDbEntity
  8
CURVE
100
AcDbLine
 62
253
  6
CONTINUOUS
 10
8.908878
 20
-134.1630643798
 11
7.233658
 21
-134.1630643798
  0
LINE
  5
2F5
100
AcDbEntity
  8
0
100
AcDbLine
 62
253
  6
CONTINUOUS
 10
-210.0
 20
-124.6563663798
 11
-208.5
 21
-124.6563663798
  0
LINE
  5
2F6
100
AcDbEntity
  8
0
100
AcDbLine
 62
253
  6
CONTINUOUS
 10
210.0
 20
-124.6563663798
 11
208.5
 21
-124.6563663798
  0
LINE
  5
2F7
100
AcDbEntity
  8
0
100
AcDbLine
 62
7
  6
CONTINUOUS
 10
189.0
 20
-120.4063663798
 11
111.0
 21
-120.4063663798
  0
LINE
  5
2F8
100
AcDbEntity
  8
0
100
AcDbLine
 62
7
  6
CONTINUOUS
 10
89.0
 20
-120.4063663798
 11
11.0
 21
-120.4063663798
  0
LINE
  5
2F9
100
AcDbEntity
  8
0
100
AcDbLine
 62
7
  6
CONTINUOUS
 10
-11.0
 20
-120.4063663798
 11
-89.0
 21
-120.4063663798
  0
LINE
  5
2FA
100
AcDbEntity
  8
0
100
AcDbLine
 62
7
  6
CONTINUOUS
 10
-111.0
 20
-120.4063663798
 11
-189.0
 21
-120.4063663798
  0
LINE
  5
2FB
100
AcDbEntity
  8
0
100
AcDbLine
 62
7
  6
CONTINUOUS
 10
-110.0
 20
108.5936336202
 11
-110.0
 21
-119.4063663798
  0
LINE
  5
2FC
100
AcDbEntity
  8
0
100
AcDbLine
 62
7
  6
CONTINUOUS
 10
-90.0
 20
-119.4063663798
 11
-90.0
 21
108.5936336202
  0
LINE
  5
2FD
100
AcDbEntity
  8
ASSI
100
AcDbLine
 62
7
  6
CONTINUOUS
 10
-77.0
 20
-128.6563663798
 11
-77.0
 21
-126.1563663798
  0
LINE
  5
2FE
100
AcDbEntity
  8
ASSI
100
AcDbLine
 62
7
  6
CONTINUOUS
 10
-77.0
 20
116.3436336202
 11
-77.0
 21
118.8436336202
  0
LINE
  5
2FF
100
AcDbEntity
  8
ASSI
100
AcDbLine
 62
7
  6
CONTINUOUS
 10
-73.5
 20
118.8436336202
 11
-73.5
 21
116.3436336202
  0
LINE
  5
300
100
AcDbEntity
  8
ASSI
100
AcDbLine
 62
7
  6
CONTINUOUS
 10
-73.5
 20
-126.1563663798
 11
-73.5
 21
-128.6563663798
  0
LINE
  5
301
100
AcDbEntity
  8
CURVE
100
AcDbLine
 62
253
  6
CONTINUOUS
 10
9.887237
 20
-135.5066833798
 11
8.908878
 21
-134.1630643798
  0
LINE
  5
302
100
AcDbEntity
  8
CURVE
100
AcDbLine
 62
253
  6
CONTINUOUS
 10
7.233658
 20
-134.1630643798
 11
9.049627
 21
-136.6575343798
  0
LINE
  5
303
100
AcDbEntity
  8
CURVE
100
AcDbLine
 62
253
  6
CONTINUOUS
 10
9.887237
 20
-137.8080043798
 11
10.865595
 21
-139.1520043798
  0
LINE
  5
304
100
AcDbEntity
  8
CURVE
100
AcDbLine
 62
253
  6
CONTINUOUS
 10
12.540432
 20
-139.1520043798
 11
10.724847
 21
-136.6575343798
  0
LINE
  5
305
100
AcDbEntity
  8
CURVE
100
AcDbLine
 62
253
  6
CONTINUOUS
 10
7.455492
 20
-135.4171843798
 11
6.547507
 21
-134.1680383798
  0
LINE
  5
306
100
AcDbEntity
  8
CURVE
100
AcDbLine
 62
253
  6
CONTINUOUS
 10
-2.640572
 20
-135.4171843798
 11
-0.485735
 21
-139.1646263798
  0
LINE
  5
307
100
AcDbEntity
  8
CURVE
100
AcDbLine
 62
253
  6
CONTINUOUS
 10
-0.485735
 20
-136.5577113798
 11
-1.859952
 21
-134.1680383798
  0
LINE
  5
308
100
AcDbEntity
  8
ASSI
100
AcDbLine
 62
7
  6
CONTINUOUS
 10
-52.75
 20
-128.6563663798
 11
-52.75
 21
-126.1563663798
  0
LINE
  5
309
100
AcDbEntity
  8
ASSI
100
AcDbLine
 62
7
  6
CONTINUOUS
 10
-47.25
 20
-126.1563663798
 11
-47.25
 21
-128.6563663798
  0
LINE
  5
30A
100
AcDbEntity
  8
ASSI
100
AcDbLine
 62
7
  6
CONTINUOUS
 10
-26.5
 20
-128.6563663798
 11
-26.5
 21
-126.1563663798
  0
LINE
  5
30B
100
AcDbEntity
  8
ASSI
100
AcDbLine
 62
7
  6
CONTINUOUS
 10
-26.5
 20
116.3436336202
 11
-26.5
 21
118.8436336202
  0
LINE
  5
30C
100
AcDbEntity
  8
ASSI
100
AcDbLine
 62
7
  6
CONTINUOUS
 10
-23.0
 20
118.8436336202
 11
-23.0
 21
116.3436336202
  0
LINE
  5
30D
100
AcDbEntity
  8
ASSI
100
AcDbLine
 62
7
  6
CONTINUOUS
 10
-23.0
 20
-126.1563663798
 11
-23.0
 21
-128.6563663798
  0
LINE
  5
30E
100
AcDbEntity
  8
CURVE
100
AcDbLine
 62
253
  6
CONTINUOUS
 10
-11.998087
 20
-134.1680383798
 11
-11.998087
 21
-139.1646263798
  0
LINE
  5
30F
100
AcDbEntity
  8
CURVE
100
AcDbLine
 62
253
  6
CONTINUOUS
 10
-10.457497
 20
-137.9154793798
 11
-10.457497
 21
-137.2909063798
  0
LINE
  5
310
100
AcDbEntity
  8
CURVE
100
AcDbLine
 62
253
  6
CONTINUOUS
 10
-10.457497
 20
-136.0417583798
 11
-10.457497
 21
-135.4171843798
  0
LINE
  5
311
100
AcDbEntity
  8
0
100
AcDbLine
 62
7
  6
CONTINUOUS
 10
-10.0
 20
108.5936336202
 11
-10.0
 21
-119.4063663798
  0
LINE
  5
312
100
AcDbEntity
  8
CURVE
100
AcDbLine
 62
253
  6
CONTINUOUS
 10
-8.584158
 20
-137.2909063798
 11
-8.584158
 21
-136.0417583798
  0
LINE
  5
313
100
AcDbEntity
  8
CURVE
100
AcDbLine
 62
253
  6
CONTINUOUS
 10
-7.178198
 20
-135.4171843798
 11
-7.178198
 21
-134.1680383798
  0
LINE
  5
314
100
AcDbEntity
  8
CURVE
100
AcDbLine
 62
253
  6
CONTINUOUS
 10
-6.652302
 20
-134.1680383798
 11
-6.652302
 21
-135.4171843798
  0
LINE
  5
315
100
AcDbEntity
  8
CURVE
100
AcDbLine
 62
253
  6
CONTINUOUS
 10
-6.615202
 20
-139.1646263798
 11
-6.615202
 21
-137.9154793798
  0
LINE
  5
316
100
AcDbEntity
  8
CURVE
100
AcDbLine
 62
253
  6
CONTINUOUS
 10
-6.085098
 20
-136.0417583798
 11
-6.085098
 21
-139.1646263798
  0
LINE
  5
317
100
AcDbEntity
  8
CURVE
100
AcDbLine
 62
253
  6
CONTINUOUS
 10
-4.577018
 20
-137.9154793798
 11
-4.577018
 21
-136.0417583798
  0
LINE
  5
318
100
AcDbEntity
  8
CURVE
100
AcDbLine
 62
253
  6
CONTINUOUS
 10
-1.758978
 20
-139.1646263798
 11
-1.758978
 21
-137.9154793798
  0
LINE
  5
319
100
AcDbEntity
  8
CURVE
100
AcDbLine
 62
253
  6
CONTINUOUS
 10
1.797228
 20
-136.0417583798
 11
1.797228
 21
-139.1646263798
  0
LINE
  5
31A
100
AcDbEntity
  8
CURVE
100
AcDbLine
 62
253
  6
CONTINUOUS
 10
3.390853
 20
-138.1686113798
 11
3.390853
 21
-137.0377743798
  0
LINE
  5
31B
100
AcDbEntity
  8
CURVE
100
AcDbLine
 62
253
  6
CONTINUOUS
 10
5.172655
 20
-137.0377743798
 11
5.172655
 21
-138.1686113798
  0
LINE
  5
31C
100
AcDbEntity
  8
CURVE
100
AcDbLine
 62
253
  6
CONTINUOUS
 10
6.76628
 20
-139.1646263798
 11
6.76628
 21
-136.0417583798
  0
LINE
  5
31D
100
AcDbEntity
  8
0
100
AcDbLine
 62
7
  6
CONTINUOUS
 10
10.0
 20
-119.4063663798
 11
10.0
 21
108.5936336202
  0
LINE
  5
31E
100
AcDbEntity
  8
ASSI
100
AcDbLine
 62
7
  6
CONTINUOUS
 10
23.0
 20
-128.6563663798
 11
23.0
 21
-126.1563663798
  0
LINE
  5
31F
100
AcDbEntity
  8
ASSI
100
AcDbLine
 62
7
  6
CONTINUOUS
 10
23.0
 20
116.3436336202
 11
23.0
 21
118.8436336202
  0
LINE
  5
320
100
AcDbEntity
  8
ASSI
100
AcDbLine
 62
7
  6
CONTINUOUS
 10
26.5
 20
118.8436336202
 11
26.5
 21
116.3436336202
  0
LINE
  5
321
100
AcDbEntity
  8
ASSI
100
AcDbLine
 62
7
  6
CONTINUOUS
 10
26.5
 20
-126.1563663798
 11
26.5
 21
-128.6563663798
  0
LINE
  5
322
100
AcDbEntity
  8
ASSI
100
AcDbLine
 62
7
  6
CONTINUOUS
 10
47.25
 20
-128.6563663798
 11
47.25
 21
-126.1563663798
  0
LINE
  5
323
100
AcDbEntity
  8
ASSI
100
AcDbLine
 62
7
  6
CONTINUOUS
 10
52.75
 20
-126.1563663798
 11
52.75
 21
-128.6563663798
  0
LINE
  5
324
100
AcDbEntity
  8
CURVE
100
AcDbLine
 62
253
  6
CONTINUOUS
 10
0.888097
 20
-134.1680383798
 11
-0.485735
 21
-136.5577113798
  0
LINE
  5
325
100
AcDbEntity
  8
CURVE
100
AcDbLine
 62
253
  6
CONTINUOUS
 10
-0.485735
 20
-139.1646263798
 11
1.668718
 21
-135.4171843798
  0
LINE
  5
326
100
AcDbEntity
  8
ASSI
100
AcDbLine
 62
7
  6
CONTINUOUS
 10
73.5
 20
-128.6563663798
 11
73.5
 21
-126.1563663798
  0
LINE
  5
327
100
AcDbEntity
  8
ASSI
100
AcDbLine
 62
7
  6
CONTINUOUS
 10
73.5
 20
116.3436336202
 11
73.5
 21
118.8436336202
  0
LINE
  5
328
100
AcDbEntity
  8
ASSI
100
AcDbLine
 62
7
  6
CONTINUOUS
 10
77.0
 20
118.8436336202
 11
77.0
 21
116.3436336202
  0
LINE
  5
329
100
AcDbEntity
  8
ASSI
100
AcDbLine
 62
7
  6
CONTINUOUS
 10
77.0
 20
-126.1563663798
 11
77.0
 21
-128.6563663798
  0
LINE
  5
32A
100
AcDbEntity
  8
0
100
AcDbLine
 62
7
  6
CONTINUOUS
 10
90.0
 20
108.5936336202
 11
90.0
 21
-119.4063663798
  0
LINE
  5
32B
100
AcDbEntity
  8
CURVE
100
AcDbLine
 62
253
  6
CONTINUOUS
 10
10.724847
 20
-136.6575343798
 11
12.540432
 21
-134.1630643798
  0
LINE
  5
32C
100
AcDbEntity
  8
CURVE
100
AcDbLine
 62
253
  6
CONTINUOUS
 10
8.908878
 20
-139.1520043798
 11
9.887237
 21
-137.8080043798
  0
LINE
  5
32D
100
AcDbEntity
  8
CURVE
100
AcDbLine
 62
253
  6
CONTINUOUS
 10
9.049627
 20
-136.6575343798
 11
7.233658
 21
-139.1520043798
  0
LINE
  5
32E
100
AcDbEntity
  8
CURVE
100
AcDbLine
 62
253
  6
CONTINUOUS
 10
10.865595
 20
-134.1630643798
 11
9.887237
 21
-135.5066833798
  0
LINE
  5
32F
100
AcDbEntity
  8
ASSI
100
AcDbLine
 62
253
  6
CONTINUOUS
 10
208.5
 20
93.3436336202
 11
210.0
 21
93.3436336202
  0
LINE
  5
330
100
AcDbEntity
  8
ASSI
100
AcDbLine
 62
253
  6
CONTINUOUS
 10
-208.5
 20
93.3436336202
 11
-210.0
 21
93.3436336202
  0
LINE
  5
331
100
AcDbEntity
  8
0
100
AcDbLine
 62
7
  6
CONTINUOUS
 10
110.0
 20
-119.4063663798
 11
110.0
 21
108.5936336202
  0
LINE
  5
332
100
AcDbEntity
  8
0
100
AcDbLine
 62
7
  6
CONTINUOUS
 10
-189.0
 20
109.5936336202
 11
-165.75
 21
109.5936336202
  0
LINE
  5
333
100
AcDbEntity
  8
0
100
AcDbLine
 62
7
  6
CONTINUOUS
 10
-134.25
 20
109.5936336202
 11
-111.0
 21
109.5936336202
  0
LINE
  5
334
100
AcDbEntity
  8
0
100
AcDbLine
 62
7
  6
CONTINUOUS
 10
-89.0
 20
109.5936336202
 11
-65.75
 21
109.5936336202
  0
LINE
  5
335
100
AcDbEntity
  8
0
100
AcDbLine
 62
7
  6
CONTINUOUS
 10
-34.25
 20
109.5936336202
 11
-11.0
 21
109.5936336202
  0
LINE
  5
336
100
AcDbEntity
  8
0
100
AcDbLine
 62
7
  6
CONTINUOUS
 10
11.0
 20
109.5936336202
 11
34.25
 21
109.5936336202
  0
LINE
  5
337
100
AcDbEntity
  8
0
100
AcDbLine
 62
7
  6
CONTINUOUS
 10
65.75
 20
109.5936336202
 11
89.0
 21
109.5936336202
  0
LINE
  5
338
100
AcDbEntity
  8
0
100
AcDbLine
 62
7
  6
CONTINUOUS
 10
111.0
 20
109.5936336202
 11
134.25
 21
109.5936336202
  0
LINE
  5
339
100
AcDbEntity
  8
0
100
AcDbLine
 62
7
  6
CONTINUOUS
 10
165.75
 20
109.5936336202
 11
189.0
 21
109.5936336202
  0
LINE
  5
33A
100
AcDbEntity
  8
ASSI
100
AcDbLine
 62
253
  6
CONTINUOUS
 10
208.5
 20
110.158805341
 11
210.0
 21
110.158805341
  0
LINE
  5
33B
100
AcDbEntity
  8
ASSI
100
AcDbLine
 62
253
  6
CONTINUOUS
 10
-208.5
 20
110.158805341
 11
-210.0
 21
110.158805341
  0
LINE
  5
33C
100
AcDbEntity
  8
0
100
AcDbLine
 62
7
  6
CONTINUOUS
 10
-164.25
 20
111.0936336202
 11
-135.75
 21
111.0936336202
  0
LINE
  5
33D
100
AcDbEntity
  8
0
100
AcDbLine
 62
7
  6
CONTINUOUS
 10
-64.25
 20
111.0936336202
 11
-35.75
 21
111.0936336202
  0
LINE
  5
33E
100
AcDbEntity
  8
0
100
AcDbLine
 62
7
  6
CONTINUOUS
 10
35.75
 20
111.0936336202
 11
64.25
 21
111.0936336202
  0
LINE
  5
33F
100
AcDbEntity
  8
0
100
AcDbLine
 62
7
  6
CONTINUOUS
 10
135.75
 20
111.0936336202
 11
164.25
 21
111.0936336202
  0
LINE
  5
340
100
AcDbEntity
  8
ASSI
100
AcDbLine
 62
7
  6
CONTINUOUS
 10
151.25
 20
114.8436336202
 11
148.75
 21
114.8436336202
  0
LINE
  5
341
100
AcDbEntity
  8
ASSI
100
AcDbLine
 62
7
  6
CONTINUOUS
 10
51.25
 20
114.8436336202
 11
48.75
 21
114.8436336202
  0
LINE
  5
342
100
AcDbEntity
  8
ASSI
100
AcDbLine
 62
7
  6
CONTINUOUS
 10
-48.75
 20
114.8436336202
 11
-51.25
 21
114.8436336202
  0
LINE
  5
343
100
AcDbEntity
  8
ASSI
100
AcDbLine
 62
7
  6
CONTINUOUS
 10
-148.75
 20
114.8436336202
 11
-151.25
 21
114.8436336202
  0
LINE
  5
344
100
AcDbEntity
  8
ASSI
100
AcDbLine
 62
253
  6
CONTINUOUS
 10
209.1942601375
 20
115.229543598
 11
210.6595471306
 21
115.229543598
  0
LINE
  5
345
100
AcDbEntity
  8
ASSI
100
AcDbLine
 62
253
  6
CONTINUOUS
 10
-209.1942601375
 20
115.229543598
 11
-210.6595471306
 21
115.229543598
  0
LINE
  5
346
100
AcDbEntity
  8
ASSI
100
AcDbLine
 62
253
  6
CONTINUOUS
 10
209.8818239575
 20
119.6067255935
 11
211.3127327596
 21
119.6067255935
  0
LINE
  5
347
100
AcDbEntity
  8
ASSI
100
AcDbLine
 62
253
  6
CONTINUOUS
 10
-209.8818239575
 20
119.6067255935
 11
-211.3127327596
 21
119.6067255935
  0
LINE
  5
348
100
AcDbEntity
  8
ASSI
100
AcDbLine
 62
7
  6
CONTINUOUS
 10
-151.25
 20
120.3436336202
 11
-148.75
 21
120.3436336202
  0
LINE
  5
349
100
AcDbEntity
  8
ASSI
100
AcDbLine
 62
7
  6
CONTINUOUS
 10
-51.25
 20
120.3436336202
 11
-48.75
 21
120.3436336202
  0
LINE
  5
34A
100
AcDbEntity
  8
ASSI
100
AcDbLine
 62
7
  6
CONTINUOUS
 10
48.75
 20
120.3436336202
 11
51.25
 21
120.3436336202
  0
LINE
  5
34B
100
AcDbEntity
  8
ASSI
100
AcDbLine
 62
7
  6
CONTINUOUS
 10
148.75
 20
120.3436336202
 11
151.25
 21
120.3436336202
  0
LINE
  5
34C
100
AcDbEntity
  8
ASSI
100
AcDbLine
 62
7
  6
CONTINUOUS
 10
123.0
 20
-128.6563663798
 11
123.0
 21
-126.1563663798
  0
LINE
  5
34D
100
AcDbEntity
  8
ASSI
100
AcDbLine
 62
7
  6
CONTINUOUS
 10
123.0
 20
116.3436336202
 11
123.0
 21
118.8436336202
  0
LINE
  5
34E
100
AcDbEntity
  8
ASSI
100
AcDbLine
 62
7
  6
CONTINUOUS
 10
126.5
 20
118.8436336202
 11
126.5
 21
116.3436336202
  0
LINE
  5
34F
100
AcDbEntity
  8
ASSI
100
AcDbLine
 62
7
  6
CONTINUOUS
 10
126.5
 20
-126.1563663798
 11
126.5
 21
-128.6563663798
  0
LINE
  5
350
100
AcDbEntity
  8
0
100
AcDbLine
 62
253
  6
CONTINUOUS
 10
207.7
 20
135.8436336202
 11
211.3127327596
 21
135.8436336202
  0
LINE
  5
351
100
AcDbEntity
  8
0
100
AcDbLine
 62
253
  6
CONTINUOUS
 10
-207.7
 20
135.8436336202
 11
-211.3127327596
 21
135.8436336202
  0
LINE
  5
352
100
AcDbEntity
  8
ASSI
100
AcDbLine
 62
7
  6
CONTINUOUS
 10
147.25
 20
-128.6563663798
 11
147.25
 21
-126.1563663798
  0
LINE
  5
353
100
AcDbEntity
  8
ASSI
100
AcDbLine
 62
7
  6
CONTINUOUS
 10
152.75
 20
-126.1563663798
 11
152.75
 21
-128.6563663798
  0
LWPOLYLINE
  5
354
100
AcDbEntity
  8
ASSI
100
AcDbPolyline
 62
7
  6
CONTINUOUS
 90
34
 70
0
 10
209.1942601375
 20
115.229543598
 10
209.2259646194
 20
115.3116915855
 10
209.2576894013
 20
115.3982772762
 10
209.2893912183
 20
115.4893006703
 10
209.3210783093
 20
115.5849392901
 10
209.3526607294
 20
115.6850156132
 10
209.3839408666
 20
115.7889970719
 10
209.4148548125
 20
115.8968849973
 10
209.4453722858
 20
116.0086780584
 10
209.4753342928
 20
116.1238396948
 10
209.504654207
 20
116.2422124441
 10
209.5333226477
 20
116.3639537687
 10
209.5612936603
 20
116.488999496
 10
209.5885592287
 20
116.6174949202
 10
209.6150437411
 20
116.749294747
 10
209.6405986186
 20
116.8838989208
 10
209.6651816378
 20
117.0213779647
 10
209.6887542346
 20
117.1616613556
 10
209.7111694358
 20
117.304037468
 10
209.7323674828
 20
117.4484447791
 10
209.7523339987
 20
117.5949448119
 10
209.7709894106
 20
117.7430105101
 10
209.788287017
 20
117.8925039432
 10
209.8042122099
 20
118.0435630418
 10
209.8187362292
 20
118.1960745421
 10
209.8318504368
 20
118.3502376764
 10
209.8435175611
 20
118.5058532124
 10
209.8536689976
 20
118.6622101897
 10
209.8622726626
 20
118.8193595774
 10
209.8693287347
 20
118.9772504065
 10
209.874820333
 20
119.1350188094
 10
209.8787365275
 20
119.2923768303
 10
209.8810723788
 20
119.449612425
 10
209.8818239575
 20
119.6067255935
  0
LINE
  5
355
100
AcDbEntity
  8
0
100
AcDbLine
 62
7
  6
CONTINUOUS
 10
202.5
 20
141.0436336202
 11
-202.5
 21
141.0436336202
  0
LINE
  5
356
100
AcDbEntity
  8
0
100
AcDbLine
 62
253
  6
CONTINUOUS
 10
-202.5
 20
141.3436336202
 11
202.5
 21
141.3436336202
  0
LINE
  5
357
100
AcDbEntity
  8
0
100
AcDbLine
 62
7
  6
CONTINUOUS
 10
-202.5
 20
141.8436336202
 11
202.5
 21
141.8436336202
  0
LINE
  5
358
100
AcDbEntity
  8
0
100
AcDbLine
 62
7
  6
CONTINUOUS
 10
-202.5
 20
143.2254575777
 11
202.5
 21
143.2254575777
  0
LINE
  5
359
100
AcDbEntity
  8
0
100
AcDbLine
 62
7
  6
CONTINUOUS
 10
-202.5
 20
144.6563663798
 11
202.5
 21
144.6563663798
  0
LWPOLYLINE
  5
35A
100
AcDbEntity
  8
0
100
AcDbPolyline
 62
253
  6
CONTINUOUS
 90
49
 70
0
 10
202.5
 20
141.3436336202
 10
202.6896475084
 20
141.3406229125
 10
202.878308287
 20
141.3316429942
 10
203.0657043759
 20
141.3167736692
 10
203.2514797317
 20
141.2961082706
 10
203.4354733355
 20
141.2697246737
 10
203.6177170297
 20
141.2376561063
 10
203.7980264047
 20
141.1999528477
 10
203.9761323837
 20
141.1566849092
 10
204.1519504775
 20
141.1078786105
 10
204.3255032407
 20
141.0535109655
 10
204.4963600743
 20
140.9936964456
 10
204.6637837489
 20
140.9287148178
 10
204.8270394963
 20
140.8589957967
 10
204.9865684943
 20
140.7845734803
 10
205.1433828893
 20
140.7050930383
 10
205.2976609586
 20
140.6204811115
 10
205.4488517408
 20
140.5310490734
 10
205.5968261586
 20
140.4368947677
 10
205.7413456276
 20
140.3381849712
 10
205.882300468
 20
140.2350018916
 10
206.0197397749
 20
140.1272871299
 10
206.1535225434
 20
140.0150981829
 10
206.2834134585
 20
139.8985691913
 10
206.4092981062
 20
139.7777260441
 10
206.5309603268
 20
139.6527089627
 10
206.6483266363
 20
139.523652099
 10
206.7614720541
 20
139.3905486015
 10
206.8702466748
 20
139.2536285185
 10
206.9745848591
 20
139.1130199924
 10
207.0746309708
 20
138.9685216244
 10
207.1703147826
 20
138.8201637737
 10
207.2613961516
 20
138.6682320141
 10
207.3477236533
 20
138.512887745
 10
207.4289794778
 20
138.3546274634
 10
207.5051846155
 20
138.1933138407
 10
207.5765914944
 20
138.0281220687
 10
207.6431381942
 20
137.8586549643
 10
207.7043860792
 20
137.6856130763
 10
207.7600223261
 20
137.5098143779
 10
207.8099443293
 20
137.3316557124
 10
207.8541631038
 20
137.1511656914
 10
207.8926140108
 20
136.9686437355
 10
207.9252458238
 20
136.7843866149
 10
207.9520332323
 20
136.598573075
 10
207.9729490736
 20
136.4113386982
 10
207.9879482147
 20
136.2229041854
 10
207.9969799106
 20
136.0335763219
 10
208.0
 20
135.8436336202
  0
LWPOLYLINE
  5
35B
100
AcDbEntity
  8
ASSI
100
AcDbPolyline
 62
7
  6
CONTINUOUS
 90
34
 70
0
 10
210.6595471306
 20
115.229543598
 10
210.6896663885
 20
115.3116915855
 10
210.7198049312
 20
115.3982772762
 10
210.7499216574
 20
115.4893006703
 10
210.7800243939
 20
115.5849392901
 10
210.8100276929
 20
115.6850156132
 10
210.8397438232
 20
115.7889970719
 10
210.8691120718
 20
115.8968849973
 10
210.8981036715
 20
116.0086780584
 10
210.9265675782
 20
116.1238396948
 10
210.9544214966
 20
116.2422124441
 10
210.9816565153
 20
116.3639537687
 10
211.0082289773
 20
116.488999496
 10
211.0341312673
 20
116.6174949202
 10
211.059291554
 20
116.749294747
 10
211.0835686877
 20
116.8838989208
 10
211.1069225559
 20
117.0213779647
 10
211.1293165229
 20
117.1616613556
 10
211.150610964
 20
117.304037468
 10
211.1707491086
 20
117.4484447791
 10
211.1897172987
 20
117.5949448119
 10
211.2074399401
 20
117.7430105101
 10
211.2238726662
 20
117.8925039432
 10
211.2390015994
 20
118.0435630418
 10
211.2527994178
 20
118.1960745421
 10
211.265257915
 20
118.3502376764
 10
211.276341683
 20
118.5058532124
 10
211.2859855478
 20
118.6622101897
 10
211.2941590295
 20
118.8193595774
 10
211.300862298
 20
118.9772504065
 10
211.3060793163
 20
119.1350188094
 10
211.3097997011
 20
119.2923768303
 10
211.3120187598
 20
119.449612425
 10
211.3127327596
 20
119.6067255935
  0
LINE
  5
35C
100
AcDbEntity
  8
ASSI
100
AcDbLine
 62
7
  6
CONTINUOUS
 10
173.5
 20
-128.6563663798
 11
173.5
 21
-126.1563663798
  0
LINE
  5
35D
100
AcDbEntity
  8
ASSI
100
AcDbLine
 62
7
  6
CONTINUOUS
 10
173.5
 20
116.3436336202
 11
173.5
 21
118.8436336202
  0
LINE
  5
35E
100
AcDbEntity
  8
ASSI
100
AcDbLine
 62
7
  6
CONTINUOUS
 10
177.0
 20
118.8436336202
 11
177.0
 21
116.3436336202
  0
LINE
  5
35F
100
AcDbEntity
  8
ASSI
100
AcDbLine
 62
7
  6
CONTINUOUS
 10
177.0
 20
-126.1563663798
 11
177.0
 21
-128.6563663798
  0
LINE
  5
360
100
AcDbEntity
  8
0
100
AcDbLine
 62
7
  6
CONTINUOUS
 10
190.0
 20
108.5936336202
 11
190.0
 21
-119.4063663798
  0
LINE
  5
361
100
AcDbEntity
  8
0
100
AcDbLine
 62
253
  6
CONTINUOUS
 10
202.5
 20
141.0436336202
 11
202.5
 21
144.6563663798
  0
LINE
  5
362
100
AcDbEntity
  8
0
100
AcDbLine
 62
7
  6
CONTINUOUS
 10
207.7
 20
-144.6563663798
 11
207.7
 21
135.8436336202
  0
LINE
  5
363
100
AcDbEntity
  8
0
100
AcDbLine
 62
253
  6
CONTINUOUS
 10
208.0
 20
135.8436336202
 11
208.0
 21
-144.6563663798
  0
LINE
  5
364
100
AcDbEntity
  8
ASSI
100
AcDbLine
 62
7
  6
CONTINUOUS
 10
208.5
 20
135.8436336202
 11
208.5
 21
93.3436336202
  0
LINE
  5
365
100
AcDbEntity
  8
0
100
AcDbLine
 62
7
  6
CONTINUOUS
 10
208.5
 20
-144.6563663798
 11
208.5
 21
93.3436336202
  0
LINE
  5
366
100
AcDbEntity
  8
ASSI
100
AcDbLine
 62
7
  6
CONTINUOUS
 10
209.8818239575
 20
135.8436336202
 11
209.8818239575
 21
119.6067255935
  0
LINE
  5
367
100
AcDbEntity
  8
ASSI
100
AcDbLine
 62
7
  6
CONTINUOUS
 10
210.0
 20
110.158805341
 11
210.0
 21
93.3436336202
  0
LINE
  5
368
100
AcDbEntity
  8
0
100
AcDbLine
 62
7
  6
CONTINUOUS
 10
210.0
 20
-144.6563663798
 11
210.0
 21
93.3436336202
  0
LINE
  5
369
100
AcDbEntity
  8
ASSI
100
AcDbLine
 62
7
  6
CONTINUOUS
 10
211.3127327596
 20
135.8436336202
 11
211.3127327596
 21
119.6067255935
  0
LWPOLYLINE
  5
36A
100
AcDbEntity
  8
ASSI
100
AcDbPolyline
 62
7
  6
CONTINUOUS
 90
19
 70
0
 10
210.0
 20
110.158805341
 10
210.0017020224
 20
110.5122524616
 10
210.006897242
 20
110.8571726271
 10
210.015720353
 20
111.1935658375
 10
210.0283131443
 20
111.5213846391
 10
210.0448098961
 20
111.8406764855
 10
210.0653222236
 20
112.1515837378
 10
210.0899827814
 20
112.4541842985
 10
210.1189126489
 20
112.7484002651
 10
210.1521698333
 20
113.0341402913
 10
210.1898509933
 20
113.3113397896
 10
210.2320646277
 20
113.5800633476
 10
210.2788449312
 20
113.8404133805
 10
210.3302625299
 20
114.0923251673
 10
210.386414229
 20
114.3358634291
 10
210.4473472378
 20
114.5713247452
 10
210.5131243848
 20
114.7988079752
 10
210.5838327046
 20
115.0182142595
 10
210.6595471306
 20
115.229543598
  0
LWPOLYLINE
  5
36B
100
AcDbEntity
  8
ASSI
100
AcDbPolyline
 62
7
  6
CONTINUOUS
 90
19
 70
0
 10
208.5
 20
110.158805341
 10
208.5017916025
 20
110.5122524616
 10
208.5072602548
 20
110.8571726271
 10
208.51654774
 20
111.1935658375
 10
208.5298033098
 20
111.5213846391
 10
208.5471683117
 20
111.8406764855
 10
208.5687602353
 20
112.1515837378
 10
208.5947187173
 20
112.4541842985
 10
208.6251712094
 20
112.7484002651
 10
208.6601787718
 20
113.0341402913
 10
208.6998431508
 20
113.3113397896
 10
208.7442785555
 20
113.5800633476
 10
208.7935209802
 20
113.8404133805
 10
208.8476447684
 20
114.0923251673
 10
208.90675182
 20
114.3358634291
 10
208.9708918293
 20
114.5713247452
 10
209.0401309313
 20
114.7988079752
 10
209.1145607416
 20
115.0182142595
 10
209.1942601375
 20
115.229543598
  0
LINE
  5
36C
100
AcDbEntity
  8
0
100
AcDbLine
 62
7
  6
CONTINUOUS
 10
255.9049729633
 20
-144.6563663798
 11
249.4049729633
 21
-144.6563663798
  0
LWPOLYLINE
  5
36D
100
AcDbEntity
  8
0
100
AcDbPolyline
 62
7
  6
CONTINUOUS
 90
16
 70
0
 10
252.9307523392
 20
142.6952494897
 10
252.9160503905
 20
142.6790436266
 10
252.862208913
 20
142.6164642901
 10
252.811094455
 20
142.5518279303
 10
252.7627593556
 20
142.4852489013
 10
252.7172438405
 20
142.4168166413
 10
252.6746293623
 20
142.3466685217
 10
252.6350147263
 20
142.2749850141
 10
252.5984394482
 20
142.201866395
 10
252.564924566
 20
142.1273775698
 10
252.5345220444
 20
142.0516601384
 10
252.5072458484
 20
141.9748100979
 10
252.4831373978
 20
141.8970166326
 10
252.4622636462
 20
141.8186000916
 10
252.4446244663
 20
141.7396900665
 10
252.4374607948
 20
141.70251358
  0
LWPOLYLINE
  5
36E
100
AcDbEntity
  8
ASSI
100
AcDbPolyline
 62
7
  6
CONTINUOUS
 90
19
 70
0
 10
288.5008062967
 20
115.229543598
 10
288.1441021249
 20
115.0182142595
 10
287.7887256784
 20
114.7988079752
 10
287.4347515872
 20
114.5713247452
 10
287.0821831463
 20
114.3358634291
 10
286.7311596061
 20
114.0923251673
 10
286.3819575728
 20
113.8404133805
 10
286.0345500448
 20
113.5800633476
 10
285.6890958624
 20
113.3113397896
 10
285.346150421
 20
113.0341402913
 10
285.0057191585
 20
112.7484002651
 10
284.6679183096
 20
112.4541842985
 10
284.3334697225
 20
112.1515837378
 10
284.0025198804
 20
111.8406764855
 10
283.6750310689
 20
111.5213846391
 10
283.3514469417
 20
111.1935658375
 10
283.031946028
 20
110.8571726271
 10
282.7164410637
 20
110.5122524616
 10
282.4049729633
 20
110.158805341
  0
LWPOLYLINE
  5
36F
100
AcDbEntity
  8
ASSI
100
AcDbPolyline
 62
7
  6
CONTINUOUS
 90
19
 70
0
 10
288.82163963
 20
115.229543598
 10
288.4461615544
 20
115.0182142595
 10
288.0720810844
 20
114.7988079752
 10
287.6994767779
 20
114.5713247452
 10
287.3283521033
 20
114.3358634291
 10
286.9588536399
 20
114.0923251673
 10
286.5912725523
 20
113.8404133805
 10
286.2255804175
 20
113.5800633476
 10
285.8619444361
 20
113.3113397896
 10
285.5009492346
 20
113.0341402913
 10
285.1426005372
 20
112.7484002651
 10
284.7870206962
 20
112.4541842985
 10
284.4349695519
 20
112.1515837378
 10
284.0866012971
 20
111.8406764855
 10
283.7418762323
 20
111.5213846391
 10
283.4012613616
 20
111.1935658375
 10
283.0649446103
 20
110.8571726271
 10
282.7328341216
 20
110.5122524616
 10
282.4049729633
 20
110.158805341
  0
LINE
  5
370
100
AcDbEntity
  8
0
100
AcDbLine
 62
7
  6
CONTINUOUS
 10
249.4049729633
 20
-144.6563663798
 11
249.4049729633
 21
137.8436336202
  0
LINE
  5
371
100
AcDbEntity
  8
0
100
AcDbLine
 62
7
  6
CONTINUOUS
 10
252.4049729633
 20
-144.6563663798
 11
252.4049729633
 21
141.3436336202
  0
LINE
  5
372
100
AcDbEntity
  8
0
100
AcDbLine
 62
253
  6
CONTINUOUS
 10
254.4049729633
 20
-144.6563663798
 11
254.4049729633
 21
143.3436336202
  0
LINE
  5
373
100
AcDbEntity
  8
0
100
AcDbLine
 62
7
  6
CONTINUOUS
 10
275.9049729633
 20
-124.6563663798
 11
275.9049729633
 21
93.3436336202
  0
LINE
  5
374
100
AcDbEntity
  8
ASSI
100
AcDbLine
 62
253
  6
CONTINUOUS
 10
282.4049729633
 20
110.158805341
 11
282.4049729633
 21
135.8436336202
  0
LINE
  5
375
100
AcDbEntity
  8
0
100
AcDbLine
 62
253
  6
CONTINUOUS
 10
282.4049729633
 20
135.8436336202
 11
282.4049729633
 21
143.3436336202
  0
LINE
  5
376
100
AcDbEntity
  8
ASSI
100
AcDbLine
 62
7
  6
CONTINUOUS
 10
290.9549729633
 20
119.6067255935
 11
290.9549729633
 21
135.8436336202
  0
LINE
  5
377
100
AcDbEntity
  8
0
100
AcDbLine
 62
7
  6
CONTINUOUS
 10
290.9549729633
 20
135.8436336202
 11
290.9549729633
 21
144.6563663798
  0
LWPOLYLINE
  5
378
100
AcDbEntity
  8
ASSI
100
AcDbPolyline
 62
7
  6
CONTINUOUS
 90
34
 70
0
 10
290.9549729633
 20
119.6067255935
 10
290.9527022574
 20
119.449612425
 10
290.9456408358
 20
119.2923768303
 10
290.9337875263
 20
119.1350188094
 10
290.9171353364
 20
118.9772504065
 10
290.8956865426
 20
118.8193595774
 10
290.8694527107
 20
118.6622101897
 10
290.8383843632
 20
118.5058532124
 10
290.8025216271
 20
118.3502376764
 10
290.7620095453
 20
118.1960745421
 10
290.716890083
 20
118.0435630418
 10
290.6671081394
 20
117.8925039432
 10
290.6126623687
 20
117.7430105101
 10
290.5534979082
 20
117.5949448119
 10
290.489652655
 20
117.4484447791
 10
290.4212638363
 20
117.304037468
 10
290.3482522606
 20
117.1616613556
 10
290.270677518
 20
117.0213779647
 10
290.188885482
 20
116.8838989208
 10
290.1028635823
 20
116.749294747
 10
290.0126043133
 20
116.6174949202
 10
289.9184625678
 20
116.488999496
 10
289.8205492632
 20
116.3639537687
 10
289.7187343018
 20
116.2422124441
 10
289.6130118421
 20
116.1238396948
 10
289.5032346571
 20
116.0086780584
 10
289.3895296637
 20
115.8968849973
 10
289.2723034663
 20
115.7889970719
 10
289.1514856649
 20
115.6850156132
 10
289.0271291376
 20
115.5849392901
 10
288.8998287723
 20
115.4893006703
 10
288.7697794758
 20
115.3982772762
 10
288.6367740204
 20
115.3116915855
 10
288.5008062967
 20
115.229543598
  0
LWPOLYLINE
  5
379
100
AcDbEntity
  8
ASSI
100
AcDbPolyline
 62
7
  6
CONTINUOUS
 90
34
 70
0
 10
291.4049729633
 20
119.6067255935
 10
291.4025827466
 20
119.449612425
 10
291.3951496711
 20
119.2923768303
 10
291.3826725033
 20
119.1350188094
 10
291.3651438823
 20
118.9772504065
 10
291.3425662047
 20
118.8193595774
 10
291.3149516448
 20
118.6622101897
 10
291.2822481211
 20
118.5058532124
 10
291.2444978726
 20
118.3502376764
 10
291.2018535759
 20
118.1960745421
 10
291.1543594051
 20
118.0435630418
 10
291.1019573592
 20
117.8925039432
 10
291.0446460216
 20
117.7430105101
 10
290.9823676421
 20
117.5949448119
 10
290.9151621125
 20
117.4484447791
 10
290.8431738823
 20
117.304037468
 10
290.766319592
 20
117.1616613556
 10
290.6846619683
 20
117.0213779647
 10
290.5985650883
 20
116.8838989208
 10
290.5080157202
 20
116.749294747
 10
290.4130059633
 20
116.6174949202
 10
290.3139093891
 20
116.488999496
 10
290.2108427526
 20
116.3639537687
 10
290.1036691091
 20
116.2422124441
 10
289.9923823094
 20
116.1238396948
 10
289.8768273778
 20
116.0086780584
 10
289.7571379111
 20
115.8968849973
 10
289.6337419138
 20
115.7889970719
 10
289.5065652808
 20
115.6850156132
 10
289.3756636731
 20
115.5849392901
 10
289.2416632886
 20
115.4893006703
 10
289.1047692923
 20
115.3982772762
 10
288.9647635497
 20
115.3116915855
 10
288.82163963
 20
115.229543598
  0
LINE
  5
37A
100
AcDbEntity
  8
ASSI
100
AcDbLine
 62
7
  6
CONTINUOUS
 10
291.4049729633
 20
119.6067255935
 11
291.4049729633
 21
135.8436336202
  0
LINE
  5
37B
100
AcDbEntity
  8
0
100
AcDbLine
 62
7
  6
CONTINUOUS
 10
291.4049729633
 20
135.8436336202
 11
291.4049729633
 21
143.2254575777
  0
LINE
  5
37C
100
AcDbEntity
  8
0
100
AcDbLine
 62
7
  6
CONTINUOUS
 10
291.4049729633
 20
143.2254575777
 11
290.9549729633
 21
144.6563663798
  0
LINE
  5
37D
100
AcDbEntity
  8
ASSI
100
AcDbLine
 62
253
  6
CONTINUOUS
 10
288.82163963
 20
115.229543598
 11
288.5008062967
 21
115.229543598
  0
LINE
  5
37E
100
AcDbEntity
  8
ASSI
100
AcDbLine
 62
253
  6
CONTINUOUS
 10
291.4049729633
 20
119.6067255935
 11
290.9549729633
 21
119.6067255935
  0
LINE
  5
37F
100
AcDbEntity
  8
0
100
AcDbLine
 62
7
  6
CONTINUOUS
 10
252.4049729633
 20
130.8436336202
 11
249.4049729633
 21
130.8436336202
  0
LINE
  5
380
100
AcDbEntity
  8
0
100
AcDbLine
 62
7
  6
CONTINUOUS
 10
254.4049729633
 20
135.8436336202
 11
252.577882048
 21
135.8436336202
  0
LINE
  5
381
100
AcDbEntity
  8
0
100
AcDbLine
 62
253
  6
CONTINUOUS
 10
254.4049729633
 20
135.8436336202
 11
291.4049729633
 21
135.8436336202
  0
LINE
  5
382
100
AcDbEntity
  8
0
100
AcDbLine
 62
7
  6
CONTINUOUS
 10
249.4049729633
 20
137.8436336202
 11
252.4049729633
 21
137.8436336202
  0
LINE
  5
383
100
AcDbEntity
  8
0
100
AcDbLine
 62
7
  6
CONTINUOUS
 10
282.4049729633
 20
143.3436336202
 11
254.4049729633
 21
143.3436336202
  0
ARC
  5
384
100
AcDbEntity
  8
ASSI
100
AcDbCircle
 62
7
  6
CONTINUOUS
 10
-50.0
 20
-128.6563663798
 40
2.75
100
AcDbArc
 50
180.0
 51
360.0
  0
ARC
  5
385
100
AcDbEntity
  8
ASSI
100
AcDbCircle
 62
7
  6
CONTINUOUS
 10
-50.0
 20
-126.1563663798
 40
2.75
100
AcDbArc
 50
0.0
 51
180.0
  0
ARC
  5
386
100
AcDbEntity
  8
ASSI
100
AcDbCircle
 62
7
  6
CONTINUOUS
 10
-150.0
 20
-128.6563663798
 40
2.75
100
AcDbArc
 50
180.0
 51
360.0
  0
ARC
  5
387
100
AcDbEntity
  8
ASSI
100
AcDbCircle
 62
7
  6
CONTINUOUS
 10
-150.0
 20
-126.1563663798
 40
2.75
100
AcDbArc
 50
0.0
 51
180.0
  0
ARC
  5
388
100
AcDbEntity
  8
ASSI
100
AcDbCircle
 62
7
  6
CONTINUOUS
 10
-175.25
 20
-126.1563663798
 40
1.75
100
AcDbArc
 50
0.0
 51
180.0
  0
ARC
  5
389
100
AcDbEntity
  8
ASSI
100
AcDbCircle
 62
7
  6
CONTINUOUS
 10
-175.25
 20
-128.6563663798
 40
1.75
100
AcDbArc
 50
180.0
 51
360.0
  0
ARC
  5
38A
100
AcDbEntity
  8
ASSI
100
AcDbCircle
 62
7
  6
CONTINUOUS
 10
-124.75
 20
-126.1563663798
 40
1.75
100
AcDbArc
 50
0.0
 51
180.0
  0
ARC
  5
38B
100
AcDbEntity
  8
ASSI
100
AcDbCircle
 62
7
  6
CONTINUOUS
 10
-124.75
 20
-128.6563663798
 40
1.75
100
AcDbArc
 50
180.0
 51
360.0
  0
ARC
  5
38C
100
AcDbEntity
  8
ASSI
100
AcDbCircle
 62
7
  6
CONTINUOUS
 10
-24.75
 20
-126.1563663798
 40
1.75
100
AcDbArc
 50
0.0
 51
180.0
  0
ARC
  5
38D
100
AcDbEntity
  8
ASSI
100
AcDbCircle
 62
7
  6
CONTINUOUS
 10
-24.75
 20
-128.6563663798
 40
1.75
100
AcDbArc
 50
180.0
 51
360.0
  0
ARC
  5
38E
100
AcDbEntity
  8
ASSI
100
AcDbCircle
 62
7
  6
CONTINUOUS
 10
-75.25
 20
-126.1563663798
 40
1.75
100
AcDbArc
 50
0.0
 51
180.0
  0
ARC
  5
38F
100
AcDbEntity
  8
ASSI
100
AcDbCircle
 62
7
  6
CONTINUOUS
 10
-75.25
 20
-128.6563663798
 40
1.75
100
AcDbArc
 50
180.0
 51
360.0
  0
CIRCLE
  5
390
100
AcDbEntity
  8
ASSI
100
AcDbCircle
 62
7
  6
CONTINUOUS
 10
-195.5
 20
-121.1563663798
 40
1.275
  0
CIRCLE
  5
391
100
AcDbEntity
  8
ASSI
100
AcDbCircle
 62
7
  6
CONTINUOUS
 10
-195.5
 20
-6.1563663798
 40
1.275
  0
CIRCLE
  5
392
100
AcDbEntity
  8
ASSI
100
AcDbCircle
 62
7
  6
CONTINUOUS
 10
-165.0
 20
-136.6563663798
 40
1.275
  0
CIRCLE
  5
393
100
AcDbEntity
  8
ASSI
100
AcDbCircle
 62
7
  6
CONTINUOUS
 10
-135.0
 20
-136.6563663798
 40
1.275
  0
CIRCLE
  5
394
100
AcDbEntity
  8
ASSI
100
AcDbCircle
 62
7
  6
CONTINUOUS
 10
-35.0
 20
-136.6563663798
 40
1.275
  0
CIRCLE
  5
395
100
AcDbEntity
  8
ASSI
100
AcDbCircle
 62
7
  6
CONTINUOUS
 10
-65.0
 20
-136.6563663798
 40
1.275
  0
ARC
  5
396
100
AcDbEntity
  8
0
100
AcDbCircle
 62
7
  6
CONTINUOUS
 10
-189.0
 20
-119.4063663798
 40
1.0
100
AcDbArc
 50
180.0
 51
270.0
  0
ARC
  5
397
100
AcDbEntity
  8
0
100
AcDbCircle
 62
7
  6
CONTINUOUS
 10
-111.0
 20
-119.4063663798
 40
1.0
100
AcDbArc
 50
270.0
 51
360.0
  0
ARC
  5
398
100
AcDbEntity
  8
0
100
AcDbCircle
 62
7
  6
CONTINUOUS
 10
-89.0
 20
-119.4063663798
 40
1.0
100
AcDbArc
 50
180.0
 51
270.0
  0
ARC
  5
399
100
AcDbEntity
  8
0
100
AcDbCircle
 62
7
  6
CONTINUOUS
 10
-11.0
 20
-119.4063663798
 40
1.0
100
AcDbArc
 50
270.0
 51
360.0
  0
ARC
  5
39A
100
AcDbEntity
  8
0
100
AcDbCircle
 62
7
  6
CONTINUOUS
 10
-202.5
 20
135.8436336202
 40
8.8127327596
100
AcDbArc
 50
90.0
 51
180.0
  0
ARC
  5
39B
100
AcDbEntity
  8
0
100
AcDbCircle
 62
7
  6
CONTINUOUS
 10
-202.5
 20
135.8436336202
 40
7.3818239575
100
AcDbArc
 50
90.0
 51
180.0
  0
ARC
  5
39C
100
AcDbEntity
  8
0
100
AcDbCircle
 62
7
  6
CONTINUOUS
 10
-202.5
 20
135.8436336202
 40
6.0
100
AcDbArc
 50
90.0
 51
180.0
  0
ARC
  5
39D
100
AcDbEntity
  8
0
100
AcDbCircle
 62
7
  6
CONTINUOUS
 10
-202.5
 20
135.8436336202
 40
5.2
100
AcDbArc
 50
90.0
 51
180.0
  0
ARC
  5
39E
100
AcDbEntity
  8
ASSI
100
AcDbCircle
 62
7
  6
CONTINUOUS
 10
-48.75
 20
117.5936336202
 40
2.75
100
AcDbArc
 50
270.0
 51
90.0
  0
ARC
  5
39F
100
AcDbEntity
  8
ASSI
100
AcDbCircle
 62
7
  6
CONTINUOUS
 10
-51.25
 20
117.5936336202
 40
2.75
100
AcDbArc
 50
90.0
 51
270.0
  0
ARC
  5
3A0
100
AcDbEntity
  8
ASSI
100
AcDbCircle
 62
7
  6
CONTINUOUS
 10
-148.75
 20
117.5936336202
 40
2.75
100
AcDbArc
 50
270.0
 51
90.0
  0
ARC
  5
3A1
100
AcDbEntity
  8
ASSI
100
AcDbCircle
 62
7
  6
CONTINUOUS
 10
-151.25
 20
117.5936336202
 40
2.75
100
AcDbArc
 50
90.0
 51
270.0
  0
ARC
  5
3A2
100
AcDbEntity
  8
ASSI
100
AcDbCircle
 62
7
  6
CONTINUOUS
 10
-175.25
 20
116.3436336202
 40
1.75
100
AcDbArc
 50
180.0
 51
360.0
  0
ARC
  5
3A3
100
AcDbEntity
  8
ASSI
100
AcDbCircle
 62
7
  6
CONTINUOUS
 10
-175.25
 20
118.8436336202
 40
1.75
100
AcDbArc
 50
0.0
 51
180.0
  0
ARC
  5
3A4
100
AcDbEntity
  8
ASSI
100
AcDbCircle
 62
7
  6
CONTINUOUS
 10
-124.75
 20
116.3436336202
 40
1.75
100
AcDbArc
 50
180.0
 51
360.0
  0
ARC
  5
3A5
100
AcDbEntity
  8
ASSI
100
AcDbCircle
 62
7
  6
CONTINUOUS
 10
-124.75
 20
118.8436336202
 40
1.75
100
AcDbArc
 50
0.0
 51
180.0
  0
ARC
  5
3A6
100
AcDbEntity
  8
ASSI
100
AcDbCircle
 62
7
  6
CONTINUOUS
 10
-24.75
 20
116.3436336202
 40
1.75
100
AcDbArc
 50
180.0
 51
360.0
  0
ARC
  5
3A7
100
AcDbEntity
  8
ASSI
100
AcDbCircle
 62
7
  6
CONTINUOUS
 10
-24.75
 20
118.8436336202
 40
1.75
100
AcDbArc
 50
0.0
 51
180.0
  0
ARC
  5
3A8
100
AcDbEntity
  8
ASSI
100
AcDbCircle
 62
7
  6
CONTINUOUS
 10
-75.25
 20
116.3436336202
 40
1.75
100
AcDbArc
 50
180.0
 51
360.0
  0
ARC
  5
3A9
100
AcDbEntity
  8
ASSI
100
AcDbCircle
 62
7
  6
CONTINUOUS
 10
-75.25
 20
118.8436336202
 40
1.75
100
AcDbArc
 50
0.0
 51
180.0
  0
CIRCLE
  5
3AA
100
AcDbEntity
  8
ASSI
100
AcDbCircle
 62
7
  6
CONTINUOUS
 10
-195.5
 20
108.8436336202
 40
1.275
  0
CIRCLE
  5
3AB
100
AcDbEntity
  8
ASSI
100
AcDbCircle
 62
7
  6
CONTINUOUS
 10
-175.5
 20
128.8436336202
 40
1.275
  0
CIRCLE
  5
3AC
100
AcDbEntity
  8
ASSI
100
AcDbCircle
 62
7
  6
CONTINUOUS
 10
-24.5
 20
128.8436336202
 40
1.275
  0
CIRCLE
  5
3AD
100
AcDbEntity
  8
ASSI
100
AcDbCircle
 62
7
  6
CONTINUOUS
 10
-124.5
 20
128.8436336202
 40
1.275
  0
ARC
  5
3AE
100
AcDbEntity
  8
0
100
AcDbCircle
 62
7
  6
CONTINUOUS
 10
-111.0
 20
108.5936336202
 40
1.0
100
AcDbArc
 50
0.0
 51
90.0
  0
ARC
  5
3AF
100
AcDbEntity
  8
0
100
AcDbCircle
 62
7
  6
CONTINUOUS
 10
-189.0
 20
108.5936336202
 40
1.0
100
AcDbArc
 50
90.0
 51
180.0
  0
ARC
  5
3B0
100
AcDbEntity
  8
0
100
AcDbCircle
 62
7
  6
CONTINUOUS
 10
-89.0
 20
108.5936336202
 40
1.0
100
AcDbArc
 50
90.0
 51
180.0
  0
ARC
  5
3B1
100
AcDbEntity
  8
0
100
AcDbCircle
 62
7
  6
CONTINUOUS
 10
-11.0
 20
108.5936336202
 40
1.0
100
AcDbArc
 50
0.0
 51
90.0
  0
ARC
  5
3B2
100
AcDbEntity
  8
0
100
AcDbCircle
 62
7
  6
CONTINUOUS
 10
-164.25
 20
110.3436336202
 40
0.75
100
AcDbArc
 50
90.0
 51
180.0
  0
ARC
  5
3B3
100
AcDbEntity
  8
0
100
AcDbCircle
 62
7
  6
CONTINUOUS
 10
-135.75
 20
110.3436336202
 40
0.75
100
AcDbArc
 50
0.0
 51
90.0
  0
ARC
  5
3B4
100
AcDbEntity
  8
0
100
AcDbCircle
 62
7
  6
CONTINUOUS
 10
-64.25
 20
110.3436336202
 40
0.75
100
AcDbArc
 50
90.0
 51
180.0
  0
ARC
  5
3B5
100
AcDbEntity
  8
0
100
AcDbCircle
 62
7
  6
CONTINUOUS
 10
-35.75
 20
110.3436336202
 40
0.75
100
AcDbArc
 50
0.0
 51
90.0
  0
ARC
  5
3B6
100
AcDbEntity
  8
0
100
AcDbCircle
 62
7
  6
CONTINUOUS
 10
-34.25
 20
110.3436336202
 40
0.75
100
AcDbArc
 50
180.0
 51
270.0
  0
ARC
  5
3B7
100
AcDbEntity
  8
0
100
AcDbCircle
 62
7
  6
CONTINUOUS
 10
-65.75
 20
110.3436336202
 40
0.75
100
AcDbArc
 50
270.0
 51
360.0
  0
ARC
  5
3B8
100
AcDbEntity
  8
0
100
AcDbCircle
 62
7
  6
CONTINUOUS
 10
-165.75
 20
110.3436336202
 40
0.75
100
AcDbArc
 50
270.0
 51
360.0
  0
ARC
  5
3B9
100
AcDbEntity
  8
0
100
AcDbCircle
 62
7
  6
CONTINUOUS
 10
-134.25
 20
110.3436336202
 40
0.75
100
AcDbArc
 50
180.0
 51
270.0
  0
ARC
  5
3BA
100
AcDbEntity
  8
0
100
AcDbCircle
 62
7
  6
CONTINUOUS
 10
-206.0885669145
 20
139.4322005347
 40
0.375
100
AcDbArc
 50
62.3665430274
 51
207.6334569726
  0
ARC
  5
3BB
100
AcDbEntity
  8
ASSI
100
AcDbCircle
 62
7
  6
CONTINUOUS
 10
150.0
 20
-128.6563663798
 40
2.75
100
AcDbArc
 50
180.0
 51
360.0
  0
ARC
  5
3BC
100
AcDbEntity
  8
ASSI
100
AcDbCircle
 62
7
  6
CONTINUOUS
 10
150.0
 20
-126.1563663798
 40
2.75
100
AcDbArc
 50
0.0
 51
180.0
  0
ARC
  5
3BD
100
AcDbEntity
  8
ASSI
100
AcDbCircle
 62
7
  6
CONTINUOUS
 10
50.0
 20
-128.6563663798
 40
2.75
100
AcDbArc
 50
180.0
 51
360.0
  0
ARC
  5
3BE
100
AcDbEntity
  8
ASSI
100
AcDbCircle
 62
7
  6
CONTINUOUS
 10
50.0
 20
-126.1563663798
 40
2.75
100
AcDbArc
 50
0.0
 51
180.0
  0
ARC
  5
3BF
100
AcDbEntity
  8
ASSI
100
AcDbCircle
 62
7
  6
CONTINUOUS
 10
175.25
 20
-126.1563663798
 40
1.75
100
AcDbArc
 50
0.0
 51
180.0
  0
ARC
  5
3C0
100
AcDbEntity
  8
ASSI
100
AcDbCircle
 62
7
  6
CONTINUOUS
 10
175.25
 20
-128.6563663798
 40
1.75
100
AcDbArc
 50
180.0
 51
360.0
  0
ARC
  5
3C1
100
AcDbEntity
  8
ASSI
100
AcDbCircle
 62
7
  6
CONTINUOUS
 10
124.75
 20
-126.1563663798
 40
1.75
100
AcDbArc
 50
0.0
 51
180.0
  0
ARC
  5
3C2
100
AcDbEntity
  8
ASSI
100
AcDbCircle
 62
7
  6
CONTINUOUS
 10
124.75
 20
-128.6563663798
 40
1.75
100
AcDbArc
 50
180.0
 51
360.0
  0
ARC
  5
3C3
100
AcDbEntity
  8
ASSI
100
AcDbCircle
 62
7
  6
CONTINUOUS
 10
24.75
 20
-126.1563663798
 40
1.75
100
AcDbArc
 50
0.0
 51
180.0
  0
ARC
  5
3C4
100
AcDbEntity
  8
ASSI
100
AcDbCircle
 62
7
  6
CONTINUOUS
 10
24.75
 20
-128.6563663798
 40
1.75
100
AcDbArc
 50
180.0
 51
360.0
  0
ARC
  5
3C5
100
AcDbEntity
  8
ASSI
100
AcDbCircle
 62
7
  6
CONTINUOUS
 10
75.25
 20
-126.1563663798
 40
1.75
100
AcDbArc
 50
0.0
 51
180.0
  0
ARC
  5
3C6
100
AcDbEntity
  8
ASSI
100
AcDbCircle
 62
7
  6
CONTINUOUS
 10
75.25
 20
-128.6563663798
 40
1.75
100
AcDbArc
 50
180.0
 51
360.0
  0
CIRCLE
  5
3C7
100
AcDbEntity
  8
ASSI
100
AcDbCircle
 62
7
  6
CONTINUOUS
 10
195.5
 20
-121.1563663798
 40
1.275
  0
CIRCLE
  5
3C8
100
AcDbEntity
  8
ASSI
100
AcDbCircle
 62
7
  6
CONTINUOUS
 10
195.5
 20
-6.1563663798
 40
1.275
  0
CIRCLE
  5
3C9
100
AcDbEntity
  8
ASSI
100
AcDbCircle
 62
7
  6
CONTINUOUS
 10
165.0
 20
-136.6563663798
 40
1.275
  0
CIRCLE
  5
3CA
100
AcDbEntity
  8
ASSI
100
AcDbCircle
 62
7
  6
CONTINUOUS
 10
135.0
 20
-136.6563663798
 40
1.275
  0
CIRCLE
  5
3CB
100
AcDbEntity
  8
ASSI
100
AcDbCircle
 62
7
  6
CONTINUOUS
 10
35.0
 20
-136.6563663798
 40
1.275
  0
CIRCLE
  5
3CC
100
AcDbEntity
  8
ASSI
100
AcDbCircle
 62
7
  6
CONTINUOUS
 10
65.0
 20
-136.6563663798
 40
1.275
  0
ARC
  5
3CD
100
AcDbEntity
  8
0
100
AcDbCircle
 62
7
  6
CONTINUOUS
 10
11.0
 20
-119.4063663798
 40
1.0
100
AcDbArc
 50
180.0
 51
270.0
  0
ARC
  5
3CE
100
AcDbEntity
  8
0
100
AcDbCircle
 62
7
  6
CONTINUOUS
 10
89.0
 20
-119.4063663798
 40
1.0
100
AcDbArc
 50
270.0
 51
360.0
  0
ARC
  5
3CF
100
AcDbEntity
  8
0
100
AcDbCircle
 62
7
  6
CONTINUOUS
 10
111.0
 20
-119.4063663798
 40
1.0
100
AcDbArc
 50
180.0
 51
270.0
  0
ARC
  5
3D0
100
AcDbEntity
  8
0
100
AcDbCircle
 62
7
  6
CONTINUOUS
 10
189.0
 20
-119.4063663798
 40
1.0
100
AcDbArc
 50
270.0
 51
360.0
  0
ARC
  5
3D1
100
AcDbEntity
  8
0
100
AcDbCircle
 62
7
  6
CONTINUOUS
 10
202.5
 20
135.8436336202
 40
8.8127327596
100
AcDbArc
 50
0.0
 51
90.0
  0
ARC
  5
3D2
100
AcDbEntity
  8
0
100
AcDbCircle
 62
7
  6
CONTINUOUS
 10
202.5
 20
135.8436336202
 40
7.3818239575
100
AcDbArc
 50
0.0
 51
90.0
  0
ARC
  5
3D3
100
AcDbEntity
  8
0
100
AcDbCircle
 62
7
  6
CONTINUOUS
 10
202.5
 20
135.8436336202
 40
6.0
100
AcDbArc
 50
0.0
 51
90.0
  0
ARC
  5
3D4
100
AcDbEntity
  8
0
100
AcDbCircle
 62
7
  6
CONTINUOUS
 10
202.5
 20
135.8436336202
 40
5.2
100
AcDbArc
 50
0.0
 51
90.0
  0
ARC
  5
3D5
100
AcDbEntity
  8
ASSI
100
AcDbCircle
 62
7
  6
CONTINUOUS
 10
151.25
 20
117.5936336202
 40
2.75
100
AcDbArc
 50
270.0
 51
90.0
  0
ARC
  5
3D6
100
AcDbEntity
  8
ASSI
100
AcDbCircle
 62
7
  6
CONTINUOUS
 10
148.75
 20
117.5936336202
 40
2.75
100
AcDbArc
 50
90.0
 51
270.0
  0
ARC
  5
3D7
100
AcDbEntity
  8
ASSI
100
AcDbCircle
 62
7
  6
CONTINUOUS
 10
51.25
 20
117.5936336202
 40
2.75
100
AcDbArc
 50
270.0
 51
90.0
  0
ARC
  5
3D8
100
AcDbEntity
  8
ASSI
100
AcDbCircle
 62
7
  6
CONTINUOUS
 10
48.75
 20
117.5936336202
 40
2.75
100
AcDbArc
 50
90.0
 51
270.0
  0
ARC
  5
3D9
100
AcDbEntity
  8
ASSI
100
AcDbCircle
 62
7
  6
CONTINUOUS
 10
175.25
 20
116.3436336202
 40
1.75
100
AcDbArc
 50
180.0
 51
360.0
  0
ARC
  5
3DA
100
AcDbEntity
  8
ASSI
100
AcDbCircle
 62
7
  6
CONTINUOUS
 10
175.25
 20
118.8436336202
 40
1.75
100
AcDbArc
 50
0.0
 51
180.0
  0
ARC
  5
3DB
100
AcDbEntity
  8
ASSI
100
AcDbCircle
 62
7
  6
CONTINUOUS
 10
124.75
 20
116.3436336202
 40
1.75
100
AcDbArc
 50
180.0
 51
360.0
  0
ARC
  5
3DC
100
AcDbEntity
  8
ASSI
100
AcDbCircle
 62
7
  6
CONTINUOUS
 10
124.75
 20
118.8436336202
 40
1.75
100
AcDbArc
 50
0.0
 51
180.0
  0
ARC
  5
3DD
100
AcDbEntity
  8
ASSI
100
AcDbCircle
 62
7
  6
CONTINUOUS
 10
24.75
 20
116.3436336202
 40
1.75
100
AcDbArc
 50
180.0
 51
360.0
  0
ARC
  5
3DE
100
AcDbEntity
  8
ASSI
100
AcDbCircle
 62
7
  6
CONTINUOUS
 10
24.75
 20
118.8436336202
 40
1.75
100
AcDbArc
 50
0.0
 51
180.0
  0
ARC
  5
3DF
100
AcDbEntity
  8
ASSI
100
AcDbCircle
 62
7
  6
CONTINUOUS
 10
75.25
 20
116.3436336202
 40
1.75
100
AcDbArc
 50
180.0
 51
360.0
  0
ARC
  5
3E0
100
AcDbEntity
  8
ASSI
100
AcDbCircle
 62
7
  6
CONTINUOUS
 10
75.25
 20
118.8436336202
 40
1.75
100
AcDbArc
 50
0.0
 51
180.0
  0
CIRCLE
  5
3E1
100
AcDbEntity
  8
ASSI
100
AcDbCircle
 62
7
  6
CONTINUOUS
 10
195.5
 20
108.8436336202
 40
1.275
  0
CIRCLE
  5
3E2
100
AcDbEntity
  8
ASSI
100
AcDbCircle
 62
7
  6
CONTINUOUS
 10
175.5
 20
128.8436336202
 40
1.275
  0
CIRCLE
  5
3E3
100
AcDbEntity
  8
ASSI
100
AcDbCircle
 62
7
  6
CONTINUOUS
 10
24.5
 20
128.8436336202
 40
1.275
  0
CIRCLE
  5
3E4
100
AcDbEntity
  8
ASSI
100
AcDbCircle
 62
7
  6
CONTINUOUS
 10
124.5
 20
128.8436336202
 40
1.275
  0
ARC
  5
3E5
100
AcDbEntity
  8
0
100
AcDbCircle
 62
7
  6
CONTINUOUS
 10
11.0
 20
108.5936336202
 40
1.0
100
AcDbArc
 50
90.0
 51
180.0
  0
ARC
  5
3E6
100
AcDbEntity
  8
0
100
AcDbCircle
 62
7
  6
CONTINUOUS
 10
89.0
 20
108.5936336202
 40
1.0
100
AcDbArc
 50
0.0
 51
90.0
  0
ARC
  5
3E7
100
AcDbEntity
  8
0
100
AcDbCircle
 62
7
  6
CONTINUOUS
 10
111.0
 20
108.5936336202
 40
1.0
100
AcDbArc
 50
90.0
 51
180.0
  0
ARC
  5
3E8
100
AcDbEntity
  8
0
100
AcDbCircle
 62
7
  6
CONTINUOUS
 10
189.0
 20
108.5936336202
 40
1.0
100
AcDbArc
 50
0.0
 51
90.0
  0
ARC
  5
3E9
100
AcDbEntity
  8
0
100
AcDbCircle
 62
7
  6
CONTINUOUS
 10
35.75
 20
110.3436336202
 40
0.75
100
AcDbArc
 50
90.0
 51
180.0
  0
ARC
  5
3EA
100
AcDbEntity
  8
0
100
AcDbCircle
 62
7
  6
CONTINUOUS
 10
64.25
 20
110.3436336202
 40
0.75
100
AcDbArc
 50
0.0
 51
90.0
  0
ARC
  5
3EB
100
AcDbEntity
  8
0
100
AcDbCircle
 62
7
  6
CONTINUOUS
 10
135.75
 20
110.3436336202
 40
0.75
100
AcDbArc
 50
90.0
 51
180.0
  0
ARC
  5
3EC
100
AcDbEntity
  8
0
100
AcDbCircle
 62
7
  6
CONTINUOUS
 10
164.25
 20
110.3436336202
 40
0.75
100
AcDbArc
 50
0.0
 51
90.0
  0
ARC
  5
3ED
100
AcDbEntity
  8
0
100
AcDbCircle
 62
7
  6
CONTINUOUS
 10
134.25
 20
110.3436336202
 40
0.75
100
AcDbArc
 50
270.0
 51
360.0
  0
ARC
  5
3EE
100
AcDbEntity
  8
0
100
AcDbCircle
 62
7
  6
CONTINUOUS
 10
165.75
 20
110.3436336202
 40
0.75
100
AcDbArc
 50
180.0
 51
270.0
  0
ARC
  5
3EF
100
AcDbEntity
  8
0
100
AcDbCircle
 62
7
  6
CONTINUOUS
 10
65.75
 20
110.3436336202
 40
0.75
100
AcDbArc
 50
180.0
 51
270.0
  0
ARC
  5
3F0
100
AcDbEntity
  8
0
100
AcDbCircle
 62
7
  6
CONTINUOUS
 10
34.25
 20
110.3436336202
 40
0.75
100
AcDbArc
 50
270.0
 51
360.0
  0
ARC
  5
3F1
100
AcDbEntity
  8
0
100
AcDbCircle
 62
7
  6
CONTINUOUS
 10
206.0885669145
 20
139.4322005347
 40
0.375
100
AcDbArc
 50
332.3667595236
 51
117.637745331
  0
ARC
  5
3F2
100
AcDbEntity
  8
0
100
AcDbCircle
 62
7
  6
CONTINUOUS
 10
282.4049729633
 20
171.8436336202
 40
28.5
100
AcDbArc
 50
270.0
 51
287.4576031237
  0
ARC
  5
3F3
100
AcDbEntity
  8
ASSI
100
AcDbCircle
 62
7
  6
CONTINUOUS
 10
300.9049729633
 20
93.3436336202
 40
25.0
100
AcDbArc
 50
137.7314155704
 51
180.0
  0
ARC
  5
3F4
100
AcDbEntity
  8
0
100
AcDbCircle
 62
7
  6
CONTINUOUS
 10
255.9049729633
 20
-124.6563663798
 40
20.0
100
AcDbArc
 50
270.0
 51
360.0
  0
ARC
  5
3F5
100
AcDbEntity
  8
0
100
AcDbCircle
 62
7
  6
CONTINUOUS
 10
254.4049729633
 20
141.3436336202
 40
2.0
100
AcDbArc
 50
90.0
 51
156.0
  0
ENDSEC
  0
SECTION
  2
OBJECTS
  0
DICTIONARY
  5
C
100
AcDbDictionary
280
0
281
1
  3
ACAD_GROUP
350
D
  3
ACAD_MLINESTYLE
350
17
  3
ACAD_LAYOUT
350
1A
  3
ACAD_PLOTSETTINGS
350
19
  3
ACAD_PLOTSTYLENAME
350
E
  0
DICTIONARY
  5
D
102
{ACAD_REACTORS
330
C
102
}
100
AcDbDictionary
280
0
281
1
  0
ACDBDICTIONARYWDFLT
  5
E
102
{ACAD_REACTORS
330
C
102
}
100
AcDbDictionary
281
1
  3
Normal
350
F
100
AcDbDictionaryWithDefault
340
F
  0
DICTIONARY
  5
17
102
{ACAD_REACTORS
330
C
102
}
100
AcDbDictionary
280
0
281
1
  3
Standard
350
18
  0
DICTIONARY
  5
19
102
{ACAD_REACTORS
330
C
102
}
100
AcDbDictionary
281
1
  0
DICTIONARY
  5
1A
102
{ACAD_REACTORS
330
C
102
}
100
AcDbDictionary
281
1
  3
Model
350
3F6
  3
Layout1
350
3F7
  0
ACDBPLACEHOLDER
  5
F
102
{ACAD_REACTORS
330
E
102
}
  0
MLINESTYLE
  5
18
102
{ACAD_REACTORS
330
17
102
}
100
AcDbMlineStyle
  2
STANDARD
 70
0
  3

 62
256
 51
90.0
 52
90.0
 71
2
 49
0.5
 62
256
  6
BYLAYER
 49
-0.5
 62
256
  6
BYLAYER
  0
LAYOUT
  5
3F6
102
{ACAD_REACTORS
330
1A
102
}
100
AcDbPlotSettings
  1

  2
none_device
  4
ISO_A4_(297.00_x_210.00_MM)
  6

 40
0.0
 41
0.0
 42
0.0
 43
0.0
 44
297.0
 45
210.0
 46
0.0
 47
0.0
 48
0.0
 49
0.0
140
0.0
141
0.0
142
1.0
143
1.0
 70
1024
 72
1
 73
0
 74
0
  7

 75
0
147
1.0
148
0.0
149
0.0
100
AcDbLayout
  1
Model
 70
0
 71
0
 10
0.0
 20
0.0
 11
297.0
 21
210.0
 12
0.0
 22
0.0
 32
0.0
 14
0.0
 24
0.0
 34
0.0
 15
0.0
 25
0.0
 35
0.0
146
0.0
 13
0.0
 23
0.0
 33
0.0
 16
1.0
 26
0.0
 36
0.0
 17
0.0
 27
1.0
 37
0.0
 76
0
330
210
345
0
346
0
  0
LAYOUT
  5
3F7
102
{ACAD_REACTORS
330
1A
102
}
100
AcDbPlotSettings
  1

  2
none_device
  4
ISO_A4_(297.00_x_210.00_MM)
  6

 40
0.0
 41
0.0
 42
0.0
 43
0.0
 44
297.0
 45
210.0
 46
0.0
 47
0.0
 48
0.0
 49
0.0
140
0.0
141
0.0
142
1.0
143
1.0
 70
0
 72
1
 73
0
 74
0
  7

 75
0
147
1.0
148
0.0
149
0.0
100
AcDbLayout
  1
Layout1
 70
0
 71
1
 10
0.0
 20
0.0
 11
297.0
 21
210.0
 12
0.0
 22
0.0
 32
0.0
 14
0.0
 24
0.0
 34
0.0
 15
0.0
 25
0.0
 35
0.0
146
0.0
 13
0.0
 23
0.0
 33
0.0
 16
1.0
 26
0.0
 36
0.0
 17
0.0
 27
1.0
 37
0.0
 76
0
330
211
345
0
346
0
  0
ENDSEC
  0
EOF
