  0
SECTION
  2
HEADER
  9
$ACADVER
  1
AC1024
  9
$DWGCODEPAGE
  3
ANSI_1252
  9
$EXTMAX
 10
297.0
 20
210.0
 30
0.0
  9
$EXTMIN
 10
0.0
 20
0.0
 30
0.0
  9
$LIMMIN
 10
0.0
 20
0.0
  9
$LIMMAX
 10
297.0
 20
210.0
  9
$VIEWCTR
 10
148.5
 20
105.0
  9
$VIEWSIZE
 40
210.0
  9
$CLAYER
  8
0
  9
$LTSCALE
 40
16.335
  9
$CELTYPE
  6
BYLAYER
  9
$DIMSCALE
 40
1.0
  9
$DIMASZ
 40
3.0
  9
$DIMEXO
 40
0.5
  9
$DIMDLI
 40
11.286
  9
$DIMEXE
 40
1.5
  9
$DIMCEN
 40
2.673
  9
$DIMLFAC
 40
1.0
  9
$DIMBLK
  1
_FILLED
  9
$DIMALT
 70
0
  9
$DIMALTF
 40
0.0393700787
  9
$DIMTXT
 40
3.0
  9
$DIMTOL
 70
1
  9
$DIMLIM
 70
0
  9
$DIMTFAC
 40
1.0
  9
$DIMTP
 40
0.01
  9
$DIMTM
 40
0.01
  9
$DIMGAP
 40
0.625
  9
$DIMDSEP
 70
44
  9
$AUNITS
 70
0
  9
$PDMODE
 70
3
  9
$PDSIZE
 40
3.0
  9
$HANDSEED
  5
720
  9
$TILEMODE
 70
1
  9
$MEASUREMENT
 70
1
  9
$INSUNITS
 70
4
  0
ENDSEC
  0
SECTION
  2
CLASSES
  0
CLASS
  1
ACDBDICTIONARYWDFLT
  2
AcDbDictionaryWithDefault
  3
AutoCAD 2000
 90
0
 91
1
280
0
281
0
  0
CLASS
  1
ACDBPLACEHOLDER
  2
AcDbPlaceHolder
  3
AutoCAD 2000
 90
0
 91
1
280
0
281
0
  0
CLASS
  1
LAYOUT
  2
AcDbLayout
  3
AutoCAD 2000
 90
0
 91
0
280
0
281
0
  0
ENDSEC
  0
SECTION
  2
TABLES
  0
TABLE
  2
VPORT
  5
8
100
AcDbSymbolTable
 70
2
  0
VPORT
  5
1F4
100
AcDbSymbolTableRecord
100
AcDbViewportTableRecord
  2
*ACTIVE
 70
0
 10
0.0
 20
0.0
 11
1.0
 21
1.0
 12
148.5
 22
105.0
 13
0.0
 23
0.0
 14
1.0
 24
1.0
 15
0.0
 25
0.0
 16
0.0
 26
0.0
 36
1.0
 17
0.0
 27
0.0
 37
0.0
 40
210.0
 41
1.4142857143
 42
50.0
 43
0.0
 44
0.0
 50
0.0
 51
0.0
 71
0
 72
100
 73
1
 74
1
 75
0
 76
0
 77
0
 78
0
  0
ENDTAB
  0
TABLE
  2
LTYPE
  5
5
100
AcDbSymbolTable
 70
6
  0
LTYPE
  5
14
100
AcDbSymbolTableRecord
100
AcDbLinetypeTableRecord
  2
BYBLOCK
 70
0
  3

 72
65
 73
0
 40
0.0
  0
LTYPE
  5
15
100
AcDbSymbolTableRecord
100
AcDbLinetypeTableRecord
  2
BYLAYER
 70
0
  3

 72
65
 73
0
 40
0.0
  0
LTYPE
  5
16
100
AcDbSymbolTableRecord
100
AcDbLinetypeTableRecord
  2
CONTINUOUS
 70
64
  3
Solid line
 72
65
 73
0
 40
0.0
  0
LTYPE
  5
1F5
100
AcDbSymbolTableRecord
100
AcDbLinetypeTableRecord
  2
CENTER
 70
64
  3
____ _ ____ _ ____ _ ____ _ ____ _ ____ _ ____
 72
65
 73
4
 40
0.6
 49
0.375
 74
0
 49
-0.075
 74
0
 49
0.075
 74
0
 49
-0.075
 74
0
  0
LTYPE
  5
1F6
100
AcDbSymbolTableRecord
100
AcDbLinetypeTableRecord
  2
HIDDEN
 70
64
  3
- - - - - - - - - - - - - - - - - - - -
 72
65
 73
2
 40
0.2
 49
0.1
 74
0
 49
-0.1
 74
0
  0
LTYPE
  5
1F7
100
AcDbSymbolTableRecord
100
AcDbLinetypeTableRecord
  2
PHANTOM
 70
64
  3
_____ _ _ _____ _ _ _____ _ _ _____
 72
65
 73
6
 40
0.8
 49
0.45
 74
0
 49
-0.05
 74
0
 49
0.1
 74
0
 49
-0.05
 74
0
 49
0.1
 74
0
 49
-0.05
 74
0
  0
LTYPE
  5
1F8
100
AcDbSymbolTableRecord
100
AcDbLinetypeTableRecord
  2
DOT
 70
64
  3
. . . . . . . . . . . . . . . . . . . .
 72
65
 73
2
 40
0.2
 49
0.1
 74
0
 49
-0.1
 74
0
  0
LTYPE
  5
1F9
100
AcDbSymbolTableRecord
100
AcDbLinetypeTableRecord
  2
DASHED
 70
64
  3
- - - - - - - - - - - - - - - - - - - -
 72
65
 73
2
 40
0.2
 49
0.1
 74
0
 49
-0.1
 74
0
  0
ENDTAB
  0
TABLE
  2
LAYER
  5
2
100
AcDbSymbolTable
 70
36
  0
LAYER
  5
10
100
AcDbSymbolTableRecord
100
AcDbLayerTableRecord
  2
0
 70
0
 62
7
  6
CONTINUOUS
370
-3
390
F
  0
LAYER
  5
1FA
100
AcDbSymbolTableRecord
100
AcDbLayerTableRecord
  2
DEFAULT_1
 70
0
 62
7
  6
CENTER
370
-3
390
F
  0
LAYER
  5
1FB
100
AcDbSymbolTableRecord
100
AcDbLayerTableRecord
  2
DEFAULT_2
 70
0
 62
7
  6
HIDDEN
370
-3
390
F
  0
LAYER
  5
1FC
100
AcDbSymbolTableRecord
100
AcDbLayerTableRecord
  2
DEFAULT_3
 70
0
 62
7
  6
PHANTOM
370
-3
390
F
  0
LAYER
  5
1FD
100
AcDbSymbolTableRecord
100
AcDbLayerTableRecord
  2
ASSI
 70
0
 62
7
  6
CONTINUOUS
370
-3
390
F
  0
LAYER
  5
1FE
100
AcDbSymbolTableRecord
100
AcDbLayerTableRecord
  2
COORDINATE
 70
0
 62
7
  6
CONTINUOUS
370
-3
390
F
  0
LAYER
  5
1FF
100
AcDbSymbolTableRecord
100
AcDbLayerTableRecord
  2
COPY_PUBLISH
 70
0
 62
7
  6
CONTINUOUS
370
-3
390
F
  0
LAYER
  5
200
100
AcDbSymbolTableRecord
100
AcDbLayerTableRecord
  2
COSMETICI
 70
0
 62
7
  6
CONTINUOUS
370
-3
390
F
  0
LAYER
  5
201
100
AcDbSymbolTableRecord
100
AcDbLayerTableRecord
  2
CURVE
 70
0
 62
7
  6
CONTINUOUS
370
-3
390
F
  0
LAYER
  5
202
100
AcDbSymbolTableRecord
100
AcDbLayerTableRecord
  2
DRAFT
 70
0
 62
7
  6
CONTINUOUS
370
-3
390
F
  0
LAYER
  5
203
100
AcDbSymbolTableRecord
100
AcDbLayerTableRecord
  2
IMPORT_IGES
 70
0
 62
7
  6
CONTINUOUS
370
-3
390
F
  0
LAYER
  5
204
100
AcDbSymbolTableRecord
100
AcDbLayerTableRecord
  2
NOTE
 70
0
 62
7
  6
CONTINUOUS
370
-3
390
F
  0
LAYER
  5
205
100
AcDbSymbolTableRecord
100
AcDbLayerTableRecord
  2
PIANI
 70
0
 62
7
  6
CONTINUOUS
370
-3
390
F
  0
LAYER
  5
206
100
AcDbSymbolTableRecord
100
AcDbLayerTableRecord
  2
PUNTI
 70
0
 62
7
  6
CONTINUOUS
370
-3
390
F
  0
LAYER
  5
207
100
AcDbSymbolTableRecord
100
AcDbLayerTableRecord
  2
RACCORDO
 70
0
 62
7
  6
CONTINUOUS
370
-3
390
F
  0
LAYER
  5
208
100
AcDbSymbolTableRecord
100
AcDbLayerTableRecord
  2
SIMBOLI
 70
0
 62
7
  6
CONTINUOUS
370
-3
390
F
  0
LAYER
  5
209
100
AcDbSymbolTableRecord
100
AcDbLayerTableRecord
  2
SMUSSO
 70
0
 62
7
  6
CONTINUOUS
370
-3
390
F
  0
LAYER
  5
20A
100
AcDbSymbolTableRecord
100
AcDbLayerTableRecord
  2
SUPERFICI
 70
0
 62
7
  6
CONTINUOUS
370
-3
390
F
  0
LAYER
  5
20B
100
AcDbSymbolTableRecord
100
AcDbLayerTableRecord
  2
TRASH
 70
0
 62
7
  6
CONTINUOUS
370
-3
390
F
  0
ENDTAB
  0
TABLE
  2
STYLE
  5
3
100
AcDbSymbolTable
 70
1
  0
STYLE
  5
11
100
AcDbSymbolTableRecord
100
AcDbTextStyleTableRecord
  2
STANDARD
 70
0
 40
0.0
 41
0.8
 50
0.0
 71
0
 42
0.2
  3
txt
  4

  0
STYLE
  5
20C
100
AcDbSymbolTableRecord
100
AcDbTextStyleTableRecord
  2
TEXTSTYLE_1
 70
0
 40
0.0
 41
0.8
 50
0.0
 71
0
 42
0.2
  3
gdt
  4

  0
ENDTAB
  0
TABLE
  2
VIEW
  5
6
100
AcDbSymbolTable
 70
0
  0
ENDTAB
  0
TABLE
  2
UCS
  5
7
100
AcDbSymbolTable
 70
0
  0
ENDTAB
  0
TABLE
  2
APPID
  5
9
100
AcDbSymbolTable
 70
1
  0
APPID
  5
20D
100
AcDbSymbolTableRecord
100
AcDbRegAppTableRecord
  2
ACAD
 70
0
  0
ENDTAB
  0
TABLE
  2
BLOCK_RECORD
  5
1
100
AcDbSymbolTable
 70
0
  0
BLOCK_RECORD
  5
20E
100
AcDbSymbolTableRecord
100
AcDbBlockTableRecord
  2
*Model_Space
  0
BLOCK_RECORD
  5
20F
100
AcDbSymbolTableRecord
100
AcDbBlockTableRecord
  2
*Paper_Space
  0
BLOCK_RECORD
  5
210
100
AcDbSymbolTableRecord
100
AcDbBlockTableRecord
  2
_FILLED
  0
BLOCK_RECORD
  5
211
100
AcDbSymbolTableRecord
100
AcDbBlockTableRecord
  2
*D0
  0
BLOCK_RECORD
  5
212
100
AcDbSymbolTableRecord
100
AcDbBlockTableRecord
  2
*D1
  0
BLOCK_RECORD
  5
213
100
AcDbSymbolTableRecord
100
AcDbBlockTableRecord
  2
*D2
  0
ENDTAB
  0
TABLE
  2
DIMSTYLE
  5
A
100
AcDbSymbolTable
 70
1
100
AcDbDimStyleTable
 71
0
  0
DIMSTYLE
105
214
100
AcDbSymbolTableRecord
100
AcDbDimStyleTableRecord
  2
STANDARD
 70
0
  3

  4

 40
1.0
 41
3.0
 42
0.5
 43
0.38
 44
1.5
 45
0.0
 46
0.0
 47
0.01
 48
0.01
140
3.0
141
0.09
142
0.0
143
25.4
144
1.0
145
0.0
146
1.0
147
0.625
 71
1.0
 72
0.0
 73
0
 74
0
 75
0
 76
0
 77
1
 78
8
 79
2
170
0
171
1
172
0
173
0
174
0
175
0
176
0
177
0
178
0
270
2
179
2
271
2
272
2
273
2
274
2
275
0
280
0
281
0
282
0
283
1
284
8
285
0
286
0
287
3
288
0
340
11
278
44
341
210
342
210
343
210
344
210
  0
DIMSTYLE
105
215
100
AcDbSymbolTableRecord
100
AcDbDimStyleTableRecord
  2
DIMSTYLE_1
 70
0
  3

  4

 40
1.0
 41
3.0
 42
0.5
 43
0.38
 44
1.5
 45
0.0
 46
0.0
 47
0.0
 48
0.0
140
3.0
141
0.09
142
0.0
143
25.4
144
1.0
145
0.0
146
1.0
147
0.75
 71
0.0
 72
0.0
 73
0
 74
0
 75
0
 76
0
 77
1
 78
8
 79
2
170
0
171
1
172
0
173
0
174
0
175
0
176
0
177
0
178
0
270
2
179
2
271
1
272
1
273
2
274
2
275
0
280
0
281
0
282
0
283
1
284
8
285
0
286
0
287
3
288
0
340
11
278
44
341
210
342
210
343
210
344
210
  0
DIMSTYLE
105
216
100
AcDbSymbolTableRecord
100
AcDbDimStyleTableRecord
  2
DIMSTYLE_2
 70
0
  3

  4

 40
1.0
 41
3.0
 42
0.5
 43
0.38
 44
1.5
 45
0.0
 46
0.0
 47
0.0
 48
0.0
140
3.0
141
0.09
142
0.0
143
25.4
144
1.0
145
0.0
146
1.0
147
0.75
 71
0.0
 72
0.0
 73
0
 74
0
 75
0
 76
0
 77
1
 78
8
 79
2
170
0
171
1
172
0
173
0
174
0
175
0
176
0
177
0
178
0
270
2
179
2
271
2
272
2
273
2
274
2
275
0
280
0
281
0
282
0
283
1
284
8
285
0
286
0
287
3
288
0
340
11
278
44
341
210
342
210
343
210
344
210
  0
ENDTAB
  0
ENDSEC
  0
SECTION
  2
BLOCKS
  0
BLOCK
  5
20
100
AcDbEntity
  8
0
100
AcDbBlockBegin
  2
*Model_Space
 70
0
 10
0.0
 20
0.0
 30
0.0
  3
*Model_Space
  1

  0
ENDBLK
  5
21
100
AcDbEntity
  8
0
100
AcDbBlockEnd
  0
BLOCK
  5
1C
100
AcDbEntity
  8
0
100
AcDbBlockBegin
  2
*Paper_Space
 70
0
 10
0.0
 20
0.0
 30
0.0
  3
*Paper_Space
  1

  0
ENDBLK
  5
1D
100
AcDbEntity
  8
0
100
AcDbBlockEnd
  0
BLOCK
  5
217
100
AcDbEntity
  8
0
100
AcDbBlockBegin
  2
_FILLED
 70
64
 10
0.0
 20
0.0
  3
_FILLED
  1

  0
SOLID
  5
218
100
AcDbEntity
  8
0
  6
BYBLOCK
 62
0
100
AcDbTrace
 10
0.0
 20
0.0
 11
-1.0
 21
0.3166666667
 12
-1.0
 22
-0.3166666667
 13
-1.0
 23
-0.3166666667
  0
ENDBLK
  5
219
100
AcDbEntity
  8
0
  6
BYBLOCK
 62
0
100
AcDbBlockEnd
  0
BLOCK
  5
21A
100
AcDbEntity
  8
0
100
AcDbBlockBegin
 62
7
  6
CONTINUOUS
  2
*D0
 70
65
 10
0.0
 20
0.0
  3
*D0
  1

  0
LINE
  5
21B
100
AcDbEntity
  8
0
100
AcDbLine
 62
7
  6
CONTINUOUS
 10
94.5199145771
 20
161.7710455163
 11
94.5199145771
 21
178.4437445685
  0
LINE
  5
21C
100
AcDbEntity
  8
0
100
AcDbLine
 62
7
  6
CONTINUOUS
 10
81.4199145771
 20
155.7238711426
 11
81.4199145771
 21
178.4437445685
  0
LINE
  5
21D
100
AcDbEntity
  8
0
100
AcDbLine
 62
7
  6
CONTINUOUS
 10
94.5199145771
 20
176.9437445685
 11
98.5199145771
 21
176.9437445685
  0
LINE
  5
21E
100
AcDbEntity
  8
0
100
AcDbLine
 62
7
  6
CONTINUOUS
 10
98.5199145771
 20
176.9437445685
 11
87.9699145771
 21
176.9437445685
  0
LINE
  5
21F
100
AcDbEntity
  8
0
100
AcDbLine
 62
7
  6
CONTINUOUS
 10
81.4199145771
 20
176.9437445685
 11
77.4199145771
 21
176.9437445685
  0
LINE
  5
220
100
AcDbEntity
  8
0
100
AcDbLine
 62
7
  6
CONTINUOUS
 10
77.4199145771
 20
176.9437445685
 11
87.9699145771
 21
176.9437445685
  0
INSERT
  5
221
100
AcDbEntity
  8
0
100
AcDbBlockReference
 62
7
  6
CONTINUOUS
  2
_FILLED
 10
94.5199145771
 20
176.9437445685
 41
3.0
 42
3.0
 43
3.0
 50
180.0
  0
INSERT
  5
222
100
AcDbEntity
  8
0
100
AcDbBlockReference
 62
7
  6
CONTINUOUS
  2
_FILLED
 10
81.4199145771
 20
176.9437445685
 41
3.0
 42
3.0
 43
3.0
  0
ENDBLK
  5
223
100
AcDbEntity
  8
0
  6
BYBLOCK
 62
0
100
AcDbBlockEnd
  0
BLOCK
  5
224
100
AcDbEntity
  8
0
100
AcDbBlockBegin
 62
7
  6
CONTINUOUS
  2
*D1
 70
65
 10
0.0
 20
0.0
  3
*D1
  1

  0
LINE
  5
225
100
AcDbEntity
  8
0
100
AcDbLine
 62
7
  6
CONTINUOUS
 10
115.0668400383
 20
126.1731468066
 11
115.0668400383
 21
178.599252261
  0
LINE
  5
226
100
AcDbEntity
  8
0
100
AcDbLine
 62
7
  6
CONTINUOUS
 10
192.6188043231
 20
126.1731468066
 11
192.6188043231
 21
178.599252261
  0
LINE
  5
227
100
AcDbEntity
  8
0
100
AcDbLine
 62
7
  6
CONTINUOUS
 10
115.0668400383
 20
177.099252261
 11
153.8428221807
 21
177.099252261
  0
LINE
  5
228
100
AcDbEntity
  8
0
100
AcDbLine
 62
7
  6
CONTINUOUS
 10
192.6188043231
 20
177.099252261
 11
153.8428221807
 21
177.099252261
  0
INSERT
  5
229
100
AcDbEntity
  8
0
100
AcDbBlockReference
 62
7
  6
CONTINUOUS
  2
_FILLED
 10
115.0668400383
 20
177.099252261
 41
3.0
 42
3.0
 43
3.0
 50
180.0
  0
INSERT
  5
22A
100
AcDbEntity
  8
0
100
AcDbBlockReference
 62
7
  6
CONTINUOUS
  2
_FILLED
 10
192.6188043231
 20
177.099252261
 41
3.0
 42
3.0
 43
3.0
  0
ENDBLK
  5
22B
100
AcDbEntity
  8
0
  6
BYBLOCK
 62
0
100
AcDbBlockEnd
  0
BLOCK
  5
22C
100
AcDbEntity
  8
0
100
AcDbBlockBegin
 62
7
  6
CONTINUOUS
  2
*D2
 70
65
 10
0.0
 20
0.0
  3
*D2
  1

  0
LINE
  5
22D
100
AcDbEntity
  8
0
100
AcDbLine
 62
7
  6
CONTINUOUS
 10
190.343050638
 20
167.7210455163
 11
206.6643947879
 21
167.7210455163
  0
LINE
  5
22E
100
AcDbEntity
  8
0
100
AcDbLine
 62
7
  6
CONTINUOUS
 10
190.343050638
 20
53.6210455163
 11
206.6643947879
 21
53.6210455163
  0
LINE
  5
22F
100
AcDbEntity
  8
0
100
AcDbLine
 62
7
  6
CONTINUOUS
 10
205.1643947879
 20
167.7210455163
 11
205.1643947879
 21
110.6710455163
  0
LINE
  5
230
100
AcDbEntity
  8
0
100
AcDbLine
 62
7
  6
CONTINUOUS
 10
205.1643947879
 20
53.6210455163
 11
205.1643947879
 21
110.6710455163
  0
INSERT
  5
231
100
AcDbEntity
  8
0
100
AcDbBlockReference
 62
7
  6
CONTINUOUS
  2
_FILLED
 10
205.1643947879
 20
167.7210455163
 41
3.0
 42
3.0
 43
3.0
 50
90.0
  0
INSERT
  5
232
100
AcDbEntity
  8
0
100
AcDbBlockReference
 62
7
  6
CONTINUOUS
  2
_FILLED
 10
205.1643947879
 20
53.6210455163
 41
3.0
 42
3.0
 43
3.0
 50
270.0
  0
ENDBLK
  5
233
100
AcDbEntity
  8
0
  6
BYBLOCK
 62
0
100
AcDbBlockEnd
  0
ENDSEC
  0
SECTION
  2
ENTITIES
  0
DIMENSION
  5
234
100
AcDbEntity
  8
0
100
AcDbDimension
 62
7
  6
CONTINUOUS
  2
*D0
 10
81.4199145771
 20
176.9437445685
 11
84.3270574342
 21
176.9437445685
 70
160
 71
2
 72
2
 41
0.9
 42
13.1
  3
DIMSTYLE_1
100
AcDbAlignedDimension
 13
94.5199145771
 23
161.2710455163
 14
81.4199145771
 24
155.2238711426
 50
180.0
100
AcDbRotatedDimension
  0
DIMENSION
  5
235
100
AcDbEntity
  8
0
100
AcDbDimension
 62
7
  6
CONTINUOUS
  2
*D1
 10
192.6188043231
 20
177.099252261
 11
149.4499650378
 21
177.099252261
 70
160
 71
2
 72
2
 41
0.9
 42
77.5519642847
  3
DIMSTYLE_1
100
AcDbAlignedDimension
 13
115.0668400383
 23
125.6731468066
 14
192.6188043231
 24
125.6731468066
100
AcDbRotatedDimension
  0
DIMENSION
  5
236
100
AcDbEntity
  8
0
100
AcDbDimension
 62
7
  6
CONTINUOUS
  2
*D2
 10
205.1643947879
 20
53.6210455163
 11
205.1643947879
 21
106.0639026592
 70
160
 71
2
 72
2
 41
0.9
 42
114.1
  3
DIMSTYLE_2
100
AcDbAlignedDimension
 13
189.843050638
 23
167.7210455163
 14
189.843050638
 24
53.6210455163
 50
270.0
100
AcDbRotatedDimension
  0
LINE
  5
237
100
AcDbEntity
  8
RACCORDO
100
AcDbLine
 62
7
  6
CONTINUOUS
 10
189.843050638
 20
53.6210455163
 11
117.8425937234
 21
53.6210455163
  0
LINE
  5
238
100
AcDbEntity
  8
RACCORDO
100
AcDbLine
 62
250
  6
CONTINUOUS
 10
117.8915288318
 20
53.6699806247
 11
189.7941155296
 21
53.6699806247
  0
LINE
  5
239
100
AcDbEntity
  8
RACCORDO
100
AcDbLine
 62
250
  6
CONTINUOUS
 10
117.8915288318
 20
53.8699501637
 11
189.7941155296
 21
53.8699501637
  0
LINE
  5
23A
100
AcDbEntity
  8
RACCORDO
100
AcDbLine
 62
250
  6
CONTINUOUS
 10
116.5917268281
 20
55.1697521674
 11
116.3917572891
 21
55.1697521674
  0
LINE
  5
23B
100
AcDbEntity
  8
RACCORDO
100
AcDbLine
 62
250
  6
CONTINUOUS
 10
191.0939175333
 20
55.1697521674
 11
191.2938870723
 21
55.1697521674
  0
LINE
  5
23C
100
AcDbEntity
  8
RACCORDO
100
AcDbLine
 62
250
  6
CONTINUOUS
 10
128.3276476244
 20
157.6252677115
 11
128.3224884108
 21
157.6210180515
  0
LINE
  5
23D
100
AcDbEntity
  8
RACCORDO
100
AcDbLine
 62
250
  6
CONTINUOUS
 10
188.1517699681
 20
56.6057589029
 11
119.5338743934
 21
56.6057589029
  0
LINE
  5
23E
100
AcDbEntity
  8
RACCORDO
100
AcDbLine
 62
250
  6
CONTINUOUS
 10
188.1517699681
 20
56.8056903679
 11
119.5338743934
 21
56.8056903679
  0
LINE
  5
23F
100
AcDbEntity
  8
RACCORDO
100
AcDbLine
 62
250
  6
CONTINUOUS
 10
188.0415149105
 20
56.9159454255
 11
119.644129451
 21
56.9159454255
  0
LINE
  5
240
100
AcDbEntity
  8
RACCORDO
100
AcDbLine
 62
250
  6
CONTINUOUS
 10
119.3339429284
 20
57.0056218329
 11
119.1340114634
 21
57.0056218329
  0
LINE
  5
241
100
AcDbEntity
  8
RACCORDO
100
AcDbLine
 62
250
  6
CONTINUOUS
 10
188.3517014331
 20
57.0056218329
 11
188.551632898
 21
57.0056218329
  0
LINE
  5
242
100
AcDbEntity
  8
RACCORDO
100
AcDbLine
 62
250
  6
CONTINUOUS
 10
119.444197986
 20
57.1158768905
 11
188.2414463755
 21
57.1158768905
  0
LINE
  5
243
100
AcDbEntity
  8
RACCORDO
100
AcDbLine
 62
250
  6
CONTINUOUS
 10
186.9377906249
 20
58.2262141421
 11
120.7478537365
 21
58.2262141421
  0
LINE
  5
244
100
AcDbEntity
  8
RACCORDO
100
AcDbLine
 62
250
  6
CONTINUOUS
 10
186.9377906249
 20
58.4261456071
 11
120.7478537365
 21
58.4261456071
  0
LINE
  5
245
100
AcDbEntity
  8
RACCORDO
100
AcDbLine
 62
250
  6
CONTINUOUS
 10
186.8275355673
 20
58.5364006647
 11
120.8581087941
 21
58.5364006647
  0
LINE
  5
246
100
AcDbEntity
  8
RACCORDO
100
AcDbLine
 62
250
  6
CONTINUOUS
 10
187.3376535549
 20
58.6260770721
 11
187.1377220899
 21
58.6260770721
  0
LINE
  5
247
100
AcDbEntity
  8
RACCORDO
100
AcDbLine
 62
250
  6
CONTINUOUS
 10
120.3479908065
 20
58.6260770721
 11
120.5479222715
 21
58.6260770721
  0
LINE
  5
248
100
AcDbEntity
  8
RACCORDO
100
AcDbLine
 62
250
  6
CONTINUOUS
 10
120.6581773291
 20
58.7363321297
 11
187.0274670323
 21
58.7363321297
  0
LWPOLYLINE
  5
249
100
AcDbEntity
  8
0
100
AcDbPolyline
 62
7
  6
CONTINUOUS
 90
10
 70
0
 43
0.3500000006
 10
156.949961792
 20
180.8492572632
 10
156.3071083374
 20
180.2064038086
 10
155.8785393677
 20
179.3492477417
 10
155.8785393677
 20
178.2778253174
 10
156.3071083374
 20
177.8492563477
 10
156.949961792
 20
177.8492563477
 10
157.3785307617
 20
178.2778253174
 10
157.3785307617
 20
179.1349632568
 10
156.949961792
 20
179.5635322266
 10
156.0214017334
 20
179.5635322266
  0
LINE
  5
24A
100
AcDbEntity
  8
DRAFT
100
AcDbLine
 62
7
  6
CONTINUOUS
 10
116.3748708665
 20
150.3710455163
 11
116.3743712309
 21
150.3685412317
  0
LINE
  5
24B
100
AcDbEntity
  8
DRAFT
100
AcDbLine
 62
7
  6
CONTINUOUS
 10
116.3428221807
 20
150.2104103828
 11
116.3736439991
 21
150.3648961843
  0
LINE
  5
24C
100
AcDbEntity
  8
DRAFT
100
AcDbLine
 62
7
  6
CONTINUOUS
 10
116.3748708665
 20
68.4710455163
 11
116.3428221807
 21
68.4710455163
  0
LINE
  5
24D
100
AcDbEntity
  8
DRAFT
100
AcDbLine
 62
7
  6
CONTINUOUS
 10
116.3428221807
 20
72.8316806498
 11
116.3736439991
 21
72.6771948483
  0
LINE
  5
24E
100
AcDbEntity
  8
DRAFT
100
AcDbLine
 62
7
  6
CONTINUOUS
 10
116.3743712309
 20
72.6735498009
 11
116.3748708665
 21
72.6710455163
  0
LINE
  5
24F
100
AcDbEntity
  8
DRAFT
100
AcDbLine
 62
7
  6
CONTINUOUS
 10
115.0668400383
 20
125.6731468066
 11
115.0668400383
 21
95.668944226
  0
LINE
  5
250
100
AcDbEntity
  8
DRAFT
100
AcDbLine
 62
7
  6
CONTINUOUS
 10
116.341045665
 20
125.7846199263
 11
116.341045665
 21
95.5574711063
  0
LINE
  5
251
100
AcDbEntity
  8
RACCORDO
100
AcDbLine
 62
7
  6
CONTINUOUS
 10
116.3428221807
 20
166.2212739736
 11
116.3428221807
 21
154.7316806498
  0
LINE
  5
252
100
AcDbEntity
  8
DRAFT
100
AcDbLine
 62
7
  6
CONTINUOUS
 10
116.3428221807
 20
154.5710455163
 11
116.3428221807
 21
150.3710455163
  0
LINE
  5
253
100
AcDbEntity
  8
RACCORDO
100
AcDbLine
 62
7
  6
CONTINUOUS
 10
116.3428221807
 20
150.2104103828
 11
116.3428221807
 21
125.7935296452
  0
LINE
  5
254
100
AcDbEntity
  8
DRAFT
100
AcDbLine
 62
7
  6
CONTINUOUS
 10
116.3428221807
 20
95.5485613874
 11
116.3428221807
 21
72.8316806498
  0
LINE
  5
255
100
AcDbEntity
  8
DRAFT
100
AcDbLine
 62
7
  6
CONTINUOUS
 10
116.3428221807
 20
72.6710455163
 11
116.3428221807
 21
68.4710455163
  0
LINE
  5
256
100
AcDbEntity
  8
RACCORDO
100
AcDbLine
 62
7
  6
CONTINUOUS
 10
116.3428221807
 20
55.120817059
 11
116.3428221807
 21
68.3104103828
  0
LINE
  5
257
100
AcDbEntity
  8
DRAFT
100
AcDbLine
 62
7
  6
CONTINUOUS
 10
116.3748708665
 20
154.5710455163
 11
116.3748708665
 21
150.3710455163
  0
LINE
  5
258
100
AcDbEntity
  8
DRAFT
100
AcDbLine
 62
7
  6
CONTINUOUS
 10
116.3748708665
 20
72.6710455163
 11
116.3748708665
 21
68.4710455163
  0
LINE
  5
259
100
AcDbEntity
  8
RACCORDO
100
AcDbLine
 62
250
  6
CONTINUOUS
 10
116.3917572891
 20
166.1723388652
 11
116.3917572891
 21
55.1697521674
  0
LINE
  5
25A
100
AcDbEntity
  8
RACCORDO
100
AcDbLine
 62
250
  6
CONTINUOUS
 10
116.5917268281
 20
166.1723388652
 11
116.5917268281
 21
55.1697521674
  0
LINE
  5
25B
100
AcDbEntity
  8
RACCORDO
100
AcDbLine
 62
250
  6
CONTINUOUS
 10
128.2733429676
 20
157.4271816722
 11
128.3224884108
 21
157.6210180515
  0
LINE
  5
25C
100
AcDbEntity
  8
RACCORDO
100
AcDbLine
 62
250
  6
CONTINUOUS
 10
128.3276475987
 20
157.625267718
 11
128.4015954116
 21
157.9159639653
  0
LINE
  5
25D
100
AcDbEntity
  8
DRAFT
100
AcDbLine
 62
7
  6
CONTINUOUS
 10
116.3748708665
 20
72.6710455163
 11
116.3428221807
 21
72.6710455163
  0
LINE
  5
25E
100
AcDbEntity
  8
RACCORDO
100
AcDbLine
 62
250
  6
CONTINUOUS
 10
120.6581773291
 20
86.6057589029
 11
120.5479222715
 21
86.7160139605
  0
LINE
  5
25F
100
AcDbEntity
  8
RACCORDO
100
AcDbLine
 62
250
  6
CONTINUOUS
 10
120.8581087941
 20
86.8056903679
 11
120.7478537365
 21
86.9159454255
  0
LINE
  5
260
100
AcDbEntity
  8
RACCORDO
100
AcDbLine
 62
250
  6
CONTINUOUS
 10
117.8915288318
 20
53.8699501637
 11
117.8915288318
 21
53.6699806247
  0
LINE
  5
261
100
AcDbEntity
  8
RACCORDO
100
AcDbLine
 62
250
  6
CONTINUOUS
 10
117.8915288318
 20
167.4721408689
 11
117.8915288318
 21
167.6721104079
  0
LINE
  5
262
100
AcDbEntity
  8
RACCORDO
100
AcDbLine
 62
250
  6
CONTINUOUS
 10
118.8979908065
 20
151.6710455163
 11
118.8979908065
 21
156.6710455163
  0
LINE
  5
263
100
AcDbEntity
  8
RACCORDO
100
AcDbLine
 62
250
  6
CONTINUOUS
 10
119.0921720268
 20
124.770288749
 11
119.0921720268
 21
129.8718022836
  0
LINE
  5
264
100
AcDbEntity
  8
RACCORDO
100
AcDbLine
 62
250
  6
CONTINUOUS
 10
119.0979222715
 20
151.6710455163
 11
119.0979222715
 21
156.6710455163
  0
LINE
  5
265
100
AcDbEntity
  8
RACCORDO
100
AcDbLine
 62
250
  6
CONTINUOUS
 10
119.1340114634
 20
57.0056218329
 11
119.1340114634
 21
123.4364691997
  0
LINE
  5
266
100
AcDbEntity
  8
RACCORDO
100
AcDbLine
 62
250
  6
CONTINUOUS
 10
119.2081773291
 20
156.6710455163
 11
119.2081773291
 21
151.6710455163
  0
LINE
  5
267
100
AcDbEntity
  8
RACCORDO
100
AcDbLine
 62
250
  6
CONTINUOUS
 10
119.2921415658
 20
124.770288749
 11
119.2921415658
 21
129.8718022836
  0
LINE
  5
268
100
AcDbEntity
  8
RACCORDO
100
AcDbLine
 62
250
  6
CONTINUOUS
 10
119.3339429284
 20
57.0056218329
 11
119.3339429284
 21
123.4364691997
  0
LINE
  5
269
100
AcDbEntity
  8
RACCORDO
100
AcDbLine
 62
250
  6
CONTINUOUS
 10
119.3393920943
 20
124.8175392775
 11
119.3393920943
 21
129.8245517551
  0
LINE
  5
26A
100
AcDbEntity
  8
RACCORDO
100
AcDbLine
 62
250
  6
CONTINUOUS
 10
119.4081087941
 20
156.6710455163
 11
119.4081087941
 21
151.6710455163
  0
LINE
  5
26B
100
AcDbEntity
  8
RACCORDO
100
AcDbLine
 62
250
  6
CONTINUOUS
 10
119.444197986
 20
57.1158768905
 11
119.444197986
 21
123.3262141421
  0
LINE
  5
26C
100
AcDbEntity
  8
RACCORDO
100
AcDbLine
 62
250
  6
CONTINUOUS
 10
119.5338743934
 20
56.8056903679
 11
119.5338743934
 21
56.6057589029
  0
LINE
  5
26D
100
AcDbEntity
  8
RACCORDO
100
AcDbLine
 62
250
  6
CONTINUOUS
 10
119.5338743934
 20
123.6364006647
 11
119.5338743934
 21
123.8363321297
  0
LINE
  5
26E
100
AcDbEntity
  8
RACCORDO
100
AcDbLine
 62
250
  6
CONTINUOUS
 10
119.5393616333
 20
124.8175392775
 11
119.5393616333
 21
129.8245517551
  0
LINE
  5
26F
100
AcDbEntity
  8
RACCORDO
100
AcDbLine
 62
250
  6
CONTINUOUS
 10
119.644129451
 20
56.9159454255
 11
119.644129451
 21
123.5261456071
  0
LINE
  5
270
100
AcDbEntity
  8
RACCORDO
100
AcDbLine
 62
250
  6
CONTINUOUS
 10
119.7920654134
 20
124.2703649014
 11
119.7920654134
 21
124.0703953624
  0
LINE
  5
271
100
AcDbEntity
  8
RACCORDO
100
AcDbLine
 62
250
  6
CONTINUOUS
 10
119.7920654134
 20
130.3717261312
 11
119.7920654134
 21
130.5716956702
  0
LINE
  5
272
100
AcDbEntity
  8
RACCORDO
100
AcDbLine
 62
250
  6
CONTINUOUS
 10
119.8393159419
 20
130.3244756027
 11
119.8393159419
 21
130.1245060637
  0
LINE
  5
273
100
AcDbEntity
  8
RACCORDO
100
AcDbLine
 62
250
  6
CONTINUOUS
 10
119.8393159419
 20
124.3176154299
 11
119.8393159419
 21
124.5175849689
  0
LINE
  5
274
100
AcDbEntity
  8
0
100
AcDbLine
 62
7
  6
CONTINUOUS
 10
119.8428221807
 20
128.6710455163
 11
119.8428221807
 21
124.6710455163
  0
LINE
  5
275
100
AcDbEntity
  8
RACCORDO
100
AcDbLine
 62
250
  6
CONTINUOUS
 10
120.3479908065
 20
123.5261456071
 11
120.3479908065
 21
88.6260770721
  0
LINE
  5
276
100
AcDbEntity
  8
RACCORDO
100
AcDbLine
 62
250
  6
CONTINUOUS
 10
120.3479908065
 20
58.6260770721
 11
120.3479908065
 21
86.7160139605
  0
LINE
  5
277
100
AcDbEntity
  8
RACCORDO
100
AcDbLine
 62
250
  6
CONTINUOUS
 10
120.4582458641
 20
123.6364006647
 11
120.4582458641
 21
123.8363321297
  0
LINE
  5
278
100
AcDbEntity
  8
RACCORDO
100
AcDbLine
 62
250
  6
CONTINUOUS
 10
120.5479222715
 20
123.3262141421
 11
120.5479222715
 21
88.6260770721
  0
LINE
  5
279
100
AcDbEntity
  8
RACCORDO
100
AcDbLine
 62
250
  6
CONTINUOUS
 10
120.5479222715
 20
58.6260770721
 11
120.5479222715
 21
86.7160139605
  0
LINE
  5
27A
100
AcDbEntity
  8
RACCORDO
100
AcDbLine
 62
250
  6
CONTINUOUS
 10
120.6581773291
 20
123.4364691997
 11
120.6581773291
 21
88.7363321297
  0
LINE
  5
27B
100
AcDbEntity
  8
RACCORDO
100
AcDbLine
 62
250
  6
CONTINUOUS
 10
120.6581773291
 20
58.7363321297
 11
120.6581773291
 21
86.6057589029
  0
LINE
  5
27C
100
AcDbEntity
  8
RACCORDO
100
AcDbLine
 62
250
  6
CONTINUOUS
 10
120.7478537365
 20
88.4261456071
 11
120.7478537365
 21
88.2262141421
  0
LINE
  5
27D
100
AcDbEntity
  8
RACCORDO
100
AcDbLine
 62
250
  6
CONTINUOUS
 10
120.7478537365
 20
87.1158768905
 11
120.7478537365
 21
86.9159454255
  0
LINE
  5
27E
100
AcDbEntity
  8
RACCORDO
100
AcDbLine
 62
250
  6
CONTINUOUS
 10
120.7478537365
 20
58.2262141421
 11
120.7478537365
 21
58.4261456071
  0
LINE
  5
27F
100
AcDbEntity
  8
RACCORDO
100
AcDbLine
 62
250
  6
CONTINUOUS
 10
120.8581087941
 20
58.5364006647
 11
120.8581087941
 21
86.8056903679
  0
LINE
  5
280
100
AcDbEntity
  8
RACCORDO
100
AcDbLine
 62
250
  6
CONTINUOUS
 10
120.8581087941
 20
88.5364006647
 11
120.8581087941
 21
123.4364691997
  0
LINE
  5
281
100
AcDbEntity
  8
RACCORDO
100
AcDbLine
 62
250
  6
CONTINUOUS
 10
128.4015954116
 20
164.2434911229
 11
128.4356454713
 21
164.4405017422
  0
LINE
  5
282
100
AcDbEntity
  8
DRAFT
100
AcDbLine
 62
7
  6
CONTINUOUS
 10
116.3445826548
 20
95.5573852747
 11
116.3428221807
 21
95.5485613874
  0
LINE
  5
283
100
AcDbEntity
  8
RACCORDO
100
AcDbLine
 62
250
  6
CONTINUOUS
 10
119.3393920943
 20
124.8175392775
 11
119.2921415658
 21
124.770288749
  0
LINE
  5
284
100
AcDbEntity
  8
RACCORDO
100
AcDbLine
 62
250
  6
CONTINUOUS
 10
119.8393159419
 20
124.3176154299
 11
119.7920654134
 21
124.2703649014
  0
LINE
  5
285
100
AcDbEntity
  8
RACCORDO
100
AcDbLine
 62
250
  6
CONTINUOUS
 10
120.3479908065
 20
123.5261456071
 11
120.4582458641
 21
123.6364006647
  0
LINE
  5
286
100
AcDbEntity
  8
RACCORDO
100
AcDbLine
 62
250
  6
CONTINUOUS
 10
120.5479222715
 20
123.3262141421
 11
120.6581773291
 21
123.4364691997
  0
LINE
  5
287
100
AcDbEntity
  8
DRAFT
100
AcDbLine
 62
7
  6
CONTINUOUS
 10
116.3428221807
 20
125.7935296452
 11
116.3445676872
 21
125.7847807789
  0
LINE
  5
288
100
AcDbEntity
  8
RACCORDO
100
AcDbLine
 62
250
  6
CONTINUOUS
 10
125.7840489498
 20
157.9159382721
 11
125.7840489498
 21
164.2434911229
  0
LINE
  5
289
100
AcDbEntity
  8
RACCORDO
100
AcDbLine
 62
250
  6
CONTINUOUS
 10
126.0840032584
 20
157.9159639623
 11
126.0840032584
 21
164.2626988788
  0
LINE
  5
28A
100
AcDbEntity
  8
RACCORDO
100
AcDbLine
 62
250
  6
CONTINUOUS
 10
126.0893920943
 20
157.9117726205
 11
126.0893920943
 21
161.0662524727
  0
LINE
  5
28B
100
AcDbEntity
  8
RACCORDO
100
AcDbLine
 62
250
  6
CONTINUOUS
 10
126.2893616333
 20
157.9117726205
 11
126.2893616333
 21
162.9524163662
  0
LINE
  5
28C
100
AcDbEntity
  8
RACCORDO
100
AcDbLine
 62
7
  6
CONTINUOUS
 10
126.0976656329
 20
162.9370037357
 11
126.121913742
 21
164.3261775749
  0
LINE
  5
28D
100
AcDbEntity
  8
DRAFT
100
AcDbLine
 62
7
  6
CONTINUOUS
 10
116.3748708665
 20
68.4710455163
 11
116.3743712309
 21
68.4685412317
  0
LINE
  5
28E
100
AcDbEntity
  8
DRAFT
100
AcDbLine
 62
7
  6
CONTINUOUS
 10
116.3428221807
 20
68.3104103828
 11
116.3736439991
 21
68.4648961843
  0
LINE
  5
28F
100
AcDbEntity
  8
DRAFT
100
AcDbLine
 62
7
  6
CONTINUOUS
 10
116.3428221807
 20
154.7316806498
 11
116.3736439991
 21
154.5771948483
  0
LINE
  5
290
100
AcDbEntity
  8
DRAFT
100
AcDbLine
 62
7
  6
CONTINUOUS
 10
116.3743712309
 20
154.5735498009
 11
116.3748708665
 21
154.5710455163
  0
LINE
  5
291
100
AcDbEntity
  8
RACCORDO
100
AcDbLine
 62
7
  6
CONTINUOUS
 10
128.0637306195
 20
164.3261775749
 11
128.0879787271
 21
162.9370038611
  0
LINE
  5
292
100
AcDbEntity
  8
RACCORDO
100
AcDbLine
 62
250
  6
CONTINUOUS
 10
127.8671809685
 20
101.2767501825
 11
127.8671809683
 21
99.9653313736
  0
LINE
  5
293
100
AcDbEntity
  8
RACCORDO
100
AcDbLine
 62
250
  6
CONTINUOUS
 10
127.8962827281
 20
157.9117726205
 11
127.8962827281
 21
162.9524163662
  0
LINE
  5
294
100
AcDbEntity
  8
RACCORDO
100
AcDbLine
 62
250
  6
CONTINUOUS
 10
127.9960568643
 20
101.2767534692
 11
127.9960568642
 21
99.9653283061
  0
LINE
  5
295
100
AcDbEntity
  8
RACCORDO
100
AcDbLine
 62
250
  6
CONTINUOUS
 10
128.0962522671
 20
161.0662524727
 11
128.0962522671
 21
157.9117726205
  0
LINE
  5
296
100
AcDbEntity
  8
RACCORDO
100
AcDbLine
 62
250
  6
CONTINUOUS
 10
128.101641103
 20
164.2626988788
 11
128.101641103
 21
157.9159639778
  0
LINE
  5
297
100
AcDbEntity
  8
RACCORDO
100
AcDbLine
 62
250
  6
CONTINUOUS
 10
128.4015954116
 20
164.2434911229
 11
128.4015954116
 21
157.915912519
  0
LINE
  5
298
100
AcDbEntity
  8
RACCORDO
100
AcDbLine
 62
250
  6
CONTINUOUS
 10
128.9626260834
 20
99.9653375634
 11
128.9626260834
 21
101.2767534692
  0
LINE
  5
299
100
AcDbEntity
  8
RACCORDO
100
AcDbLine
 62
250
  6
CONTINUOUS
 10
129.4371142278
 20
99.490849419
 11
129.4371175145
 21
98.3954043041
  0
LINE
  5
29A
100
AcDbEntity
  8
RACCORDO
100
AcDbLine
 62
250
  6
CONTINUOUS
 10
129.437108038
 20
102.8466867287
 11
129.4371142278
 21
101.7512416136
  0
LINE
  5
29B
100
AcDbEntity
  8
RACCORDO
100
AcDbLine
 62
250
  6
CONTINUOUS
 10
130.2922177183
 20
124.2703649014
 11
130.2922177183
 21
124.0703953624
  0
LINE
  5
29C
100
AcDbEntity
  8
RACCORDO
100
AcDbLine
 62
250
  6
CONTINUOUS
 10
130.3394682467
 20
124.3176154299
 11
130.3394682467
 21
124.5175849689
  0
LINE
  5
29D
100
AcDbEntity
  8
RACCORDO
100
AcDbLine
 62
250
  6
CONTINUOUS
 10
130.5921720268
 20
94.120288749
 11
130.5921720268
 21
98.5242801999
  0
LINE
  5
29E
100
AcDbEntity
  8
RACCORDO
100
AcDbLine
 62
250
  6
CONTINUOUS
 10
130.5921720268
 20
102.7178108327
 11
130.5921720268
 21
123.7704410539
  0
LINE
  5
29F
100
AcDbEntity
  8
RACCORDO
100
AcDbLine
 62
250
  6
CONTINUOUS
 10
130.5991540528
 20
99.490849419
 11
130.5991540528
 21
101.7512416136
  0
LINE
  5
2A0
100
AcDbEntity
  8
RACCORDO
100
AcDbLine
 62
250
  6
CONTINUOUS
 10
130.7921415658
 20
94.120288749
 11
130.7921415658
 21
98.395404304
  0
LINE
  5
2A1
100
AcDbEntity
  8
RACCORDO
100
AcDbLine
 62
250
  6
CONTINUOUS
 10
130.7921415658
 20
102.8466867286
 11
130.7921415658
 21
123.7704410539
  0
LINE
  5
2A2
100
AcDbEntity
  8
RACCORDO
100
AcDbLine
 62
250
  6
CONTINUOUS
 10
130.7991235918
 20
99.490849419
 11
130.7991235918
 21
101.7512416136
  0
LINE
  5
2A3
100
AcDbEntity
  8
RACCORDO
100
AcDbLine
 62
250
  6
CONTINUOUS
 10
130.8393920943
 20
94.1675392775
 11
130.8393920943
 21
123.8176915823
  0
LINE
  5
2A4
100
AcDbEntity
  8
RACCORDO
100
AcDbLine
 62
250
  6
CONTINUOUS
 10
131.0393616333
 20
94.1675392775
 11
131.0393616333
 21
123.8176915823
  0
LINE
  5
2A5
100
AcDbEntity
  8
RACCORDO
100
AcDbLine
 62
250
  6
CONTINUOUS
 10
131.2920654134
 20
93.6203649014
 11
131.2920654134
 21
93.4203953624
  0
LINE
  5
2A6
100
AcDbEntity
  8
RACCORDO
100
AcDbLine
 62
250
  6
CONTINUOUS
 10
131.3393159419
 20
93.6676154299
 11
131.3393159419
 21
93.8675849689
  0
LINE
  5
2A7
100
AcDbEntity
  8
RACCORDO
100
AcDbLine
 62
250
  6
CONTINUOUS
 10
140.2976812984
 20
131.3238789425
 11
140.4299443608
 21
131.4737382142
  0
LINE
  5
2A8
100
AcDbEntity
  8
RACCORDO
100
AcDbLine
 62
250
  6
CONTINUOUS
 10
139.6105564485
 20
132.0865896111
 11
139.4709590284
 21
131.9435377277
  0
LINE
  5
2A9
100
AcDbEntity
  8
RACCORDO
100
AcDbLine
 62
250
  6
CONTINUOUS
 10
130.2922177183
 20
124.2703649014
 11
130.3394682467
 21
124.3176154299
  0
LINE
  5
2AA
100
AcDbEntity
  8
RACCORDO
100
AcDbLine
 62
250
  6
CONTINUOUS
 10
130.7921415658
 20
123.7704410539
 11
130.8393920943
 21
123.8176915823
  0
LINE
  5
2AB
100
AcDbEntity
  8
RACCORDO
100
AcDbLine
 62
250
  6
CONTINUOUS
 10
120.6581773291
 20
86.6057589029
 11
187.0274670323
 21
86.6057589029
  0
LINE
  5
2AC
100
AcDbEntity
  8
RACCORDO
100
AcDbLine
 62
250
  6
CONTINUOUS
 10
187.3376535549
 20
86.7160139605
 11
187.1377220899
 21
86.7160139605
  0
LINE
  5
2AD
100
AcDbEntity
  8
RACCORDO
100
AcDbLine
 62
250
  6
CONTINUOUS
 10
120.3479908065
 20
86.7160139605
 11
120.5479222715
 21
86.7160139605
  0
LINE
  5
2AE
100
AcDbEntity
  8
RACCORDO
100
AcDbLine
 62
250
  6
CONTINUOUS
 10
120.8581087941
 20
86.8056903679
 11
186.8275355673
 21
86.8056903679
  0
LINE
  5
2AF
100
AcDbEntity
  8
RACCORDO
100
AcDbLine
 62
250
  6
CONTINUOUS
 10
120.7478537365
 20
86.9159454255
 11
186.9377906249
 21
86.9159454255
  0
LINE
  5
2B0
100
AcDbEntity
  8
RACCORDO
100
AcDbLine
 62
250
  6
CONTINUOUS
 10
120.7478537365
 20
87.1158768905
 11
186.9377906249
 21
87.1158768905
  0
LINE
  5
2B1
100
AcDbEntity
  8
RACCORDO
100
AcDbLine
 62
250
  6
CONTINUOUS
 10
120.7478537365
 20
88.2262141421
 11
186.9377906249
 21
88.2262141421
  0
LINE
  5
2B2
100
AcDbEntity
  8
DRAFT
100
AcDbLine
 62
7
  6
CONTINUOUS
 10
133.9633600731
 20
98.7710455163
 11
133.8061367352
 21
100.2710455163
  0
LINE
  5
2B3
100
AcDbEntity
  8
DRAFT
100
AcDbLine
 62
7
  6
CONTINUOUS
 10
133.9633600731
 20
102.3710455163
 11
133.8061367352
 21
103.8710455163
  0
LINE
  5
2B4
100
AcDbEntity
  8
DRAFT
100
AcDbLine
 62
7
  6
CONTINUOUS
 10
133.9633600731
 20
105.9710455163
 11
133.8061367352
 21
107.4710455163
  0
LINE
  5
2B5
100
AcDbEntity
  8
DRAFT
100
AcDbLine
 62
7
  6
CONTINUOUS
 10
133.9633600731
 20
109.5710455163
 11
133.8061367352
 21
111.0710455163
  0
LINE
  5
2B6
100
AcDbEntity
  8
DRAFT
100
AcDbLine
 62
7
  6
CONTINUOUS
 10
133.9633600731
 20
113.1710455163
 11
133.8061367352
 21
114.6710455163
  0
LINE
  5
2B7
100
AcDbEntity
  8
RACCORDO
100
AcDbLine
 62
7
  6
CONTINUOUS
 10
133.8428221807
 20
117.9210455163
 11
133.9643574031
 21
116.7615304213
  0
LINE
  5
2B8
100
AcDbEntity
  8
RACCORDO
100
AcDbLine
 62
250
  6
CONTINUOUS
 10
132.1428221807
 20
119.4710455163
 11
132.1428221807
 21
95.8710455163
  0
LINE
  5
2B9
100
AcDbEntity
  8
RACCORDO
100
AcDbLine
 62
7
  6
CONTINUOUS
 10
132.3428221807
 20
95.8710455163
 11
132.3428221807
 21
115.4710455163
  0
LINE
  5
2BA
100
AcDbEntity
  8
DRAFT
100
AcDbLine
 62
7
  6
CONTINUOUS
 10
132.3428221807
 20
115.4710455163
 11
132.3428221807
 21
117.9210455163
  0
LINE
  5
2BB
100
AcDbEntity
  8
RACCORDO
100
AcDbLine
 62
7
  6
CONTINUOUS
 10
132.3428221807
 20
117.9210455163
 11
132.3428221807
 21
119.4710455163
  0
LINE
  5
2BC
100
AcDbEntity
  8
RACCORDO
100
AcDbLine
 62
250
  6
CONTINUOUS
 10
132.5428221807
 20
95.4710455163
 11
132.5428221807
 21
115.4343600708
  0
LINE
  5
2BD
100
AcDbEntity
  8
RACCORDO
100
AcDbLine
 62
250
  6
CONTINUOUS
 10
132.5428221807
 20
118.2710455163
 11
132.5428221807
 21
119.8710455163
  0
LINE
  5
2BE
100
AcDbEntity
  8
DRAFT
100
AcDbLine
 62
7
  6
CONTINUOUS
 10
133.8061367352
 20
97.4343600708
 11
133.8061367352
 21
100.2710455163
  0
LINE
  5
2BF
100
AcDbEntity
  8
DRAFT
100
AcDbLine
 62
7
  6
CONTINUOUS
 10
133.8061367352
 20
101.0343600708
 11
133.8061367352
 21
103.8710455163
  0
LINE
  5
2C0
100
AcDbEntity
  8
DRAFT
100
AcDbLine
 62
7
  6
CONTINUOUS
 10
133.8061367352
 20
104.6343600708
 11
133.8061367352
 21
107.4710455163
  0
LINE
  5
2C1
100
AcDbEntity
  8
DRAFT
100
AcDbLine
 62
7
  6
CONTINUOUS
 10
133.8061367352
 20
108.2343600708
 11
133.8061367352
 21
111.0710455163
  0
LINE
  5
2C2
100
AcDbEntity
  8
DRAFT
100
AcDbLine
 62
7
  6
CONTINUOUS
 10
133.8061367352
 20
111.8343600708
 11
133.8061367352
 21
114.6710455163
  0
LINE
  5
2C3
100
AcDbEntity
  8
DRAFT
100
AcDbLine
 62
7
  6
CONTINUOUS
 10
133.8428221807
 20
97.4710455163
 11
133.8428221807
 21
97.9710455163
  0
LINE
  5
2C4
100
AcDbEntity
  8
DRAFT
100
AcDbLine
 62
7
  6
CONTINUOUS
 10
133.8428221807
 20
101.0710455163
 11
133.8428221807
 21
101.5710455163
  0
LINE
  5
2C5
100
AcDbEntity
  8
DRAFT
100
AcDbLine
 62
7
  6
CONTINUOUS
 10
133.8428221807
 20
104.6710455163
 11
133.8428221807
 21
105.1710455163
  0
LINE
  5
2C6
100
AcDbEntity
  8
DRAFT
100
AcDbLine
 62
7
  6
CONTINUOUS
 10
133.8428221807
 20
108.2710455163
 11
133.8428221807
 21
108.7710455163
  0
LINE
  5
2C7
100
AcDbEntity
  8
DRAFT
100
AcDbLine
 62
7
  6
CONTINUOUS
 10
133.8428221807
 20
111.8710455163
 11
133.8428221807
 21
112.3710455163
  0
LINE
  5
2C8
100
AcDbEntity
  8
DRAFT
100
AcDbLine
 62
7
  6
CONTINUOUS
 10
133.8428221807
 20
115.4710455163
 11
133.8428221807
 21
117.9210455163
  0
LINE
  5
2C9
100
AcDbEntity
  8
DRAFT
100
AcDbLine
 62
7
  6
CONTINUOUS
 10
133.9633600731
 20
98.2710455163
 11
133.9633600731
 21
98.7710455163
  0
LINE
  5
2CA
100
AcDbEntity
  8
DRAFT
100
AcDbLine
 62
7
  6
CONTINUOUS
 10
133.9633600731
 20
101.8710455163
 11
133.9633600731
 21
102.3710455163
  0
LINE
  5
2CB
100
AcDbEntity
  8
DRAFT
100
AcDbLine
 62
7
  6
CONTINUOUS
 10
133.9633600731
 20
105.4710455163
 11
133.9633600731
 21
105.9710455163
  0
LINE
  5
2CC
100
AcDbEntity
  8
DRAFT
100
AcDbLine
 62
7
  6
CONTINUOUS
 10
133.9633600731
 20
109.0710455163
 11
133.9633600731
 21
109.5710455163
  0
LINE
  5
2CD
100
AcDbEntity
  8
DRAFT
100
AcDbLine
 62
7
  6
CONTINUOUS
 10
133.9633600731
 20
112.6710455163
 11
133.9633600731
 21
113.1710455163
  0
LINE
  5
2CE
100
AcDbEntity
  8
RACCORDO
100
AcDbLine
 62
7
  6
CONTINUOUS
 10
133.9633600731
 20
116.2710455163
 11
133.9633600731
 21
116.6931913988
  0
LINE
  5
2CF
100
AcDbEntity
  8
RACCORDO
100
AcDbLine
 62
250
  6
CONTINUOUS
 10
135.3425156621
 20
157.4710455163
 11
135.3425156621
 21
157.6710455163
  0
LINE
  5
2D0
100
AcDbEntity
  8
RACCORDO
100
AcDbLine
 62
250
  6
CONTINUOUS
 10
135.4542758381
 20
157.6710455163
 11
135.4542758381
 21
157.8710455163
  0
LWPOLYLINE
  5
2D1
100
AcDbEntity
  8
0
100
AcDbPolyline
 62
7
  6
CONTINUOUS
 90
3
 70
0
 43
0.3500000006
 10
154.8785390625
 20
178.1349629517
 10
154.8071169434
 20
177.9206784668
 10
154.6642545776
 20
177.6349718628
  0
LINE
  5
2D2
100
AcDbEntity
  8
DRAFT
100
AcDbLine
 62
7
  6
CONTINUOUS
 10
133.8428221807
 20
115.9710536
 11
133.9633600731
 21
116.2710455163
  0
LINE
  5
2D3
100
AcDbEntity
  8
DRAFT
100
AcDbLine
 62
7
  6
CONTINUOUS
 10
133.8428221807
 20
112.3710455163
 11
133.9633600731
 21
112.6710455163
  0
LINE
  5
2D4
100
AcDbEntity
  8
DRAFT
100
AcDbLine
 62
7
  6
CONTINUOUS
 10
133.8428221807
 20
108.7710455163
 11
133.9633600731
 21
109.0710455163
  0
LINE
  5
2D5
100
AcDbEntity
  8
RACCORDO
100
AcDbLine
 62
250
  6
CONTINUOUS
 10
164.0083755363
 20
164.3324516579
 11
164.1080845389
 21
164.5056838599
  0
LINE
  5
2D6
100
AcDbEntity
  8
RACCORDO
100
AcDbLine
 62
250
  6
CONTINUOUS
 10
163.8697797197
 20
164.0117666495
 11
163.9698331899
 21
164.1848001263
  0
LINE
  5
2D7
100
AcDbEntity
  8
RACCORDO
100
AcDbLine
 62
250
  6
CONTINUOUS
 10
143.6110090472
 20
130.0710455163
 11
143.8208923935
 21
130.4115583368
  0
LINE
  5
2D8
100
AcDbEntity
  8
RACCORDO
100
AcDbLine
 62
250
  6
CONTINUOUS
 10
142.0614603363
 20
130.4710455163
 11
141.9449545943
 21
130.3108149615
  0
LINE
  5
2D9
100
AcDbEntity
  8
RACCORDO
100
AcDbLine
 62
250
  6
CONTINUOUS
 10
141.7594630368
 20
130.1483704522
 11
141.8774523658
 21
130.3097079842
  0
LINE
  5
2DA
100
AcDbEntity
  8
RACCORDO
100
AcDbLine
 62
250
  6
CONTINUOUS
 10
141.9449545943
 20
130.3108149615
 11
141.9439006347
 21
130.3093946655
  0
LINE
  5
2DB
100
AcDbEntity
  8
DRAFT
100
AcDbLine
 62
7
  6
CONTINUOUS
 10
192.6188043231
 20
95.668944226
 11
191.3411066194
 21
95.5571601616
  0
LINE
  5
2DC
100
AcDbEntity
  8
RACCORDO
100
AcDbLine
 62
250
  6
CONTINUOUS
 10
120.7478537365
 20
88.4261456071
 11
186.9377906249
 21
88.4261456071
  0
LINE
  5
2DD
100
AcDbEntity
  8
RACCORDO
100
AcDbLine
 62
250
  6
CONTINUOUS
 10
120.8581087941
 20
88.5364006647
 11
186.8275355673
 21
88.5364006647
  0
LINE
  5
2DE
100
AcDbEntity
  8
RACCORDO
100
AcDbLine
 62
250
  6
CONTINUOUS
 10
120.5479222715
 20
88.6260770721
 11
120.3479908065
 21
88.6260770721
  0
LINE
  5
2DF
100
AcDbEntity
  8
RACCORDO
100
AcDbLine
 62
250
  6
CONTINUOUS
 10
187.1377220899
 20
88.6260770721
 11
187.3376535549
 21
88.6260770721
  0
LINE
  5
2E0
100
AcDbEntity
  8
RACCORDO
100
AcDbLine
 62
250
  6
CONTINUOUS
 10
120.6581773291
 20
88.7363321297
 11
187.0274670323
 21
88.7363321297
  0
LINE
  5
2E1
100
AcDbEntity
  8
DRAFT
100
AcDbLine
 62
7
  6
CONTINUOUS
 10
116.344537742
 20
95.5571601616
 11
115.0668400383
 21
95.668944226
  0
LINE
  5
2E2
100
AcDbEntity
  8
RACCORDO
100
AcDbLine
 62
250
  6
CONTINUOUS
 10
125.7840489498
 20
164.2434911229
 11
125.7499988901
 21
164.4405017422
  0
LINE
  5
2E3
100
AcDbEntity
  8
RACCORDO
100
AcDbLine
 62
250
  6
CONTINUOUS
 10
136.417429465
 20
157.6710455163
 11
136.417429465
 21
157.8710455163
  0
LINE
  5
2E4
100
AcDbEntity
  8
RACCORDO
100
AcDbLine
 62
250
  6
CONTINUOUS
 10
136.5934291026
 20
157.4710455163
 11
136.5934291026
 21
157.6710455163
  0
LINE
  5
2E5
100
AcDbEntity
  8
RACCORDO
100
AcDbLine
 62
250
  6
CONTINUOUS
 10
138.9116218248
 20
130.3717261312
 11
138.9116218248
 21
130.5716956702
  0
LINE
  5
2E6
100
AcDbEntity
  8
RACCORDO
100
AcDbLine
 62
250
  6
CONTINUOUS
 10
139.0962994883
 20
130.3244756027
 11
139.0962994883
 21
130.1245060637
  0
LINE
  5
2E7
100
AcDbEntity
  8
DRAFT
100
AcDbLine
 62
7
  6
CONTINUOUS
 10
133.8428221807
 20
105.1710455163
 11
133.9633600731
 21
105.4710455163
  0
LINE
  5
2E8
100
AcDbEntity
  8
DRAFT
100
AcDbLine
 62
7
  6
CONTINUOUS
 10
133.8428221807
 20
101.5710455163
 11
133.9633600731
 21
101.8710455163
  0
LINE
  5
2E9
100
AcDbEntity
  8
DRAFT
100
AcDbLine
 62
7
  6
CONTINUOUS
 10
133.8428221807
 20
97.9710455163
 11
133.9633600731
 21
98.2710455163
  0
LINE
  5
2EA
100
AcDbEntity
  8
RACCORDO
100
AcDbLine
 62
250
  6
CONTINUOUS
 10
145.914397462
 20
128.8556004901
 11
146.0770318153
 21
129.2210455163
  0
LINE
  5
2EB
100
AcDbEntity
  8
DRAFT
100
AcDbLine
 62
7
  6
CONTINUOUS
 10
133.8061367352
 20
111.8343600708
 11
133.8428221807
 21
111.8710455163
  0
LINE
  5
2EC
100
AcDbEntity
  8
RACCORDO
100
AcDbLine
 62
250
  6
CONTINUOUS
 10
189.7941155296
 20
167.6721104079
 11
189.843050638
 21
167.7210455163
  0
LINE
  5
2ED
100
AcDbEntity
  8
0
100
AcDbLine
 62
7
  6
CONTINUOUS
 10
134.1483358078
 20
116.7710455163
 11
133.9633600731
 21
116.664249726
  0
LINE
  5
2EE
100
AcDbEntity
  8
RACCORDO
100
AcDbLine
 62
250
  6
CONTINUOUS
 10
176.393578948
 20
93.4203953624
 11
131.2920654134
 21
93.4203953624
  0
LINE
  5
2EF
100
AcDbEntity
  8
RACCORDO
100
AcDbLine
 62
250
  6
CONTINUOUS
 10
176.393578948
 20
93.6203649014
 11
131.2920654134
 21
93.6203649014
  0
LINE
  5
2F0
100
AcDbEntity
  8
RACCORDO
100
AcDbLine
 62
250
  6
CONTINUOUS
 10
176.3463284195
 20
93.6676154299
 11
131.3393159419
 21
93.6676154299
  0
LINE
  5
2F1
100
AcDbEntity
  8
RACCORDO
100
AcDbLine
 62
250
  6
CONTINUOUS
 10
176.3463284195
 20
93.8675849689
 11
131.3393159419
 21
93.8675849689
  0
LINE
  5
2F2
100
AcDbEntity
  8
RACCORDO
100
AcDbLine
 62
250
  6
CONTINUOUS
 10
130.7921415658
 20
94.120288749
 11
130.5921720268
 21
94.120288749
  0
LINE
  5
2F3
100
AcDbEntity
  8
RACCORDO
100
AcDbLine
 62
250
  6
CONTINUOUS
 10
176.8935027956
 20
94.120288749
 11
177.0934723346
 21
94.120288749
  0
LINE
  5
2F4
100
AcDbEntity
  8
RACCORDO
100
AcDbLine
 62
250
  6
CONTINUOUS
 10
176.8462522671
 20
94.1675392775
 11
176.6462827281
 21
94.1675392775
  0
LINE
  5
2F5
100
AcDbEntity
  8
RACCORDO
100
AcDbLine
 62
250
  6
CONTINUOUS
 10
130.8393920943
 20
94.1675392775
 11
131.0393616333
 21
94.1675392775
  0
LINE
  5
2F6
100
AcDbEntity
  8
RACCORDO
100
AcDbLine
 62
250
  6
CONTINUOUS
 10
132.5428221807
 20
95.4710455163
 11
175.1428221807
 21
95.4710455163
  0
LINE
  5
2F7
100
AcDbEntity
  8
RACCORDO
100
AcDbLine
 62
7
  6
CONTINUOUS
 10
132.5428221807
 20
95.6710455163
 11
175.1428221807
 21
95.6710455163
  0
LINE
  5
2F8
100
AcDbEntity
  8
RACCORDO
100
AcDbLine
 62
250
  6
CONTINUOUS
 10
132.1428221807
 20
95.8710455163
 11
175.5428221807
 21
95.8710455163
  0
LINE
  5
2F9
100
AcDbEntity
  8
DRAFT
100
AcDbLine
 62
7
  6
CONTINUOUS
 10
133.8061367352
 20
97.4343600708
 11
145.6795076262
 21
97.4343600708
  0
LINE
  5
2FA
100
AcDbEntity
  8
DRAFT
100
AcDbLine
 62
7
  6
CONTINUOUS
 10
146.8061367352
 20
97.4343600708
 11
160.8795076262
 21
97.4343600708
  0
LINE
  5
2FB
100
AcDbEntity
  8
DRAFT
100
AcDbLine
 62
7
  6
CONTINUOUS
 10
162.0061367352
 20
97.4343600708
 11
173.8795076262
 21
97.4343600708
  0
LINE
  5
2FC
100
AcDbEntity
  8
DRAFT
100
AcDbLine
 62
7
  6
CONTINUOUS
 10
133.8428221807
 20
97.4710455163
 11
145.6428221807
 21
97.4710455163
  0
LINE
  5
2FD
100
AcDbEntity
  8
DRAFT
100
AcDbLine
 62
7
  6
CONTINUOUS
 10
146.8428221807
 20
97.4710455163
 11
160.8428221807
 21
97.4710455163
  0
LINE
  5
2FE
100
AcDbEntity
  8
DRAFT
100
AcDbLine
 62
7
  6
CONTINUOUS
 10
162.0428221807
 20
97.4710455163
 11
173.8428221807
 21
97.4710455163
  0
LINE
  5
2FF
100
AcDbEntity
  8
RACCORDO
100
AcDbLine
 62
250
  6
CONTINUOUS
 10
119.444197986
 20
123.3262141421
 11
119.3339429284
 21
123.4364691997
  0
LINE
  5
300
100
AcDbEntity
  8
DRAFT
100
AcDbLine
 62
7
  6
CONTINUOUS
 10
145.6795076262
 20
97.4343600708
 11
145.6428221807
 21
97.4710455163
  0
LINE
  5
301
100
AcDbEntity
  8
RACCORDO
100
AcDbLine
 62
250
  6
CONTINUOUS
 10
119.644129451
 20
123.5261456071
 11
119.5338743934
 21
123.6364006647
  0
LINE
  5
302
100
AcDbEntity
  8
RACCORDO
100
AcDbLine
 62
250
  6
CONTINUOUS
 10
189.843050638
 20
53.6210455163
 11
189.7941155296
 21
53.6699806247
  0
LINE
  5
303
100
AcDbEntity
  8
RACCORDO
100
AcDbLine
 62
250
  6
CONTINUOUS
 10
188.0415149105
 20
56.9159454255
 11
188.1517699681
 21
56.8056903679
  0
LINE
  5
304
100
AcDbEntity
  8
RACCORDO
100
AcDbLine
 62
250
  6
CONTINUOUS
 10
188.2414463755
 20
57.1158768905
 11
188.3517014331
 21
57.0056218329
  0
LINE
  5
305
100
AcDbEntity
  8
RACCORDO
100
AcDbLine
 62
250
  6
CONTINUOUS
 10
186.8275355673
 20
58.5364006647
 11
186.9377906249
 21
58.4261456071
  0
LINE
  5
306
100
AcDbEntity
  8
RACCORDO
100
AcDbLine
 62
250
  6
CONTINUOUS
 10
187.0274670323
 20
58.7363321297
 11
187.1377220899
 21
58.6260770721
  0
LINE
  5
307
100
AcDbEntity
  8
RACCORDO
100
AcDbLine
 62
250
  6
CONTINUOUS
 10
125.7840489498
 20
157.9159639653
 11
125.8579967627
 21
157.625267718
  0
LINE
  5
308
100
AcDbEntity
  8
RACCORDO
100
AcDbLine
 62
250
  6
CONTINUOUS
 10
125.9123013938
 20
157.4271816722
 11
125.8631559506
 21
157.6210180515
  0
LINE
  5
309
100
AcDbEntity
  8
RACCORDO
100
AcDbLine
 62
250
  6
CONTINUOUS
 10
141.9962675339
 20
130.0710455163
 11
141.9962675339
 21
130.2710455163
  0
LINE
  5
30A
100
AcDbEntity
  8
RACCORDO
100
AcDbLine
 62
250
  6
CONTINUOUS
 10
142.0614603363
 20
130.4710455163
 11
142.0614603363
 21
130.2710455163
  0
LINE
  5
30B
100
AcDbEntity
  8
RACCORDO
100
AcDbLine
 62
250
  6
CONTINUOUS
 10
143.6110090472
 20
130.0710455163
 11
143.6110090472
 21
130.4710455163
  0
LINE
  5
30C
100
AcDbEntity
  8
RACCORDO
100
AcDbLine
 62
250
  6
CONTINUOUS
 10
143.9265413318
 20
164.3990665665
 11
143.9265413318
 21
164.5989447319
  0
LINE
  5
30D
100
AcDbEntity
  8
RACCORDO
100
AcDbLine
 62
250
  6
CONTINUOUS
 10
143.965944847
 20
164.0520336824
 11
143.965944847
 21
164.2519118478
  0
LINE
  5
30E
100
AcDbEntity
  8
DRAFT
100
AcDbLine
 62
7
  6
CONTINUOUS
 10
145.6795076262
 20
118.2710455163
 11
145.5222842884
 21
116.7710455163
  0
LINE
  5
30F
100
AcDbEntity
  8
RACCORDO
100
AcDbLine
 62
250
  6
CONTINUOUS
 10
158.7584204716
 20
164.4063281295
 11
158.811807038
 21
164.5989447319
  0
LINE
  5
310
100
AcDbEntity
  8
RACCORDO
100
AcDbLine
 62
250
  6
CONTINUOUS
 10
191.2938870723
 20
166.1723388652
 11
191.3428221807
 21
166.2212739736
  0
LINE
  5
311
100
AcDbEntity
  8
DRAFT
100
AcDbLine
 62
7
  6
CONTINUOUS
 10
133.8061367352
 20
108.2343600708
 11
133.8428221807
 21
108.2710455163
  0
LINE
  5
312
100
AcDbEntity
  8
DRAFT
100
AcDbLine
 62
7
  6
CONTINUOUS
 10
133.8061367352
 20
104.6343600708
 11
133.8428221807
 21
104.6710455163
  0
LINE
  5
313
100
AcDbEntity
  8
RACCORDO
100
AcDbLine
 62
250
  6
CONTINUOUS
 10
129.4371175145
 20
98.3954043041
 11
130.7921415658
 21
98.395404304
  0
LINE
  5
314
100
AcDbEntity
  8
RACCORDO
100
AcDbLine
 62
250
  6
CONTINUOUS
 10
176.8935027956
 20
98.395404304
 11
178.2485268641
 21
98.3954043041
  0
LINE
  5
315
100
AcDbEntity
  8
RACCORDO
100
AcDbLine
 62
250
  6
CONTINUOUS
 10
129.4371142278
 20
98.5242801999
 11
130.5921720268
 21
98.5242801999
  0
LINE
  5
316
100
AcDbEntity
  8
RACCORDO
100
AcDbLine
 62
250
  6
CONTINUOUS
 10
177.0934723507
 20
98.5242801999
 11
178.2485301336
 21
98.5242801999
  0
LINE
  5
317
100
AcDbEntity
  8
DRAFT
100
AcDbLine
 62
7
  6
CONTINUOUS
 10
133.9633600731
 20
98.7710455163
 11
145.5222842884
 21
98.7710455163
  0
LINE
  5
318
100
AcDbEntity
  8
DRAFT
100
AcDbLine
 62
7
  6
CONTINUOUS
 10
146.9633600731
 20
98.7710455163
 11
160.7222842884
 21
98.7710455163
  0
LINE
  5
319
100
AcDbEntity
  8
DRAFT
100
AcDbLine
 62
7
  6
CONTINUOUS
 10
162.1633600731
 20
98.7710455163
 11
173.7222842884
 21
98.7710455163
  0
LINE
  5
31A
100
AcDbEntity
  8
RACCORDO
100
AcDbLine
 62
250
  6
CONTINUOUS
 10
129.4371142278
 20
99.490849419
 11
130.7991235918
 21
99.490849419
  0
LINE
  5
31B
100
AcDbEntity
  8
RACCORDO
100
AcDbLine
 62
250
  6
CONTINUOUS
 10
176.8865207696
 20
99.490849419
 11
178.2485301336
 21
99.490849419
  0
LINE
  5
31C
100
AcDbEntity
  8
RACCORDO
100
AcDbLine
 62
250
  6
CONTINUOUS
 10
179.8184633931
 20
99.9653313924
 11
178.723018278
 21
99.9653375634
  0
LINE
  5
31D
100
AcDbEntity
  8
RACCORDO
100
AcDbLine
 62
250
  6
CONTINUOUS
 10
128.9626260834
 20
99.9653375634
 11
127.8671809683
 21
99.9653313736
  0
LINE
  5
31E
100
AcDbEntity
  8
DRAFT
100
AcDbLine
 62
7
  6
CONTINUOUS
 10
133.8061367352
 20
100.2710455163
 11
145.6795076262
 21
100.2710455163
  0
LINE
  5
31F
100
AcDbEntity
  8
DRAFT
100
AcDbLine
 62
7
  6
CONTINUOUS
 10
146.8061367352
 20
100.2710455163
 11
160.8795076262
 21
100.2710455163
  0
LINE
  5
320
100
AcDbEntity
  8
DRAFT
100
AcDbLine
 62
7
  6
CONTINUOUS
 10
162.0061367352
 20
100.2710455163
 11
173.8795076262
 21
100.2710455163
  0
LINE
  5
321
100
AcDbEntity
  8
DRAFT
100
AcDbLine
 62
7
  6
CONTINUOUS
 10
133.8061367352
 20
101.0343600708
 11
145.6795076262
 21
101.0343600708
  0
LINE
  5
322
100
AcDbEntity
  8
DRAFT
100
AcDbLine
 62
7
  6
CONTINUOUS
 10
146.8061367352
 20
101.0343600708
 11
160.8795076262
 21
101.0343600708
  0
LINE
  5
323
100
AcDbEntity
  8
DRAFT
100
AcDbLine
 62
7
  6
CONTINUOUS
 10
162.0061367352
 20
101.0343600708
 11
173.8795076262
 21
101.0343600708
  0
LINE
  5
324
100
AcDbEntity
  8
DRAFT
100
AcDbLine
 62
7
  6
CONTINUOUS
 10
133.8428221807
 20
101.0710455163
 11
145.6428221807
 21
101.0710455163
  0
LINE
  5
325
100
AcDbEntity
  8
DRAFT
100
AcDbLine
 62
7
  6
CONTINUOUS
 10
146.8428221807
 20
101.0710455163
 11
160.8428221807
 21
101.0710455163
  0
LINE
  5
326
100
AcDbEntity
  8
DRAFT
100
AcDbLine
 62
7
  6
CONTINUOUS
 10
162.0428221807
 20
101.0710455163
 11
173.8428221807
 21
101.0710455163
  0
LINE
  5
327
100
AcDbEntity
  8
RACCORDO
100
AcDbLine
 62
250
  6
CONTINUOUS
 10
179.8184633929
 20
101.2767501997
 11
178.723018278
 21
101.2767534692
  0
LINE
  5
328
100
AcDbEntity
  8
RACCORDO
100
AcDbLine
 62
250
  6
CONTINUOUS
 10
127.8671809685
 20
101.2767501825
 11
128.9626260834
 21
101.2767534692
  0
LINE
  5
329
100
AcDbEntity
  8
RACCORDO
100
AcDbLine
 62
250
  6
CONTINUOUS
 10
129.4371142278
 20
101.7512416136
 11
130.7991235918
 21
101.7512416136
  0
LINE
  5
32A
100
AcDbEntity
  8
RACCORDO
100
AcDbLine
 62
250
  6
CONTINUOUS
 10
176.8865207696
 20
101.7512416136
 11
178.2485301336
 21
101.7512416136
  0
LINE
  5
32B
100
AcDbEntity
  8
RACCORDO
100
AcDbLine
 62
250
  6
CONTINUOUS
 10
191.3428221807
 20
55.120817059
 11
191.2938870723
 21
55.1697521674
  0
LINE
  5
32C
100
AcDbEntity
  8
DRAFT
100
AcDbLine
 62
7
  6
CONTINUOUS
 10
145.6795076262
 20
101.0343600708
 11
145.6428221807
 21
101.0710455163
  0
LINE
  5
32D
100
AcDbEntity
  8
RACCORDO
100
AcDbLine
 62
250
  6
CONTINUOUS
 10
119.3393920943
 20
129.8245517551
 11
119.2921415658
 21
129.8718022836
  0
LINE
  5
32E
100
AcDbEntity
  8
RACCORDO
100
AcDbLine
 62
250
  6
CONTINUOUS
 10
119.8393159419
 20
130.3244756027
 11
119.7920654134
 21
130.3717261312
  0
LINE
  5
32F
100
AcDbEntity
  8
DRAFT
100
AcDbLine
 62
7
  6
CONTINUOUS
 10
145.6795076262
 20
104.6343600708
 11
145.6428221807
 21
104.6710455163
  0
LINE
  5
330
100
AcDbEntity
  8
DRAFT
100
AcDbLine
 62
7
  6
CONTINUOUS
 10
145.6428221807
 20
97.9710455163
 11
145.5222842884
 21
98.2710455163
  0
LINE
  5
331
100
AcDbEntity
  8
DRAFT
100
AcDbLine
 62
7
  6
CONTINUOUS
 10
145.6428221807
 20
101.5710455163
 11
145.5222842884
 21
101.8710455163
  0
LINE
  5
332
100
AcDbEntity
  8
DRAFT
100
AcDbLine
 62
7
  6
CONTINUOUS
 10
145.6428221807
 20
105.1710455163
 11
145.5222842884
 21
105.4710455163
  0
LINE
  5
333
100
AcDbEntity
  8
DRAFT
100
AcDbLine
 62
7
  6
CONTINUOUS
 10
146.9633600731
 20
98.7710455163
 11
146.8061367352
 21
100.2710455163
  0
LINE
  5
334
100
AcDbEntity
  8
DRAFT
100
AcDbLine
 62
7
  6
CONTINUOUS
 10
146.9633600731
 20
102.3710455163
 11
146.8061367352
 21
103.8710455163
  0
LINE
  5
335
100
AcDbEntity
  8
DRAFT
100
AcDbLine
 62
7
  6
CONTINUOUS
 10
146.9633600731
 20
105.9710455163
 11
146.8061367352
 21
107.4710455163
  0
LINE
  5
336
100
AcDbEntity
  8
DRAFT
100
AcDbLine
 62
7
  6
CONTINUOUS
 10
146.9633600731
 20
109.5710455163
 11
146.8061367352
 21
111.0710455163
  0
LINE
  5
337
100
AcDbEntity
  8
DRAFT
100
AcDbLine
 62
7
  6
CONTINUOUS
 10
146.9633600731
 20
113.1710455163
 11
146.8061367352
 21
114.6710455163
  0
LINE
  5
338
100
AcDbEntity
  8
DRAFT
100
AcDbLine
 62
7
  6
CONTINUOUS
 10
146.9633600731
 20
116.7710455163
 11
146.8061367352
 21
118.2710455163
  0
LINE
  5
339
100
AcDbEntity
  8
DRAFT
100
AcDbLine
 62
7
  6
CONTINUOUS
 10
145.5222842884
 20
98.2710455163
 11
145.5222842884
 21
98.7710455163
  0
LINE
  5
33A
100
AcDbEntity
  8
DRAFT
100
AcDbLine
 62
7
  6
CONTINUOUS
 10
145.5222842884
 20
101.8710455163
 11
145.5222842884
 21
102.3710455163
  0
LINE
  5
33B
100
AcDbEntity
  8
DRAFT
100
AcDbLine
 62
7
  6
CONTINUOUS
 10
145.5222842884
 20
105.4710455163
 11
145.5222842884
 21
105.9710455163
  0
LINE
  5
33C
100
AcDbEntity
  8
DRAFT
100
AcDbLine
 62
7
  6
CONTINUOUS
 10
145.5222842884
 20
109.0710455163
 11
145.5222842884
 21
109.5710455163
  0
LINE
  5
33D
100
AcDbEntity
  8
DRAFT
100
AcDbLine
 62
7
  6
CONTINUOUS
 10
145.5222842884
 20
112.6710455163
 11
145.5222842884
 21
113.1710455163
  0
LINE
  5
33E
100
AcDbEntity
  8
DRAFT
100
AcDbLine
 62
7
  6
CONTINUOUS
 10
145.5222842884
 20
116.2710455163
 11
145.5222842884
 21
116.7710455163
  0
LINE
  5
33F
100
AcDbEntity
  8
DRAFT
100
AcDbLine
 62
7
  6
CONTINUOUS
 10
145.6428221807
 20
97.4710455163
 11
145.6428221807
 21
97.9710455163
  0
LINE
  5
340
100
AcDbEntity
  8
DRAFT
100
AcDbLine
 62
7
  6
CONTINUOUS
 10
145.6428221807
 20
101.0710455163
 11
145.6428221807
 21
101.5710455163
  0
LINE
  5
341
100
AcDbEntity
  8
DRAFT
100
AcDbLine
 62
7
  6
CONTINUOUS
 10
145.6428221807
 20
104.6710455163
 11
145.6428221807
 21
105.1710455163
  0
LINE
  5
342
100
AcDbEntity
  8
DRAFT
100
AcDbLine
 62
7
  6
CONTINUOUS
 10
145.6428221807
 20
108.2710455163
 11
145.6428221807
 21
108.7710455163
  0
LINE
  5
343
100
AcDbEntity
  8
DRAFT
100
AcDbLine
 62
7
  6
CONTINUOUS
 10
145.6428221807
 20
111.8710455163
 11
145.6428221807
 21
112.3710455163
  0
LINE
  5
344
100
AcDbEntity
  8
DRAFT
100
AcDbLine
 62
7
  6
CONTINUOUS
 10
145.6428221807
 20
115.4710455163
 11
145.6428221807
 21
115.9710455163
  0
LINE
  5
345
100
AcDbEntity
  8
DRAFT
100
AcDbLine
 62
7
  6
CONTINUOUS
 10
145.6795076262
 20
118.2710455163
 11
145.6795076262
 21
115.4343600708
  0
LINE
  5
346
100
AcDbEntity
  8
DRAFT
100
AcDbLine
 62
7
  6
CONTINUOUS
 10
145.6795076262
 20
114.6710455163
 11
145.6795076262
 21
111.8343600708
  0
LINE
  5
347
100
AcDbEntity
  8
DRAFT
100
AcDbLine
 62
7
  6
CONTINUOUS
 10
145.6795076262
 20
111.0710455163
 11
145.6795076262
 21
108.2343600708
  0
LINE
  5
348
100
AcDbEntity
  8
DRAFT
100
AcDbLine
 62
7
  6
CONTINUOUS
 10
145.6795076262
 20
107.4710455163
 11
145.6795076262
 21
104.6343600708
  0
LINE
  5
349
100
AcDbEntity
  8
DRAFT
100
AcDbLine
 62
7
  6
CONTINUOUS
 10
145.6795076262
 20
103.8710455163
 11
145.6795076262
 21
101.0343600708
  0
LINE
  5
34A
100
AcDbEntity
  8
DRAFT
100
AcDbLine
 62
7
  6
CONTINUOUS
 10
145.6795076262
 20
100.2710455163
 11
145.6795076262
 21
97.4343600708
  0
LINE
  5
34B
100
AcDbEntity
  8
RACCORDO
100
AcDbLine
 62
250
  6
CONTINUOUS
 10
146.0770318153
 20
128.8210455163
 11
146.0770318153
 21
129.2210455163
  0
LINE
  5
34C
100
AcDbEntity
  8
DRAFT
100
AcDbLine
 62
7
  6
CONTINUOUS
 10
146.8061367352
 20
97.4343600708
 11
146.8061367352
 21
100.2710455163
  0
LINE
  5
34D
100
AcDbEntity
  8
DRAFT
100
AcDbLine
 62
7
  6
CONTINUOUS
 10
146.8061367352
 20
101.0343600708
 11
146.8061367352
 21
103.8710455163
  0
LINE
  5
34E
100
AcDbEntity
  8
DRAFT
100
AcDbLine
 62
7
  6
CONTINUOUS
 10
146.8061367352
 20
104.6343600708
 11
146.8061367352
 21
107.4710455163
  0
LINE
  5
34F
100
AcDbEntity
  8
DRAFT
100
AcDbLine
 62
7
  6
CONTINUOUS
 10
146.8061367352
 20
108.2343600708
 11
146.8061367352
 21
111.0710455163
  0
LINE
  5
350
100
AcDbEntity
  8
DRAFT
100
AcDbLine
 62
7
  6
CONTINUOUS
 10
146.8061367352
 20
111.8343600708
 11
146.8061367352
 21
114.6710455163
  0
LINE
  5
351
100
AcDbEntity
  8
DRAFT
100
AcDbLine
 62
7
  6
CONTINUOUS
 10
146.8061367352
 20
115.4343600708
 11
146.8061367352
 21
118.2710455163
  0
LINE
  5
352
100
AcDbEntity
  8
DRAFT
100
AcDbLine
 62
7
  6
CONTINUOUS
 10
146.8428221807
 20
97.4710455163
 11
146.8428221807
 21
97.9710455163
  0
LINE
  5
353
100
AcDbEntity
  8
DRAFT
100
AcDbLine
 62
7
  6
CONTINUOUS
 10
146.8428221807
 20
101.0710455163
 11
146.8428221807
 21
101.5710455163
  0
LINE
  5
354
100
AcDbEntity
  8
DRAFT
100
AcDbLine
 62
7
  6
CONTINUOUS
 10
146.8428221807
 20
104.6710455163
 11
146.8428221807
 21
105.1710455163
  0
LINE
  5
355
100
AcDbEntity
  8
DRAFT
100
AcDbLine
 62
7
  6
CONTINUOUS
 10
146.8428221807
 20
108.2710455163
 11
146.8428221807
 21
108.7710455163
  0
LINE
  5
356
100
AcDbEntity
  8
DRAFT
100
AcDbLine
 62
7
  6
CONTINUOUS
 10
146.8428221807
 20
111.8710455163
 11
146.8428221807
 21
112.3710455163
  0
LINE
  5
357
100
AcDbEntity
  8
DRAFT
100
AcDbLine
 62
7
  6
CONTINUOUS
 10
146.8428221807
 20
115.4710455163
 11
146.8428221807
 21
115.9710455163
  0
LINE
  5
358
100
AcDbEntity
  8
DRAFT
100
AcDbLine
 62
7
  6
CONTINUOUS
 10
146.9633600731
 20
98.2710455163
 11
146.9633600731
 21
98.7710455163
  0
LINE
  5
359
100
AcDbEntity
  8
DRAFT
100
AcDbLine
 62
7
  6
CONTINUOUS
 10
146.9633600731
 20
101.8710455163
 11
146.9633600731
 21
102.3710455163
  0
LINE
  5
35A
100
AcDbEntity
  8
DRAFT
100
AcDbLine
 62
7
  6
CONTINUOUS
 10
146.9633600731
 20
105.4710455163
 11
146.9633600731
 21
105.9710455163
  0
LINE
  5
35B
100
AcDbEntity
  8
DRAFT
100
AcDbLine
 62
7
  6
CONTINUOUS
 10
146.9633600731
 20
109.0710455163
 11
146.9633600731
 21
109.5710455163
  0
LINE
  5
35C
100
AcDbEntity
  8
DRAFT
100
AcDbLine
 62
7
  6
CONTINUOUS
 10
146.9633600731
 20
112.6710455163
 11
146.9633600731
 21
113.1710455163
  0
LINE
  5
35D
100
AcDbEntity
  8
DRAFT
100
AcDbLine
 62
7
  6
CONTINUOUS
 10
146.9633600731
 20
116.2710455163
 11
146.9633600731
 21
116.7710455163
  0
LINE
  5
35E
100
AcDbEntity
  8
RACCORDO
100
AcDbLine
 62
250
  6
CONTINUOUS
 10
148.8738373234
 20
164.3990665665
 11
148.8738373234
 21
164.5989447319
  0
LINE
  5
35F
100
AcDbEntity
  8
RACCORDO
100
AcDbLine
 62
250
  6
CONTINUOUS
 10
148.8938935699
 20
164.2519118478
 11
148.8938935698
 21
164.2422361645
  0
LWPOLYLINE
  5
360
100
AcDbEntity
  8
0
100
AcDbPolyline
 62
7
  6
CONTINUOUS
 90
4
 70
0
 43
0.3500000006
 10
149.4499685669
 20
180.2064038086
 10
149.4499685669
 20
180.8492572632
 10
150.9499690247
 20
180.8492572632
 10
150.0928220215
 20
177.8492563477
  0
LINE
  5
361
100
AcDbEntity
  8
DRAFT
100
AcDbLine
 62
7
  6
CONTINUOUS
 10
145.6795076262
 20
114.6710455163
 11
145.5222842884
 21
113.1710455163
  0
LINE
  5
362
100
AcDbEntity
  8
DRAFT
100
AcDbLine
 62
7
  6
CONTINUOUS
 10
145.6795076262
 20
111.0710455163
 11
145.5222842884
 21
109.5710455163
  0
LINE
  5
363
100
AcDbEntity
  8
DRAFT
100
AcDbLine
 62
7
  6
CONTINUOUS
 10
145.6795076262
 20
107.4710455163
 11
145.5222842884
 21
105.9710455163
  0
LINE
  5
364
100
AcDbEntity
  8
DRAFT
100
AcDbLine
 62
7
  6
CONTINUOUS
 10
145.6795076262
 20
103.8710455163
 11
145.5222842884
 21
102.3710455163
  0
LINE
  5
365
100
AcDbEntity
  8
DRAFT
100
AcDbLine
 62
7
  6
CONTINUOUS
 10
145.6795076262
 20
100.2710455163
 11
145.5222842884
 21
98.7710455163
  0
LINE
  5
366
100
AcDbEntity
  8
RACCORDO
100
AcDbLine
 62
7
  6
CONTINUOUS
 10
148.9990922419
 20
128.8210455163
 11
149.0258034502
 21
129.0209236817
  0
LINE
  5
367
100
AcDbEntity
  8
RACCORDO
100
AcDbLine
 62
7
  6
CONTINUOUS
 10
149.0255576687
 20
129.0191792835
 11
149.0258034502
 21
129.0209236817
  0
LINE
  5
368
100
AcDbEntity
  8
DRAFT
100
AcDbLine
 62
7
  6
CONTINUOUS
 10
146.8428221807
 20
115.9710455163
 11
146.9633600731
 21
116.2710455163
  0
LINE
  5
369
100
AcDbEntity
  8
DRAFT
100
AcDbLine
 62
7
  6
CONTINUOUS
 10
146.8428221807
 20
112.3710455163
 11
146.9633600731
 21
112.6710455163
  0
LINE
  5
36A
100
AcDbEntity
  8
DRAFT
100
AcDbLine
 62
7
  6
CONTINUOUS
 10
146.8428221807
 20
108.7710455163
 11
146.9633600731
 21
109.0710455163
  0
LINE
  5
36B
100
AcDbEntity
  8
DRAFT
100
AcDbLine
 62
7
  6
CONTINUOUS
 10
146.8428221807
 20
105.1710455163
 11
146.9633600731
 21
105.4710455163
  0
LINE
  5
36C
100
AcDbEntity
  8
DRAFT
100
AcDbLine
 62
7
  6
CONTINUOUS
 10
146.8061367352
 20
115.4343600708
 11
146.8428221807
 21
115.4710455163
  0
LINE
  5
36D
100
AcDbEntity
  8
RACCORDO
100
AcDbLine
 62
250
  6
CONTINUOUS
 10
120.5479222715
 20
88.6260770721
 11
120.6581773291
 21
88.7363321297
  0
LINE
  5
36E
100
AcDbEntity
  8
RACCORDO
100
AcDbLine
 62
250
  6
CONTINUOUS
 10
120.7478537365
 20
88.4261456071
 11
120.8581087941
 21
88.5364006647
  0
LINE
  5
36F
100
AcDbEntity
  8
DRAFT
100
AcDbLine
 62
7
  6
CONTINUOUS
 10
133.8061367352
 20
101.0343600708
 11
133.8428221807
 21
101.0710455163
  0
LINE
  5
370
100
AcDbEntity
  8
DRAFT
100
AcDbLine
 62
7
  6
CONTINUOUS
 10
146.8061367352
 20
111.8343600708
 11
146.8428221807
 21
111.8710455163
  0
LINE
  5
371
100
AcDbEntity
  8
DRAFT
100
AcDbLine
 62
7
  6
CONTINUOUS
 10
133.8061367352
 20
97.4343600708
 11
133.8428221807
 21
97.4710455163
  0
LINE
  5
372
100
AcDbEntity
  8
RACCORDO
100
AcDbLine
 62
250
  6
CONTINUOUS
 10
130.8393920943
 20
94.1675392775
 11
130.7921415658
 21
94.120288749
  0
LINE
  5
373
100
AcDbEntity
  8
DRAFT
100
AcDbLine
 62
7
  6
CONTINUOUS
 10
133.9633600731
 20
102.3710455163
 11
145.5222842884
 21
102.3710455163
  0
LINE
  5
374
100
AcDbEntity
  8
DRAFT
100
AcDbLine
 62
7
  6
CONTINUOUS
 10
146.9633600731
 20
102.3710455163
 11
160.7222842884
 21
102.3710455163
  0
LINE
  5
375
100
AcDbEntity
  8
DRAFT
100
AcDbLine
 62
7
  6
CONTINUOUS
 10
162.1633600731
 20
102.3710455163
 11
173.7222842884
 21
102.3710455163
  0
LINE
  5
376
100
AcDbEntity
  8
RACCORDO
100
AcDbLine
 62
250
  6
CONTINUOUS
 10
178.2485393945
 20
102.7178108328
 11
177.0934723346
 21
102.7178108327
  0
LINE
  5
377
100
AcDbEntity
  8
RACCORDO
100
AcDbLine
 62
250
  6
CONTINUOUS
 10
130.5921720107
 20
102.7178108327
 11
129.4371049705
 21
102.7178108328
  0
LINE
  5
378
100
AcDbEntity
  8
RACCORDO
100
AcDbLine
 62
250
  6
CONTINUOUS
 10
130.7921415658
 20
102.8466867286
 11
129.437108038
 21
102.8466867287
  0
LINE
  5
379
100
AcDbEntity
  8
RACCORDO
100
AcDbLine
 62
250
  6
CONTINUOUS
 10
176.8935027956
 20
102.8466867286
 11
178.2485363046
 21
102.8466867287
  0
LINE
  5
37A
100
AcDbEntity
  8
DRAFT
100
AcDbLine
 62
7
  6
CONTINUOUS
 10
133.8061367352
 20
103.8710455163
 11
145.6795076262
 21
103.8710455163
  0
LINE
  5
37B
100
AcDbEntity
  8
DRAFT
100
AcDbLine
 62
7
  6
CONTINUOUS
 10
146.8061367352
 20
103.8710455163
 11
160.8795076262
 21
103.8710455163
  0
LINE
  5
37C
100
AcDbEntity
  8
DRAFT
100
AcDbLine
 62
7
  6
CONTINUOUS
 10
162.0061367352
 20
103.8710455163
 11
173.8795076262
 21
103.8710455163
  0
LINE
  5
37D
100
AcDbEntity
  8
DRAFT
100
AcDbLine
 62
7
  6
CONTINUOUS
 10
133.8061367352
 20
104.6343600708
 11
145.6795076262
 21
104.6343600708
  0
LINE
  5
37E
100
AcDbEntity
  8
DRAFT
100
AcDbLine
 62
7
  6
CONTINUOUS
 10
146.8061367352
 20
104.6343600708
 11
160.8795076262
 21
104.6343600708
  0
LINE
  5
37F
100
AcDbEntity
  8
DRAFT
100
AcDbLine
 62
7
  6
CONTINUOUS
 10
162.0061367352
 20
104.6343600708
 11
173.8795076262
 21
104.6343600708
  0
LINE
  5
380
100
AcDbEntity
  8
DRAFT
100
AcDbLine
 62
7
  6
CONTINUOUS
 10
133.8428221807
 20
104.6710455163
 11
145.6428221807
 21
104.6710455163
  0
LINE
  5
381
100
AcDbEntity
  8
DRAFT
100
AcDbLine
 62
7
  6
CONTINUOUS
 10
146.8428221807
 20
104.6710455163
 11
160.8428221807
 21
104.6710455163
  0
LINE
  5
382
100
AcDbEntity
  8
DRAFT
100
AcDbLine
 62
7
  6
CONTINUOUS
 10
162.0428221807
 20
104.6710455163
 11
173.8428221807
 21
104.6710455163
  0
LINE
  5
383
100
AcDbEntity
  8
DRAFT
100
AcDbLine
 62
7
  6
CONTINUOUS
 10
133.9633600731
 20
105.9710455163
 11
145.5222842884
 21
105.9710455163
  0
LINE
  5
384
100
AcDbEntity
  8
DRAFT
100
AcDbLine
 62
7
  6
CONTINUOUS
 10
146.9633600731
 20
105.9710455163
 11
160.7222842884
 21
105.9710455163
  0
LINE
  5
385
100
AcDbEntity
  8
DRAFT
100
AcDbLine
 62
7
  6
CONTINUOUS
 10
162.1633600731
 20
105.9710455163
 11
173.7222842884
 21
105.9710455163
  0
LINE
  5
386
100
AcDbEntity
  8
DRAFT
100
AcDbLine
 62
7
  6
CONTINUOUS
 10
145.6795076262
 20
108.2343600708
 11
145.6428221807
 21
108.2710455163
  0
LINE
  5
387
100
AcDbEntity
  8
DRAFT
100
AcDbLine
 62
7
  6
CONTINUOUS
 10
145.6795076262
 20
111.8343600708
 11
145.6428221807
 21
111.8710455163
  0
LINE
  5
388
100
AcDbEntity
  8
DRAFT
100
AcDbLine
 62
7
  6
CONTINUOUS
 10
160.8428221807
 20
97.4710455163
 11
160.8795076262
 21
97.4343600708
  0
LINE
  5
389
100
AcDbEntity
  8
DRAFT
100
AcDbLine
 62
7
  6
CONTINUOUS
 10
145.6428221807
 20
108.7710455163
 11
145.5222842884
 21
109.0710455163
  0
LINE
  5
38A
100
AcDbEntity
  8
DRAFT
100
AcDbLine
 62
7
  6
CONTINUOUS
 10
145.6428221807
 20
112.3710455163
 11
145.5222842884
 21
112.6710455163
  0
LINE
  5
38B
100
AcDbEntity
  8
DRAFT
100
AcDbLine
 62
7
  6
CONTINUOUS
 10
145.6428221807
 20
115.9710455163
 11
145.5222842884
 21
116.2710455163
  0
LWPOLYLINE
  5
38C
100
AcDbEntity
  8
0
100
AcDbPolyline
 62
7
  6
CONTINUOUS
 90
4
 70
0
 43
0.3500000006
 10
151.8071069641
 20
180.2064038086
 10
151.8071069641
 20
180.8492572632
 10
153.3071074219
 20
180.8492572632
 10
152.4499694824
 20
177.8492563477
  0
LINE
  5
38D
100
AcDbEntity
  8
DRAFT
100
AcDbLine
 62
7
  6
CONTINUOUS
 10
146.8428221807
 20
101.5710455163
 11
146.9633600731
 21
101.8710455163
  0
LINE
  5
38E
100
AcDbEntity
  8
DRAFT
100
AcDbLine
 62
7
  6
CONTINUOUS
 10
146.8428221807
 20
97.9710455163
 11
146.9633600731
 21
98.2710455163
  0
LINE
  5
38F
100
AcDbEntity
  8
RACCORDO
100
AcDbLine
 62
250
  6
CONTINUOUS
 10
131.3393159419
 20
93.6676154299
 11
131.2920654134
 21
93.6203649014
  0
LINE
  5
390
100
AcDbEntity
  8
DRAFT
100
AcDbLine
 62
7
  6
CONTINUOUS
 10
146.8061367352
 20
108.2343600708
 11
146.8428221807
 21
108.2710455163
  0
LINE
  5
391
100
AcDbEntity
  8
DRAFT
100
AcDbLine
 62
7
  6
CONTINUOUS
 10
146.8061367352
 20
104.6343600708
 11
146.8428221807
 21
104.6710455163
  0
LINE
  5
392
100
AcDbEntity
  8
DRAFT
100
AcDbLine
 62
7
  6
CONTINUOUS
 10
192.6188043231
 20
114.668944226
 11
191.3445986964
 21
114.5574656787
  0
LINE
  5
393
100
AcDbEntity
  8
DRAFT
100
AcDbLine
 62
7
  6
CONTINUOUS
 10
133.8061367352
 20
107.4710455163
 11
145.6795076262
 21
107.4710455163
  0
LINE
  5
394
100
AcDbEntity
  8
DRAFT
100
AcDbLine
 62
7
  6
CONTINUOUS
 10
146.8061367352
 20
107.4710455163
 11
160.8795076262
 21
107.4710455163
  0
LINE
  5
395
100
AcDbEntity
  8
DRAFT
100
AcDbLine
 62
7
  6
CONTINUOUS
 10
162.0061367352
 20
107.4710455163
 11
173.8795076262
 21
107.4710455163
  0
LINE
  5
396
100
AcDbEntity
  8
DRAFT
100
AcDbLine
 62
7
  6
CONTINUOUS
 10
133.8061367352
 20
108.2343600708
 11
145.6795076262
 21
108.2343600708
  0
LINE
  5
397
100
AcDbEntity
  8
DRAFT
100
AcDbLine
 62
7
  6
CONTINUOUS
 10
146.8061367352
 20
108.2343600708
 11
160.8795076262
 21
108.2343600708
  0
LINE
  5
398
100
AcDbEntity
  8
DRAFT
100
AcDbLine
 62
7
  6
CONTINUOUS
 10
162.0061367352
 20
108.2343600708
 11
173.8795076262
 21
108.2343600708
  0
LINE
  5
399
100
AcDbEntity
  8
DRAFT
100
AcDbLine
 62
7
  6
CONTINUOUS
 10
133.8428221807
 20
108.2710455163
 11
145.6428221807
 21
108.2710455163
  0
LINE
  5
39A
100
AcDbEntity
  8
DRAFT
100
AcDbLine
 62
7
  6
CONTINUOUS
 10
146.8428221807
 20
108.2710455163
 11
160.8428221807
 21
108.2710455163
  0
LINE
  5
39B
100
AcDbEntity
  8
DRAFT
100
AcDbLine
 62
7
  6
CONTINUOUS
 10
162.0428221807
 20
108.2710455163
 11
173.8428221807
 21
108.2710455163
  0
LINE
  5
39C
100
AcDbEntity
  8
DRAFT
100
AcDbLine
 62
7
  6
CONTINUOUS
 10
133.9633600731
 20
109.5710455163
 11
145.5222842884
 21
109.5710455163
  0
LINE
  5
39D
100
AcDbEntity
  8
DRAFT
100
AcDbLine
 62
7
  6
CONTINUOUS
 10
146.9633600731
 20
109.5710455163
 11
160.7222842884
 21
109.5710455163
  0
LINE
  5
39E
100
AcDbEntity
  8
DRAFT
100
AcDbLine
 62
7
  6
CONTINUOUS
 10
162.1633600731
 20
109.5710455163
 11
173.7222842884
 21
109.5710455163
  0
LWPOLYLINE
  5
39F
100
AcDbEntity
  8
0
100
AcDbPolyline
 62
7
  6
CONTINUOUS
 90
2
 70
0
 43
0.3500000006
 10
204.4144011841
 20
110.4924697266
 10
202.9143916626
 20
110.4924697266
  0
LINE
  5
3A0
100
AcDbEntity
  8
DRAFT
100
AcDbLine
 62
7
  6
CONTINUOUS
 10
133.8061367352
 20
111.0710455163
 11
145.6795076262
 21
111.0710455163
  0
LINE
  5
3A1
100
AcDbEntity
  8
DRAFT
100
AcDbLine
 62
7
  6
CONTINUOUS
 10
146.8061367352
 20
111.0710455163
 11
160.8795076262
 21
111.0710455163
  0
LINE
  5
3A2
100
AcDbEntity
  8
DRAFT
100
AcDbLine
 62
7
  6
CONTINUOUS
 10
162.0061367352
 20
111.0710455163
 11
173.8795076262
 21
111.0710455163
  0
LINE
  5
3A3
100
AcDbEntity
  8
DRAFT
100
AcDbLine
 62
7
  6
CONTINUOUS
 10
192.6188043231
 20
106.6731468066
 11
191.3445986964
 21
106.7846253539
  0
LINE
  5
3A4
100
AcDbEntity
  8
DRAFT
100
AcDbLine
 62
7
  6
CONTINUOUS
 10
145.6795076262
 20
115.4343600708
 11
145.6428221807
 21
115.4710455163
  0
LINE
  5
3A5
100
AcDbEntity
  8
DRAFT
100
AcDbLine
 62
7
  6
CONTINUOUS
 10
160.8428221807
 20
101.0710455163
 11
160.8795076262
 21
101.0343600708
  0
LINE
  5
3A6
100
AcDbEntity
  8
RACCORDO
100
AcDbLine
 62
250
  6
CONTINUOUS
 10
158.7917507909
 20
164.2422361647
 11
158.7917507912
 21
164.2519118478
  0
LINE
  5
3A7
100
AcDbEntity
  8
RACCORDO
100
AcDbLine
 62
250
  6
CONTINUOUS
 10
158.811807038
 20
164.3990665665
 11
158.811807038
 21
164.5989447319
  0
LINE
  5
3A8
100
AcDbEntity
  8
DRAFT
100
AcDbLine
 62
7
  6
CONTINUOUS
 10
146.8061367352
 20
101.0343600708
 11
146.8428221807
 21
101.0710455163
  0
LINE
  5
3A9
100
AcDbEntity
  8
DRAFT
100
AcDbLine
 62
7
  6
CONTINUOUS
 10
162.0428221807
 20
115.4710455163
 11
162.0061367352
 21
115.4343600708
  0
LINE
  5
3AA
100
AcDbEntity
  8
DRAFT
100
AcDbLine
 62
7
  6
CONTINUOUS
 10
146.8061367352
 20
97.4343600708
 11
146.8428221807
 21
97.4710455163
  0
LINE
  5
3AB
100
AcDbEntity
  8
DRAFT
100
AcDbLine
 62
7
  6
CONTINUOUS
 10
162.0428221807
 20
111.8710455163
 11
162.0061367352
 21
111.8343600708
  0
LINE
  5
3AC
100
AcDbEntity
  8
DRAFT
100
AcDbLine
 62
7
  6
CONTINUOUS
 10
133.8061367352
 20
111.8343600708
 11
145.6795076262
 21
111.8343600708
  0
LINE
  5
3AD
100
AcDbEntity
  8
DRAFT
100
AcDbLine
 62
7
  6
CONTINUOUS
 10
146.8061367352
 20
111.8343600708
 11
160.8795076262
 21
111.8343600708
  0
LINE
  5
3AE
100
AcDbEntity
  8
DRAFT
100
AcDbLine
 62
7
  6
CONTINUOUS
 10
162.0061367352
 20
111.8343600708
 11
173.8795076262
 21
111.8343600708
  0
LINE
  5
3AF
100
AcDbEntity
  8
DRAFT
100
AcDbLine
 62
7
  6
CONTINUOUS
 10
133.8428221807
 20
111.8710455163
 11
145.6428221807
 21
111.8710455163
  0
LINE
  5
3B0
100
AcDbEntity
  8
DRAFT
100
AcDbLine
 62
7
  6
CONTINUOUS
 10
146.8428221807
 20
111.8710455163
 11
160.8428221807
 21
111.8710455163
  0
LINE
  5
3B1
100
AcDbEntity
  8
DRAFT
100
AcDbLine
 62
7
  6
CONTINUOUS
 10
162.0428221807
 20
111.8710455163
 11
173.8428221807
 21
111.8710455163
  0
LINE
  5
3B2
100
AcDbEntity
  8
DRAFT
100
AcDbLine
 62
7
  6
CONTINUOUS
 10
133.9633600731
 20
113.1710455163
 11
145.5222842884
 21
113.1710455163
  0
LINE
  5
3B3
100
AcDbEntity
  8
DRAFT
100
AcDbLine
 62
7
  6
CONTINUOUS
 10
146.9633600731
 20
113.1710455163
 11
160.7222842884
 21
113.1710455163
  0
LINE
  5
3B4
100
AcDbEntity
  8
DRAFT
100
AcDbLine
 62
7
  6
CONTINUOUS
 10
162.1633600731
 20
113.1710455163
 11
173.7222842884
 21
113.1710455163
  0
LINE
  5
3B5
100
AcDbEntity
  8
DRAFT
100
AcDbLine
 62
7
  6
CONTINUOUS
 10
133.8061367352
 20
114.6710455163
 11
145.6795076262
 21
114.6710455163
  0
LINE
  5
3B6
100
AcDbEntity
  8
DRAFT
100
AcDbLine
 62
7
  6
CONTINUOUS
 10
146.8061367352
 20
114.6710455163
 11
160.8795076262
 21
114.6710455163
  0
LINE
  5
3B7
100
AcDbEntity
  8
DRAFT
100
AcDbLine
 62
7
  6
CONTINUOUS
 10
162.0061367352
 20
114.6710455163
 11
173.8795076262
 21
114.6710455163
  0
LINE
  5
3B8
100
AcDbEntity
  8
RACCORDO
100
AcDbLine
 62
7
  6
CONTINUOUS
 10
175.1428221807
 20
115.4343600708
 11
162.0061367352
 21
115.4343600708
  0
LINE
  5
3B9
100
AcDbEntity
  8
RACCORDO
100
AcDbLine
 62
7
  6
CONTINUOUS
 10
145.6795076262
 20
115.4343600708
 11
132.5428221807
 21
115.4343600708
  0
LINE
  5
3BA
100
AcDbEntity
  8
DRAFT
100
AcDbLine
 62
7
  6
CONTINUOUS
 10
146.8061367352
 20
115.4343600708
 11
160.8795076262
 21
115.4343600708
  0
LINE
  5
3BB
100
AcDbEntity
  8
DRAFT
100
AcDbLine
 62
7
  6
CONTINUOUS
 10
132.3428221807
 20
115.4710455163
 11
145.6428221807
 21
115.4710455163
  0
LINE
  5
3BC
100
AcDbEntity
  8
DRAFT
100
AcDbLine
 62
7
  6
CONTINUOUS
 10
146.8428221807
 20
115.4710455163
 11
160.8428221807
 21
115.4710455163
  0
LINE
  5
3BD
100
AcDbEntity
  8
DRAFT
100
AcDbLine
 62
7
  6
CONTINUOUS
 10
162.0428221807
 20
115.4710455163
 11
175.3428221807
 21
115.4710455163
  0
LINE
  5
3BE
100
AcDbEntity
  8
DRAFT
100
AcDbLine
 62
7
  6
CONTINUOUS
 10
160.8428221807
 20
104.6710455163
 11
160.8795076262
 21
104.6343600708
  0
LINE
  5
3BF
100
AcDbEntity
  8
DRAFT
100
AcDbLine
 62
7
  6
CONTINUOUS
 10
160.8428221807
 20
108.2710455163
 11
160.8795076262
 21
108.2343600708
  0
LINE
  5
3C0
100
AcDbEntity
  8
RACCORDO
100
AcDbLine
 62
250
  6
CONTINUOUS
 10
176.3463284195
 20
93.6676154299
 11
176.393578948
 21
93.6203649014
  0
LINE
  5
3C1
100
AcDbEntity
  8
RACCORDO
100
AcDbLine
 62
250
  6
CONTINUOUS
 10
176.8462522671
 20
94.1675392775
 11
176.8935027956
 21
94.120288749
  0
LINE
  5
3C2
100
AcDbEntity
  8
DRAFT
100
AcDbLine
 62
7
  6
CONTINUOUS
 10
173.8428221807
 20
97.4710455163
 11
173.8795076262
 21
97.4343600708
  0
LINE
  5
3C3
100
AcDbEntity
  8
DRAFT
100
AcDbLine
 62
7
  6
CONTINUOUS
 10
160.8428221807
 20
97.9710455163
 11
160.7222842884
 21
98.2710455163
  0
LINE
  5
3C4
100
AcDbEntity
  8
DRAFT
100
AcDbLine
 62
7
  6
CONTINUOUS
 10
160.8428221807
 20
101.5710455163
 11
160.7222842884
 21
101.8710455163
  0
LINE
  5
3C5
100
AcDbEntity
  8
DRAFT
100
AcDbLine
 62
7
  6
CONTINUOUS
 10
160.8428221807
 20
105.1710455163
 11
160.7222842884
 21
105.4710455163
  0
LINE
  5
3C6
100
AcDbEntity
  8
DRAFT
100
AcDbLine
 62
7
  6
CONTINUOUS
 10
162.1633600731
 20
98.7710455163
 11
162.0061367352
 21
100.2710455163
  0
LINE
  5
3C7
100
AcDbEntity
  8
DRAFT
100
AcDbLine
 62
7
  6
CONTINUOUS
 10
162.1633600731
 20
102.3710455163
 11
162.0061367352
 21
103.8710455163
  0
LINE
  5
3C8
100
AcDbEntity
  8
DRAFT
100
AcDbLine
 62
7
  6
CONTINUOUS
 10
162.1633600731
 20
105.9710455163
 11
162.0061367352
 21
107.4710455163
  0
LINE
  5
3C9
100
AcDbEntity
  8
DRAFT
100
AcDbLine
 62
7
  6
CONTINUOUS
 10
162.1633600731
 20
109.5710455163
 11
162.0061367352
 21
111.0710455163
  0
LINE
  5
3CA
100
AcDbEntity
  8
DRAFT
100
AcDbLine
 62
7
  6
CONTINUOUS
 10
162.1633600731
 20
113.1710455163
 11
162.0061367352
 21
114.6710455163
  0
LINE
  5
3CB
100
AcDbEntity
  8
DRAFT
100
AcDbLine
 62
7
  6
CONTINUOUS
 10
162.1633600731
 20
116.7710455163
 11
162.0121177924
 21
118.2139828313
  0
LINE
  5
3CC
100
AcDbEntity
  8
DRAFT
100
AcDbLine
 62
7
  6
CONTINUOUS
 10
160.7222842884
 20
98.2710455163
 11
160.7222842884
 21
98.7710455163
  0
LINE
  5
3CD
100
AcDbEntity
  8
DRAFT
100
AcDbLine
 62
7
  6
CONTINUOUS
 10
160.7222842884
 20
101.8710455163
 11
160.7222842884
 21
102.3710455163
  0
LINE
  5
3CE
100
AcDbEntity
  8
DRAFT
100
AcDbLine
 62
7
  6
CONTINUOUS
 10
160.7222842884
 20
105.4710455163
 11
160.7222842884
 21
105.9710455163
  0
LINE
  5
3CF
100
AcDbEntity
  8
DRAFT
100
AcDbLine
 62
7
  6
CONTINUOUS
 10
160.7222842884
 20
109.0710455163
 11
160.7222842884
 21
109.5710455163
  0
LINE
  5
3D0
100
AcDbEntity
  8
DRAFT
100
AcDbLine
 62
7
  6
CONTINUOUS
 10
160.7222842884
 20
112.6710455163
 11
160.7222842884
 21
113.1710455163
  0
LINE
  5
3D1
100
AcDbEntity
  8
DRAFT
100
AcDbLine
 62
7
  6
CONTINUOUS
 10
160.7222842884
 20
116.2710455163
 11
160.7222842884
 21
116.7710455163
  0
LINE
  5
3D2
100
AcDbEntity
  8
DRAFT
100
AcDbLine
 62
7
  6
CONTINUOUS
 10
160.8428221807
 20
97.4710455163
 11
160.8428221807
 21
97.9710455163
  0
LINE
  5
3D3
100
AcDbEntity
  8
DRAFT
100
AcDbLine
 62
7
  6
CONTINUOUS
 10
160.8428221807
 20
101.0710455163
 11
160.8428221807
 21
101.5710455163
  0
LINE
  5
3D4
100
AcDbEntity
  8
DRAFT
100
AcDbLine
 62
7
  6
CONTINUOUS
 10
160.8428221807
 20
104.6710455163
 11
160.8428221807
 21
105.1710455163
  0
LINE
  5
3D5
100
AcDbEntity
  8
DRAFT
100
AcDbLine
 62
7
  6
CONTINUOUS
 10
160.8428221807
 20
108.2710455163
 11
160.8428221807
 21
108.7710455163
  0
LINE
  5
3D6
100
AcDbEntity
  8
DRAFT
100
AcDbLine
 62
7
  6
CONTINUOUS
 10
160.8428221807
 20
111.8710455163
 11
160.8428221807
 21
112.3710455163
  0
LINE
  5
3D7
100
AcDbEntity
  8
DRAFT
100
AcDbLine
 62
7
  6
CONTINUOUS
 10
160.8428221807
 20
115.4710455163
 11
160.8428221807
 21
115.9710455163
  0
LINE
  5
3D8
100
AcDbEntity
  8
DRAFT
100
AcDbLine
 62
7
  6
CONTINUOUS
 10
160.8795076262
 20
118.2710455163
 11
160.8795076262
 21
115.4343600708
  0
LINE
  5
3D9
100
AcDbEntity
  8
DRAFT
100
AcDbLine
 62
7
  6
CONTINUOUS
 10
160.8795076262
 20
114.6710455163
 11
160.8795076262
 21
111.8343600708
  0
LINE
  5
3DA
100
AcDbEntity
  8
DRAFT
100
AcDbLine
 62
7
  6
CONTINUOUS
 10
160.8795076262
 20
111.0710455163
 11
160.8795076262
 21
108.2343600708
  0
LINE
  5
3DB
100
AcDbEntity
  8
DRAFT
100
AcDbLine
 62
7
  6
CONTINUOUS
 10
160.8795076262
 20
107.4710455163
 11
160.8795076262
 21
104.6343600708
  0
LINE
  5
3DC
100
AcDbEntity
  8
DRAFT
100
AcDbLine
 62
7
  6
CONTINUOUS
 10
160.8795076262
 20
103.8710455163
 11
160.8795076262
 21
101.0343600708
  0
LINE
  5
3DD
100
AcDbEntity
  8
DRAFT
100
AcDbLine
 62
7
  6
CONTINUOUS
 10
160.8795076262
 20
100.2710455163
 11
160.8795076262
 21
97.4343600708
  0
LINE
  5
3DE
100
AcDbEntity
  8
RACCORDO
100
AcDbLine
 62
250
  6
CONTINUOUS
 10
161.6086125461
 20
128.8210455163
 11
161.6086125461
 21
129.2210455163
  0
LINE
  5
3DF
100
AcDbEntity
  8
DRAFT
100
AcDbLine
 62
7
  6
CONTINUOUS
 10
162.0061367352
 20
97.4343600708
 11
162.0061367352
 21
100.2710455163
  0
LINE
  5
3E0
100
AcDbEntity
  8
DRAFT
100
AcDbLine
 62
7
  6
CONTINUOUS
 10
162.0061367352
 20
101.0343600708
 11
162.0061367352
 21
103.8710455163
  0
LINE
  5
3E1
100
AcDbEntity
  8
DRAFT
100
AcDbLine
 62
7
  6
CONTINUOUS
 10
162.0061367352
 20
104.6343600708
 11
162.0061367352
 21
107.4710455163
  0
LINE
  5
3E2
100
AcDbEntity
  8
DRAFT
100
AcDbLine
 62
7
  6
CONTINUOUS
 10
162.0061367352
 20
108.2343600708
 11
162.0061367352
 21
111.0710455163
  0
LINE
  5
3E3
100
AcDbEntity
  8
DRAFT
100
AcDbLine
 62
7
  6
CONTINUOUS
 10
162.0061367352
 20
111.8343600708
 11
162.0061367352
 21
114.6710455163
  0
LINE
  5
3E4
100
AcDbEntity
  8
DRAFT
100
AcDbLine
 62
7
  6
CONTINUOUS
 10
162.0061367352
 20
115.4343600708
 11
162.0061367352
 21
118.2214358442
  0
LINE
  5
3E5
100
AcDbEntity
  8
DRAFT
100
AcDbLine
 62
7
  6
CONTINUOUS
 10
162.0428221807
 20
97.4710455163
 11
162.0428221807
 21
97.9710455163
  0
LINE
  5
3E6
100
AcDbEntity
  8
DRAFT
100
AcDbLine
 62
7
  6
CONTINUOUS
 10
162.0428221807
 20
101.0710455163
 11
162.0428221807
 21
101.5710455163
  0
LINE
  5
3E7
100
AcDbEntity
  8
DRAFT
100
AcDbLine
 62
7
  6
CONTINUOUS
 10
162.0428221807
 20
104.6710455163
 11
162.0428221807
 21
105.1710455163
  0
LINE
  5
3E8
100
AcDbEntity
  8
DRAFT
100
AcDbLine
 62
7
  6
CONTINUOUS
 10
162.0428221807
 20
108.2710455163
 11
162.0428221807
 21
108.7710455163
  0
LINE
  5
3E9
100
AcDbEntity
  8
DRAFT
100
AcDbLine
 62
7
  6
CONTINUOUS
 10
162.0428221807
 20
111.8710455163
 11
162.0428221807
 21
112.3710455163
  0
LINE
  5
3EA
100
AcDbEntity
  8
DRAFT
100
AcDbLine
 62
7
  6
CONTINUOUS
 10
162.0428221807
 20
115.4710455163
 11
162.0428221807
 21
115.9710455163
  0
LINE
  5
3EB
100
AcDbEntity
  8
DRAFT
100
AcDbLine
 62
7
  6
CONTINUOUS
 10
162.1633600731
 20
98.2710455163
 11
162.1633600731
 21
98.7710455163
  0
LINE
  5
3EC
100
AcDbEntity
  8
DRAFT
100
AcDbLine
 62
7
  6
CONTINUOUS
 10
162.1633600731
 20
101.8710455163
 11
162.1633600731
 21
102.3710455163
  0
LINE
  5
3ED
100
AcDbEntity
  8
DRAFT
100
AcDbLine
 62
7
  6
CONTINUOUS
 10
162.1633600731
 20
105.4710455163
 11
162.1633600731
 21
105.9710455163
  0
LINE
  5
3EE
100
AcDbEntity
  8
DRAFT
100
AcDbLine
 62
7
  6
CONTINUOUS
 10
162.1633600731
 20
109.0710455163
 11
162.1633600731
 21
109.5710455163
  0
LINE
  5
3EF
100
AcDbEntity
  8
DRAFT
100
AcDbLine
 62
7
  6
CONTINUOUS
 10
162.1633600731
 20
112.6710455163
 11
162.1633600731
 21
113.1710455163
  0
LINE
  5
3F0
100
AcDbEntity
  8
DRAFT
100
AcDbLine
 62
7
  6
CONTINUOUS
 10
162.1633600731
 20
116.2710455163
 11
162.1633600731
 21
116.7710455163
  0
LINE
  5
3F1
100
AcDbEntity
  8
DRAFT
100
AcDbLine
 62
7
  6
CONTINUOUS
 10
160.8795076262
 20
118.2710455163
 11
160.7222842884
 21
116.7710455163
  0
LINE
  5
3F2
100
AcDbEntity
  8
DRAFT
100
AcDbLine
 62
7
  6
CONTINUOUS
 10
160.8795076262
 20
114.6710455163
 11
160.7222842884
 21
113.1710455163
  0
LINE
  5
3F3
100
AcDbEntity
  8
DRAFT
100
AcDbLine
 62
7
  6
CONTINUOUS
 10
160.8795076262
 20
111.0710455163
 11
160.7222842884
 21
109.5710455163
  0
LINE
  5
3F4
100
AcDbEntity
  8
DRAFT
100
AcDbLine
 62
7
  6
CONTINUOUS
 10
160.8795076262
 20
107.4710455163
 11
160.7222842884
 21
105.9710455163
  0
LINE
  5
3F5
100
AcDbEntity
  8
DRAFT
100
AcDbLine
 62
7
  6
CONTINUOUS
 10
160.8795076262
 20
103.8710455163
 11
160.7222842884
 21
102.3710455163
  0
LINE
  5
3F6
100
AcDbEntity
  8
DRAFT
100
AcDbLine
 62
7
  6
CONTINUOUS
 10
160.8795076262
 20
100.2710455163
 11
160.7222842884
 21
98.7710455163
  0
LINE
  5
3F7
100
AcDbEntity
  8
DRAFT
100
AcDbLine
 62
7
  6
CONTINUOUS
 10
162.0428221807
 20
115.9710455163
 11
162.1633600731
 21
116.2710455163
  0
LINE
  5
3F8
100
AcDbEntity
  8
DRAFT
100
AcDbLine
 62
7
  6
CONTINUOUS
 10
162.0428221807
 20
112.3710455163
 11
162.1633600731
 21
112.6710455163
  0
LINE
  5
3F9
100
AcDbEntity
  8
DRAFT
100
AcDbLine
 62
7
  6
CONTINUOUS
 10
162.0428221807
 20
108.7710455163
 11
162.1633600731
 21
109.0710455163
  0
LINE
  5
3FA
100
AcDbEntity
  8
DRAFT
100
AcDbLine
 62
7
  6
CONTINUOUS
 10
162.0428221807
 20
105.1710455163
 11
162.1633600731
 21
105.4710455163
  0
LINE
  5
3FB
100
AcDbEntity
  8
DRAFT
100
AcDbLine
 62
7
  6
CONTINUOUS
 10
162.0428221807
 20
108.2710455163
 11
162.0061367352
 21
108.2343600708
  0
LINE
  5
3FC
100
AcDbEntity
  8
RACCORDO
100
AcDbLine
 62
7
  6
CONTINUOUS
 10
134.0982073601
 20
116.7710455163
 11
145.5222842884
 21
116.7710455163
  0
LINE
  5
3FD
100
AcDbEntity
  8
DRAFT
100
AcDbLine
 62
7
  6
CONTINUOUS
 10
146.9633600731
 20
116.7710455163
 11
160.7222842884
 21
116.7710455163
  0
LINE
  5
3FE
100
AcDbEntity
  8
DRAFT
100
AcDbLine
 62
7
  6
CONTINUOUS
 10
162.1633600731
 20
116.7710455163
 11
173.7222842884
 21
116.7710455163
  0
LINE
  5
3FF
100
AcDbEntity
  8
DRAFT
100
AcDbLine
 62
7
  6
CONTINUOUS
 10
175.3428221807
 20
117.9210455163
 11
173.8428221807
 21
117.9210455163
  0
LINE
  5
400
100
AcDbEntity
  8
DRAFT
100
AcDbLine
 62
7
  6
CONTINUOUS
 10
132.3428221807
 20
117.9210455163
 11
133.8428221807
 21
117.9210455163
  0
LINE
  5
401
100
AcDbEntity
  8
RACCORDO
100
AcDbLine
 62
7
  6
CONTINUOUS
 10
132.5428221807
 20
118.2710455163
 11
145.6795076262
 21
118.2710455163
  0
LINE
  5
402
100
AcDbEntity
  8
DRAFT
100
AcDbLine
 62
7
  6
CONTINUOUS
 10
146.8061367352
 20
118.2710455163
 11
160.8795076262
 21
118.2710455163
  0
LINE
  5
403
100
AcDbEntity
  8
RACCORDO
100
AcDbLine
 62
7
  6
CONTINUOUS
 10
161.9663248778
 20
118.2710455163
 11
175.1428221807
 21
118.2710455163
  0
LINE
  5
404
100
AcDbEntity
  8
RACCORDO
100
AcDbLine
 62
250
  6
CONTINUOUS
 10
132.1428221807
 20
119.4710455163
 11
175.5428221807
 21
119.4710455163
  0
LINE
  5
405
100
AcDbEntity
  8
RACCORDO
100
AcDbLine
 62
7
  6
CONTINUOUS
 10
175.1428221807
 20
119.6710455163
 11
132.5428221807
 21
119.6710455163
  0
LINE
  5
406
100
AcDbEntity
  8
RACCORDO
100
AcDbLine
 62
250
  6
CONTINUOUS
 10
175.1428221807
 20
119.8710455163
 11
132.5428221807
 21
119.8710455163
  0
LINE
  5
407
100
AcDbEntity
  8
DRAFT
100
AcDbLine
 62
7
  6
CONTINUOUS
 10
160.8428221807
 20
111.8710455163
 11
160.8795076262
 21
111.8343600708
  0
LINE
  5
408
100
AcDbEntity
  8
DRAFT
100
AcDbLine
 62
7
  6
CONTINUOUS
 10
173.8428221807
 20
101.0710455163
 11
173.8795076262
 21
101.0343600708
  0
LINE
  5
409
100
AcDbEntity
  8
RACCORDO
100
AcDbLine
 62
250
  6
CONTINUOUS
 10
186.8275355673
 20
88.5364006647
 11
186.9377906249
 21
88.4261456071
  0
LINE
  5
40A
100
AcDbEntity
  8
RACCORDO
100
AcDbLine
 62
250
  6
CONTINUOUS
 10
187.0274670323
 20
88.7363321297
 11
187.1377220899
 21
88.6260770721
  0
LINE
  5
40B
100
AcDbEntity
  8
DRAFT
100
AcDbLine
 62
7
  6
CONTINUOUS
 10
160.8428221807
 20
115.4710455163
 11
160.8795076262
 21
115.4343600708
  0
LINE
  5
40C
100
AcDbEntity
  8
RACCORDO
100
AcDbLine
 62
250
  6
CONTINUOUS
 10
132.6472783809
 20
145.9207028422
 11
132.786180774
 21
145.7769018397
  0
LINE
  5
40D
100
AcDbEntity
  8
DRAFT
100
AcDbLine
 62
7
  6
CONTINUOUS
 10
160.8428221807
 20
108.7710455163
 11
160.7222842884
 21
109.0710455163
  0
LINE
  5
40E
100
AcDbEntity
  8
DRAFT
100
AcDbLine
 62
7
  6
CONTINUOUS
 10
160.8428221807
 20
112.3710455163
 11
160.7222842884
 21
112.6710455163
  0
LINE
  5
40F
100
AcDbEntity
  8
DRAFT
100
AcDbLine
 62
7
  6
CONTINUOUS
 10
160.8428221807
 20
115.9710455163
 11
160.7222842884
 21
116.2710455163
  0
LINE
  5
410
100
AcDbEntity
  8
RACCORDO
100
AcDbLine
 62
250
  6
CONTINUOUS
 10
148.9272238898
 20
164.4063281295
 11
148.8738373234
 21
164.5989447319
  0
LINE
  5
411
100
AcDbEntity
  8
RACCORDO
100
AcDbLine
 62
7
  6
CONTINUOUS
 10
158.6598409112
 20
129.0209236817
 11
158.6600866927
 21
129.0191792835
  0
LINE
  5
412
100
AcDbEntity
  8
RACCORDO
100
AcDbLine
 62
7
  6
CONTINUOUS
 10
158.6598409112
 20
129.0209236817
 11
158.6865521196
 21
128.8210455163
  0
LINE
  5
413
100
AcDbEntity
  8
RACCORDO
100
AcDbLine
 62
250
  6
CONTINUOUS
 10
163.7196995144
 20
164.0520336824
 11
163.7196995144
 21
164.2519118478
  0
LINE
  5
414
100
AcDbEntity
  8
RACCORDO
100
AcDbLine
 62
250
  6
CONTINUOUS
 10
163.7591030296
 20
164.3990665665
 11
163.7591030296
 21
164.5989447319
  0
LINE
  5
415
100
AcDbEntity
  8
RACCORDO
100
AcDbLine
 62
250
  6
CONTINUOUS
 10
164.0746353143
 20
130.0710455163
 11
164.0746353143
 21
130.4710455163
  0
LINE
  5
416
100
AcDbEntity
  8
RACCORDO
100
AcDbLine
 62
250
  6
CONTINUOUS
 10
165.6241840251
 20
130.4710455163
 11
165.6241840251
 21
130.2710455163
  0
LINE
  5
417
100
AcDbEntity
  8
RACCORDO
100
AcDbLine
 62
250
  6
CONTINUOUS
 10
165.6893768275
 20
130.0710455163
 11
165.6893768275
 21
130.2710455163
  0
LINE
  5
418
100
AcDbEntity
  8
DRAFT
100
AcDbLine
 62
7
  6
CONTINUOUS
 10
162.0428221807
 20
101.5710455163
 11
162.1633600731
 21
101.8710455163
  0
LINE
  5
419
100
AcDbEntity
  8
DRAFT
100
AcDbLine
 62
7
  6
CONTINUOUS
 10
162.0428221807
 20
97.9710455163
 11
162.1633600731
 21
98.2710455163
  0
LINE
  5
41A
100
AcDbEntity
  8
DRAFT
100
AcDbLine
 62
7
  6
CONTINUOUS
 10
162.0428221807
 20
104.6710455163
 11
162.0061367352
 21
104.6343600708
  0
LINE
  5
41B
100
AcDbEntity
  8
RACCORDO
100
AcDbLine
 62
250
  6
CONTINUOUS
 10
187.8463284195
 20
130.3244756027
 11
187.893578948
 21
130.3717261312
  0
LINE
  5
41C
100
AcDbEntity
  8
RACCORDO
100
AcDbLine
 62
250
  6
CONTINUOUS
 10
188.3462522671
 20
129.8245517551
 11
188.3935027956
 21
129.8718022836
  0
LINE
  5
41D
100
AcDbEntity
  8
DRAFT
100
AcDbLine
 62
7
  6
CONTINUOUS
 10
162.0428221807
 20
101.0710455163
 11
162.0061367352
 21
101.0343600708
  0
LINE
  5
41E
100
AcDbEntity
  8
RACCORDO
100
AcDbLine
 62
250
  6
CONTINUOUS
 10
116.3917572891
 20
55.1697521674
 11
116.3428221807
 21
55.120817059
  0
LINE
  5
41F
100
AcDbEntity
  8
RACCORDO
100
AcDbLine
 62
250
  6
CONTINUOUS
 10
120.5479222715
 20
58.6260770721
 11
120.6581773291
 21
58.7363321297
  0
LINE
  5
420
100
AcDbEntity
  8
RACCORDO
100
AcDbLine
 62
250
  6
CONTINUOUS
 10
120.7478537365
 20
58.4261456071
 11
120.8581087941
 21
58.5364006647
  0
LINE
  5
421
100
AcDbEntity
  8
RACCORDO
100
AcDbLine
 62
250
  6
CONTINUOUS
 10
119.444197986
 20
57.1158768905
 11
119.3339429284
 21
57.0056218329
  0
LINE
  5
422
100
AcDbEntity
  8
RACCORDO
100
AcDbLine
 62
250
  6
CONTINUOUS
 10
119.644129451
 20
56.9159454255
 11
119.5338743934
 21
56.8056903679
  0
LINE
  5
423
100
AcDbEntity
  8
RACCORDO
100
AcDbLine
 62
250
  6
CONTINUOUS
 10
119.444197986
 20
123.3262141421
 11
120.5479222715
 21
123.3262141421
  0
LINE
  5
424
100
AcDbEntity
  8
RACCORDO
100
AcDbLine
 62
250
  6
CONTINUOUS
 10
187.1377220899
 20
123.3262141421
 11
188.2414463755
 21
123.3262141421
  0
LINE
  5
425
100
AcDbEntity
  8
RACCORDO
100
AcDbLine
 62
250
  6
CONTINUOUS
 10
187.0274670323
 20
123.4364691997
 11
186.8275355673
 21
123.4364691997
  0
LINE
  5
426
100
AcDbEntity
  8
RACCORDO
100
AcDbLine
 62
250
  6
CONTINUOUS
 10
119.3339429284
 20
123.4364691997
 11
119.1340114634
 21
123.4364691997
  0
LINE
  5
427
100
AcDbEntity
  8
RACCORDO
100
AcDbLine
 62
250
  6
CONTINUOUS
 10
120.6581773291
 20
123.4364691997
 11
120.8581087941
 21
123.4364691997
  0
LINE
  5
428
100
AcDbEntity
  8
RACCORDO
100
AcDbLine
 62
250
  6
CONTINUOUS
 10
188.3517014331
 20
123.4364691997
 11
188.551632898
 21
123.4364691997
  0
LINE
  5
429
100
AcDbEntity
  8
RACCORDO
100
AcDbLine
 62
250
  6
CONTINUOUS
 10
119.644129451
 20
123.5261456071
 11
120.3479908065
 21
123.5261456071
  0
LINE
  5
42A
100
AcDbEntity
  8
RACCORDO
100
AcDbLine
 62
250
  6
CONTINUOUS
 10
187.3376535549
 20
123.5261456071
 11
188.0415149105
 21
123.5261456071
  0
LINE
  5
42B
100
AcDbEntity
  8
RACCORDO
100
AcDbLine
 62
250
  6
CONTINUOUS
 10
119.5338743934
 20
123.6364006647
 11
120.4582458641
 21
123.6364006647
  0
LINE
  5
42C
100
AcDbEntity
  8
RACCORDO
100
AcDbLine
 62
250
  6
CONTINUOUS
 10
187.2273984973
 20
123.6364006647
 11
188.1517699681
 21
123.6364006647
  0
LINE
  5
42D
100
AcDbEntity
  8
RACCORDO
100
AcDbLine
 62
250
  6
CONTINUOUS
 10
130.7921415658
 20
123.7704410539
 11
130.5921720268
 21
123.7704410539
  0
LINE
  5
42E
100
AcDbEntity
  8
RACCORDO
100
AcDbLine
 62
250
  6
CONTINUOUS
 10
176.8935027956
 20
123.7704410539
 11
177.0934723346
 21
123.7704410539
  0
LINE
  5
42F
100
AcDbEntity
  8
RACCORDO
100
AcDbLine
 62
250
  6
CONTINUOUS
 10
176.8462522671
 20
123.8176915823
 11
176.6462827281
 21
123.8176915823
  0
LINE
  5
430
100
AcDbEntity
  8
RACCORDO
100
AcDbLine
 62
250
  6
CONTINUOUS
 10
130.8393920943
 20
123.8176915823
 11
131.0393616333
 21
123.8176915823
  0
LINE
  5
431
100
AcDbEntity
  8
RACCORDO
100
AcDbLine
 62
250
  6
CONTINUOUS
 10
119.5338743934
 20
123.8363321297
 11
120.4582458641
 21
123.8363321297
  0
LINE
  5
432
100
AcDbEntity
  8
RACCORDO
100
AcDbLine
 62
250
  6
CONTINUOUS
 10
187.2273984973
 20
123.8363321297
 11
188.1517699681
 21
123.8363321297
  0
LINE
  5
433
100
AcDbEntity
  8
RACCORDO
100
AcDbLine
 62
250
  6
CONTINUOUS
 10
187.893578948
 20
124.0703953624
 11
177.3934266432
 21
124.0703953624
  0
LINE
  5
434
100
AcDbEntity
  8
RACCORDO
100
AcDbLine
 62
250
  6
CONTINUOUS
 10
130.2922177183
 20
124.0703953624
 11
119.7920654134
 21
124.0703953624
  0
LINE
  5
435
100
AcDbEntity
  8
RACCORDO
100
AcDbLine
 62
250
  6
CONTINUOUS
 10
187.893578948
 20
124.2703649014
 11
177.3934266432
 21
124.2703649014
  0
LINE
  5
436
100
AcDbEntity
  8
RACCORDO
100
AcDbLine
 62
250
  6
CONTINUOUS
 10
130.2922177183
 20
124.2703649014
 11
119.7920654134
 21
124.2703649014
  0
LINE
  5
437
100
AcDbEntity
  8
RACCORDO
100
AcDbLine
 62
250
  6
CONTINUOUS
 10
187.8463284195
 20
124.3176154299
 11
177.3461761147
 21
124.3176154299
  0
LINE
  5
438
100
AcDbEntity
  8
RACCORDO
100
AcDbLine
 62
250
  6
CONTINUOUS
 10
130.3394682467
 20
124.3176154299
 11
119.8393159419
 21
124.3176154299
  0
LINE
  5
439
100
AcDbEntity
  8
RACCORDO
100
AcDbLine
 62
250
  6
CONTINUOUS
 10
187.8463284195
 20
124.5175849689
 11
177.3461761147
 21
124.5175849689
  0
LINE
  5
43A
100
AcDbEntity
  8
RACCORDO
100
AcDbLine
 62
250
  6
CONTINUOUS
 10
130.3394682467
 20
124.5175849689
 11
119.8393159419
 21
124.5175849689
  0
LINE
  5
43B
100
AcDbEntity
  8
0
100
AcDbLine
 62
7
  6
CONTINUOUS
 10
119.8428221807
 20
124.6710455163
 11
187.8428221807
 21
124.6710455163
  0
LINE
  5
43C
100
AcDbEntity
  8
RACCORDO
100
AcDbLine
 62
250
  6
CONTINUOUS
 10
119.2921415658
 20
124.770288749
 11
119.0921720268
 21
124.770288749
  0
LINE
  5
43D
100
AcDbEntity
  8
RACCORDO
100
AcDbLine
 62
250
  6
CONTINUOUS
 10
188.3935027956
 20
124.770288749
 11
188.5934723346
 21
124.770288749
  0
LINE
  5
43E
100
AcDbEntity
  8
RACCORDO
100
AcDbLine
 62
250
  6
CONTINUOUS
 10
188.3462522671
 20
124.8175392775
 11
188.1462827281
 21
124.8175392775
  0
LINE
  5
43F
100
AcDbEntity
  8
RACCORDO
100
AcDbLine
 62
250
  6
CONTINUOUS
 10
119.3393920943
 20
124.8175392775
 11
119.5393616333
 21
124.8175392775
  0
LINE
  5
440
100
AcDbEntity
  8
RACCORDO
100
AcDbLine
 62
250
  6
CONTINUOUS
 10
132.6245589775
 20
146.3367497523
 11
132.7684767674
 21
146.1979687352
  0
LINE
  5
441
100
AcDbEntity
  8
DRAFT
100
AcDbLine
 62
7
  6
CONTINUOUS
 10
173.8428221807
 20
104.6710455163
 11
173.8795076262
 21
104.6343600708
  0
LINE
  5
442
100
AcDbEntity
  8
DRAFT
100
AcDbLine
 62
7
  6
CONTINUOUS
 10
173.8428221807
 20
108.2710455163
 11
173.8795076262
 21
108.2343600708
  0
LINE
  5
443
100
AcDbEntity
  8
RACCORDO
100
AcDbLine
 62
250
  6
CONTINUOUS
 10
116.3428221807
 20
166.2212739736
 11
116.3917572891
 21
166.1723388652
  0
LINE
  5
444
100
AcDbEntity
  8
DRAFT
100
AcDbLine
 62
7
  6
CONTINUOUS
 10
162.0061367352
 20
118.2214358442
 11
161.9663248778
 21
118.2710455163
  0
LINE
  5
445
100
AcDbEntity
  8
DRAFT
100
AcDbLine
 62
7
  6
CONTINUOUS
 10
173.8428221807
 20
97.9710455163
 11
173.7222842884
 21
98.2710455163
  0
LINE
  5
446
100
AcDbEntity
  8
RACCORDO
100
AcDbLine
 62
250
  6
CONTINUOUS
 10
168.5893448733
 20
130.3244756027
 11
168.5893448733
 21
130.1245060637
  0
LINE
  5
447
100
AcDbEntity
  8
RACCORDO
100
AcDbLine
 62
250
  6
CONTINUOUS
 10
168.7740225365
 20
130.3717261312
 11
168.7740225365
 21
130.5716956702
  0
LINE
  5
448
100
AcDbEntity
  8
RACCORDO
100
AcDbLine
 62
250
  6
CONTINUOUS
 10
117.8915288318
 20
53.6699806247
 11
117.8425937234
 21
53.6210455163
  0
LINE
  5
449
100
AcDbEntity
  8
RACCORDO
100
AcDbLine
 62
250
  6
CONTINUOUS
 10
188.0415149105
 20
123.5261456071
 11
188.1517699681
 21
123.6364006647
  0
LINE
  5
44A
100
AcDbEntity
  8
DRAFT
100
AcDbLine
 62
7
  6
CONTINUOUS
 10
162.0428221807
 20
97.4710455163
 11
162.0061367352
 21
97.4343600708
  0
LINE
  5
44B
100
AcDbEntity
  8
RACCORDO
100
AcDbLine
 62
250
  6
CONTINUOUS
 10
188.2414463755
 20
123.3262141421
 11
188.3517014331
 21
123.4364691997
  0
LINE
  5
44C
100
AcDbEntity
  8
DRAFT
100
AcDbLine
 62
7
  6
CONTINUOUS
 10
116.344537742
 20
125.784930871
 11
115.0668400383
 21
125.6731468066
  0
LINE
  5
44D
100
AcDbEntity
  8
0
100
AcDbLine
 62
7
  6
CONTINUOUS
 10
119.8428221807
 20
128.6710455163
 11
187.8428221807
 21
128.6710455163
  0
LINE
  5
44E
100
AcDbEntity
  8
RACCORDO
100
AcDbLine
 62
250
  6
CONTINUOUS
 10
146.0770318153
 20
128.8210455163
 11
148.9990922419
 21
128.8210455163
  0
LINE
  5
44F
100
AcDbEntity
  8
RACCORDO
100
AcDbLine
 62
250
  6
CONTINUOUS
 10
158.6865521196
 20
128.8210455163
 11
161.6086125461
 21
128.8210455163
  0
LINE
  5
450
100
AcDbEntity
  8
RACCORDO
100
AcDbLine
 62
7
  6
CONTINUOUS
 10
146.0770318153
 20
129.0210455163
 11
149.1743138112
 21
129.0210455163
  0
LINE
  5
451
100
AcDbEntity
  8
RACCORDO
100
AcDbLine
 62
7
  6
CONTINUOUS
 10
158.5113305502
 20
129.0210455163
 11
161.6086125461
 21
129.0210455163
  0
LINE
  5
452
100
AcDbEntity
  8
RACCORDO
100
AcDbLine
 62
250
  6
CONTINUOUS
 10
146.0770318153
 20
129.2210455163
 11
148.4986664944
 21
129.2210455163
  0
LINE
  5
453
100
AcDbEntity
  8
RACCORDO
100
AcDbLine
 62
250
  6
CONTINUOUS
 10
159.1869778671
 20
129.2210455163
 11
161.6086125461
 21
129.2210455163
  0
LINE
  5
454
100
AcDbEntity
  8
DRAFT
100
AcDbLine
 62
7
  6
CONTINUOUS
 10
192.6188043231
 20
125.6731468066
 11
191.3411066194
 21
125.784930871
  0
LWPOLYLINE
  5
455
100
AcDbEntity
  8
0
100
AcDbPolyline
 62
7
  6
CONTINUOUS
 90
3
 70
0
 43
0.3500000006
 10
204.1286764526
 20
112.5639015198
 10
204.3429609375
 20
112.4924703369
 10
204.6286856689
 20
112.3496170349
  0
LINE
  5
456
100
AcDbEntity
  8
RACCORDO
100
AcDbLine
 62
250
  6
CONTINUOUS
 10
125.8631559506
 20
157.6210180515
 11
125.857996769
 21
157.6252677196
  0
LINE
  5
457
100
AcDbEntity
  8
RACCORDO
100
AcDbLine
 62
250
  6
CONTINUOUS
 10
117.8425937234
 20
167.7210455163
 11
117.8915288318
 21
167.6721104079
  0
LINE
  5
458
100
AcDbEntity
  8
DRAFT
100
AcDbLine
 62
7
  6
CONTINUOUS
 10
173.8428221807
 20
111.8710455163
 11
173.8795076262
 21
111.8343600708
  0
LINE
  5
459
100
AcDbEntity
  8
RACCORDO
100
AcDbLine
 62
250
  6
CONTINUOUS
 10
164.0746353143
 20
130.0710455163
 11
163.8647519679
 21
130.4115583368
  0
LINE
  5
45A
100
AcDbEntity
  8
RACCORDO
100
AcDbLine
 62
250
  6
CONTINUOUS
 10
143.8158646417
 20
164.0117666495
 11
143.7158111715
 21
164.1848001263
  0
LINE
  5
45B
100
AcDbEntity
  8
RACCORDO
100
AcDbLine
 62
250
  6
CONTINUOUS
 10
143.6772688251
 20
164.3324516579
 11
143.5775598225
 21
164.5056838599
  0
LINE
  5
45C
100
AcDbEntity
  8
RACCORDO
100
AcDbLine
 62
250
  6
CONTINUOUS
 10
161.7712468994
 20
128.8556004901
 11
161.6086125461
 21
129.2210455163
  0
LINE
  5
45D
100
AcDbEntity
  8
DRAFT
100
AcDbLine
 62
7
  6
CONTINUOUS
 10
173.8428221807
 20
101.5710455163
 11
173.7222842884
 21
101.8710455163
  0
LINE
  5
45E
100
AcDbEntity
  8
DRAFT
100
AcDbLine
 62
7
  6
CONTINUOUS
 10
173.8428221807
 20
105.1710455163
 11
173.7222842884
 21
105.4710455163
  0
LINE
  5
45F
100
AcDbEntity
  8
DRAFT
100
AcDbLine
 62
7
  6
CONTINUOUS
 10
173.8428221807
 20
108.7710455163
 11
173.7222842884
 21
109.0710455163
  0
LINE
  5
460
100
AcDbEntity
  8
DRAFT
100
AcDbLine
 62
7
  6
CONTINUOUS
 10
173.7222842884
 20
98.2710455163
 11
173.7222842884
 21
98.7710455163
  0
LINE
  5
461
100
AcDbEntity
  8
DRAFT
100
AcDbLine
 62
7
  6
CONTINUOUS
 10
173.7222842884
 20
101.8710455163
 11
173.7222842884
 21
102.3710455163
  0
LINE
  5
462
100
AcDbEntity
  8
DRAFT
100
AcDbLine
 62
7
  6
CONTINUOUS
 10
173.7222842884
 20
105.4710455163
 11
173.7222842884
 21
105.9710455163
  0
LINE
  5
463
100
AcDbEntity
  8
DRAFT
100
AcDbLine
 62
7
  6
CONTINUOUS
 10
173.7222842884
 20
109.0710455163
 11
173.7222842884
 21
109.5710455163
  0
LINE
  5
464
100
AcDbEntity
  8
DRAFT
100
AcDbLine
 62
7
  6
CONTINUOUS
 10
173.7222842884
 20
112.6710455163
 11
173.7222842884
 21
113.1710455163
  0
LINE
  5
465
100
AcDbEntity
  8
DRAFT
100
AcDbLine
 62
7
  6
CONTINUOUS
 10
173.7222842884
 20
116.2710455163
 11
173.7222842884
 21
116.7710455163
  0
LINE
  5
466
100
AcDbEntity
  8
DRAFT
100
AcDbLine
 62
7
  6
CONTINUOUS
 10
173.8428221807
 20
97.4710455163
 11
173.8428221807
 21
97.9710455163
  0
LINE
  5
467
100
AcDbEntity
  8
DRAFT
100
AcDbLine
 62
7
  6
CONTINUOUS
 10
173.8428221807
 20
101.0710455163
 11
173.8428221807
 21
101.5710455163
  0
LINE
  5
468
100
AcDbEntity
  8
DRAFT
100
AcDbLine
 62
7
  6
CONTINUOUS
 10
173.8428221807
 20
104.6710455163
 11
173.8428221807
 21
105.1710455163
  0
LINE
  5
469
100
AcDbEntity
  8
DRAFT
100
AcDbLine
 62
7
  6
CONTINUOUS
 10
173.8428221807
 20
108.2710455163
 11
173.8428221807
 21
108.7710455163
  0
LINE
  5
46A
100
AcDbEntity
  8
DRAFT
100
AcDbLine
 62
7
  6
CONTINUOUS
 10
173.8428221807
 20
111.8710455163
 11
173.8428221807
 21
112.3710455163
  0
LINE
  5
46B
100
AcDbEntity
  8
DRAFT
100
AcDbLine
 62
7
  6
CONTINUOUS
 10
173.8428221807
 20
115.4710455163
 11
173.8428221807
 21
117.9210455163
  0
LINE
  5
46C
100
AcDbEntity
  8
DRAFT
100
AcDbLine
 62
7
  6
CONTINUOUS
 10
173.8795076262
 20
97.4343600708
 11
173.8795076262
 21
100.2710455163
  0
LINE
  5
46D
100
AcDbEntity
  8
DRAFT
100
AcDbLine
 62
7
  6
CONTINUOUS
 10
173.8795076262
 20
101.0343600708
 11
173.8795076262
 21
103.8710455163
  0
LINE
  5
46E
100
AcDbEntity
  8
DRAFT
100
AcDbLine
 62
7
  6
CONTINUOUS
 10
173.8795076262
 20
104.6343600708
 11
173.8795076262
 21
107.4710455163
  0
LINE
  5
46F
100
AcDbEntity
  8
DRAFT
100
AcDbLine
 62
7
  6
CONTINUOUS
 10
173.8795076262
 20
108.2343600708
 11
173.8795076262
 21
111.0710455163
  0
LINE
  5
470
100
AcDbEntity
  8
DRAFT
100
AcDbLine
 62
7
  6
CONTINUOUS
 10
173.8795076262
 20
111.8343600708
 11
173.8795076262
 21
114.6710455163
  0
LINE
  5
471
100
AcDbEntity
  8
RACCORDO
100
AcDbLine
 62
250
  6
CONTINUOUS
 10
175.1428221807
 20
95.4710455163
 11
175.1428221807
 21
115.4343600708
  0
LINE
  5
472
100
AcDbEntity
  8
RACCORDO
100
AcDbLine
 62
250
  6
CONTINUOUS
 10
175.1428221807
 20
118.2710455163
 11
175.1428221807
 21
119.8710455163
  0
LINE
  5
473
100
AcDbEntity
  8
RACCORDO
100
AcDbLine
 62
7
  6
CONTINUOUS
 10
175.3428221807
 20
95.8710455163
 11
175.3428221807
 21
115.4710455163
  0
LINE
  5
474
100
AcDbEntity
  8
DRAFT
100
AcDbLine
 62
7
  6
CONTINUOUS
 10
175.3428221807
 20
115.4710455163
 11
175.3428221807
 21
117.9210455163
  0
LINE
  5
475
100
AcDbEntity
  8
RACCORDO
100
AcDbLine
 62
7
  6
CONTINUOUS
 10
175.3428221807
 20
117.9210455163
 11
175.3428221807
 21
119.4710455163
  0
LINE
  5
476
100
AcDbEntity
  8
RACCORDO
100
AcDbLine
 62
250
  6
CONTINUOUS
 10
175.5428221807
 20
95.8710455163
 11
175.5428221807
 21
119.4710455163
  0
LINE
  5
477
100
AcDbEntity
  8
RACCORDO
100
AcDbLine
 62
250
  6
CONTINUOUS
 10
176.3463284195
 20
93.6676154299
 11
176.3463284195
 21
93.8675849689
  0
LINE
  5
478
100
AcDbEntity
  8
RACCORDO
100
AcDbLine
 62
250
  6
CONTINUOUS
 10
176.393578948
 20
93.6203649014
 11
176.393578948
 21
93.4203953624
  0
LINE
  5
479
100
AcDbEntity
  8
RACCORDO
100
AcDbLine
 62
250
  6
CONTINUOUS
 10
176.6462827281
 20
123.8176915823
 11
176.6462827281
 21
94.1675392775
  0
LINE
  5
47A
100
AcDbEntity
  8
RACCORDO
100
AcDbLine
 62
250
  6
CONTINUOUS
 10
176.8462522671
 20
123.8176915823
 11
176.8462522671
 21
94.1675392775
  0
LINE
  5
47B
100
AcDbEntity
  8
RACCORDO
100
AcDbLine
 62
250
  6
CONTINUOUS
 10
176.8865207696
 20
101.7512416136
 11
176.8865207696
 21
99.490849419
  0
LINE
  5
47C
100
AcDbEntity
  8
RACCORDO
100
AcDbLine
 62
250
  6
CONTINUOUS
 10
176.8935027956
 20
123.7704410539
 11
176.8935027956
 21
102.8466867286
  0
LINE
  5
47D
100
AcDbEntity
  8
RACCORDO
100
AcDbLine
 62
250
  6
CONTINUOUS
 10
176.8935027956
 20
98.395404304
 11
176.8935027956
 21
94.120288749
  0
LINE
  5
47E
100
AcDbEntity
  8
RACCORDO
100
AcDbLine
 62
250
  6
CONTINUOUS
 10
177.0864903086
 20
101.7512416136
 11
177.0864903086
 21
99.490849419
  0
LINE
  5
47F
100
AcDbEntity
  8
RACCORDO
100
AcDbLine
 62
250
  6
CONTINUOUS
 10
177.0934723346
 20
123.7704410539
 11
177.0934723346
 21
102.7178108327
  0
LINE
  5
480
100
AcDbEntity
  8
RACCORDO
100
AcDbLine
 62
250
  6
CONTINUOUS
 10
177.0934723346
 20
98.5242801999
 11
177.0934723346
 21
94.120288749
  0
LINE
  5
481
100
AcDbEntity
  8
RACCORDO
100
AcDbLine
 62
250
  6
CONTINUOUS
 10
177.3461761147
 20
124.3176154299
 11
177.3461761147
 21
124.5175849689
  0
LINE
  5
482
100
AcDbEntity
  8
RACCORDO
100
AcDbLine
 62
250
  6
CONTINUOUS
 10
177.3934266432
 20
124.2703649014
 11
177.3934266432
 21
124.0703953624
  0
LINE
  5
483
100
AcDbEntity
  8
DRAFT
100
AcDbLine
 62
7
  6
CONTINUOUS
 10
173.7222842884
 20
116.7710455163
 11
173.8428221807
 21
117.9210455163
  0
LINE
  5
484
100
AcDbEntity
  8
DRAFT
100
AcDbLine
 62
7
  6
CONTINUOUS
 10
173.8795076262
 20
114.6710455163
 11
173.7222842884
 21
113.1710455163
  0
LINE
  5
485
100
AcDbEntity
  8
DRAFT
100
AcDbLine
 62
7
  6
CONTINUOUS
 10
173.8795076262
 20
111.0710455163
 11
173.7222842884
 21
109.5710455163
  0
LINE
  5
486
100
AcDbEntity
  8
DRAFT
100
AcDbLine
 62
7
  6
CONTINUOUS
 10
173.8795076262
 20
107.4710455163
 11
173.7222842884
 21
105.9710455163
  0
LINE
  5
487
100
AcDbEntity
  8
DRAFT
100
AcDbLine
 62
7
  6
CONTINUOUS
 10
173.8795076262
 20
103.8710455163
 11
173.7222842884
 21
102.3710455163
  0
LINE
  5
488
100
AcDbEntity
  8
DRAFT
100
AcDbLine
 62
7
  6
CONTINUOUS
 10
173.8795076262
 20
100.2710455163
 11
173.7222842884
 21
98.7710455163
  0
LWPOLYLINE
  5
489
100
AcDbEntity
  8
0
100
AcDbPolyline
 62
7
  6
CONTINUOUS
 90
10
 70
0
 43
0.3500000006
 10
203.9143919678
 20
112.4924703369
 10
204.0572543335
 20
112.5639015198
 10
204.1286764526
 20
112.5639015198
 10
204.2715388184
 20
112.4210482178
 10
204.2715388184
 20
112.3496170349
 10
204.2001166992
 20
112.2781858521
 10
204.1286764526
 20
112.2781858521
 10
203.9858322144
 20
112.3496170349
 10
203.9143919678
 20
112.4210482178
 10
203.9143919678
 20
112.4924703369
  0
LINE
  5
48A
100
AcDbEntity
  8
RACCORDO
100
AcDbLine
 62
250
  6
CONTINUOUS
 10
165.8081919956
 20
130.3097079842
 11
165.7417437267
 21
130.3093946655
  0
LINE
  5
48B
100
AcDbEntity
  8
RACCORDO
100
AcDbLine
 62
250
  6
CONTINUOUS
 10
188.3462522671
 20
129.8245517551
 11
188.1462827281
 21
129.8245517551
  0
LINE
  5
48C
100
AcDbEntity
  8
RACCORDO
100
AcDbLine
 62
250
  6
CONTINUOUS
 10
119.3393920943
 20
129.8245517551
 11
119.5393616333
 21
129.8245517551
  0
LINE
  5
48D
100
AcDbEntity
  8
RACCORDO
100
AcDbLine
 62
250
  6
CONTINUOUS
 10
119.2921415658
 20
129.8718022836
 11
119.0921720268
 21
129.8718022836
  0
LINE
  5
48E
100
AcDbEntity
  8
RACCORDO
100
AcDbLine
 62
250
  6
CONTINUOUS
 10
188.3935027956
 20
129.8718022836
 11
188.5934723346
 21
129.8718022836
  0
LINE
  5
48F
100
AcDbEntity
  8
RACCORDO
100
AcDbLine
 62
250
  6
CONTINUOUS
 10
141.9962675339
 20
130.0710455163
 11
143.6110090472
 21
130.0710455163
  0
LINE
  5
490
100
AcDbEntity
  8
RACCORDO
100
AcDbLine
 62
250
  6
CONTINUOUS
 10
164.0746353143
 20
130.0710455163
 11
165.6893768275
 21
130.0710455163
  0
LINE
  5
491
100
AcDbEntity
  8
RACCORDO
100
AcDbLine
 62
250
  6
CONTINUOUS
 10
119.8393159419
 20
130.1245060637
 11
139.0962994883
 21
130.1245060637
  0
LINE
  5
492
100
AcDbEntity
  8
RACCORDO
100
AcDbLine
 62
250
  6
CONTINUOUS
 10
168.5893448733
 20
130.1245060637
 11
187.8463284195
 21
130.1245060637
  0
LINE
  5
493
100
AcDbEntity
  8
RACCORDO
100
AcDbLine
 62
7
  6
CONTINUOUS
 10
141.9962675339
 20
130.2710455163
 11
143.6110090472
 21
130.2710455163
  0
LINE
  5
494
100
AcDbEntity
  8
RACCORDO
100
AcDbLine
 62
7
  6
CONTINUOUS
 10
164.0746353143
 20
130.2710455163
 11
165.6893768275
 21
130.2710455163
  0
LINE
  5
495
100
AcDbEntity
  8
RACCORDO
100
AcDbLine
 62
250
  6
CONTINUOUS
 10
119.8393159419
 20
130.3244756027
 11
139.0962994883
 21
130.3244756027
  0
LINE
  5
496
100
AcDbEntity
  8
RACCORDO
100
AcDbLine
 62
250
  6
CONTINUOUS
 10
168.5893448733
 20
130.3244756027
 11
187.8463284195
 21
130.3244756027
  0
LINE
  5
497
100
AcDbEntity
  8
RACCORDO
100
AcDbLine
 62
250
  6
CONTINUOUS
 10
119.7920654134
 20
130.3717261312
 11
138.9116218248
 21
130.3717261312
  0
LINE
  5
498
100
AcDbEntity
  8
RACCORDO
100
AcDbLine
 62
250
  6
CONTINUOUS
 10
168.7740225365
 20
130.3717261312
 11
187.893578948
 21
130.3717261312
  0
LINE
  5
499
100
AcDbEntity
  8
RACCORDO
100
AcDbLine
 62
250
  6
CONTINUOUS
 10
142.0614603363
 20
130.4710455163
 11
143.6110090472
 21
130.4710455163
  0
LINE
  5
49A
100
AcDbEntity
  8
RACCORDO
100
AcDbLine
 62
250
  6
CONTINUOUS
 10
164.0746353143
 20
130.4710455163
 11
165.6241840251
 21
130.4710455163
  0
LINE
  5
49B
100
AcDbEntity
  8
RACCORDO
100
AcDbLine
 62
250
  6
CONTINUOUS
 10
119.7920654134
 20
130.5716956702
 11
138.9116218248
 21
130.5716956702
  0
LINE
  5
49C
100
AcDbEntity
  8
RACCORDO
100
AcDbLine
 62
250
  6
CONTINUOUS
 10
168.7740225365
 20
130.5716956702
 11
187.893578948
 21
130.5716956702
  0
LINE
  5
49D
100
AcDbEntity
  8
RACCORDO
100
AcDbLine
 62
250
  6
CONTINUOUS
 10
141.8774523658
 20
130.3097079842
 11
141.9439006347
 21
130.3093946655
  0
LINE
  5
49E
100
AcDbEntity
  8
RACCORDO
100
AcDbLine
 62
250
  6
CONTINUOUS
 10
165.9261813246
 20
130.1483704522
 11
165.8081919956
 21
130.3097079842
  0
LINE
  5
49F
100
AcDbEntity
  8
RACCORDO
100
AcDbLine
 62
250
  6
CONTINUOUS
 10
165.6241840251
 20
130.4710455163
 11
165.7417437267
 21
130.3093946655
  0
LINE
  5
4A0
100
AcDbEntity
  8
DRAFT
100
AcDbLine
 62
7
  6
CONTINUOUS
 10
173.8428221807
 20
112.3710455163
 11
173.7222842884
 21
112.6710455163
  0
LINE
  5
4A1
100
AcDbEntity
  8
DRAFT
100
AcDbLine
 62
7
  6
CONTINUOUS
 10
173.8428221807
 20
115.9710536
 11
173.7222842884
 21
116.2710455163
  0
LINE
  5
4A2
100
AcDbEntity
  8
RACCORDO
100
AcDbLine
 62
250
  6
CONTINUOUS
 10
178.2485363046
 20
102.8466867287
 11
178.2485301336
 21
101.7512416136
  0
LINE
  5
4A3
100
AcDbEntity
  8
RACCORDO
100
AcDbLine
 62
250
  6
CONTINUOUS
 10
178.2485268641
 20
98.3954043041
 11
178.2485301336
 21
99.490849419
  0
LINE
  5
4A4
100
AcDbEntity
  8
RACCORDO
100
AcDbLine
 62
250
  6
CONTINUOUS
 10
178.723018278
 20
101.2767534692
 11
178.723018278
 21
99.9653375634
  0
LINE
  5
4A5
100
AcDbEntity
  8
RACCORDO
100
AcDbLine
 62
250
  6
CONTINUOUS
 10
179.6895874972
 20
99.9653283025
 11
179.6895874971
 21
101.2767534692
  0
LINE
  5
4A6
100
AcDbEntity
  8
RACCORDO
100
AcDbLine
 62
250
  6
CONTINUOUS
 10
179.8184633931
 20
99.9653313924
 11
179.8184633929
 21
101.2767501997
  0
LINE
  5
4A7
100
AcDbEntity
  8
RACCORDO
100
AcDbLine
 62
250
  6
CONTINUOUS
 10
176.8462522671
 20
123.8176915823
 11
176.8935027956
 21
123.7704410539
  0
LINE
  5
4A8
100
AcDbEntity
  8
RACCORDO
100
AcDbLine
 62
250
  6
CONTINUOUS
 10
177.3461761147
 20
124.3176154299
 11
177.3934266432
 21
124.2703649014
  0
LINE
  5
4A9
100
AcDbEntity
  8
RACCORDO
100
AcDbLine
 62
250
  6
CONTINUOUS
 10
168.0750879129
 20
132.086589611
 11
168.214685333
 21
131.9435377276
  0
LINE
  5
4AA
100
AcDbEntity
  8
RACCORDO
100
AcDbLine
 62
250
  6
CONTINUOUS
 10
167.3879633536
 20
131.3238801099
 11
167.2557002883
 21
131.4737384658
  0
LINE
  5
4AB
100
AcDbEntity
  8
RACCORDO
100
AcDbLine
 62
250
  6
CONTINUOUS
 10
136.8349231903
 20
157.8958000284
 11
136.6681009243
 21
158.0058982235
  0
LINE
  5
4AC
100
AcDbEntity
  8
RACCORDO
100
AcDbLine
 62
250
  6
CONTINUOUS
 10
137.1765178777
 20
157.7829664929
 11
137.0102140339
 21
157.8938462138
  0
LWPOLYLINE
  5
4AD
100
AcDbEntity
  8
0
100
AcDbPolyline
 62
7
  6
CONTINUOUS
 90
3
 70
0
 43
0.3500000006
 10
202.271538208
 20
106.0638995361
 10
201.4144002686
 20
106.9210465393
 10
204.4144011841
 20
106.9210465393
  0
LWPOLYLINE
  5
4AE
100
AcDbEntity
  8
0
100
AcDbPolyline
 62
7
  6
CONTINUOUS
 90
3
 70
0
 43
0.3500000006
 10
202.271538208
 20
107.7781844788
 10
201.4144002686
 20
108.6353314819
 10
204.4144011841
 20
108.6353314819
  0
LINE
  5
4AF
100
AcDbEntity
  8
RACCORDO
100
AcDbLine
 62
250
  6
CONTINUOUS
 10
187.1377220899
 20
123.3262141421
 11
187.0274670323
 21
123.4364691997
  0
LINE
  5
4B0
100
AcDbEntity
  8
RACCORDO
100
AcDbLine
 62
250
  6
CONTINUOUS
 10
187.3376535549
 20
123.5261456071
 11
187.2273984973
 21
123.6364006647
  0
LWPOLYLINE
  5
4B1
100
AcDbEntity
  8
0
100
AcDbPolyline
 62
7
  6
CONTINUOUS
 90
10
 70
0
 43
0.3500000006
 10
154.8071169434
 20
178.3492474365
 10
154.8785390625
 20
178.2064031982
 10
154.8785390625
 20
178.1349629517
 10
154.7356766968
 20
177.9921005859
 10
154.6642545776
 20
177.9921005859
 10
154.5928143311
 20
178.0635408325
 10
154.5928143311
 20
178.1349629517
 10
154.6642545776
 20
178.2778253174
 10
154.7356766968
 20
178.3492474365
 10
154.8071169434
 20
178.3492474365
  0
LINE
  5
4B2
100
AcDbEntity
  8
RACCORDO
100
AcDbLine
 62
250
  6
CONTINUOUS
 10
186.8275355673
 20
58.5364006647
 11
186.8275355673
 21
86.8056903679
  0
LINE
  5
4B3
100
AcDbEntity
  8
RACCORDO
100
AcDbLine
 62
250
  6
CONTINUOUS
 10
186.8275355673
 20
88.5364006647
 11
186.8275355673
 21
123.4364691997
  0
LINE
  5
4B4
100
AcDbEntity
  8
RACCORDO
100
AcDbLine
 62
250
  6
CONTINUOUS
 10
186.9377906249
 20
88.4261456071
 11
186.9377906249
 21
88.2262141421
  0
LINE
  5
4B5
100
AcDbEntity
  8
RACCORDO
100
AcDbLine
 62
250
  6
CONTINUOUS
 10
186.9377906249
 20
87.1158768905
 11
186.9377906249
 21
86.9159454255
  0
LINE
  5
4B6
100
AcDbEntity
  8
RACCORDO
100
AcDbLine
 62
250
  6
CONTINUOUS
 10
186.9377906249
 20
58.2262141421
 11
186.9377906249
 21
58.4261456071
  0
LINE
  5
4B7
100
AcDbEntity
  8
RACCORDO
100
AcDbLine
 62
250
  6
CONTINUOUS
 10
187.0274670323
 20
86.6057589029
 11
187.0274670323
 21
58.7363321297
  0
LINE
  5
4B8
100
AcDbEntity
  8
RACCORDO
100
AcDbLine
 62
250
  6
CONTINUOUS
 10
187.0274670323
 20
88.7363321297
 11
187.0274670323
 21
123.4364691997
  0
LINE
  5
4B9
100
AcDbEntity
  8
RACCORDO
100
AcDbLine
 62
250
  6
CONTINUOUS
 10
187.1377220899
 20
86.7160139605
 11
187.1377220899
 21
58.6260770721
  0
LINE
  5
4BA
100
AcDbEntity
  8
RACCORDO
100
AcDbLine
 62
250
  6
CONTINUOUS
 10
187.1377220899
 20
88.6260770721
 11
187.1377220899
 21
123.3262141421
  0
LINE
  5
4BB
100
AcDbEntity
  8
RACCORDO
100
AcDbLine
 62
250
  6
CONTINUOUS
 10
187.2273984973
 20
123.6364006647
 11
187.2273984973
 21
123.8363321297
  0
LINE
  5
4BC
100
AcDbEntity
  8
RACCORDO
100
AcDbLine
 62
250
  6
CONTINUOUS
 10
187.3376535549
 20
86.7160139605
 11
187.3376535549
 21
58.6260770721
  0
LINE
  5
4BD
100
AcDbEntity
  8
RACCORDO
100
AcDbLine
 62
250
  6
CONTINUOUS
 10
187.3376535549
 20
88.6260770721
 11
187.3376535549
 21
123.5261456071
  0
LINE
  5
4BE
100
AcDbEntity
  8
0
100
AcDbLine
 62
7
  6
CONTINUOUS
 10
187.8428221807
 20
128.6710455163
 11
187.8428221807
 21
124.6710455163
  0
LINE
  5
4BF
100
AcDbEntity
  8
RACCORDO
100
AcDbLine
 62
250
  6
CONTINUOUS
 10
187.8463284195
 20
130.3244756027
 11
187.8463284195
 21
130.1245060637
  0
LINE
  5
4C0
100
AcDbEntity
  8
RACCORDO
100
AcDbLine
 62
250
  6
CONTINUOUS
 10
187.8463284195
 20
124.3176154299
 11
187.8463284195
 21
124.5175849689
  0
LINE
  5
4C1
100
AcDbEntity
  8
RACCORDO
100
AcDbLine
 62
250
  6
CONTINUOUS
 10
187.893578948
 20
124.2703649014
 11
187.893578948
 21
124.0703953624
  0
LINE
  5
4C2
100
AcDbEntity
  8
RACCORDO
100
AcDbLine
 62
250
  6
CONTINUOUS
 10
187.893578948
 20
130.3717261312
 11
187.893578948
 21
130.5716956702
  0
LINE
  5
4C3
100
AcDbEntity
  8
RACCORDO
100
AcDbLine
 62
250
  6
CONTINUOUS
 10
188.0415149105
 20
56.9159454255
 11
188.0415149105
 21
123.5261456071
  0
LINE
  5
4C4
100
AcDbEntity
  8
RACCORDO
100
AcDbLine
 62
250
  6
CONTINUOUS
 10
188.1462827281
 20
129.8245517551
 11
188.1462827281
 21
124.8175392775
  0
LINE
  5
4C5
100
AcDbEntity
  8
RACCORDO
100
AcDbLine
 62
250
  6
CONTINUOUS
 10
188.1517699681
 20
56.8056903679
 11
188.1517699681
 21
56.6057589029
  0
LINE
  5
4C6
100
AcDbEntity
  8
RACCORDO
100
AcDbLine
 62
250
  6
CONTINUOUS
 10
188.1517699681
 20
123.6364006647
 11
188.1517699681
 21
123.8363321297
  0
LINE
  5
4C7
100
AcDbEntity
  8
RACCORDO
100
AcDbLine
 62
250
  6
CONTINUOUS
 10
188.2414463755
 20
123.3262141421
 11
188.2414463755
 21
57.1158768905
  0
LINE
  5
4C8
100
AcDbEntity
  8
RACCORDO
100
AcDbLine
 62
250
  6
CONTINUOUS
 10
188.3462522671
 20
129.8245517551
 11
188.3462522671
 21
124.8175392775
  0
LINE
  5
4C9
100
AcDbEntity
  8
RACCORDO
100
AcDbLine
 62
250
  6
CONTINUOUS
 10
188.3517014331
 20
123.4364691997
 11
188.3517014331
 21
57.0056218329
  0
LINE
  5
4CA
100
AcDbEntity
  8
RACCORDO
100
AcDbLine
 62
250
  6
CONTINUOUS
 10
188.3935027956
 20
129.8718022836
 11
188.3935027956
 21
124.770288749
  0
LINE
  5
4CB
100
AcDbEntity
  8
RACCORDO
100
AcDbLine
 62
250
  6
CONTINUOUS
 10
188.551632898
 20
123.4364691997
 11
188.551632898
 21
57.0056218329
  0
LINE
  5
4CC
100
AcDbEntity
  8
RACCORDO
100
AcDbLine
 62
250
  6
CONTINUOUS
 10
188.5934723346
 20
129.8718022836
 11
188.5934723346
 21
124.770288749
  0
LINE
  5
4CD
100
AcDbEntity
  8
RACCORDO
100
AcDbLine
 62
250
  6
CONTINUOUS
 10
189.7941155296
 20
53.8699501637
 11
189.7941155296
 21
53.6699806247
  0
LINE
  5
4CE
100
AcDbEntity
  8
RACCORDO
100
AcDbLine
 62
250
  6
CONTINUOUS
 10
189.7941155296
 20
167.4721408689
 11
189.7941155296
 21
167.6721104079
  0
LINE
  5
4CF
100
AcDbEntity
  8
RACCORDO
100
AcDbLine
 62
250
  6
CONTINUOUS
 10
191.0939175333
 20
55.1697521674
 11
191.0939175333
 21
166.1723388652
  0
LINE
  5
4D0
100
AcDbEntity
  8
DRAFT
100
AcDbLine
 62
7
  6
CONTINUOUS
 10
191.3410617066
 20
125.7847057579
 11
191.3428221807
 21
125.7935296452
  0
LINE
  5
4D1
100
AcDbEntity
  8
RACCORDO
100
AcDbLine
 62
250
  6
CONTINUOUS
 10
133.4936056838
 20
145.5879343147
 11
133.294010037
 21
145.577310599
  0
LINE
  5
4D2
100
AcDbEntity
  8
RACCORDO
100
AcDbLine
 62
250
  6
CONTINUOUS
 10
133.8274949504
 20
145.8791074012
 11
133.6277731375
 21
145.8712050914
  0
LINE
  5
4D3
100
AcDbEntity
  8
RACCORDO
100
AcDbLine
 62
250
  6
CONTINUOUS
 10
187.8463284195
 20
124.3176154299
 11
187.893578948
 21
124.2703649014
  0
LINE
  5
4D4
100
AcDbEntity
  8
RACCORDO
100
AcDbLine
 62
250
  6
CONTINUOUS
 10
188.3462522671
 20
124.8175392775
 11
188.3935027956
 21
124.770288749
  0
LWPOLYLINE
  5
4D5
100
AcDbEntity
  8
0
100
AcDbPolyline
 62
7
  6
CONTINUOUS
 90
3
 70
0
 43
0.3500000006
 10
202.271538208
 20
113.563901825
 10
201.4144002686
 20
114.4210488281
 10
204.4144011841
 20
114.4210488281
  0
LINE
  5
4D6
100
AcDbEntity
  8
DRAFT
100
AcDbLine
 62
7
  6
CONTINUOUS
 10
191.3410766742
 20
95.5573102537
 11
191.3428221807
 21
95.5485613874
  0
LINE
  5
4D7
100
AcDbEntity
  8
RACCORDO
100
AcDbLine
 62
250
  6
CONTINUOUS
 10
191.2938870723
 20
55.1697521674
 11
191.2938870723
 21
166.1723388652
  0
LINE
  5
4D8
100
AcDbEntity
  8
RACCORDO
100
AcDbLine
 62
7
  6
CONTINUOUS
 10
191.3428221807
 20
55.120817059
 11
191.3428221807
 21
95.5485613874
  0
LINE
  5
4D9
100
AcDbEntity
  8
DRAFT
100
AcDbLine
 62
7
  6
CONTINUOUS
 10
191.3428221807
 20
106.7935296452
 11
191.3428221807
 21
114.5485613874
  0
LINE
  5
4DA
100
AcDbEntity
  8
RACCORDO
100
AcDbLine
 62
7
  6
CONTINUOUS
 10
191.3428221807
 20
125.7935296452
 11
191.3428221807
 21
166.2212739736
  0
LINE
  5
4DB
100
AcDbEntity
  8
DRAFT
100
AcDbLine
 62
7
  6
CONTINUOUS
 10
191.3445986964
 20
125.7846199263
 11
191.3445986964
 21
114.5574711063
  0
LINE
  5
4DC
100
AcDbEntity
  8
DRAFT
100
AcDbLine
 62
7
  6
CONTINUOUS
 10
191.3445986964
 20
106.7846199263
 11
191.3445986964
 21
95.5574711063
  0
LINE
  5
4DD
100
AcDbEntity
  8
DRAFT
100
AcDbLine
 62
7
  6
CONTINUOUS
 10
192.6188043231
 20
125.6731468066
 11
192.6188043231
 21
114.668944226
  0
LINE
  5
4DE
100
AcDbEntity
  8
DRAFT
100
AcDbLine
 62
7
  6
CONTINUOUS
 10
192.6188043231
 20
106.6731468066
 11
192.6188043231
 21
95.668944226
  0
LINE
  5
4DF
100
AcDbEntity
  8
DRAFT
100
AcDbLine
 62
7
  6
CONTINUOUS
 10
191.3410617066
 20
106.7847057579
 11
191.3428221807
 21
106.7935296452
  0
LINE
  5
4E0
100
AcDbEntity
  8
RACCORDO
100
AcDbLine
 62
250
  6
CONTINUOUS
 10
186.9377906249
 20
86.9159454255
 11
186.8275355673
 21
86.8056903679
  0
LINE
  5
4E1
100
AcDbEntity
  8
RACCORDO
100
AcDbLine
 62
250
  6
CONTINUOUS
 10
187.1377220899
 20
86.7160139605
 11
187.0274670323
 21
86.6057589029
  0
LINE
  5
4E2
100
AcDbEntity
  8
DRAFT
100
AcDbLine
 62
7
  6
CONTINUOUS
 10
116.3748708665
 20
150.3710455163
 11
116.3428221807
 21
150.3710455163
  0
LINE
  5
4E3
100
AcDbEntity
  8
RACCORDO
100
AcDbLine
 62
250
  6
CONTINUOUS
 10
119.4081087941
 20
151.6710455163
 11
118.8979908065
 21
151.6710455163
  0
LINE
  5
4E4
100
AcDbEntity
  8
DRAFT
100
AcDbLine
 62
7
  6
CONTINUOUS
 10
191.3410766742
 20
114.5573102537
 11
191.3428221807
 21
114.5485613874
  0
LINE
  5
4E5
100
AcDbEntity
  8
DRAFT
100
AcDbLine
 62
7
  6
CONTINUOUS
 10
116.3748708665
 20
154.5710455163
 11
116.3428221807
 21
154.5710455163
  0
LINE
  5
4E6
100
AcDbEntity
  8
RACCORDO
100
AcDbLine
 62
250
  6
CONTINUOUS
 10
119.4081087941
 20
156.6710455163
 11
118.8979908065
 21
156.6710455163
  0
LWPOLYLINE
  5
4E7
100
AcDbEntity
  8
0
100
AcDbPolyline
 62
7
  6
CONTINUOUS
 90
3
 70
0
 43
0.3500000006
 10
203.7715296021
 20
110.9924698792
 10
203.7715296021
 20
109.4924784851
 10
201.4144002686
 20
110.1353319397
  0
LINE
  5
4E8
100
AcDbEntity
  8
RACCORDO
100
AcDbLine
 62
250
  6
CONTINUOUS
 10
134.6535571547
 20
158.0458569532
 11
134.8502631011
 21
158.0816251141
  0
LINE
  5
4E9
100
AcDbEntity
  8
RACCORDO
100
AcDbLine
 62
250
  6
CONTINUOUS
 10
134.9620924232
 20
158.0827857223
 11
135.1588822199
 21
158.1180896399
  0
LINE
  5
4EA
100
AcDbEntity
  8
RACCORDO
100
AcDbLine
 62
250
  6
CONTINUOUS
 10
136.5934291026
 20
157.4710455163
 11
135.3425156621
 21
157.4710455163
  0
LINE
  5
4EB
100
AcDbEntity
  8
RACCORDO
100
AcDbLine
 62
7
  6
CONTINUOUS
 10
136.5934291026
 20
157.6710455163
 11
135.3425156621
 21
157.6710455163
  0
LINE
  5
4EC
100
AcDbEntity
  8
RACCORDO
100
AcDbLine
 62
250
  6
CONTINUOUS
 10
135.4542758381
 20
157.8710455163
 11
136.417429465
 21
157.8710455163
  0
LINE
  5
4ED
100
AcDbEntity
  8
RACCORDO
100
AcDbLine
 62
250
  6
CONTINUOUS
 10
126.2893616333
 20
157.9117726205
 11
126.0893920943
 21
157.9117726205
  0
LINE
  5
4EE
100
AcDbEntity
  8
RACCORDO
100
AcDbLine
 62
250
  6
CONTINUOUS
 10
127.8962827281
 20
157.9117726205
 11
128.0962522671
 21
157.9117726205
  0
LINE
  5
4EF
100
AcDbEntity
  8
RACCORDO
100
AcDbLine
 62
250
  6
CONTINUOUS
 10
128.4015954116
 20
157.9159639653
 11
128.101641103
 21
157.9159639653
  0
LINE
  5
4F0
100
AcDbEntity
  8
RACCORDO
100
AcDbLine
 62
250
  6
CONTINUOUS
 10
126.0840032584
 20
157.9159639653
 11
125.7840489498
 21
157.9159639653
  0
LINE
  5
4F1
100
AcDbEntity
  8
RACCORDO
100
AcDbLine
 62
250
  6
CONTINUOUS
 10
127.8962827281
 20
162.245309585
 11
126.2893616333
 21
162.245309585
  0
LINE
  5
4F2
100
AcDbEntity
  8
RACCORDO
100
AcDbLine
 62
250
  6
CONTINUOUS
 10
127.8962827281
 20
162.9524163662
 11
126.2893616333
 21
162.9524163662
  0
LINE
  5
4F3
100
AcDbEntity
  8
RACCORDO
100
AcDbLine
 62
250
  6
CONTINUOUS
 10
163.7196995144
 20
164.0520336824
 11
159.4073302786
 21
164.0520336824
  0
LINE
  5
4F4
100
AcDbEntity
  8
RACCORDO
100
AcDbLine
 62
250
  6
CONTINUOUS
 10
148.2783140828
 20
164.0520336824
 11
143.965944847
 21
164.0520336824
  0
LINE
  5
4F5
100
AcDbEntity
  8
RACCORDO
100
AcDbLine
 62
250
  6
CONTINUOUS
 10
163.7196995144
 20
164.2519118478
 11
158.7917507912
 21
164.2519118478
  0
LINE
  5
4F6
100
AcDbEntity
  8
RACCORDO
100
AcDbLine
 62
250
  6
CONTINUOUS
 10
148.8938935702
 20
164.2519118478
 11
143.965944847
 21
164.2519118478
  0
LINE
  5
4F7
100
AcDbEntity
  8
RACCORDO
100
AcDbLine
 62
250
  6
CONTINUOUS
 10
143.9265413318
 20
164.3990665665
 11
148.8738373234
 21
164.3990665665
  0
LINE
  5
4F8
100
AcDbEntity
  8
RACCORDO
100
AcDbLine
 62
250
  6
CONTINUOUS
 10
158.811807038
 20
164.3990665665
 11
163.7591030296
 21
164.3990665665
  0
LINE
  5
4F9
100
AcDbEntity
  8
RACCORDO
100
AcDbLine
 62
250
  6
CONTINUOUS
 10
143.9265413318
 20
164.5989447319
 11
148.8738373234
 21
164.5989447319
  0
LINE
  5
4FA
100
AcDbEntity
  8
RACCORDO
100
AcDbLine
 62
250
  6
CONTINUOUS
 10
158.811807038
 20
164.5989447319
 11
163.7591030296
 21
164.5989447319
  0
LINE
  5
4FB
100
AcDbEntity
  8
RACCORDO
100
AcDbLine
 62
250
  6
CONTINUOUS
 10
116.5917268281
 20
166.1723388652
 11
116.3917572891
 21
166.1723388652
  0
LINE
  5
4FC
100
AcDbEntity
  8
RACCORDO
100
AcDbLine
 62
250
  6
CONTINUOUS
 10
191.0939175333
 20
166.1723388652
 11
191.2938870723
 21
166.1723388652
  0
LINE
  5
4FD
100
AcDbEntity
  8
RACCORDO
100
AcDbLine
 62
250
  6
CONTINUOUS
 10
189.7941155296
 20
167.4721408689
 11
117.8915288318
 21
167.4721408689
  0
LINE
  5
4FE
100
AcDbEntity
  8
RACCORDO
100
AcDbLine
 62
250
  6
CONTINUOUS
 10
189.7941155296
 20
167.6721104079
 11
117.8915288318
 21
167.6721104079
  0
LINE
  5
4FF
100
AcDbEntity
  8
RACCORDO
100
AcDbLine
 62
7
  6
CONTINUOUS
 10
117.8425937234
 20
167.7210455163
 11
189.843050638
 21
167.7210455163
  0
LWPOLYLINE
  5
500
100
AcDbEntity
  8
0
100
AcDbPolyline
 62
7
  6
CONTINUOUS
 90
5
 70
0
 43
0.3500000006
 10
86.8984856873
 20
179.4080350342
 10
87.2556325378
 20
179.622319519
 10
87.2556325378
 20
180.2651729736
 10
86.8984856873
 20
180.6937419434
 10
86.0413386841
 20
180.6937419434
  0
LINE
  5
501
100
AcDbEntity
  8
RACCORDO
100
AcDbLine
 62
7
  6
CONTINUOUS
 10
93.4199145771
 20
53.6454826072
 11
92.0199145771
 21
53.6210455163
  0
LINE
  5
502
100
AcDbEntity
  8
RACCORDO
100
AcDbLine
 62
250
  6
CONTINUOUS
 10
93.4199145771
 20
55.1452541499
 11
92.0199145771
 21
55.120817059
  0
LINE
  5
503
100
AcDbEntity
  8
RACCORDO
100
AcDbLine
 62
250
  6
CONTINUOUS
 10
89.0199145771
 20
55.1697521674
 11
89.2164240958
 21
55.1697521674
  0
LINE
  5
504
100
AcDbEntity
  8
RACCORDO
100
AcDbLine
 62
250
  6
CONTINUOUS
 10
88.8251499667
 20
57.0056218329
 11
89.0199145771
 21
57.0056218329
  0
LINE
  5
505
100
AcDbEntity
  8
RACCORDO
100
AcDbLine
 62
250
  6
CONTINUOUS
 10
84.6146791874
 20
57.1158768905
 11
84.4199145771
 21
57.1158768905
  0
LINE
  5
506
100
AcDbEntity
  8
RACCORDO
100
AcDbLine
 62
7
  6
CONTINUOUS
 10
92.0199145771
 20
53.6210455163
 11
89.2164240958
 21
53.6699806247
  0
LINE
  5
507
100
AcDbEntity
  8
RACCORDO
100
AcDbLine
 62
250
  6
CONTINUOUS
 10
92.0199145771
 20
55.120817059
 11
89.2164240958
 21
55.1697521674
  0
LINE
  5
508
100
AcDbEntity
  8
RACCORDO
100
AcDbLine
 62
7
  6
CONTINUOUS
 10
84.6146791874
 20
56.9159454255
 11
88.8251499667
 21
56.8056903679
  0
LINE
  5
509
100
AcDbEntity
  8
RACCORDO
100
AcDbLine
 62
250
  6
CONTINUOUS
 10
84.6146791874
 20
57.1158768905
 11
88.8251499667
 21
57.0056218329
  0
LWPOLYLINE
  5
50A
100
AcDbEntity
  8
0
100
AcDbPolyline
 62
7
  6
CONTINUOUS
 90
3
 70
0
 43
0.3500000006
 10
84.3270537415
 20
179.8366040039
 10
85.1842007446
 20
180.6937419434
 10
85.1842007446
 20
177.6937410278
  0
LINE
  5
50B
100
AcDbEntity
  8
RACCORDO
100
AcDbLine
 62
250
  6
CONTINUOUS
 10
93.4199145771
 20
59.7402917861
 11
93.3857145333
 21
59.7402918053
  0
LINE
  5
50C
100
AcDbEntity
  8
RACCORDO
100
AcDbLine
 62
7
  6
CONTINUOUS
 10
93.125150299
 20
59.901753555
 11
92.3146788551
 21
59.9159003867
  0
LWPOLYLINE
  5
50D
100
AcDbEntity
  8
0
100
AcDbPolyline
 62
7
  6
CONTINUOUS
 90
3
 70
0
 43
0.3500000006
 10
89.8984866028
 20
179.8366040039
 10
90.7556245422
 20
180.6937419434
 10
90.7556245422
 20
177.6937410278
  0
LINE
  5
50E
100
AcDbEntity
  8
RACCORDO
100
AcDbLine
 62
7
  6
CONTINUOUS
 10
93.125150299
 20
61.4403374776
 11
92.3146788551
 21
61.4261906459
  0
LWPOLYLINE
  5
50F
100
AcDbEntity
  8
0
100
AcDbPolyline
 62
7
  6
CONTINUOUS
 90
3
 70
0
 43
0.3500000006
 10
88.8984862976
 20
177.9794657593
 10
88.8270551147
 20
177.7651812744
 10
88.6842018127
 20
177.479456543
  0
LINE
  5
510
100
AcDbEntity
  8
RACCORDO
100
AcDbLine
 62
7
  6
CONTINUOUS
 10
94.6199145771
 20
95.7760319125
 11
93.3958967194
 21
95.668944226
  0
LINE
  5
511
100
AcDbEntity
  8
DRAFT
100
AcDbLine
 62
7
  6
CONTINUOUS
 10
93.3958967194
 20
95.668944226
 11
92.0199145771
 21
95.5485613874
  0
LINE
  5
512
100
AcDbEntity
  8
RACCORDO
100
AcDbLine
 62
7
  6
CONTINUOUS
 10
81.4199145771
 20
138.1182640122
 11
81.4199145771
 21
139.2238270204
  0
LINE
  5
513
100
AcDbEntity
  8
RACCORDO
100
AcDbLine
 62
7
  6
CONTINUOUS
 10
81.4199145771
 20
146.1182640122
 11
81.4199145771
 21
147.2238270204
  0
LINE
  5
514
100
AcDbEntity
  8
RACCORDO
100
AcDbLine
 62
7
  6
CONTINUOUS
 10
81.4199145771
 20
154.1182640122
 11
81.4199145771
 21
155.2238270204
  0
LINE
  5
515
100
AcDbEntity
  8
RACCORDO
100
AcDbLine
 62
250
  6
CONTINUOUS
 10
81.7146788551
 20
137.8182655815
 11
81.7146788551
 21
139.5238254511
  0
LINE
  5
516
100
AcDbEntity
  8
RACCORDO
100
AcDbLine
 62
250
  6
CONTINUOUS
 10
81.7146788551
 20
145.8182655815
 11
81.7146788551
 21
147.5238254511
  0
LINE
  5
517
100
AcDbEntity
  8
RACCORDO
100
AcDbLine
 62
250
  6
CONTINUOUS
 10
81.7146788551
 20
153.8182655815
 11
81.7146788551
 21
155.5238254511
  0
LINE
  5
518
100
AcDbEntity
  8
RACCORDO
100
AcDbLine
 62
7
  6
CONTINUOUS
 10
83.0199145771
 20
164.6790186841
 11
83.0199145771
 21
155.5466084254
  0
LINE
  5
519
100
AcDbEntity
  8
RACCORDO
100
AcDbLine
 62
7
  6
CONTINUOUS
 10
83.0199145771
 20
153.7954826072
 11
83.0199145771
 21
147.5466084254
  0
LINE
  5
51A
100
AcDbEntity
  8
RACCORDO
100
AcDbLine
 62
7
  6
CONTINUOUS
 10
83.0199145771
 20
145.7954826072
 11
83.0199145771
 21
139.5466084254
  0
LINE
  5
51B
100
AcDbEntity
  8
RACCORDO
100
AcDbLine
 62
7
  6
CONTINUOUS
 10
83.0199145771
 20
137.7954826072
 11
83.0199145771
 21
128.6630723486
  0
LINE
  5
51C
100
AcDbEntity
  8
RACCORDO
100
AcDbLine
 62
250
  6
CONTINUOUS
 10
83.2129346777
 20
164.8788968495
 11
83.2129346777
 21
155.5499776038
  0
LINE
  5
51D
100
AcDbEntity
  8
RACCORDO
100
AcDbLine
 62
250
  6
CONTINUOUS
 10
83.2129346777
 20
153.7921134288
 11
83.2129346777
 21
147.5499776038
  0
LINE
  5
51E
100
AcDbEntity
  8
RACCORDO
100
AcDbLine
 62
250
  6
CONTINUOUS
 10
83.2129346777
 20
145.7921134288
 11
83.2129346777
 21
139.5499776038
  0
LINE
  5
51F
100
AcDbEntity
  8
RACCORDO
100
AcDbLine
 62
250
  6
CONTINUOUS
 10
83.2129346777
 20
137.7921134288
 11
83.2129346777
 21
128.4631941832
  0
LINE
  5
520
100
AcDbEntity
  8
0
100
AcDbLine
 62
7
  6
CONTINUOUS
 10
84.1199145771
 20
128.6710455163
 11
84.1199145771
 21
124.6710455163
  0
LINE
  5
521
100
AcDbEntity
  8
RACCORDO
100
AcDbLine
 62
7
  6
CONTINUOUS
 10
84.4199145771
 20
123.3262141421
 11
84.4199145771
 21
57.1158768905
  0
LINE
  5
522
100
AcDbEntity
  8
RACCORDO
100
AcDbLine
 62
7
  6
CONTINUOUS
 10
84.4199145771
 20
129.2210455163
 11
84.4199145771
 21
164.0520336824
  0
LINE
  5
523
100
AcDbEntity
  8
RACCORDO
100
AcDbLine
 62
250
  6
CONTINUOUS
 10
84.6129346777
 20
130.3093946655
 11
84.6129346777
 21
135.8844733585
  0
LINE
  5
524
100
AcDbEntity
  8
RACCORDO
100
AcDbLine
 62
250
  6
CONTINUOUS
 10
84.6129346777
 20
141.4576176741
 11
84.6129346777
 21
143.8844733585
  0
LINE
  5
525
100
AcDbEntity
  8
RACCORDO
100
AcDbLine
 62
250
  6
CONTINUOUS
 10
84.6129346777
 20
149.4576176741
 11
84.6129346777
 21
151.8844733585
  0
LINE
  5
526
100
AcDbEntity
  8
RACCORDO
100
AcDbLine
 62
250
  6
CONTINUOUS
 10
84.6129346777
 20
157.4576176741
 11
84.6129346777
 21
164.1848001263
  0
LINE
  5
527
100
AcDbEntity
  8
RACCORDO
100
AcDbLine
 62
250
  6
CONTINUOUS
 10
84.6146791874
 20
123.3262141421
 11
84.6146791874
 21
57.1158768905
  0
LINE
  5
528
100
AcDbEntity
  8
RACCORDO
100
AcDbLine
 62
250
  6
CONTINUOUS
 10
84.6199145771
 20
129.0210455163
 11
84.6199145771
 21
130.2710455163
  0
LINE
  5
529
100
AcDbEntity
  8
RACCORDO
100
AcDbLine
 62
250
  6
CONTINUOUS
 10
84.9068261029
 20
135.7787505285
 11
84.9068261029
 21
141.5633405041
  0
LINE
  5
52A
100
AcDbEntity
  8
RACCORDO
100
AcDbLine
 62
250
  6
CONTINUOUS
 10
84.9068261029
 20
143.7787505285
 11
84.9068261029
 21
149.5633405041
  0
LINE
  5
52B
100
AcDbEntity
  8
RACCORDO
100
AcDbLine
 62
250
  6
CONTINUOUS
 10
84.9068261029
 20
151.7787505285
 11
84.9068261029
 21
157.5633405041
  0
LINE
  5
52C
100
AcDbEntity
  8
RACCORDO
100
AcDbLine
 62
250
  6
CONTINUOUS
 10
85.7199145771
 20
129.0210455163
 11
85.7199145771
 21
130.2710455163
  0
LINE
  5
52D
100
AcDbEntity
  8
RACCORDO
100
AcDbLine
 62
250
  6
CONTINUOUS
 10
85.7268944764
 20
130.3097079842
 11
85.7268945261
 21
131.4737384658
  0
LINE
  5
52E
100
AcDbEntity
  8
RACCORDO
100
AcDbLine
 62
250
  6
CONTINUOUS
 10
85.7268944764
 20
128.6710455163
 11
85.7268944764
 21
129.0209236817
  0
LINE
  5
52F
100
AcDbEntity
  8
RACCORDO
100
AcDbLine
 62
7
  6
CONTINUOUS
 10
85.9199145771
 20
131.3238800988
 11
85.9199145771
 21
123.5603243987
  0
LINE
  5
530
100
AcDbEntity
  8
0
100
AcDbLine
 62
7
  6
CONTINUOUS
 10
85.9199145771
 20
124.6710455163
 11
85.9199145771
 21
124.8175392775
  0
LINE
  5
531
100
AcDbEntity
  8
RACCORDO
100
AcDbLine
 62
250
  6
CONTINUOUS
 10
86.1164240958
 20
129.8245517551
 11
86.1164240958
 21
124.8175392775
  0
LINE
  5
532
100
AcDbEntity
  8
RACCORDO
100
AcDbLine
 62
250
  6
CONTINUOUS
 10
86.1164240958
 20
123.8176915823
 11
86.1164240958
 21
123.5654701815
  0
LINE
  5
533
100
AcDbEntity
  8
DRAFT
100
AcDbLine
 62
7
  6
CONTINUOUS
 10
93.3958967194
 20
106.6731468066
 11
92.0199145771
 21
106.7935296452
  0
LINE
  5
534
100
AcDbEntity
  8
RACCORDO
100
AcDbLine
 62
7
  6
CONTINUOUS
 10
93.3958967194
 20
106.6731468066
 11
94.6199145771
 21
106.5660591201
  0
LINE
  5
535
100
AcDbEntity
  8
RACCORDO
100
AcDbLine
 62
250
  6
CONTINUOUS
 10
88.8234050584
 20
129.8718022836
 11
88.8234050584
 21
124.770288749
  0
LINE
  5
536
100
AcDbEntity
  8
RACCORDO
100
AcDbLine
 62
250
  6
CONTINUOUS
 10
88.8234050584
 20
123.7704410539
 11
88.8234050584
 21
123.6364006647
  0
LINE
  5
537
100
AcDbEntity
  8
RACCORDO
100
AcDbLine
 62
250
  6
CONTINUOUS
 10
88.8251499667
 20
123.4364691997
 11
88.8251499667
 21
57.0056218329
  0
LINE
  5
538
100
AcDbEntity
  8
RACCORDO
100
AcDbLine
 62
250
  6
CONTINUOUS
 10
88.8251499667
 20
135.6761456071
 11
88.8251499667
 21
141.6659454255
  0
LINE
  5
539
100
AcDbEntity
  8
RACCORDO
100
AcDbLine
 62
250
  6
CONTINUOUS
 10
88.8251499667
 20
143.6761456071
 11
88.8251499667
 21
149.6659454255
  0
LINE
  5
53A
100
AcDbEntity
  8
RACCORDO
100
AcDbLine
 62
250
  6
CONTINUOUS
 10
88.8251499667
 20
151.6761456071
 11
88.8251499667
 21
157.6659454255
  0
LINE
  5
53B
100
AcDbEntity
  8
RACCORDO
100
AcDbLine
 62
250
  6
CONTINUOUS
 10
88.8268944764
 20
165.0749406455
 11
88.8268944764
 21
164.4063281295
  0
LINE
  5
53C
100
AcDbEntity
  8
RACCORDO
100
AcDbLine
 62
250
  6
CONTINUOUS
 10
88.8268944764
 20
164.3324516579
 11
88.8268944764
 21
157.6659454255
  0
LINE
  5
53D
100
AcDbEntity
  8
RACCORDO
100
AcDbLine
 62
250
  6
CONTINUOUS
 10
88.8268944764
 20
151.6761456071
 11
88.8268944764
 21
149.6659454255
  0
LINE
  5
53E
100
AcDbEntity
  8
RACCORDO
100
AcDbLine
 62
250
  6
CONTINUOUS
 10
88.8268944764
 20
143.6761456071
 11
88.8268944764
 21
141.6659454255
  0
LINE
  5
53F
100
AcDbEntity
  8
RACCORDO
100
AcDbLine
 62
250
  6
CONTINUOUS
 10
88.8268944764
 20
135.6761456071
 11
88.8268944764
 21
132.086589611
  0
LINE
  5
540
100
AcDbEntity
  8
RACCORDO
100
AcDbLine
 62
7
  6
CONTINUOUS
 10
89.0199145771
 20
53.8699501637
 11
89.0199145771
 21
167.4721408689
  0
LINE
  5
541
100
AcDbEntity
  8
RACCORDO
100
AcDbLine
 62
250
  6
CONTINUOUS
 10
89.2164240958
 20
55.1697521674
 11
89.2164240958
 21
166.1723388652
  0
LINE
  5
542
100
AcDbEntity
  8
RACCORDO
100
AcDbLine
 62
7
  6
CONTINUOUS
 10
92.0199145771
 20
53.6210455163
 11
92.0199145771
 21
95.5485613874
  0
LINE
  5
543
100
AcDbEntity
  8
DRAFT
100
AcDbLine
 62
7
  6
CONTINUOUS
 10
92.0199145771
 20
106.7935296452
 11
92.0199145771
 21
114.5485613874
  0
LINE
  5
544
100
AcDbEntity
  8
RACCORDO
100
AcDbLine
 62
7
  6
CONTINUOUS
 10
92.0199145771
 20
125.7935296452
 11
92.0199145771
 21
167.7210455163
  0
LINE
  5
545
100
AcDbEntity
  8
DRAFT
100
AcDbLine
 62
7
  6
CONTINUOUS
 10
92.1216910928
 20
125.7846199263
 11
92.1216910928
 21
114.5574711063
  0
LINE
  5
546
100
AcDbEntity
  8
DRAFT
100
AcDbLine
 62
7
  6
CONTINUOUS
 10
92.1216910928
 20
106.7846199263
 11
92.1216910928
 21
95.5574711063
  0
LINE
  5
547
100
AcDbEntity
  8
RACCORDO
100
AcDbLine
 62
250
  6
CONTINUOUS
 10
92.1234050584
 20
161.3527846623
 11
92.1234050584
 21
159.9893063703
  0
LINE
  5
548
100
AcDbEntity
  8
RACCORDO
100
AcDbLine
 62
250
  6
CONTINUOUS
 10
92.1234050584
 20
61.3527846623
 11
92.1234050584
 21
59.9893063703
  0
LINE
  5
549
100
AcDbEntity
  8
RACCORDO
100
AcDbLine
 62
7
  6
CONTINUOUS
 10
92.3199145771
 20
161.4261906459
 11
92.3199145771
 21
159.9159003867
  0
LINE
  5
54A
100
AcDbEntity
  8
RACCORDO
100
AcDbLine
 62
7
  6
CONTINUOUS
 10
92.3199145771
 20
61.4261906459
 11
92.3199145771
 21
59.9159003867
  0
LINE
  5
54B
100
AcDbEntity
  8
0
100
AcDbLine
 62
250
  6
CONTINUOUS
 10
92.5833073163
 20
161.4308795731
 11
92.5833073163
 21
159.9112114595
  0
LINE
  5
54C
100
AcDbEntity
  8
0
100
AcDbLine
 62
250
  6
CONTINUOUS
 10
92.5833073163
 20
61.4308795731
 11
92.5833073163
 21
59.9112114595
  0
LINE
  5
54D
100
AcDbEntity
  8
0
100
AcDbLine
 62
7
  6
CONTINUOUS
 10
92.6699145771
 20
161.4323913085
 11
92.6699145771
 21
159.9096997241
  0
LINE
  5
54E
100
AcDbEntity
  8
0
100
AcDbLine
 62
7
  6
CONTINUOUS
 10
92.6699145771
 20
61.4323913085
 11
92.6699145771
 21
59.9096997241
  0
LINE
  5
54F
100
AcDbEntity
  8
RACCORDO
100
AcDbLine
 62
250
  6
CONTINUOUS
 10
93.1742776787
 20
61.4403374776
 11
93.1742776787
 21
59.901753555
  0
LINE
  5
550
100
AcDbEntity
  8
DRAFT
100
AcDbLine
 62
7
  6
CONTINUOUS
 10
93.3958967194
 20
125.6731468066
 11
93.3958967194
 21
114.668944226
  0
LINE
  5
551
100
AcDbEntity
  8
DRAFT
100
AcDbLine
 62
7
  6
CONTINUOUS
 10
93.3958967194
 20
106.6731468066
 11
93.3958967194
 21
95.668944226
  0
LINE
  5
552
100
AcDbEntity
  8
RACCORDO
100
AcDbLine
 62
7
  6
CONTINUOUS
 10
93.4199145771
 20
167.6966084254
 11
93.4199145771
 21
161.7402917861
  0
LINE
  5
553
100
AcDbEntity
  8
RACCORDO
100
AcDbLine
 62
7
  6
CONTINUOUS
 10
93.4199145771
 20
159.6017992465
 11
93.4199145771
 21
125.6710455163
  0
LINE
  5
554
100
AcDbEntity
  8
RACCORDO
100
AcDbLine
 62
7
  6
CONTINUOUS
 10
93.4199145771
 20
95.6710455163
 11
93.4199145771
 21
59.7402917861
  0
LINE
  5
555
100
AcDbEntity
  8
RACCORDO
100
AcDbLine
 62
7
  6
CONTINUOUS
 10
93.4199145771
 20
59.6017992465
 11
93.4199145771
 21
53.6454826072
  0
LINE
  5
556
100
AcDbEntity
  8
DRAFT
100
AcDbLine
 62
7
  6
CONTINUOUS
 10
93.4199145771
 20
106.6710455163
 11
93.4199145771
 21
114.6710455163
  0
LINE
  5
557
100
AcDbEntity
  8
RACCORDO
100
AcDbLine
 62
250
  6
CONTINUOUS
 10
94.4234050584
 20
95.7588395574
 11
94.4234050584
 21
106.5832514752
  0
LINE
  5
558
100
AcDbEntity
  8
RACCORDO
100
AcDbLine
 62
250
  6
CONTINUOUS
 10
94.4234050584
 20
114.7588395574
 11
94.4234050584
 21
125.5832514752
  0
LINE
  5
559
100
AcDbEntity
  8
RACCORDO
100
AcDbLine
 62
250
  6
CONTINUOUS
 10
94.4546442126
 20
106.5832514752
 11
94.4546442126
 21
114.7588395574
  0
LINE
  5
55A
100
AcDbEntity
  8
RACCORDO
100
AcDbLine
 62
7
  6
CONTINUOUS
 10
94.5199145771
 20
162.2710455163
 11
94.5199145771
 21
126.6710455163
  0
LINE
  5
55B
100
AcDbEntity
  8
RACCORDO
100
AcDbLine
 62
7
  6
CONTINUOUS
 10
94.6199145771
 20
95.7760319125
 11
94.6199145771
 21
125.5660591201
  0
LINE
  5
55C
100
AcDbEntity
  8
RACCORDO
100
AcDbLine
 62
7
  6
CONTINUOUS
 10
94.6199145771
 20
114.7760319125
 11
93.3958967194
 21
114.668944226
  0
LINE
  5
55D
100
AcDbEntity
  8
DRAFT
100
AcDbLine
 62
7
  6
CONTINUOUS
 10
93.3958967194
 20
114.668944226
 11
92.1216910928
 21
114.5574656787
  0
LINE
  5
55E
100
AcDbEntity
  8
DRAFT
100
AcDbLine
 62
7
  6
CONTINUOUS
 10
92.1199145771
 20
114.5573102537
 11
92.0199145771
 21
114.5485613874
  0
LINE
  5
55F
100
AcDbEntity
  8
RACCORDO
100
AcDbLine
 62
250
  6
CONTINUOUS
 10
84.6146791874
 20
123.3262141421
 11
88.8251499667
 21
123.4364691997
  0
LINE
  5
560
100
AcDbEntity
  8
RACCORDO
100
AcDbLine
 62
7
  6
CONTINUOUS
 10
84.6146791874
 20
123.5261456071
 11
88.8251499667
 21
123.6364006647
  0
LINE
  5
561
100
AcDbEntity
  8
RACCORDO
100
AcDbLine
 62
250
  6
CONTINUOUS
 10
84.6146791874
 20
123.3262141421
 11
84.4199145771
 21
123.3262141421
  0
LINE
  5
562
100
AcDbEntity
  8
RACCORDO
100
AcDbLine
 62
250
  6
CONTINUOUS
 10
88.8251499667
 20
123.4364691997
 11
89.0199145771
 21
123.4364691997
  0
LINE
  5
563
100
AcDbEntity
  8
RACCORDO
100
AcDbLine
 62
250
  6
CONTINUOUS
 10
88.8234050584
 20
123.7704410539
 11
89.0085306907
 21
123.7704410539
  0
LINE
  5
564
100
AcDbEntity
  8
RACCORDO
100
AcDbLine
 62
250
  6
CONTINUOUS
 10
86.1164240958
 20
123.8176915823
 11
85.9199145771
 21
123.8176915823
  0
LINE
  5
565
100
AcDbEntity
  8
0
100
AcDbLine
 62
7
  6
CONTINUOUS
 10
84.1199145771
 20
124.6710455163
 11
85.9199145771
 21
124.6710455163
  0
LINE
  5
566
100
AcDbEntity
  8
RACCORDO
100
AcDbLine
 62
250
  6
CONTINUOUS
 10
88.8234050584
 20
124.770288749
 11
89.0199145771
 21
124.770288749
  0
LINE
  5
567
100
AcDbEntity
  8
RACCORDO
100
AcDbLine
 62
250
  6
CONTINUOUS
 10
86.1164240958
 20
124.8175392775
 11
85.9199145771
 21
124.8175392775
  0
LINE
  5
568
100
AcDbEntity
  8
RACCORDO
100
AcDbLine
 62
250
  6
CONTINUOUS
 10
86.1164240958
 20
123.8176915823
 11
88.8234050584
 21
123.7704410539
  0
LINE
  5
569
100
AcDbEntity
  8
RACCORDO
100
AcDbLine
 62
7
  6
CONTINUOUS
 10
86.1164240958
 20
124.3176154299
 11
88.8234050584
 21
124.2703649014
  0
LINE
  5
56A
100
AcDbEntity
  8
RACCORDO
100
AcDbLine
 62
250
  6
CONTINUOUS
 10
86.1164240958
 20
124.8175392775
 11
88.8234050584
 21
124.770288749
  0
LINE
  5
56B
100
AcDbEntity
  8
DRAFT
100
AcDbLine
 62
7
  6
CONTINUOUS
 10
93.3958967194
 20
125.6731468066
 11
92.0199145771
 21
125.7935296452
  0
LINE
  5
56C
100
AcDbEntity
  8
RACCORDO
100
AcDbLine
 62
7
  6
CONTINUOUS
 10
93.3958967194
 20
125.6731468066
 11
94.6199145771
 21
125.5660591201
  0
LINE
  5
56D
100
AcDbEntity
  8
RACCORDO
100
AcDbLine
 62
250
  6
CONTINUOUS
 10
86.1164240958
 20
129.8245517551
 11
88.8234050584
 21
129.8718022836
  0
LINE
  5
56E
100
AcDbEntity
  8
RACCORDO
100
AcDbLine
 62
7
  6
CONTINUOUS
 10
86.1164240958
 20
130.3244756027
 11
88.8234050584
 21
130.3717261312
  0
LINE
  5
56F
100
AcDbEntity
  8
RACCORDO
100
AcDbLine
 62
250
  6
CONTINUOUS
 10
85.7268944764
 20
130.3097079842
 11
85.719903786
 21
130.3097060329
  0
LINE
  5
570
100
AcDbEntity
  8
RACCORDO
100
AcDbLine
 62
250
  6
CONTINUOUS
 10
84.6199038431
 20
130.3093966161
 11
84.6129346777
 21
130.3093946655
  0
LINE
  5
571
100
AcDbEntity
  8
RACCORDO
100
AcDbLine
 62
7
  6
CONTINUOUS
 10
94.5199145771
 20
126.6710455163
 11
93.4199145771
 21
126.6710455163
  0
LINE
  5
572
100
AcDbEntity
  8
RACCORDO
100
AcDbLine
 62
250
  6
CONTINUOUS
 10
94.5199145771
 20
127.6710455163
 11
93.4199145771
 21
127.6710455163
  0
LINE
  5
573
100
AcDbEntity
  8
0
100
AcDbLine
 62
7
  6
CONTINUOUS
 10
85.9199145771
 20
128.6710455163
 11
84.1199145771
 21
128.6710455163
  0
LINE
  5
574
100
AcDbEntity
  8
RACCORDO
100
AcDbLine
 62
7
  6
CONTINUOUS
 10
85.7199145771
 20
129.0210455163
 11
84.6199145771
 21
129.0210455163
  0
LINE
  5
575
100
AcDbEntity
  8
RACCORDO
100
AcDbLine
 62
250
  6
CONTINUOUS
 10
85.7199145771
 20
129.0383230032
 11
84.6199145771
 21
129.0383230032
  0
LINE
  5
576
100
AcDbEntity
  8
RACCORDO
100
AcDbLine
 62
250
  6
CONTINUOUS
 10
86.1164240958
 20
129.8245517551
 11
85.9199145771
 21
129.8245517551
  0
LINE
  5
577
100
AcDbEntity
  8
RACCORDO
100
AcDbLine
 62
250
  6
CONTINUOUS
 10
88.8234050584
 20
129.8718022836
 11
89.0199145771
 21
129.8718022836
  0
LINE
  5
578
100
AcDbEntity
  8
RACCORDO
100
AcDbLine
 62
250
  6
CONTINUOUS
 10
84.6199145771
 20
130.2413019266
 11
85.7199145771
 21
130.2413019266
  0
LINE
  5
579
100
AcDbEntity
  8
RACCORDO
100
AcDbLine
 62
7
  6
CONTINUOUS
 10
85.7199145771
 20
130.2710455163
 11
84.6199145771
 21
130.2710455163
  0
LINE
  5
57A
100
AcDbEntity
  8
RACCORDO
100
AcDbLine
 62
7
  6
CONTINUOUS
 10
83.2129346777
 20
128.4631941832
 11
84.1199145771
 21
128.4315217472
  0
LINE
  5
57B
100
AcDbEntity
  8
DRAFT
100
AcDbLine
 62
7
  6
CONTINUOUS
 10
84.4199145771
 20
137.7710455163
 11
81.7146788551
 21
137.8182655815
  0
LINE
  5
57C
100
AcDbEntity
  8
DRAFT
100
AcDbLine
 62
7
  6
CONTINUOUS
 10
88.8251499667
 20
135.6761456071
 11
84.9068261029
 21
135.7787505285
  0
LINE
  5
57D
100
AcDbEntity
  8
DRAFT
100
AcDbLine
 62
7
  6
CONTINUOUS
 10
88.8251499667
 20
141.6659454255
 11
84.9068261029
 21
141.5633405041
  0
LINE
  5
57E
100
AcDbEntity
  8
DRAFT
100
AcDbLine
 62
7
  6
CONTINUOUS
 10
84.4199145771
 20
139.5710455163
 11
81.7146788551
 21
139.5238254511
  0
LWPOLYLINE
  5
57F
100
AcDbEntity
  8
0
100
AcDbPolyline
 62
7
  6
CONTINUOUS
 90
10
 70
0
 43
0.3500000006
 10
88.8270551147
 20
178.1937502441
 10
88.8984862976
 20
178.0508878784
 10
88.8984862976
 20
177.9794657593
 10
88.7556329956
 20
177.8366033936
 10
88.6842018127
 20
177.8366033936
 10
88.6127706299
 20
177.9080255127
 10
88.6127706299
 20
177.9794657593
 10
88.6842018127
 20
178.1223099976
 10
88.7556329956
 20
178.1937502441
 10
88.8270551147
 20
178.1937502441
  0
LINE
  5
580
100
AcDbEntity
  8
DRAFT
100
AcDbLine
 62
7
  6
CONTINUOUS
 10
84.4199145771
 20
145.7710455163
 11
81.7146788551
 21
145.8182655815
  0
LINE
  5
581
100
AcDbEntity
  8
DRAFT
100
AcDbLine
 62
7
  6
CONTINUOUS
 10
88.8251499667
 20
143.6761456071
 11
84.9068261029
 21
143.7787505285
  0
LINE
  5
582
100
AcDbEntity
  8
DRAFT
100
AcDbLine
 62
7
  6
CONTINUOUS
 10
84.4199145771
 20
147.5710455163
 11
81.7146788551
 21
147.5238254511
  0
LINE
  5
583
100
AcDbEntity
  8
DRAFT
100
AcDbLine
 62
7
  6
CONTINUOUS
 10
88.8251499667
 20
149.6659454255
 11
84.9068261029
 21
149.5633405041
  0
LINE
  5
584
100
AcDbEntity
  8
DRAFT
100
AcDbLine
 62
7
  6
CONTINUOUS
 10
88.8251499667
 20
151.6761456071
 11
84.9068261029
 21
151.7787505285
  0
LINE
  5
585
100
AcDbEntity
  8
DRAFT
100
AcDbLine
 62
7
  6
CONTINUOUS
 10
84.4199145771
 20
155.5710455163
 11
81.7146788551
 21
155.5238254511
  0
LINE
  5
586
100
AcDbEntity
  8
DRAFT
100
AcDbLine
 62
7
  6
CONTINUOUS
 10
84.4199145771
 20
153.7710455163
 11
81.7146788551
 21
153.8182655815
  0
LINE
  5
587
100
AcDbEntity
  8
DRAFT
100
AcDbLine
 62
7
  6
CONTINUOUS
 10
88.8251499667
 20
157.6659454255
 11
84.9068261029
 21
157.5633405041
  0
LINE
  5
588
100
AcDbEntity
  8
RACCORDO
100
AcDbLine
 62
7
  6
CONTINUOUS
 10
93.125150299
 20
159.901753555
 11
92.3146788551
 21
159.9159003867
  0
LINE
  5
589
100
AcDbEntity
  8
RACCORDO
100
AcDbLine
 62
7
  6
CONTINUOUS
 10
88.8268944764
 20
164.3990665665
 11
84.6129346777
 21
164.2519118478
  0
LINE
  5
58A
100
AcDbEntity
  8
DRAFT
100
AcDbLine
 62
7
  6
CONTINUOUS
 10
88.8268944764
 20
165.0749406455
 11
84.4199145771
 21
164.9210455163
  0
LINE
  5
58B
100
AcDbEntity
  8
RACCORDO
100
AcDbLine
 62
7
  6
CONTINUOUS
 10
83.2129346777
 20
164.8788968495
 11
84.4199145771
 21
164.9210455163
  0
LINE
  5
58C
100
AcDbEntity
  8
RACCORDO
100
AcDbLine
 62
7
  6
CONTINUOUS
 10
93.125150299
 20
161.4403374776
 11
92.3146788551
 21
161.4261906459
  0
LINE
  5
58D
100
AcDbEntity
  8
RACCORDO
100
AcDbLine
 62
250
  6
CONTINUOUS
 10
89.2164240958
 20
166.1723388652
 11
92.0199145771
 21
166.2212739736
  0
LINE
  5
58E
100
AcDbEntity
  8
RACCORDO
100
AcDbLine
 62
7
  6
CONTINUOUS
 10
89.2164240958
 20
167.6721104079
 11
92.0199145771
 21
167.7210455163
  0
LINE
  5
58F
100
AcDbEntity
  8
RACCORDO
100
AcDbLine
 62
250
  6
CONTINUOUS
 10
94.5199145771
 20
161.2710455163
 11
92.6699145771
 21
161.2710455163
  0
LINE
  5
590
100
AcDbEntity
  8
RACCORDO
100
AcDbLine
 62
7
  6
CONTINUOUS
 10
94.5199145771
 20
162.2710455163
 11
93.4199145771
 21
162.2710455163
  0
LINE
  5
591
100
AcDbEntity
  8
RACCORDO
100
AcDbLine
 62
250
  6
CONTINUOUS
 10
89.0199145771
 20
166.1723388652
 11
89.2164240958
 21
166.1723388652
  0
LWPOLYLINE
  5
592
100
AcDbEntity
  8
0
100
AcDbPolyline
 62
7
  6
CONTINUOUS
 90
6
 70
0
 43
0.3500000006
 10
86.0413386841
 20
177.6937410278
 10
87.1127701721
 20
177.6937410278
 10
87.327054657
 20
177.9080255127
 10
87.327054657
 20
178.9794660645
 10
86.8984856873
 20
179.4080350342
 10
86.4699167175
 20
179.4080350342
  0
LINE
  5
593
100
AcDbEntity
  8
RACCORDO
100
AcDbLine
 62
250
  6
CONTINUOUS
 10
92.0199145771
 20
166.2212739736
 11
93.4199145771
 21
166.1968368827
  0
LINE
  5
594
100
AcDbEntity
  8
RACCORDO
100
AcDbLine
 62
7
  6
CONTINUOUS
 10
92.0199145771
 20
167.7210455163
 11
93.4199145771
 21
167.6966084254
  0
ARC
  5
595
100
AcDbEntity
  8
RACCORDO
100
AcDbCircle
 62
250
  6
CONTINUOUS
 10
58.514510835
 20
99.4038242185
 40
72.2846651427
100
AcDbArc
 50
359.200659237
 51
0.0689797469
  0
ARC
  5
596
100
AcDbEntity
  8
RACCORDO
100
AcDbCircle
 62
250
  6
CONTINUOUS
 10
74.3207332304
 20
99.4140675795
 40
56.2784732006
100
AcDbArc
 50
359.0940908165
 51
0.078169795
  0
ARC
  5
597
100
AcDbEntity
  8
RACCORDO
100
AcDbCircle
 62
250
  6
CONTINUOUS
 10
117.8915319246
 20
55.1697552602
 40
1.4997727683
100
AcDbArc
 50
180.0001181529
 51
269.9998818467
  0
ARC
  5
598
100
AcDbEntity
  8
RACCORDO
100
AcDbCircle
 62
7
  6
CONTINUOUS
 10
117.842502615
 20
55.1207259506
 40
1.4996769576
100
AcDbArc
 50
179.9965191715
 51
270.0034808285
  0
ARC
  5
599
100
AcDbEntity
  8
RACCORDO
100
AcDbCircle
 62
250
  6
CONTINUOUS
 10
117.8914576896
 20
55.1696810252
 40
1.299728455
100
AcDbArc
 50
179.9968638517
 51
270.0031361477
  0
ARC
  5
59A
100
AcDbEntity
  8
RACCORDO
100
AcDbCircle
 62
250
  6
CONTINUOUS
 10
120.7478026201
 20
58.6260259557
 40
0.3998109851
100
AcDbArc
 50
179.9926746641
 51
270.007325337
  0
ARC
  5
59B
100
AcDbEntity
  8
RACCORDO
100
AcDbCircle
 62
250
  6
CONTINUOUS
 10
120.7478011939
 20
86.7160664587
 40
0.3998092797
100
AcDbArc
 50
89.9924702501
 51
180.0075233834
  0
ARC
  5
59C
100
AcDbEntity
  8
RACCORDO
100
AcDbCircle
 62
250
  6
CONTINUOUS
 10
119.5338212574
 20
57.0055686969
 40
0.3998086559
100
AcDbArc
 50
179.9923852145
 51
270.007614789
  0
ARC
  5
59D
100
AcDbEntity
  8
RACCORDO
100
AcDbCircle
 62
250
  6
CONTINUOUS
 10
120.7477988777
 20
88.6260222134
 40
0.3998064763
100
AcDbArc
 50
179.99213829
 51
270.0078617113
  0
ARC
  5
59E
100
AcDbEntity
  8
RACCORDO
100
AcDbCircle
 62
250
  6
CONTINUOUS
 10
119.6443029073
 20
57.1160503468
 40
0.2001062644
100
AcDbArc
 50
180.0496655163
 51
269.9503344837
  0
ARC
  5
59F
100
AcDbEntity
  8
RACCORDO
100
AcDbCircle
 62
250
  6
CONTINUOUS
 10
120.8582822505
 20
86.6055854465
 40
0.2001062644
100
AcDbArc
 50
90.049665533
 51
179.950334467
  0
ARC
  5
5A0
100
AcDbEntity
  8
RACCORDO
100
AcDbCircle
 62
250
  6
CONTINUOUS
 10
120.8582822505
 20
58.7365055861
 40
0.2001062644
100
AcDbArc
 50
180.0496655246
 51
269.9503344754
  0
ARC
  5
5A1
100
AcDbEntity
  8
RACCORDO
100
AcDbCircle
 62
250
  6
CONTINUOUS
 10
120.8582822503
 20
88.7365055859
 40
0.2001062643
100
AcDbArc
 50
180.0496654822
 51
269.9503345178
  0
ARC
  5
5A2
100
AcDbEntity
  8
RACCORDO
100
AcDbCircle
 62
250
  6
CONTINUOUS
 10
120.7476418242
 20
86.7162256506
 40
0.1997190275
100
AcDbArc
 50
89.9392064509
 51
180.0607298819
  0
ARC
  5
5A3
100
AcDbEntity
  8
RACCORDO
100
AcDbCircle
 62
250
  6
CONTINUOUS
 10
120.7476414776
 20
88.6258649792
 40
0.1997185688
100
AcDbArc
 50
179.939154464
 51
270.0608931289
  0
ARC
  5
5A4
100
AcDbEntity
  8
RACCORDO
100
AcDbCircle
 62
250
  6
CONTINUOUS
 10
120.7476364802
 20
58.6258598158
 40
0.1997123144
100
AcDbArc
 50
179.9376716123
 51
270.0623283934
  0
ARC
  5
5A5
100
AcDbEntity
  8
RACCORDO
100
AcDbCircle
 62
250
  6
CONTINUOUS
 10
119.5336560823
 20
57.0054035218
 40
0.1997110963
100
AcDbArc
 50
179.9373686866
 51
270.0626313271
  0
ARC
  5
5A6
100
AcDbEntity
  8
RACCORDO
100
AcDbCircle
 62
250
  6
CONTINUOUS
 10
129.434872817
 20
101.2789948662
 40
1.5676084601
100
AcDbArc
 50
89.9183075176
 51
180.0820383238
  0
ARC
  5
5A7
100
AcDbEntity
  8
RACCORDO
100
AcDbCircle
 62
250
  6
CONTINUOUS
 10
129.4348728308
 20
99.9630961526
 40
1.5676084601
100
AcDbArc
 50
179.9183075176
 51
270.0820383238
  0
ARC
  5
5A8
100
AcDbEntity
  8
RACCORDO
100
AcDbCircle
 62
250
  6
CONTINUOUS
 10
131.2920287523
 20
94.1202520879
 40
0.6998567264
100
AcDbArc
 50
179.9969986322
 51
270.0030013678
  0
ARC
  5
5A9
100
AcDbEntity
  8
RACCORDO
100
AcDbCircle
 62
250
  6
CONTINUOUS
 10
131.3393744264
 20
94.167597762
 40
0.4999823355
100
AcDbArc
 50
180.0067020646
 51
269.9932979354
  0
ARC
  5
5AA
100
AcDbEntity
  8
RACCORDO
100
AcDbCircle
 62
250
  6
CONTINUOUS
 10
131.2919542279
 20
94.1201775634
 40
0.4998116371
100
AcDbArc
 50
179.987254075
 51
270.0127459003
  0
ARC
  5
5AB
100
AcDbEntity
  8
RACCORDO
100
AcDbCircle
 62
250
  6
CONTINUOUS
 10
132.5428221807
 20
95.8710455163
 40
0.4
100
AcDbArc
 50
180.0
 51
270.0
  0
ARC
  5
5AC
100
AcDbEntity
  8
RACCORDO
100
AcDbCircle
 62
250
  6
CONTINUOUS
 10
131.3392993281
 20
94.1675226637
 40
0.2999376952
100
AcDbArc
 50
179.9968263462
 51
270.0031736538
  0
ARC
  5
5AD
100
AcDbEntity
  8
RACCORDO
100
AcDbCircle
 62
7
  6
CONTINUOUS
 10
132.5428221807
 20
95.8710455163
 40
0.2
100
AcDbArc
 50
180.0
 51
270.0
  0
ARC
  5
5AE
100
AcDbEntity
  8
RACCORDO
100
AcDbCircle
 62
250
  6
CONTINUOUS
 10
119.7920287523
 20
129.8718389447
 40
0.6998567264
100
AcDbArc
 50
89.9969986322
 51
180.0030013678
  0
ARC
  5
5AF
100
AcDbEntity
  8
RACCORDO
100
AcDbCircle
 62
250
  6
CONTINUOUS
 10
119.7920287523
 20
124.7702520879
 40
0.6998567264
100
AcDbArc
 50
179.9969986322
 51
270.0030013678
  0
ARC
  5
5B0
100
AcDbEntity
  8
RACCORDO
100
AcDbCircle
 62
250
  6
CONTINUOUS
 10
130.3395049078
 20
123.8177282434
 40
0.6998567264
100
AcDbArc
 50
359.9969986322
 51
90.0030013678
  0
ARC
  5
5B1
100
AcDbEntity
  8
RACCORDO
100
AcDbCircle
 62
250
  6
CONTINUOUS
 10
119.8393744264
 20
124.817597762
 40
0.4999823355
100
AcDbArc
 50
180.0067020646
 51
269.9932979354
  0
ARC
  5
5B2
100
AcDbEntity
  8
RACCORDO
100
AcDbCircle
 62
250
  6
CONTINUOUS
 10
119.8393744264
 20
129.8244932707
 40
0.4999823355
100
AcDbArc
 50
90.0067020646
 51
179.9932979354
  0
ARC
  5
5B3
100
AcDbEntity
  8
RACCORDO
100
AcDbCircle
 62
250
  6
CONTINUOUS
 10
130.2921592338
 20
123.7703825694
 40
0.4999823355
100
AcDbArc
 50
0.0067020646
 51
89.9932979354
  0
ARC
  5
5B4
100
AcDbEntity
  8
RACCORDO
100
AcDbCircle
 62
250
  6
CONTINUOUS
 10
130.3395794734
 20
123.817802809
 40
0.4998116433
100
AcDbArc
 50
359.9872495883
 51
90.0127504118
  0
ARC
  5
5B5
100
AcDbEntity
  8
RACCORDO
100
AcDbCircle
 62
250
  6
CONTINUOUS
 10
119.7919542279
 20
124.7701775634
 40
0.4998116371
100
AcDbArc
 50
179.987254075
 51
270.0127459003
  0
ARC
  5
5B6
100
AcDbEntity
  8
RACCORDO
100
AcDbCircle
 62
250
  6
CONTINUOUS
 10
119.7919541821
 20
129.8719135148
 40
0.4998116371
100
AcDbArc
 50
89.987248835
 51
180.0127511403
  0
ARC
  5
5B7
100
AcDbEntity
  8
RACCORDO
100
AcDbCircle
 62
250
  6
CONTINUOUS
 10
132.5428221807
 20
119.4710455163
 40
0.4
100
AcDbArc
 50
90.0
 51
180.0
  0
ARC
  5
5B8
100
AcDbEntity
  8
RACCORDO
100
AcDbCircle
 62
250
  6
CONTINUOUS
 10
120.4582988195
 20
123.436522155
 40
0.3998088781
100
AcDbArc
 50
359.9924111059
 51
90.0075888982
  0
ARC
  5
5B9
100
AcDbEntity
  8
RACCORDO
100
AcDbCircle
 62
250
  6
CONTINUOUS
 10
119.5338212574
 20
123.4365223357
 40
0.3998086559
100
AcDbArc
 50
89.9923852145
 51
180.007614789
  0
ARC
  5
5BA
100
AcDbEntity
  8
RACCORDO
100
AcDbCircle
 62
250
  6
CONTINUOUS
 10
130.292234332
 20
123.7704576676
 40
0.2999376952
100
AcDbArc
 50
359.9968263462
 51
90.0031736538
  0
ARC
  5
5BB
100
AcDbEntity
  8
RACCORDO
100
AcDbCircle
 62
250
  6
CONTINUOUS
 10
119.8392993281
 20
124.8175226637
 40
0.2999376952
100
AcDbArc
 50
179.9968263462
 51
270.0031736538
  0
ARC
  5
5BC
100
AcDbEntity
  8
RACCORDO
100
AcDbCircle
 62
250
  6
CONTINUOUS
 10
119.8392993281
 20
129.8245683689
 40
0.2999376952
100
AcDbArc
 50
89.9968263462
 51
180.0031736538
  0
ARC
  5
5BD
100
AcDbEntity
  8
RACCORDO
100
AcDbCircle
 62
250
  6
CONTINUOUS
 10
119.6443029073
 20
123.3260406858
 40
0.2001062644
100
AcDbArc
 50
90.0496655212
 51
179.9503344788
  0
ARC
  5
5BE
100
AcDbEntity
  8
RACCORDO
100
AcDbCircle
 62
250
  6
CONTINUOUS
 10
120.3478173501
 20
123.3260406857
 40
0.2001062644
100
AcDbArc
 50
0.0496655265
 51
89.9503344735
  0
ARC
  5
5BF
100
AcDbEntity
  8
RACCORDO
100
AcDbCircle
 62
7
  6
CONTINUOUS
 10
132.5428221807
 20
119.4710455163
 40
0.2
100
AcDbArc
 50
90.0
 51
180.0
  0
ARC
  5
5C0
100
AcDbEntity
  8
RACCORDO
100
AcDbCircle
 62
250
  6
CONTINUOUS
 10
120.4584579613
 20
123.4366812967
 40
0.1997187377
100
AcDbArc
 50
359.939153325
 51
90.0608467276
  0
ARC
  5
5C1
100
AcDbEntity
  8
RACCORDO
100
AcDbCircle
 62
250
  6
CONTINUOUS
 10
119.5336560823
 20
123.4366875108
 40
0.1997110963
100
AcDbArc
 50
89.9373686866
 51
180.062631327
  0
ARC
  5
5C2
100
AcDbEntity
  8
RACCORDO
100
AcDbCircle
 62
250
  6
CONTINUOUS
 10
138.9125426918
 20
131.3712947082
 40
0.9994488112
100
AcDbArc
 50
269.9472154503
 51
45.7005457686
  0
ARC
  5
5C3
100
AcDbEntity
  8
RACCORDO
100
AcDbCircle
 62
250
  6
CONTINUOUS
 10
141.9962363234
 20
130.4722145135
 40
0.4011689984
100
AcDbArc
 50
233.8282063348
 51
270.0044575476
  0
ARC
  5
5C4
100
AcDbEntity
  8
RACCORDO
100
AcDbCircle
 62
250
  6
CONTINUOUS
 10
143.6110090472
 20
130.0710455163
 40
0.4
100
AcDbArc
 50
58.3513873405
 51
90.0
  0
ARC
  5
5C5
100
AcDbEntity
  8
RACCORDO
100
AcDbCircle
 62
250
  6
CONTINUOUS
 10
146.0770318153
 20
129.2210455163
 40
0.4
100
AcDbArc
 50
246.0094550285
 51
270.0
  0
ARC
  5
5C6
100
AcDbEntity
  8
RACCORDO
100
AcDbCircle
 62
7
  6
CONTINUOUS
 10
141.9963149163
 20
130.4736204056
 40
0.2025748949
100
AcDbArc
 50
258.8289119092
 51
269.9865984735
  0
ARC
  5
5C7
100
AcDbEntity
  8
RACCORDO
100
AcDbCircle
 62
7
  6
CONTINUOUS
 10
146.0770318153
 20
129.2210455163
 40
0.2
100
AcDbArc
 50
246.0094550285
 51
270.0
  0
ARC
  5
5C8
100
AcDbEntity
  8
RACCORDO
100
AcDbCircle
 62
7
  6
CONTINUOUS
 10
143.6110090472
 20
130.0710455163
 40
0.2
100
AcDbArc
 50
58.3513873405
 51
90.0
  0
ARC
  5
5C9
100
AcDbEntity
  8
RACCORDO
100
AcDbCircle
 62
250
  6
CONTINUOUS
 10
142.0614698769
 20
130.47043956
 40
0.1993940439
100
AcDbArc
 50
233.8690544326
 51
269.9972585155
  0
ARC
  5
5CA
100
AcDbEntity
  8
RACCORDO
100
AcDbCircle
 62
250
  6
CONTINUOUS
 10
95.1424259317
 20
144.1102322807
 40
38.9324584851
100
AcDbArc
 50
31.5133899411
 51
31.6337407585
  0
ARC
  5
5CB
100
AcDbEntity
  8
RACCORDO
100
AcDbCircle
 62
250
  6
CONTINUOUS
 10
96.8213617377
 20
145.6246971218
 40
36.411962137
100
AcDbArc
 50
30.7881232264
 51
30.9044671011
  0
ARC
  5
5CC
100
AcDbEntity
  8
RACCORDO
100
AcDbCircle
 62
250
  6
CONTINUOUS
 10
113.4976710408
 20
154.4564956769
 40
20.9658584512
100
AcDbArc
 50
335.9754381124
 51
336.8023886014
  0
ARC
  5
5CD
100
AcDbEntity
  8
RACCORDO
100
AcDbCircle
 62
250
  6
CONTINUOUS
 10
115.2094461675
 20
154.42139316
 40
20.3061686289
100
AcDbArc
 50
334.2138428362
 51
335.0982460053
  0
ARC
  5
5CE
100
AcDbEntity
  8
RACCORDO
100
AcDbCircle
 62
250
  6
CONTINUOUS
 10
117.8915320736
 20
166.1723356234
 40
1.4997727822
100
AcDbArc
 50
90.0001238459
 51
179.9998761537
  0
ARC
  5
5CF
100
AcDbEntity
  8
RACCORDO
100
AcDbCircle
 62
7
  6
CONTINUOUS
 10
117.842502615
 20
166.221365082
 40
1.4996769576
100
AcDbArc
 50
89.9965191715
 51
180.0034808285
  0
ARC
  5
5D0
100
AcDbEntity
  8
RACCORDO
100
AcDbCircle
 62
250
  6
CONTINUOUS
 10
117.8914578218
 20
166.1724098752
 40
1.2997284671
100
AcDbArc
 50
89.9968696785
 51
180.0031303209
  0
ARC
  5
5D1
100
AcDbEntity
  8
RACCORDO
100
AcDbCircle
 62
250
  6
CONTINUOUS
 10
127.0928221807
 20
151.6710455163
 40
8.1948313742
100
AcDbArc
 50
180.0
 51
314.0072936834
  0
ARC
  5
5D2
100
AcDbEntity
  8
RACCORDO
100
AcDbCircle
 62
250
  6
CONTINUOUS
 10
127.0928221807
 20
151.6710455163
 40
7.9948999092
100
AcDbArc
 50
180.0
 51
314.0072936937
  0
ARC
  5
5D3
100
AcDbEntity
  8
RACCORDO
100
AcDbCircle
 62
250
  6
CONTINUOUS
 10
127.0928221807
 20
151.6710455163
 40
7.8846448516
100
AcDbArc
 50
180.0
 51
316.0409772862
  0
ARC
  5
5D4
100
AcDbEntity
  8
RACCORDO
100
AcDbCircle
 62
250
  6
CONTINUOUS
 10
127.0928221807
 20
151.6710455163
 40
7.6847133866
100
AcDbArc
 50
180.0
 51
316.0409772894
  0
ARC
  5
5D5
100
AcDbEntity
  8
RACCORDO
100
AcDbCircle
 62
250
  6
CONTINUOUS
 10
127.0928221807
 20
152.7710455163
 40
5.3087732309
100
AcDbArc
 50
104.2723535915
 51
75.7275778858
  0
ARC
  5
5D6
100
AcDbEntity
  8
RACCORDO
100
AcDbCircle
 62
250
  6
CONTINUOUS
 10
127.0928221807
 20
152.7710455163
 40
5.0088189223
100
AcDbArc
 50
104.2722851543
 51
75.7277144678
  0
ARC
  5
5D7
100
AcDbEntity
  8
RACCORDO
100
AcDbCircle
 62
250
  6
CONTINUOUS
 10
127.0928221807
 20
152.7710455163
 40
5.0034300864
100
AcDbArc
 50
104.2270264953
 51
75.7729735047
  0
ARC
  5
5D8
100
AcDbEntity
  8
RACCORDO
100
AcDbCircle
 62
250
  6
CONTINUOUS
 10
127.0928221807
 20
152.7710455163
 40
4.8034605474
100
AcDbArc
 50
104.2270264953
 51
75.7729735047
  0
CIRCLE
  5
5D9
100
AcDbEntity
  8
0
100
AcDbCircle
 62
7
  6
CONTINUOUS
 10
127.0928221807
 20
152.7710455163
 40
4.5
  0
ARC
  5
5DA
100
AcDbEntity
  8
RACCORDO
100
AcDbCircle
 62
250
  6
CONTINUOUS
 10
132.9944441367
 20
145.5610171771
 40
0.4998836041
100
AcDbArc
 50
3.0866683225
 51
133.9852703763
  0
ARC
  5
5DB
100
AcDbEntity
  8
RACCORDO
100
AcDbCircle
 62
250
  6
CONTINUOUS
 10
127.0928221807
 20
156.6710455163
 40
8.1948313742
100
AcDbArc
 50
10.1706231493
 51
180.0
  0
ARC
  5
5DC
100
AcDbEntity
  8
RACCORDO
100
AcDbCircle
 62
250
  6
CONTINUOUS
 10
127.0928221807
 20
156.6710455163
 40
7.9948999092
100
AcDbArc
 50
10.1706231493
 51
180.0
  0
ARC
  5
5DD
100
AcDbEntity
  8
RACCORDO
100
AcDbCircle
 62
250
  6
CONTINUOUS
 10
127.0928221807
 20
156.6710455163
 40
7.8846448516
100
AcDbArc
 50
99.8057656159
 51
180.0
  0
ARC
  5
5DE
100
AcDbEntity
  8
RACCORDO
100
AcDbCircle
 62
250
  6
CONTINUOUS
 10
127.0928221807
 20
156.6710455163
 40
7.8846448516
100
AcDbArc
 50
10.3058173343
 51
80.1942343841
  0
ARC
  5
5DF
100
AcDbEntity
  8
RACCORDO
100
AcDbCircle
 62
250
  6
CONTINUOUS
 10
127.0928221807
 20
156.6710455163
 40
7.6847133866
100
AcDbArc
 50
10.3058173343
 51
80.1942343841
  0
ARC
  5
5E0
100
AcDbEntity
  8
RACCORDO
100
AcDbCircle
 62
250
  6
CONTINUOUS
 10
127.0928221807
 20
156.6710455163
 40
7.6847133866
100
AcDbArc
 50
99.8057656159
 51
180.0
  0
ARC
  5
5E1
100
AcDbEntity
  8
RACCORDO
100
AcDbCircle
 62
250
  6
CONTINUOUS
 10
127.8961737861
 20
161.7512271834
 40
1.2011891877
100
AcDbArc
 50
80.8117230608
 51
89.994803554
  0
ARC
  5
5E2
100
AcDbEntity
  8
RACCORDO
100
AcDbCircle
 62
250
  6
CONTINUOUS
 10
126.2893694686
 20
161.752494335
 40
1.1999220312
100
AcDbArc
 50
90.0003741289
 51
99.1931736464
  0
ARC
  5
5E3
100
AcDbEntity
  8
RACCORDO
100
AcDbCircle
 62
250
  6
CONTINUOUS
 10
136.5935138151
 20
158.1718656842
 40
0.7008179807
100
AcDbArc
 50
269.9930743055
 51
326.294299128
  0
ARC
  5
5E4
100
AcDbEntity
  8
RACCORDO
100
AcDbCircle
 62
250
  6
CONTINUOUS
 10
135.3424185589
 20
158.1712356182
 40
0.7001849696
100
AcDbArc
 50
190.3154043479
 51
270.0079458435
  0
ARC
  5
5E5
100
AcDbEntity
  8
RACCORDO
100
AcDbCircle
 62
7
  6
CONTINUOUS
 10
136.5930951459
 20
158.1749964563
 40
0.5039510507
100
AcDbArc
 50
270.0379678147
 51
285.9231541129
  0
ARC
  5
5E6
100
AcDbEntity
  8
RACCORDO
100
AcDbCircle
 62
250
  6
CONTINUOUS
 10
136.59372746
 20
158.1718369576
 40
0.5007393731
100
AcDbArc
 50
285.9527608007
 51
326.2782264991
  0
ARC
  5
5E7
100
AcDbEntity
  8
RACCORDO
100
AcDbCircle
 62
7
  6
CONTINUOUS
 10
135.3424986141
 20
158.1715541893
 40
0.5005086733
100
AcDbArc
 50
244.2829866993
 51
270.0019518906
  0
ARC
  5
5E8
100
AcDbEntity
  8
RACCORDO
100
AcDbCircle
 62
250
  6
CONTINUOUS
 10
136.4174811429
 20
158.1711144399
 40
0.5000558892
100
AcDbArc
 50
283.6578443101
 51
326.5940604367
  0
ARC
  5
5E9
100
AcDbEntity
  8
RACCORDO
100
AcDbCircle
 62
250
  6
CONTINUOUS
 10
135.3422294028
 20
158.17117471
 40
0.5000499702
100
AcDbArc
 50
190.3162523758
 51
244.2829866993
  0
ARC
  5
5EA
100
AcDbEntity
  8
RACCORDO
100
AcDbCircle
 62
7
  6
CONTINUOUS
 10
135.4541457024
 20
158.1710407901
 40
0.499965563
100
AcDbArc
 50
255.3496108937
 51
260.6568907966
  0
ARC
  5
5EB
100
AcDbEntity
  8
RACCORDO
100
AcDbCircle
 62
250
  6
CONTINUOUS
 10
125.7894573753
 20
157.9117573779
 40
0.4999042583
100
AcDbArc
 50
284.2252794853
 51
0.00174701
  0
ARC
  5
5EC
100
AcDbEntity
  8
RACCORDO
100
AcDbCircle
 62
250
  6
CONTINUOUS
 10
128.396186273
 20
157.911756823
 40
0.4999035451
100
AcDbArc
 50
179.9981893872
 51
255.7747841175
  0
ARC
  5
5ED
100
AcDbEntity
  8
RACCORDO
100
AcDbCircle
 62
250
  6
CONTINUOUS
 10
135.4541471831
 20
158.1708427011
 40
0.4997682594
100
AcDbArc
 50
190.1685038815
 51
255.3496108937
  0
ARC
  5
5EE
100
AcDbEntity
  8
RACCORDO
100
AcDbCircle
 62
250
  6
CONTINUOUS
 10
136.4174704985
 20
158.1713763845
 40
0.300330871
100
AcDbArc
 50
269.9921718129
 51
326.5653042505
  0
ARC
  5
5EF
100
AcDbEntity
  8
RACCORDO
100
AcDbCircle
 62
250
  6
CONTINUOUS
 10
135.4542328836
 20
158.1711251752
 40
0.300077347
100
AcDbArc
 50
190.1799982957
 51
270.0082015254
  0
ARC
  5
5F0
100
AcDbEntity
  8
RACCORDO
100
AcDbCircle
 62
250
  6
CONTINUOUS
 10
125.7839453798
 20
157.9160444875
 40
0.3000578894
100
AcDbArc
 50
284.2876608667
 51
359.984624362
  0
ARC
  5
5F1
100
AcDbEntity
  8
RACCORDO
100
AcDbCircle
 62
250
  6
CONTINUOUS
 10
128.4016989816
 20
157.9160444875
 40
0.3000578894
100
AcDbArc
 50
180.015375638
 51
255.7123391333
  0
ARC
  5
5F2
100
AcDbEntity
  8
RACCORDO
100
AcDbCircle
 62
250
  6
CONTINUOUS
 10
125.7895261097
 20
157.9117038953
 40
0.2998654118
100
AcDbArc
 50
284.2138948492
 51
0.0131317898
  0
ARC
  5
5F3
100
AcDbEntity
  8
RACCORDO
100
AcDbCircle
 62
250
  6
CONTINUOUS
 10
128.3961177466
 20
157.9117035029
 40
0.2998649862
100
AcDbArc
 50
179.9867932721
 51
255.7861803394
  0
ARC
  5
5F4
100
AcDbEntity
  8
RACCORDO
100
AcDbCircle
 62
250
  6
CONTINUOUS
 10
125.8839273597
 20
164.2625320917
 40
0.200079501
100
AcDbArc
 50
0.0477628395
 51
99.0094415722
  0
ARC
  5
5F5
100
AcDbEntity
  8
RACCORDO
100
AcDbCircle
 62
250
  6
CONTINUOUS
 10
128.3017170014
 20
164.2625320931
 40
0.2000795002
100
AcDbArc
 50
80.9905582502
 51
179.9522375907
  0
ARC
  5
5F6
100
AcDbEntity
  8
RACCORDO
100
AcDbCircle
 62
250
  6
CONTINUOUS
 10
153.8428221807
 20
146.6710455163
 40
20.5778992156
100
AcDbArc
 50
314.2997813515
 51
60.0761270824
  0
ARC
  5
5F7
100
AcDbEntity
  8
RACCORDO
100
AcDbCircle
 62
250
  6
CONTINUOUS
 10
153.8428221807
 20
146.6710455163
 40
20.5778992156
100
AcDbArc
 50
119.9238729176
 51
146.5762655003
  0
ARC
  5
5F8
100
AcDbEntity
  8
RACCORDO
100
AcDbCircle
 62
250
  6
CONTINUOUS
 10
153.8428221807
 20
146.6710455163
 40
20.5778992156
100
AcDbArc
 50
183.0467608584
 51
225.7002186482
  0
ARC
  5
5F9
100
AcDbEntity
  8
RACCORDO
100
AcDbCircle
 62
250
  6
CONTINUOUS
 10
153.8428221807
 20
146.6710455163
 40
20.4696448302
100
AcDbArc
 50
306.1787431746
 51
311.4310632341
  0
ARC
  5
5FA
100
AcDbEntity
  8
RACCORDO
100
AcDbCircle
 62
250
  6
CONTINUOUS
 10
153.8428221807
 20
146.6710455163
 40
20.4696448302
100
AcDbArc
 50
228.5689395421
 51
233.8212568254
  0
ARC
  5
5FB
100
AcDbEntity
  8
RACCORDO
100
AcDbCircle
 62
250
  6
CONTINUOUS
 10
153.8428221807
 20
146.6710455163
 40
20.3780210502
100
AcDbArc
 50
314.2997813515
 51
60.0761270824
  0
ARC
  5
5FC
100
AcDbEntity
  8
RACCORDO
100
AcDbCircle
 62
250
  6
CONTINUOUS
 10
153.8428221807
 20
146.6710455163
 40
20.3780210502
100
AcDbArc
 50
183.0467608568
 51
225.7002186482
  0
ARC
  5
5FD
100
AcDbEntity
  8
RACCORDO
100
AcDbCircle
 62
250
  6
CONTINUOUS
 10
153.8428221807
 20
146.6710455163
 40
20.3780210502
100
AcDbArc
 50
119.9238729176
 51
146.5762655003
  0
ARC
  5
5FE
100
AcDbEntity
  8
RACCORDO
100
AcDbCircle
 62
250
  6
CONTINUOUS
 10
153.8428221807
 20
146.6710455163
 40
20.2697666648
100
AcDbArc
 50
306.1787431745
 51
311.4310618249
  0
ARC
  5
5FF
100
AcDbEntity
  8
RACCORDO
100
AcDbCircle
 62
250
  6
CONTINUOUS
 10
153.8428221807
 20
146.6710455163
 40
20.2697666648
100
AcDbArc
 50
228.5689392554
 51
233.8212568254
  0
ARC
  5
600
100
AcDbEntity
  8
RACCORDO
100
AcDbCircle
 62
250
  6
CONTINUOUS
 10
153.8428221807
 20
146.6710455163
 40
20.2308663315
100
AcDbArc
 50
306.0263177516
 51
59.9621306286
  0
ARC
  5
601
100
AcDbEntity
  8
RACCORDO
100
AcDbCircle
 62
250
  6
CONTINUOUS
 10
153.8428221807
 20
146.6710455163
 40
20.2308663315
100
AcDbArc
 50
182.2658163461
 51
233.9736822484
  0
ARC
  5
602
100
AcDbEntity
  8
RACCORDO
100
AcDbCircle
 62
250
  6
CONTINUOUS
 10
153.8428221807
 20
146.6710455163
 40
20.2308663315
100
AcDbArc
 50
120.0378693714
 51
146.3074300849
  0
ARC
  5
603
100
AcDbEntity
  8
RACCORDO
100
AcDbCircle
 62
250
  6
CONTINUOUS
 10
153.8428221807
 20
146.6710455163
 40
20.0309881661
100
AcDbArc
 50
120.0378693714
 51
146.307430085
  0
ARC
  5
604
100
AcDbEntity
  8
RACCORDO
100
AcDbCircle
 62
250
  6
CONTINUOUS
 10
153.8428221807
 20
146.6710455163
 40
20.0309881661
100
AcDbArc
 50
182.2658163451
 51
233.9736822484
  0
ARC
  5
605
100
AcDbEntity
  8
RACCORDO
100
AcDbCircle
 62
250
  6
CONTINUOUS
 10
153.8428221807
 20
146.6710455163
 40
20.0309881661
100
AcDbArc
 50
306.0263177516
 51
59.9621306286
  0
ARC
  5
606
100
AcDbEntity
  8
RACCORDO
100
AcDbCircle
 62
250
  6
CONTINUOUS
 10
153.8428221807
 20
146.6710455163
 40
19.5
100
AcDbArc
 50
238.3513873405
 51
246.0094550285
  0
ARC
  5
607
100
AcDbEntity
  8
RACCORDO
100
AcDbCircle
 62
250
  6
CONTINUOUS
 10
153.8428221807
 20
146.6710455163
 40
19.5
100
AcDbArc
 50
293.9905449715
 51
301.6486126595
  0
ARC
  5
608
100
AcDbEntity
  8
RACCORDO
100
AcDbCircle
 62
7
  6
CONTINUOUS
 10
153.8428221807
 20
146.6710455163
 40
19.3
100
AcDbArc
 50
293.9905449715
 51
301.6486126595
  0
ARC
  5
609
100
AcDbEntity
  8
RACCORDO
100
AcDbCircle
 62
7
  6
CONTINUOUS
 10
153.8428221807
 20
146.6710455163
 40
19.3
100
AcDbArc
 50
238.3513873405
 51
246.0094550285
  0
ARC
  5
60A
100
AcDbEntity
  8
RACCORDO
100
AcDbCircle
 62
250
  6
CONTINUOUS
 10
153.8428221807
 20
146.6710455163
 40
19.1
100
AcDbArc
 50
238.3513873405
 51
246.0094550285
  0
ARC
  5
60B
100
AcDbEntity
  8
RACCORDO
100
AcDbCircle
 62
250
  6
CONTINUOUS
 10
153.8428221807
 20
146.6710455163
 40
19.1
100
AcDbArc
 50
293.9905449715
 51
301.6486126595
  0
ARC
  5
60C
100
AcDbEntity
  8
RACCORDO
100
AcDbCircle
 62
250
  6
CONTINUOUS
 10
153.8428221807
 20
146.6710455163
 40
18.6037732946
100
AcDbArc
 50
74.5084926626
 51
105.4915073374
  0
ARC
  5
60D
100
AcDbEntity
  8
RACCORDO
100
AcDbCircle
 62
250
  6
CONTINUOUS
 10
153.8428221807
 20
146.6710455163
 40
18.4955189092
100
AcDbArc
 50
254.8179597731
 51
256.7315850113
  0
ARC
  5
60E
100
AcDbEntity
  8
RACCORDO
100
AcDbCircle
 62
250
  6
CONTINUOUS
 10
153.8428221807
 20
146.6710455163
 40
18.4955189092
100
AcDbArc
 50
283.249132937
 51
285.1820402269
  0
ARC
  5
60F
100
AcDbEntity
  8
RACCORDO
100
AcDbCircle
 62
250
  6
CONTINUOUS
 10
153.8428221807
 20
146.6710455163
 40
18.4038951292
100
AcDbArc
 50
74.5084926626
 51
105.4915073374
  0
ARC
  5
610
100
AcDbEntity
  8
RACCORDO
100
AcDbCircle
 62
250
  6
CONTINUOUS
 10
153.8428221807
 20
146.6710455163
 40
18.2956407438
100
AcDbArc
 50
254.734762492
 51
259.7015804939
  0
ARC
  5
611
100
AcDbEntity
  8
RACCORDO
100
AcDbCircle
 62
250
  6
CONTINUOUS
 10
153.8428221807
 20
146.6710455163
 40
18.2956407438
100
AcDbArc
 50
280.2889070055
 51
285.265237508
  0
ARC
  5
612
100
AcDbEntity
  8
RACCORDO
100
AcDbCircle
 62
7
  6
CONTINUOUS
 10
153.8428221807
 20
146.6710455163
 40
18.25
100
AcDbArc
 50
107.7524216991
 51
252.9725129309
  0
ARC
  5
613
100
AcDbEntity
  8
RACCORDO
100
AcDbCircle
 62
7
  6
CONTINUOUS
 10
153.8428221807
 20
146.6710455163
 40
18.25
100
AcDbArc
 50
287.0274870691
 51
72.2475783009
  0
CIRCLE
  5
614
100
AcDbEntity
  8
RACCORDO
100
AcDbCircle
 62
250
  6
CONTINUOUS
 10
153.8428221807
 20
146.6710455163
 40
18.2078513332
  0
CIRCLE
  5
615
100
AcDbEntity
  8
RACCORDO
100
AcDbCircle
 62
250
  6
CONTINUOUS
 10
153.8428221807
 20
146.6710455163
 40
18.0079731678
  0
CIRCLE
  5
616
100
AcDbEntity
  8
RACCORDO
100
AcDbCircle
 62
250
  6
CONTINUOUS
 10
153.8428221807
 20
146.6710455163
 40
16.1317358206
  0
CIRCLE
  5
617
100
AcDbEntity
  8
RACCORDO
100
AcDbCircle
 62
250
  6
CONTINUOUS
 10
153.8428221807
 20
146.6710455163
 40
16.0333918883
  0
CIRCLE
  5
618
100
AcDbEntity
  8
RACCORDO
100
AcDbCircle
 62
250
  6
CONTINUOUS
 10
153.8428221807
 20
146.6710455163
 40
13.8785872633
  0
CIRCLE
  5
619
100
AcDbEntity
  8
RACCORDO
100
AcDbCircle
 62
250
  6
CONTINUOUS
 10
153.8428221807
 20
146.6710455163
 40
13.6753360498
  0
CIRCLE
  5
61A
100
AcDbEntity
  8
RACCORDO
100
AcDbCircle
 62
250
  6
CONTINUOUS
 10
153.8428221807
 20
146.6710455163
 40
13.608575216
  0
CIRCLE
  5
61B
100
AcDbEntity
  8
DRAFT
100
AcDbCircle
 62
7
  6
CONTINUOUS
 10
153.8428221807
 20
146.6710455163
 40
13.5
  0
CIRCLE
  5
61C
100
AcDbEntity
  8
RACCORDO
100
AcDbCircle
 62
250
  6
CONTINUOUS
 10
153.8428221807
 20
146.6710455163
 40
13.4368933992
  0
CIRCLE
  5
61D
100
AcDbEntity
  8
RACCORDO
100
AcDbCircle
 62
250
  6
CONTINUOUS
 10
153.8428221807
 20
146.6710455163
 40
13.2612977288
  0
CIRCLE
  5
61E
100
AcDbEntity
  8
DRAFT
100
AcDbCircle
 62
7
  6
CONTINUOUS
 10
153.8428221807
 20
146.6710455163
 40
12.4
  0
CIRCLE
  5
61F
100
AcDbEntity
  8
0
100
AcDbCircle
 62
7
  6
CONTINUOUS
 10
153.8428221807
 20
146.6710455163
 40
11.7052176939
  0
ARC
  5
620
100
AcDbEntity
  8
RACCORDO
100
AcDbCircle
 62
250
  6
CONTINUOUS
 10
143.9265255219
 20
163.8994303135
 40
0.6995144186
100
AcDbArc
 50
89.9987050446
 51
119.9251678731
  0
ARC
  5
621
100
AcDbEntity
  8
RACCORDO
100
AcDbCircle
 62
250
  6
CONTINUOUS
 10
143.9660019825
 20
163.7520034831
 40
0.4999083679
100
AcDbArc
 50
90.0065484476
 51
120.0313209237
  0
ARC
  5
622
100
AcDbEntity
  8
RACCORDO
100
AcDbCircle
 62
250
  6
CONTINUOUS
 10
143.9264630927
 20
163.8996639233
 40
0.4994026494
100
AcDbArc
 50
89.9910237325
 51
119.932849185
  0
ARC
  5
623
100
AcDbEntity
  8
RACCORDO
100
AcDbCircle
 62
250
  6
CONTINUOUS
 10
143.9659381592
 20
163.7522413607
 40
0.2997923218
100
AcDbArc
 50
89.9987218317
 51
120.0391475399
  0
ARC
  5
624
100
AcDbEntity
  8
RACCORDO
100
AcDbCircle
 62
250
  6
CONTINUOUS
 10
148.8736808647
 20
164.6000950071
 40
0.2010285014
100
AcDbArc
 50
270.0445928153
 51
285.4469145242
  0
ARC
  5
625
100
AcDbEntity
  8
RACCORDO
100
AcDbCircle
 62
250
  6
CONTINUOUS
 10
148.8937950893
 20
164.4525111166
 40
0.2005992931
100
AcDbArc
 50
270.0281284271
 51
285.525393765
  0
ARC
  5
626
100
AcDbEntity
  8
RACCORDO
100
AcDbCircle
 62
250
  6
CONTINUOUS
 10
148.9888313282
 20
207.3171862272
 40
79.4484588934
100
AcDbArc
 50
284.2827514055
 51
284.4202253737
  0
ARC
  5
627
100
AcDbEntity
  8
RACCORDO
100
AcDbCircle
 62
250
  6
CONTINUOUS
 10
150.3133449041
 20
207.6925098097
 40
77.6642432771
100
AcDbArc
 50
283.0844438699
 51
283.2204947811
  0
ARC
  5
628
100
AcDbEntity
  8
RACCORDO
100
AcDbCircle
 62
250
  6
CONTINUOUS
 10
189.7941124249
 20
55.1697552721
 40
1.4997727822
100
AcDbArc
 50
270.0001186067
 51
359.9998813929
  0
ARC
  5
629
100
AcDbEntity
  8
RACCORDO
100
AcDbCircle
 62
7
  6
CONTINUOUS
 10
189.8431416035
 20
55.1207260935
 40
1.4996769576
100
AcDbArc
 50
269.996524634
 51
0.003475366
  0
ARC
  5
62A
100
AcDbEntity
  8
RACCORDO
100
AcDbCircle
 62
250
  6
CONTINUOUS
 10
189.7941866614
 20
55.1696810357
 40
1.2997284671
100
AcDbArc
 50
269.9968643123
 51
0.0031356871
  0
ARC
  5
62B
100
AcDbEntity
  8
RACCORDO
100
AcDbCircle
 62
250
  6
CONTINUOUS
 10
186.9378417072
 20
86.7160650428
 40
0.3998109851
100
AcDbArc
 50
359.9926795587
 51
90.0073204425
  0
ARC
  5
62C
100
AcDbEntity
  8
RACCORDO
100
AcDbCircle
 62
250
  6
CONTINUOUS
 10
186.9378433259
 20
58.6260243711
 40
0.3998090575
100
AcDbArc
 50
269.9924475495
 51
0.0075524497
  0
ARC
  5
62D
100
AcDbEntity
  8
RACCORDO
100
AcDbCircle
 62
250
  6
CONTINUOUS
 10
188.1518229234
 20
57.0055688776
 40
0.3998088781
100
AcDbArc
 50
269.9924111064
 51
0.0075888977
  0
ARC
  5
62E
100
AcDbEntity
  8
RACCORDO
100
AcDbCircle
 62
250
  6
CONTINUOUS
 10
186.9378437609
 20
88.6260239362
 40
0.3998086559
100
AcDbArc
 50
269.992385211
 51
0.0076147855
  0
ARC
  5
62F
100
AcDbEntity
  8
RACCORDO
100
AcDbCircle
 62
250
  6
CONTINUOUS
 10
188.0413414541
 20
57.1160503468
 40
0.2001062644
100
AcDbArc
 50
270.0496655181
 51
359.9503344819
  0
ARC
  5
630
100
AcDbEntity
  8
RACCORDO
100
AcDbCircle
 62
250
  6
CONTINUOUS
 10
186.8273621109
 20
86.6055854465
 40
0.2001062644
100
AcDbArc
 50
0.0496655203
 51
89.9503344797
  0
ARC
  5
631
100
AcDbEntity
  8
RACCORDO
100
AcDbCircle
 62
250
  6
CONTINUOUS
 10
186.8273621109
 20
58.7365055861
 40
0.2001062644
100
AcDbArc
 50
270.0496655332
 51
359.9503344669
  0
ARC
  5
632
100
AcDbEntity
  8
RACCORDO
100
AcDbCircle
 62
250
  6
CONTINUOUS
 10
186.8273621109
 20
88.7365055861
 40
0.2001062644
100
AcDbArc
 50
270.0496655257
 51
359.9503344742
  0
ARC
  5
633
100
AcDbEntity
  8
RACCORDO
100
AcDbCircle
 62
250
  6
CONTINUOUS
 10
186.9380021364
 20
86.716225472
 40
0.1997193789
100
AcDbArc
 50
359.9393214852
 51
90.0606785365
  0
ARC
  5
634
100
AcDbEntity
  8
RACCORDO
100
AcDbCircle
 62
250
  6
CONTINUOUS
 10
188.1519820651
 20
57.0054097357
 40
0.1997187377
100
AcDbArc
 50
269.9391533273
 51
0.0608467253
  0
ARC
  5
635
100
AcDbEntity
  8
RACCORDO
100
AcDbCircle
 62
250
  6
CONTINUOUS
 10
186.93800869
 20
58.625859007
 40
0.1997113246
100
AcDbArc
 50
269.9374393163
 51
0.0625606805
  0
ARC
  5
636
100
AcDbEntity
  8
RACCORDO
100
AcDbCircle
 62
250
  6
CONTINUOUS
 10
186.938008936
 20
88.6258587611
 40
0.1997110963
100
AcDbArc
 50
269.937368673
 51
0.0626313134
  0
ARC
  5
637
100
AcDbEntity
  8
RACCORDO
100
AcDbCircle
 62
250
  6
CONTINUOUS
 10
168.773101573
 20
131.3712949485
 40
0.9994488144
100
AcDbArc
 50
134.2994598915
 51
270.0527900679
  0
ARC
  5
638
100
AcDbEntity
  8
RACCORDO
100
AcDbCircle
 62
250
  6
CONTINUOUS
 10
165.6894080336
 20
130.472214527
 40
0.4011690119
100
AcDbArc
 50
269.995543082
 51
306.1717930355
  0
ARC
  5
639
100
AcDbEntity
  8
RACCORDO
100
AcDbCircle
 62
250
  6
CONTINUOUS
 10
164.0746353143
 20
130.0710455163
 40
0.4
100
AcDbArc
 50
90.0
 51
121.6486126595
  0
ARC
  5
63A
100
AcDbEntity
  8
RACCORDO
100
AcDbCircle
 62
250
  6
CONTINUOUS
 10
161.6086125461
 20
129.2210455163
 40
0.4
100
AcDbArc
 50
270.0
 51
293.9905449715
  0
ARC
  5
63B
100
AcDbEntity
  8
RACCORDO
100
AcDbCircle
 62
7
  6
CONTINUOUS
 10
165.6893318706
 20
130.4735885066
 40
0.2025429953
100
AcDbArc
 50
270.0127175136
 51
281.1733225914
  0
ARC
  5
63C
100
AcDbEntity
  8
RACCORDO
100
AcDbCircle
 62
250
  6
CONTINUOUS
 10
165.6893749055
 20
130.4730937418
 40
0.2020492764
100
AcDbArc
 50
281.1733225914
 51
284.3082261575
  0
ARC
  5
63D
100
AcDbEntity
  8
RACCORDO
100
AcDbCircle
 62
7
  6
CONTINUOUS
 10
161.6086125461
 20
129.2210455163
 40
0.2
100
AcDbArc
 50
270.0
 51
293.9905449715
  0
ARC
  5
63E
100
AcDbEntity
  8
RACCORDO
100
AcDbCircle
 62
7
  6
CONTINUOUS
 10
164.0746353143
 20
130.0710455163
 40
0.2
100
AcDbArc
 50
90.0
 51
121.6486126595
  0
ARC
  5
63F
100
AcDbEntity
  8
RACCORDO
100
AcDbCircle
 62
250
  6
CONTINUOUS
 10
165.6241744845
 20
130.47043956
 40
0.1993940439
100
AcDbArc
 50
270.0027414846
 51
306.1309455656
  0
ARC
  5
640
100
AcDbEntity
  8
RACCORDO
100
AcDbCircle
 62
250
  6
CONTINUOUS
 10
178.2507718518
 20
99.9630958324
 40
1.5676080884
100
AcDbArc
 50
269.9179505464
 51
0.0817048919
  0
ARC
  5
641
100
AcDbEntity
  8
RACCORDO
100
AcDbCircle
 62
250
  6
CONTINUOUS
 10
178.2507994226
 20
101.2790227451
 40
1.5675734412
100
AcDbArc
 50
359.9169419132
 51
90.082713531
  0
ARC
  5
642
100
AcDbEntity
  8
RACCORDO
100
AcDbCircle
 62
250
  6
CONTINUOUS
 10
176.3936156091
 20
94.1202520879
 40
0.6998567264
100
AcDbArc
 50
269.9969986322
 51
0.0030013678
  0
ARC
  5
643
100
AcDbEntity
  8
RACCORDO
100
AcDbCircle
 62
250
  6
CONTINUOUS
 10
176.3462699351
 20
94.167597762
 40
0.4999823355
100
AcDbArc
 50
270.0067020646
 51
359.9932979354
  0
ARC
  5
644
100
AcDbEntity
  8
RACCORDO
100
AcDbCircle
 62
250
  6
CONTINUOUS
 10
176.3936901336
 20
94.1201775635
 40
0.4998116371
100
AcDbArc
 50
269.987254075
 51
0.0127459003
  0
ARC
  5
645
100
AcDbEntity
  8
RACCORDO
100
AcDbCircle
 62
250
  6
CONTINUOUS
 10
175.1428221807
 20
95.8710455163
 40
0.4
100
AcDbArc
 50
270.0
 51
360.0
  0
ARC
  5
646
100
AcDbEntity
  8
RACCORDO
100
AcDbCircle
 62
250
  6
CONTINUOUS
 10
176.3463450333
 20
94.1675226637
 40
0.2999376952
100
AcDbArc
 50
269.9968263462
 51
0.0031736538
  0
ARC
  5
647
100
AcDbEntity
  8
RACCORDO
100
AcDbCircle
 62
7
  6
CONTINUOUS
 10
175.1428221807
 20
95.8710455163
 40
0.2
100
AcDbArc
 50
270.0
 51
360.0
  0
ARC
  5
648
100
AcDbEntity
  8
RACCORDO
100
AcDbCircle
 62
250
  6
CONTINUOUS
 10
177.346139514
 20
123.8177281831
 40
0.6998567868
100
AcDbArc
 50
89.997003576
 51
180.002996424
  0
ARC
  5
649
100
AcDbEntity
  8
RACCORDO
100
AcDbCircle
 62
250
  6
CONTINUOUS
 10
187.8936156091
 20
124.7702520879
 40
0.6998567264
100
AcDbArc
 50
269.9969986322
 51
0.0030013678
  0
ARC
  5
64A
100
AcDbEntity
  8
RACCORDO
100
AcDbCircle
 62
250
  6
CONTINUOUS
 10
187.8936156091
 20
129.8718389447
 40
0.6998567264
100
AcDbArc
 50
359.9969986322
 51
90.0030013678
  0
ARC
  5
64B
100
AcDbEntity
  8
RACCORDO
100
AcDbCircle
 62
250
  6
CONTINUOUS
 10
177.39348525
 20
123.770382447
 40
0.4999824579
100
AcDbArc
 50
90.0067160905
 51
179.9932839095
  0
ARC
  5
64C
100
AcDbEntity
  8
RACCORDO
100
AcDbCircle
 62
250
  6
CONTINUOUS
 10
187.8462699351
 20
129.8244932707
 40
0.4999823355
100
AcDbArc
 50
0.0067020646
 51
89.9932979354
  0
ARC
  5
64D
100
AcDbEntity
  8
RACCORDO
100
AcDbCircle
 62
250
  6
CONTINUOUS
 10
187.8462699351
 20
124.817597762
 40
0.4999823355
100
AcDbArc
 50
270.0067020646
 51
359.9932979354
  0
ARC
  5
64E
100
AcDbEntity
  8
RACCORDO
100
AcDbCircle
 62
250
  6
CONTINUOUS
 10
177.3460649769
 20
123.8178027201
 40
0.4998116867
100
AcDbArc
 50
89.9872597795
 51
180.0127402206
  0
ARC
  5
64F
100
AcDbEntity
  8
RACCORDO
100
AcDbCircle
 62
250
  6
CONTINUOUS
 10
187.8936901792
 20
129.8719135149
 40
0.4998116371
100
AcDbArc
 50
359.987248835
 51
90.0127511403
  0
ARC
  5
650
100
AcDbEntity
  8
RACCORDO
100
AcDbCircle
 62
250
  6
CONTINUOUS
 10
187.8936901336
 20
124.7701775635
 40
0.4998116371
100
AcDbArc
 50
269.987254075
 51
0.0127459003
  0
ARC
  5
651
100
AcDbEntity
  8
RACCORDO
100
AcDbCircle
 62
250
  6
CONTINUOUS
 10
175.1428221807
 20
119.4710455163
 40
0.4
100
AcDbArc
 50
0.0
 51
90.0
  0
ARC
  5
652
100
AcDbEntity
  8
RACCORDO
100
AcDbCircle
 62
250
  6
CONTINUOUS
 10
188.1518229234
 20
123.436522155
 40
0.3998088781
100
AcDbArc
 50
359.9924111064
 51
90.0075888977
  0
ARC
  5
653
100
AcDbEntity
  8
RACCORDO
100
AcDbCircle
 62
250
  6
CONTINUOUS
 10
187.2273453613
 20
123.4365223357
 40
0.3998086559
100
AcDbArc
 50
89.9923852145
 51
180.007614789
  0
ARC
  5
654
100
AcDbEntity
  8
RACCORDO
100
AcDbCircle
 62
250
  6
CONTINUOUS
 10
177.3934101028
 20
123.7704575942
 40
0.2999377686
100
AcDbArc
 50
89.9968403678
 51
180.0031596322
  0
ARC
  5
655
100
AcDbEntity
  8
RACCORDO
100
AcDbCircle
 62
250
  6
CONTINUOUS
 10
187.8463450333
 20
129.8245683689
 40
0.2999376952
100
AcDbArc
 50
359.9968263462
 51
90.0031736538
  0
ARC
  5
656
100
AcDbEntity
  8
RACCORDO
100
AcDbCircle
 62
250
  6
CONTINUOUS
 10
187.8463450333
 20
124.8175226637
 40
0.2999376952
100
AcDbArc
 50
269.9968263462
 51
0.0031736538
  0
ARC
  5
657
100
AcDbEntity
  8
RACCORDO
100
AcDbCircle
 62
250
  6
CONTINUOUS
 10
187.3378270112
 20
123.3260406858
 40
0.2001062644
100
AcDbArc
 50
90.0496655161
 51
179.9503344839
  0
ARC
  5
658
100
AcDbEntity
  8
RACCORDO
100
AcDbCircle
 62
250
  6
CONTINUOUS
 10
188.0413414541
 20
123.3260406858
 40
0.2001062644
100
AcDbArc
 50
0.0496655213
 51
89.9503344787
  0
ARC
  5
659
100
AcDbEntity
  8
RACCORDO
100
AcDbCircle
 62
7
  6
CONTINUOUS
 10
175.1428221807
 20
119.4710455163
 40
0.2
100
AcDbArc
 50
0.0
 51
90.0
  0
ARC
  5
65A
100
AcDbEntity
  8
RACCORDO
100
AcDbCircle
 62
250
  6
CONTINUOUS
 10
188.1519820653
 20
123.4366812967
 40
0.1997187377
100
AcDbArc
 50
359.9391533251
 51
90.0608467275
  0
ARC
  5
65B
100
AcDbEntity
  8
RACCORDO
100
AcDbCircle
 62
250
  6
CONTINUOUS
 10
187.2271801862
 20
123.4366875108
 40
0.1997110963
100
AcDbArc
 50
89.9373686866
 51
180.062631327
  0
ARC
  5
65C
100
AcDbEntity
  8
RACCORDO
100
AcDbCircle
 62
250
  6
CONTINUOUS
 10
249.1713872751
 20
101.8382651968
 40
72.2849188892
100
AcDbArc
 50
179.2006607611
 51
180.0689782228
  0
ARC
  5
65D
100
AcDbEntity
  8
RACCORDO
100
AcDbCircle
 62
250
  6
CONTINUOUS
 10
233.3650144143
 20
101.8280226997
 40
56.2785764829
100
AcDbArc
 50
179.0940917119
 51
180.0781688845
  0
ARC
  5
65E
100
AcDbEntity
  8
RACCORDO
100
AcDbCircle
 62
250
  6
CONTINUOUS
 10
159.0432199927
 20
144.1102313196
 40
38.9324603199
100
AcDbArc
 50
148.3662592437
 51
148.4866100554
  0
ARC
  5
65F
100
AcDbEntity
  8
RACCORDO
100
AcDbCircle
 62
250
  6
CONTINUOUS
 10
157.3643925799
 20
145.6246865467
 40
36.4120620097
100
AcDbArc
 50
149.095607223
 51
149.2119510414
  0
ARC
  5
660
100
AcDbEntity
  8
RACCORDO
100
AcDbCircle
 62
250
  6
CONTINUOUS
 10
163.7591195259
 20
163.8994328818
 40
0.6995118503
100
AcDbArc
 50
60.0747759054
 51
90.001351177
  0
ARC
  5
661
100
AcDbEntity
  8
RACCORDO
100
AcDbCircle
 62
250
  6
CONTINUOUS
 10
163.7196445325
 20
163.7520115097
 40
0.4999003411
100
AcDbArc
 50
59.9684323522
 51
89.9936982764
  0
ARC
  5
662
100
AcDbEntity
  8
RACCORDO
100
AcDbCircle
 62
250
  6
CONTINUOUS
 10
163.7591817957
 20
163.8996658952
 40
0.4994006776
100
AcDbArc
 50
60.067090321
 51
90.0090367615
  0
ARC
  5
663
100
AcDbEntity
  8
RACCORDO
100
AcDbCircle
 62
250
  6
CONTINUOUS
 10
163.719707429
 20
163.7522459328
 40
0.2997877497
100
AcDbArc
 50
59.9606179877
 51
90.0015126404
  0
ARC
  5
664
100
AcDbEntity
  8
RACCORDO
100
AcDbCircle
 62
250
  6
CONTINUOUS
 10
158.8119634967
 20
164.6000950071
 40
0.2010285014
100
AcDbArc
 50
254.5530854781
 51
269.9554071865
  0
ARC
  5
665
100
AcDbEntity
  8
RACCORDO
100
AcDbCircle
 62
250
  6
CONTINUOUS
 10
158.7918492736
 20
164.4525111271
 40
0.2005993035
100
AcDbArc
 50
254.4746066404
 51
269.9718711675
  0
ARC
  5
666
100
AcDbEntity
  8
RACCORDO
100
AcDbCircle
 62
250
  6
CONTINUOUS
 10
158.6667076336
 20
207.199520057
 40
79.3270025579
100
AcDbArc
 50
255.5796694072
 51
255.71735386
  0
ARC
  5
667
100
AcDbEntity
  8
RACCORDO
100
AcDbCircle
 62
250
  6
CONTINUOUS
 10
157.3493596306
 20
207.5943383681
 40
77.5634273397
100
AcDbArc
 50
256.7794166752
 51
256.9156442394
  0
CIRCLE
  5
668
100
AcDbEntity
  8
RACCORDO
100
AcDbCircle
 62
250
  6
CONTINUOUS
 10
181.5428221807
 20
138.6710455163
 40
3.1948313742
  0
CIRCLE
  5
669
100
AcDbEntity
  8
RACCORDO
100
AcDbCircle
 62
250
  6
CONTINUOUS
 10
181.5428221807
 20
146.6710455163
 40
3.1948313742
  0
CIRCLE
  5
66A
100
AcDbEntity
  8
RACCORDO
100
AcDbCircle
 62
250
  6
CONTINUOUS
 10
181.5428221807
 20
138.6710455163
 40
2.9948999092
  0
CIRCLE
  5
66B
100
AcDbEntity
  8
RACCORDO
100
AcDbCircle
 62
250
  6
CONTINUOUS
 10
181.5428221807
 20
146.6710455163
 40
2.9948999092
  0
CIRCLE
  5
66C
100
AcDbEntity
  8
RACCORDO
100
AcDbCircle
 62
250
  6
CONTINUOUS
 10
181.5428221807
 20
138.6710455163
 40
2.8922949878
  0
CIRCLE
  5
66D
100
AcDbEntity
  8
RACCORDO
100
AcDbCircle
 62
250
  6
CONTINUOUS
 10
181.5428221807
 20
146.6710455163
 40
2.8922949878
  0
CIRCLE
  5
66E
100
AcDbEntity
  8
RACCORDO
100
AcDbCircle
 62
250
  6
CONTINUOUS
 10
181.5428221807
 20
138.6710455163
 40
2.3924663253
  0
CIRCLE
  5
66F
100
AcDbEntity
  8
RACCORDO
100
AcDbCircle
 62
250
  6
CONTINUOUS
 10
181.5428221807
 20
146.6710455163
 40
2.3924663253
  0
CIRCLE
  5
670
100
AcDbEntity
  8
DRAFT
100
AcDbCircle
 62
7
  6
CONTINUOUS
 10
181.5428221807
 20
146.6710455163
 40
0.9
  0
CIRCLE
  5
671
100
AcDbEntity
  8
DRAFT
100
AcDbCircle
 62
7
  6
CONTINUOUS
 10
181.5428221807
 20
138.6710455163
 40
0.9
  0
CIRCLE
  5
672
100
AcDbEntity
  8
RACCORDO
100
AcDbCircle
 62
250
  6
CONTINUOUS
 10
181.5428221807
 20
138.6710455163
 40
0.8527799348
  0
CIRCLE
  5
673
100
AcDbEntity
  8
RACCORDO
100
AcDbCircle
 62
250
  6
CONTINUOUS
 10
181.5428221807
 20
146.6710455163
 40
0.8527799348
  0
CIRCLE
  5
674
100
AcDbEntity
  8
RACCORDO
100
AcDbCircle
 62
250
  6
CONTINUOUS
 10
181.5428221807
 20
146.6710455163
 40
0.5528256263
  0
CIRCLE
  5
675
100
AcDbEntity
  8
RACCORDO
100
AcDbCircle
 62
250
  6
CONTINUOUS
 10
181.5428221807
 20
138.6710455163
 40
0.5528256263
  0
CIRCLE
  5
676
100
AcDbEntity
  8
RACCORDO
100
AcDbCircle
 62
250
  6
CONTINUOUS
 10
181.5428221807
 20
154.6710455163
 40
3.1948313742
  0
CIRCLE
  5
677
100
AcDbEntity
  8
RACCORDO
100
AcDbCircle
 62
250
  6
CONTINUOUS
 10
181.5428221807
 20
154.6710455163
 40
2.9948999092
  0
CIRCLE
  5
678
100
AcDbEntity
  8
RACCORDO
100
AcDbCircle
 62
250
  6
CONTINUOUS
 10
181.5428221807
 20
154.6710455163
 40
2.8922949878
  0
CIRCLE
  5
679
100
AcDbEntity
  8
RACCORDO
100
AcDbCircle
 62
250
  6
CONTINUOUS
 10
181.5428221807
 20
154.6710455163
 40
2.3924663253
  0
CIRCLE
  5
67A
100
AcDbEntity
  8
DRAFT
100
AcDbCircle
 62
7
  6
CONTINUOUS
 10
181.5428221807
 20
154.6710455163
 40
0.9
  0
CIRCLE
  5
67B
100
AcDbEntity
  8
RACCORDO
100
AcDbCircle
 62
250
  6
CONTINUOUS
 10
181.5428221807
 20
154.6710455163
 40
0.8527799348
  0
CIRCLE
  5
67C
100
AcDbEntity
  8
RACCORDO
100
AcDbCircle
 62
250
  6
CONTINUOUS
 10
181.5428221807
 20
154.6710455163
 40
0.5528256263
  0
ARC
  5
67D
100
AcDbEntity
  8
RACCORDO
100
AcDbCircle
 62
250
  6
CONTINUOUS
 10
189.7941122997
 20
166.1723356353
 40
1.4997727683
100
AcDbArc
 50
0.0001233924
 51
89.9998766071
  0
ARC
  5
67E
100
AcDbEntity
  8
RACCORDO
100
AcDbCircle
 62
7
  6
CONTINUOUS
 10
189.8431416035
 20
166.2213649391
 40
1.4996769576
100
AcDbArc
 50
359.996524634
 51
90.003475366
  0
ARC
  5
67F
100
AcDbEntity
  8
RACCORDO
100
AcDbCircle
 62
250
  6
CONTINUOUS
 10
189.7941865501
 20
166.1724098857
 40
1.299728455
100
AcDbArc
 50
359.9968692182
 51
90.0031307811
  0
ARC
  5
680
100
AcDbEntity
  8
RACCORDO
100
AcDbCircle
 62
7
  6
CONTINUOUS
 10
84.6199145771
 20
57.1158768905
 40
0.2
100
AcDbArc
 50
180.0
 51
268.5
  0
ARC
  5
681
100
AcDbEntity
  8
RACCORDO
100
AcDbCircle
 62
7
  6
CONTINUOUS
 10
81.7199145771
 20
138.11821989
 40
0.3
100
AcDbArc
 50
180.0
 51
269.0
  0
ARC
  5
682
100
AcDbEntity
  8
RACCORDO
100
AcDbCircle
 62
7
  6
CONTINUOUS
 10
81.7199145771
 20
139.2238711426
 40
0.3
100
AcDbArc
 50
91.0
 51
180.0
  0
ARC
  5
683
100
AcDbEntity
  8
RACCORDO
100
AcDbCircle
 62
7
  6
CONTINUOUS
 10
83.2199145771
 20
128.6630723486
 40
0.2
100
AcDbArc
 50
180.0
 51
268.0
  0
ARC
  5
684
100
AcDbEntity
  8
RACCORDO
100
AcDbCircle
 62
7
  6
CONTINUOUS
 10
81.7199145771
 20
146.11821989
 40
0.3
100
AcDbArc
 50
180.0
 51
269.0
  0
ARC
  5
685
100
AcDbEntity
  8
RACCORDO
100
AcDbCircle
 62
7
  6
CONTINUOUS
 10
81.7199145771
 20
147.2238711426
 40
0.3
100
AcDbArc
 50
91.0
 51
180.0
  0
ARC
  5
686
100
AcDbEntity
  8
RACCORDO
100
AcDbCircle
 62
7
  6
CONTINUOUS
 10
81.7199145771
 20
154.11821989
 40
0.3
100
AcDbArc
 50
180.0
 51
269.0
  0
ARC
  5
687
100
AcDbEntity
  8
RACCORDO
100
AcDbCircle
 62
7
  6
CONTINUOUS
 10
81.7199145771
 20
155.2238711426
 40
0.3
100
AcDbArc
 50
91.0
 51
180.0
  0
ARC
  5
688
100
AcDbEntity
  8
RACCORDO
100
AcDbCircle
 62
7
  6
CONTINUOUS
 10
83.2199145771
 20
164.6790186841
 40
0.2
100
AcDbArc
 50
92.0
 51
180.0
  0
ARC
  5
689
100
AcDbEntity
  8
RACCORDO
100
AcDbCircle
 62
7
  6
CONTINUOUS
 10
84.9199145771
 20
136.278579191
 40
0.5
100
AcDbArc
 50
180.0
 51
268.5
  0
ARC
  5
68A
100
AcDbEntity
  8
RACCORDO
100
AcDbCircle
 62
7
  6
CONTINUOUS
 10
84.9199145771
 20
141.0635118416
 40
0.5
100
AcDbArc
 50
91.5
 51
180.0
  0
ARC
  5
68B
100
AcDbEntity
  8
RACCORDO
100
AcDbCircle
 62
7
  6
CONTINUOUS
 10
85.7199145771
 20
128.8210455163
 40
0.2
100
AcDbArc
 50
36.0000000032
 51
90.0
  0
ARC
  5
68C
100
AcDbEntity
  8
RACCORDO
100
AcDbCircle
 62
7
  6
CONTINUOUS
 10
85.7199145771
 20
130.0710455163
 40
0.2
100
AcDbArc
 50
0.0
 51
90.0
  0
ARC
  5
68D
100
AcDbEntity
  8
RACCORDO
100
AcDbCircle
 62
7
  6
CONTINUOUS
 10
84.6199145771
 20
129.2210455163
 40
0.2
100
AcDbArc
 50
180.0
 51
270.0
  0
ARC
  5
68E
100
AcDbEntity
  8
RACCORDO
100
AcDbCircle
 62
7
  6
CONTINUOUS
 10
84.6199145771
 20
130.4710455163
 40
0.2
100
AcDbArc
 50
180.0
 51
270.0
  0
ARC
  5
68F
100
AcDbEntity
  8
RACCORDO
100
AcDbCircle
 62
7
  6
CONTINUOUS
 10
86.1199145771
 20
124.5175849689
 40
0.2
100
AcDbArc
 50
179.9999999999
 51
269.0
  0
ARC
  5
690
100
AcDbEntity
  8
RACCORDO
100
AcDbCircle
 62
7
  6
CONTINUOUS
 10
86.1199145771
 20
130.1245060637
 40
0.2
100
AcDbArc
 50
91.0
 51
180.0
  0
ARC
  5
691
100
AcDbEntity
  8
RACCORDO
100
AcDbCircle
 62
7
  6
CONTINUOUS
 10
84.6199145771
 20
123.3262141421
 40
0.2
100
AcDbArc
 50
91.5
 51
180.0
  0
ARC
  5
692
100
AcDbEntity
  8
RACCORDO
100
AcDbCircle
 62
250
  6
CONTINUOUS
 10
85.7896477339
 20
130.1483221685
 40
0.1302668521
100
AcDbArc
 50
0.0212367743
 51
7.2983604937
  0
ARC
  5
693
100
AcDbEntity
  8
RACCORDO
100
AcDbCircle
 62
7
  6
CONTINUOUS
 10
84.9199145771
 20
152.278579191
 40
0.5
100
AcDbArc
 50
180.0
 51
268.5
  0
ARC
  5
694
100
AcDbEntity
  8
RACCORDO
100
AcDbCircle
 62
7
  6
CONTINUOUS
 10
84.9199145771
 20
157.0635118416
 40
0.5
100
AcDbArc
 50
91.5
 51
180.0
  0
ARC
  5
695
100
AcDbEntity
  8
RACCORDO
100
AcDbCircle
 62
7
  6
CONTINUOUS
 10
84.9199145771
 20
144.278579191
 40
0.5
100
AcDbArc
 50
180.0
 51
268.5
  0
ARC
  5
696
100
AcDbEntity
  8
RACCORDO
100
AcDbCircle
 62
7
  6
CONTINUOUS
 10
84.9199145771
 20
149.0635118416
 40
0.5
100
AcDbArc
 50
91.5
 51
180.0
  0
ARC
  5
697
100
AcDbEntity
  8
RACCORDO
100
AcDbCircle
 62
7
  6
CONTINUOUS
 10
84.6199145771
 20
164.0520336824
 40
0.2
100
AcDbArc
 50
92.0
 51
180.0
  0
ARC
  5
698
100
AcDbEntity
  8
RACCORDO
100
AcDbCircle
 62
7
  6
CONTINUOUS
 10
93.1199145771
 20
61.7402917861
 40
0.3
100
AcDbArc
 50
271.0
 51
360.0
  0
ARC
  5
699
100
AcDbEntity
  8
RACCORDO
100
AcDbCircle
 62
7
  6
CONTINUOUS
 10
93.1199145771
 20
59.6017992465
 40
0.3
100
AcDbArc
 50
0.0
 51
89.0
  0
ARC
  5
69A
100
AcDbEntity
  8
RACCORDO
100
AcDbCircle
 62
7
  6
CONTINUOUS
 10
93.1199145771
 20
59.7402917861
 40
0.3
100
AcDbArc
 50
350.1165964172
 51
360.0
  0
ARC
  5
69B
100
AcDbEntity
  8
RACCORDO
100
AcDbCircle
 62
7
  6
CONTINUOUS
 10
92.3199145771
 20
60.2158546952
 40
0.3
100
AcDbArc
 50
180.0
 51
269.0
  0
ARC
  5
69C
100
AcDbEntity
  8
RACCORDO
100
AcDbCircle
 62
7
  6
CONTINUOUS
 10
92.3199145771
 20
61.1262363374
 40
0.3
100
AcDbArc
 50
91.0
 51
180.0
  0
ARC
  5
69D
100
AcDbEntity
  8
RACCORDO
100
AcDbCircle
 62
7
  6
CONTINUOUS
 10
89.2199145771
 20
53.8699501637
 40
0.2
100
AcDbArc
 50
180.0
 51
269.0
  0
ARC
  5
69E
100
AcDbEntity
  8
RACCORDO
100
AcDbCircle
 62
7
  6
CONTINUOUS
 10
88.8199145771
 20
56.6057589029
 40
0.2
100
AcDbArc
 50
0.0
 51
88.5
  0
ARC
  5
69F
100
AcDbEntity
  8
RACCORDO
100
AcDbCircle
 62
7
  6
CONTINUOUS
 10
93.1199145771
 20
159.6017992465
 40
0.3
100
AcDbArc
 50
0.0
 51
89.0
  0
ARC
  5
6A0
100
AcDbEntity
  8
RACCORDO
100
AcDbCircle
 62
7
  6
CONTINUOUS
 10
93.1199145771
 20
161.7402917861
 40
0.3
100
AcDbArc
 50
271.0
 51
360.0
  0
ARC
  5
6A1
100
AcDbEntity
  8
RACCORDO
100
AcDbCircle
 62
7
  6
CONTINUOUS
 10
92.3199145771
 20
161.1262363374
 40
0.3
100
AcDbArc
 50
91.0
 51
180.0
  0
ARC
  5
6A2
100
AcDbEntity
  8
RACCORDO
100
AcDbCircle
 62
7
  6
CONTINUOUS
 10
92.3199145771
 20
160.2158546952
 40
0.3
100
AcDbArc
 50
180.0
 51
269.0
  0
ARC
  5
6A3
100
AcDbEntity
  8
RACCORDO
100
AcDbCircle
 62
250
  6
CONTINUOUS
 10
88.8197963706
 20
164.6140721646
 40
0.2078652622
100
AcDbArc
 50
271.9568954454
 51
283.2380006628
  0
ARC
  5
6A4
100
AcDbEntity
  8
RACCORDO
100
AcDbCircle
 62
7
  6
CONTINUOUS
 10
88.8199145771
 20
165.2748188109
 40
0.2
100
AcDbArc
 50
272.0
 51
360.0
  0
ARC
  5
6A5
100
AcDbEntity
  8
RACCORDO
100
AcDbCircle
 62
7
  6
CONTINUOUS
 10
88.8199145771
 20
151.4762141421
 40
0.2
100
AcDbArc
 50
0.0
 51
88.5
  0
ARC
  5
6A6
100
AcDbEntity
  8
RACCORDO
100
AcDbCircle
 62
7
  6
CONTINUOUS
 10
88.8199145771
 20
157.8658768905
 40
0.2
100
AcDbArc
 50
271.5
 51
360.0
  0
ARC
  5
6A7
100
AcDbEntity
  8
RACCORDO
100
AcDbCircle
 62
7
  6
CONTINUOUS
 10
88.8199145771
 20
143.4762141421
 40
0.2
100
AcDbArc
 50
0.0
 51
88.5
  0
ARC
  5
6A8
100
AcDbEntity
  8
RACCORDO
100
AcDbCircle
 62
7
  6
CONTINUOUS
 10
88.8199145771
 20
149.8658768905
 40
0.2
100
AcDbArc
 50
271.5
 51
360.0
  0
ARC
  5
6A9
100
AcDbEntity
  8
RACCORDO
100
AcDbCircle
 62
7
  6
CONTINUOUS
 10
88.8199145771
 20
135.4762141421
 40
0.2
100
AcDbArc
 50
0.0
 51
88.5
  0
ARC
  5
6AA
100
AcDbEntity
  8
RACCORDO
100
AcDbCircle
 62
7
  6
CONTINUOUS
 10
88.8199145771
 20
141.8658768905
 40
0.2
100
AcDbArc
 50
271.5
 51
360.0
  0
ARC
  5
6AB
100
AcDbEntity
  8
RACCORDO
100
AcDbCircle
 62
7
  6
CONTINUOUS
 10
88.8199145771
 20
164.5989447319
 40
0.2
100
AcDbArc
 50
272.0
 51
342.3997507941
  0
ARC
  5
6AC
100
AcDbEntity
  8
RACCORDO
100
AcDbCircle
 62
7
  6
CONTINUOUS
 10
88.8199145771
 20
124.0703953624
 40
0.2
100
AcDbArc
 50
0.0
 51
89.0
  0
ARC
  5
6AD
100
AcDbEntity
  8
RACCORDO
100
AcDbCircle
 62
7
  6
CONTINUOUS
 10
88.8199145771
 20
130.5716956702
 40
0.2
100
AcDbArc
 50
271.0000000002
 51
360.0
  0
ARC
  5
6AE
100
AcDbEntity
  8
RACCORDO
100
AcDbCircle
 62
7
  6
CONTINUOUS
 10
89.2199145771
 20
167.4721408689
 40
0.2
100
AcDbArc
 50
91.0
 51
180.0
  0
ARC
  5
6AF
100
AcDbEntity
  8
RACCORDO
100
AcDbCircle
 62
7
  6
CONTINUOUS
 10
88.8199145771
 20
123.8363321297
 40
0.2
100
AcDbArc
 50
271.5
 51
360.0
  0
SPLINE
  5
6B0
100
AcDbEntity
  8
RACCORDO
100
AcDbSpline
 62
250
  6
CONTINUOUS
 70
0
 71
3
 72
15
 73
11
 74
0
 42
0.0000001
 43
0.0000001
 44
0.0000000001
 40
0.0
 40
0.0
 40
0.0
 40
0.0
 40
0.1250063292
 40
0.2499953676
 40
0.3749904797
 40
0.4999841547
 40
0.6249780921
 40
0.7499728446
 40
0.8749723025
 40
1.0
 40
1.0
 40
1.0
 40
1.0
 10
132.6245589775
 20
146.3367497523
 30
0.0
 10
132.6716725273
 20
146.3856014503
 30
0.0
 10
132.780790372
 20
146.4700767719
 30
0.0
 10
132.9734136737
 20
146.5441277567
 30
0.0
 10
133.1793514175
 20
146.5597462715
 30
0.0
 10
133.3810171556
 20
146.5152803077
 30
0.0
 10
133.5612867047
 20
146.4145318457
 30
0.0
 10
133.7048030121
 20
146.2659998924
 30
0.0
 10
133.7994929411
 20
146.0826119853
 30
0.0
 10
133.8248065739
 20
145.9469345526
 30
0.0
 10
133.8274949504
 20
145.8791074012
 30
0.0
  0
SPLINE
  5
6B1
100
AcDbEntity
  8
RACCORDO
100
AcDbSpline
 62
250
  6
CONTINUOUS
 70
0
 71
3
 72
18
 73
14
 74
0
 42
0.0000001
 43
0.0000001
 44
0.0000000001
 40
0.0
 40
0.0
 40
0.0
 40
0.0
 40
0.1926982358
 40
0.3783329582
 40
0.5496828024
 40
0.7004928176
 40
0.8250226969
 40
0.8759282226
 40
0.9185812144
 40
0.952605544
 40
0.9776471511
 40
0.9934848223
 40
1.0
 40
1.0
 40
1.0
 40
1.0
 10
128.4015954116
 20
164.2434911229
 30
0.0
 10
128.3823188149
 20
164.2445898063
 30
0.0
 10
128.34447511
 20
164.2467977676
 30
0.0
 10
128.2894940393
 20
164.2500427061
 30
0.0
 10
128.2387048098
 20
164.253081643
 30
0.0
 10
128.1940339314
 20
164.255845896
 30
0.0
 10
128.161409654
 20
164.2579373135
 30
0.0
 10
128.139611886
 20
164.2594246891
 30
0.0
 10
128.1268515545
 20
164.2603117368
 30
0.0
 10
128.1167129838
 20
164.2611374183
 30
0.0
 10
128.1091774154
 20
164.2616456366
 30
0.0
 10
128.1045598522
 20
164.2623559104
 30
0.0
 10
128.1022128215
 20
164.2623837728
 30
0.0
 10
128.101641103
 20
164.2626988788
 30
0.0
  0
SPLINE
  5
6B2
100
AcDbEntity
  8
RACCORDO
100
AcDbSpline
 62
250
  6
CONTINUOUS
 70
0
 71
3
 72
18
 73
14
 74
0
 42
0.0000001
 43
0.0000001
 44
0.0000000001
 40
0.0
 40
0.0
 40
0.0
 40
0.0
 40
0.0065149177
 40
0.0223520763
 40
0.0473932967
 40
0.081416847
 40
0.1240691571
 40
0.1749745174
 40
0.2995042928
 40
0.4503152896
 40
0.6216660547
 40
0.8073015521
 40
1.0
 40
1.0
 40
1.0
 40
1.0
 10
126.0840032584
 20
164.2626988788
 30
0.0
 10
126.0834315761
 20
164.2623837611
 30
0.0
 10
126.0810846066
 20
164.2623559044
 30
0.0
 10
126.0764671726
 20
164.2616456489
 30
0.0
 10
126.0689317607
 20
164.2611374792
 30
0.0
 10
126.0587933789
 20
164.2603118019
 30
0.0
 10
126.0460332095
 20
164.2594247508
 30
0.0
 10
126.0242355383
 20
164.2579373664
 30
0.0
 10
125.991611189
 20
164.2558459449
 30
0.0
 10
125.9469401323
 20
164.2530816555
 30
0.0
 10
125.8961506326
 20
164.2500427369
 30
0.0
 10
125.8411693722
 20
164.2467977645
 30
0.0
 10
125.8033255683
 20
164.2445897975
 30
0.0
 10
125.7840489498
 20
164.2434911229
 30
0.0
  0
SPLINE
  5
6B3
100
AcDbEntity
  8
RACCORDO
100
AcDbSpline
 62
250
  6
CONTINUOUS
 70
0
 71
3
 72
8
 73
4
 74
0
 42
0.0000001
 43
0.0000001
 44
0.0000000001
 40
0.0
 40
0.0
 40
0.0
 40
0.0
 40
1.0
 40
1.0
 40
1.0
 40
1.0
 10
165.7393089869
 20
130.2773119816
 30
0.0
 10
165.763895471
 20
130.2835828407
 30
0.0
 10
165.7876859922
 20
130.2947639989
 30
0.0
 10
165.8081919956
 20
130.3097079842
 30
0.0
  0
SPLINE
  5
6B4
100
AcDbEntity
  8
RACCORDO
100
AcDbSpline
 62
250
  6
CONTINUOUS
 70
0
 71
3
 72
15
 73
11
 74
0
 42
0.0000001
 43
0.0000001
 44
0.0000000001
 40
0.0
 40
0.0
 40
0.0
 40
0.0
 40
0.125007247
 40
0.2499980461
 40
0.3749929889
 40
0.4999876283
 40
0.6249829826
 40
0.7499790359
 40
0.8749784466
 40
1.0
 40
1.0
 40
1.0
 40
1.0
 10
168.214685333
 20
131.9435377276
 30
0.0
 10
168.1583786357
 20
131.88858539
 30
0.0
 10
168.0614553759
 20
131.7612063545
 30
0.0
 10
167.9785073023
 20
131.5366984724
 30
0.0
 10
167.9646456295
 20
131.2975733307
 30
0.0
 10
168.0213467862
 20
131.0648845137
 30
0.0
 10
168.1436150295
 20
130.8589525508
 30
0.0
 10
168.3207511692
 20
130.6977275373
 30
0.0
 10
168.5369946129
 20
130.5951419315
 30
0.0
 10
168.6953356856
 20
130.571699925
 30
0.0
 10
168.7740225365
 20
130.5716956702
 30
0.0
  0
SPLINE
  5
6B5
100
AcDbEntity
  8
RACCORDO
100
AcDbSpline
 62
250
  6
CONTINUOUS
 70
0
 71
3
 72
8
 73
4
 74
0
 42
0.0000001
 43
0.0000001
 44
0.0000000001
 40
0.0
 40
0.0
 40
0.0
 40
0.0
 40
1.0
 40
1.0
 40
1.0
 40
1.0
 10
141.8774523658
 20
130.3097079842
 30
0.0
 10
141.9008618779
 20
130.2926480766
 30
0.0
 10
141.9286521193
 20
130.2805026309
 30
0.0
 10
141.9570681922
 20
130.2748836887
 30
0.0
  0
SPLINE
  5
6B6
100
AcDbEntity
  8
RACCORDO
100
AcDbSpline
 62
250
  6
CONTINUOUS
 70
0
 71
3
 72
10
 73
6
 74
0
 42
0.0000001
 43
0.0000001
 44
0.0000000001
 40
0.0
 40
0.0
 40
0.0
 40
0.0
 40
0.505436251
 40
0.753265759
 40
1.0
 40
1.0
 40
1.0
 40
1.0
 10
167.3879633541
 20
131.3238808972
 30
0.0
 10
167.4614820416
 20
131.4536221557
 30
0.0
 10
167.5678505821
 20
131.6493308625
 30
0.0
 10
167.7426363062
 20
131.8877300179
 30
0.0
 10
167.8425102603
 20
131.9947227495
 30
0.0
 10
167.8955090779
 20
132.0446268158
 30
0.0
  0
SPLINE
  5
6B7
100
AcDbEntity
  8
RACCORDO
100
AcDbSpline
 62
250
  6
CONTINUOUS
 70
0
 71
3
 72
10
 73
6
 74
0
 42
0.0000001
 43
0.0000001
 44
0.0000000001
 40
0.0
 40
0.0
 40
0.0
 40
0.0
 40
0.24674316
 40
0.494578078
 40
1.0
 40
1.0
 40
1.0
 40
1.0
 10
139.7901519688
 20
132.0446097362
 30
0.0
 10
139.8431481785
 20
131.9947016509
 30
0.0
 10
139.9430247215
 20
131.8877111894
 30
0.0
 10
140.1178082304
 20
131.6493183658
 30
0.0
 10
140.2241614158
 20
131.4536103595
 30
0.0
 10
140.2976812983
 20
131.3238788162
 30
0.0
  0
SPLINE
  5
6B8
100
AcDbEntity
  8
RACCORDO
100
AcDbSpline
 62
250
  6
CONTINUOUS
 70
0
 71
3
 72
9
 73
5
 74
0
 42
0.0000001
 43
0.0000001
 44
0.0000000001
 40
0.0
 40
0.0
 40
0.0
 40
0.0
 40
0.2702469844
 40
1.0
 40
1.0
 40
1.0
 40
1.0
 10
130.5991540528
 20
101.7512416136
 30
0.0
 10
130.5991539799
 20
101.8383151763
 30
0.0
 10
130.5985718847
 20
102.1605137421
 30
0.0
 10
130.5960903407
 20
102.4827171047
 30
0.0
 10
130.5921720107
 20
102.7178108327
 30
0.0
  0
SPLINE
  5
6B9
100
AcDbEntity
  8
RACCORDO
100
AcDbSpline
 62
250
  6
CONTINUOUS
 70
0
 71
3
 72
15
 73
11
 74
0
 42
0.0000001
 43
0.0000001
 44
0.0000000001
 40
0.0
 40
0.0
 40
0.0
 40
0.0
 40
0.1249811687
 40
0.2499743939
 40
0.3749845084
 40
0.5000068192
 40
0.6250235327
 40
0.7500249938
 40
0.8750122305
 40
1.0
 40
1.0
 40
1.0
 40
1.0
 10
129.4371049705
 20
102.717810833
 30
0.0
 10
129.3429207645
 20
102.7178158487
 30
0.0
 10
129.1540224563
 20
102.6993715308
 30
0.0
 10
128.8818478654
 20
102.6171705776
 30
0.0
 10
128.6308042982
 20
102.4833854934
 30
0.0
 10
128.4108413929
 20
102.3030039002
 30
0.0
 10
128.2304690715
 20
102.0830420051
 30
0.0
 10
128.0966954762
 20
101.8320099929
 30
0.0
 10
128.0144963531
 20
101.5598415567
 30
0.0
 10
127.9960514619
 20
101.3709426494
 30
0.0
 10
127.9960568644
 20
101.2767534692
 30
0.0
  0
SPLINE
  5
6BA
100
AcDbEntity
  8
RACCORDO
100
AcDbSpline
 62
250
  6
CONTINUOUS
 70
0
 71
3
 72
15
 73
11
 74
0
 42
0.0000001
 43
0.0000001
 44
0.0000000001
 40
0.0
 40
0.0
 40
0.0
 40
0.0
 40
0.1249811687
 40
0.2499743939
 40
0.3749845084
 40
0.5000068192
 40
0.6250235327
 40
0.7500249938
 40
0.8750122305
 40
1.0
 40
1.0
 40
1.0
 40
1.0
 10
127.996056864
 20
99.9653283061
 30
0.0
 10
127.9960518483
 20
99.8711441001
 30
0.0
 10
128.0144961662
 20
99.6822457919
 30
0.0
 10
128.0966971194
 20
99.410071201
 30
0.0
 10
128.2304822036
 20
99.1590276338
 30
0.0
 10
128.4108637968
 20
98.9390647285
 30
0.0
 10
128.6308256919
 20
98.7586924071
 30
0.0
 10
128.8818577041
 20
98.6249188118
 30
0.0
 10
129.1540261403
 20
98.5427196887
 30
0.0
 10
129.3429250476
 20
98.5242747975
 30
0.0
 10
129.4371142278
 20
98.5242802
 30
0.0
  0
SPLINE
  5
6BB
100
AcDbEntity
  8
RACCORDO
100
AcDbSpline
 62
250
  6
CONTINUOUS
 70
0
 71
3
 72
15
 73
11
 74
0
 42
0.0000001
 43
0.0000001
 44
0.0000000001
 40
0.0
 40
0.0
 40
0.0
 40
0.0
 40
0.124981213
 40
0.2499745243
 40
0.3749847
 40
0.5000070191
 40
0.6250236944
 40
0.75002509
 40
0.8750122537
 40
1.0
 40
1.0
 40
1.0
 40
1.0
 10
179.689587497
 20
101.2767534692
 30
0.0
 10
179.6895929985
 20
101.3709377104
 30
0.0
 10
179.6711503005
 20
101.5598362886
 30
0.0
 10
179.5889503112
 20
101.8320113715
 30
0.0
 10
179.4551669819
 20
102.0830559127
 30
0.0
 10
179.2747870497
 20
102.3030203351
 30
0.0
 10
179.0548259401
 20
102.4833933722
 30
0.0
 10
178.8037954802
 20
102.6171697663
 30
0.0
 10
178.5316271266
 20
102.6993687821
 30
0.0
 10
178.3427285593
 20
102.717815772
 30
0.0
 10
178.2485393945
 20
102.717810833
 30
0.0
  0
SPLINE
  5
6BC
100
AcDbEntity
  8
RACCORDO
100
AcDbSpline
 62
250
  6
CONTINUOUS
 70
0
 71
3
 72
15
 73
11
 74
0
 42
0.0000001
 43
0.0000001
 44
0.0000000001
 40
0.0
 40
0.0
 40
0.0
 40
0.0
 40
0.124981213
 40
0.2499745243
 40
0.3749847
 40
0.5000070191
 40
0.6250236944
 40
0.75002509
 40
0.8750122537
 40
1.0
 40
1.0
 40
1.0
 40
1.0
 10
178.2485301336
 20
98.5242802
 30
0.0
 10
178.3427143748
 20
98.5242746985
 30
0.0
 10
178.531612953
 20
98.5427173965
 30
0.0
 10
178.8037880359
 20
98.6249173858
 30
0.0
 10
179.0548325771
 20
98.7587007151
 30
0.0
 10
179.2747969995
 20
98.9390806474
 30
0.0
 10
179.4551700366
 20
99.1590417569
 30
0.0
 10
179.5889464307
 20
99.4100722168
 30
0.0
 10
179.6711454465
 20
99.6822405704
 30
0.0
 10
179.6895924364
 20
99.8711391378
 30
0.0
 10
179.6895874974
 20
99.9653283025
 30
0.0
  0
SPLINE
  5
6BD
100
AcDbEntity
  8
RACCORDO
100
AcDbSpline
 62
250
  6
CONTINUOUS
 70
0
 71
3
 72
9
 73
5
 74
0
 42
0.0000001
 43
0.0000001
 44
0.0000000001
 40
0.0
 40
0.0
 40
0.0
 40
0.0
 40
0.2702406739
 40
1.0
 40
1.0
 40
1.0
 40
1.0
 10
177.0864903086
 20
99.490849419
 30
0.0
 10
177.086490381
 20
99.4037778896
 30
0.0
 10
177.0870724635
 20
99.0815793238
 30
0.0
 10
177.089553982
 20
98.7593759608
 30
0.0
 10
177.0934723507
 20
98.5242801999
 30
0.0
  0
SPLINE
  5
6BE
100
AcDbEntity
  8
RACCORDO
100
AcDbSpline
 62
250
  6
CONTINUOUS
 70
0
 71
3
 72
15
 73
11
 74
0
 42
0.0000001
 43
0.0000001
 44
0.0000000001
 40
0.0
 40
0.0
 40
0.0
 40
0.0
 40
0.1250013066
 40
0.2499822638
 40
0.3749740152
 40
0.4999631319
 40
0.6249523635
 40
0.7499462565
 40
0.874951149
 40
1.0
 40
1.0
 40
1.0
 40
1.0
 10
133.294010037
 20
145.577310599
 30
0.0
 10
133.2924944927
 20
145.6057451781
 30
0.0
 10
133.2812790121
 20
145.6625073297
 30
0.0
 10
133.2412287215
 20
145.739218009
 30
0.0
 10
133.1811579922
 20
145.8015965171
 30
0.0
 10
133.1059088951
 20
145.8444428986
 30
0.0
 10
133.0216211448
 20
145.8642860544
 30
0.0
 10
132.9351492463
 20
145.8595053716
 30
0.0
 10
132.8535626823
 20
145.8306121527
 30
0.0
 10
132.8066710471
 20
145.7966904167
 30
0.0
 10
132.786180774
 20
145.7769018397
 30
0.0
  0
SPLINE
  5
6BF
100
AcDbEntity
  8
RACCORDO
100
AcDbSpline
 62
250
  6
CONTINUOUS
 70
0
 71
3
 72
15
 73
11
 74
0
 42
0.0000001
 43
0.0000001
 44
0.0000000001
 40
0.0
 40
0.0
 40
0.0
 40
0.0
 40
0.1250085532
 40
0.2500008047
 40
0.3749968711
 40
0.4999918771
 40
0.6249867613
 40
0.7499816415
 40
0.8749796636
 40
1.0
 40
1.0
 40
1.0
 40
1.0
 10
138.9116218248
 20
130.5716956702
 30
0.0
 10
138.9903004936
 20
130.5716994938
 30
0.0
 10
139.1486285199
 20
130.5951376926
 30
0.0
 10
139.3648644326
 20
130.6977081897
 30
0.0
 10
139.5420043168
 20
130.8589221454
 30
0.0
 10
139.6642826463
 20
131.0648478759
 30
0.0
 10
139.7209952664
 20
131.2975339418
 30
0.0
 10
139.7071441798
 20
131.5366643124
 30
0.0
 10
139.6242012825
 20
131.7611883489
 30
0.0
 10
139.5272713188
 20
131.8885793259
 30
0.0
 10
139.4709590284
 20
131.9435377277
 30
0.0
  0
SPLINE
  5
6C0
100
AcDbEntity
  8
RACCORDO
100
AcDbSpline
 62
250
  6
CONTINUOUS
 70
0
 71
3
 72
15
 73
11
 74
0
 42
0.0000001
 43
0.0000001
 44
0.0000000001
 40
0.0
 40
0.0
 40
0.0
 40
0.0
 40
0.1250047301
 40
0.2500003024
 40
0.3750005542
 40
0.5000018751
 40
0.6250037667
 40
0.7500056023
 40
0.8750010701
 40
1.0
 40
1.0
 40
1.0
 40
1.0
 10
139.0962994883
 20
130.3244756027
 30
0.0
 10
139.1950021981
 20
130.3244545429
 30
0.0
 10
139.3936443489
 20
130.3538651555
 30
0.0
 10
139.6648523135
 20
130.482749033
 30
0.0
 10
139.886780823
 20
130.6853978447
 30
0.0
 10
140.0394349618
 20
130.9442464208
 30
0.0
 10
140.1093387036
 20
131.2365215115
 30
0.0
 10
140.0902174372
 20
131.5364660471
 30
0.0
 10
139.9841913415
 20
131.8174207786
 30
0.0
 10
139.8613376483
 20
131.9762781011
 30
0.0
 10
139.7901353726
 20
132.0446268922
 30
0.0
  0
SPLINE
  5
6C1
100
AcDbEntity
  8
RACCORDO
100
AcDbSpline
 62
250
  6
CONTINUOUS
 70
0
 71
3
 72
15
 73
11
 74
0
 42
0.0000001
 43
0.0000001
 44
0.0000000001
 40
0.0
 40
0.0
 40
0.0
 40
0.0
 40
0.1249985452
 40
0.2499932483
 40
0.3749916925
 40
0.4999908374
 40
0.6249897735
 40
0.7499878663
 40
0.8749886439
 40
1.0
 40
1.0
 40
1.0
 40
1.0
 10
167.8955090017
 20
132.0446268951
 30
0.0
 10
167.8243071598
 20
131.9762780913
 30
0.0
 10
167.7014537879
 20
131.8174218182
 30
0.0
 10
167.595428393
 20
131.5364706761
 30
0.0
 10
167.5763053589
 20
131.2365321356
 30
0.0
 10
167.6462030667
 20
130.9442626462
 30
0.0
 10
167.7988499772
 20
130.6854170095
 30
0.0
 10
168.0207720562
 20
130.4827605596
 30
0.0
 10
168.2919855709
 20
130.3538690409
 30
0.0
 10
168.490636932
 20
130.3244548456
 30
0.0
 10
168.5893448733
 20
130.3244756027
 30
0.0
  0
SPLINE
  5
6C2
100
AcDbEntity
  8
RACCORDO
100
AcDbSpline
 62
250
  6
CONTINUOUS
 70
0
 71
3
 72
11
 73
7
 74
0
 42
0.0000001
 43
0.0000001
 44
0.0000000001
 40
0.0
 40
0.0
 40
0.0
 40
0.0
 40
0.1989968584
 40
0.431741201
 40
0.703786462
 40
1.0
 40
1.0
 40
1.0
 40
1.0
 10
130.7921415658
 20
102.8466867286
 30
0.0
 10
130.7917862982
 20
102.8295326729
 30
0.0
 10
130.7783593309
 20
102.7922911082
 30
0.0
 10
130.7315329995
 20
102.7511932437
 30
0.0
 10
130.6669165229
 20
102.7244238187
 30
0.0
 10
130.6177109484
 20
102.7180304816
 30
0.0
 10
130.5921720268
 20
102.7178108327
 30
0.0
  0
SPLINE
  5
6C3
100
AcDbEntity
  8
RACCORDO
100
AcDbSpline
 62
250
  6
CONTINUOUS
 70
0
 71
3
 72
11
 73
7
 74
0
 42
0.0000001
 43
0.0000001
 44
0.0000000001
 40
0.0
 40
0.0
 40
0.0
 40
0.0
 40
0.1989981472
 40
0.4317432481
 40
0.7037885363
 40
1.0
 40
1.0
 40
1.0
 40
1.0
 10
130.7921415658
 20
98.395404304
 30
0.0
 10
130.7917863044
 20
98.4125585388
 30
0.0
 10
130.7783594006
 20
98.4498004946
 30
0.0
 10
130.7315330755
 20
98.4908987489
 30
0.0
 10
130.6669169123
 20
98.5176701678
 30
0.0
 10
130.6177108706
 20
98.5240605469
 30
0.0
 10
130.5921720268
 20
98.5242801999
 30
0.0
  0
SPLINE
  5
6C4
100
AcDbEntity
  8
RACCORDO
100
AcDbSpline
 62
250
  6
CONTINUOUS
 70
0
 71
3
 72
11
 73
7
 74
0
 42
0.0000001
 43
0.0000001
 44
0.0000000001
 40
0.0
 40
0.0
 40
0.0
 40
0.0
 40
0.198996887
 40
0.4317412524
 40
0.703786517
 40
1.0
 40
1.0
 40
1.0
 40
1.0
 10
176.8935027956
 20
98.395404304
 30
0.0
 10
176.8938580631
 20
98.4125583641
 30
0.0
 10
176.9072850289
 20
98.4497999388
 30
0.0
 10
176.9541113584
 20
98.4908978155
 30
0.0
 10
177.0187278265
 20
98.5176672985
 30
0.0
 10
177.0679334149
 20
98.5240605509
 30
0.0
 10
177.0934723346
 20
98.5242801999
 30
0.0
  0
SPLINE
  5
6C5
100
AcDbEntity
  8
RACCORDO
100
AcDbSpline
 62
250
  6
CONTINUOUS
 70
0
 71
3
 72
11
 73
7
 74
0
 42
0.0000001
 43
0.0000001
 44
0.0000000001
 40
0.0
 40
0.0
 40
0.0
 40
0.0
 40
0.1989980491
 40
0.4317431707
 40
0.7037884795
 40
1.0
 40
1.0
 40
1.0
 40
1.0
 10
176.8935027956
 20
102.8466867286
 30
0.0
 10
176.893858057
 20
102.8295325042
 30
0.0
 10
176.9072849728
 20
102.7922905663
 30
0.0
 10
176.9541112823
 20
102.7511923122
 30
0.0
 10
177.0187274554
 20
102.724420926
 30
0.0
 10
177.0679334888
 20
102.7180304856
 30
0.0
 10
177.0934723346
 20
102.7178108327
 30
0.0
  0
LINE
  5
6C6
100
AcDbEntity
  8
RACCORDO
100
AcDbLine
 62
250
  6
CONTINUOUS
 10
128.101641103
 20
157.9159639778
 11
128.0962522671
 21
157.9117726205
  0
LINE
  5
6C7
100
AcDbEntity
  8
RACCORDO
100
AcDbLine
 62
250
  6
CONTINUOUS
 10
126.0893920943
 20
157.9117726205
 11
126.0840032584
 21
157.9159639623
  0
SPLINE
  5
6C8
100
AcDbEntity
  8
RACCORDO
100
AcDbSpline
 62
250
  6
CONTINUOUS
 70
0
 71
3
 72
11
 73
7
 74
0
 42
0.0000001
 43
0.0000001
 44
0.0000000001
 40
0.0
 40
0.0
 40
0.0
 40
0.0
 40
0.2500290045
 40
0.5000028209
 40
0.7499762036
 40
1.0
 40
1.0
 40
1.0
 40
1.0
 10
178.2485301336
 20
101.7512416136
 30
0.0
 10
178.31031534
 20
101.7512416829
 30
0.0
 10
178.4352568847
 20
101.7270802201
 30
0.0
 10
178.593565908
 20
101.6217864098
 30
0.0
 10
178.698857789
 20
101.4634773701
 30
0.0
 10
178.7230176028
 20
101.3385373886
 30
0.0
 10
178.723018278
 20
101.2767534692
 30
0.0
  0
SPLINE
  5
6C9
100
AcDbEntity
  8
RACCORDO
100
AcDbSpline
 62
250
  6
CONTINUOUS
 70
0
 71
3
 72
11
 73
7
 74
0
 42
0.0000001
 43
0.0000001
 44
0.0000000001
 40
0.0
 40
0.0
 40
0.0
 40
0.0
 40
0.2500290045
 40
0.5000028209
 40
0.7499762036
 40
1.0
 40
1.0
 40
1.0
 40
1.0
 10
178.723018278
 20
99.9653375634
 30
0.0
 10
178.7230183473
 20
99.903552357
 30
0.0
 10
178.6988568845
 20
99.7786108123
 30
0.0
 10
178.5935630742
 20
99.620301789
 30
0.0
 10
178.4352540345
 20
99.515009908
 30
0.0
 10
178.310314053
 20
99.4908500942
 30
0.0
 10
178.2485301336
 20
99.490849419
 30
0.0
  0
SPLINE
  5
6CA
100
AcDbEntity
  8
RACCORDO
100
AcDbSpline
 62
250
  6
CONTINUOUS
 70
0
 71
3
 72
11
 73
7
 74
0
 42
0.0000001
 43
0.0000001
 44
0.0000000001
 40
0.0
 40
0.0
 40
0.0
 40
0.0
 40
0.2500268527
 40
0.5000011935
 40
0.7499757481
 40
1.0
 40
1.0
 40
1.0
 40
1.0
 10
128.9626260834
 20
99.9653375634
 30
0.0
 10
128.9626262437
 20
99.9035528915
 30
0.0
 10
128.9867871847
 20
99.778611822
 30
0.0
 10
129.0920804789
 20
99.6203024945
 30
0.0
 10
129.2503898042
 20
99.515010047
 30
0.0
 10
129.3753301986
 20
99.49085002
 30
0.0
 10
129.4371142278
 20
99.490849419
 30
0.0
  0
SPLINE
  5
6CB
100
AcDbEntity
  8
RACCORDO
100
AcDbSpline
 62
250
  6
CONTINUOUS
 70
0
 71
3
 72
11
 73
7
 74
0
 42
0.0000001
 43
0.0000001
 44
0.0000000001
 40
0.0
 40
0.0
 40
0.0
 40
0.0
 40
0.2500268527
 40
0.5000011935
 40
0.7499757481
 40
1.0
 40
1.0
 40
1.0
 40
1.0
 10
129.4371142278
 20
101.7512416136
 30
0.0
 10
129.3753295559
 20
101.7512414533
 30
0.0
 10
129.2503884864
 20
101.7270805123
 30
0.0
 10
129.0920791589
 20
101.6217872181
 30
0.0
 10
128.9867867114
 20
101.4634778928
 30
0.0
 10
128.9626266844
 20
101.3385374984
 30
0.0
 10
128.9626260834
 20
101.2767534692
 30
0.0
  0
SPLINE
  5
6CC
100
AcDbEntity
  8
RACCORDO
100
AcDbSpline
 62
250
  6
CONTINUOUS
 70
0
 71
3
 72
13
 73
9
 74
0
 42
0.0000001
 43
0.0000001
 44
0.0000000001
 40
0.0
 40
0.0
 40
0.0
 40
0.0
 40
0.1253017943
 40
0.2505945202
 40
0.4999809004
 40
0.7493803291
 40
0.8746867077
 40
1.0
 40
1.0
 40
1.0
 40
1.0
 10
167.3879633405
 20
131.3238800988
 30
0.0
 10
167.3879250812
 20
131.245432437
 30
0.0
 10
167.403396896
 20
131.0880531491
 30
0.0
 10
167.4946916783
 20
130.7869557752
 30
0.0
 10
167.7176973017
 20
130.4529247269
 30
0.0
 10
168.0522879385
 20
130.230856555
 30
0.0
 10
168.353508811
 20
130.1399659191
 30
0.0
 10
168.5108900037
 20
130.1245103216
 30
0.0
 10
168.5893448733
 20
130.1245060637
 30
0.0
  0
SPLINE
  5
6CD
100
AcDbEntity
  8
RACCORDO
100
AcDbSpline
 62
250
  6
CONTINUOUS
 70
0
 71
3
 72
13
 73
9
 74
0
 42
0.0000001
 43
0.0000001
 44
0.0000000001
 40
0.0
 40
0.0
 40
0.0
 40
0.0
 40
0.1253103474
 40
0.2506076706
 40
0.5000071069
 40
0.7493989592
 40
0.874694832
 40
1.0
 40
1.0
 40
1.0
 40
1.0
 10
139.0962994883
 20
130.1245060637
 30
0.0
 10
139.1747524452
 20
130.1245098456
 30
0.0
 10
139.3321260637
 20
130.139964097
 30
0.0
 10
139.633340005
 20
130.2308497514
 30
0.0
 10
139.9679322216
 20
130.4529097988
 30
0.0
 10
140.1909476992
 20
130.7869422774
 30
0.0
 10
140.2822434198
 20
131.0880461767
 30
0.0
 10
140.2977225925
 20
131.2454292269
 30
0.0
 10
140.2976813126
 20
131.3238789304
 30
0.0
  0
SPLINE
  5
6CE
100
AcDbEntity
  8
RACCORDO
100
AcDbSpline
 62
7
  6
CONTINUOUS
 70
0
 71
3
 72
12
 73
8
 74
0
 42
0.0000001
 43
0.0000001
 44
0.0000000001
 40
0.0
 40
0.0
 40
0.0
 40
0.0
 40
0.1507427591
 40
0.2973168868
 40
0.5573379679
 40
0.7854416497
 40
1.0
 40
1.0
 40
1.0
 40
1.0
 10
125.8954140111
 20
164.5298156731
 30
0.0
 10
125.9125586206
 20
164.5324990024
 30
0.0
 10
125.9472794114
 20
164.5332532044
 30
0.0
 10
126.0101479353
 20
164.5176276258
 30
0.0
 10
126.0723938804
 20
164.4739852128
 30
0.0
 10
126.1141809763
 20
164.402445541
 30
0.0
 10
126.1223448111
 20
164.3508735121
 30
0.0
 10
126.121913742
 20
164.3261775749
 30
0.0
  0
SPLINE
  5
6CF
100
AcDbEntity
  8
RACCORDO
100
AcDbSpline
 62
7
  6
CONTINUOUS
 70
0
 71
3
 72
25
 73
21
 74
0
 42
0.0000001
 43
0.0000001
 44
0.0000000001
 40
0.0
 40
0.0
 40
0.0
 40
0.0
 40
0.2722180086
 40
0.4077249632
 40
0.5423829519
 40
0.6755535954
 40
0.7411937621
 40
0.8057761288
 40
0.8685976611
 40
0.9279940717
 40
0.9550991925
 40
0.9674636862
 40
0.9786444434
 40
0.9881429006
 40
0.9920029985
 40
0.9951265518
 40
0.9974184194
 40
0.9988238221
 40
0.9993386853
 40
1.0
 40
1.0
 40
1.0
 40
1.0
 10
148.4986664944
 20
129.2210455163
 30
0.0
 10
148.5598864562
 20
129.2022965761
 30
0.0
 10
148.6516898332
 20
129.1745682025
 30
0.0
 10
148.7740183658
 20
129.1383747651
 30
0.0
 10
148.8650808956
 20
129.1117816172
 30
0.0
 10
148.9404373559
 20
129.0900295435
 30
0.0
 10
148.9999856076
 20
129.0729435244
 30
0.0
 10
149.0436362414
 20
129.060445647
 30
0.0
 10
149.0858712348
 20
129.0483377059
 30
0.0
 10
149.1196136446
 20
129.0385951946
 30
0.0
 10
149.1419198387
 20
129.0320208427
 30
0.0
 10
149.1533253028
 20
129.0285852551
 30
0.0
 10
149.1607546685
 20
129.0262895578
 30
0.0
 10
149.1662464309
 20
129.0245462663
 30
0.0
 10
149.1699299918
 20
129.0232852896
 30
0.0
 10
149.1719600571
 20
129.0225863469
 30
0.0
 10
149.173507807
 20
129.0219058376
 30
0.0
 10
149.1743040048
 20
129.0216467097
 30
0.0
 10
149.1749583927
 20
129.021059883
 30
0.0
 10
149.1744693547
 20
129.0210455163
 30
0.0
 10
149.1743138112
 20
129.0210455163
 30
0.0
  0
SPLINE
  5
6D0
100
AcDbEntity
  8
RACCORDO
100
AcDbSpline
 62
250
  6
CONTINUOUS
 70
0
 71
3
 72
16
 73
12
 74
0
 42
0.0000001
 43
0.0000001
 44
0.0000000001
 40
0.0
 40
0.0
 40
0.0
 40
0.0
 40
0.0074435285
 40
0.02428785
 40
0.0505068276
 40
0.0858198691
 40
0.1818685662
 40
0.3080571758
 40
0.4590189091
 40
0.6287724126
 40
1.0
 40
1.0
 40
1.0
 40
1.0
 10
125.8525954667
 20
164.4601431164
 30
0.0
 10
125.8524593349
 20
164.4599223799
 30
0.0
 10
125.8515415403
 20
164.4596821352
 30
0.0
 10
125.8499585851
 20
164.4591207999
 30
0.0
 10
125.8472544314
 20
164.4584927044
 30
0.0
 10
125.8419289659
 20
164.4572669284
 30
0.0
 10
125.8331137579
 20
164.4554904615
 30
0.0
 10
125.8203534462
 20
164.4530360069
 30
0.0
 10
125.805037335
 20
164.4502159161
 30
0.0
 10
125.7813109333
 20
164.4459511152
 30
0.0
 10
125.7627438005
 20
164.4427045203
 30
0.0
 10
125.7499988902
 20
164.4405017422
 30
0.0
  0
SPLINE
  5
6D1
100
AcDbEntity
  8
RACCORDO
100
AcDbSpline
 62
250
  6
CONTINUOUS
 70
0
 71
3
 72
16
 73
12
 74
0
 42
0.0000001
 43
0.0000001
 44
0.0000000001
 40
0.0
 40
0.0
 40
0.0
 40
0.0
 40
0.3712266087
 40
0.5409792196
 40
0.6919399486
 40
0.8181285375
 40
0.9141781032
 40
0.9494919324
 40
0.9757112402
 40
0.9925561215
 40
1.0
 40
1.0
 40
1.0
 40
1.0
 10
128.4356454713
 20
164.4405017422
 30
0.0
 10
128.4229005948
 20
164.4427045145
 30
0.0
 10
128.4043335266
 20
164.4459510987
 30
0.0
 10
128.3806072235
 20
164.4502158798
 30
0.0
 10
128.3652911786
 20
164.4530359591
 30
0.0
 10
128.352530871
 20
164.4554904065
 30
0.0
 10
128.3437156079
 20
164.457266885
 30
0.0
 10
128.3383900727
 20
164.4584926676
 30
0.0
 10
128.3356858635
 20
164.4591207807
 30
0.0
 10
128.3341028691
 20
164.4596821338
 30
0.0
 10
128.3331850371
 20
164.4599223721
 30
0.0
 10
128.3330488947
 20
164.4601431164
 30
0.0
  0
LINE
  5
6D2
100
AcDbEntity
  8
RACCORDO
100
AcDbLine
 62
250
  6
CONTINUOUS
 10
134.9620924232
 20
158.0827857223
 11
134.8502631011
 21
158.0816251141
  0
LINE
  5
6D3
100
AcDbEntity
  8
RACCORDO
100
AcDbLine
 62
7
  6
CONTINUOUS
 10
148.8938935698
 20
164.2422361645
 11
148.9474885864
 21
164.2592313072
  0
SPLINE
  5
6D4
100
AcDbEntity
  8
RACCORDO
100
AcDbSpline
 62
7
  6
CONTINUOUS
 70
0
 71
3
 72
10
 73
6
 74
0
 42
0.0000001
 43
0.0000001
 44
0.0000000001
 40
0.0
 40
0.0
 40
0.0
 40
0.0
 40
0.2306880317
 40
0.4832724057
 40
1.0
 40
1.0
 40
1.0
 40
1.0
 10
148.8938935698
 20
164.2422361645
 30
0.0
 10
148.8466661018
 20
164.2272635628
 30
0.0
 10
148.7471683132
 20
164.1976967407
 30
0.0
 10
148.5417222704
 20
164.1351243141
 30
0.0
 10
148.384005485
 20
164.085870692
 30
0.0
 10
148.2783140828
 20
164.0520336824
 30
0.0
  0
SPLINE
  5
6D5
100
AcDbEntity
  8
RACCORDO
100
AcDbSpline
 62
7
  6
CONTINUOUS
 70
0
 71
3
 72
12
 73
8
 74
0
 42
0.0000001
 43
0.0000001
 44
0.0000000001
 40
0.0
 40
0.0
 40
0.0
 40
0.0
 40
0.2145740476
 40
0.4426989191
 40
0.702768765
 40
0.8493019221
 40
1.0
 40
1.0
 40
1.0
 40
1.0
 10
128.0637306195
 20
164.3261775749
 30
0.0
 10
128.0632995198
 20
164.3508752603
 30
0.0
 10
128.0714646268
 20
164.4024514081
 30
0.0
 10
128.1132593321
 20
164.4739989441
 30
0.0
 10
128.1755153031
 20
164.5176348487
 30
0.0
 10
128.2383803588
 20
164.5332531813
 30
0.0
 10
128.2730908633
 20
164.5324982007
 30
0.0
 10
128.2902303503
 20
164.5298156731
 30
0.0
  0
LINE
  5
6D6
100
AcDbEntity
  8
RACCORDO
100
AcDbLine
 62
7
  6
CONTINUOUS
 10
158.7917507909
 20
164.2422361647
 11
158.738155775
 21
164.2592313072
  0
SPLINE
  5
6D7
100
AcDbEntity
  8
RACCORDO
100
AcDbSpline
 62
7
  6
CONTINUOUS
 70
0
 71
3
 72
25
 73
21
 74
0
 42
0.0000001
 43
0.0000001
 44
0.0000000001
 40
0.0
 40
0.0
 40
0.0
 40
0.0
 40
0.0006605561
 40
0.0011769243
 40
0.0025840104
 40
0.0048763712
 40
0.0079992633
 40
0.0118587152
 40
0.0213555183
 40
0.0325349337
 40
0.0448989708
 40
0.0719981259
 40
0.1313967064
 40
0.1942186269
 40
0.258801601
 40
0.324442375
 40
0.4576139639
 40
0.5922727403
 40
0.7277804691
 40
1.0
 40
1.0
 40
1.0
 40
1.0
 10
158.5113305502
 20
129.0210455163
 30
0.0
 10
158.5111751854
 20
129.0210455163
 30
0.0
 10
158.5106861019
 20
129.0210605851
 30
0.0
 10
158.5113430957
 20
129.0216469121
 30
0.0
 10
158.5121388377
 20
129.02190677
 30
0.0
 10
158.5136875136
 20
129.022587164
 30
0.0
 10
158.5157170905
 20
129.0232863436
 30
0.0
 10
158.5194001083
 20
129.024547014
 30
0.0
 10
158.5248909959
 20
129.0262900035
 30
0.0
 10
158.5323196381
 20
129.0285853204
 30
0.0
 10
158.5437233371
 20
129.0320203262
 30
0.0
 10
158.5660284289
 20
129.03859475
 30
0.0
 10
158.5997700863
 20
129.0483367322
 30
0.0
 10
158.6420056823
 20
129.0604449788
 30
0.0
 10
158.6856566066
 20
129.0729429028
 30
0.0
 10
158.745205234
 20
129.0900290368
 30
0.0
 10
158.8205620857
 20
129.1117812122
 30
0.0
 10
158.9116250111
 20
129.1383744786
 30
0.0
 10
159.0339540171
 20
129.1745680358
 30
0.0
 10
159.1257577222
 20
129.2022965722
 30
0.0
 10
159.1869779325
 20
129.2210455163
 30
0.0
  0
SPLINE
  5
6D8
100
AcDbEntity
  8
RACCORDO
100
AcDbSpline
 62
7
  6
CONTINUOUS
 70
0
 71
3
 72
10
 73
6
 74
0
 42
0.0000001
 43
0.0000001
 44
0.0000000001
 40
0.0
 40
0.0
 40
0.0
 40
0.0
 40
0.5167207254
 40
0.7693021489
 40
1.0
 40
1.0
 40
1.0
 40
1.0
 10
159.4073303247
 20
164.0520336824
 30
0.0
 10
159.3016402889
 20
164.085870147
 30
0.0
 10
159.1439255477
 20
164.1351232758
 30
0.0
 10
158.9384794766
 20
164.1976956621
 30
0.0
 10
158.8389802724
 20
164.2272629247
 30
0.0
 10
158.7917507909
 20
164.2422361647
 30
0.0
  0
SPLINE
  5
6D9
100
AcDbEntity
  8
RACCORDO
100
AcDbSpline
 62
250
  6
CONTINUOUS
 70
0
 71
3
 72
15
 73
11
 74
0
 42
0.0000001
 43
0.0000001
 44
0.0000000001
 40
0.0
 40
0.0
 40
0.0
 40
0.0
 40
0.1249824897
 40
0.2499626233
 40
0.3749640148
 40
0.4999743073
 40
0.6249867988
 40
0.7499929906
 40
0.8749902384
 40
1.0
 40
1.0
 40
1.0
 40
1.0
 10
132.7684770802
 20
146.197968399
 30
0.0
 10
132.8021237026
 20
146.2329115476
 30
0.0
 10
132.8800376951
 20
146.2933853437
 30
0.0
 10
133.0176359022
 20
146.3465604764
 30
0.0
 10
133.1648522768
 20
146.3579569147
 30
0.0
 10
133.309074632
 20
146.3262796465
 30
0.0
 10
133.4379597129
 20
146.2542124585
 30
0.0
 10
133.5404524367
 20
146.147898775
 30
0.0
 10
133.6079362282
 20
146.016692301
 30
0.0
 10
133.6258997282
 20
145.9196884238
 30
0.0
 10
133.6277729647
 20
145.871205057
 30
0.0
  0
SPLINE
  5
6DA
100
AcDbEntity
  8
RACCORDO
100
AcDbSpline
 62
7
  6
CONTINUOUS
 70
0
 71
3
 72
10
 73
6
 74
0
 42
0.0000001
 43
0.0000001
 44
0.0000000001
 40
0.0
 40
0.0
 40
0.0
 40
0.0
 40
0.2207937217
 40
0.4764228057
 40
1.0
 40
1.0
 40
1.0
 40
1.0
 10
128.0879786991
 20
162.9370060214
 30
0.0
 10
128.0903817595
 20
162.7993411781
 30
0.0
 10
128.0931204028
 20
162.502251663
 30
0.0
 10
128.0951803086
 20
161.87866169
 30
0.0
 10
128.0957755165
 20
161.3927521375
 30
0.0
 10
128.0962522671
 20
161.0662524727
 30
0.0
  0
SPLINE
  5
6DB
100
AcDbEntity
  8
RACCORDO
100
AcDbSpline
 62
7
  6
CONTINUOUS
 70
0
 71
3
 72
10
 73
6
 74
0
 42
0.0000001
 43
0.0000001
 44
0.0000000001
 40
0.0
 40
0.0
 40
0.0
 40
0.0
 40
0.5235758559
 40
0.7792042505
 40
1.0
 40
1.0
 40
1.0
 40
1.0
 10
126.0893920943
 20
161.0662524727
 30
0.0
 10
126.0898716838
 20
161.3927512986
 30
0.0
 10
126.0904634157
 20
161.8786595917
 30
0.0
 10
126.0925240718
 20
162.5022495633
 30
0.0
 10
126.0952625719
 20
162.7993399138
 30
0.0
 10
126.0976656623
 20
162.9370060213
 30
0.0
  0
SPLINE
  5
6DC
100
AcDbEntity
  8
RACCORDO
100
AcDbSpline
 62
250
  6
CONTINUOUS
 70
0
 71
3
 72
20
 73
16
 74
0
 42
0.0000001
 43
0.0000001
 44
0.0000000001
 40
0.0
 40
0.0
 40
0.0
 40
0.0
 40
0.2497898698
 40
0.3746957145
 40
0.4996075079
 40
0.6245287321
 40
0.749465677
 40
0.8119578573
 40
0.8744698534
 40
0.9057518855
 40
0.9370604276
 40
0.9527415429
 40
0.9684570154
 40
0.9842196155
 40
1.0
 40
1.0
 40
1.0
 40
1.0
 10
128.0962522671
 20
161.0662524727
 30
0.0
 10
128.0959561303
 20
161.1681355053
 30
0.0
 10
128.0923314878
 20
161.3209884754
 30
0.0
 10
128.0803431967
 20
161.5244286824
 30
0.0
 10
128.0672193069
 20
161.6767379278
 30
0.0
 10
128.0489782418
 20
161.8285311811
 30
0.0
 10
128.0280384942
 20
161.9542955249
 30
0.0
 10
128.0054586879
 20
162.0537322912
 30
0.0
 10
127.9877363057
 20
162.1150517074
 30
0.0
 10
127.9697274552
 20
162.162820732
 30
0.0
 10
127.956012596
 20
162.1917368191
 30
0.0
 10
127.9425021562
 20
162.2134979085
 30
0.0
 10
127.9304286935
 20
162.2285520087
 30
0.0
 10
127.9156352775
 20
162.2412088117
 30
0.0
 10
127.9027191789
 20
162.2453089255
 30
0.0
 10
127.8962827281
 20
162.245309585
 30
0.0
  0
SPLINE
  5
6DD
100
AcDbEntity
  8
RACCORDO
100
AcDbSpline
 62
250
  6
CONTINUOUS
 70
0
 71
3
 72
20
 73
16
 74
0
 42
0.0000001
 43
0.0000001
 44
0.0000000001
 40
0.0
 40
0.0
 40
0.0
 40
0.0
 40
0.0157633593
 40
0.0315299753
 40
0.0472442802
 40
0.0629341501
 40
0.0942472737
 40
0.1255308808
 40
0.1880460784
 40
0.250539135
 40
0.3754763874
 40
0.5003972788
 40
0.625308485
 40
0.7502136534
 40
1.0
 40
1.0
 40
1.0
 40
1.0
 10
126.2893616333
 20
162.245309585
 30
0.0
 10
126.2829321316
 20
162.2453090327
 30
0.0
 10
126.2700190325
 20
162.2412173514
 30
0.0
 10
126.2552357408
 20
162.2285572968
 30
0.0
 10
126.2431431848
 20
162.2135131238
 30
0.0
 10
126.2296436171
 20
162.1917380988
 30
0.0
 10
126.2159212618
 20
162.1628208057
 30
0.0
 10
126.1978956497
 20
162.1150531011
 30
0.0
 10
126.180189509
 20
162.0537263704
 30
0.0
 10
126.1576020609
 20
161.954290107
 30
0.0
 10
126.1366654214
 20
161.8285245091
 30
0.0
 10
126.1184245792
 20
161.6767317928
 30
0.0
 10
126.1053012396
 20
161.524423219
 30
0.0
 10
126.0933131936
 20
161.3209851249
 30
0.0
 10
126.0896888182
 20
161.168133989
 30
0.0
 10
126.0893920943
 20
161.0662524727
 30
0.0
  0
SPLINE
  5
6DE
100
AcDbEntity
  8
RACCORDO
100
AcDbSpline
 62
250
  6
CONTINUOUS
 70
0
 71
3
 72
9
 73
5
 74
0
 42
0.0000001
 43
0.0000001
 44
0.0000000001
 40
0.0
 40
0.0
 40
0.0
 40
0.0
 40
0.2702408687
 40
1.0
 40
1.0
 40
1.0
 40
1.0
 10
176.8865207696
 20
99.490849419
 30
0.0
 10
176.8865210233
 20
99.3921689732
 30
0.0
 10
176.8871025253
 20
99.0270128119
 30
0.0
 10
176.889585059
 20
98.6618524311
 30
0.0
 10
176.8935027956
 20
98.395404304
 30
0.0
  0
SPLINE
  5
6DF
100
AcDbEntity
  8
RACCORDO
100
AcDbSpline
 62
250
  6
CONTINUOUS
 70
0
 71
3
 72
9
 73
5
 74
0
 42
0.0000001
 43
0.0000001
 44
0.0000000001
 40
0.0
 40
0.0
 40
0.0
 40
0.0
 40
0.2702471793
 40
1.0
 40
1.0
 40
1.0
 40
1.0
 10
130.7991235918
 20
101.7512416136
 30
0.0
 10
130.7991233432
 20
101.8499243639
 30
0.0
 10
130.7985418136
 20
102.2150805251
 30
0.0
 10
130.7960592566
 20
102.5802409055
 30
0.0
 10
130.7921415658
 20
102.8466867286
 30
0.0
  0
LINE
  5
6E0
100
AcDbEntity
  8
RACCORDO
100
AcDbLine
 62
250
  6
CONTINUOUS
 10
143.965944847
 20
164.2519118478
 11
143.9265413318
 21
164.3990665665
  0
LINE
  5
6E1
100
AcDbEntity
  8
RACCORDO
100
AcDbLine
 62
250
  6
CONTINUOUS
 10
148.8938935702
 20
164.2519118478
 11
148.8738373234
 21
164.3990665665
  0
LINE
  5
6E2
100
AcDbEntity
  8
RACCORDO
100
AcDbLine
 62
250
  6
CONTINUOUS
 10
158.7917507912
 20
164.2519118478
 11
158.811807038
 21
164.3990665665
  0
LINE
  5
6E3
100
AcDbEntity
  8
RACCORDO
100
AcDbLine
 62
250
  6
CONTINUOUS
 10
163.7591030296
 20
164.3990665665
 11
163.7196995144
 21
164.2519118478
  0
SPLINE
  5
6E4
100
AcDbEntity
  8
RACCORDO
100
AcDbSpline
 62
250
  6
CONTINUOUS
 70
0
 71
3
 72
9
 73
5
 74
0
 42
0.0000001
 43
0.0000001
 44
0.0000000001
 40
0.0
 40
0.0
 40
0.0
 40
0.0
 40
0.2748329726
 40
1.0
 40
1.0
 40
1.0
 40
1.0
 10
167.2557002883
 20
131.4737384658
 30
0.0
 10
167.3145972198
 20
131.5257192952
 30
0.0
 10
167.5288589882
 20
131.7148957967
 30
0.0
 10
167.7424473282
 20
131.9048626158
 30
0.0
 10
167.8955090016
 20
132.0446268952
 30
0.0
  0
LINE
  5
6E5
100
AcDbEntity
  8
RACCORDO
100
AcDbLine
 62
250
  6
CONTINUOUS
 10
164.0083755363
 20
164.3324516579
 11
163.9698331899
 21
164.1848001263
  0
SPLINE
  5
6E6
100
AcDbEntity
  8
RACCORDO
100
AcDbSpline
 62
250
  6
CONTINUOUS
 70
0
 71
3
 72
9
 73
5
 74
0
 42
0.0000001
 43
0.0000001
 44
0.0000000001
 40
0.0
 40
0.0
 40
0.0
 40
0.0
 40
0.2281102739
 40
1.0
 40
1.0
 40
1.0
 40
1.0
 10
139.7901351166
 20
132.0446269514
 30
0.0
 10
139.8382788085
 20
132.000657833
 30
0.0
 10
140.0502409686
 20
131.808897563
 30
0.0
 10
140.2645278461
 20
131.6197319583
 30
0.0
 10
140.4299443608
 20
131.4737382142
 30
0.0
  0
LINE
  5
6E7
100
AcDbEntity
  8
RACCORDO
100
AcDbLine
 62
250
  6
CONTINUOUS
 10
137.0102140339
 20
157.8938462138
 11
136.8349231903
 21
157.8958000283
  0
LINE
  5
6E8
100
AcDbEntity
  8
RACCORDO
100
AcDbLine
 62
250
  6
CONTINUOUS
 10
143.7158111715
 20
164.1848001263
 11
143.6772688251
 21
164.3324516579
  0
LINE
  5
6E9
100
AcDbEntity
  8
RACCORDO
100
AcDbLine
 62
250
  6
CONTINUOUS
 10
158.7381557764
 20
164.2592313177
 11
158.7584204716
 21
164.4063281295
  0
LINE
  5
6EA
100
AcDbEntity
  8
RACCORDO
100
AcDbLine
 62
250
  6
CONTINUOUS
 10
148.9474885864
 20
164.2592313072
 11
148.9272238898
 21
164.4063281295
  0
SPLINE
  5
6EB
100
AcDbEntity
  8
RACCORDO
100
AcDbSpline
 62
250
  6
CONTINUOUS
 70
0
 71
3
 72
9
 73
5
 74
0
 42
0.0000001
 43
0.0000001
 44
0.0000000001
 40
0.0
 40
0.0
 40
0.0
 40
0.0
 40
0.4919753629
 40
1.0
 40
1.0
 40
1.0
 40
1.0
 10
85.9101258803
 20
128.9120648519
 30
0.0
 10
85.9025294885
 20
128.9334501952
 30
0.0
 10
85.8781014979
 20
128.9741171627
 30
0.0
 10
85.8406432175
 20
129.0029105575
 30
0.0
 10
85.8199148166
 20
129.0138432074
 30
0.0
  0
SPLINE
  5
6EC
100
AcDbEntity
  8
RACCORDO
100
AcDbSpline
 62
250
  6
CONTINUOUS
 70
0
 71
3
 72
9
 73
5
 74
0
 42
0.0000001
 43
0.0000001
 44
0.0000000001
 40
0.0
 40
0.0
 40
0.0
 40
0.0
 40
0.7477994313
 40
1.0
 40
1.0
 40
1.0
 40
1.0
 10
85.8199148166
 20
129.0138432074
 30
0.0
 10
85.7970916547
 20
129.025880684
 30
0.0
 10
85.7630876227
 20
129.0362652794
 30
0.0
 10
85.7286168366
 20
129.0383230032
 30
0.0
 10
85.7199145771
 20
129.0383230032
 30
0.0
  0
SPLINE
  5
6ED
100
AcDbEntity
  8
RACCORDO
100
AcDbSpline
 62
250
  6
CONTINUOUS
 70
0
 71
3
 72
9
 73
5
 74
0
 42
0.0000001
 43
0.0000001
 44
0.0000000001
 40
0.0
 40
0.0
 40
0.0
 40
0.0
 40
0.4917326101
 40
1.0
 40
1.0
 40
1.0
 40
1.0
 10
85.9199145771
 20
130.0710455163
 30
0.0
 10
85.9199145771
 20
130.0888854201
 30
0.0
 10
85.9130158764
 20
130.1254577131
 30
0.0
 10
85.8936863899
 20
130.1571049873
 30
0.0
 10
85.8817114655
 20
130.1711273511
 30
0.0
  0
SPLINE
  5
6EE
100
AcDbEntity
  8
RACCORDO
100
AcDbSpline
 62
250
  6
CONTINUOUS
 70
0
 71
3
 72
9
 73
5
 74
0
 42
0.0000001
 43
0.0000001
 44
0.0000000001
 40
0.0
 40
0.0
 40
0.0
 40
0.0
 40
0.244519411
 40
1.0
 40
1.0
 40
1.0
 40
1.0
 10
85.8817114655
 20
130.1711273511
 30
0.0
 10
85.8775726119
 20
130.1759738545
 30
0.0
 10
85.8595649214
 20
130.1948586002
 30
0.0
 10
85.8375646194
 20
130.2098211629
 30
0.0
 10
85.8198910576
 20
130.2185039067
 30
0.0
  0
SPLINE
  5
6EF
100
AcDbEntity
  8
RACCORDO
100
AcDbSpline
 62
250
  6
CONTINUOUS
 70
0
 71
3
 72
9
 73
5
 74
0
 42
0.0000001
 43
0.0000001
 44
0.0000000001
 40
0.0
 40
0.0
 40
0.0
 40
0.0
 40
0.2468472752
 40
1.0
 40
1.0
 40
1.0
 40
1.0
 10
85.8198910576
 20
130.2185039067
 30
0.0
 10
85.8122808757
 20
130.2222426697
 30
0.0
 10
85.7805654438
 20
130.2355404711
 30
0.0
 10
85.7457847109
 20
130.2413019266
 30
0.0
 10
85.7199145771
 20
130.2413019266
 30
0.0
  0
SPLINE
  5
6F0
100
AcDbEntity
  8
RACCORDO
100
AcDbSpline
 62
250
  6
CONTINUOUS
 70
0
 71
3
 72
9
 73
5
 74
0
 42
0.0000001
 43
0.0000001
 44
0.0000000001
 40
0.0
 40
0.0
 40
0.0
 40
0.0
 40
0.745647348
 40
1.0
 40
1.0
 40
1.0
 40
1.0
 10
85.9188591742
 20
130.1648707778
 30
0.0
 10
85.9172710976
 20
130.1772943621
 30
0.0
 10
85.9127140821
 20
130.1937673663
 30
0.0
 10
85.9053978499
 20
130.208894519
 30
0.0
 10
85.903373849
 20
130.212657044
 30
0.0
  0
SPLINE
  5
6F1
100
AcDbEntity
  8
RACCORDO
100
AcDbSpline
 62
250
  6
CONTINUOUS
 70
0
 71
3
 72
9
 73
5
 74
0
 42
0.0000001
 43
0.0000001
 44
0.0000000001
 40
0.0
 40
0.0
 40
0.0
 40
0.0
 40
0.4753067798
 40
1.0
 40
1.0
 40
1.0
 40
1.0
 10
85.903373849
 20
130.212657044
 30
0.0
 10
85.8877434871
 20
130.24171317
 30
0.0
 10
85.8334117906
 20
130.2917148688
 30
0.0
 10
85.7633016111
 20
130.3086817645
 30
0.0
 10
85.7268944764
 20
130.3097079842
 30
0.0
  0
SPLINE
  5
6F2
100
AcDbEntity
  8
RACCORDO
100
AcDbSpline
 62
250
  6
CONTINUOUS
 70
0
 71
3
 72
11
 73
7
 74
0
 42
0.0000001
 43
0.0000001
 44
0.0000000001
 40
0.0
 40
0.0
 40
0.0
 40
0.0
 40
0.2168737283
 40
0.4541120375
 40
0.7179368211
 40
1.0
 40
1.0
 40
1.0
 40
1.0
 10
85.9199145771
 20
131.3238801099
 30
0.0
 10
85.9199145012
 20
131.3432256008
 30
0.0
 10
85.9086959646
 20
131.3842430652
 30
0.0
 10
85.8642743968
 20
131.4328391589
 30
0.0
 10
85.8008771027
 20
131.4649357084
 30
0.0
 10
85.7520464072
 20
131.4730800944
 30
0.0
 10
85.7268945261
 20
131.4737384658
 30
0.0
  0
LINE
  5
6F3
100
AcDbEntity
  8
RACCORDO
100
AcDbLine
 62
250
  6
CONTINUOUS
 10
84.6129346777
 20
164.2519118478
 11
84.6129346777
 21
164.2592313072
  0
LINE
  5
6F4
100
AcDbEntity
  8
RACCORDO
100
AcDbLine
 62
250
  6
CONTINUOUS
 10
88.8268944764
 20
164.4063281295
 11
88.8268944764
 21
164.3990665665
  0
SPLINE
  5
6F5
100
AcDbEntity
  8
RACCORDO
100
AcDbSpline
 62
250
  6
CONTINUOUS
 70
0
 71
3
 72
11
 73
7
 74
0
 42
0.0000001
 43
0.0000001
 44
0.0000000001
 40
0.0
 40
0.0
 40
0.0
 40
0.0
 40
0.266288377
 40
0.5229993689
 40
0.7663471686
 40
1.0
 40
1.0
 40
1.0
 40
1.0
 10
88.8268944764
 20
164.3324516579
 30
0.0
 10
88.8521662402
 20
164.3332165191
 30
0.0
 10
88.9019796364
 20
164.3429530963
 30
0.0
 10
88.9658047673
 20
164.3809732662
 30
0.0
 10
89.0094227308
 20
164.4376520473
 30
0.0
 10
89.0199145771
 20
164.4834991779
 30
0.0
 10
89.0199145771
 20
164.5056838599
 30
0.0
  0
SPLINE
  5
6F6
100
AcDbEntity
  8
RACCORDO
100
AcDbSpline
 62
250
  6
CONTINUOUS
 70
0
 71
3
 72
8
 73
4
 74
0
 42
0.0000001
 43
0.0000001
 44
0.0000000001
 40
0.0
 40
0.0
 40
0.0
 40
0.0
 40
1.0
 40
1.0
 40
1.0
 40
1.0
 10
88.867396795
 20
164.4117304565
 30
0.0
 10
88.8871455287
 20
164.4163755616
 30
0.0
 10
88.906414614
 20
164.424051774
 30
0.0
 10
88.9239137085
 20
164.4343168202
 30
0.0
  0
SPLINE
  5
6F7
100
AcDbEntity
  8
RACCORDO
100
AcDbSpline
 62
250
  6
CONTINUOUS
 70
0
 71
3
 72
9
 73
5
 74
0
 42
0.0000001
 43
0.0000001
 44
0.0000000001
 40
0.0
 40
0.0
 40
0.0
 40
0.0
 40
0.5031648419
 40
1.0
 40
1.0
 40
1.0
 40
1.0
 10
88.9239137085
 20
164.4343168202
 30
0.0
 10
88.9440863567
 20
164.4461501847
 30
0.0
 10
88.9803607191
 20
164.4769630717
 30
0.0
 10
89.0033392612
 20
164.5187293456
 30
0.0
 10
89.0105524476
 20
164.5406669711
 30
0.0
  0
SPLINE
  5
6F8
100
AcDbEntity
  8
RACCORDO
100
AcDbSpline
 62
250
  6
CONTINUOUS
 70
0
 71
3
 72
11
 73
7
 74
0
 42
0.0000001
 43
0.0000001
 44
0.0000000001
 40
0.0
 40
0.0
 40
0.0
 40
0.0
 40
0.2869268974
 40
0.5530570873
 40
0.7884913925
 40
1.0
 40
1.0
 40
1.0
 40
1.0
 10
88.8268944764
 20
132.086589611
 30
0.0
 10
88.8520146967
 20
132.0859617887
 30
0.0
 10
88.9005806379
 20
132.0782572328
 30
0.0
 10
88.9637999881
 20
132.0478472864
 30
0.0
 10
89.0084253772
 20
132.0016760304
 30
0.0
 10
89.0199145771
 20
131.9620609194
 30
0.0
 10
89.0199145771
 20
131.9435377276
 30
0.0
  0
LINE
  5
6F9
100
AcDbEntity
  8
RACCORDO
100
AcDbLine
 62
250
  6
CONTINUOUS
 10
84.6129349781
 20
164.2592313177
 11
88.8268944764
 21
164.4063281295
  0
SPLINE
  5
6FA
100
AcDbEntity
  8
RACCORDO
100
AcDbSpline
 62
250
  6
CONTINUOUS
 70
0
 71
3
 72
16
 73
12
 74
0
 42
0.0000001
 43
0.0000001
 44
0.0000000001
 40
0.0
 40
0.0
 40
0.0
 40
0.0
 40
0.4315623513
 40
0.6036315139
 40
0.745392798
 40
0.8563072863
 40
0.9358797346
 40
0.9638164683
 40
0.9838204641
 40
0.9958726392
 40
1.0
 40
1.0
 40
1.0
 40
1.0
 10
84.6129346777
 20
164.1848001263
 30
0.0
 10
84.6128623406
 20
164.1944555186
 30
0.0
 10
84.6127703454
 20
164.2079626517
 30
0.0
 10
84.6127032666
 20
164.22463547
 30
0.0
 10
84.6126791446
 20
164.234147503
 30
0.0
 10
84.6127053611
 20
164.2415580046
 30
0.0
 10
84.6127083874
 20
164.2464931368
 30
0.0
 10
84.6127987307
 20
164.2492806567
 30
0.0
 10
84.6127689898
 20
164.2507297983
 30
0.0
 10
84.6129309896
 20
164.2513475066
 30
0.0
 10
84.6128423911
 20
164.2519085803
 30
0.0
 10
84.6129346777
 20
164.2519118478
 30
0.0
  0
SPLINE
  5
6FB
100
AcDbEntity
  8
RACCORDO
100
AcDbSpline
 62
250
  6
CONTINUOUS
 70
0
 71
3
 72
16
 73
12
 74
0
 42
0.0000001
 43
0.0000001
 44
0.0000000001
 40
0.0
 40
0.0
 40
0.0
 40
0.0
 40
0.0040623698
 40
0.0160473443
 40
0.0359867596
 40
0.0638656051
 40
0.1433544862
 40
0.2542100957
 40
0.3959815394
 40
0.5681610039
 40
1.0
 40
1.0
 40
1.0
 40
1.0
 10
88.8268944764
 20
164.3990665665
 30
0.0
 10
88.8269846403
 20
164.3990696817
 30
0.0
 10
88.8268992638
 20
164.3985027624
 30
0.0
 10
88.8270581012
 20
164.3979075379
 30
0.0
 10
88.8270294273
 20
164.3964653434
 30
0.0
 10
88.8271187987
 20
164.3937080181
 30
0.0
 10
88.8271221837
 20
164.388810118
 30
0.0
 10
88.8271481554
 20
164.3814592197
 30
0.0
 10
88.8271242064
 20
164.3720155189
 30
0.0
 10
88.82705729
 20
164.3554576327
 30
0.0
 10
88.8269659715
 20
164.3420417295
 30
0.0
 10
88.8268944764
 20
164.3324516579
 30
0.0
  0
SPLINE
  5
6FC
100
AcDbEntity
  8
RACCORDO
100
AcDbSpline
 62
250
  6
CONTINUOUS
 70
0
 71
3
 72
18
 73
14
 74
0
 42
0.0000001
 43
0.0000001
 44
0.0000000001
 40
0.0
 40
0.0
 40
0.0
 40
0.0
 40
0.1947075472
 40
0.3822846887
 40
0.5549296413
 40
0.706247723
 40
0.8305265816
 40
0.8809371057
 40
0.9229059955
 40
0.9560147613
 40
0.9799328444
 40
0.9945375041
 40
1.0
 40
1.0
 40
1.0
 40
1.0
 10
84.6146791874
 20
57.1158768905
 30
0.0
 10
84.6143394178
 20
57.1028927133
 30
0.0
 10
84.6137371823
 20
57.077397966
 30
0.0
 10
84.6130560013
 20
57.0403862065
 30
0.0
 10
84.6126282407
 20
57.0062627181
 30
0.0
 10
84.6124716244
 20
56.9763671543
 30
0.0
 10
84.612559092
 20
56.9546051923
 30
0.0
 10
84.6128041561
 20
56.9401764039
 30
0.0
 10
84.6130271725
 20
56.9317598086
 30
0.0
 10
84.6133422389
 20
56.9252895352
 30
0.0
 10
84.6136261027
 20
56.9202286311
 30
0.0
 10
84.6140890031
 20
56.9178451811
 30
0.0
 10
84.6143149181
 20
56.9159549642
 30
0.0
 10
84.6146791874
 20
56.9159454255
 30
0.0
  0
SPLINE
  5
6FD
100
AcDbEntity
  8
RACCORDO
100
AcDbSpline
 62
250
  6
CONTINUOUS
 70
0
 71
3
 72
18
 73
14
 74
0
 42
0.0000001
 43
0.0000001
 44
0.0000000001
 40
0.0
 40
0.0
 40
0.0
 40
0.0
 40
0.1950172195
 40
0.3826492273
 40
0.5554936336
 40
0.7069818581
 40
0.8311971219
 40
0.8815471099
 40
0.923409214
 40
0.9563900237
 40
0.9802026564
 40
0.9946682485
 40
1.0
 40
1.0
 40
1.0
 40
1.0
 10
88.8251499667
 20
57.0056218329
 30
0.0
 10
88.8254872577
 20
56.9926167128
 30
0.0
 10
88.8260929655
 20
56.9670973074
 30
0.0
 10
88.8267738326
 20
56.9300473243
 30
0.0
 10
88.8271998821
 20
56.8958948301
 30
0.0
 10
88.8273586774
 20
56.865978725
 30
0.0
 10
88.8272695598
 20
56.8442124898
 30
0.0
 10
88.8270243608
 20
56.8298001974
 30
0.0
 10
88.8268000236
 20
56.8214004196
 30
0.0
 10
88.8264899978
 20
56.8149597206
 30
0.0
 10
88.8261983784
 20
56.8099079905
 30
0.0
 10
88.8257526242
 20
56.8075744503
 30
0.0
 10
88.8255055323
 20
56.8056814166
 30
0.0
 10
88.8251499667
 20
56.8056903679
 30
0.0
  0
SPLINE
  5
6FE
100
AcDbEntity
  8
RACCORDO
100
AcDbSpline
 62
250
  6
CONTINUOUS
 70
0
 71
3
 72
18
 73
14
 74
0
 42
0.0000001
 43
0.0000001
 44
0.0000000001
 40
0.0
 40
0.0
 40
0.0
 40
0.0
 40
0.0054624945
 40
0.0200671507
 40
0.0439852295
 40
0.0770939884
 40
0.1190628667
 40
0.1694733812
 40
0.2937522271
 40
0.4450703032
 40
0.6177152724
 40
0.8052924427
 40
1.0
 40
1.0
 40
1.0
 40
1.0
 10
84.6146791874
 20
123.5261456071
 30
0.0
 10
84.6143149182
 20
123.5261360684
 30
0.0
 10
84.614089003
 20
123.5242458521
 30
0.0
 10
84.6136261027
 20
123.5218624025
 30
0.0
 10
84.613342239
 20
123.5168014994
 30
0.0
 10
84.6130271726
 20
123.5103312275
 30
0.0
 10
84.6128041562
 20
123.5019146342
 30
0.0
 10
84.6125590921
 20
123.487485848
 30
0.0
 10
84.6124716244
 20
123.4657238878
 30
0.0
 10
84.6126282406
 20
123.4358283241
 30
0.0
 10
84.6130560012
 20
123.4017048331
 30
0.0
 10
84.6137371823
 20
123.3646930699
 30
0.0
 10
84.6143394177
 20
123.33919832
 30
0.0
 10
84.6146791874
 20
123.3262141421
 30
0.0
  0
SPLINE
  5
6FF
100
AcDbEntity
  8
RACCORDO
100
AcDbSpline
 62
250
  6
CONTINUOUS
 70
0
 71
3
 72
18
 73
14
 74
0
 42
0.0000001
 43
0.0000001
 44
0.0000000001
 40
0.0
 40
0.0
 40
0.0
 40
0.0
 40
0.0053353786
 40
0.0198116032
 40
0.0436483651
 40
0.0766756879
 40
0.1185846768
 40
0.1690078088
 40
0.2933135661
 40
0.4447930546
 40
0.6175556654
 40
0.8050300331
 40
1.0
 40
1.0
 40
1.0
 40
1.0
 10
88.8251499667
 20
123.6364006647
 30
0.0
 10
88.8255057798
 20
123.6364093831
 30
0.0
 10
88.8257518716
 20
123.6345149313
 30
0.0
 10
88.8261984899
 20
123.6321792922
 30
0.0
 10
88.8264907265
 20
123.6271218479
 30
0.0
 10
88.826801186
 20
123.6206735044
 30
0.0
 10
88.8270251763
 20
123.6122625414
 30
0.0
 10
88.8272692466
 20
123.5978362283
 30
0.0
 10
88.8273587981
 20
123.5760596818
 30
0.0
 10
88.8271999452
 20
123.5461435955
 30
0.0
 10
88.8267722104
 20
123.5120077162
 30
0.0
 10
88.8260935395
 20
123.4749768544
 30
0.0
 10
88.8254871865
 20
123.4494711568
 30
0.0
 10
88.8251499667
 20
123.4364691997
 30
0.0
  0
LINE
  5
700
100
AcDbEntity
  8
RACCORDO
100
AcDbLine
 62
250
  6
CONTINUOUS
 10
85.7199037824
 20
130.3097060218
 11
84.6199038369
 21
130.3093966295
  0
LINE
  5
701
100
AcDbEntity
  8
RACCORDO
100
AcDbLine
 62
250
  6
CONTINUOUS
 10
88.8268944764
 20
164.3324516579
 11
84.6129346777
 21
164.1848001263
  0
LINE
  5
702
100
AcDbEntity
  8
RACCORDO
100
AcDbLine
 62
250
  6
CONTINUOUS
 10
88.8268944764
 20
132.086589611
 11
86.1129346776
 21
132.0446268952
  0
SPLINE
  5
703
100
AcDbEntity
  8
RACCORDO
100
AcDbSpline
 62
250
  6
CONTINUOUS
 70
0
 71
3
 72
12
 73
8
 74
0
 42
0.0000001
 43
0.0000001
 44
0.0000000001
 40
0.0
 40
0.0
 40
0.0
 40
0.0
 40
0.2267694497
 40
0.3467152905
 40
0.4711634074
 40
0.7309804651
 40
1.0
 40
1.0
 40
1.0
 40
1.0
 10
85.7268945261
 20
131.4737384658
 30
0.0
 10
85.7268954979
 20
131.5271234319
 30
0.0
 10
85.7489304344
 20
131.6089328614
 30
0.0
 10
85.8021068593
 20
131.7062065058
 30
0.0
 10
85.8709055074
 20
131.8033039476
 30
0.0
 10
85.9755638828
 20
131.9165535833
 30
0.0
 10
86.0665182838
 20
132.0015412946
 30
0.0
 10
86.1129346776
 20
132.0446268952
 30
0.0
  0
SPLINE
  5
704
100
AcDbEntity
  8
RACCORDO
100
AcDbSpline
 62
250
  6
CONTINUOUS
 70
0
 71
3
 72
27
 73
23
 74
0
 42
0.0000001
 43
0.0000001
 44
0.0000000001
 40
0.0
 40
0.0
 40
0.0
 40
0.0
 40
0.1950885855
 40
0.382664309
 40
0.5555526532
 40
0.6343753768
 40
0.7070863682
 40
0.7729908613
 40
0.8314479535
 40
0.8818994296
 40
0.9238587451
 40
0.9415247074
 40
0.9569200458
 40
0.9700120485
 40
0.9807692848
 40
0.9891613234
 40
0.9924641494
 40
0.9951697801
 40
0.997276986
 40
0.9987846122
 40
0.9996917758
 40
1.0
 40
1.0
 40
1.0
 40
1.0
 10
89.2164240958
 20
166.1723388652
 30
0.0
 10
89.2161971049
 20
166.2698691779
 30
0.0
 10
89.2157953308
 20
166.461174015
 30
0.0
 10
89.2153412051
 20
166.7389109214
 30
0.0
 10
89.2150966308
 20
166.9585233104
 30
0.0
 10
89.2149969169
 20
167.1207115042
 30
0.0
 10
89.2149712956
 20
167.2294153194
 30
0.0
 10
89.2149923029
 20
167.3279377598
 30
0.0
 10
89.215059472
 20
167.4153319623
 30
0.0
 10
89.2151717255
 20
167.490755275
 30
0.0
 10
89.2153072966
 20
167.545785627
 30
0.0
 10
89.2154438011
 20
167.5832906409
 30
0.0
 10
89.2155511003
 20
167.6063632752
 30
0.0
 10
89.2156665439
 20
167.6259840263
 30
0.0
 10
89.2157952215
 20
167.6420975817
 30
0.0
 10
89.2159065997
 20
167.653331425
 30
0.0
 10
89.2160214432
 20
167.6605146787
 30
0.0
 10
89.2160733683
 20
167.6646032922
 30
0.0
 10
89.216204511
 20
167.6676794377
 30
0.0
 10
89.2161512345
 20
167.6701266359
 30
0.0
 10
89.2164461555
 20
167.6711555584
 30
0.0
 10
89.2162700494
 20
167.6721067266
 30
0.0
 10
89.2164240958
 20
167.6721104079
 30
0.0
  0
SPLINE
  5
705
100
AcDbEntity
  8
RACCORDO
100
AcDbSpline
 62
250
  6
CONTINUOUS
 70
0
 71
3
 72
27
 73
23
 74
0
 42
0.0000001
 43
0.0000001
 44
0.0000000001
 40
0.0
 40
0.0
 40
0.0
 40
0.0
 40
0.0003081001
 40
0.0012150061
 40
0.0027222708
 40
0.0048290401
 40
0.0075341877
 40
0.0108365129
 40
0.0192274157
 40
0.0299822295
 40
0.043071366
 40
0.0584647088
 40
0.0761291161
 40
0.1180833758
 40
0.1685325154
 40
0.2269864212
 40
0.2928888462
 40
0.3655974274
 40
0.4444177895
 40
0.6173043736
 40
0.8048941975
 40
1.0
 40
1.0
 40
1.0
 40
1.0
 10
89.2164240958
 20
53.6699806247
 30
0.0
 10
89.2162701082
 20
53.6699841697
 30
0.0
 10
89.2164460916
 20
53.6709353443
 30
0.0
 10
89.2161512776
 20
53.6719636805
 30
0.0
 10
89.2162045075
 20
53.6744104832
 30
0.0
 10
89.2160733899
 20
53.6774859261
 30
0.0
 10
89.2160214638
 20
53.6815738548
 30
0.0
 10
89.2159066328
 20
53.6887560361
 30
0.0
 10
89.2157952768
 20
53.6999878585
 30
0.0
 10
89.2156665979
 20
53.7160981987
 30
0.0
 10
89.2155511543
 20
53.7357153093
 30
0.0
 10
89.2154438641
 20
53.7587847353
 30
0.0
 10
89.2153073678
 20
53.7962854469
 30
0.0
 10
89.2151717599
 20
53.8513113258
 30
0.0
 10
89.2150595137
 20
53.9267293501
 30
0.0
 10
89.214992313
 20
54.0141197578
 30
0.0
 10
89.2149712959
 20
54.1126383666
 30
0.0
 10
89.214996902
 20
54.2213387626
 30
0.0
 10
89.2150965868
 20
54.3835236914
 30
0.0
 10
89.2153411459
 20
54.6031410696
 30
0.0
 10
89.2157952877
 20
54.8808927531
 30
0.0
 10
89.2161970748
 20
55.0722132472
 30
0.0
 10
89.2164240958
 20
55.1697521674
 30
0.0
  0
SPLINE
  5
706
100
AcDbEntity
  8
RACCORDO
100
AcDbSpline
 62
250
  6
CONTINUOUS
 70
0
 71
3
 72
26
 73
22
 74
0
 42
0.0000001
 43
0.0000001
 44
0.0000000001
 40
0.0
 40
0.0
 40
0.0
 40
0.0
 40
0.1369551072
 40
0.2982503358
 40
0.469904077
 40
0.5549404826
 40
0.6369559889
 40
0.7141514027
 40
0.7848366625
 40
0.8474685114
 40
0.9006825989
 40
0.9233859139
 40
0.9433227203
 40
0.9603807379
 40
0.9744684144
 40
0.9855157492
 40
0.9934586441
 40
0.9962555236
 40
0.9982684753
 40
0.9995023603
 40
1.0
 40
1.0
 40
1.0
 40
1.0
 10
88.8268944764
 20
132.0865896109
 30
0.0
 10
88.8282524894
 20
132.0082956211
 30
0.0
 10
88.8304774264
 20
131.8377804218
 30
0.0
 10
88.8326967467
 20
131.5691156041
 30
0.0
 10
88.83370592
 20
131.330128701
 30
0.0
 10
88.8339494865
 20
131.1364696357
 30
0.0
 10
88.8338308171
 20
130.9968181502
 30
0.0
 10
88.8334158801
 20
130.8653727274
 30
0.0
 10
88.8327161696
 20
130.7450114048
 30
0.0
 10
88.8317488459
 20
130.6383642475
 30
0.0
 10
88.8306982121
 20
130.5591531704
 30
0.0
 10
88.8297035572
 20
130.5043569117
 30
0.0
 10
88.8289475058
 20
130.4702304764
 30
0.0
 10
88.8281467407
 20
130.4410388289
 30
0.0
 10
88.827309423
 20
130.4169157896
 30
0.0
 10
88.8264442046
 20
130.3980557339
 30
0.0
 10
88.8256524637
 20
130.385552989
 30
0.0
 10
88.8249623547
 20
130.3783865665
 30
0.0
 10
88.8244920132
 20
130.3748059687
 30
0.0
 10
88.8240915115
 20
130.3729885952
 30
0.0
 10
88.8236895391
 20
130.3717315132
 30
0.0
 10
88.8234050584
 20
130.3717261312
 30
0.0
  0
SPLINE
  5
707
100
AcDbEntity
  8
RACCORDO
100
AcDbSpline
 62
250
  6
CONTINUOUS
 70
0
 71
3
 72
26
 73
22
 74
0
 42
0.0000001
 43
0.0000001
 44
0.0000000001
 40
0.0
 40
0.0
 40
0.0
 40
0.0
 40
0.1361985775
 40
0.2971955624
 40
0.4689394596
 40
0.554120135
 40
0.6363116199
 40
0.7136915471
 40
0.7845484728
 40
0.8473214584
 40
0.9006358091
 40
0.9233758293
 40
0.9433360011
 40
0.9604112031
 40
0.9745054898
 40
0.9855507945
 40
0.9934872054
 40
0.9962779871
 40
0.9982833958
 40
0.9995089797
 40
1.0
 40
1.0
 40
1.0
 40
1.0
 10
86.1129346776
 20
132.0446268951
 30
0.0
 10
86.1115547585
 20
131.966525214
 30
0.0
 10
86.1092882988
 20
131.7960884568
 30
0.0
 10
86.1070309105
 20
131.5271468481
 30
0.0
 10
86.1059995964
 20
131.2874580451
 30
0.0
 10
86.1057471795
 20
131.0929651242
 30
0.0
 10
86.1058643587
 20
130.9525925595
 30
0.0
 10
86.1062828561
 20
130.8204357126
 30
0.0
 10
86.1069910453
 20
130.6994172267
 30
0.0
 10
86.1079709987
 20
130.5922036591
 30
0.0
 10
86.1090361392
 20
130.5125884031
 30
0.0
 10
86.1100442936
 20
130.4575310359
 30
0.0
 10
86.1108110244
 20
130.4232549578
 30
0.0
 10
86.111621994
 20
130.3939463758
 30
0.0
 10
86.1124703657
 20
130.3697362352
 30
0.0
 10
86.1133451009
 20
130.350820182
 30
0.0
 10
86.1141501171
 20
130.3382860023
 30
0.0
 10
86.1148453946
 20
130.3311117732
 30
0.0
 10
86.1153289311
 20
130.3275303811
 30
0.0
 10
86.1157208624
 20
130.3257256065
 30
0.0
 10
86.1161425148
 20
130.3244712547
 30
0.0
 10
86.1164240958
 20
130.3244756027
 30
0.0
  0
SPLINE
  5
708
100
AcDbEntity
  8
RACCORDO
100
AcDbSpline
 62
250
  6
CONTINUOUS
 70
0
 71
3
 72
11
 73
7
 74
0
 42
0.0000001
 43
0.0000001
 44
0.0000000001
 40
0.0
 40
0.0
 40
0.0
 40
0.0
 40
0.0785383552
 40
0.2708433032
 40
0.5802203067
 40
1.0
 40
1.0
 40
1.0
 40
1.0
 10
84.6199145771
 20
130.2710455163
 30
0.0
 10
84.6188834247
 20
130.2710455163
 30
0.0
 10
84.6173284422
 20
130.2755207367
 30
0.0
 10
84.6159127997
 20
130.2820012275
 30
0.0
 10
84.614237093
 20
130.2945401611
 30
0.0
 10
84.6133815794
 20
130.3039014074
 30
0.0
 10
84.6129346777
 20
130.3093946655
 30
0.0
  0
SPLINE
  5
709
100
AcDbEntity
  8
RACCORDO
100
AcDbSpline
 62
250
  6
CONTINUOUS
 70
0
 71
3
 72
11
 73
7
 74
0
 42
0.0000001
 43
0.0000001
 44
0.0000000001
 40
0.0
 40
0.0
 40
0.0
 40
0.0
 40
0.0782475683
 40
0.2703568095
 40
0.5796028413
 40
1.0
 40
1.0
 40
1.0
 40
1.0
 10
85.7199145771
 20
130.2710455163
 30
0.0
 10
85.7209499191
 20
130.2710458074
 30
0.0
 10
85.7224999041
 20
130.2755581187
 30
0.0
 10
85.7239160777
 20
130.2820777701
 30
0.0
 10
85.7255913721
 20
130.294723653
 30
0.0
 10
85.7264493205
 20
130.3041632897
 30
0.0
 10
85.7268944764
 20
130.3097079842
 30
0.0
  0
SPLINE
  5
70A
100
AcDbEntity
  8
RACCORDO
100
AcDbSpline
 62
7
  6
CONTINUOUS
 70
0
 71
3
 72
9
 73
5
 74
0
 42
0.0000001
 43
0.0000001
 44
0.0000000001
 40
0.0
 40
0.0
 40
0.0
 40
0.0
 40
0.2465076131
 40
1.0
 40
1.0
 40
1.0
 40
1.0
 10
84.5580840369
 20
164.2422361647
 30
0.0
 10
84.5625713952
 20
164.2436948507
 30
0.0
 10
84.5808029164
 20
164.2495270445
 30
0.0
 10
84.5991225398
 20
164.2550787264
 30
0.0
 10
84.6129346777
 20
164.2592313072
 30
0.0
  0
SPLINE
  5
70B
100
AcDbEntity
  8
RACCORDO
100
AcDbSpline
 62
250
  6
CONTINUOUS
 70
0
 71
3
 72
11
 73
7
 74
0
 42
0.0000001
 43
0.0000001
 44
0.0000000001
 40
0.0
 40
0.0
 40
0.0
 40
0.0
 40
0.2638081188
 40
0.5239322008
 40
0.7717671467
 40
1.0
 40
1.0
 40
1.0
 40
1.0
 10
85.9199146765
 20
131.3238808972
 30
0.0
 10
85.9199143741
 20
131.3897948254
 30
0.0
 10
85.9393255133
 20
131.5204038247
 30
0.0
 10
85.9893228648
 20
131.7065841738
 30
0.0
 10
86.0477534495
 20
131.8811384122
 30
0.0
 10
86.0908714582
 20
131.9920426581
 30
0.0
 10
86.1129346738
 20
132.0446268158
 30
0.0
  0
SPLINE
  5
70C
100
AcDbEntity
  8
RACCORDO
100
AcDbSpline
 62
250
  6
CONTINUOUS
 70
0
 71
3
 72
11
 73
7
 74
0
 42
0.0000001
 43
0.0000001
 44
0.0000000001
 40
0.0
 40
0.0
 40
0.0
 40
0.0
 40
0.2395200383
 40
0.4852698083
 40
0.7396380447
 40
1.0
 40
1.0
 40
1.0
 40
1.0
 10
84.4199145771
 20
129.2210455163
 30
0.0
 10
84.4199145771
 20
129.1971883904
 30
0.0
 10
84.4306778726
 20
129.1482622556
 30
0.0
 10
84.475868924
 20
129.0875926182
 30
0.0
 10
84.5422179271
 20
129.047554688
 30
0.0
 10
84.5939815153
 20
129.0383230032
 30
0.0
 10
84.6199145771
 20
129.0383230032
 30
0.0
  0
SPLINE
  5
70D
100
AcDbEntity
  8
RACCORDO
100
AcDbSpline
 62
250
  6
CONTINUOUS
 70
0
 71
3
 72
10
 73
6
 74
0
 42
0.0000001
 43
0.0000001
 44
0.0000000001
 40
0.0
 40
0.0
 40
0.0
 40
0.0
 40
0.2391710944
 40
0.4842607983
 40
1.0
 40
1.0
 40
1.0
 40
1.0
 10
84.4199145771
 20
130.4115583368
 30
0.0
 10
84.4199145771
 20
130.3966984759
 30
0.0
 10
84.4246827511
 20
130.3664078208
 30
0.0
 10
84.4523677203
 20
130.3099954537
 30
0.0
 10
84.4911562231
 20
130.2782445129
 30
0.0
 10
84.5199143375
 20
130.2641116071
 30
0.0
  0
SPLINE
  5
70E
100
AcDbEntity
  8
RACCORDO
100
AcDbSpline
 62
250
  6
CONTINUOUS
 70
0
 71
3
 72
9
 73
5
 74
0
 42
0.0000001
 43
0.0000001
 44
0.0000000001
 40
0.0
 40
0.0
 40
0.0
 40
0.0
 40
0.246844869
 40
1.0
 40
1.0
 40
1.0
 40
1.0
 10
84.5199143375
 20
130.2641116071
 30
0.0
 10
84.5275259064
 20
130.2603709729
 30
0.0
 10
84.5592479864
 20
130.24706637
 30
0.0
 10
84.5940377926
 20
130.2413019266
 30
0.0
 10
84.6199145771
 20
130.2413019266
 30
0.0
  0
SPLINE
  5
70F
100
AcDbEntity
  8
RACCORDO
100
AcDbSpline
 62
250
  6
CONTINUOUS
 70
0
 71
3
 72
11
 73
7
 74
0
 42
0.0000001
 43
0.0000001
 44
0.0000000001
 40
0.0
 40
0.0
 40
0.0
 40
0.0
 40
0.2256433227
 40
0.4659885304
 40
0.7260748477
 40
1.0
 40
1.0
 40
1.0
 40
1.0
 10
84.4199145771
 20
130.4710455163
 30
0.0
 10
84.4199145771
 20
130.4502705292
 30
0.0
 10
84.4307314525
 20
130.4068211726
 30
0.0
 10
84.474761808
 20
130.3541019222
 30
0.0
 10
84.5384110948
 20
130.3190377863
 30
0.0
 10
84.5877244332
 20
130.3101066549
 30
0.0
 10
84.6129346777
 20
130.3093946655
 30
0.0
  0
SPLINE
  5
710
100
AcDbEntity
  8
RACCORDO
100
AcDbSpline
 62
250
  6
CONTINUOUS
 70
0
 71
3
 72
11
 73
7
 74
0
 42
0.0000001
 43
0.0000001
 44
0.0000000001
 40
0.0
 40
0.0
 40
0.0
 40
0.0
 40
0.2335201628
 40
0.4768169576
 40
0.7335834852
 40
1.0
 40
1.0
 40
1.0
 40
1.0
 10
84.4199145771
 20
164.0117666495
 30
0.0
 10
84.4199145771
 20
164.0339270961
 30
0.0
 10
84.4304114925
 20
164.079732972
 30
0.0
 10
84.4740366623
 20
164.1363445157
 30
0.0
 10
84.5378593736
 20
164.174313706
 30
0.0
 10
84.587663999
 20
164.1840361735
 30
0.0
 10
84.6129346777
 20
164.1848001263
 30
0.0
  0
SPLINE
  5
711
100
AcDbEntity
  8
RACCORDO
100
AcDbSpline
 62
250
  6
CONTINUOUS
 70
0
 71
3
 72
22
 73
18
 74
0
 42
0.0000001
 43
0.0000001
 44
0.0000000001
 40
0.0
 40
0.0
 40
0.0
 40
0.0
 40
0.0012584989
 40
0.0048903442
 40
0.0109074642
 40
0.0193005392
 40
0.0300572199
 40
0.0431521496
 40
0.0762068022
 40
0.1181564026
 40
0.1685955543
 40
0.2270321503
 40
0.2929147647
 40
0.4444080786
 40
0.6172396942
 40
0.804899958
 40
1.0
 40
1.0
 40
1.0
 40
1.0
 10
86.1164240958
 20
130.3244756027
 30
0.0
 10
86.1162143993
 20
130.3244715154
 30
0.0
 10
86.1163331269
 20
130.3232202336
 30
0.0
 10
86.1159775381
 20
130.3218259101
 30
0.0
 10
86.1159656069
 20
130.318585539
 30
0.0
 10
86.115777363
 20
130.3144973936
 30
0.0
 10
86.1156731587
 20
130.3090849392
 30
0.0
 10
86.1154944121
 20
130.2996216139
 30
0.0
 10
86.1153290242
 20
130.2849279592
 30
0.0
 10
86.1151708182
 20
130.2640279106
 30
0.0
 10
86.1150598861
 20
130.2388903196
 30
0.0
 10
86.1149922391
 20
130.2097664842
 30
0.0
 10
86.1149632227
 20
130.1638004265
 30
0.0
 10
86.1150563458
 20
130.0987701707
 30
0.0
 10
86.1153410464
 20
130.0134451798
 30
0.0
 10
86.1157953212
 20
129.9208535848
 30
0.0
 10
86.1161964383
 20
129.8570655391
 30
0.0
 10
86.1164240958
 20
129.8245517551
 30
0.0
  0
SPLINE
  5
712
100
AcDbEntity
  8
RACCORDO
100
AcDbSpline
 62
250
  6
CONTINUOUS
 70
0
 71
3
 72
22
 73
18
 74
0
 42
0.0000001
 43
0.0000001
 44
0.0000000001
 40
0.0
 40
0.0
 40
0.0
 40
0.0
 40
0.0012475719
 40
0.0048683953
 40
0.0108747514
 40
0.0192576023
 40
0.0300051265
 40
0.0430933949
 40
0.0761397474
 40
0.1180843397
 40
0.1685288149
 40
0.2269748197
 40
0.2928768179
 40
0.4444171241
 40
0.6172984059
 40
0.8049315398
 40
1.0
 40
1.0
 40
1.0
 40
1.0
 10
88.8234049572
 20
130.3717261294
 30
0.0
 10
88.8236128567
 20
130.3717286993
 30
0.0
 10
88.8234967936
 20
130.3704681555
 30
0.0
 10
88.8238503179
 20
130.3690929719
 30
0.0
 10
88.8238635235
 20
130.3658498016
 30
0.0
 10
88.8240518154
 20
130.3617703701
 30
0.0
 10
88.8241564153
 20
130.3563608207
 30
0.0
 10
88.8243351311
 20
130.3469022055
 30
0.0
 10
88.8245001928
 20
130.3322114188
 30
0.0
 10
88.8246582098
 20
130.3113128913
 30
0.0
 10
88.8247692173
 20
130.2861736049
 30
0.0
 10
88.8248370237
 20
130.2570441011
 30
0.0
 10
88.8248660138
 20
130.2110653936
 30
0.0
 10
88.8247724221
 20
130.1460157909
 30
0.0
 10
88.8244881153
 20
130.0606791914
 30
0.0
 10
88.8240341083
 20
129.9680890811
 30
0.0
 10
88.8236311749
 20
129.9043108193
 30
0.0
 10
88.8234049511
 20
129.8718022817
 30
0.0
  0
SPLINE
  5
713
100
AcDbEntity
  8
RACCORDO
100
AcDbSpline
 62
250
  6
CONTINUOUS
 70
0
 71
3
 72
22
 73
18
 74
0
 42
0.0000001
 43
0.0000001
 44
0.0000000001
 40
0.0
 40
0.0
 40
0.0
 40
0.0
 40
0.1950349264
 40
0.3826024925
 40
0.5554384083
 40
0.7069496741
 40
0.7728467381
 40
0.8312987141
 40
0.8817611726
 40
0.9237272123
 40
0.9568111462
 40
0.9699165688
 40
0.9806787502
 40
0.9890783778
 40
0.9951021585
 40
0.9987392395
 40
1.0
 40
1.0
 40
1.0
 40
1.0
 10
86.1164240958
 20
124.8175392775
 30
0.0
 10
86.1161966631
 20
124.7850363458
 30
0.0
 10
86.1157956462
 20
124.7212746041
 30
0.0
 10
86.1153411319
 20
124.6287085989
 30
0.0
 10
86.1150565907
 20
124.543395352
 30
0.0
 10
86.1149632855
 20
124.4783589834
 30
0.0
 10
86.1149921134
 20
124.432384965
 30
0.0
 10
86.1150597279
 20
124.4032522751
 30
0.0
 10
86.115170498
 20
124.3781054987
 30
0.0
 10
86.1153288838
 20
124.3571939448
 30
0.0
 10
86.1154941577
 20
124.342490925
 30
0.0
 10
86.1156728822
 20
124.3330200478
 30
0.0
 10
86.1157771128
 20
124.3276038572
 30
0.0
 10
86.1159654862
 20
124.3235125637
 30
0.0
 10
86.1159771723
 20
124.3202690826
 30
0.0
 10
86.1163334043
 20
124.3188726247
 30
0.0
 10
86.1162140262
 20
124.3176197098
 30
0.0
 10
86.1164240958
 20
124.3176154299
 30
0.0
  0
SPLINE
  5
714
100
AcDbEntity
  8
RACCORDO
100
AcDbSpline
 62
250
  6
CONTINUOUS
 70
0
 71
3
 72
22
 73
18
 74
0
 42
0.0000001
 43
0.0000001
 44
0.0000000001
 40
0.0
 40
0.0
 40
0.0
 40
0.0
 40
0.1950702119
 40
0.3826941708
 40
0.5555703744
 40
0.7071114199
 40
0.7730148573
 40
0.8314625676
 40
0.88190996
 40
0.9238565877
 40
0.9569055219
 40
0.9699948778
 40
0.9807430294
 40
0.9891259373
 40
0.9951320246
 40
0.9987525259
 40
1.0
 40
1.0
 40
1.0
 40
1.0
 10
88.8234049572
 20
124.7702887508
 30
0.0
 10
88.8236311619
 20
124.7377799208
 30
0.0
 10
88.8240341202
 20
124.6740028958
 30
0.0
 10
88.8244880924
 20
124.581414868
 30
0.0
 10
88.8247724095
 20
124.4960805201
 30
0.0
 10
88.8248660113
 20
124.4310314
 30
0.0
 10
88.8248370293
 20
124.3850520448
 30
0.0
 10
88.8247692258
 20
124.3559215304
 30
0.0
 10
88.824658244
 20
124.3307811345
 30
0.0
 10
88.824500213
 20
124.30988135
 30
0.0
 10
88.8243351287
 20
124.2951896151
 30
0.0
 10
88.8241564036
 20
124.2857302803
 30
0.0
 10
88.8240518063
 20
124.2803204443
 30
0.0
 10
88.8238635268
 20
124.2762409131
 30
0.0
 10
88.8238503062
 20
124.2729979165
 30
0.0
 10
88.8234968316
 20
124.2716226765
 30
0.0
 10
88.8236128349
 20
124.27036239
 30
0.0
 10
88.8234049511
 20
124.2703649033
 30
0.0
  0
SPLINE
  5
715
100
AcDbEntity
  8
RACCORDO
100
AcDbSpline
 62
250
  6
CONTINUOUS
 70
0
 71
3
 72
22
 73
18
 74
0
 42
0.0000001
 43
0.0000001
 44
0.0000000001
 40
0.0
 40
0.0
 40
0.0
 40
0.0
 40
0.0012475628
 40
0.004868371
 40
0.0108747129
 40
0.0192575572
 40
0.0300050871
 40
0.043093362
 40
0.0761397165
 40
0.1180842859
 40
0.1685287218
 40
0.2269747474
 40
0.2928768174
 40
0.4444168228
 40
0.6172974191
 40
0.8049308743
 40
1.0
 40
1.0
 40
1.0
 40
1.0
 10
86.1164240958
 20
124.3176154299
 30
0.0
 10
86.1162161979
 20
124.317617999
 30
0.0
 10
86.1163322769
 20
124.3163574585
 30
0.0
 10
86.1159787711
 20
124.31498228
 30
0.0
 10
86.1159655969
 20
124.3117391138
 30
0.0
 10
86.1157773311
 20
124.3076596846
 30
0.0
 10
86.1156727493
 20
124.3022501336
 30
0.0
 10
86.1154940407
 20
124.2927915162
 30
0.0
 10
86.1153289663
 20
124.2781007323
 30
0.0
 10
86.1151709385
 20
124.2572022152
 30
0.0
 10
86.1150599337
 20
124.2320629361
 30
0.0
 10
86.1149921317
 20
124.2029334239
 30
0.0
 10
86.1149631442
 20
124.1569547518
 30
0.0
 10
86.115056723
 20
124.0919053025
 30
0.0
 10
86.1153410458
 20
124.0065688152
 30
0.0
 10
86.1157950645
 20
123.9139786563
 30
0.0
 10
86.1161978731
 20
123.8502002303
 30
0.0
 10
86.1164240958
 20
123.8176915823
 30
0.0
  0
SPLINE
  5
716
100
AcDbEntity
  8
RACCORDO
100
AcDbSpline
 62
250
  6
CONTINUOUS
 70
0
 71
3
 72
22
 73
18
 74
0
 42
0.0000001
 43
0.0000001
 44
0.0000000001
 40
0.0
 40
0.0
 40
0.0
 40
0.0
 40
0.0012585876
 40
0.0048906402
 40
0.0109079923
 40
0.0193012307
 40
0.0300579648
 40
0.0431530464
 40
0.0762081019
 40
0.1181578944
 40
0.1685975394
 40
0.2270346354
 40
0.2929179988
 40
0.4444111769
 40
0.6172412479
 40
0.8048999728
 40
1.0
 40
1.0
 40
1.0
 40
1.0
 10
88.8234050584
 20
124.2703649014
 30
0.0
 10
88.8236147696
 20
124.2703608142
 30
0.0
 10
88.8234960174
 20
124.26910945
 30
0.0
 10
88.8238516288
 20
124.2677150635
 30
0.0
 10
88.8238635507
 20
124.2644745827
 30
0.0
 10
88.8240517974
 20
124.2603863641
 30
0.0
 10
88.8241560023
 20
124.2549738482
 30
0.0
 10
88.8243347475
 20
124.2455104216
 30
0.0
 10
88.8245001342
 20
124.2308166425
 30
0.0
 10
88.8246583433
 20
124.2099164125
 30
0.0
 10
88.8247692713
 20
124.1847786239
 30
0.0
 10
88.8248369179
 20
124.1556544983
 30
0.0
 10
88.8248659285
 20
124.1096882551
 30
0.0
 10
88.8247728058
 20
124.0446581547
 30
0.0
 10
88.8244881054
 20
123.9593337004
 30
0.0
 10
88.8240338291
 20
123.866742622
 30
0.0
 10
88.8236327172
 20
123.8029548353
 30
0.0
 10
88.8234050584
 20
123.7704410539
 30
0.0
  0
ELLIPSE
  5
717
100
AcDbEntity
  8
RACCORDO
100
AcDbEllipse
 62
7
  6
CONTINUOUS
 10
134.0116048198
 20
116.7210455163
 30
0.0
 11
0.2179018026
 21
0.0207769803
 31
0.0
 40
0.2087121525
 41
1.1422603529
 42
1.7694191905
  0
ELLIPSE
  5
718
100
AcDbEntity
  8
RACCORDO
100
AcDbEllipse
 62
7
  6
CONTINUOUS
 10
133.968600851
 20
116.6962171634
 30
0.0
 11
0.0001375646
 21
0.1155096903
 31
0.0
 40
0.0453552611
 41
0.9698893989
 42
1.5970482365
  0
ELLIPSE
  5
719
100
AcDbEntity
  8
RACCORDO
100
AcDbEllipse
 62
7
  6
CONTINUOUS
 10
127.0928221807
 20
156.8739600444
 30
0.0
 11
0.0
 21
7.7489931964
 31
0.0
 40
0.99965709
 41
-0.1551996577
 42
0.1551996577
  0
ELLIPSE
  5
71A
100
AcDbEntity
  8
RACCORDO
100
AcDbEllipse
 62
7
  6
CONTINUOUS
 10
132.5428221807
 20
115.4448416267
 30
0.0
 11
0.2
 21
0.0
 31
0.0
 40
0.0524077793
 41
3.1415926536
 42
4.7123889804
  0
ELLIPSE
  5
71B
100
AcDbEntity
  8
RACCORDO
100
AcDbEllipse
 62
7
  6
CONTINUOUS
 10
175.1428221807
 20
115.4448416267
 30
0.0
 11
0.2
 21
0.0
 31
0.0
 40
0.0524077793
 41
-1.5707963268
 42
-0.0
  0
ELLIPSE
  5
71C
100
AcDbEntity
  8
RACCORDO
100
AcDbEllipse
 62
7
  6
CONTINUOUS
 10
175.1428221807
 20
118.1710455163
 30
0.0
 11
0.2
 21
-0.0
 31
0.0
 40
0.5
 41
0.0
 42
1.5707963268
  0
ELLIPSE
  5
71D
100
AcDbEntity
  8
RACCORDO
100
AcDbEllipse
 62
7
  6
CONTINUOUS
 10
132.5428221807
 20
118.1710455163
 30
0.0
 11
0.2
 21
-0.0
 31
0.0
 40
0.5
 41
1.5707963268
 42
3.1415926536
  0
ENDSEC
  0
SECTION
  2
OBJECTS
  0
DICTIONARY
  5
C
100
AcDbDictionary
280
0
281
1
  3
ACAD_GROUP
350
D
  3
ACAD_MLINESTYLE
350
17
  3
ACAD_LAYOUT
350
1A
  3
ACAD_PLOTSETTINGS
350
19
  3
ACAD_PLOTSTYLENAME
350
E
  0
DICTIONARY
  5
D
102
{ACAD_REACTORS
330
C
102
}
100
AcDbDictionary
280
0
281
1
  0
ACDBDICTIONARYWDFLT
  5
E
102
{ACAD_REACTORS
330
C
102
}
100
AcDbDictionary
281
1
  3
Normal
350
F
100
AcDbDictionaryWithDefault
340
F
  0
DICTIONARY
  5
17
102
{ACAD_REACTORS
330
C
102
}
100
AcDbDictionary
280
0
281
1
  3
Standard
350
18
  0
DICTIONARY
  5
19
102
{ACAD_REACTORS
330
C
102
}
100
AcDbDictionary
281
1
  0
DICTIONARY
  5
1A
102
{ACAD_REACTORS
330
C
102
}
100
AcDbDictionary
281
1
  3
Model
350
71E
  3
Layout1
350
71F
  0
ACDBPLACEHOLDER
  5
F
102
{ACAD_REACTORS
330
E
102
}
  0
MLINESTYLE
  5
18
102
{ACAD_REACTORS
330
17
102
}
100
AcDbMlineStyle
  2
STANDARD
 70
0
  3

 62
256
 51
90.0
 52
90.0
 71
2
 49
0.5
 62
256
  6
BYLAYER
 49
-0.5
 62
256
  6
BYLAYER
  0
LAYOUT
  5
71E
102
{ACAD_REACTORS
330
1A
102
}
100
AcDbPlotSettings
  1

  2
none_device
  4
ISO_A4_(297.00_x_210.00_MM)
  6

 40
0.0
 41
0.0
 42
0.0
 43
0.0
 44
297.0
 45
210.0
 46
0.0
 47
0.0
 48
0.0
 49
0.0
140
0.0
141
0.0
142
1.0
143
1.0
 70
1024
 72
1
 73
0
 74
0
  7

 75
0
147
1.0
148
0.0
149
0.0
100
AcDbLayout
  1
Model
 70
0
 71
0
 10
0.0
 20
0.0
 11
297.0
 21
210.0
 12
0.0
 22
0.0
 32
0.0
 14
0.0
 24
0.0
 34
0.0
 15
0.0
 25
0.0
 35
0.0
146
0.0
 13
0.0
 23
0.0
 33
0.0
 16
1.0
 26
0.0
 36
0.0
 17
0.0
 27
1.0
 37
0.0
 76
0
330
20E
345
0
346
0
  0
LAYOUT
  5
71F
102
{ACAD_REACTORS
330
1A
102
}
100
AcDbPlotSettings
  1

  2
none_device
  4
ISO_A4_(297.00_x_210.00_MM)
  6

 40
0.0
 41
0.0
 42
0.0
 43
0.0
 44
297.0
 45
210.0
 46
0.0
 47
0.0
 48
0.0
 49
0.0
140
0.0
141
0.0
142
1.0
143
1.0
 70
0
 72
1
 73
0
 74
0
  7

 75
0
147
1.0
148
0.0
149
0.0
100
AcDbLayout
  1
Layout1
 70
0
 71
1
 10
0.0
 20
0.0
 11
297.0
 21
210.0
 12
0.0
 22
0.0
 32
0.0
 14
0.0
 24
0.0
 34
0.0
 15
0.0
 25
0.0
 35
0.0
146
0.0
 13
0.0
 23
0.0
 33
0.0
 16
1.0
 26
0.0
 36
0.0
 17
0.0
 27
1.0
 37
0.0
 76
0
330
20F
345
0
346
0
  0
ENDSEC
  0
EOF
