  0
SECTION
  2
HEADER
  9
$ACADVER
  1
AC1021
  9
$DWGCODEPAGE
  3
ANSI_1252
  9
$EXTMAX
 10
297.0
 20
210.0
 30
0.0
  9
$EXTMIN
 10
0.0
 20
0.0
 30
0.0
  9
$LIMMIN
 10
0.0
 20
0.0
  9
$LIMMAX
 10
297.0
 20
210.0
  9
$VIEWCTR
 10
148.5
 20
105.0
  9
$VIEWSIZE
 40
210.0
  9
$CLAYER
  8
0
  9
$LTSCALE
 40
16.335
  9
$CELTYPE
  6
BYLAYER
  9
$DIMSCALE
 40
1.0
  9
$DIMASZ
 40
3.0
  9
$DIMEXO
 40
0.5
  9
$DIMDLI
 40
11.286
  9
$DIMEXE
 40
1.5
  9
$DIMCEN
 40
2.673
  9
$DIMLFAC
 40
1.0
  9
$DIMBLK
  1
_FILLED
  9
$DIMALT
 70
0
  9
$DIMALTF
 40
0.0393700787
  9
$DIMTXT
 40
3.0
  9
$DIMTOL
 70
1
  9
$DIMLIM
 70
0
  9
$DIMTFAC
 40
1.0
  9
$DIMTP
 40
0.01
  9
$DIMTM
 40
0.01
  9
$DIMGAP
 40
0.625
  9
$DIMDSEP
 70
44
  9
$AUNITS
 70
0
  9
$PDMODE
 70
3
  9
$PDSIZE
 40
3.0
  9
$HANDSEED
  5
2FE
  9
$TILEMODE
 70
1
  9
$MEASUREMENT
 70
1
  9
$INSUNITS
 70
4
  0
ENDSEC
  0
SECTION
  2
CLASSES
  0
CLASS
  1
ACDBDICTIONARYWDFLT
  2
AcDbDictionaryWithDefault
  3
AutoCAD 2000
 90
0
 91
1
280
0
281
0
  0
CLASS
  1
ACDBPLACEHOLDER
  2
AcDbPlaceHolder
  3
AutoCAD 2000
 90
0
 91
1
280
0
281
0
  0
CLASS
  1
LAYOUT
  2
AcDbLayout
  3
AutoCAD 2000
 90
0
 91
0
280
0
281
0
  0
ENDSEC
  0
SECTION
  2
TABLES
  0
TABLE
  2
VPORT
  5
8
100
AcDbSymbolTable
 70
2
  0
VPORT
  5
1F4
100
AcDbSymbolTableRecord
100
AcDbViewportTableRecord
  2
*ACTIVE
 70
0
 10
0.0
 20
0.0
 11
1.0
 21
1.0
 12
148.5
 22
105.0
 13
0.0
 23
0.0
 14
1.0
 24
1.0
 15
0.0
 25
0.0
 16
0.0
 26
0.0
 36
1.0
 17
0.0
 27
0.0
 37
0.0
 40
210.0
 41
1.4142857143
 42
50.0
 43
0.0
 44
0.0
 50
0.0
 51
0.0
 71
0
 72
100
 73
1
 74
1
 75
0
 76
0
 77
0
 78
0
  0
ENDTAB
  0
TABLE
  2
LTYPE
  5
5
100
AcDbSymbolTable
 70
6
  0
LTYPE
  5
14
100
AcDbSymbolTableRecord
100
AcDbLinetypeTableRecord
  2
BYBLOCK
 70
0
  3

 72
65
 73
0
 40
0.0
  0
LTYPE
  5
15
100
AcDbSymbolTableRecord
100
AcDbLinetypeTableRecord
  2
BYLAYER
 70
0
  3

 72
65
 73
0
 40
0.0
  0
LTYPE
  5
16
100
AcDbSymbolTableRecord
100
AcDbLinetypeTableRecord
  2
CONTINUOUS
 70
64
  3
Solid line
 72
65
 73
0
 40
0.0
  0
LTYPE
  5
1F5
100
AcDbSymbolTableRecord
100
AcDbLinetypeTableRecord
  2
CENTER
 70
64
  3
____ _ ____ _ ____ _ ____ _ ____ _ ____ _ ____
 72
65
 73
4
 40
0.6
 49
0.375
 74
0
 49
-0.075
 74
0
 49
0.075
 74
0
 49
-0.075
 74
0
  0
LTYPE
  5
1F6
100
AcDbSymbolTableRecord
100
AcDbLinetypeTableRecord
  2
HIDDEN
 70
64
  3
- - - - - - - - - - - - - - - - - - - -
 72
65
 73
2
 40
0.2
 49
0.1
 74
0
 49
-0.1
 74
0
  0
LTYPE
  5
1F7
100
AcDbSymbolTableRecord
100
AcDbLinetypeTableRecord
  2
PHANTOM
 70
64
  3
_____ _ _ _____ _ _ _____ _ _ _____
 72
65
 73
6
 40
0.8
 49
0.45
 74
0
 49
-0.05
 74
0
 49
0.1
 74
0
 49
-0.05
 74
0
 49
0.1
 74
0
 49
-0.05
 74
0
  0
LTYPE
  5
1F8
100
AcDbSymbolTableRecord
100
AcDbLinetypeTableRecord
  2
DOT
 70
64
  3
. . . . . . . . . . . . . . . . . . . .
 72
65
 73
2
 40
0.2
 49
0.1
 74
0
 49
-0.1
 74
0
  0
LTYPE
  5
1F9
100
AcDbSymbolTableRecord
100
AcDbLinetypeTableRecord
  2
DASHED
 70
64
  3
- - - - - - - - - - - - - - - - - - - -
 72
65
 73
2
 40
0.2
 49
0.1
 74
0
 49
-0.1
 74
0
  0
ENDTAB
  0
TABLE
  2
LAYER
  5
2
100
AcDbSymbolTable
 70
36
  0
LAYER
  5
10
100
AcDbSymbolTableRecord
100
AcDbLayerTableRecord
  2
0
 70
0
 62
7
  6
CONTINUOUS
370
-3
390
F
  0
LAYER
  5
1FA
100
AcDbSymbolTableRecord
100
AcDbLayerTableRecord
  2
DEFAULT_1
 70
0
 62
7
  6
CENTER
370
-3
390
F
  0
LAYER
  5
1FB
100
AcDbSymbolTableRecord
100
AcDbLayerTableRecord
  2
DEFAULT_2
 70
0
 62
7
  6
HIDDEN
370
-3
390
F
  0
LAYER
  5
1FC
100
AcDbSymbolTableRecord
100
AcDbLayerTableRecord
  2
DEFAULT_3
 70
0
 62
7
  6
PHANTOM
370
-3
390
F
  0
LAYER
  5
1FD
100
AcDbSymbolTableRecord
100
AcDbLayerTableRecord
  2
ASSI
 70
0
 62
7
  6
CONTINUOUS
370
-3
390
F
  0
LAYER
  5
1FE
100
AcDbSymbolTableRecord
100
AcDbLayerTableRecord
  2
COORDINATE
 70
0
 62
7
  6
CONTINUOUS
370
-3
390
F
  0
LAYER
  5
1FF
100
AcDbSymbolTableRecord
100
AcDbLayerTableRecord
  2
COPY_PUBLISH
 70
0
 62
7
  6
CONTINUOUS
370
-3
390
F
  0
LAYER
  5
200
100
AcDbSymbolTableRecord
100
AcDbLayerTableRecord
  2
COSMETICI
 70
0
 62
7
  6
CONTINUOUS
370
-3
390
F
  0
LAYER
  5
201
100
AcDbSymbolTableRecord
100
AcDbLayerTableRecord
  2
CURVE
 70
0
 62
7
  6
CONTINUOUS
370
-3
390
F
  0
LAYER
  5
202
100
AcDbSymbolTableRecord
100
AcDbLayerTableRecord
  2
DRAFT
 70
0
 62
7
  6
CONTINUOUS
370
-3
390
F
  0
LAYER
  5
203
100
AcDbSymbolTableRecord
100
AcDbLayerTableRecord
  2
IMPORT_IGES
 70
0
 62
7
  6
CONTINUOUS
370
-3
390
F
  0
LAYER
  5
204
100
AcDbSymbolTableRecord
100
AcDbLayerTableRecord
  2
INTF_1
 70
0
 62
7
  6
CONTINUOUS
370
-3
390
F
  0
LAYER
  5
205
100
AcDbSymbolTableRecord
100
AcDbLayerTableRecord
  2
INTF_RED
 70
0
 62
7
  6
CONTINUOUS
370
-3
390
F
  0
LAYER
  5
206
100
AcDbSymbolTableRecord
100
AcDbLayerTableRecord
  2
NOTE
 70
0
 62
7
  6
CONTINUOUS
370
-3
390
F
  0
LAYER
  5
207
100
AcDbSymbolTableRecord
100
AcDbLayerTableRecord
  2
PIANI
 70
0
 62
7
  6
CONTINUOUS
370
-3
390
F
  0
LAYER
  5
208
100
AcDbSymbolTableRecord
100
AcDbLayerTableRecord
  2
PUNTI
 70
0
 62
7
  6
CONTINUOUS
370
-3
390
F
  0
LAYER
  5
209
100
AcDbSymbolTableRecord
100
AcDbLayerTableRecord
  2
RACCORDO
 70
0
 62
7
  6
CONTINUOUS
370
-3
390
F
  0
LAYER
  5
20A
100
AcDbSymbolTableRecord
100
AcDbLayerTableRecord
  2
SIMBOLI
 70
0
 62
7
  6
CONTINUOUS
370
-3
390
F
  0
LAYER
  5
20B
100
AcDbSymbolTableRecord
100
AcDbLayerTableRecord
  2
SMUSSO
 70
0
 62
7
  6
CONTINUOUS
370
-3
390
F
  0
LAYER
  5
20C
100
AcDbSymbolTableRecord
100
AcDbLayerTableRecord
  2
SNAPLINE
 70
0
 62
7
  6
CONTINUOUS
370
-3
390
F
  0
LAYER
  5
20D
100
AcDbSymbolTableRecord
100
AcDbLayerTableRecord
  2
SUPERFICI
 70
0
 62
7
  6
CONTINUOUS
370
-3
390
F
  0
LAYER
  5
20E
100
AcDbSymbolTableRecord
100
AcDbLayerTableRecord
  2
TRASH
 70
0
 62
7
  6
CONTINUOUS
370
-3
390
F
  0
LAYER
  5
20F
100
AcDbSymbolTableRecord
100
AcDbLayerTableRecord
  2
WHITE
 70
0
 62
7
  6
CONTINUOUS
370
-3
390
F
  0
ENDTAB
  0
TABLE
  2
STYLE
  5
3
100
AcDbSymbolTable
 70
1
  0
STYLE
  5
11
100
AcDbSymbolTableRecord
100
AcDbTextStyleTableRecord
  2
STANDARD
 70
0
 40
0.0
 41
0.8
 50
0.0
 71
0
 42
0.2
  3
txt
  4

  0
STYLE
  5
210
100
AcDbSymbolTableRecord
100
AcDbTextStyleTableRecord
  2
TEXTSTYLE_1
 70
0
 40
0.0
 41
0.8
 50
0.0
 71
0
 42
0.2
  3
gdt
  4

  0
ENDTAB
  0
TABLE
  2
VIEW
  5
6
100
AcDbSymbolTable
 70
0
  0
ENDTAB
  0
TABLE
  2
UCS
  5
7
100
AcDbSymbolTable
 70
0
  0
ENDTAB
  0
TABLE
  2
APPID
  5
9
100
AcDbSymbolTable
 70
1
  0
APPID
  5
211
100
AcDbSymbolTableRecord
100
AcDbRegAppTableRecord
  2
ACAD
 70
0
  0
ENDTAB
  0
TABLE
  2
BLOCK_RECORD
  5
1
100
AcDbSymbolTable
 70
0
  0
BLOCK_RECORD
  5
212
100
AcDbSymbolTableRecord
100
AcDbBlockTableRecord
  2
*Model_Space
  0
BLOCK_RECORD
  5
213
100
AcDbSymbolTableRecord
100
AcDbBlockTableRecord
  2
*Paper_Space
  0
BLOCK_RECORD
  5
214
100
AcDbSymbolTableRecord
100
AcDbBlockTableRecord
  2
_FILLED
  0
BLOCK_RECORD
  5
215
100
AcDbSymbolTableRecord
100
AcDbBlockTableRecord
  2
*D0
  0
BLOCK_RECORD
  5
216
100
AcDbSymbolTableRecord
100
AcDbBlockTableRecord
  2
*D1
  0
BLOCK_RECORD
  5
217
100
AcDbSymbolTableRecord
100
AcDbBlockTableRecord
  2
*D2
  0
ENDTAB
  0
TABLE
  2
DIMSTYLE
  5
A
100
AcDbSymbolTable
 70
1
100
AcDbDimStyleTable
 71
0
  0
DIMSTYLE
105
218
100
AcDbSymbolTableRecord
100
AcDbDimStyleTableRecord
  2
STANDARD
 70
0
  3

  4

 40
1.0
 41
3.0
 42
0.5
 43
0.38
 44
1.5
 45
0.0
 46
0.0
 47
0.01
 48
0.01
140
3.0
141
0.09
142
0.0
143
25.4
144
1.0
145
0.0
146
1.0
147
0.625
 71
1.0
 72
0.0
 73
0
 74
0
 75
0
 76
0
 77
1
 78
8
170
0
171
2
172
0
173
0
174
0
175
0
176
0
177
0
178
0
270
2
271
2
272
2
273
2
274
2
275
0
280
0
281
0
282
0
283
1
284
8
285
0
286
0
287
3
288
0
340
11
278
44
341
214
342
214
343
214
344
214
  0
DIMSTYLE
105
219
100
AcDbSymbolTableRecord
100
AcDbDimStyleTableRecord
  2
DIMSTYLE_1
 70
0
  3

  4

 40
1.0
 41
3.0
 42
0.5
 43
0.38
 44
1.5
 45
0.0
 46
0.0
 47
0.0
 48
0.0
140
3.0
141
0.09
142
0.0
143
25.4
144
1.0
145
0.0
146
1.0
147
0.75
 71
0.0
 72
0.0
 73
0
 74
0
 75
0
 76
0
 77
1
 78
8
170
0
171
2
172
0
173
0
174
0
175
0
176
0
177
0
178
0
270
2
271
1
272
1
273
2
274
2
275
0
280
0
281
0
282
0
283
1
284
8
285
0
286
0
287
3
288
0
340
11
278
44
341
214
342
214
343
214
344
214
  0
ENDTAB
  0
ENDSEC
  0
SECTION
  2
BLOCKS
  0
BLOCK
  5
20
100
AcDbEntity
  8
0
100
AcDbBlockBegin
  2
*Model_Space
 70
0
 10
0.0
 20
0.0
 30
0.0
  3
*Model_Space
  1

  0
ENDBLK
  5
21
100
AcDbEntity
  8
0
100
AcDbBlockEnd
  0
BLOCK
  5
1C
100
AcDbEntity
  8
0
100
AcDbBlockBegin
  2
*Paper_Space
 70
0
 10
0.0
 20
0.0
 30
0.0
  3
*Paper_Space
  1

  0
ENDBLK
  5
1D
100
AcDbEntity
  8
0
100
AcDbBlockEnd
  0
BLOCK
  5
21A
100
AcDbEntity
  8
0
100
AcDbBlockBegin
  2
_FILLED
 70
64
 10
0.0
 20
0.0
  3
_FILLED
  1

  0
SOLID
  5
21B
100
AcDbEntity
  8
0
  6
BYBLOCK
 62
0
100
AcDbTrace
 10
0.0
 20
0.0
 11
-1.0
 21
0.3166666667
 12
-1.0
 22
-0.3166666667
 13
-1.0
 23
-0.3166666667
  0
ENDBLK
  5
21C
100
AcDbEntity
  8
0
  6
BYBLOCK
 62
0
100
AcDbBlockEnd
  0
BLOCK
  5
21D
100
AcDbEntity
  8
0
100
AcDbBlockBegin
 62
7
  6
CONTINUOUS
  2
*D0
 70
65
 10
0.0
 20
0.0
  3
*D0
  1

  0
MTEXT
  5
21E
100
AcDbEntity
  8
0
100
AcDbMText
 62
7
  6
CONTINUOUS
  7
STANDARD
 71
2
 72
1
 10
-69.5266399966
 20
111.75
 30
0.0
 11
1.0
 21
0.0
 31
0.0
 44
0.9
  1
17,2
 40
3.0
 41
12.2142857143
  0
LINE
  5
21F
100
AcDbEntity
  8
0
100
AcDbLine
 62
7
  6
CONTINUOUS
 10
-60.9166399966
 20
73.0065621051
 11
-60.9166399966
 21
109.5
  0
LINE
  5
220
100
AcDbEntity
  8
0
100
AcDbLine
 62
7
  6
CONTINUOUS
 10
-78.1366399966
 20
0.5
 11
-78.1366399966
 21
109.5
  0
LINE
  5
221
100
AcDbEntity
  8
0
100
AcDbLine
 62
7
  6
CONTINUOUS
 10
-60.9166399966
 20
108.0
 11
-69.5266399966
 21
108.0
  0
LINE
  5
222
100
AcDbEntity
  8
0
100
AcDbLine
 62
7
  6
CONTINUOUS
 10
-78.1366399966
 20
108.0
 11
-69.5266399966
 21
108.0
  0
INSERT
  5
223
100
AcDbEntity
  8
0
100
AcDbBlockReference
 62
7
  6
CONTINUOUS
  2
_FILLED
 10
-60.9166399966
 20
108.0
 41
3.0
 42
3.0
 43
3.0
  0
INSERT
  5
224
100
AcDbEntity
  8
0
100
AcDbBlockReference
 62
7
  6
CONTINUOUS
  2
_FILLED
 10
-78.1366399966
 20
108.0
 41
3.0
 42
3.0
 43
3.0
 50
180.0
  0
ENDBLK
  5
225
100
AcDbEntity
  8
0
  6
BYBLOCK
 62
0
100
AcDbBlockEnd
  0
BLOCK
  5
226
100
AcDbEntity
  8
0
100
AcDbBlockBegin
 62
7
  6
CONTINUOUS
  2
*D1
 70
65
 10
0.0
 20
0.0
  3
*D1
  1

  0
MTEXT
  5
227
100
AcDbEntity
  8
0
100
AcDbMText
 62
7
  6
CONTINUOUS
  7
STANDARD
 71
2
 72
1
 10
-0.0000000018
 20
111.75
 30
0.0
 11
1.0
 21
0.0
 31
0.0
 44
0.9
  1
48
 40
3.0
 41
7.0714285714
  0
LINE
  5
228
100
AcDbEntity
  8
0
100
AcDbLine
 62
7
  6
CONTINUOUS
 10
-24.0000008603
 20
77.7499998267
 11
-24.0000008608
 21
109.4999999996
  0
LINE
  5
229
100
AcDbEntity
  8
0
100
AcDbLine
 62
7
  6
CONTINUOUS
 10
24.0000008577
 20
77.7499998267
 11
24.0000008572
 21
109.5000000004
  0
LINE
  5
22A
100
AcDbEntity
  8
0
100
AcDbLine
 62
7
  6
CONTINUOUS
 10
-24.0000008608
 20
107.9999999996
 11
-0.0000000018
 21
108.0
  0
LINE
  5
22B
100
AcDbEntity
  8
0
100
AcDbLine
 62
7
  6
CONTINUOUS
 10
24.0000008572
 20
108.0000000004
 11
-0.0000000018
 21
108.0
  0
INSERT
  5
22C
100
AcDbEntity
  8
0
100
AcDbBlockReference
 62
7
  6
CONTINUOUS
  2
_FILLED
 10
-24.0000008608
 20
107.9999999996
 41
3.0
 42
3.0
 43
3.0
 50
180.000000001
  0
INSERT
  5
22D
100
AcDbEntity
  8
0
100
AcDbBlockReference
 62
7
  6
CONTINUOUS
  2
_FILLED
 10
24.0000008572
 20
108.0000000004
 41
3.0
 42
3.0
 43
3.0
 50
0.000000001
  0
ENDBLK
  5
22E
100
AcDbEntity
  8
0
  6
BYBLOCK
 62
0
100
AcDbBlockEnd
  0
BLOCK
  5
22F
100
AcDbEntity
  8
0
100
AcDbBlockBegin
 62
7
  6
CONTINUOUS
  2
*D2
 70
65
 10
0.0
 20
0.0
  3
*D2
  1

  0
MTEXT
  5
230
100
AcDbEntity
  8
0
100
AcDbMText
 62
7
  6
CONTINUOUS
  7
STANDARD
 71
2
 72
1
 10
39.25
 20
0.0000000007
 30
0.0
 11
0.0
 21
1.0
 31
0.0
 44
0.9
  1
167,5
 40
3.0
 41
15.4285714286
  0
LINE
  5
231
100
AcDbEntity
  8
0
100
AcDbLine
 62
7
  6
CONTINUOUS
 10
17.9999998625
 20
83.7500001643
 11
44.4999999986
 21
83.7500001647
  0
LINE
  5
232
100
AcDbEntity
  8
0
100
AcDbLine
 62
7
  6
CONTINUOUS
 10
17.9999998625
 20
-83.7500001637
 11
44.5000000014
 21
-83.7500001632
  0
LINE
  5
233
100
AcDbEntity
  8
0
100
AcDbLine
 62
7
  6
CONTINUOUS
 10
42.9999999986
 20
83.7500001647
 11
43.0
 21
0.0000000007
  0
LINE
  5
234
100
AcDbEntity
  8
0
100
AcDbLine
 62
7
  6
CONTINUOUS
 10
43.0000000014
 20
-83.7500001633
 11
43.0
 21
0.0000000007
  0
INSERT
  5
235
100
AcDbEntity
  8
0
100
AcDbBlockReference
 62
7
  6
CONTINUOUS
  2
_FILLED
 10
42.9999999986
 20
83.7500001647
 41
3.0
 42
3.0
 43
3.0
 50
90.000000001
  0
INSERT
  5
236
100
AcDbEntity
  8
0
100
AcDbBlockReference
 62
7
  6
CONTINUOUS
  2
_FILLED
 10
43.0000000014
 20
-83.7500001633
 41
3.0
 42
3.0
 43
3.0
 50
270.000000001
  0
ENDBLK
  5
237
100
AcDbEntity
  8
0
  6
BYBLOCK
 62
0
100
AcDbBlockEnd
  0
ENDSEC
  0
SECTION
  2
ENTITIES
  0
DIMENSION
  5
238
100
AcDbEntity
  8
0
100
AcDbDimension
 62
7
  6
CONTINUOUS
  2
*D0
 10
-78.1366399966
 20
108.0
 11
-69.9552125931
 21
108.0
 70
160
 71
2
 42
17.22
  3
DIMSTYLE_1
100
AcDbAlignedDimension
 13
-60.9166399966
 23
72.5065621051
 14
-78.1366399966
 24
0.0
 50
180.0
100
AcDbRotatedDimension
  0
DIMENSION
  5
239
100
AcDbEntity
  8
0
100
AcDbDimension
 62
7
  6
CONTINUOUS
  2
*D1
 10
24.0000008572
 20
108.0000000004
 11
-0.4285714481
 21
108.0
 70
160
 71
2
 42
48.000001718
  3
DIMSTYLE_1
100
AcDbAlignedDimension
 13
-24.0000008603
 23
77.2499998267
 14
24.0000008577
 24
77.2499998267
100
AcDbRotatedDimension
  0
DIMENSION
  5
23A
100
AcDbEntity
  8
0
100
AcDbDimension
 62
7
  6
CONTINUOUS
  2
*D2
 10
43.0000000014
 20
-83.7500001633
 11
43.0
 21
-0.4285719859
 70
160
 71
2
 42
167.500000328
  3
DIMSTYLE_1
100
AcDbAlignedDimension
 13
17.4999998625
 23
83.7500001643
 14
17.4999998625
 24
-83.7500001637
 50
270.000000001
100
AcDbRotatedDimension
  0
LWPOLYLINE
  5
23B
100
AcDbEntity
  8
RACCORDO
100
AcDbPolyline
 62
253
  6
CONTINUOUS
 90
43
 70
0
 10
-17.4999869859
 20
-83.6799902927
 10
-17.6781085171
 20
-83.6775232054
 10
-17.8636076147
 20
-83.6697044882
 10
-18.0563666961
 20
-83.6558777853
 10
-18.2554550997
 20
-83.6354495365
 10
-18.4614536308
 20
-83.6076722502
 10
-18.6762921988
 20
-83.5714404852
 10
-18.900818935
 20
-83.5255228074
 10
-19.1328498948
 20
-83.4691992578
 10
-19.3696791119
 20
-83.4021373027
 10
-19.6120849642
 20
-83.3231842377
 10
-19.8578857101
 20
-83.232075392
 10
-20.1004907361
 20
-83.1307087556
 10
-20.3384780709
 20
-83.0195930751
 10
-20.5732823125
 20
-82.8979699719
 10
-20.8029430174
 20
-82.7667940356
 10
-21.0258574317
 20
-82.6270971128
 10
-21.2422994866
 20
-82.4787905313
 10
-21.4528087824
 20
-82.3215040961
 10
-21.6573674227
 20
-82.1552348014
 10
-21.8548852024
 20
-81.9808265746
 10
-22.0446512089
 20
-81.7988898242
 10
-22.2267863484
 20
-81.6093022493
 10
-22.4014042672
 20
-81.411947456
 10
-22.5678903906
 20
-81.2075404337
 10
-22.7253976141
 20
-80.9971759446
 10
-22.8739294347
 20
-80.7808719064
 10
-23.0138512567
 20
-80.5580924321
 10
-23.1452391331
 20
-80.3285920432
 10
-23.2670797976
 20
-80.0939470662
 10
-23.3784498198
 20
-79.8560435561
 10
-23.4801054897
 20
-79.613427295
 10
-23.5715225558
 20
-79.3675247089
 10
-23.6508046207
 20
-79.124872211
 10
-23.7182122982
 20
-78.8876038743
 10
-23.7748683119
 20
-78.654989515
 10
-23.8210709072
 20
-78.4298362033
 10
-23.8575371865
 20
-78.2143461627
 10
-23.885502622
 20
-78.0076645896
 10
-23.9060679529
 20
-77.8079321244
 10
-23.9199858531
 20
-77.6145927483
 10
-23.9278583771
 20
-77.4285569191
 10
-23.930347787
 20
-77.2499433002
  0
LWPOLYLINE
  5
23C
100
AcDbEntity
  8
DRAFT
100
AcDbPolyline
 62
7
  6
CONTINUOUS
 90
40
 70
0
 10
-17.4999998625
 20
-83.7500001643
 10
-17.761716842
 20
-83.7447365743
 10
-18.0224136529
 20
-83.7289956096
 10
-18.2820902949
 20
-83.7027772685
 10
-18.5412637212
 20
-83.6659991332
 10
-18.7994169782
 20
-83.6187436149
 10
-19.0549992073
 20
-83.5612579542
 10
-19.3078586986
 20
-83.493512749
 10
-19.5581471639
 20
-83.4155373886
 10
-19.8047688787
 20
-83.3276672999
 10
-20.0478232668
 20
-83.229798244
 10
-20.2872109076
 20
-83.1220344414
 10
-20.5215378116
 20
-83.0050240077
 10
-20.750617954
 20
-82.8788090233
 10
-20.9746373644
 20
-82.7433473854
 10
-21.1927601368
 20
-82.5991609353
 10
-21.405134301
 20
-82.446076
 10
-21.6116118327
 20
-82.2842662267
 10
-21.8109127452
 20
-82.1147744388
 10
-22.0027781293
 20
-81.9377807352
 10
-22.1874669011
 20
-81.7531049913
 10
-22.3644758128
 20
-81.561249696
 10
-22.5339851669
 20
-81.3619556584
 10
-22.6958146677
 20
-81.1554820421
 10
-22.8489201701
 20
-80.9431088712
 10
-22.9931278382
 20
-80.7249843002
 10
-23.1286115148
 20
-80.5009601509
 10
-23.2548485741
 20
-80.2718719528
 10
-23.3718811372
 20
-80.0375337033
 10
-23.4796670891
 20
-79.7981313831
 10
-23.5775574499
 20
-79.555058502
 10
-23.6654481441
 20
-79.3084137547
 10
-23.7434432523
 20
-79.0580984306
 10
-23.8112060282
 20
-78.805209938
 10
-23.8687068279
 20
-78.5495969363
 10
-23.9159752991
 20
-78.2914107548
 10
-23.952763632
 20
-78.032202812
 10
-23.9789892242
 20
-77.7724902479
 10
-23.99473468
 20
-77.5117559198
 10
-24.0
 20
-77.249999826
  0
LWPOLYLINE
  5
23D
100
AcDbEntity
  8
RACCORDO
100
AcDbPolyline
 62
253
  6
CONTINUOUS
 90
7
 70
0
 10
23.9303477238
 20
-77.2499433
 10
23.9263848073
 20
-77.2505898574
 10
23.9189206899
 20
-77.2512289948
 10
23.9080081287
 20
-77.2518561941
 10
23.8937242551
 20
-77.252467022
 10
23.8761700289
 20
-77.2530571605
 10
23.8554695254
 20
-77.253622438
  0
LINE
  5
23E
100
AcDbEntity
  8
RACCORDO
100
AcDbLine
 62
253
  6
CONTINUOUS
 10
23.8554695254
 20
-77.253622438
 11
23.8052361444
 21
-77.2546626307
  0
LINE
  5
23F
100
AcDbEntity
  8
RACCORDO
100
AcDbLine
 62
253
  6
CONTINUOUS
 10
23.8052361444
 20
-77.2546626307
 11
23.7444418229
 21
-77.2555582398
  0
LINE
  5
240
100
AcDbEntity
  8
RACCORDO
100
AcDbLine
 62
253
  6
CONTINUOUS
 10
23.7444418229
 20
-77.2555582398
 11
23.6372715513
 21
-77.2565765533
  0
LWPOLYLINE
  5
241
100
AcDbEntity
  8
RACCORDO
100
AcDbPolyline
 62
253
  6
CONTINUOUS
 90
3
 70
0
 10
23.6372715513
 20
-77.2565765533
 10
23.4753668022
 20
-77.2572340853
 10
23.4333766697
 20
-77.2572644674
  0
LINE
  5
242
100
AcDbEntity
  8
RACCORDO
100
AcDbLine
 62
253
  6
CONTINUOUS
 10
-23.9303486445
 20
-77.2499433009
 11
-24.0000008577
 21
-77.2499998267
  0
LINE
  5
243
100
AcDbEntity
  8
DRAFT
100
AcDbLine
 62
7
  6
CONTINUOUS
 10
-17.4999998625
 20
-83.7500001643
 11
17.4999998625
 21
-83.7500001637
  0
LINE
  5
244
100
AcDbEntity
  8
RACCORDO
100
AcDbLine
 62
253
  6
CONTINUOUS
 10
17.499986986
 20
-83.6799904564
 11
-17.499986986
 21
-83.6799904564
  0
LINE
  5
245
100
AcDbEntity
  8
RACCORDO
100
AcDbLine
 62
253
  6
CONTINUOUS
 10
17.5016452974
 20
-83.1889944656
 11
-17.5016452973
 21
-83.1889944656
  0
LINE
  5
246
100
AcDbEntity
  8
RACCORDO
100
AcDbLine
 62
253
  6
CONTINUOUS
 10
23.9303486445
 20
-77.2499433008
 11
24.0000008603
 21
-77.2499998267
  0
LINE
  5
247
100
AcDbEntity
  8
RACCORDO
100
AcDbLine
 62
253
  6
CONTINUOUS
 10
-23.5982832914
 20
-77.2568195527
 11
-23.4333766697
 21
-77.2572644675
  0
LWPOLYLINE
  5
248
100
AcDbEntity
  8
RACCORDO
100
AcDbPolyline
 62
253
  6
CONTINUOUS
 90
43
 70
0
 10
-17.5016452973
 20
-83.1889944656
 10
-17.6662173359
 20
-83.1877661482
 10
-17.8373035218
 20
-83.1803536571
 10
-18.0149038526
 20
-83.166756992
 10
-18.1986808129
 20
-83.1478137616
 10
-18.3889719126
 20
-83.1226863552
 10
-18.5867896859
 20
-83.0888619417
 10
-18.7936989391
 20
-83.0460947679
 10
-19.008134858
 20
-82.9946305803
 10
-19.2264155472
 20
-82.9326937942
 10
-19.4495674355
 20
-82.8593607756
 10
-19.6765640889
 20
-82.775555144
 10
-19.9006443225
 20
-82.6822721935
 10
-20.1203792577
 20
-82.5794642263
 10
-20.3371977757
 20
-82.4671789217
 10
-20.5486253363
 20
-82.3465546396
 10
-20.7540206962
 20
-82.2178346401
 10
-20.9540251036
 20
-82.0807756429
 10
-21.148087757
 20
-81.9357861983
 10
-21.3363891623
 20
-81.7827078502
 10
-21.5187488187
 20
-81.6216990315
 10
-21.6940744145
 20
-81.4536436268
 10
-21.8622993684
 20
-81.2784701992
 10
-22.0234902676
 20
-81.0962501623
 10
-22.1767545542
 20
-80.908081679
 10
-22.3219318235
 20
-80.7141449791
 10
-22.4591824863
 20
-80.5142598116
 10
-22.5880952078
 20
-80.3089836213
 10
-22.7089043619
 20
-80.0977029572
 10
-22.8213755802
 20
-79.8810312485
 10
-22.9243944143
 20
-79.6613662673
 10
-23.0179280468
 20
-79.4372716254
 10
-23.1020093002
 20
-79.210183697
 10
-23.1756221864
 20
-78.9868094171
 10
-23.2378510203
 20
-78.7681244566
 10
-23.289611491
 20
-78.5531531622
 10
-23.3326346722
 20
-78.345675505
 10
-23.3666596701
 20
-78.1472652735
 10
-23.3919473803
 20
-77.9563487103
 10
-23.4110115594
 20
-77.7719844726
 10
-23.4246901266
 20
-77.5938587862
 10
-23.4321451633
 20
-77.4222854476
 10
-23.4333766697
 20
-77.2572644675
  0
LINE
  5
249
100
AcDbEntity
  8
RACCORDO
100
AcDbLine
 62
253
  6
CONTINUOUS
 10
-23.7106105521
 20
-77.2559440033
 11
-23.5982832914
 21
-77.2568195527
  0
LINE
  5
24A
100
AcDbEntity
  8
RACCORDO
100
AcDbLine
 62
253
  6
CONTINUOUS
 10
-23.7760588902
 20
-77.2551304774
 11
-23.7106105521
 21
-77.2559440033
  0
LWPOLYLINE
  5
24B
100
AcDbEntity
  8
RACCORDO
100
AcDbPolyline
 62
253
  6
CONTINUOUS
 90
9
 70
0
 10
-23.9303486445
 20
-77.2499433009
 10
-23.926385717
 20
-77.2505899259
 10
-23.9189215806
 20
-77.2512291215
 10
-23.9080089927
 20
-77.25185637
 10
-23.8937250849
 20
-77.2524672377
 10
-23.8761708176
 20
-77.253057407
 10
-23.8554702666
 20
-77.2536227066
 10
-23.8317697462
 20
-77.2541591408
 10
-23.7760588902
 20
-77.2551304774
  0
LWPOLYLINE
  5
24C
100
AcDbEntity
  8
RACCORDO
100
AcDbPolyline
 62
253
  6
CONTINUOUS
 90
3
 70
0
 10
-17.4999869859
 20
-83.6799902339
 10
-17.5001322543
 20
-83.6760725942
 10
-17.5002758833
 20
-83.6687084472
  0
LINE
  5
24D
100
AcDbEntity
  8
DRAFT
100
AcDbLine
 62
7
  6
CONTINUOUS
 10
-24.0000008603
 20
77.2499998267
 11
-24.0000008577
 21
-77.2499998267
  0
LINE
  5
24E
100
AcDbEntity
  8
RACCORDO
100
AcDbLine
 62
253
  6
CONTINUOUS
 10
-23.9303486445
 20
-77.2499433009
 11
-23.9303486445
 21
77.2499433008
  0
LINE
  5
24F
100
AcDbEntity
  8
RACCORDO
100
AcDbLine
 62
253
  6
CONTINUOUS
 10
-23.4333766697
 20
-77.2572644675
 11
-23.4333766697
 21
77.2572644674
  0
LWPOLYLINE
  5
250
100
AcDbEntity
  8
RACCORDO
100
AcDbPolyline
 62
253
  6
CONTINUOUS
 90
43
 70
0
 10
-23.4333766697
 20
77.2572644674
 10
-23.4321492655
 20
77.4216197422
 10
-23.4247572397
 20
77.5924685564
 10
-23.4112005922
 20
77.7698108994
 10
-23.3923170479
 20
77.9532960163
 10
-23.3672688813
 20
78.14327464
 10
-23.3335429168
 20
78.3407989899
 10
-23.2909015283
 20
78.5474297505
 10
-23.2395823399
 20
78.761606206
 10
-23.1777850517
 20
78.9796984792
 10
-23.1045804123
 20
79.2027622315
 10
-23.0208976689
 20
79.4297417829
 10
-22.9277242686
 20
79.6538402665
 10
-22.8250048705
 20
79.8736306556
 10
-22.7127948106
 20
80.0905399904
 10
-22.5922475512
 20
80.302052524
 10
-22.4636125792
 20
80.5075105362
 10
-22.3266404025
 20
80.7075717691
 10
-22.1817360148
 20
80.901693676
 10
-22.0287407019
 20
81.0900588421
 10
-21.8678131721
 20
81.2724847034
 10
-21.6998345536
 20
81.4478809929
 10
-21.5247318748
 20
81.6161827104
 10
-21.3425781013
 20
81.7774548793
 10
-21.1544732684
 20
81.9308022709
 10
-20.960595413
 20
82.0760648494
 10
-20.760766493
 20
82.2134026738
 10
-20.5555524249
 20
82.3424006578
 10
-20.3443558692
 20
82.463286985
 10
-20.1277741604
 20
82.575833492
 10
-19.908165228
 20
82.6789405732
 10
-19.6840919857
 20
82.7725826761
 10
-19.4569915168
 20
82.8567853715
 10
-19.2335330096
 20
82.9305257384
 10
-19.0146624004
 20
82.9928941574
 10
-18.7994337577
 20
83.0448002625
 10
-18.5916784737
 20
83.0879500112
 10
-18.3929738671
 20
83.122074377
 10
-18.201742627
 20
83.1474423933
 10
-18.0170842026
 20
83.1665671051
 10
-17.8386984121
 20
83.1802861943
 10
-17.6668854428
 20
83.187761981
 10
-17.5016452974
 20
83.1889944656
  0
LWPOLYLINE
  5
251
100
AcDbEntity
  8
RACCORDO
100
AcDbPolyline
 62
253
  6
CONTINUOUS
 90
43
 70
0
 10
-23.930347787
 20
77.2499433001
 10
-23.9278782975
 20
77.4278396567
 10
-23.9200711299
 20
77.613089487
 10
-23.9062729717
 20
77.8055755557
 10
-23.8858949208
 20
78.0043553229
 10
-23.8581920171
 20
78.2100234969
 10
-23.8220554741
 20
78.4245497644
 10
-23.7762556611
 20
78.6487776618
 10
-23.7200711129
 20
78.8805323065
 10
-23.6531504637
 20
79.1171634735
 10
-23.5743240739
 20
79.3594762613
 10
-23.4833265432
 20
79.6052583178
 10
-23.3820603082
 20
79.8478836552
 10
-23.2710265232
 20
80.085933425
 10
-23.1494657127
 20
80.3208330127
 10
-23.0183518091
 20
80.5505796811
 10
-22.8787292143
 20
80.7735545452
 10
-22.7305009802
 20
80.9900511779
 10
-22.573291061
 20
81.2006167969
 10
-22.4070966638
 20
81.4052336753
 10
-22.2327624395
 20
81.6028114278
 10
-22.050897137
 20
81.7926416105
 10
-21.8613736453
 20
81.9748483171
 10
-21.6640788753
 20
82.1495402322
 10
-21.459730025
 20
82.3161012823
 10
-21.2494213709
 20
82.4736853071
 10
-21.0331712105
 20
82.6222958884
 10
-20.8104516018
 20
82.7622922945
 10
-20.5810363544
 20
82.8937424032
 10
-20.3464858013
 20
83.0156454707
 10
-20.1086451528
 20
83.127096947
 10
-19.8660523671
 20
83.228851684
 10
-19.6201360281
 20
83.3203784795
 10
-19.3773948046
 20
83.3997863831
 10
-19.139931429
 20
83.4673354164
 10
-18.9070430075
 20
83.5241309659
 10
-18.6815917865
 20
83.5704522674
 10
-18.4657884538
 20
83.6070148287
 10
-18.2587741628
 20
83.6350556816
 10
-18.0587305145
 20
83.6556719729
 10
-17.8651158319
 20
83.6696188915
 10
-17.6788283169
 20
83.6775032239
 10
-17.499986986
 20
83.6799902927
  0
LWPOLYLINE
  5
252
100
AcDbEntity
  8
DRAFT
100
AcDbPolyline
 62
7
  6
CONTINUOUS
 90
40
 70
0
 10
-24.0000008603
 20
77.2499998267
 10
-23.9947351078
 20
77.5117560671
 10
-23.9789893719
 20
77.7724903342
 10
-23.9527636521
 20
78.0322026296
 10
-23.9159753258
 20
78.291410155
 10
-23.8687070137
 20
78.5495957116
 10
-23.8112065803
 20
78.8052077042
 10
-23.7434445571
 20
79.0580943298
 10
-23.665450409
 20
79.3084074028
 10
-23.5775603998
 20
79.5550507604
 10
-23.4796702192
 20
79.7981238112
 10
-23.3718841722
 20
80.0375271625
 10
-23.2548514455
 20
80.2718664549
 10
-23.1286141176
 20
80.5009555527
 10
-22.9931301039
 20
80.7249806136
 10
-22.8489223459
 20
80.9431057234
 10
-22.6958172283
 20
81.1554787535
 10
-22.5339883596
 20
81.3619518562
 10
-22.3644795172
 20
81.5612455424
 10
-22.1874708883
 20
81.7531008406
 10
-22.002782279
 20
81.9377767495
 10
-21.8109168951
 20
82.1147707381
 10
-21.6116156282
 20
82.2842630398
 10
-21.4051375799
 20
82.4460734469
 10
-21.192763272
 20
82.5991587687
 10
-20.9746410355
 20
82.7433451299
 10
-20.7506225338
 20
82.8788064314
 10
-20.5215432881
 20
83.005021148
 10
-20.2872174237
 20
83.1220314186
 10
-20.0478308105
 20
83.2297951264
 10
-19.8047765877
 20
83.3276643627
 10
-19.5581534761
 20
83.4155351368
 10
-19.3078627519
 20
83.4935114576
 10
-19.0550013889
 20
83.5612574151
 10
-18.7994181502
 20
83.6187434143
 10
-18.541264271
 20
83.6659990629
 10
-18.2820904341
 20
83.7027772537
 10
-18.0224135341
 20
83.7289956197
 10
-17.7617166769
 20
83.7447365346
 10
-17.4999998625
 20
83.75
  0
LWPOLYLINE
  5
253
100
AcDbEntity
  8
RACCORDO
100
AcDbPolyline
 62
253
  6
CONTINUOUS
 90
4
 70
0
 10
-17.499986986
 20
83.6799904564
 10
-17.5001323198
 20
83.6760728139
 10
-17.5002760053
 20
83.6687086622
 10
-17.5005544507
 20
83.6438693835
  0
LINE
  5
254
100
AcDbEntity
  8
RACCORDO
100
AcDbLine
 62
253
  6
CONTINUOUS
 10
-17.5002758833
 20
-83.6687084472
 11
-17.5005542428
 21
-83.6438691836
  0
LINE
  5
255
100
AcDbEntity
  8
RACCORDO
100
AcDbLine
 62
253
  6
CONTINUOUS
 10
-17.5005542428
 20
-83.6438691836
 11
-17.5011545696
 21
-83.5278580952
  0
LINE
  5
256
100
AcDbEntity
  8
RACCORDO
100
AcDbLine
 62
253
  6
CONTINUOUS
 10
-17.5011545696
 20
-83.5278580952
 11
-17.5016452973
 21
-83.1889944656
  0
LINE
  5
257
100
AcDbEntity
  8
RACCORDO
100
AcDbLine
 62
253
  6
CONTINUOUS
 10
-17.499986986
 20
83.6799904564
 11
-17.4999998625
 21
83.7500001637
  0
LINE
  5
258
100
AcDbEntity
  8
RACCORDO
100
AcDbLine
 62
253
  6
CONTINUOUS
 10
-17.499986986
 20
-83.6799904564
 11
-17.4999998625
 21
-83.7500001643
  0
LINE
  5
259
100
AcDbEntity
  8
RACCORDO
100
AcDbLine
 62
253
  6
CONTINUOUS
 10
-17.5009355056
 20
83.5827980987
 11
-17.5016452974
 21
83.1889944656
  0
LINE
  5
25A
100
AcDbEntity
  8
RACCORDO
100
AcDbLine
 62
253
  6
CONTINUOUS
 10
-17.5005544507
 20
83.6438693835
 11
-17.5009355056
 21
83.5827980987
  0
LWPOLYLINE
  5
25B
100
AcDbEntity
  8
RACCORDO
100
AcDbPolyline
 62
253
  6
CONTINUOUS
 90
3
 70
0
 10
17.4999869859
 20
83.6799902339
 10
17.5001322543
 20
83.6760725942
 10
17.5002758833
 20
83.6687084472
  0
LINE
  5
25C
100
AcDbEntity
  8
RACCORDO
100
AcDbLine
 62
253
  6
CONTINUOUS
 10
17.5002758833
 20
83.6687084472
 11
17.5005542429
 21
83.6438691836
  0
LINE
  5
25D
100
AcDbEntity
  8
RACCORDO
100
AcDbLine
 62
253
  6
CONTINUOUS
 10
17.5005542429
 20
83.6438691836
 11
17.5011545696
 21
83.5278580952
  0
LINE
  5
25E
100
AcDbEntity
  8
RACCORDO
100
AcDbLine
 62
253
  6
CONTINUOUS
 10
17.499986986
 20
-83.6799904564
 11
17.4999998625
 21
-83.7500001637
  0
LINE
  5
25F
100
AcDbEntity
  8
RACCORDO
100
AcDbLine
 62
253
  6
CONTINUOUS
 10
17.5011545696
 20
83.5278580952
 11
17.5016452973
 21
83.1889944656
  0
LINE
  5
260
100
AcDbEntity
  8
RACCORDO
100
AcDbLine
 62
253
  6
CONTINUOUS
 10
17.499986986
 20
83.6799904564
 11
17.4999998625
 21
83.7500001643
  0
LINE
  5
261
100
AcDbEntity
  8
RACCORDO
100
AcDbLine
 62
253
  6
CONTINUOUS
 10
17.5009355056
 20
-83.5827980987
 11
17.5016452974
 21
-83.1889944656
  0
LINE
  5
262
100
AcDbEntity
  8
RACCORDO
100
AcDbLine
 62
253
  6
CONTINUOUS
 10
17.5005544507
 20
-83.6438693835
 11
17.5009355056
 21
-83.5827980987
  0
LWPOLYLINE
  5
263
100
AcDbEntity
  8
RACCORDO
100
AcDbPolyline
 62
253
  6
CONTINUOUS
 90
4
 70
0
 10
17.499986986
 20
-83.6799904564
 10
17.5001323198
 20
-83.6760728139
 10
17.5002760053
 20
-83.6687086622
 10
17.5005544507
 20
-83.6438693835
  0
LINE
  5
264
100
AcDbEntity
  8
RACCORDO
100
AcDbLine
 62
253
  6
CONTINUOUS
 10
23.4333766697
 20
77.2572644675
 11
23.4333766697
 21
-77.2572644674
  0
LINE
  5
265
100
AcDbEntity
  8
RACCORDO
100
AcDbLine
 62
253
  6
CONTINUOUS
 10
23.9303486445
 20
77.2499433009
 11
23.9303486445
 21
-77.2499433008
  0
LINE
  5
266
100
AcDbEntity
  8
DRAFT
100
AcDbLine
 62
7
  6
CONTINUOUS
 10
24.0000008603
 20
-77.2499998267
 11
24.0000008577
 21
77.2499998267
  0
LWPOLYLINE
  5
267
100
AcDbEntity
  8
RACCORDO
100
AcDbPolyline
 62
253
  6
CONTINUOUS
 90
43
 70
0
 10
23.4333766697
 20
-77.2572644674
 10
23.4321492655
 20
-77.4216197422
 10
23.4247572397
 20
-77.5924685564
 10
23.4112005922
 20
-77.7698108995
 10
23.3923170479
 20
-77.9532960163
 10
23.3672688813
 20
-78.1432746401
 10
23.3335429168
 20
-78.34079899
 10
23.2909015282
 20
-78.5474297506
 10
23.2395823399
 20
-78.761606206
 10
23.1777850517
 20
-78.9796984793
 10
23.1045804122
 20
-79.2027622316
 10
23.0208976688
 20
-79.429741783
 10
22.9277242686
 20
-79.6538402666
 10
22.8250048705
 20
-79.8736306557
 10
22.7127948105
 20
-80.0905399904
 10
22.5922475511
 20
-80.3020525241
 10
22.4636125792
 20
-80.5075105362
 10
22.3266404024
 20
-80.7075717691
 10
22.1817360148
 20
-80.9016936761
 10
22.0287407019
 20
-81.0900588421
 10
21.8678131721
 20
-81.2724847035
 10
21.6998345536
 20
-81.447880993
 10
21.5247318748
 20
-81.6161827104
 10
21.3425781013
 20
-81.7774548794
 10
21.1544732683
 20
-81.9308022709
 10
20.960595413
 20
-82.0760648495
 10
20.7607664929
 20
-82.2134026738
 10
20.5555524248
 20
-82.3424006578
 10
20.3443558691
 20
-82.463286985
 10
20.1277741604
 20
-82.5758334921
 10
19.9081652279
 20
-82.6789405732
 10
19.6840919856
 20
-82.7725826761
 10
19.4569915168
 20
-82.8567853715
 10
19.2335330096
 20
-82.9305257384
 10
19.0146624004
 20
-82.9928941574
 10
18.7994337577
 20
-83.0448002625
 10
18.5916784737
 20
-83.0879500112
 10
18.392973867
 20
-83.122074377
 10
18.201742627
 20
-83.1474423933
 10
18.0170842026
 20
-83.1665671051
 10
17.838698412
 20
-83.1802861943
 10
17.6668854428
 20
-83.187761981
 10
17.5016452974
 20
-83.1889944656
  0
LWPOLYLINE
  5
268
100
AcDbEntity
  8
RACCORDO
100
AcDbPolyline
 62
253
  6
CONTINUOUS
 90
43
 70
0
 10
23.930347787
 20
-77.2499433001
 10
23.9278782975
 20
-77.4278396567
 10
23.9200711299
 20
-77.613089487
 10
23.9062729717
 20
-77.8055755557
 10
23.8858949208
 20
-78.0043553229
 10
23.8581920171
 20
-78.2100234969
 10
23.822055474
 20
-78.4245497645
 10
23.776255661
 20
-78.6487776619
 10
23.7200711128
 20
-78.8805323066
 10
23.6531504636
 20
-79.1171634736
 10
23.5743240739
 20
-79.3594762614
 10
23.4833265432
 20
-79.6052583179
 10
23.3820603081
 20
-79.8478836553
 10
23.2710265232
 20
-80.085933425
 10
23.1494657127
 20
-80.3208330127
 10
23.018351809
 20
-80.5505796812
 10
22.8787292143
 20
-80.7735545453
 10
22.7305009802
 20
-80.9900511779
 10
22.5732910609
 20
-81.200616797
 10
22.4070966638
 20
-81.4052336753
 10
22.2327624395
 20
-81.6028114279
 10
22.050897137
 20
-81.7926416106
 10
21.8613736453
 20
-81.9748483172
 10
21.6640788752
 20
-82.1495402322
 10
21.4597300249
 20
-82.3161012824
 10
21.2494213708
 20
-82.4736853071
 10
21.0331712104
 20
-82.6222958884
 10
20.8104516018
 20
-82.7622922945
 10
20.5810363543
 20
-82.8937424033
 10
20.3464858013
 20
-83.0156454707
 10
20.1086451528
 20
-83.1270969471
 10
19.8660523671
 20
-83.228851684
 10
19.620136028
 20
-83.3203784796
 10
19.3773948045
 20
-83.3997863831
 10
19.1399314289
 20
-83.4673354164
 10
18.9070430075
 20
-83.5241309659
 10
18.6815917865
 20
-83.5704522674
 10
18.4657884538
 20
-83.6070148287
 10
18.2587741628
 20
-83.6350556816
 10
18.0587305145
 20
-83.6556719729
 10
17.8651158319
 20
-83.6696188915
 10
17.6788283169
 20
-83.6775032239
 10
17.499986986
 20
-83.6799902927
  0
LWPOLYLINE
  5
269
100
AcDbEntity
  8
DRAFT
100
AcDbPolyline
 62
7
  6
CONTINUOUS
 90
40
 70
0
 10
24.0000008603
 20
-77.2499998267
 10
23.9947351078
 20
-77.5117560671
 10
23.9789893719
 20
-77.7724903342
 10
23.9527636521
 20
-78.0322026296
 10
23.9159753258
 20
-78.291410155
 10
23.8687070137
 20
-78.5495957116
 10
23.8112065803
 20
-78.8052077042
 10
23.7434445571
 20
-79.0580943298
 10
23.665450409
 20
-79.3084074028
 10
23.5775603998
 20
-79.5550507604
 10
23.4796702192
 20
-79.7981238112
 10
23.3718841722
 20
-80.0375271625
 10
23.2548514455
 20
-80.2718664549
 10
23.1286141176
 20
-80.5009555527
 10
22.9931301039
 20
-80.7249806136
 10
22.8489223459
 20
-80.9431057234
 10
22.6958172283
 20
-81.1554787535
 10
22.5339883596
 20
-81.3619518562
 10
22.3644795172
 20
-81.5612455424
 10
22.1874708883
 20
-81.7531008406
 10
22.002782279
 20
-81.9377767495
 10
21.8109168951
 20
-82.1147707381
 10
21.6116156282
 20
-82.2842630398
 10
21.4051375799
 20
-82.4460734469
 10
21.192763272
 20
-82.5991587687
 10
20.9746410355
 20
-82.7433451299
 10
20.7506225338
 20
-82.8788064314
 10
20.5215432881
 20
-83.005021148
 10
20.2872174237
 20
-83.1220314186
 10
20.0478308105
 20
-83.2297951264
 10
19.8047765877
 20
-83.3276643627
 10
19.5581534761
 20
-83.4155351368
 10
19.3078627519
 20
-83.4935114576
 10
19.0550013889
 20
-83.5612574151
 10
18.7994181502
 20
-83.6187434143
 10
18.541264271
 20
-83.6659990629
 10
18.2820904341
 20
-83.7027772537
 10
18.0224135341
 20
-83.7289956197
 10
17.7617166769
 20
-83.7447365346
 10
17.4999998625
 20
-83.75
  0
LINE
  5
26A
100
AcDbEntity
  8
RACCORDO
100
AcDbLine
 62
253
  6
CONTINUOUS
 10
-23.8554695254
 20
77.253622438
 11
-23.8052361444
 21
77.2546626307
  0
LINE
  5
26B
100
AcDbEntity
  8
RACCORDO
100
AcDbLine
 62
253
  6
CONTINUOUS
 10
-23.8052361444
 20
77.2546626307
 11
-23.7444418229
 21
77.2555582398
  0
LINE
  5
26C
100
AcDbEntity
  8
RACCORDO
100
AcDbLine
 62
253
  6
CONTINUOUS
 10
-23.7444418229
 20
77.2555582398
 11
-23.6372715513
 21
77.2565765533
  0
LWPOLYLINE
  5
26D
100
AcDbEntity
  8
RACCORDO
100
AcDbPolyline
 62
253
  6
CONTINUOUS
 90
3
 70
0
 10
-23.6372715513
 20
77.2565765533
 10
-23.4753668022
 20
77.2572340853
 10
-23.4333766697
 20
77.2572644674
  0
LINE
  5
26E
100
AcDbEntity
  8
RACCORDO
100
AcDbLine
 62
253
  6
CONTINUOUS
 10
23.9303486445
 20
77.2499433009
 11
24.0000008577
 21
77.2499998267
  0
LINE
  5
26F
100
AcDbEntity
  8
RACCORDO
100
AcDbLine
 62
253
  6
CONTINUOUS
 10
-23.9303486445
 20
77.2499433008
 11
-24.0000008603
 21
77.2499998267
  0
LINE
  5
270
100
AcDbEntity
  8
RACCORDO
100
AcDbLine
 62
253
  6
CONTINUOUS
 10
23.5982832914
 20
77.2568195527
 11
23.4333766697
 21
77.2572644675
  0
LINE
  5
271
100
AcDbEntity
  8
RACCORDO
100
AcDbLine
 62
253
  6
CONTINUOUS
 10
23.7106105521
 20
77.2559440033
 11
23.5982832914
 21
77.2568195527
  0
LINE
  5
272
100
AcDbEntity
  8
RACCORDO
100
AcDbLine
 62
253
  6
CONTINUOUS
 10
23.7760588902
 20
77.2551304774
 11
23.7106105521
 21
77.2559440033
  0
LWPOLYLINE
  5
273
100
AcDbEntity
  8
RACCORDO
100
AcDbPolyline
 62
253
  6
CONTINUOUS
 90
7
 70
0
 10
-23.9303477238
 20
77.2499433
 10
-23.9263848073
 20
77.2505898574
 10
-23.9189206899
 20
77.2512289948
 10
-23.9080081287
 20
77.2518561941
 10
-23.8937242551
 20
77.252467022
 10
-23.8761700289
 20
77.2530571605
 10
-23.8554695254
 20
77.253622438
  0
LINE
  5
274
100
AcDbEntity
  8
RACCORDO
100
AcDbLine
 62
253
  6
CONTINUOUS
 10
-17.5016452974
 20
83.1889944656
 11
17.5016452973
 21
83.1889944656
  0
LINE
  5
275
100
AcDbEntity
  8
RACCORDO
100
AcDbLine
 62
253
  6
CONTINUOUS
 10
-17.499986986
 20
83.6799904564
 11
17.499986986
 21
83.6799904564
  0
LINE
  5
276
100
AcDbEntity
  8
DRAFT
100
AcDbLine
 62
7
  6
CONTINUOUS
 10
17.4999998625
 20
83.7500001643
 11
-17.4999998625
 21
83.7500001637
  0
LWPOLYLINE
  5
277
100
AcDbEntity
  8
RACCORDO
100
AcDbPolyline
 62
253
  6
CONTINUOUS
 90
43
 70
0
 10
17.5016452973
 20
83.1889944656
 10
17.6662173359
 20
83.1877661482
 10
17.8373035219
 20
83.1803536571
 10
18.0149038527
 20
83.166756992
 10
18.1986808131
 20
83.1478137616
 10
18.3889719128
 20
83.1226863552
 10
18.5867896861
 20
83.0888619417
 10
18.7936989394
 20
83.0460947679
 10
19.0081348583
 20
82.9946305802
 10
19.2264155475
 20
82.9326937941
 10
19.4495674358
 20
82.8593607755
 10
19.6765640893
 20
82.7755551439
 10
19.9006443228
 20
82.6822721933
 10
20.120379258
 20
82.5794642261
 10
20.337197776
 20
82.4671789215
 10
20.5486253365
 20
82.3465546394
 10
20.7540206964
 20
82.2178346399
 10
20.9540251039
 20
82.0807756427
 10
21.1480877572
 20
81.9357861981
 10
21.3363891625
 20
81.78270785
 10
21.5187488189
 20
81.6216990313
 10
21.6940744147
 20
81.4536436266
 10
21.8622993686
 20
81.278470199
 10
22.0234902678
 20
81.096250162
 10
22.1767545544
 20
80.9080816788
 10
22.3219318237
 20
80.7141449788
 10
22.4591824865
 20
80.5142598113
 10
22.5880952079
 20
80.3089836211
 10
22.708904362
 20
80.0977029569
 10
22.8213755803
 20
79.8810312483
 10
22.9243944144
 20
79.6613662671
 10
23.0179280469
 20
79.4372716252
 10
23.1020093002
 20
79.2101836968
 10
23.1756221865
 20
78.9868094169
 10
23.2378510203
 20
78.7681244563
 10
23.2896114911
 20
78.5531531621
 10
23.3326346722
 20
78.3456755049
 10
23.3666596701
 20
78.1472652733
 10
23.3919473803
 20
77.9563487102
 10
23.4110115594
 20
77.7719844725
 10
23.4246901266
 20
77.5938587862
 10
23.4321451633
 20
77.4222854476
 10
23.4333766697
 20
77.2572644675
  0
LWPOLYLINE
  5
278
100
AcDbEntity
  8
RACCORDO
100
AcDbPolyline
 62
253
  6
CONTINUOUS
 90
43
 70
0
 10
17.4999869859
 20
83.6799902927
 10
17.6781085172
 20
83.6775232054
 10
17.8636076147
 20
83.6697044882
 10
18.0563666962
 20
83.6558777853
 10
18.2554550998
 20
83.6354495365
 10
18.4614536309
 20
83.6076722502
 10
18.6762921991
 20
83.5714404851
 10
18.9008189352
 20
83.5255228074
 10
19.1328498951
 20
83.4691992577
 10
19.3696791122
 20
83.4021373026
 10
19.6120849646
 20
83.3231842376
 10
19.8578857104
 20
83.2320753919
 10
20.1004907364
 20
83.1307087555
 10
20.3384780712
 20
83.019593075
 10
20.5732823128
 20
82.8979699717
 10
20.8029430177
 20
82.7667940354
 10
21.025857432
 20
82.6270971126
 10
21.2422994869
 20
82.4787905311
 10
21.4528087827
 20
82.3215040959
 10
21.657367423
 20
82.1552348012
 10
21.8548852027
 20
81.9808265744
 10
22.0446512091
 20
81.798889824
 10
22.2267863486
 20
81.609302249
 10
22.4014042674
 20
81.4119474557
 10
22.5678903908
 20
81.2075404335
 10
22.7253976143
 20
80.9971759444
 10
22.8739294349
 20
80.7808719062
 10
23.0138512569
 20
80.5580924319
 10
23.1452391333
 20
80.3285920429
 10
23.2670797977
 20
80.0939470659
 10
23.3784498199
 20
79.8560435559
 10
23.4801054898
 20
79.6134272948
 10
23.5715225559
 20
79.3675247087
 10
23.6508046208
 20
79.1248722108
 10
23.7182122982
 20
78.8876038741
 10
23.7748683119
 20
78.6549895148
 10
23.8210709073
 20
78.4298362032
 10
23.8575371866
 20
78.2143461626
 10
23.885502622
 20
78.0076645895
 10
23.9060679529
 20
77.8079321243
 10
23.9199858531
 20
77.6145927483
 10
23.9278583771
 20
77.4285569191
 10
23.930347787
 20
77.2499433002
  0
LWPOLYLINE
  5
279
100
AcDbEntity
  8
DRAFT
100
AcDbPolyline
 62
7
  6
CONTINUOUS
 90
40
 70
0
 10
17.4999998625
 20
83.7500001643
 10
17.761716842
 20
83.7447365743
 10
18.0224136529
 20
83.7289956096
 10
18.2820902949
 20
83.7027772685
 10
18.5412637212
 20
83.6659991332
 10
18.7994169782
 20
83.6187436149
 10
19.0549992073
 20
83.5612579542
 10
19.3078586986
 20
83.493512749
 10
19.5581471639
 20
83.4155373886
 10
19.8047688787
 20
83.3276672999
 10
20.0478232668
 20
83.229798244
 10
20.2872109076
 20
83.1220344414
 10
20.5215378116
 20
83.0050240077
 10
20.750617954
 20
82.8788090233
 10
20.9746373644
 20
82.7433473854
 10
21.1927601368
 20
82.5991609353
 10
21.405134301
 20
82.446076
 10
21.6116118327
 20
82.2842662267
 10
21.8109127452
 20
82.1147744388
 10
22.0027781293
 20
81.9377807352
 10
22.1874669011
 20
81.7531049913
 10
22.3644758128
 20
81.561249696
 10
22.5339851669
 20
81.3619556584
 10
22.6958146677
 20
81.1554820421
 10
22.8489201701
 20
80.9431088712
 10
22.9931278382
 20
80.7249843002
 10
23.1286115148
 20
80.5009601509
 10
23.2548485741
 20
80.2718719528
 10
23.3718811372
 20
80.0375337033
 10
23.4796670891
 20
79.7981313831
 10
23.5775574499
 20
79.555058502
 10
23.6654481441
 20
79.3084137547
 10
23.7434432523
 20
79.0580984306
 10
23.8112060282
 20
78.805209938
 10
23.8687068279
 20
78.5495969363
 10
23.9159752991
 20
78.2914107548
 10
23.952763632
 20
78.032202812
 10
23.9789892242
 20
77.7724902479
 10
23.99473468
 20
77.5117559198
 10
24.0
 20
77.249999826
  0
LWPOLYLINE
  5
27A
100
AcDbEntity
  8
RACCORDO
100
AcDbPolyline
 62
253
  6
CONTINUOUS
 90
9
 70
0
 10
23.9303486445
 20
77.2499433009
 10
23.926385717
 20
77.2505899259
 10
23.9189215806
 20
77.2512291215
 10
23.9080089927
 20
77.25185637
 10
23.8937250849
 20
77.2524672377
 10
23.8761708176
 20
77.253057407
 10
23.8554702666
 20
77.2536227066
 10
23.8317697462
 20
77.2541591408
 10
23.7760588902
 20
77.2551304774
  0
LINE
  5
27B
100
AcDbEntity
  8
RACCORDO
100
AcDbLine
 62
7
  6
CONTINUOUS
 10
-69.6653310163
 20
-82.1712976069
 11
-69.7203621565
 21
-82.1717778564
  0
LINE
  5
27C
100
AcDbEntity
  8
DRAFT
100
AcDbLine
 62
7
  6
CONTINUOUS
 10
-75.63493191
 20
-83.7499999798
 11
-75.6042958045
 21
-83.7500001637
  0
LINE
  5
27D
100
AcDbEntity
  8
RACCORDO
100
AcDbLine
 62
7
  6
CONTINUOUS
 10
-76.9401606443
 20
-83.6799904564
 11
-76.9707884236
 21
-83.6799907065
  0
LINE
  5
27E
100
AcDbEntity
  8
RACCORDO
100
AcDbLine
 62
253
  6
CONTINUOUS
 10
-77.4139203916
 20
-83.1889944656
 11
-77.4445512377
 21
-83.1889948504
  0
LINE
  5
27F
100
AcDbEntity
  8
RACCORDO
100
AcDbLine
 62
7
  6
CONTINUOUS
 10
-69.4357778651
 20
-82.25
 11
-69.5166399966
 21
-82.25
  0
LINE
  5
280
100
AcDbEntity
  8
DRAFT
100
AcDbLine
 62
7
  6
CONTINUOUS
 10
-76.9707884233
 20
-83.6799907065
 11
-75.634931917
 21
-83.7499999795
  0
LINE
  5
281
100
AcDbEntity
  8
RACCORDO
100
AcDbLine
 62
7
  6
CONTINUOUS
 10
-76.9401606443
 20
-83.6799904564
 11
-75.6042958045
 21
-83.7500001637
  0
LWPOLYLINE
  5
282
100
AcDbEntity
  8
RACCORDO
100
AcDbPolyline
 62
253
  6
CONTINUOUS
 90
19
 70
0
 10
-76.9401606443
 20
-83.6799904564
 10
-76.9816804815
 20
-83.6760728139
 10
-77.0227294102
 20
-83.6687086622
 10
-77.0630218505
 20
-83.6579492341
 10
-77.1022774852
 20
-83.6438693835
 10
-77.1402232103
 20
-83.626567065
 10
-77.1765950352
 20
-83.6061626518
 10
-77.2111399185
 20
-83.5827980987
 10
-77.2436175295
 20
-83.5566359546
 10
-77.2738019193
 20
-83.5278582309
 10
-77.3014830931
 20
-83.4966651362
 10
-77.3264684713
 20
-83.4632736829
 10
-77.348584229
 20
-83.4279161774
 10
-77.3676765055
 20
-83.3908386042
 10
-77.3836124746
 20
-83.3522989142
 10
-77.3962812687
 20
-83.3125652305
 10
-77.4055947502
 20
-83.271913983
 10
-77.4114881247
 20
-83.2306279849
 10
-77.4139203916
 20
-83.1889944656
  0
LWPOLYLINE
  5
283
100
AcDbEntity
  8
RACCORDO
100
AcDbPolyline
 62
253
  6
CONTINUOUS
 90
13
 70
0
 10
-69.435414755
 20
-76.1007402567
 10
-69.1098018518
 20
-76.0136268697
 10
-68.7749125926
 20
-75.9188651051
 10
-68.4310447588
 20
-75.8164549629
 10
-68.0784223076
 20
-75.7067525721
 10
-67.7174946139
 20
-75.5894018036
 10
-67.3489299918
 20
-75.4633342706
 10
-66.9722751702
 20
-75.3281750618
 10
-66.5888245349
 20
-75.1842990884
 10
-66.2018199074
 20
-75.0317626969
 10
-65.8125731289
 20
-74.8705846694
 10
-65.4205604752
 20
-74.7007462239
 10
-65.0262175239
 20
-74.5222473602
  0
LWPOLYLINE
  5
284
100
AcDbEntity
  8
RACCORDO
100
AcDbPolyline
 62
253
  6
CONTINUOUS
 90
13
 70
0
 10
-72.8651555923
 20
-76.77392406
 10
-72.6328866936
 20
-76.7389021472
 10
-72.4004899014
 20
-76.7004583916
 10
-72.1679885931
 20
-76.6585927933
 10
-71.9360724943
 20
-76.6135429592
 10
-71.7040969444
 20
-76.5650712824
 10
-71.4700947251
 20
-76.5124649419
 10
-71.2336297242
 20
-76.4557138089
 10
-70.9952135102
 20
-76.3948280122
 10
-70.7543169589
 20
-76.3291251177
 10
-70.5107959315
 20
-76.2583776474
 10
-70.2648872568
 20
-76.1828130793
 10
-70.0166399966
 20
-76.1024314135
  0
LINE
  5
285
100
AcDbEntity
  8
RACCORDO
100
AcDbLine
 62
253
  6
CONTINUOUS
 10
-77.0110564251
 20
-77.2499433
 11
-77.4848233013
 21
-77.2572644674
  0
LINE
  5
286
100
AcDbEntity
  8
RACCORDO
100
AcDbLine
 62
253
  6
CONTINUOUS
 10
-77.0110564734
 20
-77.2499433008
 11
-75.6820121494
 21
-77.2499998267
  0
LINE
  5
287
100
AcDbEntity
  8
RACCORDO
100
AcDbLine
 62
253
  6
CONTINUOUS
 10
-70.0166399966
 20
-76.1024148091
 11
-69.7419150847
 21
-76.1024146253
  0
LINE
  5
288
100
AcDbEntity
  8
RACCORDO
100
AcDbLine
 62
253
  6
CONTINUOUS
 10
-70.0166404802
 20
-76.1689356525
 11
-69.5166399966
 21
-76.17
  0
LWPOLYLINE
  5
289
100
AcDbEntity
  8
RACCORDO
100
AcDbPolyline
 62
253
  6
CONTINUOUS
 90
10
 70
0
 10
-75.6881614129
 20
-76.9463862035
 10
-75.3676445086
 20
-76.9498085682
 10
-75.0490220645
 20
-76.9475666747
 10
-74.7323448776
 20
-76.9396605231
 10
-74.4180573003
 20
-76.926066044
 10
-74.1058104588
 20
-76.9068073067
 10
-73.7944664332
 20
-76.8819565189
 10
-73.4836798543
 20
-76.8515377498
 10
-73.1738937379
 20
-76.8155269302
 10
-72.8651555923
 20
-76.77392406
  0
LINE
  5
28A
100
AcDbEntity
  8
RACCORDO
100
AcDbLine
 62
253
  6
CONTINUOUS
 10
-60.9166399966
 20
-72.5065626656
 11
-61.5310896443
 21
-72.5065623905
  0
LINE
  5
28B
100
AcDbEntity
  8
RACCORDO
100
AcDbLine
 62
253
  6
CONTINUOUS
 10
-77.4796724418
 20
-77.5924685564
 11
-77.4742111209
 21
-77.9532960163
  0
LINE
  5
28C
100
AcDbEntity
  8
RACCORDO
100
AcDbLine
 62
253
  6
CONTINUOUS
 10
-77.4742111209
 20
-77.9532960163
 11
-77.4653851902
 21
-78.5474297506
  0
LINE
  5
28D
100
AcDbEntity
  8
RACCORDO
100
AcDbLine
 62
253
  6
CONTINUOUS
 10
-77.1934237858
 20
-64.3757691504
 11
-77.0032143923
 21
-77.8055755557
  0
LINE
  5
28E
100
AcDbEntity
  8
DRAFT
100
AcDbLine
 62
7
  6
CONTINUOUS
 10
-75.8644292312
 20
-64.3757992915
 11
-75.6444464111
 21
-79.7981238112
  0
LINE
  5
28F
100
AcDbEntity
  8
RACCORDO
100
AcDbLine
 62
253
  6
CONTINUOUS
 10
-77.0032143923
 20
-77.8055755557
 11
-76.9946632549
 21
-78.4245497645
  0
LINE
  5
290
100
AcDbEntity
  8
RACCORDO
100
AcDbLine
 62
253
  6
CONTINUOUS
 10
-77.4653851902
 20
-78.5474297506
 11
-77.4353782466
 21
-80.7075717691
  0
LINE
  5
291
100
AcDbEntity
  8
RACCORDO
100
AcDbLine
 62
253
  6
CONTINUOUS
 10
-76.9946632549
 20
-78.4245497645
 11
-76.9821355117
 21
-79.3594762614
  0
LINE
  5
292
100
AcDbEntity
  8
DRAFT
100
AcDbLine
 62
7
  6
CONTINUOUS
 10
-75.6444464111
 20
-79.7981238112
 11
-75.6187513027
 21
-81.7531008406
  0
LWPOLYLINE
  5
293
100
AcDbEntity
  8
DRAFT
100
AcDbPolyline
 62
7
  6
CONTINUOUS
 90
11
 70
0
 10
-75.8644292312
 20
-64.3757992915
 10
-76.0136799343
 20
-51.5011650629
 10
-76.1297642568
 20
-38.6261825779
 10
-76.2126826358
 20
-25.750935115
 10
-76.2624346305
 20
-12.8755102787
 10
-76.2790189219
 20
-0.0000000003
 10
-76.2624346287
 20
12.8755102781
 10
-76.2126826322
 20
25.7509351144
 10
-76.1297642568
 20
38.6261825774
 10
-76.0136799453
 20
51.5011650624
 10
-75.8644292585
 20
64.3757992913
  0
LINE
  5
294
100
AcDbEntity
  8
RACCORDO
100
AcDbLine
 62
253
  6
CONTINUOUS
 10
-76.9821355117
 20
-79.3594762614
 11
-76.9544895856
 21
-81.6028114279
  0
LINE
  5
295
100
AcDbEntity
  8
RACCORDO
100
AcDbLine
 62
253
  6
CONTINUOUS
 10
-77.4353782466
 20
-80.7075717691
 11
-77.4175888489
 21
-82.2134026738
  0
LINE
  5
296
100
AcDbEntity
  8
RACCORDO
100
AcDbLine
 62
253
  6
CONTINUOUS
 10
-76.9383561948
 20
83.6354495365
 11
-76.9380878927
 21
83.6076722502
  0
LINE
  5
297
100
AcDbEntity
  8
DRAFT
100
AcDbLine
 62
7
  6
CONTINUOUS
 10
-75.6187513027
 20
-81.7531008406
 11
-75.6052323032
 21
-83.005021148
  0
LINE
  5
298
100
AcDbEntity
  8
RACCORDO
100
AcDbLine
 62
253
  6
CONTINUOUS
 10
-76.9544895856
 20
-81.6028114279
 11
-76.9414202645
 21
-82.8937424033
  0
LINE
  5
299
100
AcDbEntity
  8
RACCORDO
100
AcDbLine
 62
253
  6
CONTINUOUS
 10
-77.4175888489
 20
-82.2134026738
 11
-77.4122106025
 21
-82.8567853715
  0
LINE
  5
29A
100
AcDbEntity
  8
RACCORDO
100
AcDbLine
 62
253
  6
CONTINUOUS
 10
-76.9414202645
 20
-82.8937424033
 11
-76.9380926317
 21
-83.3997863831
  0
LINE
  5
29B
100
AcDbEntity
  8
DRAFT
100
AcDbLine
 62
7
  6
CONTINUOUS
 10
-75.6052323032
 20
-83.005021148
 11
-75.6019307485
 21
-83.4935114576
  0
LINE
  5
29C
100
AcDbEntity
  8
RACCORDO
100
AcDbLine
 62
253
  6
CONTINUOUS
 10
-76.9380878927
 20
83.6076722502
 11
-76.9378387142
 21
83.5255228074
  0
LINE
  5
29D
100
AcDbEntity
  8
RACCORDO
100
AcDbLine
 62
253
  6
CONTINUOUS
 10
-77.4118386352
 20
83.1226863552
 11
-77.4116066307
 21
83.0460947679
  0
LINE
  5
29E
100
AcDbEntity
  8
RACCORDO
100
AcDbLine
 62
253
  6
CONTINUOUS
 10
-76.9380926317
 20
-83.3997863831
 11
-76.9378384454
 21
-83.5241309659
  0
LINE
  5
29F
100
AcDbEntity
  8
RACCORDO
100
AcDbLine
 62
253
  6
CONTINUOUS
 10
-77.4122106025
 20
-82.8567853715
 11
-77.4116065751
 21
-83.0448002625
  0
LWPOLYLINE
  5
2A0
100
AcDbEntity
  8
DRAFT
100
AcDbPolyline
 62
7
  6
CONTINUOUS
 90
7
 70
0
 10
-75.6019307485
 20
-83.4935114576
 10
-75.6017751783
 20
-83.6187434143
 10
-75.6019485858
 20
-83.6659990629
 10
-75.6022874408
 20
-83.7027772537
 10
-75.602791332
 20
-83.7289956197
 10
-75.6034608039
 20
-83.7447365346
 10
-75.604295796
 20
-83.75
  0
LINE
  5
2A1
100
AcDbEntity
  8
DRAFT
100
AcDbLine
 62
7
  6
CONTINUOUS
 10
-75.6017751793
 20
83.6187436149
 11
-75.6022597435
 21
83.4155373886
  0
LINE
  5
2A2
100
AcDbEntity
  8
RACCORDO
100
AcDbLine
 62
253
  6
CONTINUOUS
 10
-76.9378387142
 20
83.5255228074
 11
-76.9384261466
 21
83.3231842376
  0
LINE
  5
2A3
100
AcDbEntity
  8
RACCORDO
100
AcDbLine
 62
253
  6
CONTINUOUS
 10
-77.4116066307
 20
83.0460947679
 11
-77.4121968028
 21
82.8593607755
  0
LWPOLYLINE
  5
2A4
100
AcDbEntity
  8
RACCORDO
100
AcDbPolyline
 62
253
  6
CONTINUOUS
 90
7
 70
0
 10
-77.4116065751
 20
-83.0448002625
 10
-77.4118340904
 20
-83.122074377
 10
-77.4121120492
 20
-83.1474423933
 10
-77.4124627499
 20
-83.1665671051
 10
-77.4128741259
 20
-83.1802861943
 10
-77.4133597712
 20
-83.187761981
 10
-77.4139203916
 20
-83.1889944656
  0
LWPOLYLINE
  5
2A5
100
AcDbEntity
  8
RACCORDO
100
AcDbPolyline
 62
253
  6
CONTINUOUS
 90
7
 70
0
 10
-76.9378384454
 20
-83.5241309659
 10
-76.9380832871
 20
-83.6070148287
 10
-76.9383510933
 20
-83.6350556816
 10
-76.9387031899
 20
-83.6556719729
 10
-76.9391308653
 20
-83.6696188915
 10
-76.9396202865
 20
-83.6775032239
 10
-76.9401606357
 20
-83.6799902927
  0
LINE
  5
2A6
100
AcDbEntity
  8
RACCORDO
100
AcDbLine
 62
253
  6
CONTINUOUS
 10
-76.9384261466
 20
83.3231842376
 11
-76.9452002558
 21
82.4787905311
  0
LINE
  5
2A7
100
AcDbEntity
  8
DRAFT
100
AcDbLine
 62
7
  6
CONTINUOUS
 10
-75.6022597435
 20
83.4155373886
 11
-75.6076908018
 21
82.7433473854
  0
LINE
  5
2A8
100
AcDbEntity
  8
RACCORDO
100
AcDbLine
 62
253
  6
CONTINUOUS
 10
-77.4121968028
 20
82.8593607755
 11
-77.4175439689
 21
82.2178346399
  0
LWPOLYLINE
  5
2A9
100
AcDbEntity
  8
RACCORDO
100
AcDbPolyline
 62
253
  6
CONTINUOUS
 90
12
 70
0
 10
-77.6672076396
 20
64.3818696051
 10
-77.8164328478
 20
51.5060344653
 10
-77.9324981298
 20
38.6298444476
 10
-78.015402801
 20
25.753380513
 10
-78.0651461082
 20
12.8767325027
 10
-78.0817273435
 20
-0.0000008619
 10
-78.0651461039
 20
-12.8767341779
 10
-78.0154027932
 20
-25.7533820433
 10
-77.9324981198
 20
-38.6298457377
 10
-77.816432838
 20
-51.5060354206
 10
-77.6672076328
 20
-64.3818701302
 10
-77.4796724418
 20
-77.5924685564
  0
LWPOLYLINE
  5
2AA
100
AcDbEntity
  8
RACCORDO
100
AcDbPolyline
 62
253
  6
CONTINUOUS
 90
11
 70
0
 10
-77.1934237913
 20
64.3757686253
 10
-77.3426338074
 20
51.5011536244
 10
-77.4586865196
 20
38.6261837343
 10
-77.5415824003
 20
25.7509400052
 10
-77.5913209731
 20
12.8755122687
 10
-77.6079008129
 20
-0.0000008618
 10
-77.591320969
 20
-12.8755139437
 10
-77.5415823922
 20
-25.7509415353
 10
-77.4586865096
 20
-38.6261850243
 10
-77.3426337986
 20
-51.5011545795
 10
-77.1934237858
 20
-64.3757691504
  0
LINE
  5
2AB
100
AcDbEntity
  8
RACCORDO
100
AcDbLine
 62
253
  6
CONTINUOUS
 10
-76.9452002558
 20
82.4787905311
 11
-76.9641359743
 21
80.7808719062
  0
LINE
  5
2AC
100
AcDbEntity
  8
DRAFT
100
AcDbLine
 62
7
  6
CONTINUOUS
 10
-75.6076908018
 20
82.7433473854
 11
-75.6235843824
 21
81.3619556584
  0
LINE
  5
2AD
100
AcDbEntity
  8
RACCORDO
100
AcDbLine
 62
253
  6
CONTINUOUS
 10
-77.4175439689
 20
82.2178346399
 11
-77.4352931502
 21
80.7141449788
  0
LINE
  5
2AE
100
AcDbEntity
  8
RACCORDO
100
AcDbLine
 62
253
  6
CONTINUOUS
 10
-76.9641359743
 20
80.7808719062
 11
-76.994591084
 21
78.4298362032
  0
LINE
  5
2AF
100
AcDbEntity
  8
RACCORDO
100
AcDbLine
 62
253
  6
CONTINUOUS
 10
-76.994591084
 20
78.4298362032
 11
-77.1934237913
 21
64.3757686253
  0
LINE
  5
2B0
100
AcDbEntity
  8
DRAFT
100
AcDbLine
 62
7
  6
CONTINUOUS
 10
-75.6235843824
 20
81.3619556584
 11
-75.6513656356
 21
79.3084137547
  0
LINE
  5
2B1
100
AcDbEntity
  8
RACCORDO
100
AcDbLine
 62
253
  6
CONTINUOUS
 10
-77.4352931502
 20
80.7141449788
 11
-77.4653012731
 21
78.5531531621
  0
LWPOLYLINE
  5
2B2
100
AcDbEntity
  8
0
100
AcDbPolyline
 62
7
  6
CONTINUOUS
 90
13
 70
0
 10
-77.4445512379
 20
83.1889948401
 10
-77.6551683038
 20
69.3864927286
 10
-77.8285034932
 20
55.5091690777
 10
-77.9633190154
 20
41.6314177588
 10
-78.0596141115
 20
27.7533456946
 10
-78.117388024
 20
13.8750598083
 10
-78.1366399955
 20
-0.0033329767
 10
-78.1173695213
 20
-13.8817257372
 10
-78.0595771064
 20
-27.7600115504
 10
-77.9632635083
 20
-41.6380834927
 10
-77.8284294843
 20
-55.515834641
 10
-77.6550757936
 20
-69.3931580724
 10
-77.4445512379
 20
-83.1889948401
  0
LWPOLYLINE
  5
2B3
100
AcDbEntity
  8
DRAFT
100
AcDbPolyline
 62
7
  6
CONTINUOUS
 90
3
 70
0
 10
-75.6513656356
 20
79.3084137547
 10
-75.6779845054
 20
77.5117559198
 10
-75.8644292585
 20
64.3757992913
  0
LINE
  5
2B4
100
AcDbEntity
  8
RACCORDO
100
AcDbLine
 62
253
  6
CONTINUOUS
 10
-77.4653012731
 20
78.5531531621
 11
-77.6672076396
 21
64.3818696051
  0
LINE
  5
2B5
100
AcDbEntity
  8
RACCORDO
100
AcDbLine
 62
253
  6
CONTINUOUS
 10
-69.7419610001
 20
-77.1542017224
 11
-69.7251525045
 21
-79.7107030249
  0
LINE
  5
2B6
100
AcDbEntity
  8
RACCORDO
100
AcDbLine
 62
253
  6
CONTINUOUS
 10
-69.720113549
 20
82.1597251122
 11
-69.7198505293
 21
82.108135066
  0
LINE
  5
2B7
100
AcDbEntity
  8
RACCORDO
100
AcDbLine
 62
253
  6
CONTINUOUS
 10
-69.7251525045
 20
-79.7107030249
 11
-69.720773452
 21
-80.7867433232
  0
LINE
  5
2B8
100
AcDbEntity
  8
RACCORDO
100
AcDbLine
 62
7
  6
CONTINUOUS
 10
-70.0166788164
 20
-82.3667451759
 11
-70.0164992827
 21
-82.4410007987
  0
LINE
  5
2B9
100
AcDbEntity
  8
RACCORDO
100
AcDbLine
 62
253
  6
CONTINUOUS
 10
-69.720773452
 20
-80.7867433232
 11
-69.7196252012
 21
-81.6519815447
  0
LINE
  5
2BA
100
AcDbEntity
  8
RACCORDO
100
AcDbLine
 62
253
  6
CONTINUOUS
 10
-69.7429588959
 20
76.6634822657
 11
-69.7419150847
 21
-76.1024146253
  0
LINE
  5
2BB
100
AcDbEntity
  8
RACCORDO
100
AcDbLine
 62
253
  6
CONTINUOUS
 10
-69.6653310163
 20
82.1712976069
 11
-69.6653310163
 21
-82.1712976069
  0
LINE
  5
2BC
100
AcDbEntity
  8
RACCORDO
100
AcDbLine
 62
7
  6
CONTINUOUS
 10
-69.5166399966
 20
-82.25
 11
-69.5166399966
 21
82.25
  0
LINE
  5
2BD
100
AcDbEntity
  8
RACCORDO
100
AcDbLine
 62
7
  6
CONTINUOUS
 10
-69.4354151864
 20
76.1007405311
 11
-69.4354147807
 21
-76.1007377583
  0
LINE
  5
2BE
100
AcDbEntity
  8
RACCORDO
100
AcDbLine
 62
253
  6
CONTINUOUS
 10
-69.7428666608
 20
-76.4997014727
 11
-69.7419610001
 21
-77.1542017224
  0
LINE
  5
2BF
100
AcDbEntity
  8
RACCORDO
100
AcDbLine
 62
253
  6
CONTINUOUS
 10
-69.7198505293
 20
82.108135066
 11
-69.7203425775
 21
80.985864367
  0
LINE
  5
2C0
100
AcDbEntity
  8
RACCORDO
100
AcDbLine
 62
7
  6
CONTINUOUS
 10
-70.0166399966
 20
76.168936021
 11
-70.0166788164
 21
-82.3667451759
  0
LINE
  5
2C1
100
AcDbEntity
  8
RACCORDO
100
AcDbLine
 62
253
  6
CONTINUOUS
 10
-69.7419150847
 20
-76.1024146253
 11
-69.7428666608
 21
-76.4997014727
  0
LINE
  5
2C2
100
AcDbEntity
  8
RACCORDO
100
AcDbLine
 62
253
  6
CONTINUOUS
 10
-69.7196252012
 20
-81.6519815447
 11
-69.7199281104
 21
-82.1299654822
  0
LINE
  5
2C3
100
AcDbEntity
  8
RACCORDO
100
AcDbLine
 62
7
  6
CONTINUOUS
 10
-70.0164992055
 20
82.4410029216
 11
-70.0166399966
 21
76.168936021
  0
LINE
  5
2C4
100
AcDbEntity
  8
RACCORDO
100
AcDbLine
 62
253
  6
CONTINUOUS
 10
-69.7203425775
 20
80.985864367
 11
-69.7237964698
 21
79.9653673979
  0
LINE
  5
2C5
100
AcDbEntity
  8
RACCORDO
100
AcDbLine
 62
253
  6
CONTINUOUS
 10
-69.740503857
 20
77.4742285025
 11
-69.7429588959
 21
76.6634822657
  0
LINE
  5
2C6
100
AcDbEntity
  8
RACCORDO
100
AcDbLine
 62
253
  6
CONTINUOUS
 10
-69.7237964698
 20
79.9653673979
 11
-69.740503857
 21
77.4742285025
  0
LWPOLYLINE
  5
2C7
100
AcDbEntity
  8
RACCORDO
100
AcDbPolyline
 62
253
  6
CONTINUOUS
 90
4
 70
0
 10
-69.7199281104
 20
-82.1299654822
 10
-69.7201140317
 20
-82.1597587878
 10
-69.720223216
 20
-82.1679207595
 10
-69.7203431828
 20
-82.171566896
  0
LWPOLYLINE
  5
2C8
100
AcDbEntity
  8
RACCORDO
100
AcDbPolyline
 62
253
  6
CONTINUOUS
 90
3
 70
0
 10
-61.5310900009
 20
-72.5065624283
 10
-61.5075789498
 20
-72.7518108692
 10
-61.4859584541
 20
-72.9916932823
  0
LINE
  5
2C9
100
AcDbEntity
  8
RACCORDO
100
AcDbLine
 62
253
  6
CONTINUOUS
 10
-69.7203620134
 20
82.1717778551
 11
-69.7203430799
 21
82.1715669971
  0
LWPOLYLINE
  5
2CA
100
AcDbEntity
  8
RACCORDO
100
AcDbPolyline
 62
253
  6
CONTINUOUS
 90
4
 70
0
 10
-61.4859584541
 20
-72.9916932823
 10
-61.4475494681
 20
-73.4542728517
 10
-61.4304327567
 20
-73.676447945
 10
-61.4150036933
 20
-73.8921776983
  0
LWPOLYLINE
  5
2CB
100
AcDbEntity
  8
RACCORDO
100
AcDbPolyline
 62
253
  6
CONTINUOUS
 90
27
 70
0
 10
-61.4150036933
 20
-73.8921776983
 10
-61.3884853641
 20
-74.3032397699
 10
-61.3774641674
 20
-74.4985341499
 10
-61.3678750955
 20
-74.6867632757
 10
-61.3595169845
 20
-74.8678661757
 10
-61.3525884469
 20
-75.0422387772
 10
-61.3470109677
 20
-75.2096438844
 10
-61.3425886548
 20
-75.3700687703
 10
-61.3394333657
 20
-75.5242336506
 10
-61.3375629214
 20
-75.6720386755
 10
-61.3368400458
 20
-75.8133434337
 10
-61.3372825155
 20
-75.9487549483
 10
-61.3389944064
 20
-76.0782513218
 10
-61.3419293488
 20
-76.2015727634
 10
-61.3460144433
 20
-76.3189030186
 10
-61.3514081368
 20
-76.4302075455
 10
-61.3581540172
 20
-76.5351898862
 10
-61.3660991237
 20
-76.6335931002
 10
-61.3754289071
 20
-76.7252873845
 10
-61.3862410084
 20
-76.8100572691
 10
-61.3983196455
 20
-76.8874854504
 10
-61.4119089361
 20
-76.9574302006
 10
-61.4271439282
 20
-77.0196686343
 10
-61.4437362003
 20
-77.0736197599
 10
-61.4617852819
 20
-77.1189424514
 10
-61.4817221525
 20
-77.1555666321
 10
-61.5038145845
 20
-77.1832946539
  0
LWPOLYLINE
  5
2CC
100
AcDbEntity
  8
RACCORDO
100
AcDbPolyline
 62
253
  6
CONTINUOUS
 90
3
 70
0
 10
-69.7203430799
 20
82.1715669971
 10
-69.7202229084
 20
82.1679121826
 10
-69.720113549
 20
82.1597251122
  0
LINE
  5
2CD
100
AcDbEntity
  8
RACCORDO
100
AcDbLine
 62
7
  6
CONTINUOUS
 10
-70.0166396925
 20
82.4460507153
 11
-70.0164992055
 21
82.4410029216
  0
LWPOLYLINE
  5
2CE
100
AcDbEntity
  8
RACCORDO
100
AcDbPolyline
 62
7
  6
CONTINUOUS
 90
7
 70
0
 10
-69.4354151864
 20
76.1007405311
 10
-69.4369851009
 20
76.1991065202
 10
-69.4433420369
 20
76.300454084
 10
-69.4544859945
 20
76.4047832225
 10
-69.4704169737
 20
76.5120939358
 10
-69.4911349744
 20
76.6223862237
 10
-69.5166399966
 20
76.7356600863
  0
LINE
  5
2CF
100
AcDbEntity
  8
RACCORDO
100
AcDbLine
 62
7
  6
CONTINUOUS
 10
-70.0164992827
 20
-82.4410007987
 11
-70.0166399985
 21
-82.4460489091
  0
LWPOLYLINE
  5
2D0
100
AcDbEntity
  8
RACCORDO
100
AcDbPolyline
 62
253
  6
CONTINUOUS
 90
3
 70
0
 10
-61.3884844518
 20
74.303241341
 10
-61.4150028992
 20
73.8921793209
 10
-61.4304321106
 20
73.6764496122
  0
LWPOLYLINE
  5
2D1
100
AcDbEntity
  8
RACCORDO
100
AcDbPolyline
 62
253
  6
CONTINUOUS
 90
5
 70
0
 10
-61.4304321106
 20
73.6764496122
 10
-61.4660572927
 20
73.2259329455
 10
-61.4859584003
 20
72.9916943564
 10
-61.5075791241
 20
72.7518113204
 10
-61.5310903771
 20
72.5065620295
  0
LINE
  5
2D2
100
AcDbEntity
  8
RACCORDO
100
AcDbLine
 62
253
  6
CONTINUOUS
 10
-69.7203431828
 20
-82.171566896
 11
-69.7203621565
 21
-82.1717778564
  0
LWPOLYLINE
  5
2D3
100
AcDbEntity
  8
DRAFT
100
AcDbPolyline
 62
7
  6
CONTINUOUS
 90
6
 70
0
 10
-75.6042957932
 20
83.7500001643
 10
-75.6034608027
 20
83.7447365743
 10
-75.6027913318
 20
83.7289956096
 10
-75.602287441
 20
83.7027772685
 10
-75.6019485867
 20
83.6659991332
 10
-75.6017751793
 20
83.6187436149
  0
LINE
  5
2D4
100
AcDbEntity
  8
RACCORDO
100
AcDbLine
 62
253
  6
CONTINUOUS
 10
-61.5310898532
 20
72.5065620722
 11
-61.5310898261
 21
-72.5065625587
  0
LINE
  5
2D5
100
AcDbEntity
  8
RACCORDO
100
AcDbLine
 62
7
  6
CONTINUOUS
 10
-60.9166399966
 20
-75.7676919821
 11
-60.9166399966
 21
75.7676919504
  0
LWPOLYLINE
  5
2D6
100
AcDbEntity
  8
RACCORDO
100
AcDbPolyline
 62
253
  6
CONTINUOUS
 90
19
 70
0
 10
-70.0166399966
 20
-82.4460506714
 10
-70.0135447522
 20
-82.4216373945
 10
-70.0084588676
 20
-82.3975599573
 10
-70.0014165669
 20
-82.3739803827
 10
-69.9924652395
 20
-82.3510573433
 10
-69.9816651209
 20
-82.3289450936
 10
-69.9690888878
 20
-82.3077924323
 10
-69.9548211687
 20
-82.2877417007
 10
-69.9389579743
 20
-82.2689278249
 10
-69.921606052
 20
-82.2514774079
 10
-69.902882167
 20
-82.2355078779
 10
-69.8829123167
 20
-82.2211266975
 10
-69.861830883
 20
-82.2084306413
 10
-69.839779728
 20
-82.1975051438
 10
-69.816907239
 20
-82.1884237256
 10
-69.7933673307
 20
-82.1812474974
 10
-69.7693184085
 20
-82.1760247501
 10
-69.7449223034
 20
-82.1727906285
 10
-69.7203431828
 20
-82.171566896
  0
LWPOLYLINE
  5
2D7
100
AcDbEntity
  8
RACCORDO
100
AcDbPolyline
 62
253
  6
CONTINUOUS
 90
5
 70
0
 10
-76.9401606357
 20
83.6799902927
 10
-76.9396223054
 20
83.6775232054
 10
-76.9391344983
 20
83.6697044882
 10
-76.9387078869
 20
83.6558777853
 10
-76.9383561948
 20
83.6354495365
  0
LWPOLYLINE
  5
2D8
100
AcDbEntity
  8
RACCORDO
100
AcDbPolyline
 62
253
  6
CONTINUOUS
 90
19
 70
0
 10
-70.0166399966
 20
82.4460523359
 10
-70.0135448656
 20
82.4216389585
 10
-70.008459079
 20
82.3975614134
 10
-70.0014168604
 20
82.3739817251
 10
-69.9924655989
 20
82.3510585682
 10
-69.9816655302
 20
82.328946199
 10
-69.9690893309
 20
82.307793418
 10
-69.95482163
 20
82.2877425684
 10
-69.9389584388
 20
82.268928578
 10
-69.9216065053
 20
82.2514780515
 10
-69.9028825955
 20
82.2355084185
 10
-69.8829127081
 20
82.2211271432
 10
-69.8618312261
 20
82.2084310014
 10
-69.8397800128
 20
82.1975054289
 10
-69.8169074571
 20
82.1884239471
 10
-69.7933674749
 20
82.1812476679
 10
-69.7693184735
 20
82.1760248825
 10
-69.7449222856
 20
82.1727907365
 10
-69.7203430799
 20
82.1715669935
  0
LWPOLYLINE
  5
2D9
100
AcDbEntity
  8
RACCORDO
100
AcDbPolyline
 62
7
  6
CONTINUOUS
 90
7
 70
0
 10
-69.5166399966
 20
-76.7356472609
 10
-69.4912980469
 20
-76.6236854707
 10
-69.4706778626
 20
-76.5141810965
 10
-69.4547794439
 20
-76.4071341381
 10
-69.4436027906
 20
-76.3025445956
 10
-69.4371479029
 20
-76.200412469
 10
-69.4354147807
 20
-76.1007377583
  0
LWPOLYLINE
  5
2DA
100
AcDbEntity
  8
RACCORDO
100
AcDbPolyline
 62
253
  6
CONTINUOUS
 90
6
 70
0
 10
-77.4139203916
 20
83.1889944656
 10
-77.4133620625
 20
83.1877661482
 10
-77.4128779798
 20
83.1803536571
 10
-77.4124674473
 20
83.166756992
 10
-77.4121170179
 20
83.1478137616
 10
-77.4118386352
 20
83.1226863552
  0
LWPOLYLINE
  5
2DB
100
AcDbEntity
  8
RACCORDO
100
AcDbPolyline
 62
253
  6
CONTINUOUS
 90
26
 70
0
 10
-61.5038136848
 20
77.1832942298
 10
-61.4817212754
 20
77.1555662616
 10
-61.4617844894
 20
77.1189421128
 10
-61.4437355537
 20
77.0736194877
 10
-61.427143545
 20
77.0196685991
 10
-61.4119088783
 20
76.9574305583
 10
-61.3983198332
 20
76.887486157
 10
-61.3862413748
 20
76.8100582544
 10
-61.3754294349
 20
76.725288648
 10
-61.3660997334
 20
76.6335945459
 10
-61.3581546403
 20
76.5351913812
 10
-61.3514087519
 20
76.4302090125
 10
-61.3460150088
 20
76.3189044207
 10
-61.3419298161
 20
76.2015740721
 10
-61.3389947525
 20
76.0782525179
 10
-61.3372827278
 20
75.9487560575
 10
-61.3368401031
 20
75.8133444979
 10
-61.3375628081
 20
75.6720397257
 10
-61.3394330923
 20
75.5242347185
 10
-61.3425882224
 20
75.3700698777
 10
-61.3470103758
 20
75.2096450499
 10
-61.3525877337
 20
75.0422400245
 10
-61.3595161742
 20
74.8678675113
 10
-61.3678742027
 20
74.6867646952
 10
-61.3774632493
 20
74.4985356572
 10
-61.3884844518
 20
74.303241341
  0
LWPOLYLINE
  5
2DC
100
AcDbEntity
  8
RACCORDO
100
AcDbPolyline
 62
253
  6
CONTINUOUS
 90
13
 70
0
 10
-61.5310898532
 20
72.5065620722
 10
-61.8052495923
 20
72.6977531288
 10
-62.0831750602
 20
72.8848675684
 10
-62.3647549616
 20
73.0679053911
 10
-62.6501457449
 20
73.2470222845
 10
-62.9389757671
 20
73.422062561
 10
-63.2303075727
 20
73.5925591572
 10
-63.5235359091
 20
73.7582407495
 10
-63.8189684809
 20
73.9193786615
 10
-64.1170264536
 20
74.0763198009
 10
-64.4177804353
 20
74.2291798034
 10
-64.7209277289
 20
74.3778430333
 10
-65.026351261
 20
74.5223094905
  0
LWPOLYLINE
  5
2DD
100
AcDbEntity
  8
RACCORDO
100
AcDbPolyline
 62
253
  6
CONTINUOUS
 90
13
 70
0
 10
-65.0262175239
 20
-74.5222473602
 10
-64.7181992341
 20
-74.3765895996
 10
-64.4115021409
 20
-74.2260928536
 10
-64.1062808964
 20
-74.070757122
 10
-63.8019244317
 20
-73.9101632627
 10
-63.4993812496
 20
-73.7447304178
 10
-63.2010621535
 20
-73.5757160141
 10
-62.9068605021
 20
-73.4028861993
 10
-62.6170358967
 20
-73.2264748256
 10
-62.3343423739
 20
-73.0484408764
 10
-62.0596112316
 20
-72.8694373461
 10
-61.7918802285
 20
-72.6888112402
 10
-61.5310898261
 20
-72.5065625587
  0
LINE
  5
2DE
100
AcDbEntity
  8
RACCORDO
100
AcDbLine
 62
253
  6
CONTINUOUS
 10
-60.9166399966
 20
72.5065621051
 11
-61.5310898532
 21
72.506562061
  0
LWPOLYLINE
  5
2DF
100
AcDbEntity
  8
RACCORDO
100
AcDbPolyline
 62
253
  6
CONTINUOUS
 90
13
 70
0
 10
-70.0166399966
 20
76.1024297257
 10
-70.2554067007
 20
76.1799522708
 10
-70.4933199094
 20
76.2532677183
 10
-70.7303450807
 20
76.3223760683
 10
-70.9659019647
 20
76.3870565995
 10
-71.2005020301
 20
76.4475300332
 10
-71.4357600546
 20
76.5044585328
 10
-71.6721350272
 20
76.5580254086
 10
-71.9091266226
 20
76.6080473504
 10
-72.1469220135
 20
76.6546365911
 10
-72.3855699916
 20
76.6978305417
 10
-72.6249796988
 20
76.7375917911
 10
-72.8651295884
 20
76.7739203395
  0
LWPOLYLINE
  5
2E0
100
AcDbEntity
  8
RACCORDO
100
AcDbPolyline
 62
253
  6
CONTINUOUS
 90
13
 70
0
 10
-65.026351261
 20
74.5223094905
 10
-65.4354431787
 20
74.7070562357
 10
-65.838964355
 20
74.8815032881
 10
-66.236322593
 20
75.0456506478
 10
-66.6273002738
 20
75.1991699099
 10
-67.0110494457
 20
75.3423894792
 10
-67.3860568483
 20
75.4762945706
 10
-67.7511678444
 20
75.6006710389
 10
-68.1066103822
 20
75.7157330293
 10
-68.4529920163
 20
75.8231081919
 10
-68.7903000316
 20
75.9233390769
 10
-69.1178741151
 20
76.0158831341
 10
-69.4354151369
 20
76.1007403635
  0
LINE
  5
2E1
100
AcDbEntity
  8
RACCORDO
100
AcDbLine
 62
253
  6
CONTINUOUS
 10
-70.0166399966
 20
76.1024186459
 11
-69.7419150234
 21
76.1024185081
  0
LINE
  5
2E2
100
AcDbEntity
  8
RACCORDO
100
AcDbLine
 62
253
  6
CONTINUOUS
 10
-69.5166399966
 20
76.17
 11
-70.016639988
 21
76.1689360165
  0
LINE
  5
2E3
100
AcDbEntity
  8
RACCORDO
100
AcDbLine
 62
253
  6
CONTINUOUS
 10
-77.0110564734
 20
77.2499433009
 11
-75.6820121985
 21
77.2499998267
  0
LINE
  5
2E4
100
AcDbEntity
  8
RACCORDO
100
AcDbLine
 62
253
  6
CONTINUOUS
 10
-77.0110564734
 20
77.2499433009
 11
-77.4848233016
 21
77.2572644675
  0
LWPOLYLINE
  5
2E5
100
AcDbEntity
  8
RACCORDO
100
AcDbPolyline
 62
253
  6
CONTINUOUS
 90
10
 70
0
 10
-72.8651295884
 20
76.7739203395
 10
-73.1625988348
 20
76.8142770605
 10
-73.4629923356
 20
76.8494472729
 10
-73.7662755167
 20
76.8794309766
 10
-74.0707980956
 20
76.9043774425
 10
-74.37813103
 20
76.9241373997
 10
-74.6930835483
 20
76.9382630357
 10
-75.0172415218
 20
76.9466050795
 10
-75.3489499439
 20
76.9493128021
 10
-75.6881614075
 20
76.9463862034
  0
LWPOLYLINE
  5
2E6
100
AcDbEntity
  8
RACCORDO
100
AcDbPolyline
 62
253
  6
CONTINUOUS
 90
19
 70
0
 10
-76.9401606326
 20
83.6799902339
 10
-76.9816804565
 20
83.6760725942
 10
-77.0227293723
 20
83.6687084472
 10
-77.0630218004
 20
83.6579490257
 10
-77.102277424
 20
83.6438691836
 10
-77.1402231394
 20
83.6265668752
 10
-77.1765949559
 20
83.6061624737
 10
-77.2111398328
 20
83.5827979337
 10
-77.2436174393
 20
83.5566358037
 10
-77.2738018267
 20
83.5278580952
 10
-77.3014830005
 20
83.4966650164
 10
-77.3264683811
 20
83.4632735794
 10
-77.3485841438
 20
83.4279160905
 10
-77.3676764279
 20
83.3908385336
 10
-77.3836124072
 20
83.3522988596
 10
-77.3962812142
 20
83.3125651913
 10
-77.4055947113
 20
83.2719139582
 10
-77.4114881038
 20
83.2306279733
 10
-77.4139203913
 20
83.1889944656
  0
LINE
  5
2E7
100
AcDbEntity
  8
RACCORDO
100
AcDbLine
 62
7
  6
CONTINUOUS
 10
-76.9401606443
 20
83.6799904564
 11
-75.6042957932
 21
83.7500001643
  0
LINE
  5
2E8
100
AcDbEntity
  8
DRAFT
100
AcDbLine
 62
7
  6
CONTINUOUS
 10
-75.634931917
 20
83.7499999795
 11
-76.9707884233
 21
83.6799907065
  0
LINE
  5
2E9
100
AcDbEntity
  8
RACCORDO
100
AcDbLine
 62
7
  6
CONTINUOUS
 10
-69.5166399966
 20
82.25
 11
-69.435776485
 21
82.25
  0
LINE
  5
2EA
100
AcDbEntity
  8
RACCORDO
100
AcDbLine
 62
253
  6
CONTINUOUS
 10
-77.4445512377
 20
83.1889948504
 11
-77.4139203916
 21
83.1889944656
  0
LINE
  5
2EB
100
AcDbEntity
  8
RACCORDO
100
AcDbLine
 62
7
  6
CONTINUOUS
 10
-76.9707884236
 20
83.6799907065
 11
-76.9401606443
 21
83.6799904564
  0
LINE
  5
2EC
100
AcDbEntity
  8
DRAFT
100
AcDbLine
 62
7
  6
CONTINUOUS
 10
-75.6042957932
 20
83.7500001643
 11
-75.63493191
 21
83.7499999798
  0
LINE
  5
2ED
100
AcDbEntity
  8
RACCORDO
100
AcDbLine
 62
7
  6
CONTINUOUS
 10
-69.6653310163
 20
82.1712976069
 11
-69.7203620134
 21
82.1717778551
  0
ARC
  5
2EE
100
AcDbEntity
  8
RACCORDO
100
AcDbCircle
 62
7
  6
CONTINUOUS
 10
-77.0166399966
 20
-61.64
 40
21.96
100
AcDbArc
 50
290.1947562894
 51
314.9437893521
  0
ARC
  5
2EF
100
AcDbEntity
  8
RACCORDO
100
AcDbCircle
 62
7
  6
CONTINUOUS
 10
-75.5838077461
 20
-67.5122814583
 40
15.9377185417
100
AcDbArc
 50
269.9342356966
 51
290.4449765863
  0
ARC
  5
2F0
100
AcDbEntity
  8
RACCORDO
100
AcDbCircle
 62
7
  6
CONTINUOUS
 10
-76.9446204452
 20
-83.1806759391
 40
0.5
100
AcDbArc
 50
180.9533198239
 51
267.0
  0
ARC
  5
2F1
100
AcDbEntity
  8
DRAFT
100
AcDbCircle
 62
7
  6
CONTINUOUS
 10
-77.0166399966
 20
61.64
 40
21.96
100
AcDbArc
 50
57.0284563277
 51
69.8052386714
  0
ARC
  5
2F2
100
AcDbEntity
  8
RACCORDO
100
AcDbCircle
 62
7
  6
CONTINUOUS
 10
-77.0166399966
 20
61.64
 40
21.96
100
AcDbArc
 50
45.0562095441
 51
69.8052401171
  0
ARC
  5
2F3
100
AcDbEntity
  8
SMUSSO
100
AcDbCircle
 62
7
  6
CONTINUOUS
 10
-75.5838077461
 20
67.5122814583
 40
15.9377185417
100
AcDbArc
 50
72.352907407
 51
87.9606126791
  0
ARC
  5
2F4
100
AcDbEntity
  8
RACCORDO
100
AcDbCircle
 62
7
  6
CONTINUOUS
 10
-75.5838077461
 20
67.5122814583
 40
15.9377185417
100
AcDbArc
 50
69.5550234136
 51
90.065770125
  0
ARC
  5
2F5
100
AcDbEntity
  8
RACCORDO
100
AcDbCircle
 62
7
  6
CONTINUOUS
 10
-76.9446204452
 20
83.1806759391
 40
0.5
100
AcDbArc
 50
93.0
 51
179.0466801761
  0
ARC
  5
2F6
100
AcDbEntity
  8
RACCORDO
100
AcDbCircle
 62
7
  6
CONTINUOUS
 10
-62.9166399966
 20
-75.7676891246
 40
2.0
100
AcDbArc
 50
314.943709015
 51
359.9999258328
  0
ARC
  5
2F7
100
AcDbEntity
  8
RACCORDO
100
AcDbCircle
 62
7
  6
CONTINUOUS
 10
-69.7177440508
 20
-82.471766432
 40
0.3
100
AcDbArc
 50
90.5000002094
 51
175.0829379193
  0
ARC
  5
2F8
100
AcDbEntity
  8
RACCORDO
100
AcDbCircle
 62
7
  6
CONTINUOUS
 10
-69.6666399966
 20
-82.0213033184
 40
0.15
100
AcDbArc
 50
270.5
 51
360.0
  0
ARC
  5
2F9
100
AcDbEntity
  8
RACCORDO
100
AcDbCircle
 62
7
  6
CONTINUOUS
 10
-62.9166399966
 20
75.7676891246
 40
2.0
100
AcDbArc
 50
0.0000747659
 51
45.0562409696
  0
ARC
  5
2FA
100
AcDbEntity
  8
RACCORDO
100
AcDbCircle
 62
7
  6
CONTINUOUS
 10
-69.7177440444
 20
82.471766432
 40
0.3
100
AcDbArc
 50
184.9170451166
 51
269.5000000049
  0
ARC
  5
2FB
100
AcDbEntity
  8
RACCORDO
100
AcDbCircle
 62
7
  6
CONTINUOUS
 10
-69.6666399966
 20
82.0213033184
 40
0.15
100
AcDbArc
 50
0.0
 51
89.4999999999
  0
ENDSEC
  0
SECTION
  2
OBJECTS
  0
DICTIONARY
  5
C
100
AcDbDictionary
280
0
281
1
  3
ACAD_GROUP
350
D
  3
ACAD_MLINESTYLE
350
17
  3
ACAD_LAYOUT
350
1A
  3
ACAD_PLOTSETTINGS
350
19
  3
ACAD_PLOTSTYLENAME
350
E
  0
DICTIONARY
  5
D
102
{ACAD_REACTORS
330
C
102
}
100
AcDbDictionary
280
0
281
1
  0
ACDBDICTIONARYWDFLT
  5
E
102
{ACAD_REACTORS
330
C
102
}
100
AcDbDictionary
281
1
  3
Normal
350
F
100
AcDbDictionaryWithDefault
340
F
  0
DICTIONARY
  5
17
102
{ACAD_REACTORS
330
C
102
}
100
AcDbDictionary
280
0
281
1
  3
Standard
350
18
  0
DICTIONARY
  5
19
102
{ACAD_REACTORS
330
C
102
}
100
AcDbDictionary
281
1
  0
DICTIONARY
  5
1A
102
{ACAD_REACTORS
330
C
102
}
100
AcDbDictionary
281
1
  3
Model
350
2FC
  3
Layout1
350
2FD
  0
ACDBPLACEHOLDER
  5
F
102
{ACAD_REACTORS
330
E
102
}
  0
MLINESTYLE
  5
18
102
{ACAD_REACTORS
330
17
102
}
100
AcDbMlineStyle
  2
STANDARD
 70
0
  3

 62
256
 51
90.0
 52
90.0
 71
2
 49
0.5
 62
256
  6
BYLAYER
 49
-0.5
 62
256
  6
BYLAYER
  0
LAYOUT
  5
2FC
102
{ACAD_REACTORS
330
1A
102
}
100
AcDbPlotSettings
  1

  2
none_device
  4
ISO_A4_(297.00_x_210.00_MM)
  6

 40
0.0
 41
0.0
 42
0.0
 43
0.0
 44
297.0
 45
210.0
 46
0.0
 47
0.0
 48
0.0
 49
0.0
140
0.0
141
0.0
142
1.0
143
1.0
 70
1024
 72
1
 73
0
 74
0
  7

 75
0
147
1.0
148
0.0
149
0.0
100
AcDbLayout
  1
Model
 70
0
 71
0
 10
0.0
 20
0.0
 11
297.0
 21
210.0
 12
0.0
 22
0.0
 32
0.0
 14
0.0
 24
0.0
 34
0.0
 15
0.0
 25
0.0
 35
0.0
146
0.0
 13
0.0
 23
0.0
 33
0.0
 16
1.0
 26
0.0
 36
0.0
 17
0.0
 27
1.0
 37
0.0
 76
0
330
212
345
0
346
0
  0
LAYOUT
  5
2FD
102
{ACAD_REACTORS
330
1A
102
}
100
AcDbPlotSettings
  1

  2
none_device
  4
ISO_A4_(297.00_x_210.00_MM)
  6

 40
0.0
 41
0.0
 42
0.0
 43
0.0
 44
297.0
 45
210.0
 46
0.0
 47
0.0
 48
0.0
 49
0.0
140
0.0
141
0.0
142
1.0
143
1.0
 70
0
 72
1
 73
0
 74
0
  7

 75
0
147
1.0
148
0.0
149
0.0
100
AcDbLayout
  1
Layout1
 70
0
 71
1
 10
0.0
 20
0.0
 11
297.0
 21
210.0
 12
0.0
 22
0.0
 32
0.0
 14
0.0
 24
0.0
 34
0.0
 15
0.0
 25
0.0
 35
0.0
146
0.0
 13
0.0
 23
0.0
 33
0.0
 16
1.0
 26
0.0
 36
0.0
 17
0.0
 27
1.0
 37
0.0
 76
0
330
213
345
0
346
0
  0
ENDSEC
  0
EOF
