  0
SECTION
  2
HEADER
  9
$ACADVER
  1
AC1015
  9
$DWGCODEPAGE
  3
ANSI_1252
  9
$EXTMAX
 10
297.0
 20
210.0
 30
0.0
  9
$EXTMIN
 10
0.0
 20
0.0
 30
0.0
  9
$LIMMIN
 10
0.0
 20
0.0
  9
$LIMMAX
 10
297.0
 20
210.0
  9
$VIEWCTR
 10
148.5
 20
105.0
  9
$VIEWSIZE
 40
210.0
  9
$CLAYER
  8
0
  9
$LTSCALE
 40
16.335
  9
$CELTYPE
  6
BYLAYER
  9
$DIMSCALE
 40
1.0
  9
$DIMASZ
 40
3.0
  9
$DIMEXO
 40
1.85625
  9
$DIMDLI
 40
11.286
  9
$DIMEXE
 40
5.346
  9
$DIMCEN
 40
2.673
  9
$DIMLFAC
 40
1.0
  9
$DIMBLK
  1
_FILLED
  9
$DIMTXT
 40
3.0
  9
$DIMTOL
 70
1
  9
$DIMLIM
 70
0
  9
$DIMTFAC
 40
1.0
  9
$DIMTP
 40
0.01
  9
$DIMTM
 40
0.01
  9
$PDMODE
 70
3
  9
$PDSIZE
 40
3.0
  9
$HANDSEED
  5
498
  9
$TILEMODE
 70
1
  9
$MEASUREMENT
 70
1
  9
$INSUNITS
 70
4
  0
ENDSEC
  0
SECTION
  2
CLASSES
  0
CLASS
  1
ACDBDICTIONARYWDFLT
  2
AcDbDictionaryWithDefault
  3
AutoCAD 2000
 90
0
280
0
281
0
  0
CLASS
  1
ACDBPLACEHOLDER
  2
AcDbPlaceHolder
  3
AutoCAD 2000
 90
0
280
0
281
0
  0
CLASS
  1
LAYOUT
  2
AcDbLayout
  3
AutoCAD 2000
 90
0
280
0
281
0
  0
ENDSEC
  0
SECTION
  2
TABLES
  0
TABLE
  2
VPORT
  5
8
100
AcDbSymbolTable
 70
2
  0
VPORT
  5
1F4
100
AcDbSymbolTableRecord
100
AcDbViewportTableRecord
  2
*ACTIVE
 70
0
 10
0.0
 20
0.0
 11
1.0
 21
1.0
 12
148.5
 22
105.0
 13
0.0
 23
0.0
 14
1.0
 24
1.0
 15
0.0
 25
0.0
 16
0.0
 26
0.0
 36
1.0
 17
0.0
 27
0.0
 37
0.0
 40
210.0
 41
1.4142857143
 42
50.0
 43
0.0
 44
0.0
 50
0.0
 51
0.0
 71
0
 72
100
 73
1
 74
1
 75
0
 76
0
 77
0
 78
0
  0
ENDTAB
  0
TABLE
  2
LTYPE
  5
5
100
AcDbSymbolTable
 70
6
  0
LTYPE
  5
14
100
AcDbSymbolTableRecord
100
AcDbLinetypeTableRecord
  2
BYBLOCK
 70
0
  3

 72
65
 73
0
 40
0.0
  0
LTYPE
  5
15
100
AcDbSymbolTableRecord
100
AcDbLinetypeTableRecord
  2
BYLAYER
 70
0
  3

 72
65
 73
0
 40
0.0
  0
LTYPE
  5
16
100
AcDbSymbolTableRecord
100
AcDbLinetypeTableRecord
  2
CONTINUOUS
 70
64
  3
Solid line
 72
65
 73
0
 40
0.0
  0
LTYPE
  5
1F5
100
AcDbSymbolTableRecord
100
AcDbLinetypeTableRecord
  2
CENTER
 70
64
  3
____ _ ____ _ ____ _ ____ _ ____ _ ____ _ ____
 72
65
 73
4
 40
0.6
 49
0.375
 74
0
 49
-0.075
 74
0
 49
0.075
 74
0
 49
-0.075
 74
0
  0
LTYPE
  5
1F6
100
AcDbSymbolTableRecord
100
AcDbLinetypeTableRecord
  2
HIDDEN
 70
64
  3
- - - - - - - - - - - - - - - - - - - -
 72
65
 73
2
 40
0.2
 49
0.1
 74
0
 49
-0.1
 74
0
  0
LTYPE
  5
1F7
100
AcDbSymbolTableRecord
100
AcDbLinetypeTableRecord
  2
PHANTOM
 70
64
  3
_____ _ _ _____ _ _ _____ _ _ _____
 72
65
 73
6
 40
0.8
 49
0.45
 74
0
 49
-0.05
 74
0
 49
0.1
 74
0
 49
-0.05
 74
0
 49
0.1
 74
0
 49
-0.05
 74
0
  0
LTYPE
  5
1F8
100
AcDbSymbolTableRecord
100
AcDbLinetypeTableRecord
  2
DOT
 70
64
  3
. . . . . . . . . . . . . . . . . . . .
 72
65
 73
2
 40
0.2
 49
0.1
 74
0
 49
-0.1
 74
0
  0
LTYPE
  5
1F9
100
AcDbSymbolTableRecord
100
AcDbLinetypeTableRecord
  2
DASHED
 70
64
  3
- - - - - - - - - - - - - - - - - - - -
 72
65
 73
2
 40
0.2
 49
0.1
 74
0
 49
-0.1
 74
0
  0
ENDTAB
  0
TABLE
  2
LAYER
  5
2
100
AcDbSymbolTable
 70
36
  0
LAYER
  5
10
100
AcDbSymbolTableRecord
100
AcDbLayerTableRecord
  2
0
 70
0
 62
7
  6
CONTINUOUS
370
-3
390
F
  0
LAYER
  5
1FA
100
AcDbSymbolTableRecord
100
AcDbLayerTableRecord
  2
DEFAULT_1
 70
0
 62
7
  6
CENTER
370
-3
390
F
  0
LAYER
  5
1FB
100
AcDbSymbolTableRecord
100
AcDbLayerTableRecord
  2
DEFAULT_2
 70
0
 62
7
  6
HIDDEN
370
-3
390
F
  0
LAYER
  5
1FC
100
AcDbSymbolTableRecord
100
AcDbLayerTableRecord
  2
DEFAULT_3
 70
0
 62
7
  6
PHANTOM
370
-3
390
F
  0
LAYER
  5
1FD
100
AcDbSymbolTableRecord
100
AcDbLayerTableRecord
  2
ASSI
 70
0
 62
7
  6
CONTINUOUS
370
-3
390
F
  0
LAYER
  5
1FE
100
AcDbSymbolTableRecord
100
AcDbLayerTableRecord
  2
COORDINATE
 70
0
 62
7
  6
CONTINUOUS
370
-3
390
F
  0
LAYER
  5
1FF
100
AcDbSymbolTableRecord
100
AcDbLayerTableRecord
  2
COORD_ORIGINE
 70
0
 62
7
  6
CONTINUOUS
370
-3
390
F
  0
LAYER
  5
200
100
AcDbSymbolTableRecord
100
AcDbLayerTableRecord
  2
COPY-PUBBLISH
 70
0
 62
7
  6
CONTINUOUS
370
-3
390
F
  0
LAYER
  5
201
100
AcDbSymbolTableRecord
100
AcDbLayerTableRecord
  2
COPY_PUBLISH
 70
0
 62
7
  6
CONTINUOUS
370
-3
390
F
  0
LAYER
  5
202
100
AcDbSymbolTableRecord
100
AcDbLayerTableRecord
  2
COSMETIC
 70
0
 62
7
  6
CONTINUOUS
370
-3
390
F
  0
LAYER
  5
203
100
AcDbSymbolTableRecord
100
AcDbLayerTableRecord
  2
CURVE
 70
0
 62
7
  6
CONTINUOUS
370
-3
390
F
  0
LAYER
  5
204
100
AcDbSymbolTableRecord
100
AcDbLayerTableRecord
  2
DRAFT
 70
0
 62
7
  6
CONTINUOUS
370
-3
390
F
  0
LAYER
  5
205
100
AcDbSymbolTableRecord
100
AcDbLayerTableRecord
  2
IGES-SCRITTE
 70
0
 62
7
  6
CONTINUOUS
370
-3
390
F
  0
LAYER
  5
206
100
AcDbSymbolTableRecord
100
AcDbLayerTableRecord
  2
IMPORT_IGES
 70
0
 62
7
  6
CONTINUOUS
370
-3
390
F
  0
LAYER
  5
207
100
AcDbSymbolTableRecord
100
AcDbLayerTableRecord
  2
PIANI
 70
0
 62
7
  6
CONTINUOUS
370
-3
390
F
  0
LAYER
  5
208
100
AcDbSymbolTableRecord
100
AcDbLayerTableRecord
  2
PIANI-RIFERIMENTO
 70
0
 62
7
  6
CONTINUOUS
370
-3
390
F
  0
LAYER
  5
209
100
AcDbSymbolTableRecord
100
AcDbLayerTableRecord
  2
PIANI_ORIGINE
 70
0
 62
7
  6
CONTINUOUS
370
-3
390
F
  0
LAYER
  5
20A
100
AcDbSymbolTableRecord
100
AcDbLayerTableRecord
  2
PUNTI
 70
0
 62
7
  6
CONTINUOUS
370
-3
390
F
  0
LAYER
  5
20B
100
AcDbSymbolTableRecord
100
AcDbLayerTableRecord
  2
RACCORDO
 70
0
 62
7
  6
CONTINUOUS
370
-3
390
F
  0
LAYER
  5
20C
100
AcDbSymbolTableRecord
100
AcDbLayerTableRecord
  2
SMUSSO
 70
0
 62
7
  6
CONTINUOUS
370
-3
390
F
  0
LAYER
  5
20D
100
AcDbSymbolTableRecord
100
AcDbLayerTableRecord
  2
SNAPLINE
 70
0
 62
7
  6
CONTINUOUS
370
-3
390
F
  0
LAYER
  5
20E
100
AcDbSymbolTableRecord
100
AcDbLayerTableRecord
  2
TRASH
 70
0
 62
7
  6
CONTINUOUS
370
-3
390
F
  0
LAYER
  5
20F
100
AcDbSymbolTableRecord
100
AcDbLayerTableRecord
  2
XSEC_DATUMS
 70
0
 62
7
  6
CONTINUOUS
370
-3
390
F
  0
ENDTAB
  0
TABLE
  2
STYLE
  5
3
100
AcDbSymbolTable
 70
1
  0
STYLE
  5
11
100
AcDbSymbolTableRecord
100
AcDbTextStyleTableRecord
  2
STANDARD
 70
0
 40
0.0
 41
0.8
 50
0.0
 71
0
 42
0.2
  3
txt
  4

  0
STYLE
  5
210
100
AcDbSymbolTableRecord
100
AcDbTextStyleTableRecord
  2
TEXTSTYLE_1
 70
0
 40
0.0
 41
0.8
 50
0.0
 71
0
 42
0.2
  3
gdt
  4

  0
ENDTAB
  0
TABLE
  2
VIEW
  5
6
100
AcDbSymbolTable
 70
0
  0
ENDTAB
  0
TABLE
  2
UCS
  5
7
100
AcDbSymbolTable
 70
0
  0
ENDTAB
  0
TABLE
  2
APPID
  5
9
100
AcDbSymbolTable
 70
1
  0
APPID
  5
211
100
AcDbSymbolTableRecord
100
AcDbRegAppTableRecord
  2
ACAD
 70
0
  0
ENDTAB
  0
TABLE
  2
BLOCK_RECORD
  5
1
100
AcDbSymbolTable
 70
0
  0
BLOCK_RECORD
  5
212
100
AcDbSymbolTableRecord
100
AcDbBlockTableRecord
  2
*Model_Space
  0
BLOCK_RECORD
  5
213
100
AcDbSymbolTableRecord
100
AcDbBlockTableRecord
  2
*Paper_Space
  0
BLOCK_RECORD
  5
214
100
AcDbSymbolTableRecord
100
AcDbBlockTableRecord
  2
_FILLED
  0
BLOCK_RECORD
  5
215
100
AcDbSymbolTableRecord
100
AcDbBlockTableRecord
  2
*D0
  0
BLOCK_RECORD
  5
216
100
AcDbSymbolTableRecord
100
AcDbBlockTableRecord
  2
*D1
  0
BLOCK_RECORD
  5
217
100
AcDbSymbolTableRecord
100
AcDbBlockTableRecord
  2
*D2
  0
ENDTAB
  0
TABLE
  2
DIMSTYLE
  5
A
100
AcDbSymbolTable
 70
1
100
AcDbDimStyleTable
 71
0
  0
DIMSTYLE
105
218
100
AcDbSymbolTableRecord
100
AcDbDimStyleTableRecord
  2
STANDARD
 70
0
  3

  4

 40
1.0
 41
3.0
 42
0.0625
 43
0.38
 44
0.18
 45
0.0
 46
0.0
 47
0.01
 48
0.01
140
3.0
141
0.09
142
0.0
143
25.4
144
1.0
145
0.0
146
1.0
147
0.09
 71
1.0
 72
0.0
 73
0
 74
0
 75
0
 76
0
 77
1
 78
8
170
0
171
2
172
0
173
0
174
0
175
0
176
0
177
0
178
0
270
2
271
2
272
2
273
2
274
2
275
0
280
0
281
0
282
0
283
1
284
8
285
0
286
0
287
3
288
0
340
11
341
214
342
214
343
214
344
214
  0
DIMSTYLE
105
219
100
AcDbSymbolTableRecord
100
AcDbDimStyleTableRecord
  2
DIMSTYLE_1
 70
0
  3

  4

 40
1.0
 41
3.0
 42
0.0625
 43
0.38
 44
0.18
 45
0.0
 46
0.0
 47
0.0
 48
0.0
140
3.0
141
0.09
142
0.0
143
25.4
144
1.0
145
0.0
146
1.0
147
0.09
 71
0.0
 72
0.0
 73
0
 74
0
 75
0
 76
0
 77
1
 78
8
170
0
171
2
172
0
173
0
174
0
175
0
176
0
177
0
178
0
270
2
271
2
272
2
273
2
274
2
275
0
280
0
281
0
282
0
283
1
284
8
285
0
286
0
287
3
288
0
340
11
341
214
342
214
343
214
344
214
  0
DIMSTYLE
105
21A
100
AcDbSymbolTableRecord
100
AcDbDimStyleTableRecord
  2
DIMSTYLE_2
 70
0
  3

  4

 40
1.0
 41
3.0
 42
0.0625
 43
0.38
 44
0.18
 45
0.0
 46
0.0
 47
0.0
 48
0.0
140
3.0
141
0.09
142
0.0
143
25.4
144
1.0
145
0.0
146
1.0
147
0.09
 71
0.0
 72
0.0
 73
0
 74
0
 75
0
 76
0
 77
1
 78
8
170
0
171
2
172
0
173
0
174
0
175
0
176
0
177
0
178
0
270
2
271
1
272
1
273
2
274
2
275
0
280
0
281
0
282
0
283
1
284
8
285
0
286
0
287
3
288
0
340
11
341
214
342
214
343
214
344
214
  0
ENDTAB
  0
ENDSEC
  0
SECTION
  2
BLOCKS
  0
BLOCK
  5
20
100
AcDbEntity
  8
0
100
AcDbBlockBegin
  2
*Model_Space
 70
0
 10
0.0
 20
0.0
 30
0.0
  3
*Model_Space
  1

  0
ENDBLK
  5
21
100
AcDbEntity
  8
0
100
AcDbBlockEnd
  0
BLOCK
  5
1C
100
AcDbEntity
  8
0
100
AcDbBlockBegin
  2
*Paper_Space
 70
0
 10
0.0
 20
0.0
 30
0.0
  3
*Paper_Space
  1

  0
ENDBLK
  5
1D
100
AcDbEntity
  8
0
100
AcDbBlockEnd
  0
BLOCK
  5
21B
100
AcDbEntity
  8
0
100
AcDbBlockBegin
  2
_FILLED
 70
64
 10
0.0
 20
0.0
  3
_FILLED
  1

  0
SOLID
  5
21C
100
AcDbEntity
  8
0
  6
BYBLOCK
 62
0
100
AcDbTrace
 10
0.0
 20
0.0
 11
-1.0
 21
0.3166666667
 12
-1.0
 22
-0.3166666667
 13
-1.0
 23
-0.3166666667
  0
ENDBLK
  5
21D
100
AcDbEntity
  8
0
  6
BYBLOCK
 62
0
100
AcDbBlockEnd
  0
BLOCK
  5
21E
100
AcDbEntity
  8
0
100
AcDbBlockBegin
 62
7
  6
CONTINUOUS
  2
*D0
 70
65
 10
0.0
 20
0.0
  3
*D0
  1

  0
MTEXT
  5
21F
100
AcDbEntity
  8
0
100
AcDbMText
 62
7
  6
CONTINUOUS
  7
STANDARD
 71
2
 72
1
 10
0.0
 20
49.5175898832
 30
0.0
 11
1.0
 21
0.0
 31
0.0
 44
0.9
  1
26,5
 40
3.0
 41
8.5714285714
  0
LINE
  5
220
100
AcDbEntity
  8
0
100
AcDbLine
 62
7
  6
CONTINUOUS
 10
13.25
 20
34.968255938
 11
13.25
 21
47.2675898832
  0
LINE
  5
221
100
AcDbEntity
  8
0
100
AcDbLine
 62
7
  6
CONTINUOUS
 10
-13.25
 20
34.968255938
 11
-13.25
 21
47.2675898832
  0
LINE
  5
222
100
AcDbEntity
  8
0
100
AcDbLine
 62
7
  6
CONTINUOUS
 10
13.25
 20
45.7675898832
 11
0.0
 21
45.7675898832
  0
LINE
  5
223
100
AcDbEntity
  8
0
100
AcDbLine
 62
7
  6
CONTINUOUS
 10
-13.25
 20
45.7675898832
 11
0.0
 21
45.7675898832
  0
INSERT
  5
224
100
AcDbEntity
  8
0
100
AcDbBlockReference
 62
7
  6
CONTINUOUS
  2
_FILLED
 10
13.25
 20
45.7675898832
 41
3.0
 42
3.0
 43
3.0
  0
INSERT
  5
225
100
AcDbEntity
  8
0
100
AcDbBlockReference
 62
7
  6
CONTINUOUS
  2
_FILLED
 10
-13.25
 20
45.7675898832
 41
3.0
 42
3.0
 43
3.0
 50
180.0
  0
ENDBLK
  5
226
100
AcDbEntity
  8
0
  6
BYBLOCK
 62
0
100
AcDbBlockEnd
  0
BLOCK
  5
227
100
AcDbEntity
  8
0
100
AcDbBlockBegin
 62
7
  6
CONTINUOUS
  2
*D1
 70
65
 10
0.0
 20
0.0
  3
*D1
  1

  0
MTEXT
  5
228
100
AcDbEntity
  8
0
100
AcDbMText
 62
7
  6
CONTINUOUS
  7
STANDARD
 71
2
 72
1
 10
17.5
 20
0.0
 30
0.0
 11
0.0
 21
1.0
 31
0.0
 44
0.9
  1
75,5
 40
3.0
 41
8.3571428571
  0
LINE
  5
229
100
AcDbEntity
  8
0
100
AcDbLine
 62
7
  6
CONTINUOUS
 10
12.2561583319
 20
37.7675898832
 11
22.75
 21
37.7675898832
  0
LINE
  5
22A
100
AcDbEntity
  8
0
100
AcDbLine
 62
7
  6
CONTINUOUS
 10
13.75
 20
-37.7675898832
 11
22.75
 21
-37.7675898832
  0
LINE
  5
22B
100
AcDbEntity
  8
0
100
AcDbLine
 62
7
  6
CONTINUOUS
 10
21.25
 20
37.7675898832
 11
21.25
 21
0.0
  0
LINE
  5
22C
100
AcDbEntity
  8
0
100
AcDbLine
 62
7
  6
CONTINUOUS
 10
21.25
 20
-37.7675898832
 11
21.25
 21
0.0
  0
INSERT
  5
22D
100
AcDbEntity
  8
0
100
AcDbBlockReference
 62
7
  6
CONTINUOUS
  2
_FILLED
 10
21.25
 20
37.7675898832
 41
3.0
 42
3.0
 43
3.0
 50
90.0
  0
INSERT
  5
22E
100
AcDbEntity
  8
0
100
AcDbBlockReference
 62
7
  6
CONTINUOUS
  2
_FILLED
 10
21.25
 20
-37.7675898832
 41
3.0
 42
3.0
 43
3.0
 50
270.0
  0
ENDBLK
  5
22F
100
AcDbEntity
  8
0
  6
BYBLOCK
 62
0
100
AcDbBlockEnd
  0
BLOCK
  5
230
100
AcDbEntity
  8
0
100
AcDbBlockBegin
 62
7
  6
CONTINUOUS
  2
*D2
 70
65
 10
0.0
 20
0.0
  3
*D2
  1

  0
MTEXT
  5
231
100
AcDbEntity
  8
0
100
AcDbMText
 62
7
  6
CONTINUOUS
  7
STANDARD
 71
2
 72
1
 10
-60.3156105202
 20
49.5175898832
 30
0.0
 11
1.0
 21
0.0
 31
0.0
 44
0.9
  1
58
 40
3.0
 41
4.5
  0
LINE
  5
232
100
AcDbEntity
  8
0
100
AcDbLine
 62
7
  6
CONTINUOUS
 10
-31.3156105202
 20
38.2675898832
 11
-31.3156105202
 21
47.2675898832
  0
LINE
  5
233
100
AcDbEntity
  8
0
100
AcDbLine
 62
7
  6
CONTINUOUS
 10
-89.3156105202
 20
6.4167891002
 11
-89.3156105202
 21
47.2675898832
  0
LINE
  5
234
100
AcDbEntity
  8
0
100
AcDbLine
 62
7
  6
CONTINUOUS
 10
-31.3156105202
 20
45.7675898832
 11
-60.3156105202
 21
45.7675898832
  0
LINE
  5
235
100
AcDbEntity
  8
0
100
AcDbLine
 62
7
  6
CONTINUOUS
 10
-89.3156105202
 20
45.7675898832
 11
-60.3156105202
 21
45.7675898832
  0
INSERT
  5
236
100
AcDbEntity
  8
0
100
AcDbBlockReference
 62
7
  6
CONTINUOUS
  2
_FILLED
 10
-31.3156105202
 20
45.7675898832
 41
3.0
 42
3.0
 43
3.0
 50
360.0
  0
INSERT
  5
237
100
AcDbEntity
  8
0
100
AcDbBlockReference
 62
7
  6
CONTINUOUS
  2
_FILLED
 10
-89.3156105202
 20
45.7675898832
 41
3.0
 42
3.0
 43
3.0
 50
180.0
  0
ENDBLK
  5
238
100
AcDbEntity
  8
0
  6
BYBLOCK
 62
0
100
AcDbBlockEnd
  0
ENDSEC
  0
SECTION
  2
ENTITIES
  0
DIMENSION
  5
239
100
AcDbEntity
  8
0
100
AcDbDimension
 62
7
  6
CONTINUOUS
  2
*D0
 10
-13.25
 20
45.7675898832
 11
-4.2857142857
 21
48.0175898832
 70
160
 71
2
 42
26.5
  3
DIMSTYLE_1
100
AcDbAlignedDimension
 13
13.25
 23
34.968255938
 14
-13.25
 24
34.968255938
 50
180.0
100
AcDbRotatedDimension
  0
DIMENSION
  5
23A
100
AcDbEntity
  8
0
100
AcDbDimension
 62
7
  6
CONTINUOUS
  2
*D1
 10
21.25
 20
-37.7675898832
 11
20.8723076103
 21
-3.7356289158
 70
160
 71
2
 42
75.5351797665
  3
DIMSTYLE_2
100
AcDbAlignedDimension
 13
12.2561583319
 23
37.7675898832
 14
13.75
 24
-37.7675898832
 50
270.0
100
AcDbRotatedDimension
  0
DIMENSION
  5
23B
100
AcDbEntity
  8
0
100
AcDbDimension
 62
7
  6
CONTINUOUS
  2
*D2
 10
-89.3156105202
 20
45.7675898832
 11
-62.5656105202
 21
48.0175898832
 70
160
 71
2
 42
58.0
  3
DIMSTYLE_1
100
AcDbAlignedDimension
 13
-31.3156105202
 23
38.2675898832
 14
-89.3156105202
 24
6.4167891002
 50
180.0
100
AcDbRotatedDimension
  0
LINE
  5
23C
100
AcDbEntity
  8
RACCORDO
100
AcDbLine
 62
7
  6
CONTINUOUS
 10
13.25
 20
-37.7688082292
 11
11.6862160824
 21
-37.7688082292
  0
LINE
  5
23D
100
AcDbEntity
  8
RACCORDO
100
AcDbLine
 62
7
  6
CONTINUOUS
 10
-11.6862160824
 20
-37.7688082292
 11
-13.25
 21
-37.7688082292
  0
LINE
  5
23E
100
AcDbEntity
  8
RACCORDO
100
AcDbLine
 62
7
  6
CONTINUOUS
 10
-9.9550242755
 20
-36.7927355168
 11
9.9550242755
 21
-36.7927355168
  0
LINE
  5
23F
100
AcDbEntity
  8
RACCORDO
100
AcDbLine
 62
253
  6
CONTINUOUS
 10
13.25
 20
-36.6337639781
 11
-13.25
 21
-36.6337639781
  0
LINE
  5
240
100
AcDbEntity
  8
RACCORDO
100
AcDbLine
 62
253
  6
CONTINUOUS
 10
13.25
 20
-35.1346777376
 11
-13.25
 21
-35.1346777376
  0
LINE
  5
241
100
AcDbEntity
  8
RACCORDO
100
AcDbLine
 62
253
  6
CONTINUOUS
 10
13.25
 20
-32.031744062
 11
-13.25
 21
-32.031744062
  0
LINE
  5
242
100
AcDbEntity
  8
ASSI
100
AcDbLine
 62
253
  6
CONTINUOUS
 10
13.25
 20
-31.0675626475
 11
11.3926924335
 21
-31.0675626475
  0
LINE
  5
243
100
AcDbEntity
  8
ASSI
100
AcDbLine
 62
253
  6
CONTINUOUS
 10
-11.3926924335
 20
-31.0675626475
 11
-13.25
 21
-31.0675626475
  0
LINE
  5
244
100
AcDbEntity
  8
ASSI
100
AcDbLine
 62
253
  6
CONTINUOUS
 10
11.4022633414
 20
-30.5326578215
 11
-11.4022633414
 21
-30.5326578215
  0
LINE
  5
245
100
AcDbEntity
  8
RACCORDO
100
AcDbLine
 62
7
  6
CONTINUOUS
 10
5.3529336756
 20
-30.3736862829
 11
-5.3529336756
 21
-30.3736862829
  0
LINE
  5
246
100
AcDbEntity
  8
DRAFT
100
AcDbLine
 62
7
  6
CONTINUOUS
 10
-11.4033224994
 20
-29.6159055849
 11
-9.007780698
 21
-29.6159055849
  0
LINE
  5
247
100
AcDbEntity
  8
DRAFT
100
AcDbLine
 62
7
  6
CONTINUOUS
 10
9.007780698
 20
-29.6159055849
 11
11.4033224994
 21
-29.6159055849
  0
LINE
  5
248
100
AcDbEntity
  8
ASSI
100
AcDbLine
 62
253
  6
CONTINUOUS
 10
-13.25
 20
-28.5495427503
 11
-11.4111311668
 21
-28.5495427503
  0
LINE
  5
249
100
AcDbEntity
  8
ASSI
100
AcDbLine
 62
253
  6
CONTINUOUS
 10
13.25
 20
-28.5495427503
 11
11.4111311668
 21
-28.5495427503
  0
LINE
  5
24A
100
AcDbEntity
  8
ASSI
100
AcDbLine
 62
253
  6
CONTINUOUS
 10
-13.25
 20
-28.0137812802
 11
-11.4210446867
 21
-28.0137812802
  0
LINE
  5
24B
100
AcDbEntity
  8
ASSI
100
AcDbLine
 62
253
  6
CONTINUOUS
 10
13.25
 20
-28.0137812802
 11
11.4210446867
 21
-28.0137812802
  0
LINE
  5
24C
100
AcDbEntity
  8
RACCORDO
100
AcDbLine
 62
253
  6
CONTINUOUS
 10
-13.25
 20
-27.8273126628
 11
-11.6075133041
 21
-27.8273126628
  0
LINE
  5
24D
100
AcDbEntity
  8
RACCORDO
100
AcDbLine
 62
253
  6
CONTINUOUS
 10
11.6075133041
 20
-27.8273126628
 11
13.25
 21
-27.8273126628
  0
LINE
  5
24E
100
AcDbEntity
  8
RACCORDO
100
AcDbLine
 62
7
  6
CONTINUOUS
 10
-11.6075133041
 20
-27.8273126628
 11
-11.4210446867
 21
-28.0137812802
  0
LINE
  5
24F
100
AcDbEntity
  8
RACCORDO
100
AcDbLine
 62
7
  6
CONTINUOUS
 10
-9.007780698
 20
-29.6159055849
 11
-8.3511061566
 21
-30.2725801262
  0
LINE
  5
250
100
AcDbEntity
  8
DRAFT
100
AcDbLine
 62
7
  6
CONTINUOUS
 10
11.607797418
 20
-25.4346446791
 11
9.007780698
 21
-25.4346446791
  0
LINE
  5
251
100
AcDbEntity
  8
DRAFT
100
AcDbLine
 62
7
  6
CONTINUOUS
 10
-9.007780698
 20
-25.4346446791
 11
-11.607797418
 21
-25.4346446791
  0
LINE
  5
252
100
AcDbEntity
  8
RACCORDO
100
AcDbLine
 62
253
  6
CONTINUOUS
 10
-13.25
 20
-25.3403419496
 11
-11.607797418
 21
-25.3403419496
  0
LINE
  5
253
100
AcDbEntity
  8
RACCORDO
100
AcDbLine
 62
253
  6
CONTINUOUS
 10
11.607797418
 20
-25.3403419496
 11
13.25
 21
-25.3403419496
  0
LINE
  5
254
100
AcDbEntity
  8
RACCORDO
100
AcDbLine
 62
7
  6
CONTINUOUS
 10
-8.4063469186
 20
-24.8332108998
 11
8.4063469186
 21
-24.8332108998
  0
LINE
  5
255
100
AcDbEntity
  8
RACCORDO
100
AcDbLine
 62
7
  6
CONTINUOUS
 10
-5.3529336756
 20
-24.6768639812
 11
5.3529336756
 21
-24.6768639812
  0
LINE
  5
256
100
AcDbEntity
  8
RACCORDO
100
AcDbLine
 62
253
  6
CONTINUOUS
 10
13.25
 20
-24.1337639781
 11
-13.25
 21
-24.1337639781
  0
LINE
  5
257
100
AcDbEntity
  8
RACCORDO
100
AcDbLine
 62
253
  6
CONTINUOUS
 10
13.25
 20
-22.6346777376
 11
-13.25
 21
-22.6346777376
  0
LINE
  5
258
100
AcDbEntity
  8
RACCORDO
100
AcDbLine
 62
7
  6
CONTINUOUS
 10
9.2357406735
 20
37.496182855
 11
8.3511061566
 21
36.6115483382
  0
LINE
  5
259
100
AcDbEntity
  8
DRAFT
100
AcDbLine
 62
7
  6
CONTINUOUS
 10
-4.45
 20
-18.0832108998
 11
4.45
 21
-18.0832108998
  0
LINE
  5
25A
100
AcDbEntity
  8
0
100
AcDbLine
 62
7
  6
CONTINUOUS
 10
-2.95
 20
-17.1832108998
 11
2.95
 21
-17.1832108998
  0
LINE
  5
25B
100
AcDbEntity
  8
DRAFT
100
AcDbLine
 62
7
  6
CONTINUOUS
 10
-11.293634339
 20
-16.5832108998
 11
-4.5286116689
 21
-16.5832108998
  0
LINE
  5
25C
100
AcDbEntity
  8
DRAFT
100
AcDbLine
 62
7
  6
CONTINUOUS
 10
4.5286116689
 20
-16.5832108998
 11
11.293634339
 21
-16.5832108998
  0
LINE
  5
25D
100
AcDbEntity
  8
DRAFT
100
AcDbLine
 62
7
  6
CONTINUOUS
 10
-2.95
 20
-16.4832108998
 11
2.95
 21
-16.4832108998
  0
LINE
  5
25E
100
AcDbEntity
  8
COPY-PUBBLISH
100
AcDbLine
 62
7
  6
CONTINUOUS
 10
-12.7503805997
 20
-16.2482108998
 11
-11.293634339
 21
-16.2482108998
  0
LINE
  5
25F
100
AcDbEntity
  8
COPY-PUBBLISH
100
AcDbLine
 62
7
  6
CONTINUOUS
 10
11.293634339
 20
-16.2482108998
 11
12.7503805997
 21
-16.2482108998
  0
LINE
  5
260
100
AcDbEntity
  8
COPY-PUBBLISH
100
AcDbLine
 62
253
  6
CONTINUOUS
 10
12.6952794205
 20
-16.0827729337
 11
11.2660858475
 21
-16.0827729337
  0
LINE
  5
261
100
AcDbEntity
  8
COPY-PUBBLISH
100
AcDbLine
 62
253
  6
CONTINUOUS
 10
-11.2660858475
 20
-16.0827729337
 11
-12.6952794205
 21
-16.0827729337
  0
LINE
  5
262
100
AcDbEntity
  8
RACCORDO
100
AcDbLine
 62
7
  6
CONTINUOUS
 10
-13.25
 20
-22.6346777376
 11
-13.25
 21
-28.0137812802
  0
LINE
  5
263
100
AcDbEntity
  8
ASSI
100
AcDbLine
 62
7
  6
CONTINUOUS
 10
-13.25
 20
-28.0137812802
 11
-13.25
 21
-32.031744062
  0
LINE
  5
264
100
AcDbEntity
  8
RACCORDO
100
AcDbLine
 62
7
  6
CONTINUOUS
 10
-13.25
 20
-32.031744062
 11
-13.25
 21
-37.7675898832
  0
LINE
  5
265
100
AcDbEntity
  8
COPY-PUBBLISH
100
AcDbLine
 62
7
  6
CONTINUOUS
 10
-13.25
 20
-22.6346777376
 11
-13.25
 21
34.468255938
  0
LINE
  5
266
100
AcDbEntity
  8
RACCORDO
100
AcDbLine
 62
7
  6
CONTINUOUS
 10
-13.25
 20
34.468255938
 11
-13.25
 21
37.7675898832
  0
LINE
  5
267
100
AcDbEntity
  8
COPY-PUBBLISH
100
AcDbLine
 62
253
  6
CONTINUOUS
 10
12.6787526511
 20
-14.6465185545
 11
11.2536917144
 21
-14.6465185545
  0
LINE
  5
268
100
AcDbEntity
  8
COPY-PUBBLISH
100
AcDbLine
 62
253
  6
CONTINUOUS
 10
-11.2536917144
 20
-14.6465185545
 11
-12.6787526511
 21
-14.6465185545
  0
LINE
  5
269
100
AcDbEntity
  8
ASSI
100
AcDbLine
 62
7
  6
CONTINUOUS
 10
-11.4111311668
 20
-28.5495427503
 11
-11.3926924341
 21
-31.0675625659
  0
LINE
  5
26A
100
AcDbEntity
  8
COPY-PUBBLISH
100
AcDbLine
 62
253
  6
CONTINUOUS
 10
-12.6787526511
 20
-14.6465185545
 11
-12.6787526511
 21
26.4800967549
  0
LINE
  5
26B
100
AcDbEntity
  8
DRAFT
100
AcDbLine
 62
7
  6
CONTINUOUS
 10
-11.293634339
 20
-16.2482108998
 11
-11.293634339
 21
-16.5832108998
  0
LINE
  5
26C
100
AcDbEntity
  8
DRAFT
100
AcDbLine
 62
7
  6
CONTINUOUS
 10
-11.293634339
 20
28.0817891002
 11
-11.293634339
 21
28.4167891002
  0
LINE
  5
26D
100
AcDbEntity
  8
RACCORDO
100
AcDbLine
 62
253
  6
CONTINUOUS
 10
-11.1
 20
28.4167891002
 11
-11.1
 21
9.9667891002
  0
LINE
  5
26E
100
AcDbEntity
  8
RACCORDO
100
AcDbLine
 62
253
  6
CONTINUOUS
 10
-11.1
 20
1.8667891002
 11
-11.1
 21
-16.5832108998
  0
LINE
  5
26F
100
AcDbEntity
  8
0
100
AcDbLine
 62
7
  6
CONTINUOUS
 10
-5.1216
 20
25.8939851002
 11
-5.867986
 21
23.2786431002
  0
LINE
  5
270
100
AcDbEntity
  8
0
100
AcDbLine
 62
7
  6
CONTINUOUS
 10
-5.550353
 20
22.0944431002
 11
-4.329028
 21
25.8939851002
  0
LINE
  5
271
100
AcDbEntity
  8
RACCORDO
100
AcDbLine
 62
7
  6
CONTINUOUS
 10
9.007780698
 20
-25.4346446791
 11
8.3511061566
 21
-24.7779701378
  0
LINE
  5
272
100
AcDbEntity
  8
RACCORDO
100
AcDbLine
 62
7
  6
CONTINUOUS
 10
11.6862331447
 20
-37.7685566305
 11
11.6856118734
 21
-37.7675898832
  0
LINE
  5
273
100
AcDbEntity
  8
DRAFT
100
AcDbLine
 62
7
  6
CONTINUOUS
 10
-9.007780698
 20
-25.4346446791
 11
-9.007780698
 21
-29.6159055849
  0
LINE
  5
274
100
AcDbEntity
  8
RACCORDO
100
AcDbLine
 62
7
  6
CONTINUOUS
 10
-11.2660858475
 20
-16.0827729337
 11
-11.293634339
 21
-16.2482108998
  0
LINE
  5
275
100
AcDbEntity
  8
0
100
AcDbLine
 62
7
  6
CONTINUOUS
 10
-0.101245
 20
25.8939851002
 11
-0.894359
 21
23.7844681002
  0
LINE
  5
276
100
AcDbEntity
  8
0
100
AcDbLine
 62
7
  6
CONTINUOUS
 10
-0.843072
 20
22.0944431002
 11
0.09994
 21
24.5651301002
  0
LINE
  5
277
100
AcDbEntity
  8
DRAFT
100
AcDbLine
 62
7
  6
CONTINUOUS
 10
-4.5286116689
 20
-16.5832108998
 11
-4.45
 21
-18.0832108998
  0
LINE
  5
278
100
AcDbEntity
  8
ASSI
100
AcDbLine
 62
7
  6
CONTINUOUS
 10
-7.618001
 20
3.6235551002
 11
-7.618001
 21
4.2992901002
  0
LINE
  5
279
100
AcDbEntity
  8
ASSI
100
AcDbLine
 62
7
  6
CONTINUOUS
 10
-7.618001
 20
7.5342861002
 11
-7.618001
 21
8.2100211002
  0
LINE
  5
27A
100
AcDbEntity
  8
DRAFT
100
AcDbLine
 62
7
  6
CONTINUOUS
 10
-4.5286116689
 20
28.4167891002
 11
-4.45
 21
29.9167891002
  0
LINE
  5
27B
100
AcDbEntity
  8
0
100
AcDbLine
 62
7
  6
CONTINUOUS
 10
2.355082
 20
25.8939851002
 11
1.163303
 21
22.0944431002
  0
LINE
  5
27C
100
AcDbEntity
  8
COPY-PUBBLISH
100
AcDbLine
 62
253
  6
CONTINUOUS
 10
-13.25
 20
-15.7479820477
 11
-13.1952032681
 21
-15.5834581663
  0
LINE
  5
27D
100
AcDbEntity
  8
COPY-PUBBLISH
100
AcDbLine
 62
253
  6
CONTINUOUS
 10
-12.7503805997
 20
-16.2482108998
 11
-12.6952794205
 21
-16.0827729337
  0
LINE
  5
27E
100
AcDbEntity
  8
RACCORDO
100
AcDbLine
 62
7
  6
CONTINUOUS
 10
-11.293634339
 20
28.0817891002
 11
-11.2660858475
 21
27.916351134
  0
LINE
  5
27F
100
AcDbEntity
  8
DRAFT
100
AcDbLine
 62
7
  6
CONTINUOUS
 10
-4.35
 20
-18.0832108998
 11
-4.3732577846
 21
-16.7507733132
  0
LINE
  5
280
100
AcDbEntity
  8
0
100
AcDbLine
 62
7
  6
CONTINUOUS
 10
-4.034701
 20
25.8942131002
 11
-4.034701
 21
22.0944431002
  0
LINE
  5
281
100
AcDbEntity
  8
ASSI
100
AcDbLine
 62
7
  6
CONTINUOUS
 10
-4.031402
 20
5.5792881002
 11
-4.031402
 21
6.2542881002
  0
LINE
  5
282
100
AcDbEntity
  8
ASSI
100
AcDbLine
 62
7
  6
CONTINUOUS
 10
-3.671402
 20
3.6235550217
 11
-3.671402
 21
4.2992927458
  0
LINE
  5
283
100
AcDbEntity
  8
ASSI
100
AcDbLine
 62
7
  6
CONTINUOUS
 10
-3.671402
 20
7.5342861002
 11
-3.671402
 21
8.2100211787
  0
LINE
  5
284
100
AcDbEntity
  8
0
100
AcDbLine
 62
7
  6
CONTINUOUS
 10
-3.241588
 20
22.0944431002
 11
-3.241588
 21
25.8942131002
  0
LINE
  5
285
100
AcDbEntity
  8
0
100
AcDbLine
 62
7
  6
CONTINUOUS
 10
-2.95
 20
29.9167891002
 11
-2.95
 21
29.0167891002
  0
LINE
  5
286
100
AcDbEntity
  8
0
100
AcDbLine
 62
7
  6
CONTINUOUS
 10
-2.95
 20
-18.0832108998
 11
-2.95
 21
-17.1832108998
  0
LINE
  5
287
100
AcDbEntity
  8
DRAFT
100
AcDbLine
 62
7
  6
CONTINUOUS
 10
-2.95
 20
-17.1832108998
 11
-2.95
 21
-16.4832108998
  0
LINE
  5
288
100
AcDbEntity
  8
DRAFT
100
AcDbLine
 62
7
  6
CONTINUOUS
 10
-2.95
 20
28.3167891002
 11
-2.95
 21
29.0167891002
  0
LINE
  5
289
100
AcDbEntity
  8
DRAFT
100
AcDbLine
 62
7
  6
CONTINUOUS
 10
-4.35
 20
29.9167891002
 11
-4.3732577846
 21
28.5843515135
  0
LINE
  5
28A
100
AcDbEntity
  8
0
100
AcDbLine
 62
7
  6
CONTINUOUS
 10
-2.055878
 20
22.0944431002
 11
-1.884725
 21
24.5754731002
  0
LINE
  5
28B
100
AcDbEntity
  8
0
100
AcDbLine
 62
7
  6
CONTINUOUS
 10
-2.471553
 20
25.8939851002
 11
-2.81463
 21
22.0944431002
  0
LINE
  5
28C
100
AcDbEntity
  8
0
100
AcDbLine
 62
7
  6
CONTINUOUS
 10
2.328897
 20
23.4399091002
 11
2.723801
 21
24.8499681002
  0
LINE
  5
28D
100
AcDbEntity
  8
0
100
AcDbLine
 62
7
  6
CONTINUOUS
 10
1.947812
 20
22.0944431002
 11
2.166662
 21
22.8529671002
  0
LINE
  5
28E
100
AcDbEntity
  8
COPY-PUBBLISH
100
AcDbLine
 62
253
  6
CONTINUOUS
 10
-13.1952032681
 20
27.4170363667
 11
-13.25
 21
27.5815602481
  0
LINE
  5
28F
100
AcDbEntity
  8
COPY-PUBBLISH
100
AcDbLine
 62
253
  6
CONTINUOUS
 10
-12.6952794205
 20
27.916351134
 11
-12.7503805997
 21
28.0817891002
  0
LINE
  5
290
100
AcDbEntity
  8
RACCORDO
100
AcDbLine
 62
7
  6
CONTINUOUS
 10
-11.6856118734
 20
-37.7675898832
 11
-11.4549671601
 21
-36.844659565
  0
LINE
  5
291
100
AcDbEntity
  8
DRAFT
100
AcDbLine
 62
7
  6
CONTINUOUS
 10
-11.7561583319
 20
37.7675898832
 11
-11.6950702573
 21
37.5231444968
  0
LINE
  5
292
100
AcDbEntity
  8
0
100
AcDbLine
 62
7
  6
CONTINUOUS
 10
0.09994
 20
24.5651301002
 11
0.262887
 21
22.0944431002
  0
LINE
  5
293
100
AcDbEntity
  8
0
100
AcDbLine
 62
7
  6
CONTINUOUS
 10
2.887252
 20
9.5020571002
 11
2.887252
 21
7.6525621002
  0
LINE
  5
294
100
AcDbEntity
  8
0
100
AcDbLine
 62
7
  6
CONTINUOUS
 10
2.95
 20
29.9167891002
 11
2.95
 21
29.0167891002
  0
LINE
  5
295
100
AcDbEntity
  8
DRAFT
100
AcDbLine
 62
7
  6
CONTINUOUS
 10
2.95
 20
29.0167891002
 11
2.95
 21
28.3167891002
  0
LINE
  5
296
100
AcDbEntity
  8
DRAFT
100
AcDbLine
 62
7
  6
CONTINUOUS
 10
2.95
 20
-16.4832108998
 11
2.95
 21
-17.1832108998
  0
LINE
  5
297
100
AcDbEntity
  8
0
100
AcDbLine
 62
7
  6
CONTINUOUS
 10
2.95
 20
-18.0832108998
 11
2.95
 21
-17.1832108998
  0
LINE
  5
298
100
AcDbEntity
  8
DRAFT
100
AcDbLine
 62
7
  6
CONTINUOUS
 10
11.7561583319
 20
37.7675898832
 11
11.6950702573
 21
37.5231444968
  0
LINE
  5
299
100
AcDbEntity
  8
0
100
AcDbLine
 62
7
  6
CONTINUOUS
 10
3.897442
 20
7.6525621002
 11
4.418024
 21
9.2057791002
  0
LINE
  5
29A
100
AcDbEntity
  8
0
100
AcDbLine
 62
7
  6
CONTINUOUS
 10
4.3046
 20
9.5020571002
 11
3.776318
 21
7.9305951002
  0
LINE
  5
29B
100
AcDbEntity
  8
0
100
AcDbLine
 62
7
  6
CONTINUOUS
 10
5.139566
 20
7.6525621002
 11
5.332896
 21
8.1912501002
  0
LINE
  5
29C
100
AcDbEntity
  8
0
100
AcDbLine
 62
7
  6
CONTINUOUS
 10
5.410257
 20
8.4127101002
 11
5.709182
 21
9.2340001002
  0
LINE
  5
29D
100
AcDbEntity
  8
0
100
AcDbLine
 62
7
  6
CONTINUOUS
 10
5.577699
 20
9.5020571002
 11
4.881894
 21
7.6525621002
  0
LINE
  5
29E
100
AcDbEntity
  8
RACCORDO
100
AcDbLine
 62
253
  6
CONTINUOUS
 10
-11.1
 20
1.8667891002
 11
-11.2501863999
 21
1.8667891002
  0
LINE
  5
29F
100
AcDbEntity
  8
RACCORDO
100
AcDbLine
 62
253
  6
CONTINUOUS
 10
11.1
 20
1.8667891002
 11
11.2501863999
 21
1.8667891002
  0
LINE
  5
2A0
100
AcDbEntity
  8
0
100
AcDbLine
 62
7
  6
CONTINUOUS
 10
3.268523
 20
2.3315211002
 11
3.518564
 21
2.3315211002
  0
LINE
  5
2A1
100
AcDbEntity
  8
0
100
AcDbLine
 62
7
  6
CONTINUOUS
 10
4.412936
 20
2.3315211002
 11
4.662828
 21
2.3315211002
  0
LINE
  5
2A2
100
AcDbEntity
  8
0
100
AcDbLine
 62
7
  6
CONTINUOUS
 10
5.361177
 20
2.3315211002
 11
5.618849
 21
2.3315211002
  0
LINE
  5
2A3
100
AcDbEntity
  8
0
100
AcDbLine
 62
7
  6
CONTINUOUS
 10
6.737375
 20
2.3315211002
 11
7.01046
 21
2.3315211002
  0
LINE
  5
2A4
100
AcDbEntity
  8
0
100
AcDbLine
 62
7
  6
CONTINUOUS
 10
7.239851
 20
2.3315211002
 11
8.427808
 21
2.3315211002
  0
LINE
  5
2A5
100
AcDbEntity
  8
0
100
AcDbLine
 62
7
  6
CONTINUOUS
 10
8.824791
 20
2.3315211002
 11
9.074683
 21
2.3315211002
  0
LINE
  5
2A6
100
AcDbEntity
  8
0
100
AcDbLine
 62
7
  6
CONTINUOUS
 10
8.427808
 20
2.5529811002
 11
7.489743
 21
2.5529811002
  0
LINE
  5
2A7
100
AcDbEntity
  8
0
100
AcDbLine
 62
7
  6
CONTINUOUS
 10
5.812178
 20
2.8702091002
 11
6.554371
 21
2.8702091002
  0
LINE
  5
2A8
100
AcDbEntity
  8
0
100
AcDbLine
 62
7
  6
CONTINUOUS
 10
-7.453814
 20
25.8939851002
 11
-6.249285
 21
22.0944431002
  0
LINE
  5
2A9
100
AcDbEntity
  8
0
100
AcDbLine
 62
7
  6
CONTINUOUS
 10
-5.867986
 20
23.2786431002
 11
-6.592247
 21
25.8939851002
  0
LINE
  5
2AA
100
AcDbEntity
  8
RACCORDO
100
AcDbLine
 62
7
  6
CONTINUOUS
 10
11.6856118734
 20
-37.7675898832
 11
11.4549671601
 21
-36.844659565
  0
LINE
  5
2AB
100
AcDbEntity
  8
0
100
AcDbLine
 62
7
  6
CONTINUOUS
 10
1.038763
 20
22.0944431002
 11
0.683463
 21
25.8939851002
  0
LINE
  5
2AC
100
AcDbEntity
  8
DRAFT
100
AcDbLine
 62
7
  6
CONTINUOUS
 10
4.35
 20
29.9167891002
 11
4.3732577846
 21
28.5843515135
  0
LINE
  5
2AD
100
AcDbEntity
  8
0
100
AcDbLine
 62
7
  6
CONTINUOUS
 10
3.129512
 20
7.6525621002
 11
3.129512
 21
9.2027861002
  0
LINE
  5
2AE
100
AcDbEntity
  8
0
100
AcDbLine
 62
7
  6
CONTINUOUS
 10
3.268523
 20
4.1825131002
 11
3.268523
 21
2.3315211002
  0
LINE
  5
2AF
100
AcDbEntity
  8
0
100
AcDbLine
 62
7
  6
CONTINUOUS
 10
3.518564
 20
2.3315211002
 11
3.518564
 21
4.1825131002
  0
LINE
  5
2B0
100
AcDbEntity
  8
0
100
AcDbLine
 62
7
  6
CONTINUOUS
 10
3.786711
 20
4.1825131002
 11
3.786711
 21
3.9610521002
  0
LINE
  5
2B1
100
AcDbEntity
  8
0
100
AcDbLine
 62
7
  6
CONTINUOUS
 10
4.412936
 20
3.9610521002
 11
4.412936
 21
2.3315211002
  0
LINE
  5
2B2
100
AcDbEntity
  8
0
100
AcDbLine
 62
7
  6
CONTINUOUS
 10
4.418024
 20
9.2057791002
 11
4.418024
 21
7.6525621002
  0
LINE
  5
2B3
100
AcDbEntity
  8
0
100
AcDbLine
 62
7
  6
CONTINUOUS
 10
4.5210141587
 20
25.8495942785
 11
4.5210141587
 21
22.0944431614
  0
LINE
  5
2B4
100
AcDbEntity
  8
0
100
AcDbLine
 62
7
  6
CONTINUOUS
 10
4.660284
 20
7.6525621002
 11
4.660284
 21
9.5020571002
  0
LINE
  5
2B5
100
AcDbEntity
  8
0
100
AcDbLine
 62
7
  6
CONTINUOUS
 10
4.662828
 20
2.3315211002
 11
4.662828
 21
3.9610521002
  0
LINE
  5
2B6
100
AcDbEntity
  8
0
100
AcDbLine
 62
7
  6
CONTINUOUS
 10
5.284638007
 20
24.2036473933
 11
5.284638007
 21
25.2466958557
  0
LINE
  5
2B7
100
AcDbEntity
  8
0
100
AcDbLine
 62
7
  6
CONTINUOUS
 10
5.289052
 20
3.9610521002
 11
5.289052
 21
4.1825131002
  0
LINE
  5
2B8
100
AcDbEntity
  8
0
100
AcDbLine
 62
7
  6
CONTINUOUS
 10
5.310936459
 20
22.0944431614
 11
5.310936459
 21
23.5813741629
  0
LINE
  5
2B9
100
AcDbEntity
  8
0
100
AcDbLine
 62
7
  6
CONTINUOUS
 10
5.367611
 20
6.8415371002
 11
5.367611
 21
4.9920411002
  0
LINE
  5
2BA
100
AcDbEntity
  8
0
100
AcDbLine
 62
7
  6
CONTINUOUS
 10
5.617652
 20
4.9920411002
 11
5.617652
 21
6.8415371002
  0
LINE
  5
2BB
100
AcDbEntity
  8
DRAFT
100
AcDbLine
 62
7
  6
CONTINUOUS
 10
4.35
 20
-18.0832108998
 11
4.3732577846
 21
-16.7507733131
  0
LINE
  5
2BC
100
AcDbEntity
  8
DRAFT
100
AcDbLine
 62
7
  6
CONTINUOUS
 10
4.45
 20
-18.0832108998
 11
4.5286116689
 21
-16.5832108998
  0
LINE
  5
2BD
100
AcDbEntity
  8
COPY-PUBBLISH
100
AcDbLine
 62
253
  6
CONTINUOUS
 10
12.7503805997
 20
28.0817891002
 11
12.6952794205
 21
27.916351134
  0
LINE
  5
2BE
100
AcDbEntity
  8
COPY-PUBBLISH
100
AcDbLine
 62
253
  6
CONTINUOUS
 10
13.25
 20
27.5815602481
 11
13.1952032681
 21
27.4170363667
  0
LINE
  5
2BF
100
AcDbEntity
  8
0
100
AcDbLine
 62
7
  6
CONTINUOUS
 10
5.618849
 20
2.3315211002
 11
5.812178
 21
2.8702091002
  0
LINE
  5
2C0
100
AcDbEntity
  8
0
100
AcDbLine
 62
7
  6
CONTINUOUS
 10
5.88939
 20
3.0916691002
 11
6.188466
 21
3.9129571002
  0
LINE
  5
2C1
100
AcDbEntity
  8
0
100
AcDbLine
 62
7
  6
CONTINUOUS
 10
6.056982
 20
4.1825131002
 11
5.361177
 21
2.3315211002
  0
LINE
  5
2C2
100
AcDbEntity
  8
0
100
AcDbLine
 62
7
  6
CONTINUOUS
 10
6.464141
 20
3.0916691002
 11
5.88939
 21
3.0916691002
  0
LINE
  5
2C3
100
AcDbEntity
  8
0
100
AcDbLine
 62
7
  6
CONTINUOUS
 10
3.786711
 20
3.9610521002
 11
4.412936
 21
3.9610521002
  0
LINE
  5
2C4
100
AcDbEntity
  8
0
100
AcDbLine
 62
7
  6
CONTINUOUS
 10
4.662828
 20
3.9610521002
 11
5.289052
 21
3.9610521002
  0
LINE
  5
2C5
100
AcDbEntity
  8
0
100
AcDbLine
 62
7
  6
CONTINUOUS
 10
9.773032
 20
4.1825131002
 11
9.479297
 21
4.1825131002
  0
LINE
  5
2C6
100
AcDbEntity
  8
0
100
AcDbLine
 62
7
  6
CONTINUOUS
 10
8.417483
 20
4.1825131002
 11
8.126293
 21
4.1825131002
  0
LINE
  5
2C7
100
AcDbEntity
  8
0
100
AcDbLine
 62
7
  6
CONTINUOUS
 10
7.489743
 20
4.1825131002
 11
7.239851
 21
4.1825131002
  0
LINE
  5
2C8
100
AcDbEntity
  8
0
100
AcDbLine
 62
7
  6
CONTINUOUS
 10
6.340392
 20
4.1825131002
 11
6.056982
 21
4.1825131002
  0
LINE
  5
2C9
100
AcDbEntity
  8
0
100
AcDbLine
 62
7
  6
CONTINUOUS
 10
5.289052
 20
4.1825131002
 11
3.786711
 21
4.1825131002
  0
LINE
  5
2CA
100
AcDbEntity
  8
0
100
AcDbLine
 62
7
  6
CONTINUOUS
 10
3.518564
 20
4.1825131002
 11
3.268523
 21
4.1825131002
  0
LINE
  5
2CB
100
AcDbEntity
  8
0
100
AcDbLine
 62
7
  6
CONTINUOUS
 10
5.367611
 20
4.9920411002
 11
5.617652
 21
4.9920411002
  0
LINE
  5
2CC
100
AcDbEntity
  8
0
100
AcDbLine
 62
7
  6
CONTINUOUS
 10
6.045311
 20
4.9920411002
 11
6.28772
 21
4.9920411002
  0
LINE
  5
2CD
100
AcDbEntity
  8
0
100
AcDbLine
 62
7
  6
CONTINUOUS
 10
7.233417
 20
4.9920411002
 11
7.514283
 21
4.9920411002
  0
LINE
  5
2CE
100
AcDbEntity
  8
ASSI
100
AcDbLine
 62
7
  6
CONTINUOUS
 10
-5.345853
 20
5.5792881002
 11
-4.031402
 21
5.5792881002
  0
LINE
  5
2CF
100
AcDbEntity
  8
DRAFT
100
AcDbLine
 62
7
  6
CONTINUOUS
 10
4.45
 20
29.9167891002
 11
4.5286116689
 21
28.4167891002
  0
LINE
  5
2D0
100
AcDbEntity
  8
0
100
AcDbLine
 62
7
  6
CONTINUOUS
 10
6.045311
 20
6.8415371002
 11
6.045311
 21
4.9920411002
  0
LINE
  5
2D1
100
AcDbEntity
  8
0
100
AcDbLine
 62
7
  6
CONTINUOUS
 10
6.28772
 20
4.9920411002
 11
6.28772
 21
6.4949861002
  0
LINE
  5
2D2
100
AcDbEntity
  8
0
100
AcDbLine
 62
7
  6
CONTINUOUS
 10
6.773437
 20
9.5020571002
 11
6.773437
 21
7.6525621002
  0
LINE
  5
2D3
100
AcDbEntity
  8
0
100
AcDbLine
 62
7
  6
CONTINUOUS
 10
7.023329
 20
7.8665411002
 11
7.023329
 21
9.2880791002
  0
LINE
  5
2D4
100
AcDbEntity
  8
0
100
AcDbLine
 62
7
  6
CONTINUOUS
 10
7.239851
 20
4.1825131002
 11
7.239851
 21
2.3315211002
  0
LINE
  5
2D5
100
AcDbEntity
  8
0
100
AcDbLine
 62
7
  6
CONTINUOUS
 10
7.272173
 20
6.8415371002
 11
7.272173
 21
5.3397201002
  0
LINE
  5
2D6
100
AcDbEntity
  8
0
100
AcDbLine
 62
7
  6
CONTINUOUS
 10
7.489743
 20
2.5529811002
 11
7.489743
 21
4.1825131002
  0
LINE
  5
2D7
100
AcDbEntity
  8
0
100
AcDbLine
 62
7
  6
CONTINUOUS
 10
7.514283
 20
4.9920411002
 11
7.514283
 21
6.8415371002
  0
LINE
  5
2D8
100
AcDbEntity
  8
RACCORDO
100
AcDbLine
 62
7
  6
CONTINUOUS
 10
11.293634339
 20
28.0817891002
 11
11.2660858475
 21
27.916351134
  0
LINE
  5
2D9
100
AcDbEntity
  8
0
100
AcDbLine
 62
7
  6
CONTINUOUS
 10
9.479297
 20
4.1825131002
 11
8.94839
 21
3.2936771002
  0
LINE
  5
2DA
100
AcDbEntity
  8
0
100
AcDbLine
 62
7
  6
CONTINUOUS
 10
9.074683
 20
3.0767061002
 11
9.773032
 21
4.1825131002
  0
LINE
  5
2DB
100
AcDbEntity
  8
ASSI
100
AcDbLine
 62
7
  6
CONTINUOUS
 10
-4.031402
 20
6.2542881002
 11
-5.3458557008
 21
6.2542881002
  0
LINE
  5
2DC
100
AcDbEntity
  8
0
100
AcDbLine
 62
7
  6
CONTINUOUS
 10
7.514283
 20
6.8415371002
 11
7.272173
 21
6.8415371002
  0
LINE
  5
2DD
100
AcDbEntity
  8
0
100
AcDbLine
 62
7
  6
CONTINUOUS
 10
6.341739
 20
6.8415371002
 11
6.045311
 21
6.8415371002
  0
LINE
  5
2DE
100
AcDbEntity
  8
0
100
AcDbLine
 62
7
  6
CONTINUOUS
 10
5.617652
 20
6.8415371002
 11
5.367611
 21
6.8415371002
  0
LINE
  5
2DF
100
AcDbEntity
  8
0
100
AcDbLine
 62
7
  6
CONTINUOUS
 10
2.887252
 20
7.6525621002
 11
3.129512
 21
7.6525621002
  0
LINE
  5
2E0
100
AcDbEntity
  8
0
100
AcDbLine
 62
7
  6
CONTINUOUS
 10
3.650094
 20
7.6525621002
 11
3.897442
 21
7.6525621002
  0
LINE
  5
2E1
100
AcDbEntity
  8
0
100
AcDbLine
 62
7
  6
CONTINUOUS
 10
4.418024
 20
7.6525621002
 11
4.660284
 21
7.6525621002
  0
LINE
  5
2E2
100
AcDbEntity
  8
0
100
AcDbLine
 62
7
  6
CONTINUOUS
 10
4.881894
 20
7.6525621002
 11
5.139566
 21
7.6525621002
  0
LINE
  5
2E3
100
AcDbEntity
  8
0
100
AcDbLine
 62
7
  6
CONTINUOUS
 10
6.258092
 20
7.6525621002
 11
6.531177
 21
7.6525621002
  0
LINE
  5
2E4
100
AcDbEntity
  8
0
100
AcDbLine
 62
7
  6
CONTINUOUS
 10
6.773437
 20
7.6525621002
 11
7.5232623157
 21
7.6525621002
  0
LINE
  5
2E5
100
AcDbEntity
  8
0
100
AcDbLine
 62
7
  6
CONTINUOUS
 10
8.646875
 20
7.6525621002
 11
10.012748
 21
7.6525621002
  0
LINE
  5
2E6
100
AcDbEntity
  8
0
100
AcDbLine
 62
7
  6
CONTINUOUS
 10
7.489744396
 20
7.8665411002
 11
7.023329
 21
7.8665411002
  0
LINE
  5
2E7
100
AcDbEntity
  8
0
100
AcDbLine
 62
7
  6
CONTINUOUS
 10
10.012748
 20
7.8740221002
 11
8.896916
 21
7.8740221002
  0
LINE
  5
2E8
100
AcDbEntity
  8
0
100
AcDbLine
 62
7
  6
CONTINUOUS
 10
5.332896
 20
8.1912501002
 11
6.075088
 21
8.1912501002
  0
LINE
  5
2E9
100
AcDbEntity
  8
0
100
AcDbLine
 62
7
  6
CONTINUOUS
 10
-1.884725
 20
24.5754731002
 11
-0.954306
 21
22.0944431002
  0
LINE
  5
2EA
100
AcDbEntity
  8
0
100
AcDbLine
 62
7
  6
CONTINUOUS
 10
-0.894359
 20
23.7844681002
 11
-1.679095
 21
25.8939851002
  0
LINE
  5
2EB
100
AcDbEntity
  8
0
100
AcDbLine
 62
7
  6
CONTINUOUS
 10
7.01046
 20
2.3315211002
 11
6.340392
 21
4.1825131002
  0
LINE
  5
2EC
100
AcDbEntity
  8
0
100
AcDbLine
 62
7
  6
CONTINUOUS
 10
6.554371
 20
2.8702091002
 11
6.737375
 21
2.3315211002
  0
LINE
  5
2ED
100
AcDbEntity
  8
0
100
AcDbLine
 62
7
  6
CONTINUOUS
 10
3.776318
 20
7.9305951002
 11
3.245479
 21
9.5020571002
  0
LINE
  5
2EE
100
AcDbEntity
  8
0
100
AcDbLine
 62
7
  6
CONTINUOUS
 10
3.129512
 20
9.2027861002
 11
3.650094
 21
7.6525621002
  0
LINE
  5
2EF
100
AcDbEntity
  8
0
100
AcDbLine
 62
7
  6
CONTINUOUS
 10
6.188466
 20
3.9129571002
 11
6.464141
 21
3.0916691002
  0
LINE
  5
2F0
100
AcDbEntity
  8
0
100
AcDbLine
 62
7
  6
CONTINUOUS
 10
5.709182
 20
9.2340001002
 11
5.984858
 21
8.4127101002
  0
LINE
  5
2F1
100
AcDbEntity
  8
COPY-PUBBLISH
100
AcDbLine
 62
253
  6
CONTINUOUS
 10
12.6952794205
 20
-16.0827729337
 11
12.7503805997
 21
-16.2482108998
  0
LINE
  5
2F2
100
AcDbEntity
  8
COPY-PUBBLISH
100
AcDbLine
 62
253
  6
CONTINUOUS
 10
13.1952032681
 20
-15.5834581663
 11
13.25
 21
-15.7479820477
  0
LINE
  5
2F3
100
AcDbEntity
  8
0
100
AcDbLine
 62
7
  6
CONTINUOUS
 10
8.427808
 20
2.3315211002
 11
8.427808
 21
2.5529811002
  0
LINE
  5
2F4
100
AcDbEntity
  8
0
100
AcDbLine
 62
7
  6
CONTINUOUS
 10
8.646875
 20
9.5020571002
 11
8.646875
 21
7.6525621002
  0
LINE
  5
2F5
100
AcDbEntity
  8
0
100
AcDbLine
 62
7
  6
CONTINUOUS
 10
8.824791
 20
3.0767061002
 11
8.824791
 21
2.3315211002
  0
LINE
  5
2F6
100
AcDbEntity
  8
0
100
AcDbLine
 62
7
  6
CONTINUOUS
 10
8.896916
 20
7.8740221002
 11
8.896916
 21
8.4920171002
  0
LINE
  5
2F7
100
AcDbEntity
  8
0
100
AcDbLine
 62
7
  6
CONTINUOUS
 10
8.896916
 20
8.7134781002
 11
8.896916
 21
9.2805971002
  0
LINE
  5
2F8
100
AcDbEntity
  8
DRAFT
100
AcDbLine
 62
7
  6
CONTINUOUS
 10
9.007780698
 20
-25.4346446791
 11
9.007780698
 21
-29.6159055849
  0
LINE
  5
2F9
100
AcDbEntity
  8
0
100
AcDbLine
 62
7
  6
CONTINUOUS
 10
9.074683
 20
2.3315211002
 11
9.074683
 21
3.0767061002
  0
LINE
  5
2FA
100
AcDbEntity
  8
0
100
AcDbLine
 62
7
  6
CONTINUOUS
 10
9.909649
 20
8.4920171002
 11
9.909649
 21
8.7134781002
  0
LINE
  5
2FB
100
AcDbEntity
  8
0
100
AcDbLine
 62
7
  6
CONTINUOUS
 10
9.994642
 20
9.2805971002
 11
9.994642
 21
9.5020571002
  0
LINE
  5
2FC
100
AcDbEntity
  8
0
100
AcDbLine
 62
7
  6
CONTINUOUS
 10
10.012748
 20
7.6525621002
 11
10.012748
 21
7.8740221002
  0
LINE
  5
2FD
100
AcDbEntity
  8
RACCORDO
100
AcDbLine
 62
7
  6
CONTINUOUS
 10
-11.6856118734
 20
-37.7675898832
 11
-11.6862331447
 21
-37.7685566305
  0
LINE
  5
2FE
100
AcDbEntity
  8
0
100
AcDbLine
 62
7
  6
CONTINUOUS
 10
5.984858
 20
8.4127101002
 11
5.410257
 21
8.4127101002
  0
LINE
  5
2FF
100
AcDbEntity
  8
0
100
AcDbLine
 62
7
  6
CONTINUOUS
 10
8.896916
 20
8.4920171002
 11
9.909649
 21
8.4920171002
  0
LINE
  5
300
100
AcDbEntity
  8
0
100
AcDbLine
 62
7
  6
CONTINUOUS
 10
9.909649
 20
8.7134781002
 11
8.896916
 21
8.7134781002
  0
LINE
  5
301
100
AcDbEntity
  8
0
100
AcDbLine
 62
7
  6
CONTINUOUS
 10
8.896916
 20
9.2805971002
 11
9.994642
 21
9.2805971002
  0
LINE
  5
302
100
AcDbEntity
  8
0
100
AcDbLine
 62
7
  6
CONTINUOUS
 10
7.023329
 20
9.2880791002
 11
7.4897410383
 21
9.2880791002
  0
LINE
  5
303
100
AcDbEntity
  8
0
100
AcDbLine
 62
7
  6
CONTINUOUS
 10
9.994642
 20
9.5020571002
 11
8.646875
 21
9.5020571002
  0
LINE
  5
304
100
AcDbEntity
  8
0
100
AcDbLine
 62
7
  6
CONTINUOUS
 10
7.5232624573
 20
9.5020571002
 11
6.773437
 21
9.5020571002
  0
LINE
  5
305
100
AcDbEntity
  8
0
100
AcDbLine
 62
7
  6
CONTINUOUS
 10
5.861109
 20
9.5020571002
 11
5.577699
 21
9.5020571002
  0
LINE
  5
306
100
AcDbEntity
  8
0
100
AcDbLine
 62
7
  6
CONTINUOUS
 10
4.660284
 20
9.5020571002
 11
4.3046
 21
9.5020571002
  0
LINE
  5
307
100
AcDbEntity
  8
0
100
AcDbLine
 62
7
  6
CONTINUOUS
 10
3.245479
 20
9.5020571002
 11
2.887252
 21
9.5020571002
  0
LINE
  5
308
100
AcDbEntity
  8
RACCORDO
100
AcDbLine
 62
253
  6
CONTINUOUS
 10
11.1
 20
9.9667891002
 11
11.2501863999
 21
9.9667891002
  0
LINE
  5
309
100
AcDbEntity
  8
RACCORDO
100
AcDbLine
 62
253
  6
CONTINUOUS
 10
-11.1
 20
9.9667891002
 11
-11.2501863999
 21
9.9667891002
  0
LINE
  5
30A
100
AcDbEntity
  8
0
100
AcDbLine
 62
7
  6
CONTINUOUS
 10
8.126293
 20
4.1825131002
 11
8.824791
 21
3.0767061002
  0
LINE
  5
30B
100
AcDbEntity
  8
0
100
AcDbLine
 62
7
  6
CONTINUOUS
 10
6.28772
 20
6.4949861002
 11
7.233417
 21
4.9920411002
  0
LINE
  5
30C
100
AcDbEntity
  8
0
100
AcDbLine
 62
7
  6
CONTINUOUS
 10
7.272173
 20
5.3397201002
 11
6.341739
 21
6.8415371002
  0
LINE
  5
30D
100
AcDbEntity
  8
0
100
AcDbLine
 62
7
  6
CONTINUOUS
 10
8.94839
 20
3.2936771002
 11
8.417483
 21
4.1825131002
  0
LINE
  5
30E
100
AcDbEntity
  8
0
100
AcDbLine
 62
7
  6
CONTINUOUS
 10
6.531177
 20
7.6525621002
 11
5.861109
 21
9.5020571002
  0
LINE
  5
30F
100
AcDbEntity
  8
0
100
AcDbLine
 62
7
  6
CONTINUOUS
 10
6.075088
 20
8.1912501002
 11
6.258092
 21
7.6525621002
  0
LINE
  5
310
100
AcDbEntity
  8
0
100
AcDbLine
 62
7
  6
CONTINUOUS
 10
4.288118
 20
22.0944431002
 11
3.122324
 21
25.8939851002
  0
LINE
  5
311
100
AcDbEntity
  8
0
100
AcDbLine
 62
7
  6
CONTINUOUS
 10
3.24675
 20
22.8529671002
 11
3.452209
 21
22.0944431002
  0
LINE
  5
312
100
AcDbEntity
  8
0
100
AcDbLine
 62
7
  6
CONTINUOUS
 10
2.723801
 20
24.8499681002
 11
3.088247
 21
23.4399091002
  0
LINE
  5
313
100
AcDbEntity
  8
RACCORDO
100
AcDbLine
 62
7
  6
CONTINUOUS
 10
11.2660858475
 20
-16.0827729337
 11
11.293634339
 21
-16.2482108998
  0
LINE
  5
314
100
AcDbEntity
  8
RACCORDO
100
AcDbLine
 62
253
  6
CONTINUOUS
 10
11.1
 20
-16.5832108998
 11
11.1
 21
1.8667891002
  0
LINE
  5
315
100
AcDbEntity
  8
RACCORDO
100
AcDbLine
 62
253
  6
CONTINUOUS
 10
11.1
 20
9.9667891002
 11
11.1
 21
28.4167891002
  0
LINE
  5
316
100
AcDbEntity
  8
DRAFT
100
AcDbLine
 62
7
  6
CONTINUOUS
 10
11.293634339
 20
-16.2482108998
 11
11.293634339
 21
-16.5832108998
  0
LINE
  5
317
100
AcDbEntity
  8
DRAFT
100
AcDbLine
 62
7
  6
CONTINUOUS
 10
11.293634339
 20
28.0817891002
 11
11.293634339
 21
28.4167891002
  0
LINE
  5
318
100
AcDbEntity
  8
COPY-PUBBLISH
100
AcDbLine
 62
253
  6
CONTINUOUS
 10
12.6787526511
 20
26.4800967549
 11
12.6787526511
 21
-14.6465185545
  0
LINE
  5
319
100
AcDbEntity
  8
RACCORDO
100
AcDbLine
 62
7
  6
CONTINUOUS
 10
13.25
 20
37.7675898832
 11
13.25
 21
34.468255938
  0
LINE
  5
31A
100
AcDbEntity
  8
COPY-PUBBLISH
100
AcDbLine
 62
7
  6
CONTINUOUS
 10
13.25
 20
34.468255938
 11
13.25
 21
-22.6346777376
  0
LINE
  5
31B
100
AcDbEntity
  8
RACCORDO
100
AcDbLine
 62
7
  6
CONTINUOUS
 10
13.25
 20
-22.6346777376
 11
13.25
 21
-28.0137812802
  0
LINE
  5
31C
100
AcDbEntity
  8
ASSI
100
AcDbLine
 62
7
  6
CONTINUOUS
 10
13.25
 20
-28.0137812802
 11
13.25
 21
-32.031744062
  0
LINE
  5
31D
100
AcDbEntity
  8
RACCORDO
100
AcDbLine
 62
7
  6
CONTINUOUS
 10
13.25
 20
-32.031744062
 11
13.25
 21
-37.7675898832
  0
LINE
  5
31E
100
AcDbEntity
  8
ASSI
100
AcDbLine
 62
7
  6
CONTINUOUS
 10
11.4111311668
 20
-28.5495427503
 11
11.3926924341
 21
-31.0675625659
  0
LINE
  5
31F
100
AcDbEntity
  8
RACCORDO
100
AcDbLine
 62
7
  6
CONTINUOUS
 10
-8.3511061566
 20
-24.7779701378
 11
-9.007780698
 21
-25.4346446791
  0
LINE
  5
320
100
AcDbEntity
  8
RACCORDO
100
AcDbLine
 62
7
  6
CONTINUOUS
 10
-9.2357406735
 20
37.496182855
 11
-8.3511061566
 21
36.6115483382
  0
LINE
  5
321
100
AcDbEntity
  8
0
100
AcDbLine
 62
7
  6
CONTINUOUS
 10
-6.249285
 20
22.0944431002
 11
-5.550353
 21
22.0944431002
  0
LINE
  5
322
100
AcDbEntity
  8
0
100
AcDbLine
 62
7
  6
CONTINUOUS
 10
-4.034701
 20
22.0944431002
 11
-3.241588
 21
22.0944431002
  0
LINE
  5
323
100
AcDbEntity
  8
0
100
AcDbLine
 62
7
  6
CONTINUOUS
 10
-2.81463
 20
22.0944431002
 11
-2.055878
 21
22.0944431002
  0
LINE
  5
324
100
AcDbEntity
  8
0
100
AcDbLine
 62
7
  6
CONTINUOUS
 10
-0.954306
 20
22.0944431002
 11
-0.843072
 21
22.0944431002
  0
LINE
  5
325
100
AcDbEntity
  8
0
100
AcDbLine
 62
7
  6
CONTINUOUS
 10
0.262887
 20
22.0944431002
 11
1.038763
 21
22.0944431002
  0
LINE
  5
326
100
AcDbEntity
  8
0
100
AcDbLine
 62
7
  6
CONTINUOUS
 10
1.163303
 20
22.0944431002
 11
1.947812
 21
22.0944431002
  0
LINE
  5
327
100
AcDbEntity
  8
0
100
AcDbLine
 62
7
  6
CONTINUOUS
 10
3.452209
 20
22.0944431002
 11
4.288118
 21
22.0944431002
  0
LINE
  5
328
100
AcDbEntity
  8
0
100
AcDbLine
 62
7
  6
CONTINUOUS
 10
4.5210141587
 20
22.0944431614
 11
5.310936459
 21
22.0944431614
  0
LINE
  5
329
100
AcDbEntity
  8
0
100
AcDbLine
 62
7
  6
CONTINUOUS
 10
6.5254804604
 20
22.0944431614
 11
7.2883635073
 21
22.0944431614
  0
LINE
  5
32A
100
AcDbEntity
  8
0
100
AcDbLine
 62
7
  6
CONTINUOUS
 10
2.166662
 20
22.8529671002
 11
3.24675
 21
22.8529671002
  0
LINE
  5
32B
100
AcDbEntity
  8
0
100
AcDbLine
 62
7
  6
CONTINUOUS
 10
3.088247
 20
23.4399091002
 11
2.328897
 21
23.4399091002
  0
LINE
  5
32C
100
AcDbEntity
  8
0
100
AcDbLine
 62
7
  6
CONTINUOUS
 10
5.310936459
 20
23.5813741629
 11
5.7361849921
 21
23.5813741629
  0
LINE
  5
32D
100
AcDbEntity
  8
0
100
AcDbLine
 62
7
  6
CONTINUOUS
 10
5.737894534
 20
24.2036473933
 11
5.284638007
 21
24.2036473933
  0
LINE
  5
32E
100
AcDbEntity
  8
0
100
AcDbLine
 62
7
  6
CONTINUOUS
 10
3.122324
 20
25.8939851002
 11
2.355082
 21
25.8939851002
  0
LINE
  5
32F
100
AcDbEntity
  8
0
100
AcDbLine
 62
7
  6
CONTINUOUS
 10
0.683463
 20
25.8939851002
 11
-0.101245
 21
25.8939851002
  0
LINE
  5
330
100
AcDbEntity
  8
0
100
AcDbLine
 62
7
  6
CONTINUOUS
 10
-1.679095
 20
25.8939851002
 11
-2.471553
 21
25.8939851002
  0
LINE
  5
331
100
AcDbEntity
  8
0
100
AcDbLine
 62
7
  6
CONTINUOUS
 10
-4.329028
 20
25.8939851002
 11
-5.1216
 21
25.8939851002
  0
LINE
  5
332
100
AcDbEntity
  8
0
100
AcDbLine
 62
7
  6
CONTINUOUS
 10
-6.592247
 20
25.8939851002
 11
-7.453814
 21
25.8939851002
  0
LINE
  5
333
100
AcDbEntity
  8
0
100
AcDbLine
 62
7
  6
CONTINUOUS
 10
-3.241588
 20
25.8942131002
 11
-4.034701
 21
25.8942131002
  0
LINE
  5
334
100
AcDbEntity
  8
COPY-PUBBLISH
100
AcDbLine
 62
253
  6
CONTINUOUS
 10
12.6787526511
 20
26.4800967549
 11
11.2536917144
 21
26.4800967549
  0
LINE
  5
335
100
AcDbEntity
  8
COPY-PUBBLISH
100
AcDbLine
 62
253
  6
CONTINUOUS
 10
-11.2536917144
 20
26.4800967549
 11
-12.6787526511
 21
26.4800967549
  0
LINE
  5
336
100
AcDbEntity
  8
RACCORDO
100
AcDbLine
 62
7
  6
CONTINUOUS
 10
9.007780698
 20
-29.6159055849
 11
8.3511061566
 21
-30.2725801262
  0
LINE
  5
337
100
AcDbEntity
  8
RACCORDO
100
AcDbLine
 62
7
  6
CONTINUOUS
 10
11.6075133041
 20
-27.8273126628
 11
11.4210446867
 21
-28.0137812802
  0
LINE
  5
338
100
AcDbEntity
  8
COPY-PUBBLISH
100
AcDbLine
 62
253
  6
CONTINUOUS
 10
12.6952794205
 20
27.916351134
 11
11.2660858475
 21
27.916351134
  0
LINE
  5
339
100
AcDbEntity
  8
COPY-PUBBLISH
100
AcDbLine
 62
253
  6
CONTINUOUS
 10
-11.2660858475
 20
27.916351134
 11
-12.6952794205
 21
27.916351134
  0
LINE
  5
33A
100
AcDbEntity
  8
COPY-PUBBLISH
100
AcDbLine
 62
7
  6
CONTINUOUS
 10
-12.7503805997
 20
28.0817891002
 11
-11.293634339
 21
28.0817891002
  0
LINE
  5
33B
100
AcDbEntity
  8
COPY-PUBBLISH
100
AcDbLine
 62
7
  6
CONTINUOUS
 10
11.293634339
 20
28.0817891002
 11
12.7503805997
 21
28.0817891002
  0
LINE
  5
33C
100
AcDbEntity
  8
DRAFT
100
AcDbLine
 62
7
  6
CONTINUOUS
 10
-2.95
 20
28.3167891002
 11
2.95
 21
28.3167891002
  0
LINE
  5
33D
100
AcDbEntity
  8
DRAFT
100
AcDbLine
 62
7
  6
CONTINUOUS
 10
11.293634339
 20
28.4167891002
 11
4.5286116689
 21
28.4167891002
  0
LINE
  5
33E
100
AcDbEntity
  8
DRAFT
100
AcDbLine
 62
7
  6
CONTINUOUS
 10
-4.5286116689
 20
28.4167891002
 11
-11.293634339
 21
28.4167891002
  0
LINE
  5
33F
100
AcDbEntity
  8
0
100
AcDbLine
 62
7
  6
CONTINUOUS
 10
-2.95
 20
29.0167891002
 11
2.95
 21
29.0167891002
  0
LINE
  5
340
100
AcDbEntity
  8
DRAFT
100
AcDbLine
 62
7
  6
CONTINUOUS
 10
-4.45
 20
29.9167891002
 11
4.45
 21
29.9167891002
  0
LINE
  5
341
100
AcDbEntity
  8
RACCORDO
100
AcDbLine
 62
253
  6
CONTINUOUS
 10
13.25
 20
34.468255938
 11
-13.25
 21
34.468255938
  0
LINE
  5
342
100
AcDbEntity
  8
RACCORDO
100
AcDbLine
 62
253
  6
CONTINUOUS
 10
13.25
 20
35.9673421785
 11
-13.25
 21
35.9673421785
  0
LINE
  5
343
100
AcDbEntity
  8
RACCORDO
100
AcDbLine
 62
7
  6
CONTINUOUS
 10
-5.3529336756
 20
36.5104421815
 11
5.3529336756
 21
36.5104421815
  0
LINE
  5
344
100
AcDbEntity
  8
RACCORDO
100
AcDbLine
 62
7
  6
CONTINUOUS
 10
8.4063469186
 20
36.6667891002
 11
-8.4063469186
 21
36.6667891002
  0
LINE
  5
345
100
AcDbEntity
  8
RACCORDO
100
AcDbLine
 62
7
  6
CONTINUOUS
 10
11.6950702573
 20
37.5231444968
 11
10.0352533351
 21
37.5231444968
  0
LINE
  5
346
100
AcDbEntity
  8
RACCORDO
100
AcDbLine
 62
7
  6
CONTINUOUS
 10
-10.0352533351
 20
37.5231444968
 11
-11.6950702573
 21
37.5231444968
  0
LINE
  5
347
100
AcDbEntity
  8
COPY-PUBBLISH
100
AcDbLine
 62
7
  6
CONTINUOUS
 10
-13.25
 20
37.7675898832
 11
-11.7561583319
 21
37.7675898832
  0
LINE
  5
348
100
AcDbEntity
  8
COPY-PUBBLISH
100
AcDbLine
 62
7
  6
CONTINUOUS
 10
11.7561583319
 20
37.7675898832
 11
13.25
 21
37.7675898832
  0
LINE
  5
349
100
AcDbEntity
  8
RACCORDO
100
AcDbLine
 62
7
  6
CONTINUOUS
 10
-71.8679597653
 20
-36.6337639781
 11
-39.3994339678
 21
-37.7675898832
  0
LINE
  5
34A
100
AcDbEntity
  8
COPY-PUBBLISH
100
AcDbLine
 62
7
  6
CONTINUOUS
 10
-76.0159945202
 20
24.4060131002
 11
-75.0000275202
 21
25.0478001002
  0
LINE
  5
34B
100
AcDbEntity
  8
COPY-PUBBLISH
100
AcDbLine
 62
7
  6
CONTINUOUS
 10
-75.1988755202
 20
25.1615251002
 11
-76.0159945202
 21
24.6736191002
  0
LINE
  5
34C
100
AcDbEntity
  8
RACCORDO
100
AcDbLine
 62
7
  6
CONTINUOUS
 10
-41.5632612752
 20
-29.474394431
 11
-39.3755244496
 21
-29.3979969776
  0
LINE
  5
34D
100
AcDbEntity
  8
COPY-PUBBLISH
100
AcDbLine
 62
7
  6
CONTINUOUS
 10
-74.3156105202
 20
23.0253531002
 11
-76.0159945202
 21
22.4095151002
  0
LINE
  5
34E
100
AcDbEntity
  8
COPY-PUBBLISH
100
AcDbLine
 62
7
  6
CONTINUOUS
 10
-74.8105305202
 20
22.6061081002
 11
-74.3156105202
 21
22.7742491002
  0
LINE
  5
34F
100
AcDbEntity
  8
COPY-PUBBLISH
100
AcDbLine
 62
7
  6
CONTINUOUS
 10
-75.7693565202
 20
22.2698541002
 11
-75.0141915202
 21
22.5232001002
  0
LINE
  5
350
100
AcDbEntity
  8
RACCORDO
100
AcDbLine
 62
7
  6
CONTINUOUS
 10
-48.348643598
 20
-27.8273126628
 11
-69.7158307564
 21
-28.0137812802
  0
LINE
  5
351
100
AcDbEntity
  8
DRAFT
100
AcDbLine
 62
7
  6
CONTINUOUS
 10
-39.3156105202
 20
-25.5832108998
 11
-38.3156105202
 21
-25.5832108998
  0
LINE
  5
352
100
AcDbEntity
  8
RACCORDO
100
AcDbLine
 62
7
  6
CONTINUOUS
 10
-39.3156105202
 20
-25.5832108998
 11
-41.6156105202
 21
-25.5832108998
  0
LINE
  5
353
100
AcDbEntity
  8
COPY-PUBBLISH
100
AcDbLine
 62
7
  6
CONTINUOUS
 10
-84.3156105202
 20
34.468255938
 11
-84.3156105202
 21
-22.6346777376
  0
LINE
  5
354
100
AcDbEntity
  8
COPY-PUBBLISH
100
AcDbLine
 62
7
  6
CONTINUOUS
 10
-75.6965265202
 20
17.4053381002
 11
-74.3156105202
 21
18.2745081002
  0
LINE
  5
355
100
AcDbEntity
  8
COPY-PUBBLISH
100
AcDbLine
 62
7
  6
CONTINUOUS
 10
-74.6347995202
 20
18.3100421002
 11
-76.0159945202
 21
17.4550371002
  0
LINE
  5
356
100
AcDbEntity
  8
RACCORDO
100
AcDbLine
 62
7
  6
CONTINUOUS
 10
-37.3156105202
 20
-24.8332108998
 11
-37.7656105202
 21
-24.8332108998
  0
LINE
  5
357
100
AcDbEntity
  8
RACCORDO
100
AcDbLine
 62
253
  6
CONTINUOUS
 10
-37.3156105202
 20
-24.5332108998
 11
-38.0656105202
 21
-24.5332108998
  0
LINE
  5
358
100
AcDbEntity
  8
RACCORDO
100
AcDbLine
 62
7
  6
CONTINUOUS
 10
-82.8679597653
 20
-24.1337639781
 11
-48.316087368
 21
-25.3403419496
  0
LINE
  5
359
100
AcDbEntity
  8
DRAFT
100
AcDbLine
 62
7
  6
CONTINUOUS
 10
-39.3156105202
 20
-23.6546455269
 11
-38.3156105202
 21
-23.6895662964
  0
LINE
  5
35A
100
AcDbEntity
  8
COPY-PUBBLISH
100
AcDbLine
 62
7
  6
CONTINUOUS
 10
-81.4146825938
 20
-10.9839802353
 11
-80.6546815202
 21
-11.8858378998
  0
LINE
  5
35B
100
AcDbEntity
  8
COPY-PUBBLISH
100
AcDbLine
 62
7
  6
CONTINUOUS
 10
-80.2599446609
 20
-11.8858378998
 11
-80.9846830849
 21
-11.0258244164
  0
LINE
  5
35C
100
AcDbEntity
  8
COPY-PUBBLISH
100
AcDbLine
 62
7
  6
CONTINUOUS
 10
-81.7974115202
 20
-11.6115908998
 11
-81.7974115202
 21
-12.5026158998
  0
LINE
  5
35D
100
AcDbEntity
  8
COPY-PUBBLISH
100
AcDbLine
 62
7
  6
CONTINUOUS
 10
-81.4742165202
 20
-12.5026158998
 11
-81.4742165202
 21
-12.2282588998
  0
LINE
  5
35E
100
AcDbEntity
  8
COPY-PUBBLISH
100
AcDbLine
 62
7
  6
CONTINUOUS
 10
-81.4742165202
 20
-11.8858378998
 11
-81.4742165202
 21
-11.6115908998
  0
LINE
  5
35F
100
AcDbEntity
  8
COPY-PUBBLISH
100
AcDbLine
 62
7
  6
CONTINUOUS
 10
-81.2386505202
 20
25.5119011002
 11
-81.2386505202
 21
24.0513969882
  0
LINE
  5
360
100
AcDbEntity
  8
COPY-PUBBLISH
100
AcDbLine
 62
7
  6
CONTINUOUS
 10
-80.4886505202
 20
24.0514001002
 11
-80.4886505202
 21
25.5119011002
  0
LINE
  5
361
100
AcDbEntity
  8
COPY-PUBBLISH
100
AcDbLine
 62
7
  6
CONTINUOUS
 10
-79.1906345202
 20
-11.6010938998
 11
-79.1906345202
 21
-11.8858378998
  0
LINE
  5
362
100
AcDbEntity
  8
COPY-PUBBLISH
100
AcDbLine
 62
7
  6
CONTINUOUS
 10
-79.1906345202
 20
-12.2282588998
 11
-79.1906345202
 21
-12.5131118998
  0
LINE
  5
363
100
AcDbEntity
  8
COPY-PUBBLISH
100
AcDbLine
 62
7
  6
CONTINUOUS
 10
-79.0137545868
 20
-12.8033594237
 11
-79.2773666768
 21
-12.655401812
  0
LINE
  5
364
100
AcDbEntity
  8
COPY-PUBBLISH
100
AcDbLine
 62
7
  6
CONTINUOUS
 10
-77.8486845202
 20
-10.8951468998
 11
-78.0864675202
 21
-10.7274168998
  0
LINE
  5
365
100
AcDbEntity
  8
COPY-PUBBLISH
100
AcDbLine
 62
7
  6
CONTINUOUS
 10
-78.8692075202
 20
-12.5131118998
 11
-78.8692075202
 21
-11.6010938998
  0
LINE
  5
366
100
AcDbEntity
  8
COPY-PUBBLISH
100
AcDbLine
 62
7
  6
CONTINUOUS
 10
-76.0159945202
 20
25.9193751002
 11
-76.0159945202
 21
25.6492941002
  0
LINE
  5
367
100
AcDbEntity
  8
COPY-PUBBLISH
100
AcDbLine
 62
7
  6
CONTINUOUS
 10
-76.0159945202
 20
24.6736191002
 11
-76.0159945202
 21
24.4060131002
  0
LINE
  5
368
100
AcDbEntity
  8
COPY-PUBBLISH
100
AcDbLine
 62
7
  6
CONTINUOUS
 10
-76.0159945202
 20
23.4658161002
 11
-76.0159945202
 21
23.2360271002
  0
LINE
  5
369
100
AcDbEntity
  8
COPY-PUBBLISH
100
AcDbLine
 62
7
  6
CONTINUOUS
 10
-76.0159945202
 20
22.4095151002
 11
-76.0159945202
 21
22.1490461002
  0
LINE
  5
36A
100
AcDbEntity
  8
COPY-PUBBLISH
100
AcDbLine
 62
7
  6
CONTINUOUS
 10
-76.0159945202
 20
21.4432601002
 11
-76.0159945202
 21
20.0625591002
  0
LINE
  5
36B
100
AcDbEntity
  8
COPY-PUBBLISH
100
AcDbLine
 62
7
  6
CONTINUOUS
 10
-76.0159945202
 20
19.8162541002
 11
-76.0159945202
 21
19.5864781002
  0
LINE
  5
36C
100
AcDbEntity
  8
COPY-PUBBLISH
100
AcDbLine
 62
7
  6
CONTINUOUS
 10
-76.0159945202
 20
18.5326391002
 11
-76.0159945202
 21
18.3100421002
  0
LINE
  5
36D
100
AcDbEntity
  8
COPY-PUBBLISH
100
AcDbLine
 62
7
  6
CONTINUOUS
 10
-76.0159945202
 20
17.4550371002
 11
-76.0159945202
 21
17.1826311002
  0
LINE
  5
36E
100
AcDbEntity
  8
COPY-PUBBLISH
100
AcDbLine
 62
7
  6
CONTINUOUS
 10
-76.0159945202
 20
16.7895561002
 11
-76.0159945202
 21
16.5598491002
  0
LINE
  5
36F
100
AcDbEntity
  8
COPY-PUBBLISH
100
AcDbLine
 62
7
  6
CONTINUOUS
 10
-76.0159945202
 20
15.5485431002
 11
-76.0159945202
 21
14.3098961002
  0
LINE
  5
370
100
AcDbEntity
  8
COPY-PUBBLISH
100
AcDbLine
 62
7
  6
CONTINUOUS
 10
-76.0159945202
 20
13.3970425219
 11
-76.0159945202
 21
12.5881281002
  0
LINE
  5
371
100
AcDbEntity
  8
COPY-PUBBLISH
100
AcDbLine
 62
7
  6
CONTINUOUS
 10
-76.0159945202
 20
11.7498171002
 11
-76.0159945202
 21
11.4892661002
  0
LINE
  5
372
100
AcDbEntity
  8
COPY-PUBBLISH
100
AcDbLine
 62
7
  6
CONTINUOUS
 10
-76.0159945202
 20
10.6508721002
 11
-76.0159945202
 21
10.3216751002
  0
LINE
  5
373
100
AcDbEntity
  8
COPY-PUBBLISH
100
AcDbLine
 62
7
  6
CONTINUOUS
 10
-76.0159945202
 20
9.3459871002
 11
-76.0159945202
 21
9.0167891002
  0
LINE
  5
374
100
AcDbEntity
  8
COPY-PUBBLISH
100
AcDbLine
 62
7
  6
CONTINUOUS
 10
-75.8194845202
 20
12.8179171002
 11
-75.8194845202
 21
13.2587121002
  0
LINE
  5
375
100
AcDbEntity
  8
COPY-PUBBLISH
100
AcDbLine
 62
7
  6
CONTINUOUS
 10
-75.8123335202
 20
14.5396711002
 11
-75.8123335202
 21
15.5485431002
  0
LINE
  5
376
100
AcDbEntity
  8
COPY-PUBBLISH
100
AcDbLine
 62
7
  6
CONTINUOUS
 10
-75.8123335202
 20
20.0625591002
 11
-75.8123335202
 21
20.6380631002
  0
LINE
  5
377
100
AcDbEntity
  8
COPY-PUBBLISH
100
AcDbLine
 62
7
  6
CONTINUOUS
 10
-75.8123335202
 20
20.8677551002
 11
-75.8123335202
 21
21.4432601002
  0
LINE
  5
378
100
AcDbEntity
  8
COPY-PUBBLISH
100
AcDbLine
 62
7
  6
CONTINUOUS
 10
-74.3156105202
 20
12.3655311002
 11
-76.0159945202
 21
11.7498171002
  0
LINE
  5
379
100
AcDbEntity
  8
COPY-PUBBLISH
100
AcDbLine
 62
7
  6
CONTINUOUS
 10
-74.8105305202
 20
11.9463411002
 11
-74.3156105202
 21
12.1144681002
  0
LINE
  5
37A
100
AcDbEntity
  8
COPY-PUBBLISH
100
AcDbLine
 62
7
  6
CONTINUOUS
 10
-75.7693565202
 20
11.6101841002
 11
-75.0141915202
 21
11.8635151002
  0
LINE
  5
37B
100
AcDbEntity
  8
COPY-PUBBLISH
100
AcDbLine
 62
7
  6
CONTINUOUS
 10
-87.4723549655
 20
-16.0827729337
 11
-84.3156105202
 21
-16.2482108998
  0
LINE
  5
37C
100
AcDbEntity
  8
COPY-PUBBLISH
100
AcDbLine
 62
253
  6
CONTINUOUS
 10
-87.4549131906
 20
-15.5834581663
 11
-84.3156105202
 21
-15.7479820477
  0
LINE
  5
37D
100
AcDbEntity
  8
COPY-PUBBLISH
100
AcDbLine
 62
7
  6
CONTINUOUS
 10
-75.2912855202
 20
15.4703931002
 11
-75.2912855202
 21
14.5396711002
  0
LINE
  5
37E
100
AcDbEntity
  8
COPY-PUBBLISH
100
AcDbLine
 62
7
  6
CONTINUOUS
 10
-75.0876245202
 20
14.5396711002
 11
-75.0876245202
 21
15.4703931002
  0
LINE
  5
37F
100
AcDbEntity
  8
COPY-PUBBLISH
100
AcDbLine
 62
7
  6
CONTINUOUS
 10
-75.0141915202
 20
22.5232001002
 11
-75.0141915202
 21
21.9950701002
  0
LINE
  5
380
100
AcDbEntity
  8
COPY-PUBBLISH
100
AcDbLine
 62
7
  6
CONTINUOUS
 10
-75.0141915202
 20
11.8635151002
 11
-75.0141915202
 21
11.3353851002
  0
LINE
  5
381
100
AcDbEntity
  8
COPY-PUBBLISH
100
AcDbLine
 62
7
  6
CONTINUOUS
 10
-74.8105305202
 20
11.2643171002
 11
-74.8105305202
 21
11.9463411002
  0
LINE
  5
382
100
AcDbEntity
  8
COPY-PUBBLISH
100
AcDbLine
 62
7
  6
CONTINUOUS
 10
-74.8105305202
 20
21.9240151002
 11
-74.8105305202
 21
22.6061081002
  0
LINE
  5
383
100
AcDbEntity
  8
COPY-PUBBLISH
100
AcDbLine
 62
7
  6
CONTINUOUS
 10
-74.5192715202
 20
24.3279041002
 11
-74.5192715202
 21
23.4658161002
  0
LINE
  5
384
100
AcDbEntity
  8
COPY-PUBBLISH
100
AcDbLine
 62
7
  6
CONTINUOUS
 10
-74.5192715202
 20
15.5651411002
 11
-74.5192715202
 21
14.5396711002
  0
LINE
  5
385
100
AcDbEntity
  8
COPY-PUBBLISH
100
AcDbLine
 62
7
  6
CONTINUOUS
 10
-74.5121205202
 20
13.2587121002
 11
-74.5121205202
 21
12.8179171002
  0
LINE
  5
386
100
AcDbEntity
  8
COPY-PUBBLISH
100
AcDbLine
 62
7
  6
CONTINUOUS
 10
-74.3156105202
 20
9.0167891002
 11
-74.3156105202
 21
9.2393921002
  0
LINE
  5
387
100
AcDbEntity
  8
COPY-PUBBLISH
100
AcDbLine
 62
7
  6
CONTINUOUS
 10
-74.3156105202
 20
9.7178151002
 11
-74.3156105202
 21
9.9498471002
  0
LINE
  5
388
100
AcDbEntity
  8
COPY-PUBBLISH
100
AcDbLine
 62
7
  6
CONTINUOUS
 10
-74.3156105202
 20
10.4282691002
 11
-74.3156105202
 21
10.6508721002
  0
LINE
  5
389
100
AcDbEntity
  8
COPY-PUBBLISH
100
AcDbLine
 62
7
  6
CONTINUOUS
 10
-74.3156105202
 20
10.8498721002
 11
-74.3156105202
 21
11.0866741002
  0
LINE
  5
38A
100
AcDbEntity
  8
COPY-PUBBLISH
100
AcDbLine
 62
7
  6
CONTINUOUS
 10
-74.3156105202
 20
12.1144681002
 11
-74.3156105202
 21
12.3655311002
  0
LINE
  5
38B
100
AcDbEntity
  8
COPY-PUBBLISH
100
AcDbLine
 62
7
  6
CONTINUOUS
 10
-74.3156105202
 20
12.5881281002
 11
-74.3156105202
 21
13.2878761002
  0
LINE
  5
38C
100
AcDbEntity
  8
COPY-PUBBLISH
100
AcDbLine
 62
7
  6
CONTINUOUS
 10
-74.3156105202
 20
14.3098961002
 11
-74.3156105202
 21
15.5651411002
  0
LINE
  5
38D
100
AcDbEntity
  8
COPY-PUBBLISH
100
AcDbLine
 62
7
  6
CONTINUOUS
 10
-74.3156105202
 20
16.5598491002
 11
-74.3156105202
 21
16.7895561002
  0
LINE
  5
38E
100
AcDbEntity
  8
COPY-PUBBLISH
100
AcDbLine
 62
7
  6
CONTINUOUS
 10
-74.3156105202
 20
17.1826311002
 11
-74.3156105202
 21
17.4053381002
  0
LINE
  5
38F
100
AcDbEntity
  8
COPY-PUBBLISH
100
AcDbLine
 62
7
  6
CONTINUOUS
 10
-74.3156105202
 20
18.2745081002
 11
-74.3156105202
 21
18.5326391002
  0
LINE
  5
390
100
AcDbEntity
  8
COPY-PUBBLISH
100
AcDbLine
 62
7
  6
CONTINUOUS
 10
-74.3156105202
 20
19.5864781002
 11
-74.3156105202
 21
19.8162541002
  0
LINE
  5
391
100
AcDbEntity
  8
COPY-PUBBLISH
100
AcDbLine
 62
7
  6
CONTINUOUS
 10
-74.3156105202
 20
20.6380631002
 11
-74.3156105202
 21
20.8677551002
  0
LINE
  5
392
100
AcDbEntity
  8
COPY-PUBBLISH
100
AcDbLine
 62
7
  6
CONTINUOUS
 10
-74.3156105202
 20
21.5095701002
 11
-74.3156105202
 21
21.7463581002
  0
LINE
  5
393
100
AcDbEntity
  8
COPY-PUBBLISH
100
AcDbLine
 62
7
  6
CONTINUOUS
 10
-74.3156105202
 20
22.7742491002
 11
-74.3156105202
 21
23.0253531002
  0
LINE
  5
394
100
AcDbEntity
  8
COPY-PUBBLISH
100
AcDbLine
 62
7
  6
CONTINUOUS
 10
-74.3156105202
 20
23.2360271002
 11
-74.3156105202
 21
24.3279041002
  0
LINE
  5
395
100
AcDbEntity
  8
COPY-PUBBLISH
100
AcDbLine
 62
7
  6
CONTINUOUS
 10
-74.3156105202
 20
25.0478001002
 11
-74.3156105202
 21
25.2774511002
  0
LINE
  5
396
100
AcDbEntity
  8
RACCORDO
100
AcDbLine
 62
7
  6
CONTINUOUS
 10
-73.3156105202
 20
-32.031744062
 11
-73.3156105202
 21
-35.1346777376
  0
LINE
  5
397
100
AcDbEntity
  8
COPY-PUBBLISH
100
AcDbLine
 62
7
  6
CONTINUOUS
 10
-74.5714875202
 20
9.8338311002
 11
-76.0159945202
 21
9.3459871002
  0
LINE
  5
398
100
AcDbEntity
  8
COPY-PUBBLISH
100
AcDbLine
 62
7
  6
CONTINUOUS
 10
-75.7413755202
 20
9.2393921002
 11
-74.3156105202
 21
9.7178151002
  0
LINE
  5
399
100
AcDbEntity
  8
COPY-PUBBLISH
100
AcDbLine
 62
253
  6
CONTINUOUS
 10
-88.4017311771
 20
-14.6259552469
 11
-88.8925283132
 21
-14.6465163463
  0
LINE
  5
39A
100
AcDbEntity
  8
COPY-PUBBLISH
100
AcDbLine
 62
7
  6
CONTINUOUS
 10
-79.1906345202
 20
-12.5131118998
 11
-78.8692075202
 21
-12.5131118998
  0
LINE
  5
39B
100
AcDbEntity
  8
COPY-PUBBLISH
100
AcDbLine
 62
7
  6
CONTINUOUS
 10
-81.7974115202
 20
-12.5026158998
 11
-81.4742165202
 21
-12.5026158998
  0
LINE
  5
39C
100
AcDbEntity
  8
COPY-PUBBLISH
100
AcDbLine
 62
7
  6
CONTINUOUS
 10
-70.3156105202
 20
16.2167891002
 11
-70.3156105202
 21
-4.3832108998
  0
LINE
  5
39D
100
AcDbEntity
  8
DRAFT
100
AcDbLine
 62
7
  6
CONTINUOUS
 10
-70.1552621575
 20
16.2167891002
 11
-70.1552621575
 21
-4.3832108998
  0
LINE
  5
39E
100
AcDbEntity
  8
COPY-PUBBLISH
100
AcDbLine
 62
7
  6
CONTINUOUS
 10
-81.4742165202
 20
-12.2282588998
 11
-80.6546815202
 21
-12.2282588998
  0
LINE
  5
39F
100
AcDbEntity
  8
COPY-PUBBLISH
100
AcDbLine
 62
7
  6
CONTINUOUS
 10
-80.2563505202
 20
-12.2282588998
 11
-79.1906345202
 21
-12.2282588998
  0
LINE
  5
3A0
100
AcDbEntity
  8
COPY-PUBBLISH
100
AcDbLine
 62
7
  6
CONTINUOUS
 10
-79.1906345202
 20
-11.8858378998
 11
-80.2599446609
 21
-11.8858378998
  0
LINE
  5
3A1
100
AcDbEntity
  8
COPY-PUBBLISH
100
AcDbLine
 62
7
  6
CONTINUOUS
 10
-80.6546815202
 20
-11.8858378998
 11
-81.4742165202
 21
-11.8858378998
  0
LINE
  5
3A2
100
AcDbEntity
  8
COPY-PUBBLISH
100
AcDbLine
 62
7
  6
CONTINUOUS
 10
-81.4742165202
 20
-11.6115908998
 11
-81.7974115202
 21
-11.6115908998
  0
LINE
  5
3A3
100
AcDbEntity
  8
COPY-PUBBLISH
100
AcDbLine
 62
7
  6
CONTINUOUS
 10
-78.8692075202
 20
-11.6010938998
 11
-79.1906345202
 21
-11.6010938998
  0
LINE
  5
3A4
100
AcDbEntity
  8
COPY-PUBBLISH
100
AcDbLine
 62
7
  6
CONTINUOUS
 10
-37.0156105202
 20
-11.5832108998
 11
-35.3156105202
 21
-11.5832108998
  0
LINE
  5
3A5
100
AcDbEntity
  8
COPY-PUBBLISH
100
AcDbLine
 62
7
  6
CONTINUOUS
 10
-63.3156105202
 20
-11.3832108998
 11
-52.3156105202
 21
-11.3832108998
  0
LINE
  5
3A6
100
AcDbEntity
  8
COPY-PUBBLISH
100
AcDbLine
 62
7
  6
CONTINUOUS
 10
-33.8156105202
 20
-9.9832108998
 11
-34.9462214144
 21
-9.9832108998
  0
LINE
  5
3A7
100
AcDbEntity
  8
COPY-PUBBLISH
100
AcDbLine
 62
7
  6
CONTINUOUS
 10
-36.3156105202
 20
-9.9832108998
 11
-39.0156105202
 21
-9.9832108998
  0
LINE
  5
3A8
100
AcDbEntity
  8
DRAFT
100
AcDbLine
 62
7
  6
CONTINUOUS
 10
-63.3156105202
 20
-11.2280846248
 11
-52.3156105202
 21
-11.2364831468
  0
LINE
  5
3A9
100
AcDbEntity
  8
COPY-PUBBLISH
100
AcDbLine
 62
7
  6
CONTINUOUS
 10
-80.6546815202
 20
-12.2282588998
 11
-81.4166325202
 21
-13.1324298998
  0
LINE
  5
3AA
100
AcDbEntity
  8
COPY-PUBBLISH
100
AcDbLine
 62
7
  6
CONTINUOUS
 10
-80.9846835202
 20
-13.0925368998
 11
-80.2563505202
 21
-12.2282588998
  0
LINE
  5
3AB
100
AcDbEntity
  8
COPY-PUBBLISH
100
AcDbLine
 62
253
  6
CONTINUOUS
 10
-63.3156105202
 20
23.2167891002
 11
-63.3156105202
 21
23.0616628251
  0
LINE
  5
3AC
100
AcDbEntity
  8
COPY-PUBBLISH
100
AcDbLine
 62
253
  6
CONTINUOUS
 10
-63.3156105202
 20
-11.3832108998
 11
-63.3156105202
 21
-11.2280846248
  0
LINE
  5
3AD
100
AcDbEntity
  8
COPY-PUBBLISH
100
AcDbLine
 62
253
  6
CONTINUOUS
 10
-70.3156105202
 20
-4.3832108998
 11
-70.1552621575
 21
-4.3832108998
  0
LINE
  5
3AE
100
AcDbEntity
  8
COPY-PUBBLISH
100
AcDbLine
 62
253
  6
CONTINUOUS
 10
-45.3156105202
 20
-4.3832108998
 11
-45.4571017882
 21
-4.3832108998
  0
LINE
  5
3AF
100
AcDbEntity
  8
COPY-PUBBLISH
100
AcDbLine
 62
7
  6
CONTINUOUS
 10
-36.0156105202
 20
-0.0832108998
 11
-34.6156105202
 21
-0.0832108998
  0
LINE
  5
3B0
100
AcDbEntity
  8
COPY-PUBBLISH
100
AcDbLine
 62
7
  6
CONTINUOUS
 10
-79.2773665202
 20
-11.4629598998
 11
-79.0137555202
 21
-11.3150028998
  0
LINE
  5
3B1
100
AcDbEntity
  8
COPY-PUBBLISH
100
AcDbLine
 62
7
  6
CONTINUOUS
 10
-38.0156105202
 20
1.9167891002
 11
-36.6156105202
 21
1.9167891002
  0
LINE
  5
3B2
100
AcDbEntity
  8
RACCORDO
100
AcDbLine
 62
7
  6
CONTINUOUS
 10
-36.8656105202
 20
2.1667891002
 11
-37.7656105202
 21
2.1667891002
  0
LINE
  5
3B3
100
AcDbEntity
  8
RACCORDO
100
AcDbLine
 62
253
  6
CONTINUOUS
 10
-36.5656105202
 20
2.4667891002
 11
-38.0656105202
 21
2.4667891002
  0
LINE
  5
3B4
100
AcDbEntity
  8
COPY-PUBBLISH
100
AcDbLine
 62
7
  6
CONTINUOUS
 10
-74.3156105202
 20
9.9498471002
 11
-75.7413755202
 21
10.4282691002
  0
LINE
  5
3B5
100
AcDbEntity
  8
COPY-PUBBLISH
100
AcDbLine
 62
7
  6
CONTINUOUS
 10
-76.0159945202
 20
10.3216751002
 11
-74.5714875202
 21
9.8338311002
  0
LINE
  5
3B6
100
AcDbEntity
  8
COPY-PUBBLISH
100
AcDbLine
 62
7
  6
CONTINUOUS
 10
-74.3156105202
 20
11.0866741002
 11
-74.8105305202
 21
11.2643171002
  0
LINE
  5
3B7
100
AcDbEntity
  8
COPY-PUBBLISH
100
AcDbLine
 62
7
  6
CONTINUOUS
 10
-75.0141915202
 20
11.3353851002
 11
-75.7693565202
 21
11.6101841002
  0
LINE
  5
3B8
100
AcDbEntity
  8
COPY-PUBBLISH
100
AcDbLine
 62
7
  6
CONTINUOUS
 10
-76.0159945202
 20
11.4892661002
 11
-74.3156105202
 21
10.8498721002
  0
LINE
  5
3B9
100
AcDbEntity
  8
COPY-PUBBLISH
100
AcDbLine
 62
7
  6
CONTINUOUS
 10
-33.8156105202
 20
-9.9832108998
 11
-31.3156105202
 21
-11.4265865728
  0
LINE
  5
3BA
100
AcDbEntity
  8
COPY-PUBBLISH
100
AcDbLine
 62
253
  6
CONTINUOUS
 10
-52.3156105202
 20
23.2167891002
 11
-52.3156105202
 21
23.0700613471
  0
LINE
  5
3BB
100
AcDbEntity
  8
COPY-PUBBLISH
100
AcDbLine
 62
253
  6
CONTINUOUS
 10
-52.3156105202
 20
-11.3832108998
 11
-52.3156105202
 21
-11.2364831468
  0
LINE
  5
3BC
100
AcDbEntity
  8
COPY-PUBBLISH
100
AcDbLine
 62
7
  6
CONTINUOUS
 10
-76.0159945202
 20
9.0167891002
 11
-74.3156105202
 21
9.0167891002
  0
LINE
  5
3BD
100
AcDbEntity
  8
COPY-PUBBLISH
100
AcDbLine
 62
7
  6
CONTINUOUS
 10
-74.3156105202
 20
9.2393921002
 11
-75.7413755202
 21
9.2393921002
  0
LINE
  5
3BE
100
AcDbEntity
  8
RACCORDO
100
AcDbLine
 62
253
  6
CONTINUOUS
 10
-36.5656105202
 20
9.3667891002
 11
-38.0656105202
 21
9.3667891002
  0
LINE
  5
3BF
100
AcDbEntity
  8
RACCORDO
100
AcDbLine
 62
7
  6
CONTINUOUS
 10
-36.8656105202
 20
9.6667891002
 11
-37.7656105202
 21
9.6667891002
  0
LINE
  5
3C0
100
AcDbEntity
  8
COPY-PUBBLISH
100
AcDbLine
 62
7
  6
CONTINUOUS
 10
-36.6156105202
 20
9.9167891002
 11
-38.0156105202
 21
9.9167891002
  0
LINE
  5
3C1
100
AcDbEntity
  8
ASSI
100
AcDbLine
 62
7
  6
CONTINUOUS
 10
-70.8518076179
 20
-28.5495427503
 11
-72.9646771849
 21
-31.0675626475
  0
LINE
  5
3C2
100
AcDbEntity
  8
COPY-PUBBLISH
100
AcDbLine
 62
7
  6
CONTINUOUS
 10
-75.7413755202
 20
10.4282691002
 11
-74.3156105202
 21
10.4282691002
  0
LINE
  5
3C3
100
AcDbEntity
  8
COPY-PUBBLISH
100
AcDbLine
 62
7
  6
CONTINUOUS
 10
-74.3156105202
 20
10.6508721002
 11
-76.0159945202
 21
10.6508721002
  0
LINE
  5
3C4
100
AcDbEntity
  8
COPY-PUBBLISH
100
AcDbLine
 62
7
  6
CONTINUOUS
 10
-34.6156105202
 20
11.9167891002
 11
-36.0156105202
 21
11.9167891002
  0
LINE
  5
3C5
100
AcDbEntity
  8
COPY-PUBBLISH
100
AcDbLine
 62
7
  6
CONTINUOUS
 10
-76.0159945202
 20
12.5881281002
 11
-74.3156105202
 21
12.5881281002
  0
LINE
  5
3C6
100
AcDbEntity
  8
COPY-PUBBLISH
100
AcDbLine
 62
7
  6
CONTINUOUS
 10
-74.5121205202
 20
12.8179171002
 11
-75.8194845202
 21
12.8179171002
  0
LINE
  5
3C7
100
AcDbEntity
  8
DRAFT
100
AcDbLine
 62
7
  6
CONTINUOUS
 10
-45.4571017882
 20
-4.3832108998
 11
-45.4571017882
 21
16.2167891002
  0
LINE
  5
3C8
100
AcDbEntity
  8
COPY-PUBBLISH
100
AcDbLine
 62
7
  6
CONTINUOUS
 10
-45.3156105202
 20
-4.3832108998
 11
-45.3156105202
 21
16.2167891002
  0
LINE
  5
3C9
100
AcDbEntity
  8
COPY-PUBBLISH
100
AcDbLine
 62
7
  6
CONTINUOUS
 10
-75.1778635202
 20
13.7561051002
 11
-75.1537415202
 21
13.7561051002
  0
LINE
  5
3CA
100
AcDbEntity
  8
COPY-PUBBLISH
100
AcDbLine
 62
7
  6
CONTINUOUS
 10
-75.1534595202
 20
13.9937221002
 11
-75.1781465202
 21
13.9937221002
  0
LINE
  5
3CB
100
AcDbEntity
  8
COPY-PUBBLISH
100
AcDbLine
 62
7
  6
CONTINUOUS
 10
-76.0159945202
 20
14.3098961002
 11
-74.3156105202
 21
14.3098961002
  0
LINE
  5
3CC
100
AcDbEntity
  8
COPY-PUBBLISH
100
AcDbLine
 62
7
  6
CONTINUOUS
 10
-74.5192715202
 20
14.5396711002
 11
-75.0876245202
 21
14.5396711002
  0
LINE
  5
3CD
100
AcDbEntity
  8
COPY-PUBBLISH
100
AcDbLine
 62
7
  6
CONTINUOUS
 10
-75.2912855202
 20
14.5396711002
 11
-75.8123335202
 21
14.5396711002
  0
LINE
  5
3CE
100
AcDbEntity
  8
COPY-PUBBLISH
100
AcDbLine
 62
7
  6
CONTINUOUS
 10
-75.0876245202
 20
15.4703931002
 11
-75.2912855202
 21
15.4703931002
  0
LINE
  5
3CF
100
AcDbEntity
  8
COPY-PUBBLISH
100
AcDbLine
 62
7
  6
CONTINUOUS
 10
-75.8123335202
 20
15.5485431002
 11
-76.0159945202
 21
15.5485431002
  0
LINE
  5
3D0
100
AcDbEntity
  8
COPY-PUBBLISH
100
AcDbLine
 62
7
  6
CONTINUOUS
 10
-74.3156105202
 20
15.5651411002
 11
-74.5192715202
 21
15.5651411002
  0
LINE
  5
3D1
100
AcDbEntity
  8
COPY-PUBBLISH
100
AcDbLine
 62
253
  6
CONTINUOUS
 10
-70.3156105202
 20
16.2167891002
 11
-70.1552621575
 21
16.2167891002
  0
LINE
  5
3D2
100
AcDbEntity
  8
COPY-PUBBLISH
100
AcDbLine
 62
253
  6
CONTINUOUS
 10
-45.3156105202
 20
16.2167891002
 11
-45.4571017882
 21
16.2167891002
  0
LINE
  5
3D3
100
AcDbEntity
  8
COPY-PUBBLISH
100
AcDbLine
 62
7
  6
CONTINUOUS
 10
-74.3156105202
 20
21.7463581002
 11
-74.8105305202
 21
21.9240151002
  0
LINE
  5
3D4
100
AcDbEntity
  8
COPY-PUBBLISH
100
AcDbLine
 62
7
  6
CONTINUOUS
 10
-75.0141915202
 20
21.9950701002
 11
-75.7693565202
 21
22.2698541002
  0
LINE
  5
3D5
100
AcDbEntity
  8
COPY-PUBBLISH
100
AcDbLine
 62
7
  6
CONTINUOUS
 10
-76.0159945202
 20
22.1490461002
 11
-74.3156105202
 21
21.5095701002
  0
LINE
  5
3D6
100
AcDbEntity
  8
COPY-PUBBLISH
100
AcDbLine
 62
7
  6
CONTINUOUS
 10
-76.0159945202
 20
25.6492941002
 11
-75.1988755202
 21
25.1615251002
  0
LINE
  5
3D7
100
AcDbEntity
  8
COPY-PUBBLISH
100
AcDbLine
 62
7
  6
CONTINUOUS
 10
-75.0000275202
 20
25.2774511002
 11
-76.0159945202
 21
25.9193751002
  0
LINE
  5
3D8
100
AcDbEntity
  8
RACCORDO
100
AcDbLine
 62
7
  6
CONTINUOUS
 10
-43.1156105202
 20
-27.0832108998
 11
-43.1156105202
 21
-27.9753081905
  0
LINE
  5
3D9
100
AcDbEntity
  8
COPY-PUBBLISH
100
AcDbLine
 62
7
  6
CONTINUOUS
 10
-76.0159945202
 20
16.5598491002
 11
-74.3156105202
 21
16.5598491002
  0
LINE
  5
3DA
100
AcDbEntity
  8
COPY-PUBBLISH
100
AcDbLine
 62
7
  6
CONTINUOUS
 10
-74.3156105202
 20
16.7895561002
 11
-76.0159945202
 21
16.7895561002
  0
LINE
  5
3DB
100
AcDbEntity
  8
COPY-PUBBLISH
100
AcDbLine
 62
7
  6
CONTINUOUS
 10
-76.0159945202
 20
17.1826311002
 11
-74.3156105202
 21
17.1826311002
  0
LINE
  5
3DC
100
AcDbEntity
  8
COPY-PUBBLISH
100
AcDbLine
 62
7
  6
CONTINUOUS
 10
-74.3156105202
 20
17.4053381002
 11
-75.6965265202
 21
17.4053381002
  0
LINE
  5
3DD
100
AcDbEntity
  8
COPY-PUBBLISH
100
AcDbLine
 62
7
  6
CONTINUOUS
 10
-76.0159945202
 20
18.3100421002
 11
-74.6347995202
 21
18.3100421002
  0
LINE
  5
3DE
100
AcDbEntity
  8
COPY-PUBBLISH
100
AcDbLine
 62
7
  6
CONTINUOUS
 10
-74.3156105202
 20
18.5326391002
 11
-76.0159945202
 21
18.5326391002
  0
LINE
  5
3DF
100
AcDbEntity
  8
COPY-PUBBLISH
100
AcDbLine
 62
7
  6
CONTINUOUS
 10
-39.3156105202
 20
-10.2832108998
 11
-39.3156105202
 21
-25.5832108998
  0
LINE
  5
3E0
100
AcDbEntity
  8
COPY-PUBBLISH
100
AcDbLine
 62
7
  6
CONTINUOUS
 10
-38.3156105202
 20
9.6167891002
 11
-38.3156105202
 21
2.2167891002
  0
LINE
  5
3E1
100
AcDbEntity
  8
DRAFT
100
AcDbLine
 62
7
  6
CONTINUOUS
 10
-38.3156105202
 20
-23.6895662964
 11
-38.3156105202
 21
-25.5832108998
  0
LINE
  5
3E2
100
AcDbEntity
  8
RACCORDO
100
AcDbLine
 62
7
  6
CONTINUOUS
 10
-38.0656105202
 20
-24.5332108998
 11
-38.0656105202
 21
-9.9832108998
  0
LINE
  5
3E3
100
AcDbEntity
  8
RACCORDO
100
AcDbLine
 62
7
  6
CONTINUOUS
 10
-38.0656105202
 20
1.9216600207
 11
-38.0656105202
 21
2.464414571
  0
LINE
  5
3E4
100
AcDbEntity
  8
RACCORDO
100
AcDbLine
 62
7
  6
CONTINUOUS
 10
-38.0656105202
 20
2.4667891002
 11
-38.0656105202
 21
9.9141522562
  0
LINE
  5
3E5
100
AcDbEntity
  8
RACCORDO
100
AcDbLine
 62
253
  6
CONTINUOUS
 10
-37.7656105202
 20
-24.8332108998
 11
-37.7656105202
 21
-9.9832108998
  0
LINE
  5
3E6
100
AcDbEntity
  8
RACCORDO
100
AcDbLine
 62
253
  6
CONTINUOUS
 10
-37.7656105202
 20
1.9167891002
 11
-37.7656105202
 21
9.6667891002
  0
LINE
  5
3E7
100
AcDbEntity
  8
COPY-PUBBLISH
100
AcDbLine
 62
7
  6
CONTINUOUS
 10
-76.0159945202
 20
19.5864781002
 11
-74.3156105202
 21
19.5864781002
  0
LINE
  5
3E8
100
AcDbEntity
  8
COPY-PUBBLISH
100
AcDbLine
 62
7
  6
CONTINUOUS
 10
-74.3156105202
 20
19.8162541002
 11
-76.0159945202
 21
19.8162541002
  0
LINE
  5
3E9
100
AcDbEntity
  8
COPY-PUBBLISH
100
AcDbLine
 62
7
  6
CONTINUOUS
 10
-76.0159945202
 20
20.0625591002
 11
-75.8123335202
 21
20.0625591002
  0
LINE
  5
3EA
100
AcDbEntity
  8
COPY-PUBBLISH
100
AcDbLine
 62
7
  6
CONTINUOUS
 10
-75.8123335202
 20
20.6380631002
 11
-74.3156105202
 21
20.6380631002
  0
LINE
  5
3EB
100
AcDbEntity
  8
COPY-PUBBLISH
100
AcDbLine
 62
7
  6
CONTINUOUS
 10
-74.3156105202
 20
20.8677551002
 11
-75.8123335202
 21
20.8677551002
  0
LINE
  5
3EC
100
AcDbEntity
  8
COPY-PUBBLISH
100
AcDbLine
 62
7
  6
CONTINUOUS
 10
-75.8123335202
 20
21.4432601002
 11
-76.0159945202
 21
21.4432601002
  0
LINE
  5
3ED
100
AcDbEntity
  8
COPY-PUBBLISH
100
AcDbLine
 62
7
  6
CONTINUOUS
 10
-78.3156135595
 20
21.5267911002
 11
-79.0664305202
 21
21.5267911002
  0
LINE
  5
3EE
100
AcDbEntity
  8
COPY-PUBBLISH
100
AcDbLine
 62
7
  6
CONTINUOUS
 10
-82.6608705202
 20
21.5267911002
 11
-83.411687481
 21
21.5267911002
  0
LINE
  5
3EF
100
AcDbEntity
  8
COPY-PUBBLISH
100
AcDbLine
 62
7
  6
CONTINUOUS
 10
-34.9462214144
 20
21.8167891002
 11
-31.3156105202
 21
21.8167891002
  0
LINE
  5
3F0
100
AcDbEntity
  8
COPY-PUBBLISH
100
AcDbLine
 62
7
  6
CONTINUOUS
 10
-37.3156105202
 20
-27.2695024008
 11
-37.3156105202
 21
-11.8832108998
  0
LINE
  5
3F1
100
AcDbEntity
  8
RACCORDO
100
AcDbLine
 62
253
  6
CONTINUOUS
 10
-36.8656105202
 20
9.9167891002
 11
-36.8656105202
 21
2.1667891002
  0
LINE
  5
3F2
100
AcDbEntity
  8
RACCORDO
100
AcDbLine
 62
253
  6
CONTINUOUS
 10
-36.8656105202
 20
-9.9832108998
 11
-36.8656105202
 21
-11.5832108998
  0
LINE
  5
3F3
100
AcDbEntity
  8
RACCORDO
100
AcDbLine
 62
7
  6
CONTINUOUS
 10
-36.5656105202
 20
9.9119181796
 11
-36.5656105202
 21
9.3691636293
  0
LINE
  5
3F4
100
AcDbEntity
  8
RACCORDO
100
AcDbLine
 62
7
  6
CONTINUOUS
 10
-36.5656105202
 20
9.3667891002
 11
-36.5656105202
 21
1.9194259442
  0
LINE
  5
3F5
100
AcDbEntity
  8
RACCORDO
100
AcDbLine
 62
7
  6
CONTINUOUS
 10
-36.5656105202
 20
-9.9832108998
 11
-36.5656105202
 21
-11.5832108998
  0
LINE
  5
3F6
100
AcDbEntity
  8
COPY-PUBBLISH
100
AcDbLine
 62
7
  6
CONTINUOUS
 10
-36.3156105202
 20
-9.9832108998
 11
-36.3156105202
 21
-0.3832108998
  0
LINE
  5
3F7
100
AcDbEntity
  8
COPY-PUBBLISH
100
AcDbLine
 62
7
  6
CONTINUOUS
 10
-36.3156105202
 20
2.2167891002
 11
-36.3156105202
 21
9.6167891002
  0
LINE
  5
3F8
100
AcDbEntity
  8
COPY-PUBBLISH
100
AcDbLine
 62
7
  6
CONTINUOUS
 10
-36.3156105202
 20
12.2167891002
 11
-36.3156105202
 21
23.4167891002
  0
LINE
  5
3F9
100
AcDbEntity
  8
DRAFT
100
AcDbLine
 62
7
  6
CONTINUOUS
 10
-52.3156105202
 20
23.0700613471
 11
-63.3156105202
 21
23.0616628251
  0
LINE
  5
3FA
100
AcDbEntity
  8
COPY-PUBBLISH
100
AcDbLine
 62
7
  6
CONTINUOUS
 10
-52.3156105202
 20
23.2167891002
 11
-63.3156105202
 21
23.2167891002
  0
LINE
  5
3FB
100
AcDbEntity
  8
COPY-PUBBLISH
100
AcDbLine
 62
7
  6
CONTINUOUS
 10
-76.0159945202
 20
23.2360271002
 11
-74.3156105202
 21
23.2360271002
  0
LINE
  5
3FC
100
AcDbEntity
  8
COPY-PUBBLISH
100
AcDbLine
 62
7
  6
CONTINUOUS
 10
-35.3156105202
 20
23.4167891002
 11
-36.3156105202
 21
23.4167891002
  0
LINE
  5
3FD
100
AcDbEntity
  8
COPY-PUBBLISH
100
AcDbLine
 62
7
  6
CONTINUOUS
 10
-74.5192715202
 20
23.4658161002
 11
-76.0159945202
 21
23.4658161002
  0
LINE
  5
3FE
100
AcDbEntity
  8
COPY-PUBBLISH
100
AcDbLine
 62
7
  6
CONTINUOUS
 10
-74.3156105202
 20
24.3279041002
 11
-74.5192715202
 21
24.3279041002
  0
LINE
  5
3FF
100
AcDbEntity
  8
COPY-PUBBLISH
100
AcDbLine
 62
7
  6
CONTINUOUS
 10
-75.0000275202
 20
25.0478001002
 11
-74.3156105202
 21
25.0478001002
  0
LINE
  5
400
100
AcDbEntity
  8
COPY-PUBBLISH
100
AcDbLine
 62
7
  6
CONTINUOUS
 10
-74.3156105202
 20
25.2774511002
 11
-75.0000275202
 21
25.2774511002
  0
LINE
  5
401
100
AcDbEntity
  8
COPY-PUBBLISH
100
AcDbLine
 62
7
  6
CONTINUOUS
 10
-80.4886505202
 20
25.5119011002
 11
-81.2386505202
 21
25.5119011002
  0
LINE
  5
402
100
AcDbEntity
  8
COPY-PUBBLISH
100
AcDbLine
 62
253
  6
CONTINUOUS
 10
-88.4017311772
 20
26.4595334472
 11
-88.8925819365
 21
26.4800967545
  0
LINE
  5
403
100
AcDbEntity
  8
COPY-PUBBLISH
100
AcDbLine
 62
7
  6
CONTINUOUS
 10
-34.3156105202
 20
0.2167891002
 11
-34.3156105202
 21
11.6167891002
  0
LINE
  5
404
100
AcDbEntity
  8
RACCORDO
100
AcDbLine
 62
7
  6
CONTINUOUS
 10
-31.3156105202
 20
-29.7547837751
 11
-31.3156105202
 21
-11.4265865728
  0
LINE
  5
405
100
AcDbEntity
  8
COPY-PUBBLISH
100
AcDbLine
 62
7
  6
CONTINUOUS
 10
-31.3156105202
 20
21.8167891002
 11
-31.3156105202
 21
37.7675898832
  0
LINE
  5
406
100
AcDbEntity
  8
COPY-PUBBLISH
100
AcDbLine
 62
7
  6
CONTINUOUS
 10
-35.3156105202
 20
-11.5832108998
 11
-34.9462214144
 21
-9.9832108998
  0
LINE
  5
407
100
AcDbEntity
  8
COPY-PUBBLISH
100
AcDbLine
 62
253
  6
CONTINUOUS
 10
-84.3156105202
 20
27.5815602481
 11
-87.4549131906
 21
27.4170363667
  0
LINE
  5
408
100
AcDbEntity
  8
COPY-PUBBLISH
100
AcDbLine
 62
7
  6
CONTINUOUS
 10
-78.3156134025
 20
25.9119011002
 11
-79.0664335687
 21
25.9119011002
  0
LINE
  5
409
100
AcDbEntity
  8
COPY-PUBBLISH
100
AcDbLine
 62
7
  6
CONTINUOUS
 10
-82.6608705202
 20
25.9119011002
 11
-83.411687638
 21
25.9119011002
  0
LINE
  5
40A
100
AcDbEntity
  8
COPY-PUBBLISH
100
AcDbLine
 62
7
  6
CONTINUOUS
 10
-84.3156105202
 20
28.0817891002
 11
-87.4723549647
 21
27.9163511341
  0
LINE
  5
40B
100
AcDbEntity
  8
COPY-PUBBLISH
100
AcDbLine
 62
7
  6
CONTINUOUS
 10
-34.9462214144
 20
21.8167891002
 11
-35.3156105202
 21
23.4167891002
  0
LINE
  5
40C
100
AcDbEntity
  8
RACCORDO
100
AcDbLine
 62
7
  6
CONTINUOUS
 10
-38.0311098806
 20
-28.8134288859
 11
-37.9013969579
 21
-28.6837159632
  0
LINE
  5
40D
100
AcDbEntity
  8
RACCORDO
100
AcDbLine
 62
7
  6
CONTINUOUS
 10
-31.3156105202
 20
37.7675898832
 11
-82.8679597653
 21
35.9673421785
  0
LINE
  5
40E
100
AcDbEntity
  8
RACCORDO
100
AcDbLine
 62
7
  6
CONTINUOUS
 10
-37.915421412
 20
-37.1830217916
 11
-31.9013969579
 21
-31.1689973374
  0
ARC
  5
40F
100
AcDbEntity
  8
ASSI
100
AcDbCircle
 62
7
  6
CONTINUOUS
 10
-3.761402
 20
5.9167881002
 40
2.2949984646
100
AcDbArc
 50
87.7525288774
 51
272.2474711226
  0
ARC
  5
410
100
AcDbEntity
  8
ASSI
100
AcDbCircle
 62
7
  6
CONTINUOUS
 10
-7.708001
 20
5.9167881002
 40
2.2949983861
100
AcDbArc
 50
87.7525288006
 51
272.2474711994
  0
ARC
  5
411
100
AcDbEntity
  8
ASSI
100
AcDbCircle
 62
7
  6
CONTINUOUS
 10
-7.708001
 20
5.9167881002
 40
1.6199999321
100
AcDbArc
 50
86.8152613297
 51
273.1847386703
  0
ARC
  5
412
100
AcDbEntity
  8
ASSI
100
AcDbCircle
 62
7
  6
CONTINUOUS
 10
-3.761402
 20
5.9167881002
 40
1.6199999321
100
AcDbArc
 50
86.8152613297
 51
167.9753003079
  0
ARC
  5
413
100
AcDbEntity
  8
ASSI
100
AcDbCircle
 62
7
  6
CONTINUOUS
 10
-3.761402
 20
5.9167881002
 40
1.6199972906
100
AcDbArc
 50
192.0247195925
 51
273.1847438687
  0
ARC
  5
414
100
AcDbEntity
  8
RACCORDO
100
AcDbCircle
 62
253
  6
CONTINUOUS
 10
11.7
 20
1.8667891002
 40
0.5999965469
100
AcDbArc
 50
138.6046947218
 51
180.0
  0
ARC
  5
415
100
AcDbEntity
  8
RACCORDO
100
AcDbCircle
 62
253
  6
CONTINUOUS
 10
-11.7
 20
9.9667891002
 40
0.5999965469
100
AcDbArc
 50
318.6046947218
 51
360.0
  0
ARC
  5
416
100
AcDbEntity
  8
RACCORDO
100
AcDbCircle
 62
253
  6
CONTINUOUS
 10
11.7
 20
9.9667891002
 40
0.5999957141
100
AcDbArc
 50
180.0
 51
221.3900569068
  0
ARC
  5
417
100
AcDbEntity
  8
RACCORDO
100
AcDbCircle
 62
253
  6
CONTINUOUS
 10
-11.7
 20
1.8667891002
 40
0.5999957141
100
AcDbArc
 50
0.0
 51
41.3900569068
  0
ARC
  5
418
100
AcDbEntity
  8
COPY-PUBBLISH
100
AcDbCircle
 62
253
  6
CONTINUOUS
 10
-12.6950642326
 20
27.4161692249
 40
0.5001617735
100
AcDbArc
 50
90.0246497481
 51
179.9006606009
  0
ARC
  5
419
100
AcDbEntity
  8
COPY-PUBBLISH
100
AcDbCircle
 62
253
  6
CONTINUOUS
 10
12.695064236
 20
-15.5825910224
 40
0.5001617728
100
AcDbArc
 50
270.0246493543
 51
359.9006603508
  0
ARC
  5
41A
100
AcDbEntity
  8
COPY-PUBBLISH
100
AcDbCircle
 62
253
  6
CONTINUOUS
 10
-12.6950642362
 20
-15.5825910259
 40
0.5001617713
100
AcDbArc
 50
180.0993392485
 51
269.9753506434
  0
ARC
  5
41B
100
AcDbEntity
  8
COPY-PUBBLISH
100
AcDbCircle
 62
253
  6
CONTINUOUS
 10
12.695064245
 20
27.4161692283
 40
0.5001617656
100
AcDbArc
 50
0.0993390128
 51
89.9753516705
  0
ARC
  5
41C
100
AcDbEntity
  8
COPY-PUBBLISH
100
AcDbCircle
 62
7
  6
CONTINUOUS
 10
-52.3156105202
 20
-4.3832108998
 40
7.0
100
AcDbArc
 50
270.0
 51
360.0
  0
ARC
  5
41D
100
AcDbEntity
  8
COPY-PUBBLISH
100
AcDbCircle
 62
7
  6
CONTINUOUS
 10
-63.3156105202
 20
-4.3832108998
 40
7.0
100
AcDbArc
 50
180.0
 51
270.0
  0
ARC
  5
41E
100
AcDbEntity
  8
COPY-PUBBLISH
100
AcDbCircle
 62
7
  6
CONTINUOUS
 10
-80.3396405202
 20
-12.0591808998
 40
2.0240299518
100
AcDbArc
 50
22.0885566458
 51
3.4299178772
  0
ARC
  5
41F
100
AcDbEntity
  8
RACCORDO
100
AcDbCircle
 62
7
  6
CONTINUOUS
 10
-33.3156105202
 20
-29.7547837751
 40
2.0
100
AcDbArc
 50
315.0
 51
360.0
  0
ARC
  5
420
100
AcDbEntity
  8
RACCORDO
100
AcDbCircle
 62
7
  6
CONTINUOUS
 10
-39.3296349744
 20
-35.7688082292
 40
2.0
100
AcDbArc
 50
268.0
 51
315.0
  0
ARC
  5
421
100
AcDbEntity
  8
RACCORDO
100
AcDbCircle
 62
7
  6
CONTINUOUS
 10
-39.445323443
 20
-27.3992153236
 40
2.0
100
AcDbArc
 50
272.0
 51
315.0
  0
ARC
  5
422
100
AcDbEntity
  8
RACCORDO
100
AcDbCircle
 62
7
  6
CONTINUOUS
 10
-39.3156105202
 20
-27.2695024008
 40
2.0
100
AcDbArc
 50
315.0
 51
360.0
  0
ARC
  5
423
100
AcDbEntity
  8
COPY-PUBBLISH
100
AcDbCircle
 62
7
  6
CONTINUOUS
 10
-76.5240835202
 20
-12.1203988998
 40
1.8043863978
100
AcDbArc
 50
137.231266101
 51
174.2010765521
  0
ARC
  5
424
100
AcDbEntity
  8
COPY-PUBBLISH
100
AcDbCircle
 62
7
  6
CONTINUOUS
 10
-76.8163535202
 20
-11.9783948998
 40
1.7827326018
100
AcDbArc
 50
135.4348873351
 51
157.5658581852
  0
CIRCLE
  5
425
100
AcDbEntity
  8
COPY-PUBBLISH
100
AcDbCircle
 62
7
  6
CONTINUOUS
 10
-80.3396405202
 20
-12.0591808998
 40
1.700044
  0
ARC
  5
426
100
AcDbEntity
  8
COPY-PUBBLISH
100
AcDbCircle
 62
7
  6
CONTINUOUS
 10
-80.3396405202
 20
-12.0591808998
 40
1.5204522959
100
AcDbArc
 50
224.9002633258
 51
330.6958580291
  0
ARC
  5
427
100
AcDbEntity
  8
COPY-PUBBLISH
100
AcDbCircle
 62
7
  6
CONTINUOUS
 10
-80.3396405202
 20
-12.0591808998
 40
1.5204512254
100
AcDbArc
 50
29.3041419708
 51
134.9957741536
  0
ARC
  5
428
100
AcDbEntity
  8
COPY-PUBBLISH
100
AcDbCircle
 62
7
  6
CONTINUOUS
 10
-87.3938510311
 20
-14.5848286315
 40
1.5
100
AcDbArc
 50
182.3570462523
 51
267.0
  0
ARC
  5
429
100
AcDbEntity
  8
RACCORDO
100
AcDbCircle
 62
7
  6
CONTINUOUS
 10
-41.6156105202
 20
-27.9753081905
 40
1.5
100
AcDbArc
 50
180.0
 51
272.0
  0
ARC
  5
42A
100
AcDbEntity
  8
RACCORDO
100
AcDbCircle
 62
7
  6
CONTINUOUS
 10
-41.6156105202
 20
-27.0832108998
 40
1.5
100
AcDbArc
 50
90.0
 51
180.0
  0
ARC
  5
42B
100
AcDbEntity
  8
RACCORDO
100
AcDbCircle
 62
7
  6
CONTINUOUS
 10
-71.8156105202
 20
-35.1346777376
 40
1.5
100
AcDbArc
 50
180.0
 51
268.0
  0
ARC
  5
42C
100
AcDbEntity
  8
ASSI
100
AcDbCircle
 62
7
  6
CONTINUOUS
 10
-71.8156105202
 20
-32.031744062
 40
1.5
100
AcDbArc
 50
140.0
 51
180.0
  0
ARC
  5
42D
100
AcDbEntity
  8
RACCORDO
100
AcDbCircle
 62
7
  6
CONTINUOUS
 10
-82.8156105202
 20
-22.6346777376
 40
1.5
100
AcDbArc
 50
180.0
 51
268.0
  0
ARC
  5
42E
100
AcDbEntity
  8
RACCORDO
100
AcDbCircle
 62
7
  6
CONTINUOUS
 10
-87.3938510311
 20
-14.5848286315
 40
1.5
100
AcDbArc
 50
182.3570462523
 51
267.0
  0
ARC
  5
42F
100
AcDbEntity
  8
ASSI
100
AcDbCircle
 62
7
  6
CONTINUOUS
 10
-69.7027409532
 20
-29.5137241648
 40
1.5
100
AcDbArc
 50
90.5
 51
140.0
  0
ARC
  5
430
100
AcDbEntity
  8
RACCORDO
100
AcDbCircle
 62
7
  6
CONTINUOUS
 10
-48.35949843
 20
-26.5834721165
 40
1.2438879098
100
AcDbArc
 50
270.5
 51
88.0
  0
ARC
  5
431
100
AcDbEntity
  8
COPY-PUBBLISH
100
AcDbCircle
 62
7
  6
CONTINUOUS
 10
-80.3396405202
 20
-12.0591808998
 40
1.2181566122
100
AcDbArc
 50
29.3041277351
 51
121.973265948
  0
ARC
  5
432
100
AcDbEntity
  8
COPY-PUBBLISH
100
AcDbCircle
 62
7
  6
CONTINUOUS
 10
-80.3396405202
 20
-12.0591808998
 40
1.2181564327
100
AcDbArc
 50
238.0267046423
 51
330.695872265
  0
ARC
  5
433
100
AcDbEntity
  8
COPY-PUBBLISH
100
AcDbCircle
 62
253
  6
CONTINUOUS
 10
-87.4025691595
 20
-14.5848253606
 40
1.0000045484
100
AcDbArc
 50
182.3572144738
 51
266.9995477923
  0
ARC
  5
434
100
AcDbEntity
  8
RACCORDO
100
AcDbCircle
 62
7
  6
CONTINUOUS
 10
-37.7656105202
 20
-24.5332108998
 40
0.3
100
AcDbArc
 50
180.0
 51
270.0
  0
ARC
  5
435
100
AcDbEntity
  8
COPY-PUBBLISH
100
AcDbCircle
 62
7
  6
CONTINUOUS
 10
-37.0156105202
 20
-11.8832108998
 40
0.3
100
AcDbArc
 50
90.0
 51
180.0
  0
ARC
  5
436
100
AcDbEntity
  8
COPY-PUBBLISH
100
AcDbCircle
 62
7
  6
CONTINUOUS
 10
-39.0156105202
 20
-10.2832108998
 40
0.3
100
AcDbArc
 50
90.0
 51
180.0
  0
ARC
  5
437
100
AcDbEntity
  8
COPY-PUBBLISH
100
AcDbCircle
 62
7
  6
CONTINUOUS
 10
-63.3156105202
 20
16.2167891002
 40
7.0
100
AcDbArc
 50
90.0
 51
180.0
  0
ARC
  5
438
100
AcDbEntity
  8
COPY-PUBBLISH
100
AcDbCircle
 62
7
  6
CONTINUOUS
 10
-75.1534595202
 20
12.8368961002
 40
1.1568266175
100
AcDbArc
 50
63.0771784534
 51
90.0
  0
ARC
  5
439
100
AcDbEntity
  8
COPY-PUBBLISH
100
AcDbCircle
 62
7
  6
CONTINUOUS
 10
-75.1781465202
 20
12.8368961002
 40
1.156826
100
AcDbArc
 50
90.0
 51
109.4516760888
  0
ARC
  5
43A
100
AcDbEntity
  8
COPY-PUBBLISH
100
AcDbCircle
 62
7
  6
CONTINUOUS
 10
-75.1778635202
 20
12.7245781002
 40
1.031527
100
AcDbArc
 50
90.0
 51
107.9561541104
  0
ARC
  5
43B
100
AcDbEntity
  8
COPY-PUBBLISH
100
AcDbCircle
 62
7
  6
CONTINUOUS
 10
-75.1537415202
 20
12.7245781002
 40
1.0315267213
100
AcDbArc
 50
72.0438458896
 51
90.0
  0
ARC
  5
43C
100
AcDbEntity
  8
COPY-PUBBLISH
100
AcDbCircle
 62
7
  6
CONTINUOUS
 10
-75.3318855202
 20
13.2722081002
 40
0.6954054621
100
AcDbArc
 50
109.4516760888
 51
169.658596816
  0
ARC
  5
43D
100
AcDbEntity
  8
COPY-PUBBLISH
100
AcDbCircle
 62
7
  6
CONTINUOUS
 10
-75.0090815202
 20
13.2878761002
 40
0.693471
100
AcDbArc
 50
0.0
 51
56.8294020309
  0
ARC
  5
43E
100
AcDbEntity
  8
COPY-PUBBLISH
100
AcDbCircle
 62
7
  6
CONTINUOUS
 10
-75.0010175202
 20
13.2587121002
 40
0.488897
100
AcDbArc
 50
0.0
 51
35.7972686276
  0
ARC
  5
43F
100
AcDbEntity
  8
COPY-PUBBLISH
100
AcDbCircle
 62
7
  6
CONTINUOUS
 10
-75.3305885202
 20
13.2587121002
 40
0.4888963883
100
AcDbArc
 50
144.2008018533
 51
180.0
  0
ARC
  5
440
100
AcDbEntity
  8
COPY-PUBBLISH
100
AcDbCircle
 62
7
  6
CONTINUOUS
 10
-75.3469445202
 20
13.2463141002
 40
0.4832812087
100
AcDbArc
 50
107.9561541104
 51
141.8737358433
  0
ARC
  5
441
100
AcDbEntity
  8
COPY-PUBBLISH
100
AcDbCircle
 62
7
  6
CONTINUOUS
 10
-74.9846605202
 20
13.2463141002
 40
0.4832803647
100
AcDbArc
 50
38.1243840753
 51
72.0438458896
  0
ARC
  5
442
100
AcDbEntity
  8
COPY-PUBBLISH
100
AcDbCircle
 62
7
  6
CONTINUOUS
 10
-80.8636505202
 20
25.8119011002
 40
2.5499986575
100
AcDbArc
 50
177.752529198
 51
2.247470802
  0
ARC
  5
443
100
AcDbEntity
  8
COPY-PUBBLISH
100
AcDbCircle
 62
7
  6
CONTINUOUS
 10
-80.8636505202
 20
21.4267911002
 40
2.5499985007
100
AcDbArc
 50
177.7525290597
 51
2.2474709403
  0
ARC
  5
444
100
AcDbEntity
  8
COPY-PUBBLISH
100
AcDbCircle
 62
7
  6
CONTINUOUS
 10
-80.8636505202
 20
25.8119011002
 40
1.7999999246
100
AcDbArc
 50
176.8152613297
 51
257.9753003079
  0
ARC
  5
445
100
AcDbEntity
  8
COPY-PUBBLISH
100
AcDbCircle
 62
7
  6
CONTINUOUS
 10
-80.8636505202
 20
21.4267911002
 40
1.7999999246
100
AcDbArc
 50
176.8152613297
 51
3.1847386703
  0
ARC
  5
446
100
AcDbEntity
  8
COPY-PUBBLISH
100
AcDbCircle
 62
7
  6
CONTINUOUS
 10
-80.8636505202
 20
25.8119011002
 40
1.7999968808
100
AcDbArc
 50
282.0247203293
 51
3.1847440612
  0
ARC
  5
447
100
AcDbEntity
  8
COPY-PUBBLISH
100
AcDbCircle
 62
7
  6
CONTINUOUS
 10
-87.3938510311
 20
26.4184068319
 40
1.5
100
AcDbArc
 50
93.0
 51
177.6429537477
  0
ARC
  5
448
100
AcDbEntity
  8
RACCORDO
100
AcDbCircle
 62
7
  6
CONTINUOUS
 10
-82.8156105202
 20
34.468255938
 40
1.5
100
AcDbArc
 50
92.0
 51
180.0
  0
ARC
  5
449
100
AcDbEntity
  8
COPY-PUBBLISH
100
AcDbCircle
 62
253
  6
CONTINUOUS
 10
-87.4025738476
 20
26.4183990363
 40
1.0000044259
100
AcDbArc
 50
93.0001703992
 51
177.6425154512
  0
ARC
  5
44A
100
AcDbEntity
  8
COPY-PUBBLISH
100
AcDbCircle
 62
7
  6
CONTINUOUS
 10
-52.3156105202
 20
16.2167891002
 40
7.0
100
AcDbArc
 50
0.0
 51
90.0
  0
ARC
  5
44B
100
AcDbEntity
  8
RACCORDO
100
AcDbCircle
 62
7
  6
CONTINUOUS
 10
-37.7656105202
 20
2.4667891002
 40
0.3
100
AcDbArc
 50
180.0
 51
270.0
  0
ARC
  5
44C
100
AcDbEntity
  8
RACCORDO
100
AcDbCircle
 62
7
  6
CONTINUOUS
 10
-37.7656105202
 20
9.3667891002
 40
0.3
100
AcDbArc
 50
90.0
 51
180.0
  0
ARC
  5
44D
100
AcDbEntity
  8
RACCORDO
100
AcDbCircle
 62
7
  6
CONTINUOUS
 10
-36.8656105202
 20
9.3667891002
 40
0.3
100
AcDbArc
 50
0.0
 51
90.0
  0
ARC
  5
44E
100
AcDbEntity
  8
RACCORDO
100
AcDbCircle
 62
7
  6
CONTINUOUS
 10
-36.8656105202
 20
2.4667891002
 40
0.3
100
AcDbArc
 50
270.0
 51
360.0
  0
ARC
  5
44F
100
AcDbEntity
  8
COPY-PUBBLISH
100
AcDbCircle
 62
7
  6
CONTINUOUS
 10
-34.6156105202
 20
0.2167891002
 40
0.3
100
AcDbArc
 50
270.0
 51
360.0
  0
ARC
  5
450
100
AcDbEntity
  8
COPY-PUBBLISH
100
AcDbCircle
 62
7
  6
CONTINUOUS
 10
-34.6156105202
 20
11.6167891002
 40
0.3
100
AcDbArc
 50
0.0
 51
90.0
  0
ARC
  5
451
100
AcDbEntity
  8
COPY-PUBBLISH
100
AcDbCircle
 62
7
  6
CONTINUOUS
 10
-36.6156105202
 20
2.2167891002
 40
0.3
100
AcDbArc
 50
270.0
 51
360.0
  0
ARC
  5
452
100
AcDbEntity
  8
COPY-PUBBLISH
100
AcDbCircle
 62
7
  6
CONTINUOUS
 10
-36.6156105202
 20
9.6167891002
 40
0.3
100
AcDbArc
 50
0.0
 51
90.0
  0
ARC
  5
453
100
AcDbEntity
  8
COPY-PUBBLISH
100
AcDbCircle
 62
7
  6
CONTINUOUS
 10
-38.0156105202
 20
9.6167891002
 40
0.3
100
AcDbArc
 50
90.0
 51
180.0
  0
ARC
  5
454
100
AcDbEntity
  8
COPY-PUBBLISH
100
AcDbCircle
 62
7
  6
CONTINUOUS
 10
-38.0156105202
 20
2.2167891002
 40
0.3
100
AcDbArc
 50
180.0
 51
270.0
  0
ARC
  5
455
100
AcDbEntity
  8
COPY-PUBBLISH
100
AcDbCircle
 62
7
  6
CONTINUOUS
 10
-36.0156105202
 20
12.2167891002
 40
0.3
100
AcDbArc
 50
180.0
 51
270.0
  0
ARC
  5
456
100
AcDbEntity
  8
COPY-PUBBLISH
100
AcDbCircle
 62
7
  6
CONTINUOUS
 10
-36.0156105202
 20
-0.3832108998
 40
0.3
100
AcDbArc
 50
90.0
 51
180.0
  0
ARC
  5
457
100
AcDbEntity
  8
COPY-PUBBLISH
100
AcDbCircle
 62
7
  6
CONTINUOUS
 10
410.6843894798
 20
5.9167891002
 40
500.0
100
AcDbArc
 50
177.6429537477
 51
182.3570462523
  0
ARC
  5
458
100
AcDbEntity
  8
RACCORDO
100
AcDbCircle
 62
7
  6
CONTINUOUS
 10
410.6843894798
 20
5.9167891002
 40
500.0
100
AcDbArc
 50
178.6905668931
 51
182.3570462523
  0
ARC
  5
459
100
AcDbEntity
  8
COPY-PUBBLISH
100
AcDbCircle
 62
253
  6
CONTINUOUS
 10
410.6780319006
 20
5.9167891002
 40
499.5023666201
100
AcDbArc
 50
177.6429649216
 51
182.3570350784
  0
SPLINE
  5
45A
100
AcDbEntity
  8
0
100
AcDbSpline
 62
7
  6
CONTINUOUS
 70
0
 71
3
 72
9
 73
5
 74
3
 42
0.0000001
 43
0.0000001
 44
0.0000000001
 12
-0.2351807351
 22
0.8632699554
 32
0.0
 13
-0.854425844
 23
0.2951881697
 33
0.0
 40
0.0
 40
0.0
 40
0.0
 40
0.0
 40
0.9771287273
 40
1.0
 40
1.0
 40
1.0
 40
1.0
 10
7.0172301712
 20
23.1228180563
 30
0.0
 10
6.9406295538
 20
23.4039933472
 30
0.0
 10
6.8281943748
 20
23.7684310737
 30
0.0
 10
6.5473099362
 20
23.8729528922
 30
0.0
 10
6.5407960007
 20
23.8752033352
 30
0.0
 11
7.0172301712
 21
23.1228180563
 31
0.0
 11
6.5600701904
 21
23.8680358374
 31
0.0
 11
6.5407960007
 21
23.8752033352
 31
0.0
  0
SPLINE
  5
45B
100
AcDbEntity
  8
0
100
AcDbSpline
 62
7
  6
CONTINUOUS
 70
0
 71
3
 72
14
 73
10
 74
8
 42
0.0000001
 43
0.0000001
 44
0.0000000001
 12
2.4104721626
 22
0.1397512259
 32
0.0
 13
-2.2338052693
 23
0.8058531411
 33
0.0
 40
0.0
 40
0.0
 40
0.0
 40
0.0
 40
0.0073588544
 40
0.1742502415
 40
0.3260178245
 40
0.5200728263
 40
0.6799607727
 40
0.8122782923
 40
1.0
 40
1.0
 40
1.0
 40
1.0
 10
6.5425360523
 20
23.8888509615
 30
0.0
 10
6.5484488235
 20
23.8891937645
 30
0.0
 10
6.6868334244
 20
23.9021843919
 30
0.0
 10
6.8754403562
 20
24.1329706805
 30
0.0
 10
7.0764268754
 20
24.4750762653
 30
0.0
 10
7.1192475148
 20
24.8903537647
 30
0.0
 10
7.0356625345
 20
25.2721909657
 30
0.0
 10
6.829635336
 20
25.5967588956
 30
0.0
 10
6.6180750189
 20
25.7591656235
 30
0.0
 10
6.4782971056
 20
25.8095909994
 30
0.0
 11
6.5425360523
 21
23.8888509615
 31
0.0
 11
6.5600701904
 21
23.8904878203
 31
0.0
 11
6.8678874452
 21
24.1401236677
 31
0.0
 11
7.0393803131
 21
24.4571127926
 31
0.0
 11
7.0948433708
 21
24.9145888606
 31
0.0
 11
7.0084046615
 21
25.284307557
 31
0.0
 11
6.8407413453
 21
25.5500540555
 31
0.0
 11
6.4782971056
 21
25.8095909994
 31
0.0
  0
SPLINE
  5
45C
100
AcDbEntity
  8
0
100
AcDbSpline
 62
7
  6
CONTINUOUS
 70
0
 71
3
 72
9
 73
5
 74
3
 42
0.0000001
 43
0.0000001
 44
0.0000000001
 12
-1.8490833515
 22
0.6680315285
 32
0.0
 13
-1.9451189551
 23
-0.2861601197
 33
0.0
 40
0.0
 40
0.0
 40
0.0
 40
0.0
 40
0.108204615
 40
1.0
 40
1.0
 40
1.0
 40
1.0
 10
6.4782971056
 20
25.8095909994
 30
0.0
 10
6.4116039883
 20
25.8336856975
 30
0.0
 10
5.7793541574
 20
26.0139831796
 30
0.0
 10
5.0992301945
 20
25.9346597032
 30
0.0
 10
4.5210141587
 20
25.8495942785
 30
0.0
 11
6.4782971056
 21
25.8095909994
 31
0.0
 11
6.2742187675
 21
25.8696640326
 31
0.0
 11
4.5210141587
 21
25.8495942785
 31
0.0
  0
SPLINE
  5
45D
100
AcDbEntity
  8
0
100
AcDbSpline
 62
7
  6
CONTINUOUS
 70
0
 71
3
 72
9
 73
5
 74
3
 42
0.0000001
 43
0.0000001
 44
0.0000000001
 12
0.5693427171
 22
0.0
 32
0.0
 13
0.2000440944
 23
-0.5330417336
 33
0.0
 40
0.0
 40
0.0
 40
0.0
 40
0.0
 40
0.1435863572
 40
1.0
 40
1.0
 40
1.0
 40
1.0
 10
5.7361849921
 20
23.5813741629
 30
0.0
 10
5.763434941
 20
23.5813741629
 30
0.0
 10
5.9537656504
 20
23.5679192082
 30
0.0
 10
6.121564575
 20
23.3987569565
 30
0.0
 10
6.1786714055
 20
23.2465888856
 30
0.0
 11
5.7361849921
 21
23.5813741629
 31
0.0
 11
5.8176281887
 21
23.5743000432
 31
0.0
 11
6.1786714055
 21
23.2465888856
 31
0.0
  0
SPLINE
  5
45E
100
AcDbEntity
  8
0
100
AcDbSpline
 62
7
  6
CONTINUOUS
 70
0
 71
3
 72
9
 73
5
 74
3
 42
0.0000001
 43
0.0000001
 44
0.0000000001
 12
0.4231569679
 22
-1.1263576533
 32
0.0
 13
0.3324634843
 23
-1.1563785774
 33
0.0
 40
0.0
 40
0.0
 40
0.0
 40
0.0
 40
0.8657275665
 40
1.0
 40
1.0
 40
1.0
 40
1.0
 10
6.1786714055
 20
23.2465888856
 30
0.0
 10
6.3007842895
 20
22.9215492622
 30
0.0
 10
6.3978960756
 20
22.5310372493
 30
0.0
 10
6.5106002334
 20
22.1461997499
 30
0.0
 10
6.5254804604
 20
22.0944431614
 30
0.0
 11
6.1786714055
 21
23.2465888856
 31
0.0
 11
6.4806152265
 21
22.2496481913
 31
0.0
 11
6.5254804604
 21
22.0944431614
 31
0.0
  0
SPLINE
  5
45F
100
AcDbEntity
  8
0
100
AcDbSpline
 62
7
  6
CONTINUOUS
 70
0
 71
3
 72
9
 73
5
 74
3
 42
0.0000001
 43
0.0000001
 44
0.0000000001
 12
-0.2787501557
 22
1.0263367552
 32
0.0
 13
-0.2795600015
 23
1.0261164602
 33
0.0
 40
0.0
 40
0.0
 40
0.0
 40
0.0
 40
0.1980141723
 40
1.0
 40
1.0
 40
1.0
 40
1.0
 10
7.2883635073
 20
22.0944431614
 30
0.0
 10
7.2699646802
 20
22.1621862357
 30
0.0
 10
7.1799106656
 20
22.5050674656
 30
0.0
 10
7.0919645576
 20
22.8485077701
 30
0.0
 10
7.0172301712
 20
23.1228180563
 30
0.0
 11
7.2883635073
 21
22.0944431614
 31
0.0
 11
7.2343833881
 21
22.2979988427
 31
0.0
 11
7.0172301712
 21
23.1228180563
 31
0.0
  0
SPLINE
  5
460
100
AcDbEntity
  8
0
100
AcDbSpline
 62
7
  6
CONTINUOUS
 70
0
 71
3
 72
9
 73
5
 74
3
 42
0.0000001
 43
0.0000001
 44
0.0000000001
 12
0.0146048291
 22
-0.9465029213
 32
0.0
 13
-0.9463795554
 23
-0.0211380768
 33
0.0
 40
0.0
 40
0.0
 40
0.0
 40
0.0
 40
0.5206208722
 40
1.0
 40
1.0
 40
1.0
 40
1.0
 10
6.3539849214
 20
24.7940946531
 30
0.0
 10
6.3565194477
 20
24.6298382609
 30
0.0
 10
6.2404802795
 20
24.2710217882
 30
0.0
 10
5.8891194026
 20
24.2070251109
 30
0.0
 10
5.737894534
 20
24.2036473933
 30
0.0
 11
6.3539849214
 21
24.7940946531
 31
0.0
 11
6.1719115921
 21
24.3361333245
 31
0.0
 11
5.737894534
 21
24.2036473933
 31
0.0
  0
SPLINE
  5
461
100
AcDbEntity
  8
0
100
AcDbSpline
 62
7
  6
CONTINUOUS
 70
0
 71
3
 72
11
 73
7
 74
5
 42
0.0000001
 43
0.0000001
 44
0.0000000001
 12
1.3049532435
 22
0.2226699674
 32
0.0
 13
0.0207025745
 23
-1.3236526302
 33
0.0
 40
0.0
 40
0.0
 40
0.0
 40
0.0
 40
0.2429387748
 40
0.4710498328
 40
0.7362395484
 40
1.0
 40
1.0
 40
1.0
 40
1.0
 10
5.284638007
 20
25.2466958557
 30
0.0
 10
5.3903125877
 20
25.2647275787
 30
0.0
 10
5.5976971039
 20
25.2876700438
 30
0.0
 10
5.9221539762
 20
25.2870637469
 30
0.0
 10
6.2569163959
 20
25.1570230755
 30
0.0
 10
6.3521647479
 20
24.9104703916
 30
0.0
 10
6.3539849214
 20
24.7940946531
 30
0.0
 11
5.284638007
 21
25.2466958557
 31
0.0
 11
5.6042795929
 21
25.2821866566
 31
0.0
 11
5.9059709894
 21
25.2690623614
 31
0.0
 11
6.222699231
 21
25.1176432544
 31
0.0
 11
6.3539849214
 21
24.7940946531
 31
0.0
  0
SPLINE
  5
462
100
AcDbEntity
  8
0
100
AcDbSpline
 62
7
  6
CONTINUOUS
 70
0
 71
3
 72
13
 73
9
 74
7
 42
0.0000001
 43
0.0000001
 44
0.0000000001
 12
1.3585840539
 22
0.0000017727
 32
0.0
 13
-0.0
 23
1.3585838532
 33
0.0
 40
0.0
 40
0.0
 40
0.0
 40
0.0
 40
0.2440843852
 40
0.3951671573
 40
0.5865946804
 40
0.7510176722
 40
0.8853895042
 40
1.0
 40
1.0
 40
1.0
 40
1.0
 10
7.5232623157
 20
7.6525617679
 30
0.0
 10
7.6337987002
 20
7.6525619121
 30
0.0
 10
7.816548639
 20
7.6860707428
 30
0.0
 10
8.0439043039
 20
7.8309204853
 30
0.0
 10
8.1858556369
 20
8.0182739825
 30
0.0
 10
8.2646521822
 20
8.2274341083
 30
0.0
 10
8.2997032452
 20
8.4123636533
 30
0.0
 10
8.3007338862
 20
8.5254069638
 30
0.0
 10
8.3007338862
 20
8.5773096202
 30
0.0
 11
7.5232623157
 21
7.6525617679
 31
0.0
 11
7.8482696287
 21
7.7184014208
 31
0.0
 11
8.0210987176
 21
7.8291317461
 31
0.0
 11
8.1811339649
 21
8.0341324836
 31
0.0
 11
8.2626105354
 21
8.2421259326
 31
0.0
 11
8.2955303618
 21
8.4216886224
 31
0.0
 11
8.3007338862
 21
8.5773096202
 31
0.0
  0
SPLINE
  5
463
100
AcDbEntity
  8
0
100
AcDbSpline
 62
7
  6
CONTINUOUS
 70
0
 71
3
 72
13
 73
9
 74
7
 42
0.0000001
 43
0.0000001
 44
0.0000000001
 12
0.0
 22
1.3585837115
 32
0.0
 13
-1.3585839369
 23
0.00000199
 33
0.0
 40
0.0
 40
0.0
 40
0.0
 40
0.0
 40
0.1146105078
 40
0.2489823538
 40
0.4134053627
 40
0.6048329057
 40
0.7559156936
 40
1.0
 40
1.0
 40
1.0
 40
1.0
 10
8.3007338862
 20
8.5773096202
 30
0.0
 10
8.3007338862
 20
8.6292122765
 30
0.0
 10
8.2997032451
 20
8.742255587
 30
0.0
 10
8.2646521822
 20
8.927185132
 30
0.0
 10
8.1858556369
 20
9.1363452578
 30
0.0
 10
8.0439043039
 20
9.323698755
 30
0.0
 10
7.8165486794
 20
9.4685484718
 30
0.0
 10
7.6337987966
 20
9.5020573105
 30
0.0
 10
7.5232624573
 20
9.5020574724
 30
0.0
 11
8.3007338862
 21
8.5773096202
 31
0.0
 11
8.2955303618
 21
8.732930618
 31
0.0
 11
8.2626105354
 21
8.9124933077
 31
0.0
 11
8.1811339649
 21
9.1204867567
 31
0.0
 11
8.0210987176
 21
9.3254874942
 31
0.0
 11
7.8482696287
 21
9.4362178195
 31
0.0
 11
7.5232624573
 21
9.5020574724
 31
0.0
  0
SPLINE
  5
464
100
AcDbEntity
  8
0
100
AcDbSpline
 62
7
  6
CONTINUOUS
 70
0
 71
3
 72
13
 73
9
 74
7
 42
0.0000001
 43
0.0000001
 44
0.0000000001
 12
0.0
 22
1.0196178473
 32
0.0
 13
-1.0196177158
 23
-0.0000024302
 33
0.0
 40
0.0
 40
0.0
 40
0.0
 40
0.0
 40
0.1705949819
 40
0.3141152315
 40
0.5170627027
 40
0.6977963457
 40
0.842688152
 40
1.0
 40
1.0
 40
1.0
 40
1.0
 10
8.0442483386
 20
8.5773096202
 30
0.0
 10
8.0442483386
 20
8.6352901829
 30
0.0
 10
8.036837617
 20
8.7420459397
 30
0.0
 10
8.0067572304
 20
8.9157626661
 30
0.0
 10
7.9306245304
 20
9.0817126722
 30
0.0
 10
7.8009268022
 20
9.2130189514
 30
0.0
 10
7.6465236004
 20
9.276880321
 30
0.0
 10
7.5432070207
 20
9.2880787279
 30
0.0
 10
7.4897410383
 20
9.2880786005
 30
0.0
 11
8.0442483386
 21
8.5773096202
 31
0.0
 11
8.0329947458
 21
8.7508868869
 31
0.0
 11
8.0050877111
 21
8.8945370387
 31
0.0
 11
7.9165782686
 21
9.0815815072
 31
0.0
 11
7.7846745094
 21
9.2102681016
 31
0.0
 11
7.6489550431
 21
9.2686259757
 31
0.0
 11
7.4897410383
 21
9.2880786005
 31
0.0
  0
SPLINE
  5
465
100
AcDbEntity
  8
0
100
AcDbSpline
 62
7
  6
CONTINUOUS
 70
0
 71
3
 72
13
 73
9
 74
7
 42
0.0000001
 43
0.0000001
 44
0.0000000001
 12
1.0196146099
 22
0.0000022241
 32
0.0
 13
0.0
 23
1.0196144896
 33
0.0
 40
0.0
 40
0.0
 40
0.0
 40
0.0
 40
0.157309073
 40
0.3022013564
 40
0.4829355946
 40
0.6858837341
 40
0.8294044563
 40
1.0
 40
1.0
 40
1.0
 40
1.0
 10
7.489744396
 20
7.8665406399
 30
0.0
 10
7.5432092724
 20
7.8665407565
 30
0.0
 10
7.6465246533
 20
7.8777393548
 30
0.0
 10
7.8009268022
 20
7.9416002889
 30
0.0
 10
7.9306245304
 20
8.0729065681
 30
0.0
 10
8.0067572304
 20
8.2388565742
 30
0.0
 10
8.036837617
 20
8.4125733006
 30
0.0
 10
8.0442483386
 20
8.5193290574
 30
0.0
 10
8.0442483386
 20
8.5773096202
 30
0.0
 11
7.489744396
 21
7.8665406399
 31
0.0
 11
7.6489550431
 21
7.8859932646
 31
0.0
 11
7.7846745094
 21
7.9443511387
 31
0.0
 11
7.9165782686
 21
8.0730377331
 31
0.0
 11
8.0050877111
 21
8.2600822016
 31
0.0
 11
8.0329947458
 21
8.4037323534
 31
0.0
 11
8.0442483386
 21
8.5773096202
 31
0.0
  0
SPLINE
  5
466
100
AcDbEntity
  8
COPY-PUBBLISH
100
AcDbSpline
 62
253
  6
CONTINUOUS
 70
0
 71
3
 72
18
 73
14
 74
12
 42
0.0000001
 43
0.0000001
 44
0.0000000001
 12
-0.1956513885
 22
0.4615129398
 32
0.0
 13
-0.5012719124
 23
0.0003595632
 33
0.0
 40
0.0
 40
0.0
 40
0.0
 40
0.0
 40
0.0075331231
 40
0.0237566382
 40
0.0489332909
 40
0.082966126
 40
0.1256424581
 40
0.176507
 40
0.3007168722
 40
0.4511465927
 40
0.6222910805
 40
0.8079246504
 40
1.0
 40
1.0
 40
1.0
 40
1.0
 10
13.1786764986
 20
26.4595334472
 30
0.0
 10
13.17818521
 20
26.4606923252
 30
0.0
 10
13.1737684992
 20
26.4620727527
 30
0.0
 10
13.1663202787
 20
26.4639223135
 30
0.0
 10
13.1535638255
 20
26.4657038806
 30
0.0
 10
13.1367523865
 20
26.4675416403
 30
0.0
 10
13.1154635535
 20
26.4692955363
 30
0.0
 10
13.0791781006
 20
26.4717076242
 30
0.0
 10
13.0248346128
 20
26.4742937583
 30
0.0
 10
12.9503924054
 20
26.4767508599
 30
0.0
 10
12.8656598553
 20
26.478609158
 30
0.0
 10
12.7739584926
 20
26.4797757914
 30
0.0
 10
12.7108466436
 20
26.4800737334
 30
0.0
 10
12.6787526511
 20
26.4800967545
 30
0.0
 11
13.1786764986
 21
26.4595334472
 31
0.0
 11
13.1754646789
 21
26.4615192664
 31
0.0
 11
13.1675756219
 21
26.4634937585
 31
0.0
 11
13.1551054589
 21
26.4654349754
 31
0.0
 11
13.1381503213
 21
26.4673209688
 31
0.0
 11
13.1168345776
 21
26.4691309625
 31
0.0
 11
13.0913955443
 21
26.4708488689
 31
0.0
 11
13.0292098232
 21
26.4739487574
 31
0.0
 11
12.9538470058
 21
26.4765066337
 31
0.0
 11
12.8680786175
 21
26.4784297916
 31
0.0
 11
12.7750335709
 21
26.4796401403
 31
0.0
 11
12.6787526511
 21
26.4800967545
 31
0.0
  0
SPLINE
  5
467
100
AcDbEntity
  8
COPY-PUBBLISH
100
AcDbSpline
 62
253
  6
CONTINUOUS
 70
0
 71
3
 72
9
 73
5
 74
3
 42
0.0000001
 43
0.0000001
 44
0.0000000001
 12
-0.0295188611
 22
-41.0854800766
 32
0.0
 13
0.0295188511
 23
-41.0854800766
 33
0.0
 40
0.0
 40
0.0
 40
0.0
 40
0.0
 40
0.2499463299
 40
1.0
 40
1.0
 40
1.0
 40
1.0
 10
13.1786764986
 20
26.4595334472
 30
0.0
 10
13.1762171216
 20
23.036478461
 30
0.0
 10
13.1688416036
 20
9.3413167766
 30
0.0
 10
13.1712962578
 20
-4.3538502076
 30
0.0
 10
13.1786764986
 20
-14.6259552469
 30
0.0
 11
13.1786764986
 21
26.4595334472
 31
0.0
 11
13.1731442763
 21
16.1903673281
 31
0.0
 11
13.1786764986
 21
-14.6259552469
 31
0.0
  0
SPLINE
  5
468
100
AcDbEntity
  8
COPY-PUBBLISH
100
AcDbSpline
 62
253
  6
CONTINUOUS
 70
0
 71
3
 72
16
 73
12
 74
10
 42
0.0000001
 43
0.0000001
 44
0.0000000001
 12
0.0006892994
 22
-1.4365113056
 32
0.0
 13
0.3108793433
 23
-1.4024689801
 33
0.0
 40
0.0
 40
0.0
 40
0.0
 40
0.0
 40
0.3737499604
 40
0.5424462644
 40
0.6912833655
 40
0.8151415795
 40
0.9098242468
 40
0.9451917806
 40
0.9721370376
 40
0.9904473835
 40
1.0
 40
1.0
 40
1.0
 40
1.0
 10
12.6787526511
 20
-14.6465185545
 30
0.0
 10
12.6788385263
 20
-14.8254839024
 30
0.0
 10
12.679477125
 20
-15.0852280862
 30
0.0
 10
12.6815513262
 20
-15.4162333171
 30
0.0
 10
12.6835058656
 20
-15.6275811985
 30
0.0
 10
12.6858778636
 20
-15.8034751425
 30
0.0
 10
12.688169796
 20
-15.9250462424
 30
0.0
 10
12.690370406
 20
-16.0001760147
 30
0.0
 10
12.69173916
 20
-16.0387829617
 30
0.0
 10
12.6933856674
 20
-16.0649294011
 30
0.0
 10
12.6942895168
 20
-16.0783071843
 30
0.0
 10
12.6952794205
 20
-16.0827729337
 30
0.0
 11
12.6787526511
 21
-14.6465185545
 31
0.0
 11
12.6801880436
 21
-15.1834127411
 31
0.0
 11
12.6817388623
 21
-15.4257419547
 31
0.0
 11
12.6837812555
 21
-15.6395384024
 31
0.0
 11
12.6862466464
 21
-15.8174450661
 31
0.0
 11
12.6890492173
 21
-15.9534289269
 31
0.0
 11
12.6905478833
 21
-16.0042126863
 31
0.0
 11
12.6920953465
 21
-16.0428889119
 31
0.0
 11
12.6936776133
 21
-16.0691442999
 31
0.0
 11
12.6952794205
 21
-16.0827729337
 31
0.0
  0
SPLINE
  5
469
100
AcDbEntity
  8
COPY-PUBBLISH
100
AcDbSpline
 62
253
  6
CONTINUOUS
 70
0
 71
3
 72
16
 73
12
 74
10
 42
0.0000001
 43
0.0000001
 44
0.0000000001
 12
0.0006881952
 22
-0.9578875193
 32
0.0
 13
0.3013561101
 23
-0.9092488483
 33
0.0
 40
0.0
 40
0.0
 40
0.0
 40
0.0
 40
0.3736711319
 40
0.542338868
 40
0.6911573957
 40
0.81499952
 40
0.9096857668
 40
0.9450634571
 40
0.9720240343
 40
0.9903651887
 40
1.0
 40
1.0
 40
1.0
 40
1.0
 10
13.1786764986
 20
-14.6259552469
 30
0.0
 10
13.1787622182
 20
-14.7452668847
 30
0.0
 10
13.1794011233
 20
-14.9184345698
 30
0.0
 10
13.1814753974
 20
-15.1391080049
 30
0.0
 10
13.183430893
 20
-15.2800118864
 30
0.0
 10
13.1858004925
 20
-15.3972744857
 30
0.0
 10
13.1880965957
 20
-15.4783296805
 30
0.0
 10
13.1902908093
 20
-15.5284008552
 30
0.0
 10
13.1916721965
 20
-15.5541599542
 30
0.0
 10
13.1932966703
 20
-15.5715622216
 30
0.0
 10
13.1942354316
 20
-15.5805380193
 30
0.0
 10
13.1952032681
 20
-15.5834581663
 30
0.0
 11
13.1786764986
 21
-14.6259552469
 31
0.0
 11
13.1801120037
 21
-14.9838873743
 31
0.0
 11
13.1816630846
 21
-15.1454446896
 31
0.0
 11
13.1837056082
 21
-15.287981503
 31
0.0
 11
13.186170516
 21
-15.4065827473
 31
0.0
 11
13.1889728017
 21
-15.4972382438
 31
0.0
 11
13.1904716352
 21
-15.5310929383
 31
0.0
 11
13.1920195088
 21
-15.5568717165
 31
0.0
 11
13.1936020466
 21
-15.5743690638
 31
0.0
 11
13.1952032681
 21
-15.5834581663
 31
0.0
  0
SPLINE
  5
46A
100
AcDbEntity
  8
COPY-PUBBLISH
100
AcDbSpline
 62
253
  6
CONTINUOUS
 70
0
 71
3
 72
18
 73
14
 74
12
 42
0.0000001
 43
0.0000001
 44
0.0000000001
 12
-0.1963869613
 22
-0.4611994288
 32
0.0
 13
-0.5012710069
 23
-0.0003596432
 33
0.0
 40
0.0
 40
0.0
 40
0.0
 40
0.0
 40
0.0075389602
 40
0.0237685754
 40
0.0489507065
 40
0.0829882013
 40
0.1256682485
 40
0.176535486
 40
0.3007474883
 40
0.451174794
 40
0.6223127006
 40
0.8079362936
 40
1.0
 40
1.0
 40
1.0
 40
1.0
 10
13.1786764971
 20
-14.6259552469
 30
0.0
 10
13.1781829793
 20
-14.6271142349
 30
0.0
 10
13.1737656909
 20
-14.6284937049
 30
0.0
 10
13.1663131303
 20
-14.6303438842
 30
0.0
 10
13.15355471
 20
-14.6321250192
 30
0.0
 10
13.1367406247
 20
-14.6339627633
 30
0.0
 10
13.1154500893
 20
-14.6357164434
 30
0.0
 10
13.0791631943
 20
-14.6381282698
 30
0.0
 10
13.0248194261
 20
-14.6407140855
 30
0.0
 10
12.950378476
 20
-14.6431708864
 30
0.0
 10
12.8656492501
 20
-14.6450289346
 30
0.0
 10
12.7739527623
 20
-14.6461954129
 30
0.0
 10
12.7108446403
 20
-14.6464933215
 30
0.0
 10
12.6787526512
 20
-14.6465163463
 30
0.0
 11
13.1786764971
 21
-14.6259552469
 31
0.0
 11
13.1754611559
 21
-14.6279409204
 31
0.0
 11
13.1675689222
 21
-14.6299152538
 31
0.0
 11
13.1550959767
 21
-14.6318563012
 31
0.0
 11
13.1381385002
 21
-14.6337421164
 31
0.0
 11
13.1168209106
 21
-14.635551926
 31
0.0
 11
13.0913805565
 21
-14.6372696459
 31
0.0
 11
13.0291938607
 21
-14.6403691682
 31
0.0
 11
12.9538323795
 21
-14.6429267124
 31
0.0
 11
12.8680674401
 21
-14.6448496046
 31
0.0
 11
12.7750275609
 21
-14.6460597845
 31
0.0
 11
12.6787526512
 21
-14.6465163463
 31
0.0
  0
SPLINE
  5
46B
100
AcDbEntity
  8
COPY-PUBBLISH
100
AcDbSpline
 62
253
  6
CONTINUOUS
 70
0
 71
3
 72
16
 73
12
 74
10
 42
0.0000001
 43
0.0000001
 44
0.0000000001
 12
0.3013536036
 22
0.9092496789
 32
0.0
 13
0.0006881836
 23
0.9578875192
 33
0.0
 40
0.0
 40
0.0
 40
0.0
 40
0.0
 40
0.0096348258
 40
0.027975959
 40
0.0549365196
 40
0.0903142165
 40
0.1850004886
 40
0.3088426063
 40
0.4576611172
 40
0.626328863
 40
1.0
 40
1.0
 40
1.0
 40
1.0
 10
-13.1952032681
 20
-15.5834581663
 30
0.0
 10
-13.1942354382
 20
-15.5805380122
 30
0.0
 10
-13.1932966667
 20
-15.5715622209
 30
0.0
 10
-13.1916721981
 20
-15.554159958
 30
0.0
 10
-13.1902908078
 20
-15.5284008705
 30
0.0
 10
-13.1880965966
 20
-15.4783296901
 30
0.0
 10
-13.1858004929
 20
-15.3972744877
 30
0.0
 10
-13.1834308934
 20
-15.2800118876
 30
0.0
 10
-13.1814753964
 20
-15.1391080106
 30
0.0
 10
-13.1794011248
 20
-14.9184345761
 30
0.0
 10
-13.1787622167
 20
-14.7452668863
 30
0.0
 10
-13.1786764986
 20
-14.6259552469
 30
0.0
 11
-13.1952032681
 21
-15.5834581663
 31
0.0
 11
-13.1936020466
 21
-15.5743690497
 31
0.0
 11
-13.1920195087
 21
-15.5568717229
 31
0.0
 11
-13.1904716352
 21
-15.5310929605
 31
0.0
 11
-13.1889728017
 21
-15.4972382598
 31
0.0
 11
-13.1861705162
 21
-15.4065827389
 31
0.0
 11
-13.1837056083
 21
-15.287981501
 31
0.0
 11
-13.1816630843
 21
-15.1454447038
 31
0.0
 11
-13.180112004
 21
-14.983887379
 31
0.0
 11
-13.1786764986
 21
-14.6259552469
 31
0.0
  0
SPLINE
  5
46C
100
AcDbEntity
  8
COPY-PUBBLISH
100
AcDbSpline
 62
253
  6
CONTINUOUS
 70
0
 71
3
 72
16
 73
12
 74
10
 42
0.0000001
 43
0.0000001
 44
0.0000000001
 12
0.3108777463
 22
1.4024693341
 32
0.0
 13
0.0006892867
 23
1.4365113056
 33
0.0
 40
0.0
 40
0.0
 40
0.0
 40
0.0
 40
0.0095526276
 40
0.0278629678
 40
0.0548082175
 40
0.0901757503
 40
0.1848584212
 40
0.3087166345
 40
0.4575537354
 40
0.6262500398
 40
1.0
 40
1.0
 40
1.0
 40
1.0
 10
-12.6952794205
 20
-16.0827729337
 30
0.0
 10
-12.6942895207
 20
-16.0783071779
 30
0.0
 10
-12.693385665
 20
-16.0649293939
 30
0.0
 10
-12.6917391599
 20
-16.0387829543
 30
0.0
 10
-12.6903704038
 20
-16.0001760145
 30
0.0
 10
-12.6881697969
 20
-15.9250462441
 30
0.0
 10
-12.6858778651
 20
-15.8034751435
 30
0.0
 10
-12.6835058646
 20
-15.6275811982
 30
0.0
 10
-12.6815513249
 20
-15.4162333171
 30
0.0
 10
-12.6794771282
 20
-15.0852280862
 30
0.0
 10
-12.6788385247
 20
-14.8254839023
 30
0.0
 10
-12.6787526511
 20
-14.6465185545
 30
0.0
 11
-12.6952794205
 21
-16.0827729337
 31
0.0
 11
-12.6936776132
 21
-16.0691442838
 31
0.0
 11
-12.6920953455
 21
-16.0428889042
 31
0.0
 11
-12.690547882
 21
-16.004212689
 31
0.0
 11
-12.689049217
 21
-15.9534289309
 31
0.0
 11
-12.6862466475
 21
-15.817445065
 31
0.0
 11
-12.683781255
 21
-15.6395384024
 31
0.0
 11
-12.6817388615
 21
-15.4257419549
 31
0.0
 11
-12.6801880446
 21
-15.1834127408
 31
0.0
 11
-12.6787526511
 21
-14.6465185545
 31
0.0
  0
SPLINE
  5
46D
100
AcDbEntity
  8
COPY-PUBBLISH
100
AcDbSpline
 62
253
  6
CONTINUOUS
 70
0
 71
3
 72
18
 73
14
 74
12
 42
0.0000001
 43
0.0000001
 44
0.0000000001
 12
0.1956514868
 22
-0.4615128983
 32
0.0
 13
0.5012719125
 23
-0.0003595435
 33
0.0
 40
0.0
 40
0.0
 40
0.0
 40
0.0
 40
0.007533124
 40
0.0237566398
 40
0.0489332933
 40
0.082966129
 40
0.1256424615
 40
0.1765070036
 40
0.300716876
 40
0.4511465961
 40
0.6222910831
 40
0.8079246518
 40
1.0
 40
1.0
 40
1.0
 40
1.0
 10
-13.1786764986
 20
-14.6259552469
 30
0.0
 10
-13.1781852097
 20
-14.6271141248
 30
0.0
 10
-13.1737684989
 20
-14.6284945524
 30
0.0
 10
-13.1663202777
 20
-14.6303441134
 30
0.0
 10
-13.1535638244
 20
-14.6321256806
 30
0.0
 10
-13.1367523851
 20
-14.6339634406
 30
0.0
 10
-13.1154635519
 20
-14.6357173368
 30
0.0
 10
-13.0791780989
 20
-14.6381294252
 30
0.0
 10
-13.024834611
 20
-14.6407155603
 30
0.0
 10
-12.9503924039
 20
-14.6431726634
 30
0.0
 10
-12.8656598541
 20
-14.6450309622
 30
0.0
 10
-12.773958492
 20
-14.6461975941
 30
0.0
 10
-12.7108466434
 20
-14.6464955341
 30
0.0
 10
-12.6787526511
 20
-14.6465185539
 30
0.0
 11
-13.1786764986
 21
-14.6259552469
 31
0.0
 11
-13.1754646785
 21
-14.6279410661
 31
0.0
 11
-13.167575621
 21
-14.6299155583
 31
0.0
 11
-13.1551054577
 21
-14.6318567754
 31
0.0
 11
-13.1381503199
 21
-14.633742769
 31
0.0
 11
-13.1168345759
 21
-14.635552763
 31
0.0
 11
-13.0913955425
 21
-14.6372706697
 31
0.0
 11
-13.0292098213
 21
-14.6403705593
 31
0.0
 11
-12.9538470042
 21
-14.642928437
 31
0.0
 11
-12.8680786163
 21
-14.6448515955
 31
0.0
 11
-12.7750335702
 21
-14.6460619428
 31
0.0
 11
-12.6787526511
 21
-14.6465185539
 31
0.0
  0
SPLINE
  5
46E
100
AcDbEntity
  8
COPY-PUBBLISH
100
AcDbSpline
 62
253
  6
CONTINUOUS
 70
0
 71
3
 72
9
 73
5
 74
3
 42
0.0000001
 43
0.0000001
 44
0.0000000001
 12
0.0295188511
 22
41.0854800766
 32
0.0
 13
-0.0295188611
 23
41.0854800766
 33
0.0
 40
0.0
 40
0.0
 40
0.0
 40
0.0
 40
0.2499463299
 40
1.0
 40
1.0
 40
1.0
 40
1.0
 10
-13.1786764986
 20
-14.6259552469
 30
0.0
 10
-13.1762171225
 20
-11.2029002607
 30
0.0
 10
-13.1688416026
 20
2.4922614236
 30
0.0
 10
-13.1712962553
 20
16.1874284078
 30
0.0
 10
-13.1786764986
 20
26.4595334472
 30
0.0
 11
-13.1786764986
 21
-14.6259552469
 31
0.0
 11
-13.1731442763
 21
-4.3567891282
 31
0.0
 11
-13.1786764986
 21
26.4595334472
 31
0.0
  0
SPLINE
  5
46F
100
AcDbEntity
  8
COPY-PUBBLISH
100
AcDbSpline
 62
253
  6
CONTINUOUS
 70
0
 71
3
 72
16
 73
12
 74
10
 42
0.0000001
 43
0.0000001
 44
0.0000000001
 12
-0.000692456
 22
0.957887616
 32
0.0
 13
-0.3026833049
 23
0.9088080002
 33
0.0
 40
0.0
 40
0.0
 40
0.0
 40
0.0
 40
0.3736697507
 40
0.5423386066
 40
0.6911533595
 40
0.8149897581
 40
0.9096732005
 40
0.9450549516
 40
0.9720256522
 40
0.9903749917
 40
1.0
 40
1.0
 40
1.0
 40
1.0
 10
-13.1786764986
 20
26.4595334472
 30
0.0
 10
-13.1787627486
 20
26.5788446561
 30
0.0
 10
-13.1794007509
 20
26.7520122842
 30
0.0
 10
-13.1814752286
 20
26.9726844364
 30
0.0
 10
-13.1834307318
 20
27.1135856956
 30
0.0
 10
-13.1858006787
 20
27.2308442601
 30
0.0
 10
-13.1880963472
 20
27.311898293
 30
0.0
 10
-13.1902914126
 20
27.3619727246
 30
0.0
 10
-13.1916711761
 20
27.3877397028
 30
0.0
 10
-13.1932983107
 20
27.4051432222
 30
0.0
 10
-13.1942321583
 20
27.4141206052
 30
0.0
 10
-13.1952032681
 20
27.4170363667
 30
0.0
 11
-13.1786764986
 21
26.4595334472
 31
0.0
 11
-13.1801117928
 21
26.8174642897
 31
0.0
 11
-13.1816629207
 21
26.9790226941
 31
0.0
 11
-13.1837055417
 21
27.1215559047
 31
0.0
 11
-13.186170517
 21
27.2401516743
 31
0.0
 11
-13.1889727868
 21
27.3308044932
 31
0.0
 11
-13.1904716033
 21
27.3646630855
 31
0.0
 11
-13.1920194794
 21
27.3904515808
 31
0.0
 11
-13.1936020284
 21
27.4079568013
 31
0.0
 11
-13.1952032681
 21
27.4170363667
 31
0.0
  0
SPLINE
  5
470
100
AcDbEntity
  8
COPY-PUBBLISH
100
AcDbSpline
 62
253
  6
CONTINUOUS
 70
0
 71
3
 72
18
 73
14
 74
12
 42
0.0000001
 43
0.0000001
 44
0.0000000001
 12
0.1962802757
 22
0.4612449975
 32
0.0
 13
0.5012711492
 23
0.0003595516
 33
0.0
 40
0.0
 40
0.0
 40
0.0
 40
0.0
 40
0.0075381198
 40
0.0237668326
 40
0.0489481344
 40
0.0829849057
 40
0.1256643586
 40
0.1765311478
 40
0.3007427454
 40
0.451170366
 40
0.6223092707
 40
0.8079344358
 40
1.0
 40
1.0
 40
1.0
 40
1.0
 10
-13.1786764975
 20
26.4595334472
 30
0.0
 10
-13.1781833028
 20
26.4606924206
 30
0.0
 10
-13.1737661082
 20
26.4620720415
 30
0.0
 10
-13.1663141813
 20
26.4639221351
 30
0.0
 10
-13.1535560667
 20
26.4657033419
 30
0.0
 10
-13.1367423875
 20
26.4675410939
 30
0.0
 10
-13.1154521263
 20
26.4692948114
 30
0.0
 10
-13.0791654749
 20
26.4717066829
 30
0.0
 10
-13.024821778
 20
26.4742925506
 30
0.0
 10
-12.9503806586
 20
26.4767493965
 30
0.0
 10
-12.8656509263
 20
26.4786074777
 30
0.0
 10
-12.7739536729
 20
26.4797739708
 30
0.0
 10
-12.7108449598
 20
26.4800718759
 30
0.0
 10
-12.6787526511
 20
26.4800948951
 30
0.0
 11
-13.1786764975
 21
26.4595334472
 31
0.0
 11
-13.1754616688
 21
26.4615191508
 31
0.0
 11
-13.1675699068
 21
26.4634935155
 31
0.0
 11
-13.1550973834
 21
26.465434595
 31
0.0
 11
-13.1381402705
 21
26.4673204428
 31
0.0
 11
-13.1168229766
 21
26.469130285
 31
0.0
 11
-13.0913828427
 21
26.4708480369
 31
0.0
 11
-13.0291963352
 21
26.4739476192
 31
0.0
 11
-12.9538346764
 21
26.4765052136
 31
0.0
 11
-12.8680692129
 21
26.4784281416
 31
0.0
 11
-12.7750285195
 21
26.4796383383
 31
0.0
 11
-12.6787526511
 21
26.4800948951
 31
0.0
  0
SPLINE
  5
471
100
AcDbEntity
  8
COPY-PUBBLISH
100
AcDbSpline
 62
253
  6
CONTINUOUS
 70
0
 71
3
 72
16
 73
12
 74
10
 42
0.0000001
 43
0.0000001
 44
0.0000000001
 12
-0.0006958528
 22
1.4365113474
 32
0.0
 13
-0.311640509
 23
1.4023000851
 33
0.0
 40
0.0
 40
0.0
 40
0.0
 40
0.0
 40
0.3737463067
 40
0.5424423723
 40
0.6912800754
 40
0.8151394994
 40
0.9098214319
 40
0.945190016
 40
0.9721389546
 40
0.9904523264
 40
1.0
 40
1.0
 40
1.0
 40
1.0
 10
-12.6787526511
 20
26.4800967549
 30
0.0
 10
-12.6788393419
 20
26.6590603584
 30
0.0
 10
-12.6794763781
 20
26.9188026912
 30
0.0
 10
-12.6815511586
 20
27.2498063498
 30
0.0
 10
-12.6835065359
 20
27.4611549976
 30
0.0
 10
-12.6858782884
 20
27.6370494229
 30
0.0
 10
-12.6881697404
 20
27.7586213604
 30
0.0
 10
-12.6903708277
 20
27.8337529048
 30
0.0
 10
-12.6917385426
 20
27.8723638456
 30
0.0
 10
-12.6933864144
 20
27.8985105874
 30
0.0
 10
-12.6942876065
 20
27.9118882329
 30
0.0
 10
-12.6952794205
 20
27.916351134
 30
0.0
 11
-12.6787526511
 21
26.4800967549
 31
0.0
 11
-12.6801876571
 21
27.0169857107
 31
0.0
 11
-12.681738801
 21
27.2593145872
 31
0.0
 11
-12.6837817616
 21
27.4731119011
 31
0.0
 11
-12.6862469785
 21
27.6510203112
 31
0.0
 11
-12.6890493432
 21
27.7870031247
 31
0.0
 11
-12.6905479444
 21
27.8377883971
 31
0.0
 11
-12.6920952579
 21
27.8764699227
 31
0.0
 11
-12.6936774117
 21
27.9027296728
 31
0.0
 11
-12.6952794205
 21
27.916351134
 31
0.0
  0
SPLINE
  5
472
100
AcDbEntity
  8
COPY-PUBBLISH
100
AcDbSpline
 62
253
  6
CONTINUOUS
 70
0
 71
3
 72
16
 73
12
 74
10
 42
0.0000001
 43
0.0000001
 44
0.0000000001
 12
-0.3116395032
 22
-1.4023003086
 32
0.0
 13
-0.0006958347
 23
-1.4365113474
 33
0.0
 40
0.0
 40
0.0
 40
0.0
 40
0.0
 40
0.0095476832
 40
0.0278610501
 40
0.0548099824
 40
0.0901785657
 40
0.1848605012
 40
0.3087199246
 40
0.4575576276
 40
0.6262536935
 40
1.0
 40
1.0
 40
1.0
 40
1.0
 10
12.6952794205
 20
27.916351134
 30
0.0
 10
12.6942876087
 20
27.9118882277
 30
0.0
 10
12.6933864117
 20
27.8985105812
 30
0.0
 10
12.6917385422
 20
27.8723638393
 30
0.0
 10
12.6903708265
 20
27.8337529046
 30
0.0
 10
12.6881697417
 20
27.7586213619
 30
0.0
 10
12.6858782893
 20
27.6370494238
 30
0.0
 10
12.6835065343
 20
27.4611549973
 30
0.0
 10
12.6815511584
 20
27.2498063498
 30
0.0
 10
12.6794763808
 20
26.9188026912
 30
0.0
 10
12.6788393396
 20
26.6590603583
 30
0.0
 10
12.6787526511
 20
26.4800967549
 30
0.0
 11
12.6952794205
 21
27.916351134
 31
0.0
 11
12.6936774108
 21
27.9027296592
 31
0.0
 11
12.6920952567
 21
27.8764699161
 31
0.0
 11
12.6905479437
 21
27.8377883993
 31
0.0
 11
12.6890493434
 21
27.7870031282
 31
0.0
 11
12.6862469792
 21
27.6510203103
 31
0.0
 11
12.6837817607
 21
27.4731119011
 31
0.0
 11
12.6817388008
 21
27.2593145874
 31
0.0
 11
12.6801876581
 21
27.0169857105
 31
0.0
 11
12.6787526511
 21
26.4800967549
 31
0.0
  0
SPLINE
  5
473
100
AcDbEntity
  8
COPY-PUBBLISH
100
AcDbSpline
 62
253
  6
CONTINUOUS
 70
0
 71
3
 72
16
 73
12
 74
10
 42
0.0000001
 43
0.0000001
 44
0.0000000001
 12
-0.3026802324
 22
-0.9088090235
 32
0.0
 13
-0.0006924464
 23
-0.9578876159
 33
0.0
 40
0.0
 40
0.0
 40
0.0
 40
0.0
 40
0.0096250231
 40
0.0279743328
 40
0.0549450151
 40
0.0903267822
 40
0.1850102584
 40
0.3088466336
 40
0.4576613818
 40
0.6263302486
 40
1.0
 40
1.0
 40
1.0
 40
1.0
 10
13.1952032681
 20
27.4170363667
 30
0.0
 10
13.1942321666
 20
27.4141205974
 30
0.0
 10
13.1932983059
 20
27.4051432245
 30
0.0
 10
13.1916711779
 20
27.3877397122
 30
0.0
 10
13.1902914106
 20
27.361972746
 30
0.0
 10
13.1880963488
 20
27.3118983033
 30
0.0
 10
13.1858006793
 20
27.2308442627
 30
0.0
 10
13.1834307316
 20
27.1135856962
 30
0.0
 10
13.1814752281
 20
26.9726844425
 30
0.0
 10
13.1794007521
 20
26.7520122881
 30
0.0
 10
13.1787627474
 20
26.5788446563
 30
0.0
 10
13.1786764986
 20
26.4595334472
 30
0.0
 11
13.1952032681
 21
27.4170363667
 31
0.0
 11
13.1936020284
 21
27.4079567869
 31
0.0
 11
13.1920194793
 21
27.3904515951
 31
0.0
 11
13.1904716032
 21
27.3646631174
 31
0.0
 11
13.1889727869
 21
27.3308045097
 31
0.0
 11
13.1861705172
 21
27.2401516584
 31
0.0
 11
13.1837055417
 21
27.1215559113
 31
0.0
 11
13.1816629205
 21
26.9790227052
 31
0.0
 11
13.1801117931
 21
26.8174642903
 31
0.0
 11
13.1786764986
 21
26.4595334472
 31
0.0
  0
SPLINE
  5
474
100
AcDbEntity
  8
COPY-PUBBLISH
100
AcDbSpline
 62
253
  6
CONTINUOUS
 70
0
 71
3
 72
18
 73
14
 74
12
 42
0.0000001
 43
0.0000001
 44
0.0000000001
 12
-0.0261514124
 22
0.499153678
 32
0.0
 13
0.4991532535
 23
0.0261595135
 33
0.0
 40
0.0
 40
0.0
 40
0.0
 40
0.0
 40
0.1946212663
 40
0.3825293158
 40
0.555389954
 40
0.7067706033
 40
0.8309882658
 40
0.8814601972
 40
0.9234559549
 40
0.9564987092
 40
0.9803549505
 40
0.9948657545
 40
1.0
 40
1.0
 40
1.0
 40
1.0
 10
-87.4549131906
 20
27.4170363667
 30
0.0
 10
-87.4566097309
 20
27.4494183403
 30
0.0
 10
-87.4598353574
 20
27.5130714953
 30
0.0
 10
-87.4642007104
 20
27.6055019108
 30
0.0
 10
-87.4678921507
 20
27.6907587125
 30
0.0
 10
-87.4707573832
 20
27.7654054826
 30
0.0
 10
-87.4725216302
 20
27.8197477976
 30
0.0
 10
-87.4733503154
 20
27.8557732621
 30
0.0
 10
-87.4737639082
 20
27.876827799
 30
0.0
 10
-87.4736701447
 20
27.8929232666
 30
0.0
 10
-87.473937711
 20
27.9056981416
 30
0.0
 10
-87.4728447687
 20
27.9113706247
 30
0.0
 10
-87.4732092231
 20
27.9163063643
 30
0.0
 10
-87.4723549647
 20
27.9163511341
 30
0.0
 11
-87.4549131906
 21
27.4170363667
 31
0.0
 11
-87.459835289
 21
27.5141909195
 31
0.0
 11
-87.4642551466
 21
27.6080105004
 31
0.0
 11
-87.4679715267
 21
27.6943328994
 31
0.0
 11
-87.4708495726
 21
27.7699439856
 31
0.0
 11
-87.4727805295
 21
27.8320026928
 31
0.0
 11
-87.4733681556
 21
27.8572236507
 31
0.0
 11
-87.4736936775
 21
27.8782122132
 31
0.0
 11
-87.4737515268
 21
27.8947281449
 31
0.0
 11
-87.4735444634
 21
27.9066506091
 31
0.0
 11
-87.4730773289
 21
27.9138886056
 31
0.0
 11
-87.4723549647
 21
27.9163511341
 31
0.0
  0
SPLINE
  5
475
100
AcDbEntity
  8
COPY-PUBBLISH
100
AcDbSpline
 62
253
  6
CONTINUOUS
 70
0
 71
3
 72
18
 73
14
 74
12
 42
0.0000001
 43
0.0000001
 44
0.0000000001
 12
-0.0261515677
 22
-0.4991536768
 32
0.0
 13
0.4991532605
 23
-0.0261595139
 33
0.0
 40
0.0
 40
0.0
 40
0.0
 40
0.0
 40
0.1946213194
 40
0.3825294991
 40
0.5553901949
 40
0.7067708095
 40
0.8309883958
 40
0.8814602829
 40
0.9234560156
 40
0.9564987534
 40
0.9803549712
 40
0.9948657555
 40
1.0
 40
1.0
 40
1.0
 40
1.0
 10
-87.4549131906
 20
-15.5834581663
 30
0.0
 10
-87.4566097414
 20
-15.6158401487
 30
0.0
 10
-87.4598353863
 20
-15.6794933342
 30
0.0
 10
-87.4642007601
 20
-15.7719237903
 30
0.0
 10
-87.467892213
 20
-15.8571806181
 30
0.0
 10
-87.4707574482
 20
-15.9318273804
 30
0.0
 10
-87.4725216894
 20
-15.9861696703
 30
0.0
 10
-87.4733503664
 20
-16.0221951115
 30
0.0
 10
-87.4737639505
 20
-16.0432496338
 30
0.0
 10
-87.4736701839
 20
-16.0593450928
 30
0.0
 10
-87.473937731
 20
-16.0721199531
 30
0.0
 10
-87.4728447981
 20
-16.0777924378
 30
0.0
 10
-87.4732092238
 20
-16.0827281639
 30
0.0
 10
-87.4723549655
 20
-16.0827729337
 30
0.0
 11
-87.4549131906
 21
-15.5834581663
 31
0.0
 11
-87.4598353165
 21
-15.6806127456
 31
0.0
 11
-87.4642551961
 21
-15.774432392
 31
0.0
 11
-87.4679715886
 21
-15.8607548205
 31
0.0
 11
-87.4708496362
 21
-15.9363658903
 31
0.0
 11
-87.4727805857
 21
-15.9984245605
 31
0.0
 11
-87.4733682053
 21
-16.0236454968
 31
0.0
 11
-87.4736937201
 21
-16.0446340472
 31
0.0
 11
-87.4737515612
 21
-16.0611499709
 31
0.0
 11
-87.473544488
 21
-16.0730724234
 31
0.0
 11
-87.4730773423
 21
-16.0803104094
 31
0.0
 11
-87.4723549655
 21
-16.0827729337
 31
0.0
  0
ELLIPSE
  5
476
100
AcDbEntity
  8
DRAFT
100
AcDbEllipse
 62
7
  6
CONTINUOUS
 10
-5.35
 20
28.5843549218
 30
0.0
 11
0.9767422459
 21
-0.0
 31
0.0
 40
0.0139635419
 41
-0.5556614669
 42
-0.000249916
  0
ELLIPSE
  5
477
100
AcDbEntity
  8
DRAFT
100
AcDbEllipse
 62
7
  6
CONTINUOUS
 10
5.35
 20
-16.7507767214
 30
0.0
 11
0.9767422459
 21
0.0
 31
0.0
 40
0.0139635419
 41
2.5859311867
 42
3.1413427376
  0
ELLIPSE
  5
478
100
AcDbEntity
  8
RACCORDO
100
AcDbEllipse
 62
7
  6
CONTINUOUS
 10
10.0352533351
 20
37.4952078812
 30
0.0
 11
0.8
 21
0.0
 31
0.0
 40
0.0349207695
 41
1.5707963268
 42
3.1066860685
  0
ELLIPSE
  5
479
100
AcDbEntity
  8
RACCORDO
100
AcDbEllipse
 62
7
  6
CONTINUOUS
 10
-10.0352533351
 20
37.4952078812
 30
0.0
 11
0.8
 21
-0.0
 31
0.0
 40
0.0349207695
 41
0.034906585
 42
1.5707963268
  0
ELLIPSE
  5
47A
100
AcDbEntity
  8
RACCORDO
100
AcDbEllipse
 62
7
  6
CONTINUOUS
 10
-11.6074185754
 20
-26.5834721165
 30
0.0
 11
-0.0
 21
1.2438879098
 31
0.0
 40
0.0087268678
 41
0.034906585
 42
3.1328660073
  0
ELLIPSE
  5
47B
100
AcDbEntity
  8
RACCORDO
100
AcDbEllipse
 62
7
  6
CONTINUOUS
 10
11.6074185754
 20
-26.5834721165
 30
0.0
 11
0.0
 21
1.2438879098
 31
0.0
 40
0.0087268678
 41
-3.1328660073
 42
-0.034906585
  0
ELLIPSE
  5
47C
100
AcDbEntity
  8
RACCORDO
100
AcDbEllipse
 62
7
  6
CONTINUOUS
 10
-5.3529336756
 20
-24.7816262897
 30
0.0
 11
3.0
 21
0.0
 31
0.0
 40
0.0349207695
 41
1.5707963268
 42
3.1066860685
  0
ELLIPSE
  5
47D
100
AcDbEntity
  8
RACCORDO
100
AcDbEllipse
 62
7
  6
CONTINUOUS
 10
5.3529336756
 20
-24.7816262897
 30
0.0
 11
3.0
 21
-0.0
 31
0.0
 40
0.0349207695
 41
0.034906585
 42
1.5707963268
  0
ELLIPSE
  5
47E
100
AcDbEntity
  8
RACCORDO
100
AcDbEllipse
 62
7
  6
CONTINUOUS
 10
-5.3529336756
 20
-30.2689239744
 30
0.0
 11
3.0
 21
-0.0
 31
0.0
 40
0.0349207695
 41
-3.1066860685
 42
-1.5707963268
  0
ELLIPSE
  5
47F
100
AcDbEntity
  8
RACCORDO
100
AcDbEllipse
 62
7
  6
CONTINUOUS
 10
5.3529336756
 20
-30.2689239744
 30
0.0
 11
3.0
 21
-0.0
 31
0.0
 40
0.0349207695
 41
-1.5707963268
 42
-0.034906585
  0
ELLIPSE
  5
480
100
AcDbEntity
  8
RACCORDO
100
AcDbEllipse
 62
7
  6
CONTINUOUS
 10
5.3529336756
 20
36.61520449
 30
0.0
 11
3.0
 21
-0.0
 31
0.0
 40
0.0349207695
 41
-1.5707963268
 42
-0.034906585
  0
ELLIPSE
  5
481
100
AcDbEntity
  8
RACCORDO
100
AcDbEllipse
 62
7
  6
CONTINUOUS
 10
-5.3529336756
 20
36.61520449
 30
0.0
 11
3.0
 21
-0.0
 31
0.0
 40
0.0349207695
 41
-3.1066860685
 42
-1.5707963268
  0
ELLIPSE
  5
482
100
AcDbEntity
  8
RACCORDO
100
AcDbEllipse
 62
7
  6
CONTINUOUS
 10
9.9550242755
 20
-36.845116671
 30
0.0
 11
1.5
 21
0.0
 31
0.0
 40
0.0349207695
 41
0.0087266463
 42
1.5707963268
  0
ELLIPSE
  5
483
100
AcDbEntity
  8
RACCORDO
100
AcDbEllipse
 62
7
  6
CONTINUOUS
 10
-9.9550242755
 20
-36.845116671
 30
0.0
 11
1.5
 21
0.0
 31
0.0
 40
0.0349207695
 41
1.5707963268
 42
3.1328660073
  0
ELLIPSE
  5
484
100
AcDbEntity
  8
DRAFT
100
AcDbEllipse
 62
7
  6
CONTINUOUS
 10
5.35
 20
28.5843549218
 30
0.0
 11
0.9767422459
 21
0.0
 31
0.0
 40
0.0139635419
 41
-3.1413427393
 42
-2.5859311867
  0
ELLIPSE
  5
485
100
AcDbEntity
  8
DRAFT
100
AcDbEllipse
 62
7
  6
CONTINUOUS
 10
-5.35
 20
-16.7507767214
 30
0.0
 11
0.9767422459
 21
-0.0
 31
0.0
 40
0.0139635419
 41
0.0002499142
 42
0.5556614669
  0
ELLIPSE
  5
486
100
AcDbEntity
  8
RACCORDO
100
AcDbEllipse
 62
7
  6
CONTINUOUS
 10
-11.266770941
 20
26.4184068319
 30
0.0
 11
-0.0
 21
1.5
 31
0.0
 40
0.0087268678
 41
-1.5296581091
 42
-0.0523598776
  0
ELLIPSE
  5
487
100
AcDbEntity
  8
RACCORDO
100
AcDbEllipse
 62
7
  6
CONTINUOUS
 10
-15.6134338954
 20
5.9167891002
 30
0.0
 11
-0.0
 21
500.0
 31
0.0
 40
0.0087268678
 41
-1.6119345445
 42
-1.5296581091
  0
ELLIPSE
  5
488
100
AcDbEntity
  8
RACCORDO
100
AcDbEllipse
 62
7
  6
CONTINUOUS
 10
-11.266770941
 20
-14.5848286315
 30
0.0
 11
0.0
 21
1.5
 31
0.0
 40
0.0087268678
 41
-3.089232776
 42
-1.6119345445
  0
ELLIPSE
  5
489
100
AcDbEntity
  8
ASSI
100
AcDbEllipse
 62
7
  6
CONTINUOUS
 10
-11.4211589197
 20
-29.5137241648
 30
0.0
 11
-0.0
 21
1.5
 31
0.0
 40
0.0087268678
 41
-0.872664626
 42
-0.0087266463
  0
ELLIPSE
  5
48A
100
AcDbEntity
  8
RACCORDO
100
AcDbEllipse
 62
7
  6
CONTINUOUS
 10
11.266770941
 20
-14.5848286315
 30
0.0
 11
0.0
 21
1.5
 31
0.0
 40
0.0087268678
 41
-4.6712507627
 42
-3.1939525311
  0
ELLIPSE
  5
48B
100
AcDbEntity
  8
RACCORDO
100
AcDbEllipse
 62
7
  6
CONTINUOUS
 10
15.6134338954
 20
5.9167891002
 30
0.0
 11
-0.0
 21
500.0
 31
0.0
 40
0.0087268678
 41
1.5296581091
 42
1.6119345445
  0
ELLIPSE
  5
48C
100
AcDbEntity
  8
RACCORDO
100
AcDbEllipse
 62
7
  6
CONTINUOUS
 10
11.266770941
 20
26.4184068319
 30
0.0
 11
-0.0
 21
1.5
 31
0.0
 40
0.0087268678
 41
0.0523598776
 42
1.5296581091
  0
ELLIPSE
  5
48D
100
AcDbEntity
  8
ASSI
100
AcDbEllipse
 62
7
  6
CONTINUOUS
 10
11.4211589197
 20
-29.5137241648
 30
0.0
 11
0.0
 21
1.5
 31
0.0
 40
0.0087268678
 41
0.0087266463
 42
0.872664626
  0
ELLIPSE
  5
48E
100
AcDbEntity
  8
COPY-PUBBLISH
100
AcDbEllipse
 62
7
  6
CONTINUOUS
 10
12.749923836
 20
-15.7475247268
 30
0.0
 11
-0.1582391023
 21
0.4751033573
 31
0.0
 40
0.9984778551
 41
-3.4626430041
 42
-1.8927600658
  0
ELLIPSE
  5
48F
100
AcDbEntity
  8
COPY-PUBBLISH
100
AcDbEllipse
 62
7
  6
CONTINUOUS
 10
-12.749923836
 20
-15.7475247268
 30
0.0
 11
0.1582391023
 21
0.4751033573
 31
0.0
 40
0.9984778551
 41
-4.3904252414
 42
-2.8205423031
  0
ELLIPSE
  5
490
100
AcDbEntity
  8
COPY-PUBBLISH
100
AcDbEllipse
 62
7
  6
CONTINUOUS
 10
-12.749923836
 20
27.5811029272
 30
0.0
 11
-0.1582391023
 21
0.4751033573
 31
0.0
 40
0.9984778551
 41
-0.3210503505
 42
1.2488325878
  0
ELLIPSE
  5
491
100
AcDbEntity
  8
COPY-PUBBLISH
100
AcDbEllipse
 62
7
  6
CONTINUOUS
 10
12.749923836
 20
27.5811029272
 30
0.0
 11
0.1582391023
 21
0.4751033573
 31
0.0
 40
0.9984778551
 41
-1.2488325878
 42
0.3210503505
  0
ELLIPSE
  5
492
100
AcDbEntity
  8
DRAFT
100
AcDbEllipse
 62
7
  6
CONTINUOUS
 10
-63.3103844424
 20
-4.3832108998
 30
0.0
 11
6.8448777151
 21
-0.0000000118
 31
0.0
 40
0.9999997085
 41
-3.1415926519
 42
-1.5715598271
  0
ELLIPSE
  5
493
100
AcDbEntity
  8
DRAFT
100
AcDbEllipse
 62
7
  6
CONTINUOUS
 10
-52.3103780301
 20
-4.3832108998
 30
0.0
 11
6.853276242
 21
-0.0000000095
 31
0.0
 40
0.9999997085
 41
-1.5715598275
 42
0.0000000014
  0
ELLIPSE
  5
494
100
AcDbEntity
  8
DRAFT
100
AcDbEllipse
 62
7
  6
CONTINUOUS
 10
-52.3103780301
 20
16.2167891002
 30
0.0
 11
6.853276242
 21
-0.0000000068
 31
0.0
 40
0.9999997085
 41
0.000000001
 42
1.5715598299
  0
ELLIPSE
  5
495
100
AcDbEntity
  8
DRAFT
100
AcDbEllipse
 62
7
  6
CONTINUOUS
 10
-63.3103844424
 20
16.2167891002
 30
0.0
 11
6.8448777151
 21
0.0000000166
 31
0.0
 40
0.9999997085
 41
1.5715598264
 42
3.1415926512
  0
ENDSEC
  0
SECTION
  2
OBJECTS
  0
DICTIONARY
  5
C
100
AcDbDictionary
280
0
281
1
  3
ACAD_GROUP
350
D
  3
ACAD_MLINESTYLE
350
17
  3
ACAD_LAYOUT
350
1A
  3
ACAD_PLOTSETTINGS
350
19
  3
ACAD_PLOTSTYLENAME
350
E
  0
DICTIONARY
  5
D
102
{ACAD_REACTORS
330
C
102
}
100
AcDbDictionary
280
0
281
1
  0
ACDBDICTIONARYWDFLT
  5
E
102
{ACAD_REACTORS
330
C
102
}
100
AcDbDictionary
281
1
  3
Normal
350
F
100
AcDbDictionaryWithDefault
340
F
  0
DICTIONARY
  5
17
102
{ACAD_REACTORS
330
C
102
}
100
AcDbDictionary
280
0
281
1
  3
Standard
350
18
  0
DICTIONARY
  5
19
102
{ACAD_REACTORS
330
C
102
}
100
AcDbDictionary
281
1
  0
DICTIONARY
  5
1A
102
{ACAD_REACTORS
330
C
102
}
100
AcDbDictionary
281
1
  3
Model
350
496
  3
Layout1
350
497
  0
ACDBPLACEHOLDER
  5
F
102
{ACAD_REACTORS
330
E
102
}
  0
MLINESTYLE
  5
18
102
{ACAD_REACTORS
330
17
102
}
100
AcDbMlineStyle
  2
STANDARD
 70
0
  3

 62
256
 51
90.0
 52
90.0
 71
2
 49
0.5
 62
256
  6
BYLAYER
 49
-0.5
 62
256
  6
BYLAYER
  0
LAYOUT
  5
496
102
{ACAD_REACTORS
330
1A
102
}
100
AcDbPlotSettings
  1

  2
none_device
  4
ISO_A4_(297.00_x_210.00_MM)
  6

 40
0.0
 41
0.0
 42
0.0
 43
0.0
 44
297.0
 45
210.0
 46
0.0
 47
0.0
 48
0.0
 49
0.0
140
0.0
141
0.0
142
1.0
143
1.0
 70
1024
 72
1
 73
0
 74
0
  7

 75
0
147
1.0
148
0.0
149
0.0
100
AcDbLayout
  1
Model
 70
0
 71
0
 10
0.0
 20
0.0
 11
297.0
 21
210.0
 12
0.0
 22
0.0
 32
0.0
 14
0.0
 24
0.0
 34
0.0
 15
0.0
 25
0.0
 35
0.0
146
0.0
 13
0.0
 23
0.0
 33
0.0
 16
1.0
 26
0.0
 36
0.0
 17
0.0
 27
1.0
 37
0.0
 76
0
330
212
345
0
346
0
  0
LAYOUT
  5
497
102
{ACAD_REACTORS
330
1A
102
}
100
AcDbPlotSettings
  1

  2
none_device
  4
ISO_A4_(297.00_x_210.00_MM)
  6

 40
0.0
 41
0.0
 42
0.0
 43
0.0
 44
297.0
 45
210.0
 46
0.0
 47
0.0
 48
0.0
 49
0.0
140
0.0
141
0.0
142
1.0
143
1.0
 70
0
 72
1
 73
0
 74
0
  7

 75
0
147
1.0
148
0.0
149
0.0
100
AcDbLayout
  1
Layout1
 70
0
 71
1
 10
0.0
 20
0.0
 11
297.0
 21
210.0
 12
0.0
 22
0.0
 32
0.0
 14
0.0
 24
0.0
 34
0.0
 15
0.0
 25
0.0
 35
0.0
146
0.0
 13
0.0
 23
0.0
 33
0.0
 16
1.0
 26
0.0
 36
0.0
 17
0.0
 27
1.0
 37
0.0
 76
0
330
213
345
0
346
0
  0
ENDSEC
  0
EOF
