  0
SECTION
  2
HEADER
  9
$ACADVER
  1
AC1015
  9
$DWGCODEPAGE
  3
ANSI_1252
  9
$EXTMAX
 10
297.0
 20
210.0
 30
0.0
  9
$EXTMIN
 10
0.0
 20
0.0
 30
0.0
  9
$LIMMIN
 10
0.0
 20
0.0
  9
$LIMMAX
 10
297.0
 20
210.0
  9
$VIEWCTR
 10
148.5
 20
105.0
  9
$VIEWSIZE
 40
210.0
  9
$CLAYER
  8
0
  9
$LTSCALE
 40
16.335
  9
$CELTYPE
  6
BYLAYER
  9
$DIMSCALE
 40
1.0
  9
$DIMASZ
 40
3.0
  9
$DIMEXO
 40
1.85625
  9
$DIMDLI
 40
11.286
  9
$DIMEXE
 40
5.346
  9
$DIMCEN
 40
2.673
  9
$DIMLFAC
 40
1.0
  9
$DIMBLK
  1
_FILLED
  9
$DIMTXT
 40
3.0
  9
$DIMTOL
 70
1
  9
$DIMLIM
 70
0
  9
$DIMTFAC
 40
1.0
  9
$DIMTP
 40
0.01
  9
$DIMTM
 40
0.01
  9
$PDMODE
 70
3
  9
$PDSIZE
 40
3.0
  9
$HANDSEED
  5
4AD
  9
$TILEMODE
 70
1
  9
$MEASUREMENT
 70
1
  9
$INSUNITS
 70
4
  0
ENDSEC
  0
SECTION
  2
CLASSES
  0
CLASS
  1
ACDBDICTIONARYWDFLT
  2
AcDbDictionaryWithDefault
  3
AutoCAD 2000
 90
0
280
0
281
0
  0
CLASS
  1
ACDBPLACEHOLDER
  2
AcDbPlaceHolder
  3
AutoCAD 2000
 90
0
280
0
281
0
  0
CLASS
  1
LAYOUT
  2
AcDbLayout
  3
AutoCAD 2000
 90
0
280
0
281
0
  0
ENDSEC
  0
SECTION
  2
TABLES
  0
TABLE
  2
VPORT
  5
8
100
AcDbSymbolTable
 70
2
  0
VPORT
  5
1F4
100
AcDbSymbolTableRecord
100
AcDbViewportTableRecord
  2
*ACTIVE
 70
0
 10
0.0
 20
0.0
 11
1.0
 21
1.0
 12
148.5
 22
105.0
 13
0.0
 23
0.0
 14
1.0
 24
1.0
 15
0.0
 25
0.0
 16
0.0
 26
0.0
 36
1.0
 17
0.0
 27
0.0
 37
0.0
 40
210.0
 41
1.4142857143
 42
50.0
 43
0.0
 44
0.0
 50
0.0
 51
0.0
 71
0
 72
100
 73
1
 74
1
 75
0
 76
0
 77
0
 78
0
  0
ENDTAB
  0
TABLE
  2
LTYPE
  5
5
100
AcDbSymbolTable
 70
6
  0
LTYPE
  5
14
100
AcDbSymbolTableRecord
100
AcDbLinetypeTableRecord
  2
BYBLOCK
 70
0
  3

 72
65
 73
0
 40
0.0
  0
LTYPE
  5
15
100
AcDbSymbolTableRecord
100
AcDbLinetypeTableRecord
  2
BYLAYER
 70
0
  3

 72
65
 73
0
 40
0.0
  0
LTYPE
  5
16
100
AcDbSymbolTableRecord
100
AcDbLinetypeTableRecord
  2
CONTINUOUS
 70
64
  3
Solid line
 72
65
 73
0
 40
0.0
  0
LTYPE
  5
1F5
100
AcDbSymbolTableRecord
100
AcDbLinetypeTableRecord
  2
CENTER
 70
64
  3
____ _ ____ _ ____ _ ____ _ ____ _ ____ _ ____
 72
65
 73
4
 40
0.6
 49
0.375
 74
0
 49
-0.075
 74
0
 49
0.075
 74
0
 49
-0.075
 74
0
  0
LTYPE
  5
1F6
100
AcDbSymbolTableRecord
100
AcDbLinetypeTableRecord
  2
HIDDEN
 70
64
  3
- - - - - - - - - - - - - - - - - - - -
 72
65
 73
2
 40
0.2
 49
0.1
 74
0
 49
-0.1
 74
0
  0
LTYPE
  5
1F7
100
AcDbSymbolTableRecord
100
AcDbLinetypeTableRecord
  2
PHANTOM
 70
64
  3
_____ _ _ _____ _ _ _____ _ _ _____
 72
65
 73
6
 40
0.8
 49
0.45
 74
0
 49
-0.05
 74
0
 49
0.1
 74
0
 49
-0.05
 74
0
 49
0.1
 74
0
 49
-0.05
 74
0
  0
LTYPE
  5
1F8
100
AcDbSymbolTableRecord
100
AcDbLinetypeTableRecord
  2
DOT
 70
64
  3
. . . . . . . . . . . . . . . . . . . .
 72
65
 73
2
 40
0.2
 49
0.1
 74
0
 49
-0.1
 74
0
  0
LTYPE
  5
1F9
100
AcDbSymbolTableRecord
100
AcDbLinetypeTableRecord
  2
DASHED
 70
64
  3
- - - - - - - - - - - - - - - - - - - -
 72
65
 73
2
 40
0.2
 49
0.1
 74
0
 49
-0.1
 74
0
  0
ENDTAB
  0
TABLE
  2
LAYER
  5
2
100
AcDbSymbolTable
 70
36
  0
LAYER
  5
10
100
AcDbSymbolTableRecord
100
AcDbLayerTableRecord
  2
0
 70
0
 62
7
  6
CONTINUOUS
370
-3
390
F
  0
LAYER
  5
1FA
100
AcDbSymbolTableRecord
100
AcDbLayerTableRecord
  2
DEFAULT_1
 70
0
 62
7
  6
CENTER
370
-3
390
F
  0
LAYER
  5
1FB
100
AcDbSymbolTableRecord
100
AcDbLayerTableRecord
  2
DEFAULT_2
 70
0
 62
7
  6
HIDDEN
370
-3
390
F
  0
LAYER
  5
1FC
100
AcDbSymbolTableRecord
100
AcDbLayerTableRecord
  2
DEFAULT_3
 70
0
 62
7
  6
PHANTOM
370
-3
390
F
  0
LAYER
  5
1FD
100
AcDbSymbolTableRecord
100
AcDbLayerTableRecord
  2
ASSI
 70
0
 62
7
  6
CONTINUOUS
370
-3
390
F
  0
LAYER
  5
1FE
100
AcDbSymbolTableRecord
100
AcDbLayerTableRecord
  2
COORDINATE
 70
0
 62
7
  6
CONTINUOUS
370
-3
390
F
  0
LAYER
  5
1FF
100
AcDbSymbolTableRecord
100
AcDbLayerTableRecord
  2
COORD_ORIGINE
 70
0
 62
7
  6
CONTINUOUS
370
-3
390
F
  0
LAYER
  5
200
100
AcDbSymbolTableRecord
100
AcDbLayerTableRecord
  2
COPY-PUBBLISH
 70
0
 62
7
  6
CONTINUOUS
370
-3
390
F
  0
LAYER
  5
201
100
AcDbSymbolTableRecord
100
AcDbLayerTableRecord
  2
COPY_PUBLISH
 70
0
 62
7
  6
CONTINUOUS
370
-3
390
F
  0
LAYER
  5
202
100
AcDbSymbolTableRecord
100
AcDbLayerTableRecord
  2
COSMETIC
 70
0
 62
7
  6
CONTINUOUS
370
-3
390
F
  0
LAYER
  5
203
100
AcDbSymbolTableRecord
100
AcDbLayerTableRecord
  2
CURVE
 70
0
 62
7
  6
CONTINUOUS
370
-3
390
F
  0
LAYER
  5
204
100
AcDbSymbolTableRecord
100
AcDbLayerTableRecord
  2
DRAFT
 70
0
 62
7
  6
CONTINUOUS
370
-3
390
F
  0
LAYER
  5
205
100
AcDbSymbolTableRecord
100
AcDbLayerTableRecord
  2
IGES-SCRITTE
 70
0
 62
7
  6
CONTINUOUS
370
-3
390
F
  0
LAYER
  5
206
100
AcDbSymbolTableRecord
100
AcDbLayerTableRecord
  2
IMPORT_IGES
 70
0
 62
7
  6
CONTINUOUS
370
-3
390
F
  0
LAYER
  5
207
100
AcDbSymbolTableRecord
100
AcDbLayerTableRecord
  2
PIANI
 70
0
 62
7
  6
CONTINUOUS
370
-3
390
F
  0
LAYER
  5
208
100
AcDbSymbolTableRecord
100
AcDbLayerTableRecord
  2
PIANI-RIFERIMENTO
 70
0
 62
7
  6
CONTINUOUS
370
-3
390
F
  0
LAYER
  5
209
100
AcDbSymbolTableRecord
100
AcDbLayerTableRecord
  2
PIANI_ORIGINE
 70
0
 62
7
  6
CONTINUOUS
370
-3
390
F
  0
LAYER
  5
20A
100
AcDbSymbolTableRecord
100
AcDbLayerTableRecord
  2
PUNTI
 70
0
 62
7
  6
CONTINUOUS
370
-3
390
F
  0
LAYER
  5
20B
100
AcDbSymbolTableRecord
100
AcDbLayerTableRecord
  2
RACCORDO
 70
0
 62
7
  6
CONTINUOUS
370
-3
390
F
  0
LAYER
  5
20C
100
AcDbSymbolTableRecord
100
AcDbLayerTableRecord
  2
SMUSSO
 70
0
 62
7
  6
CONTINUOUS
370
-3
390
F
  0
LAYER
  5
20D
100
AcDbSymbolTableRecord
100
AcDbLayerTableRecord
  2
SNAPLINE
 70
0
 62
7
  6
CONTINUOUS
370
-3
390
F
  0
LAYER
  5
20E
100
AcDbSymbolTableRecord
100
AcDbLayerTableRecord
  2
TRASH
 70
0
 62
7
  6
CONTINUOUS
370
-3
390
F
  0
LAYER
  5
20F
100
AcDbSymbolTableRecord
100
AcDbLayerTableRecord
  2
XSEC_DATUMS
 70
0
 62
7
  6
CONTINUOUS
370
-3
390
F
  0
ENDTAB
  0
TABLE
  2
STYLE
  5
3
100
AcDbSymbolTable
 70
1
  0
STYLE
  5
11
100
AcDbSymbolTableRecord
100
AcDbTextStyleTableRecord
  2
STANDARD
 70
0
 40
0.0
 41
0.8
 50
0.0
 71
0
 42
0.2
  3
txt
  4

  0
STYLE
  5
210
100
AcDbSymbolTableRecord
100
AcDbTextStyleTableRecord
  2
TEXTSTYLE_1
 70
0
 40
0.0
 41
0.8
 50
0.0
 71
0
 42
0.2
  3
gdt
  4

  0
ENDTAB
  0
TABLE
  2
VIEW
  5
6
100
AcDbSymbolTable
 70
0
  0
ENDTAB
  0
TABLE
  2
UCS
  5
7
100
AcDbSymbolTable
 70
0
  0
ENDTAB
  0
TABLE
  2
APPID
  5
9
100
AcDbSymbolTable
 70
1
  0
APPID
  5
211
100
AcDbSymbolTableRecord
100
AcDbRegAppTableRecord
  2
ACAD
 70
0
  0
ENDTAB
  0
TABLE
  2
BLOCK_RECORD
  5
1
100
AcDbSymbolTable
 70
0
  0
BLOCK_RECORD
  5
212
100
AcDbSymbolTableRecord
100
AcDbBlockTableRecord
  2
*Model_Space
  0
BLOCK_RECORD
  5
213
100
AcDbSymbolTableRecord
100
AcDbBlockTableRecord
  2
*Paper_Space
  0
BLOCK_RECORD
  5
214
100
AcDbSymbolTableRecord
100
AcDbBlockTableRecord
  2
_FILLED
  0
BLOCK_RECORD
  5
215
100
AcDbSymbolTableRecord
100
AcDbBlockTableRecord
  2
*D0
  0
BLOCK_RECORD
  5
216
100
AcDbSymbolTableRecord
100
AcDbBlockTableRecord
  2
*D1
  0
BLOCK_RECORD
  5
217
100
AcDbSymbolTableRecord
100
AcDbBlockTableRecord
  2
*D2
  0
ENDTAB
  0
TABLE
  2
DIMSTYLE
  5
A
100
AcDbSymbolTable
 70
1
100
AcDbDimStyleTable
 71
0
  0
DIMSTYLE
105
218
100
AcDbSymbolTableRecord
100
AcDbDimStyleTableRecord
  2
STANDARD
 70
0
  3

  4

 40
1.0
 41
3.0
 42
0.0625
 43
0.38
 44
0.18
 45
0.0
 46
0.0
 47
0.01
 48
0.01
140
3.0
141
0.09
142
0.0
143
25.4
144
1.0
145
0.0
146
1.0
147
0.09
 71
1.0
 72
0.0
 73
0
 74
0
 75
0
 76
0
 77
1
 78
8
170
0
171
2
172
0
173
0
174
0
175
0
176
0
177
0
178
0
270
2
271
2
272
2
273
2
274
2
275
0
280
0
281
0
282
0
283
1
284
8
285
0
286
0
287
3
288
0
340
11
341
214
342
214
343
214
344
214
  0
DIMSTYLE
105
219
100
AcDbSymbolTableRecord
100
AcDbDimStyleTableRecord
  2
DIMSTYLE_1
 70
0
  3

  4

 40
1.0
 41
3.0
 42
0.0625
 43
0.38
 44
0.18
 45
0.0
 46
0.0
 47
0.0
 48
0.0
140
3.0
141
0.09
142
0.0
143
25.4
144
1.0
145
0.0
146
1.0
147
0.09
 71
0.0
 72
0.0
 73
0
 74
0
 75
0
 76
0
 77
1
 78
8
170
0
171
2
172
0
173
0
174
0
175
0
176
0
177
0
178
0
270
2
271
2
272
2
273
2
274
2
275
0
280
0
281
0
282
0
283
1
284
8
285
0
286
0
287
3
288
0
340
11
341
214
342
214
343
214
344
214
  0
DIMSTYLE
105
21A
100
AcDbSymbolTableRecord
100
AcDbDimStyleTableRecord
  2
DIMSTYLE_2
 70
0
  3

  4

 40
1.0
 41
3.0
 42
0.0625
 43
0.38
 44
0.18
 45
0.0
 46
0.0
 47
0.0
 48
0.0
140
3.0
141
0.09
142
0.0
143
25.4
144
1.0
145
0.0
146
1.0
147
0.09
 71
0.0
 72
0.0
 73
0
 74
0
 75
0
 76
0
 77
1
 78
8
170
0
171
2
172
0
173
0
174
0
175
0
176
0
177
0
178
0
270
2
271
1
272
1
273
2
274
2
275
0
280
0
281
0
282
0
283
1
284
8
285
0
286
0
287
3
288
0
340
11
341
214
342
214
343
214
344
214
  0
ENDTAB
  0
ENDSEC
  0
SECTION
  2
BLOCKS
  0
BLOCK
  5
20
100
AcDbEntity
  8
0
100
AcDbBlockBegin
  2
*Model_Space
 70
0
 10
0.0
 20
0.0
 30
0.0
  3
*Model_Space
  1

  0
ENDBLK
  5
21
100
AcDbEntity
  8
0
100
AcDbBlockEnd
  0
BLOCK
  5
1C
100
AcDbEntity
  8
0
100
AcDbBlockBegin
  2
*Paper_Space
 70
0
 10
0.0
 20
0.0
 30
0.0
  3
*Paper_Space
  1

  0
ENDBLK
  5
1D
100
AcDbEntity
  8
0
100
AcDbBlockEnd
  0
BLOCK
  5
21B
100
AcDbEntity
  8
0
100
AcDbBlockBegin
  2
_FILLED
 70
64
 10
0.0
 20
0.0
  3
_FILLED
  1

  0
SOLID
  5
21C
100
AcDbEntity
  8
0
  6
BYBLOCK
 62
0
100
AcDbTrace
 10
0.0
 20
0.0
 11
-1.0
 21
0.3166666667
 12
-1.0
 22
-0.3166666667
 13
-1.0
 23
-0.3166666667
  0
ENDBLK
  5
21D
100
AcDbEntity
  8
0
  6
BYBLOCK
 62
0
100
AcDbBlockEnd
  0
BLOCK
  5
21E
100
AcDbEntity
  8
0
100
AcDbBlockBegin
 62
7
  6
CONTINUOUS
  2
*D0
 70
65
 10
0.0
 20
0.0
  3
*D0
  1

  0
MTEXT
  5
21F
100
AcDbEntity
  8
0
100
AcDbMText
 62
7
  6
CONTINUOUS
  7
STANDARD
 71
2
 72
1
 10
0.0
 20
49.5175898832
 30
0.0
 11
1.0
 21
0.0
 31
0.0
 44
0.9
  1
53
 40
3.0
 41
4.2857142857
  0
LINE
  5
220
100
AcDbEntity
  8
0
100
AcDbLine
 62
7
  6
CONTINUOUS
 10
26.5
 20
36.4673421785
 11
26.5
 21
47.2675898832
  0
LINE
  5
221
100
AcDbEntity
  8
0
100
AcDbLine
 62
7
  6
CONTINUOUS
 10
-26.5
 20
34.968255938
 11
-26.5
 21
47.2675898832
  0
LINE
  5
222
100
AcDbEntity
  8
0
100
AcDbLine
 62
7
  6
CONTINUOUS
 10
26.5
 20
45.7675898832
 11
0.0
 21
45.7675898832
  0
LINE
  5
223
100
AcDbEntity
  8
0
100
AcDbLine
 62
7
  6
CONTINUOUS
 10
-26.5
 20
45.7675898832
 11
0.0
 21
45.7675898832
  0
INSERT
  5
224
100
AcDbEntity
  8
0
100
AcDbBlockReference
 62
7
  6
CONTINUOUS
  2
_FILLED
 10
26.5
 20
45.7675898832
 41
3.0
 42
3.0
 43
3.0
  0
INSERT
  5
225
100
AcDbEntity
  8
0
100
AcDbBlockReference
 62
7
  6
CONTINUOUS
  2
_FILLED
 10
-26.5
 20
45.7675898832
 41
3.0
 42
3.0
 43
3.0
 50
180.0
  0
ENDBLK
  5
226
100
AcDbEntity
  8
0
  6
BYBLOCK
 62
0
100
AcDbBlockEnd
  0
BLOCK
  5
227
100
AcDbEntity
  8
0
100
AcDbBlockBegin
 62
7
  6
CONTINUOUS
  2
*D1
 70
65
 10
0.0
 20
0.0
  3
*D1
  1

  0
MTEXT
  5
228
100
AcDbEntity
  8
0
100
AcDbMText
 62
7
  6
CONTINUOUS
  7
STANDARD
 71
2
 72
1
 10
30.75
 20
0.0
 30
0.0
 11
0.0
 21
1.0
 31
0.0
 44
0.9
  1
75,5
 40
3.0
 41
8.3571428571
  0
LINE
  5
229
100
AcDbEntity
  8
0
100
AcDbLine
 62
7
  6
CONTINUOUS
 10
27.0
 20
37.7675898832
 11
36.0
 21
37.7675898832
  0
LINE
  5
22A
100
AcDbEntity
  8
0
100
AcDbLine
 62
7
  6
CONTINUOUS
 10
27.0
 20
-37.7675898832
 11
36.0
 21
-37.7675898832
  0
LINE
  5
22B
100
AcDbEntity
  8
0
100
AcDbLine
 62
7
  6
CONTINUOUS
 10
34.5
 20
37.7675898832
 11
34.5
 21
0.0
  0
LINE
  5
22C
100
AcDbEntity
  8
0
100
AcDbLine
 62
7
  6
CONTINUOUS
 10
34.5
 20
-37.7675898832
 11
34.5
 21
0.0
  0
INSERT
  5
22D
100
AcDbEntity
  8
0
100
AcDbBlockReference
 62
7
  6
CONTINUOUS
  2
_FILLED
 10
34.5
 20
37.7675898832
 41
3.0
 42
3.0
 43
3.0
 50
90.0
  0
INSERT
  5
22E
100
AcDbEntity
  8
0
100
AcDbBlockReference
 62
7
  6
CONTINUOUS
  2
_FILLED
 10
34.5
 20
-37.7675898832
 41
3.0
 42
3.0
 43
3.0
 50
270.0
  0
ENDBLK
  5
22F
100
AcDbEntity
  8
0
  6
BYBLOCK
 62
0
100
AcDbBlockEnd
  0
BLOCK
  5
230
100
AcDbEntity
  8
0
100
AcDbBlockBegin
 62
7
  6
CONTINUOUS
  2
*D2
 70
65
 10
0.0
 20
0.0
  3
*D2
  1

  0
MTEXT
  5
231
100
AcDbEntity
  8
0
100
AcDbMText
 62
7
  6
CONTINUOUS
  7
STANDARD
 71
2
 72
1
 10
-72.6777153058
 20
49.5175898832
 30
0.0
 11
1.0
 21
0.0
 31
0.0
 44
0.9
  1
58
 40
3.0
 41
4.5
  0
LINE
  5
232
100
AcDbEntity
  8
0
100
AcDbLine
 62
7
  6
CONTINUOUS
 10
-43.6777153058
 20
38.2675898832
 11
-43.6777153058
 21
47.2675898832
  0
LINE
  5
233
100
AcDbEntity
  8
0
100
AcDbLine
 62
7
  6
CONTINUOUS
 10
-101.6777153058
 20
6.4167891002
 11
-101.6777153058
 21
47.2675898832
  0
LINE
  5
234
100
AcDbEntity
  8
0
100
AcDbLine
 62
7
  6
CONTINUOUS
 10
-43.6777153058
 20
45.7675898832
 11
-72.6777153058
 21
45.7675898832
  0
LINE
  5
235
100
AcDbEntity
  8
0
100
AcDbLine
 62
7
  6
CONTINUOUS
 10
-101.6777153058
 20
45.7675898832
 11
-72.6777153058
 21
45.7675898832
  0
INSERT
  5
236
100
AcDbEntity
  8
0
100
AcDbBlockReference
 62
7
  6
CONTINUOUS
  2
_FILLED
 10
-43.6777153058
 20
45.7675898832
 41
3.0
 42
3.0
 43
3.0
  0
INSERT
  5
237
100
AcDbEntity
  8
0
100
AcDbBlockReference
 62
7
  6
CONTINUOUS
  2
_FILLED
 10
-101.6777153058
 20
45.7675898832
 41
3.0
 42
3.0
 43
3.0
 50
180.0
  0
ENDBLK
  5
238
100
AcDbEntity
  8
0
  6
BYBLOCK
 62
0
100
AcDbBlockEnd
  0
ENDSEC
  0
SECTION
  2
ENTITIES
  0
DIMENSION
  5
239
100
AcDbEntity
  8
0
100
AcDbDimension
 62
7
  6
CONTINUOUS
  2
*D0
 10
-26.5
 20
45.7675898832
 11
-2.1428571429
 21
48.0175898832
 70
160
 71
2
 42
53.0
  3
DIMSTYLE_1
100
AcDbAlignedDimension
 13
26.5
 23
36.4673421785
 14
-26.5
 24
34.968255938
 50
180.0
100
AcDbRotatedDimension
  0
DIMENSION
  5
23A
100
AcDbEntity
  8
0
100
AcDbDimension
 62
7
  6
CONTINUOUS
  2
*D1
 10
34.5
 20
-37.7675898832
 11
34.1223076103
 21
-3.7356289158
 70
160
 71
2
 42
75.5351797665
  3
DIMSTYLE_2
100
AcDbAlignedDimension
 13
27.0
 23
37.7675898832
 14
27.0
 24
-37.7675898832
 50
270.0
100
AcDbRotatedDimension
  0
DIMENSION
  5
23B
100
AcDbEntity
  8
0
100
AcDbDimension
 62
7
  6
CONTINUOUS
  2
*D2
 10
-101.6777153058
 20
45.7675898832
 11
-74.9277153058
 21
48.0175898832
 70
160
 71
2
 42
58.0
  3
DIMSTYLE_1
100
AcDbAlignedDimension
 13
-43.6777153058
 23
38.2675898832
 14
-101.6777153058
 24
6.4167891002
 50
180.0
100
AcDbRotatedDimension
  0
LINE
  5
23C
100
AcDbEntity
  8
RACCORDO
100
AcDbLine
 62
7
  6
CONTINUOUS
 10
26.5
 20
-37.7688082292
 11
24.6687623468
 21
-37.7688082292
  0
LINE
  5
23D
100
AcDbEntity
  8
RACCORDO
100
AcDbLine
 62
7
  6
CONTINUOUS
 10
-24.6687623468
 20
-37.7688082292
 11
-26.5
 21
-37.7688082292
  0
LINE
  5
23E
100
AcDbEntity
  8
RACCORDO
100
AcDbLine
 62
7
  6
CONTINUOUS
 10
-22.9375705399
 20
-36.7927355168
 11
22.9375705399
 21
-36.7927355168
  0
LINE
  5
23F
100
AcDbEntity
  8
RACCORDO
100
AcDbLine
 62
253
  6
CONTINUOUS
 10
26.5
 20
-36.6337639781
 11
-26.5
 21
-36.6337639781
  0
LINE
  5
240
100
AcDbEntity
  8
RACCORDO
100
AcDbLine
 62
7
  6
CONTINUOUS
 10
-24.5900595685
 20
-27.8273126628
 11
-24.4035909511
 21
-28.0137812802
  0
LINE
  5
241
100
AcDbEntity
  8
RACCORDO
100
AcDbLine
 62
7
  6
CONTINUOUS
 10
-22.257780698
 20
-29.6159055849
 11
-21.6011061566
 21
-30.2725801262
  0
LINE
  5
242
100
AcDbEntity
  8
RACCORDO
100
AcDbLine
 62
253
  6
CONTINUOUS
 10
26.5
 20
-35.1346777376
 11
-26.5
 21
-35.1346777376
  0
LINE
  5
243
100
AcDbEntity
  8
RACCORDO
100
AcDbLine
 62
253
  6
CONTINUOUS
 10
26.5
 20
-32.031744062
 11
-26.5
 21
-32.031744062
  0
LINE
  5
244
100
AcDbEntity
  8
ASSI
100
AcDbLine
 62
253
  6
CONTINUOUS
 10
26.5
 20
-31.0675626475
 11
24.3752386979
 21
-31.0675626475
  0
LINE
  5
245
100
AcDbEntity
  8
ASSI
100
AcDbLine
 62
253
  6
CONTINUOUS
 10
-24.3752386979
 20
-31.0675626475
 11
-26.5
 21
-31.0675626475
  0
LINE
  5
246
100
AcDbEntity
  8
ASSI
100
AcDbLine
 62
253
  6
CONTINUOUS
 10
24.3848096058
 20
-30.5326578215
 11
-24.3848096058
 21
-30.5326578215
  0
LINE
  5
247
100
AcDbEntity
  8
RACCORDO
100
AcDbLine
 62
7
  6
CONTINUOUS
 10
18.6029336756
 20
-30.3736862829
 11
-18.6029336756
 21
-30.3736862829
  0
LINE
  5
248
100
AcDbEntity
  8
RACCORDO
100
AcDbLine
 62
7
  6
CONTINUOUS
 10
-22.5
 20
28.0817891002
 11
-22.5551011793
 21
27.916351134
  0
LINE
  5
249
100
AcDbEntity
  8
COPY-PUBBLISH
100
AcDbLine
 62
7
  6
CONTINUOUS
 10
-22.5
 20
26.0790444082
 11
-22.5453339465
 21
25.9429319689
  0
LINE
  5
24A
100
AcDbEntity
  8
DRAFT
100
AcDbLine
 62
7
  6
CONTINUOUS
 10
-24.3858687638
 20
-29.6159055849
 11
-22.257780698
 21
-29.6159055849
  0
LINE
  5
24B
100
AcDbEntity
  8
DRAFT
100
AcDbLine
 62
7
  6
CONTINUOUS
 10
22.257780698
 20
-29.6159055849
 11
24.3858687638
 21
-29.6159055849
  0
LINE
  5
24C
100
AcDbEntity
  8
ASSI
100
AcDbLine
 62
253
  6
CONTINUOUS
 10
-26.5
 20
-28.5495427503
 11
-24.3936774313
 21
-28.5495427503
  0
LINE
  5
24D
100
AcDbEntity
  8
ASSI
100
AcDbLine
 62
253
  6
CONTINUOUS
 10
26.5
 20
-28.5495427503
 11
24.3936774313
 21
-28.5495427503
  0
LINE
  5
24E
100
AcDbEntity
  8
ASSI
100
AcDbLine
 62
253
  6
CONTINUOUS
 10
-26.5
 20
-28.0137812802
 11
-24.4035909511
 21
-28.0137812802
  0
LINE
  5
24F
100
AcDbEntity
  8
ASSI
100
AcDbLine
 62
253
  6
CONTINUOUS
 10
26.5
 20
-28.0137812802
 11
24.4035909511
 21
-28.0137812802
  0
LINE
  5
250
100
AcDbEntity
  8
RACCORDO
100
AcDbLine
 62
7
  6
CONTINUOUS
 10
26.5
 20
-27.8273126628
 11
24.5900595685
 21
-27.8273126628
  0
LINE
  5
251
100
AcDbEntity
  8
RACCORDO
100
AcDbLine
 62
7
  6
CONTINUOUS
 10
-24.5900595685
 20
-27.8273126628
 11
-26.5
 21
-27.8273126628
  0
LINE
  5
252
100
AcDbEntity
  8
ASSI
100
AcDbLine
 62
7
  6
CONTINUOUS
 10
-24.3936774313
 20
-28.5495427503
 11
-24.3752386958
 21
-31.0675629389
  0
LINE
  5
253
100
AcDbEntity
  8
RACCORDO
100
AcDbLine
 62
7
  6
CONTINUOUS
 10
-26.5
 20
-22.6346777376
 11
-26.5
 21
-28.0137812802
  0
LINE
  5
254
100
AcDbEntity
  8
ASSI
100
AcDbLine
 62
7
  6
CONTINUOUS
 10
-26.5
 20
-28.0137812802
 11
-26.5
 21
-32.031744062
  0
LINE
  5
255
100
AcDbEntity
  8
RACCORDO
100
AcDbLine
 62
7
  6
CONTINUOUS
 10
-26.5
 20
-32.031744062
 11
-26.5
 21
-37.7675898832
  0
LINE
  5
256
100
AcDbEntity
  8
COPY-PUBBLISH
100
AcDbLine
 62
7
  6
CONTINUOUS
 10
-26.5
 20
-22.6346777376
 11
-26.5
 21
34.468255938
  0
LINE
  5
257
100
AcDbEntity
  8
RACCORDO
100
AcDbLine
 62
7
  6
CONTINUOUS
 10
-26.5
 20
34.468255938
 11
-26.5
 21
37.7675898832
  0
LINE
  5
258
100
AcDbEntity
  8
COPY-PUBBLISH
100
AcDbLine
 62
253
  6
CONTINUOUS
 10
-25.9287526511
 20
-14.6465185545
 11
-25.9287526511
 21
26.4800967549
  0
LINE
  5
259
100
AcDbEntity
  8
DRAFT
100
AcDbLine
 62
7
  6
CONTINUOUS
 10
24.5903436825
 20
-25.4346446791
 11
22.257780698
 21
-25.4346446791
  0
LINE
  5
25A
100
AcDbEntity
  8
DRAFT
100
AcDbLine
 62
7
  6
CONTINUOUS
 10
-22.257780698
 20
-25.4346446791
 11
-24.5903436825
 21
-25.4346446791
  0
LINE
  5
25B
100
AcDbEntity
  8
RACCORDO
100
AcDbLine
 62
253
  6
CONTINUOUS
 10
26.5
 20
-25.3403419496
 11
24.5903436825
 21
-25.3403419496
  0
LINE
  5
25C
100
AcDbEntity
  8
RACCORDO
100
AcDbLine
 62
253
  6
CONTINUOUS
 10
-24.5903436825
 20
-25.3403419496
 11
-26.5
 21
-25.3403419496
  0
LINE
  5
25D
100
AcDbEntity
  8
RACCORDO
100
AcDbLine
 62
7
  6
CONTINUOUS
 10
-21.6563469186
 20
-24.8332108998
 11
21.6563469186
 21
-24.8332108998
  0
LINE
  5
25E
100
AcDbEntity
  8
RACCORDO
100
AcDbLine
 62
7
  6
CONTINUOUS
 10
-18.6029336756
 20
-24.6768639812
 11
18.6029336756
 21
-24.6768639812
  0
LINE
  5
25F
100
AcDbEntity
  8
RACCORDO
100
AcDbLine
 62
7
  6
CONTINUOUS
 10
-22.5551011793
 20
-16.0827729337
 11
-22.5
 21
-16.2482108998
  0
LINE
  5
260
100
AcDbEntity
  8
COPY-PUBBLISH
100
AcDbLine
 62
7
  6
CONTINUOUS
 10
-22.5453339465
 20
-14.1093537686
 11
-22.5
 21
-14.2454662078
  0
LINE
  5
261
100
AcDbEntity
  8
COPY-PUBBLISH
100
AcDbLine
 62
7
  6
CONTINUOUS
 10
-22.5
 20
-14.2454662078
 11
-22.5
 21
-16.5832108998
  0
LINE
  5
262
100
AcDbEntity
  8
COPY-PUBBLISH
100
AcDbLine
 62
7
  6
CONTINUOUS
 10
-22.5
 20
26.0790444082
 11
-22.5
 21
28.4167891002
  0
LINE
  5
263
100
AcDbEntity
  8
DRAFT
100
AcDbLine
 62
7
  6
CONTINUOUS
 10
-22.257780698
 20
-25.4346446791
 11
-22.257780698
 21
-29.6159055849
  0
LINE
  5
264
100
AcDbEntity
  8
RACCORDO
100
AcDbLine
 62
253
  6
CONTINUOUS
 10
26.5
 20
-24.1337639781
 11
-26.5
 21
-24.1337639781
  0
LINE
  5
265
100
AcDbEntity
  8
RACCORDO
100
AcDbLine
 62
253
  6
CONTINUOUS
 10
26.5
 20
-22.6346777376
 11
-26.5
 21
-22.6346777376
  0
LINE
  5
266
100
AcDbEntity
  8
ASSI
100
AcDbLine
 62
7
  6
CONTINUOUS
 10
-19.368001
 20
3.6235551002
 11
-19.368001
 21
4.2992901002
  0
LINE
  5
267
100
AcDbEntity
  8
ASSI
100
AcDbLine
 62
7
  6
CONTINUOUS
 10
-19.368001
 20
7.5342861002
 11
-19.368001
 21
8.2100211002
  0
LINE
  5
268
100
AcDbEntity
  8
COPY-PUBBLISH
100
AcDbLine
 62
253
  6
CONTINUOUS
 10
-26.5
 20
-15.7479820477
 11
-26.4452032681
 21
-15.5834581663
  0
LINE
  5
269
100
AcDbEntity
  8
COPY-PUBBLISH
100
AcDbLine
 62
253
  6
CONTINUOUS
 10
-26.0003805997
 20
-16.2482108998
 11
-25.9452794205
 21
-16.0827729337
  0
LINE
  5
26A
100
AcDbEntity
  8
DRAFT
100
AcDbLine
 62
7
  6
CONTINUOUS
 10
-15.7
 20
-18.0832108998
 11
-6.8
 21
-18.0832108998
  0
LINE
  5
26B
100
AcDbEntity
  8
DRAFT
100
AcDbLine
 62
7
  6
CONTINUOUS
 10
6.8
 20
-18.0832108998
 11
15.7
 21
-18.0832108998
  0
LINE
  5
26C
100
AcDbEntity
  8
DRAFT
100
AcDbLine
 62
7
  6
CONTINUOUS
 10
-15.7786116689
 20
-16.5832108998
 11
-15.7
 21
-18.0832108998
  0
LINE
  5
26D
100
AcDbEntity
  8
DRAFT
100
AcDbLine
 62
7
  6
CONTINUOUS
 10
-15.6
 20
-18.0832108998
 11
-15.6243546614
 21
-16.6879332798
  0
LINE
  5
26E
100
AcDbEntity
  8
ASSI
100
AcDbLine
 62
7
  6
CONTINUOUS
 10
-15.781402
 20
5.5792881002
 11
-15.781402
 21
6.2542881002
  0
LINE
  5
26F
100
AcDbEntity
  8
ASSI
100
AcDbLine
 62
7
  6
CONTINUOUS
 10
-15.421402
 20
3.6235550217
 11
-15.421402
 21
4.2992927458
  0
LINE
  5
270
100
AcDbEntity
  8
ASSI
100
AcDbLine
 62
7
  6
CONTINUOUS
 10
-15.421402
 20
7.5342861002
 11
-15.421402
 21
8.2100211787
  0
LINE
  5
271
100
AcDbEntity
  8
DRAFT
100
AcDbLine
 62
7
  6
CONTINUOUS
 10
-15.6
 20
29.9167891002
 11
-15.6243546614
 21
28.5215114802
  0
LINE
  5
272
100
AcDbEntity
  8
DRAFT
100
AcDbLine
 62
7
  6
CONTINUOUS
 10
-15.7786116689
 20
28.4167891002
 11
-15.7
 21
29.9167891002
  0
LINE
  5
273
100
AcDbEntity
  8
0
100
AcDbLine
 62
7
  6
CONTINUOUS
 10
-14.2
 20
-17.1832108998
 11
-8.3
 21
-17.1832108998
  0
LINE
  5
274
100
AcDbEntity
  8
0
100
AcDbLine
 62
7
  6
CONTINUOUS
 10
8.3
 20
-17.1832108998
 11
14.2
 21
-17.1832108998
  0
LINE
  5
275
100
AcDbEntity
  8
COPY-PUBBLISH
100
AcDbLine
 62
7
  6
CONTINUOUS
 10
-22.5
 20
-16.5832108998
 11
-15.7786116689
 21
-16.5832108998
  0
LINE
  5
276
100
AcDbEntity
  8
DRAFT
100
AcDbLine
 62
7
  6
CONTINUOUS
 10
-6.7213883311
 20
-16.5832108998
 11
6.7213883311
 21
-16.5832108998
  0
LINE
  5
277
100
AcDbEntity
  8
COPY-PUBBLISH
100
AcDbLine
 62
7
  6
CONTINUOUS
 10
15.7786116689
 20
-16.5832108998
 11
22.5
 21
-16.5832108998
  0
LINE
  5
278
100
AcDbEntity
  8
DRAFT
100
AcDbLine
 62
7
  6
CONTINUOUS
 10
-14.2
 20
-16.4832108998
 11
-8.3
 21
-16.4832108998
  0
LINE
  5
279
100
AcDbEntity
  8
DRAFT
100
AcDbLine
 62
7
  6
CONTINUOUS
 10
8.3
 20
-16.4832108998
 11
14.2
 21
-16.4832108998
  0
LINE
  5
27A
100
AcDbEntity
  8
COPY-PUBBLISH
100
AcDbLine
 62
7
  6
CONTINUOUS
 10
-26.0003805997
 20
-16.2482108998
 11
-22.5
 21
-16.2482108998
  0
LINE
  5
27B
100
AcDbEntity
  8
COPY-PUBBLISH
100
AcDbLine
 62
7
  6
CONTINUOUS
 10
22.5
 20
-16.2482108998
 11
26.0003805997
 21
-16.2482108998
  0
LINE
  5
27C
100
AcDbEntity
  8
COPY-PUBBLISH
100
AcDbLine
 62
253
  6
CONTINUOUS
 10
25.9452794205
 20
-16.0827729337
 11
22.5551011793
 21
-16.0827729337
  0
LINE
  5
27D
100
AcDbEntity
  8
COPY-PUBBLISH
100
AcDbLine
 62
253
  6
CONTINUOUS
 10
-22.5551011793
 20
-16.0827729337
 11
-25.9452794205
 21
-16.0827729337
  0
LINE
  5
27E
100
AcDbEntity
  8
COPY-PUBBLISH
100
AcDbLine
 62
253
  6
CONTINUOUS
 10
-26.4452032681
 20
27.4170363667
 11
-26.5
 21
27.5815602481
  0
LINE
  5
27F
100
AcDbEntity
  8
COPY-PUBBLISH
100
AcDbLine
 62
253
  6
CONTINUOUS
 10
-25.9452794205
 20
27.916351134
 11
-26.0003805997
 21
28.0817891002
  0
LINE
  5
280
100
AcDbEntity
  8
0
100
AcDbLine
 62
7
  6
CONTINUOUS
 10
-14.2
 20
29.9167891002
 11
-14.2
 21
29.0167891002
  0
LINE
  5
281
100
AcDbEntity
  8
0
100
AcDbLine
 62
7
  6
CONTINUOUS
 10
-14.2
 20
-18.0832108998
 11
-14.2
 21
-17.1832108998
  0
LINE
  5
282
100
AcDbEntity
  8
DRAFT
100
AcDbLine
 62
7
  6
CONTINUOUS
 10
-14.2
 20
-17.1832108998
 11
-14.2
 21
-16.4832108998
  0
LINE
  5
283
100
AcDbEntity
  8
DRAFT
100
AcDbLine
 62
7
  6
CONTINUOUS
 10
-14.2
 20
28.3167891002
 11
-14.2
 21
29.0167891002
  0
LINE
  5
284
100
AcDbEntity
  8
RACCORDO
100
AcDbLine
 62
7
  6
CONTINUOUS
 10
-24.6681581378
 20
-37.7675898832
 11
-24.4375134245
 21
-36.844659565
  0
LINE
  5
285
100
AcDbEntity
  8
0
100
AcDbLine
 62
7
  6
CONTINUOUS
 10
-5.1216
 20
25.8939851002
 11
-5.867986
 21
23.2786431002
  0
LINE
  5
286
100
AcDbEntity
  8
0
100
AcDbLine
 62
7
  6
CONTINUOUS
 10
-5.550353
 20
22.0944431002
 11
-4.329028
 21
25.8939851002
  0
LINE
  5
287
100
AcDbEntity
  8
COPY-PUBBLISH
100
AcDbLine
 62
253
  6
CONTINUOUS
 10
25.9287526511
 20
-14.6465185545
 11
22.5798913334
 21
-14.6465185545
  0
LINE
  5
288
100
AcDbEntity
  8
COPY-PUBBLISH
100
AcDbLine
 62
253
  6
CONTINUOUS
 10
-22.5798913334
 20
-14.6465185545
 11
-25.9287526511
 21
-14.6465185545
  0
LINE
  5
289
100
AcDbEntity
  8
DRAFT
100
AcDbLine
 62
7
  6
CONTINUOUS
 10
-24.7387045963
 20
37.7675898832
 11
-24.6776165217
 21
37.5231444968
  0
LINE
  5
28A
100
AcDbEntity
  8
0
100
AcDbLine
 62
7
  6
CONTINUOUS
 10
-0.101245
 20
25.8939851002
 11
-0.894359
 21
23.7844681002
  0
LINE
  5
28B
100
AcDbEntity
  8
RACCORDO
100
AcDbLine
 62
7
  6
CONTINUOUS
 10
22.4857406735
 20
37.496182855
 11
21.6011061566
 21
36.6115483382
  0
LINE
  5
28C
100
AcDbEntity
  8
DRAFT
100
AcDbLine
 62
7
  6
CONTINUOUS
 10
-6.9
 20
29.9167891002
 11
-6.8756453386
 21
28.5215114802
  0
LINE
  5
28D
100
AcDbEntity
  8
0
100
AcDbLine
 62
7
  6
CONTINUOUS
 10
-8.3
 20
29.9167891002
 11
-8.3
 21
29.0167891002
  0
LINE
  5
28E
100
AcDbEntity
  8
DRAFT
100
AcDbLine
 62
7
  6
CONTINUOUS
 10
-8.3
 20
29.0167891002
 11
-8.3
 21
28.3167891002
  0
LINE
  5
28F
100
AcDbEntity
  8
DRAFT
100
AcDbLine
 62
7
  6
CONTINUOUS
 10
-8.3
 20
-16.4832108998
 11
-8.3
 21
-17.1832108998
  0
LINE
  5
290
100
AcDbEntity
  8
0
100
AcDbLine
 62
7
  6
CONTINUOUS
 10
-8.3
 20
-18.0832108998
 11
-8.3
 21
-17.1832108998
  0
LINE
  5
291
100
AcDbEntity
  8
DRAFT
100
AcDbLine
 62
7
  6
CONTINUOUS
 10
-6.9
 20
-18.0832108998
 11
-6.8756453386
 21
-16.6879332798
  0
LINE
  5
292
100
AcDbEntity
  8
DRAFT
100
AcDbLine
 62
7
  6
CONTINUOUS
 10
-6.8
 20
-18.0832108998
 11
-6.7213883311
 21
-16.5832108998
  0
LINE
  5
293
100
AcDbEntity
  8
0
100
AcDbLine
 62
7
  6
CONTINUOUS
 10
-0.843072
 20
22.0944431002
 11
0.09994
 21
24.5651301002
  0
LINE
  5
294
100
AcDbEntity
  8
DRAFT
100
AcDbLine
 62
7
  6
CONTINUOUS
 10
-6.8
 20
29.9167891002
 11
-6.7213883311
 21
28.4167891002
  0
LINE
  5
295
100
AcDbEntity
  8
0
100
AcDbLine
 62
7
  6
CONTINUOUS
 10
-4.034701
 20
25.8942131002
 11
-4.034701
 21
22.0944431002
  0
LINE
  5
296
100
AcDbEntity
  8
0
100
AcDbLine
 62
7
  6
CONTINUOUS
 10
-3.241588
 20
22.0944431002
 11
-3.241588
 21
25.8942131002
  0
LINE
  5
297
100
AcDbEntity
  8
0
100
AcDbLine
 62
7
  6
CONTINUOUS
 10
-2.055878
 20
22.0944431002
 11
-1.884725
 21
24.5754731002
  0
LINE
  5
298
100
AcDbEntity
  8
0
100
AcDbLine
 62
7
  6
CONTINUOUS
 10
-2.471553
 20
25.8939851002
 11
-2.81463
 21
22.0944431002
  0
LINE
  5
299
100
AcDbEntity
  8
0
100
AcDbLine
 62
7
  6
CONTINUOUS
 10
2.328897
 20
23.4399091002
 11
2.723801
 21
24.8499681002
  0
LINE
  5
29A
100
AcDbEntity
  8
0
100
AcDbLine
 62
7
  6
CONTINUOUS
 10
1.947812
 20
22.0944431002
 11
2.166662
 21
22.8529671002
  0
LINE
  5
29B
100
AcDbEntity
  8
0
100
AcDbLine
 62
7
  6
CONTINUOUS
 10
2.355082
 20
25.8939851002
 11
1.163303
 21
22.0944431002
  0
LINE
  5
29C
100
AcDbEntity
  8
RACCORDO
100
AcDbLine
 62
7
  6
CONTINUOUS
 10
-24.6681581378
 20
-37.7675898832
 11
-24.6687794091
 21
-37.7685566305
  0
LINE
  5
29D
100
AcDbEntity
  8
RACCORDO
100
AcDbLine
 62
7
  6
CONTINUOUS
 10
22.257780698
 20
-25.4346446791
 11
21.6011061566
 21
-24.7779701378
  0
LINE
  5
29E
100
AcDbEntity
  8
RACCORDO
100
AcDbLine
 62
7
  6
CONTINUOUS
 10
24.6687794091
 20
-37.7685566305
 11
24.6681581378
 21
-37.7675898832
  0
LINE
  5
29F
100
AcDbEntity
  8
0
100
AcDbLine
 62
7
  6
CONTINUOUS
 10
1.038763
 20
22.0944431002
 11
0.683463
 21
25.8939851002
  0
LINE
  5
2A0
100
AcDbEntity
  8
0
100
AcDbLine
 62
7
  6
CONTINUOUS
 10
0.09994
 20
24.5651301002
 11
0.262887
 21
22.0944431002
  0
LINE
  5
2A1
100
AcDbEntity
  8
RACCORDO
100
AcDbLine
 62
7
  6
CONTINUOUS
 10
-21.6011061566
 20
-24.7779701378
 11
-22.257780698
 21
-25.4346446791
  0
LINE
  5
2A2
100
AcDbEntity
  8
0
100
AcDbLine
 62
7
  6
CONTINUOUS
 10
15.018523
 20
2.3315211002
 11
15.268564
 21
2.3315211002
  0
LINE
  5
2A3
100
AcDbEntity
  8
0
100
AcDbLine
 62
7
  6
CONTINUOUS
 10
16.162936
 20
2.3315211002
 11
16.412828
 21
2.3315211002
  0
LINE
  5
2A4
100
AcDbEntity
  8
0
100
AcDbLine
 62
7
  6
CONTINUOUS
 10
17.111177
 20
2.3315211002
 11
17.368849
 21
2.3315211002
  0
LINE
  5
2A5
100
AcDbEntity
  8
0
100
AcDbLine
 62
7
  6
CONTINUOUS
 10
18.487375
 20
2.3315211002
 11
18.76046
 21
2.3315211002
  0
LINE
  5
2A6
100
AcDbEntity
  8
0
100
AcDbLine
 62
7
  6
CONTINUOUS
 10
18.989851
 20
2.3315211002
 11
20.177808
 21
2.3315211002
  0
LINE
  5
2A7
100
AcDbEntity
  8
0
100
AcDbLine
 62
7
  6
CONTINUOUS
 10
20.574791
 20
2.3315211002
 11
20.824683
 21
2.3315211002
  0
LINE
  5
2A8
100
AcDbEntity
  8
0
100
AcDbLine
 62
7
  6
CONTINUOUS
 10
20.177808
 20
2.5529811002
 11
19.239743
 21
2.5529811002
  0
LINE
  5
2A9
100
AcDbEntity
  8
0
100
AcDbLine
 62
7
  6
CONTINUOUS
 10
17.562178
 20
2.8702091002
 11
18.304371
 21
2.8702091002
  0
LINE
  5
2AA
100
AcDbEntity
  8
0
100
AcDbLine
 62
7
  6
CONTINUOUS
 10
18.214141
 20
3.0916691002
 11
17.63939
 21
3.0916691002
  0
LINE
  5
2AB
100
AcDbEntity
  8
0
100
AcDbLine
 62
7
  6
CONTINUOUS
 10
-7.453814
 20
25.8939851002
 11
-6.249285
 21
22.0944431002
  0
LINE
  5
2AC
100
AcDbEntity
  8
0
100
AcDbLine
 62
7
  6
CONTINUOUS
 10
-5.867986
 20
23.2786431002
 11
-6.592247
 21
25.8939851002
  0
LINE
  5
2AD
100
AcDbEntity
  8
DRAFT
100
AcDbLine
 62
7
  6
CONTINUOUS
 10
6.7213883311
 20
-16.5832108998
 11
6.8
 21
-18.0832108998
  0
LINE
  5
2AE
100
AcDbEntity
  8
0
100
AcDbLine
 62
7
  6
CONTINUOUS
 10
4.5210141587
 20
25.8495942785
 11
4.5210141587
 21
22.0944431614
  0
LINE
  5
2AF
100
AcDbEntity
  8
0
100
AcDbLine
 62
7
  6
CONTINUOUS
 10
5.284638007
 20
24.2036473933
 11
5.284638007
 21
25.2466958557
  0
LINE
  5
2B0
100
AcDbEntity
  8
0
100
AcDbLine
 62
7
  6
CONTINUOUS
 10
5.310936459
 20
22.0944431614
 11
5.310936459
 21
23.5813741629
  0
LINE
  5
2B1
100
AcDbEntity
  8
DRAFT
100
AcDbLine
 62
7
  6
CONTINUOUS
 10
6.9
 20
29.9167891002
 11
6.8756453386
 21
28.5215114802
  0
LINE
  5
2B2
100
AcDbEntity
  8
DRAFT
100
AcDbLine
 62
7
  6
CONTINUOUS
 10
6.7213883311
 20
28.4167891002
 11
6.8
 21
29.9167891002
  0
LINE
  5
2B3
100
AcDbEntity
  8
0
100
AcDbLine
 62
7
  6
CONTINUOUS
 10
15.536711
 20
3.9610521002
 11
16.162936
 21
3.9610521002
  0
LINE
  5
2B4
100
AcDbEntity
  8
0
100
AcDbLine
 62
7
  6
CONTINUOUS
 10
16.412828
 20
3.9610521002
 11
17.039052
 21
3.9610521002
  0
LINE
  5
2B5
100
AcDbEntity
  8
0
100
AcDbLine
 62
7
  6
CONTINUOUS
 10
21.523032
 20
4.1825131002
 11
21.229297
 21
4.1825131002
  0
LINE
  5
2B6
100
AcDbEntity
  8
0
100
AcDbLine
 62
7
  6
CONTINUOUS
 10
20.167483
 20
4.1825131002
 11
19.876293
 21
4.1825131002
  0
LINE
  5
2B7
100
AcDbEntity
  8
0
100
AcDbLine
 62
7
  6
CONTINUOUS
 10
19.239743
 20
4.1825131002
 11
18.989851
 21
4.1825131002
  0
LINE
  5
2B8
100
AcDbEntity
  8
0
100
AcDbLine
 62
7
  6
CONTINUOUS
 10
18.090392
 20
4.1825131002
 11
17.806982
 21
4.1825131002
  0
LINE
  5
2B9
100
AcDbEntity
  8
0
100
AcDbLine
 62
7
  6
CONTINUOUS
 10
17.039052
 20
4.1825131002
 11
15.536711
 21
4.1825131002
  0
LINE
  5
2BA
100
AcDbEntity
  8
0
100
AcDbLine
 62
7
  6
CONTINUOUS
 10
15.268564
 20
4.1825131002
 11
15.018523
 21
4.1825131002
  0
LINE
  5
2BB
100
AcDbEntity
  8
0
100
AcDbLine
 62
7
  6
CONTINUOUS
 10
17.117611
 20
4.9920411002
 11
17.367652
 21
4.9920411002
  0
LINE
  5
2BC
100
AcDbEntity
  8
0
100
AcDbLine
 62
7
  6
CONTINUOUS
 10
17.795311
 20
4.9920411002
 11
18.03772
 21
4.9920411002
  0
LINE
  5
2BD
100
AcDbEntity
  8
0
100
AcDbLine
 62
7
  6
CONTINUOUS
 10
18.983417
 20
4.9920411002
 11
19.264283
 21
4.9920411002
  0
LINE
  5
2BE
100
AcDbEntity
  8
ASSI
100
AcDbLine
 62
7
  6
CONTINUOUS
 10
-17.095853
 20
5.5792881002
 11
-15.781402
 21
5.5792881002
  0
LINE
  5
2BF
100
AcDbEntity
  8
ASSI
100
AcDbLine
 62
7
  6
CONTINUOUS
 10
-15.781402
 20
6.2542881002
 11
-17.0958557008
 21
6.2542881002
  0
LINE
  5
2C0
100
AcDbEntity
  8
DRAFT
100
AcDbLine
 62
7
  6
CONTINUOUS
 10
6.9
 20
-18.0832108998
 11
6.8756453386
 21
-16.6879332798
  0
LINE
  5
2C1
100
AcDbEntity
  8
0
100
AcDbLine
 62
7
  6
CONTINUOUS
 10
8.3
 20
29.9167891002
 11
8.3
 21
29.0167891002
  0
LINE
  5
2C2
100
AcDbEntity
  8
0
100
AcDbLine
 62
7
  6
CONTINUOUS
 10
8.3
 20
-18.0832108998
 11
8.3
 21
-17.1832108998
  0
LINE
  5
2C3
100
AcDbEntity
  8
DRAFT
100
AcDbLine
 62
7
  6
CONTINUOUS
 10
8.3
 20
-17.1832108998
 11
8.3
 21
-16.4832108998
  0
LINE
  5
2C4
100
AcDbEntity
  8
DRAFT
100
AcDbLine
 62
7
  6
CONTINUOUS
 10
8.3
 20
28.3167891002
 11
8.3
 21
29.0167891002
  0
LINE
  5
2C5
100
AcDbEntity
  8
0
100
AcDbLine
 62
7
  6
CONTINUOUS
 10
19.264283
 20
6.8415371002
 11
19.022173
 21
6.8415371002
  0
LINE
  5
2C6
100
AcDbEntity
  8
0
100
AcDbLine
 62
7
  6
CONTINUOUS
 10
18.091739
 20
6.8415371002
 11
17.795311
 21
6.8415371002
  0
LINE
  5
2C7
100
AcDbEntity
  8
0
100
AcDbLine
 62
7
  6
CONTINUOUS
 10
17.367652
 20
6.8415371002
 11
17.117611
 21
6.8415371002
  0
LINE
  5
2C8
100
AcDbEntity
  8
0
100
AcDbLine
 62
7
  6
CONTINUOUS
 10
14.637252
 20
7.6525621002
 11
14.879512
 21
7.6525621002
  0
LINE
  5
2C9
100
AcDbEntity
  8
0
100
AcDbLine
 62
7
  6
CONTINUOUS
 10
15.400094
 20
7.6525621002
 11
15.647442
 21
7.6525621002
  0
LINE
  5
2CA
100
AcDbEntity
  8
0
100
AcDbLine
 62
7
  6
CONTINUOUS
 10
16.168024
 20
7.6525621002
 11
16.410284
 21
7.6525621002
  0
LINE
  5
2CB
100
AcDbEntity
  8
0
100
AcDbLine
 62
7
  6
CONTINUOUS
 10
16.631894
 20
7.6525621002
 11
16.889566
 21
7.6525621002
  0
LINE
  5
2CC
100
AcDbEntity
  8
0
100
AcDbLine
 62
7
  6
CONTINUOUS
 10
18.008092
 20
7.6525621002
 11
18.281177
 21
7.6525621002
  0
LINE
  5
2CD
100
AcDbEntity
  8
0
100
AcDbLine
 62
7
  6
CONTINUOUS
 10
18.523437
 20
7.6525621002
 11
19.2732623155
 21
7.6525621002
  0
LINE
  5
2CE
100
AcDbEntity
  8
0
100
AcDbLine
 62
7
  6
CONTINUOUS
 10
20.396875
 20
7.6525621002
 11
21.762748
 21
7.6525621002
  0
LINE
  5
2CF
100
AcDbEntity
  8
0
100
AcDbLine
 62
7
  6
CONTINUOUS
 10
19.2397443921
 20
7.8665411002
 11
18.773329
 21
7.8665411002
  0
LINE
  5
2D0
100
AcDbEntity
  8
0
100
AcDbLine
 62
7
  6
CONTINUOUS
 10
21.762748
 20
7.8740221002
 11
20.646916
 21
7.8740221002
  0
LINE
  5
2D1
100
AcDbEntity
  8
0
100
AcDbLine
 62
7
  6
CONTINUOUS
 10
17.082896
 20
8.1912501002
 11
17.825088
 21
8.1912501002
  0
LINE
  5
2D2
100
AcDbEntity
  8
0
100
AcDbLine
 62
7
  6
CONTINUOUS
 10
17.734858
 20
8.4127101002
 11
17.160257
 21
8.4127101002
  0
LINE
  5
2D3
100
AcDbEntity
  8
0
100
AcDbLine
 62
7
  6
CONTINUOUS
 10
20.646916
 20
8.4920171002
 11
21.659649
 21
8.4920171002
  0
LINE
  5
2D4
100
AcDbEntity
  8
0
100
AcDbLine
 62
7
  6
CONTINUOUS
 10
21.659649
 20
8.7134781002
 11
20.646916
 21
8.7134781002
  0
LINE
  5
2D5
100
AcDbEntity
  8
0
100
AcDbLine
 62
7
  6
CONTINUOUS
 10
20.646916
 20
9.2805971002
 11
21.744642
 21
9.2805971002
  0
LINE
  5
2D6
100
AcDbEntity
  8
0
100
AcDbLine
 62
7
  6
CONTINUOUS
 10
18.773329
 20
9.2880791002
 11
19.2397410426
 21
9.2880791002
  0
LINE
  5
2D7
100
AcDbEntity
  8
0
100
AcDbLine
 62
7
  6
CONTINUOUS
 10
21.744642
 20
9.5020571002
 11
20.396875
 21
9.5020571002
  0
LINE
  5
2D8
100
AcDbEntity
  8
0
100
AcDbLine
 62
7
  6
CONTINUOUS
 10
19.2732624542
 20
9.5020571002
 11
18.523437
 21
9.5020571002
  0
LINE
  5
2D9
100
AcDbEntity
  8
0
100
AcDbLine
 62
7
  6
CONTINUOUS
 10
17.611109
 20
9.5020571002
 11
17.327699
 21
9.5020571002
  0
LINE
  5
2DA
100
AcDbEntity
  8
0
100
AcDbLine
 62
7
  6
CONTINUOUS
 10
16.410284
 20
9.5020571002
 11
16.0546
 21
9.5020571002
  0
LINE
  5
2DB
100
AcDbEntity
  8
0
100
AcDbLine
 62
7
  6
CONTINUOUS
 10
14.995479
 20
9.5020571002
 11
14.637252
 21
9.5020571002
  0
LINE
  5
2DC
100
AcDbEntity
  8
0
100
AcDbLine
 62
7
  6
CONTINUOUS
 10
-1.884725
 20
24.5754731002
 11
-0.954306
 21
22.0944431002
  0
LINE
  5
2DD
100
AcDbEntity
  8
0
100
AcDbLine
 62
7
  6
CONTINUOUS
 10
-0.894359
 20
23.7844681002
 11
-1.679095
 21
25.8939851002
  0
LINE
  5
2DE
100
AcDbEntity
  8
0
100
AcDbLine
 62
7
  6
CONTINUOUS
 10
3.24675
 20
22.8529671002
 11
3.452209
 21
22.0944431002
  0
LINE
  5
2DF
100
AcDbEntity
  8
0
100
AcDbLine
 62
7
  6
CONTINUOUS
 10
2.723801
 20
24.8499681002
 11
3.088247
 21
23.4399091002
  0
LINE
  5
2E0
100
AcDbEntity
  8
0
100
AcDbLine
 62
7
  6
CONTINUOUS
 10
15.647442
 20
7.6525621002
 11
16.168024
 21
9.2057791002
  0
LINE
  5
2E1
100
AcDbEntity
  8
0
100
AcDbLine
 62
7
  6
CONTINUOUS
 10
16.0546
 20
9.5020571002
 11
15.526318
 21
7.9305951002
  0
LINE
  5
2E2
100
AcDbEntity
  8
RACCORDO
100
AcDbLine
 62
7
  6
CONTINUOUS
 10
-22.4857406735
 20
37.496182855
 11
-21.6011061566
 21
36.6115483382
  0
LINE
  5
2E3
100
AcDbEntity
  8
0
100
AcDbLine
 62
7
  6
CONTINUOUS
 10
4.288118
 20
22.0944431002
 11
3.122324
 21
25.8939851002
  0
LINE
  5
2E4
100
AcDbEntity
  8
0
100
AcDbLine
 62
7
  6
CONTINUOUS
 10
14.2
 20
29.9167891002
 11
14.2
 21
29.0167891002
  0
LINE
  5
2E5
100
AcDbEntity
  8
DRAFT
100
AcDbLine
 62
7
  6
CONTINUOUS
 10
14.2
 20
29.0167891002
 11
14.2
 21
28.3167891002
  0
LINE
  5
2E6
100
AcDbEntity
  8
DRAFT
100
AcDbLine
 62
7
  6
CONTINUOUS
 10
14.2
 20
-16.4832108998
 11
14.2
 21
-17.1832108998
  0
LINE
  5
2E7
100
AcDbEntity
  8
0
100
AcDbLine
 62
7
  6
CONTINUOUS
 10
14.2
 20
-18.0832108998
 11
14.2
 21
-17.1832108998
  0
LINE
  5
2E8
100
AcDbEntity
  8
0
100
AcDbLine
 62
7
  6
CONTINUOUS
 10
14.637252
 20
9.5020571002
 11
14.637252
 21
7.6525621002
  0
LINE
  5
2E9
100
AcDbEntity
  8
0
100
AcDbLine
 62
7
  6
CONTINUOUS
 10
14.879512
 20
7.6525621002
 11
14.879512
 21
9.2027861002
  0
LINE
  5
2EA
100
AcDbEntity
  8
0
100
AcDbLine
 62
7
  6
CONTINUOUS
 10
15.018523
 20
4.1825131002
 11
15.018523
 21
2.3315211002
  0
LINE
  5
2EB
100
AcDbEntity
  8
0
100
AcDbLine
 62
7
  6
CONTINUOUS
 10
15.268564
 20
2.3315211002
 11
15.268564
 21
4.1825131002
  0
LINE
  5
2EC
100
AcDbEntity
  8
0
100
AcDbLine
 62
7
  6
CONTINUOUS
 10
15.536711
 20
4.1825131002
 11
15.536711
 21
3.9610521002
  0
LINE
  5
2ED
100
AcDbEntity
  8
DRAFT
100
AcDbLine
 62
7
  6
CONTINUOUS
 10
24.7387045963
 20
37.7675898832
 11
24.6776165217
 21
37.5231444968
  0
LINE
  5
2EE
100
AcDbEntity
  8
0
100
AcDbLine
 62
7
  6
CONTINUOUS
 10
16.889566
 20
7.6525621002
 11
17.082896
 21
8.1912501002
  0
LINE
  5
2EF
100
AcDbEntity
  8
0
100
AcDbLine
 62
7
  6
CONTINUOUS
 10
17.368849
 20
2.3315211002
 11
17.562178
 21
2.8702091002
  0
LINE
  5
2F0
100
AcDbEntity
  8
0
100
AcDbLine
 62
7
  6
CONTINUOUS
 10
17.160257
 20
8.4127101002
 11
17.459182
 21
9.2340001002
  0
LINE
  5
2F1
100
AcDbEntity
  8
0
100
AcDbLine
 62
7
  6
CONTINUOUS
 10
17.63939
 20
3.0916691002
 11
17.938466
 21
3.9129571002
  0
LINE
  5
2F2
100
AcDbEntity
  8
0
100
AcDbLine
 62
7
  6
CONTINUOUS
 10
17.806982
 20
4.1825131002
 11
17.111177
 21
2.3315211002
  0
LINE
  5
2F3
100
AcDbEntity
  8
0
100
AcDbLine
 62
7
  6
CONTINUOUS
 10
17.327699
 20
9.5020571002
 11
16.631894
 21
7.6525621002
  0
LINE
  5
2F4
100
AcDbEntity
  8
RACCORDO
100
AcDbLine
 62
7
  6
CONTINUOUS
 10
24.6681581378
 20
-37.7675898832
 11
24.4375134245
 21
-36.844659565
  0
LINE
  5
2F5
100
AcDbEntity
  8
DRAFT
100
AcDbLine
 62
7
  6
CONTINUOUS
 10
15.7
 20
29.9167891002
 11
15.7786116689
 21
28.4167891002
  0
LINE
  5
2F6
100
AcDbEntity
  8
DRAFT
100
AcDbLine
 62
7
  6
CONTINUOUS
 10
15.6
 20
29.9167891002
 11
15.6243546614
 21
28.5215114802
  0
LINE
  5
2F7
100
AcDbEntity
  8
0
100
AcDbLine
 62
7
  6
CONTINUOUS
 10
16.162936
 20
3.9610521002
 11
16.162936
 21
2.3315211002
  0
LINE
  5
2F8
100
AcDbEntity
  8
0
100
AcDbLine
 62
7
  6
CONTINUOUS
 10
16.168024
 20
9.2057791002
 11
16.168024
 21
7.6525621002
  0
LINE
  5
2F9
100
AcDbEntity
  8
0
100
AcDbLine
 62
7
  6
CONTINUOUS
 10
16.410284
 20
7.6525621002
 11
16.410284
 21
9.5020571002
  0
LINE
  5
2FA
100
AcDbEntity
  8
0
100
AcDbLine
 62
7
  6
CONTINUOUS
 10
16.412828
 20
2.3315211002
 11
16.412828
 21
3.9610521002
  0
LINE
  5
2FB
100
AcDbEntity
  8
0
100
AcDbLine
 62
7
  6
CONTINUOUS
 10
17.039052
 20
3.9610521002
 11
17.039052
 21
4.1825131002
  0
LINE
  5
2FC
100
AcDbEntity
  8
0
100
AcDbLine
 62
7
  6
CONTINUOUS
 10
17.117611
 20
6.8415371002
 11
17.117611
 21
4.9920411002
  0
LINE
  5
2FD
100
AcDbEntity
  8
0
100
AcDbLine
 62
7
  6
CONTINUOUS
 10
17.367652
 20
4.9920411002
 11
17.367652
 21
6.8415371002
  0
LINE
  5
2FE
100
AcDbEntity
  8
0
100
AcDbLine
 62
7
  6
CONTINUOUS
 10
17.795311
 20
6.8415371002
 11
17.795311
 21
4.9920411002
  0
LINE
  5
2FF
100
AcDbEntity
  8
0
100
AcDbLine
 62
7
  6
CONTINUOUS
 10
18.03772
 20
4.9920411002
 11
18.03772
 21
6.4949861002
  0
LINE
  5
300
100
AcDbEntity
  8
0
100
AcDbLine
 62
7
  6
CONTINUOUS
 10
18.523437
 20
9.5020571002
 11
18.523437
 21
7.6525621002
  0
LINE
  5
301
100
AcDbEntity
  8
0
100
AcDbLine
 62
7
  6
CONTINUOUS
 10
18.773329
 20
7.8665411002
 11
18.773329
 21
9.2880791002
  0
LINE
  5
302
100
AcDbEntity
  8
DRAFT
100
AcDbLine
 62
7
  6
CONTINUOUS
 10
15.6
 20
-18.0832108998
 11
15.6243546614
 21
-16.6879332798
  0
LINE
  5
303
100
AcDbEntity
  8
DRAFT
100
AcDbLine
 62
7
  6
CONTINUOUS
 10
15.7
 20
-18.0832108998
 11
15.7786116689
 21
-16.5832108998
  0
LINE
  5
304
100
AcDbEntity
  8
COPY-PUBBLISH
100
AcDbLine
 62
253
  6
CONTINUOUS
 10
26.0003805997
 20
28.0817891002
 11
25.9452794205
 21
27.916351134
  0
LINE
  5
305
100
AcDbEntity
  8
COPY-PUBBLISH
100
AcDbLine
 62
253
  6
CONTINUOUS
 10
26.5
 20
27.5815602481
 11
26.4452032681
 21
27.4170363667
  0
LINE
  5
306
100
AcDbEntity
  8
0
100
AcDbLine
 62
7
  6
CONTINUOUS
 10
21.229297
 20
4.1825131002
 11
20.69839
 21
3.2936771002
  0
LINE
  5
307
100
AcDbEntity
  8
0
100
AcDbLine
 62
7
  6
CONTINUOUS
 10
20.824683
 20
3.0767061002
 11
21.523032
 21
4.1825131002
  0
LINE
  5
308
100
AcDbEntity
  8
0
100
AcDbLine
 62
7
  6
CONTINUOUS
 10
18.03772
 20
6.4949861002
 11
18.983417
 21
4.9920411002
  0
LINE
  5
309
100
AcDbEntity
  8
0
100
AcDbLine
 62
7
  6
CONTINUOUS
 10
18.76046
 20
2.3315211002
 11
18.090392
 21
4.1825131002
  0
LINE
  5
30A
100
AcDbEntity
  8
0
100
AcDbLine
 62
7
  6
CONTINUOUS
 10
18.304371
 20
2.8702091002
 11
18.487375
 21
2.3315211002
  0
LINE
  5
30B
100
AcDbEntity
  8
0
100
AcDbLine
 62
7
  6
CONTINUOUS
 10
15.526318
 20
7.9305951002
 11
14.995479
 21
9.5020571002
  0
LINE
  5
30C
100
AcDbEntity
  8
0
100
AcDbLine
 62
7
  6
CONTINUOUS
 10
14.879512
 20
9.2027861002
 11
15.400094
 21
7.6525621002
  0
LINE
  5
30D
100
AcDbEntity
  8
0
100
AcDbLine
 62
7
  6
CONTINUOUS
 10
17.938466
 20
3.9129571002
 11
18.214141
 21
3.0916691002
  0
LINE
  5
30E
100
AcDbEntity
  8
0
100
AcDbLine
 62
7
  6
CONTINUOUS
 10
18.989851
 20
4.1825131002
 11
18.989851
 21
2.3315211002
  0
LINE
  5
30F
100
AcDbEntity
  8
0
100
AcDbLine
 62
7
  6
CONTINUOUS
 10
19.022173
 20
6.8415371002
 11
19.022173
 21
5.3397201002
  0
LINE
  5
310
100
AcDbEntity
  8
0
100
AcDbLine
 62
7
  6
CONTINUOUS
 10
19.239743
 20
2.5529811002
 11
19.239743
 21
4.1825131002
  0
LINE
  5
311
100
AcDbEntity
  8
0
100
AcDbLine
 62
7
  6
CONTINUOUS
 10
19.264283
 20
4.9920411002
 11
19.264283
 21
6.8415371002
  0
LINE
  5
312
100
AcDbEntity
  8
0
100
AcDbLine
 62
7
  6
CONTINUOUS
 10
20.177808
 20
2.3315211002
 11
20.177808
 21
2.5529811002
  0
LINE
  5
313
100
AcDbEntity
  8
0
100
AcDbLine
 62
7
  6
CONTINUOUS
 10
20.396875
 20
9.5020571002
 11
20.396875
 21
7.6525621002
  0
LINE
  5
314
100
AcDbEntity
  8
0
100
AcDbLine
 62
7
  6
CONTINUOUS
 10
20.574791
 20
3.0767061002
 11
20.574791
 21
2.3315211002
  0
LINE
  5
315
100
AcDbEntity
  8
0
100
AcDbLine
 62
7
  6
CONTINUOUS
 10
20.646916
 20
7.8740221002
 11
20.646916
 21
8.4920171002
  0
LINE
  5
316
100
AcDbEntity
  8
0
100
AcDbLine
 62
7
  6
CONTINUOUS
 10
20.646916
 20
8.7134781002
 11
20.646916
 21
9.2805971002
  0
LINE
  5
317
100
AcDbEntity
  8
0
100
AcDbLine
 62
7
  6
CONTINUOUS
 10
20.824683
 20
2.3315211002
 11
20.824683
 21
3.0767061002
  0
LINE
  5
318
100
AcDbEntity
  8
0
100
AcDbLine
 62
7
  6
CONTINUOUS
 10
21.659649
 20
8.4920171002
 11
21.659649
 21
8.7134781002
  0
LINE
  5
319
100
AcDbEntity
  8
0
100
AcDbLine
 62
7
  6
CONTINUOUS
 10
21.744642
 20
9.2805971002
 11
21.744642
 21
9.5020571002
  0
LINE
  5
31A
100
AcDbEntity
  8
0
100
AcDbLine
 62
7
  6
CONTINUOUS
 10
21.762748
 20
7.6525621002
 11
21.762748
 21
7.8740221002
  0
LINE
  5
31B
100
AcDbEntity
  8
0
100
AcDbLine
 62
7
  6
CONTINUOUS
 10
19.876293
 20
4.1825131002
 11
20.574791
 21
3.0767061002
  0
LINE
  5
31C
100
AcDbEntity
  8
0
100
AcDbLine
 62
7
  6
CONTINUOUS
 10
19.022173
 20
5.3397201002
 11
18.091739
 21
6.8415371002
  0
LINE
  5
31D
100
AcDbEntity
  8
0
100
AcDbLine
 62
7
  6
CONTINUOUS
 10
20.69839
 20
3.2936771002
 11
20.167483
 21
4.1825131002
  0
LINE
  5
31E
100
AcDbEntity
  8
0
100
AcDbLine
 62
7
  6
CONTINUOUS
 10
18.281177
 20
7.6525621002
 11
17.611109
 21
9.5020571002
  0
LINE
  5
31F
100
AcDbEntity
  8
0
100
AcDbLine
 62
7
  6
CONTINUOUS
 10
17.825088
 20
8.1912501002
 11
18.008092
 21
7.6525621002
  0
LINE
  5
320
100
AcDbEntity
  8
0
100
AcDbLine
 62
7
  6
CONTINUOUS
 10
17.459182
 20
9.2340001002
 11
17.734858
 21
8.4127101002
  0
LINE
  5
321
100
AcDbEntity
  8
COPY-PUBBLISH
100
AcDbLine
 62
253
  6
CONTINUOUS
 10
25.9452794205
 20
-16.0827729337
 11
26.0003805997
 21
-16.2482108998
  0
LINE
  5
322
100
AcDbEntity
  8
COPY-PUBBLISH
100
AcDbLine
 62
253
  6
CONTINUOUS
 10
26.4452032681
 20
-15.5834581663
 11
26.5
 21
-15.7479820477
  0
LINE
  5
323
100
AcDbEntity
  8
DRAFT
100
AcDbLine
 62
7
  6
CONTINUOUS
 10
22.257780698
 20
-25.4346446791
 11
22.257780698
 21
-29.6159055849
  0
LINE
  5
324
100
AcDbEntity
  8
COPY-PUBBLISH
100
AcDbLine
 62
7
  6
CONTINUOUS
 10
22.5
 20
-14.2454662078
 11
22.5
 21
-16.5832108998
  0
LINE
  5
325
100
AcDbEntity
  8
COPY-PUBBLISH
100
AcDbLine
 62
7
  6
CONTINUOUS
 10
22.5
 20
26.0790444082
 11
22.5
 21
28.4167891002
  0
LINE
  5
326
100
AcDbEntity
  8
ASSI
100
AcDbLine
 62
7
  6
CONTINUOUS
 10
24.3936774313
 20
-28.5495427503
 11
24.3752386958
 21
-31.0675629389
  0
LINE
  5
327
100
AcDbEntity
  8
0
100
AcDbLine
 62
7
  6
CONTINUOUS
 10
-6.249285
 20
22.0944431002
 11
-5.550353
 21
22.0944431002
  0
LINE
  5
328
100
AcDbEntity
  8
0
100
AcDbLine
 62
7
  6
CONTINUOUS
 10
-4.034701
 20
22.0944431002
 11
-3.241588
 21
22.0944431002
  0
LINE
  5
329
100
AcDbEntity
  8
0
100
AcDbLine
 62
7
  6
CONTINUOUS
 10
-2.81463
 20
22.0944431002
 11
-2.055878
 21
22.0944431002
  0
LINE
  5
32A
100
AcDbEntity
  8
0
100
AcDbLine
 62
7
  6
CONTINUOUS
 10
-0.954306
 20
22.0944431002
 11
-0.843072
 21
22.0944431002
  0
LINE
  5
32B
100
AcDbEntity
  8
0
100
AcDbLine
 62
7
  6
CONTINUOUS
 10
0.262887
 20
22.0944431002
 11
1.038763
 21
22.0944431002
  0
LINE
  5
32C
100
AcDbEntity
  8
0
100
AcDbLine
 62
7
  6
CONTINUOUS
 10
1.163303
 20
22.0944431002
 11
1.947812
 21
22.0944431002
  0
LINE
  5
32D
100
AcDbEntity
  8
0
100
AcDbLine
 62
7
  6
CONTINUOUS
 10
3.452209
 20
22.0944431002
 11
4.288118
 21
22.0944431002
  0
LINE
  5
32E
100
AcDbEntity
  8
0
100
AcDbLine
 62
7
  6
CONTINUOUS
 10
4.5210141587
 20
22.0944431614
 11
5.310936459
 21
22.0944431614
  0
LINE
  5
32F
100
AcDbEntity
  8
0
100
AcDbLine
 62
7
  6
CONTINUOUS
 10
6.5254804604
 20
22.0944431614
 11
7.2883635073
 21
22.0944431614
  0
LINE
  5
330
100
AcDbEntity
  8
0
100
AcDbLine
 62
7
  6
CONTINUOUS
 10
2.166662
 20
22.8529671002
 11
3.24675
 21
22.8529671002
  0
LINE
  5
331
100
AcDbEntity
  8
0
100
AcDbLine
 62
7
  6
CONTINUOUS
 10
3.088247
 20
23.4399091002
 11
2.328897
 21
23.4399091002
  0
LINE
  5
332
100
AcDbEntity
  8
0
100
AcDbLine
 62
7
  6
CONTINUOUS
 10
5.310936459
 20
23.5813741629
 11
5.7361849921
 21
23.5813741629
  0
LINE
  5
333
100
AcDbEntity
  8
0
100
AcDbLine
 62
7
  6
CONTINUOUS
 10
5.737894534
 20
24.2036473933
 11
5.284638007
 21
24.2036473933
  0
LINE
  5
334
100
AcDbEntity
  8
COPY-PUBBLISH
100
AcDbLine
 62
253
  6
CONTINUOUS
 10
25.9287526511
 20
26.4800967549
 11
25.9287526511
 21
-14.6465185545
  0
LINE
  5
335
100
AcDbEntity
  8
RACCORDO
100
AcDbLine
 62
7
  6
CONTINUOUS
 10
26.5
 20
37.7675898832
 11
26.5
 21
34.468255938
  0
LINE
  5
336
100
AcDbEntity
  8
COPY-PUBBLISH
100
AcDbLine
 62
7
  6
CONTINUOUS
 10
26.5
 20
34.468255938
 11
26.5
 21
-22.6346777376
  0
LINE
  5
337
100
AcDbEntity
  8
RACCORDO
100
AcDbLine
 62
7
  6
CONTINUOUS
 10
26.5
 20
-22.6346777376
 11
26.5
 21
-28.0137812802
  0
LINE
  5
338
100
AcDbEntity
  8
ASSI
100
AcDbLine
 62
7
  6
CONTINUOUS
 10
26.5
 20
-28.0137812802
 11
26.5
 21
-32.031744062
  0
LINE
  5
339
100
AcDbEntity
  8
RACCORDO
100
AcDbLine
 62
7
  6
CONTINUOUS
 10
26.5
 20
-32.031744062
 11
26.5
 21
-37.7675898832
  0
LINE
  5
33A
100
AcDbEntity
  8
COPY-PUBBLISH
100
AcDbLine
 62
7
  6
CONTINUOUS
 10
22.5453339465
 20
-14.1093537686
 11
22.5
 21
-14.2454662078
  0
LINE
  5
33B
100
AcDbEntity
  8
RACCORDO
100
AcDbLine
 62
7
  6
CONTINUOUS
 10
22.5551011793
 20
-16.0827729337
 11
22.5
 21
-16.2482108998
  0
LINE
  5
33C
100
AcDbEntity
  8
0
100
AcDbLine
 62
7
  6
CONTINUOUS
 10
3.122324
 20
25.8939851002
 11
2.355082
 21
25.8939851002
  0
LINE
  5
33D
100
AcDbEntity
  8
0
100
AcDbLine
 62
7
  6
CONTINUOUS
 10
0.683463
 20
25.8939851002
 11
-0.101245
 21
25.8939851002
  0
LINE
  5
33E
100
AcDbEntity
  8
0
100
AcDbLine
 62
7
  6
CONTINUOUS
 10
-1.679095
 20
25.8939851002
 11
-2.471553
 21
25.8939851002
  0
LINE
  5
33F
100
AcDbEntity
  8
0
100
AcDbLine
 62
7
  6
CONTINUOUS
 10
-4.329028
 20
25.8939851002
 11
-5.1216
 21
25.8939851002
  0
LINE
  5
340
100
AcDbEntity
  8
0
100
AcDbLine
 62
7
  6
CONTINUOUS
 10
-6.592247
 20
25.8939851002
 11
-7.453814
 21
25.8939851002
  0
LINE
  5
341
100
AcDbEntity
  8
0
100
AcDbLine
 62
7
  6
CONTINUOUS
 10
-3.241588
 20
25.8942131002
 11
-4.034701
 21
25.8942131002
  0
LINE
  5
342
100
AcDbEntity
  8
COPY-PUBBLISH
100
AcDbLine
 62
253
  6
CONTINUOUS
 10
25.9287526511
 20
26.4800967549
 11
22.5798913334
 21
26.4800967549
  0
LINE
  5
343
100
AcDbEntity
  8
COPY-PUBBLISH
100
AcDbLine
 62
253
  6
CONTINUOUS
 10
-22.5798913334
 20
26.4800967549
 11
-25.9287526511
 21
26.4800967549
  0
LINE
  5
344
100
AcDbEntity
  8
COPY-PUBBLISH
100
AcDbLine
 62
253
  6
CONTINUOUS
 10
25.9452794205
 20
27.916351134
 11
22.5551011793
 21
27.916351134
  0
LINE
  5
345
100
AcDbEntity
  8
COPY-PUBBLISH
100
AcDbLine
 62
253
  6
CONTINUOUS
 10
-22.5551011793
 20
27.916351134
 11
-25.9452794205
 21
27.916351134
  0
LINE
  5
346
100
AcDbEntity
  8
COPY-PUBBLISH
100
AcDbLine
 62
7
  6
CONTINUOUS
 10
-26.0003805997
 20
28.0817891002
 11
-22.5
 21
28.0817891002
  0
LINE
  5
347
100
AcDbEntity
  8
COPY-PUBBLISH
100
AcDbLine
 62
7
  6
CONTINUOUS
 10
22.5
 20
28.0817891002
 11
26.0003805997
 21
28.0817891002
  0
LINE
  5
348
100
AcDbEntity
  8
DRAFT
100
AcDbLine
 62
7
  6
CONTINUOUS
 10
-14.2
 20
28.3167891002
 11
-8.3
 21
28.3167891002
  0
LINE
  5
349
100
AcDbEntity
  8
DRAFT
100
AcDbLine
 62
7
  6
CONTINUOUS
 10
8.3
 20
28.3167891002
 11
14.2
 21
28.3167891002
  0
LINE
  5
34A
100
AcDbEntity
  8
COPY-PUBBLISH
100
AcDbLine
 62
7
  6
CONTINUOUS
 10
22.5
 20
28.4167891002
 11
15.7786116689
 21
28.4167891002
  0
LINE
  5
34B
100
AcDbEntity
  8
DRAFT
100
AcDbLine
 62
7
  6
CONTINUOUS
 10
6.7213883311
 20
28.4167891002
 11
-6.7213883311
 21
28.4167891002
  0
LINE
  5
34C
100
AcDbEntity
  8
COPY-PUBBLISH
100
AcDbLine
 62
7
  6
CONTINUOUS
 10
-15.7786116689
 20
28.4167891002
 11
-22.5
 21
28.4167891002
  0
LINE
  5
34D
100
AcDbEntity
  8
0
100
AcDbLine
 62
7
  6
CONTINUOUS
 10
-14.2
 20
29.0167891002
 11
-8.3
 21
29.0167891002
  0
LINE
  5
34E
100
AcDbEntity
  8
0
100
AcDbLine
 62
7
  6
CONTINUOUS
 10
8.3
 20
29.0167891002
 11
14.2
 21
29.0167891002
  0
LINE
  5
34F
100
AcDbEntity
  8
DRAFT
100
AcDbLine
 62
7
  6
CONTINUOUS
 10
-15.7
 20
29.9167891002
 11
-6.8
 21
29.9167891002
  0
LINE
  5
350
100
AcDbEntity
  8
DRAFT
100
AcDbLine
 62
7
  6
CONTINUOUS
 10
6.8
 20
29.9167891002
 11
15.7
 21
29.9167891002
  0
LINE
  5
351
100
AcDbEntity
  8
COPY-PUBBLISH
100
AcDbLine
 62
7
  6
CONTINUOUS
 10
22.5
 20
26.0790444082
 11
22.5453339465
 21
25.9429319689
  0
LINE
  5
352
100
AcDbEntity
  8
RACCORDO
100
AcDbLine
 62
7
  6
CONTINUOUS
 10
22.5
 20
28.0817891002
 11
22.5551011793
 21
27.916351134
  0
LINE
  5
353
100
AcDbEntity
  8
RACCORDO
100
AcDbLine
 62
7
  6
CONTINUOUS
 10
22.257780698
 20
-29.6159055849
 11
21.6011061566
 21
-30.2725801262
  0
LINE
  5
354
100
AcDbEntity
  8
RACCORDO
100
AcDbLine
 62
7
  6
CONTINUOUS
 10
24.5900595685
 20
-27.8273126628
 11
24.4035909511
 21
-28.0137812802
  0
LINE
  5
355
100
AcDbEntity
  8
RACCORDO
100
AcDbLine
 62
253
  6
CONTINUOUS
 10
26.5
 20
34.468255938
 11
-26.5
 21
34.468255938
  0
LINE
  5
356
100
AcDbEntity
  8
RACCORDO
100
AcDbLine
 62
253
  6
CONTINUOUS
 10
26.5
 20
35.9673421785
 11
-26.5
 21
35.9673421785
  0
LINE
  5
357
100
AcDbEntity
  8
RACCORDO
100
AcDbLine
 62
7
  6
CONTINUOUS
 10
-18.6029336756
 20
36.5104421815
 11
18.6029336756
 21
36.5104421815
  0
LINE
  5
358
100
AcDbEntity
  8
RACCORDO
100
AcDbLine
 62
7
  6
CONTINUOUS
 10
21.6563469186
 20
36.6667891002
 11
-21.6563469186
 21
36.6667891002
  0
LINE
  5
359
100
AcDbEntity
  8
RACCORDO
100
AcDbLine
 62
7
  6
CONTINUOUS
 10
24.6776165217
 20
37.5231444968
 11
23.2852533351
 21
37.5231444968
  0
LINE
  5
35A
100
AcDbEntity
  8
RACCORDO
100
AcDbLine
 62
7
  6
CONTINUOUS
 10
-23.2852533351
 20
37.5231444968
 11
-24.6776165217
 21
37.5231444968
  0
LINE
  5
35B
100
AcDbEntity
  8
COPY-PUBBLISH
100
AcDbLine
 62
7
  6
CONTINUOUS
 10
-26.5
 20
37.7675898832
 11
-24.7387045963
 21
37.7675898832
  0
LINE
  5
35C
100
AcDbEntity
  8
COPY-PUBBLISH
100
AcDbLine
 62
7
  6
CONTINUOUS
 10
24.7387045963
 20
37.7675898832
 11
26.5
 21
37.7675898832
  0
LINE
  5
35D
100
AcDbEntity
  8
RACCORDO
100
AcDbLine
 62
7
  6
CONTINUOUS
 10
-84.2300645509
 20
-36.6337639781
 11
-51.7615387533
 21
-37.7675898832
  0
LINE
  5
35E
100
AcDbEntity
  8
COPY-PUBBLISH
100
AcDbLine
 62
7
  6
CONTINUOUS
 10
-88.3780993058
 20
24.4060131002
 11
-87.3621323058
 21
25.0478001002
  0
LINE
  5
35F
100
AcDbEntity
  8
COPY-PUBBLISH
100
AcDbLine
 62
7
  6
CONTINUOUS
 10
-87.5609803058
 20
25.1615251002
 11
-88.3780993058
 21
24.6736191002
  0
LINE
  5
360
100
AcDbEntity
  8
RACCORDO
100
AcDbLine
 62
7
  6
CONTINUOUS
 10
-53.9253660608
 20
-29.474394431
 11
-51.7376292351
 21
-29.3979969776
  0
LINE
  5
361
100
AcDbEntity
  8
COPY-PUBBLISH
100
AcDbLine
 62
7
  6
CONTINUOUS
 10
-86.6777153058
 20
23.0253531002
 11
-88.3780993058
 21
22.4095151002
  0
LINE
  5
362
100
AcDbEntity
  8
COPY-PUBBLISH
100
AcDbLine
 62
7
  6
CONTINUOUS
 10
-87.1726353058
 20
22.6061081002
 11
-86.6777153058
 21
22.7742491002
  0
LINE
  5
363
100
AcDbEntity
  8
COPY-PUBBLISH
100
AcDbLine
 62
7
  6
CONTINUOUS
 10
-88.1314613058
 20
22.2698541002
 11
-87.3762963058
 21
22.5232001002
  0
LINE
  5
364
100
AcDbEntity
  8
RACCORDO
100
AcDbLine
 62
7
  6
CONTINUOUS
 10
-60.7107483836
 20
-27.8273126628
 11
-82.077935542
 21
-28.0137812802
  0
LINE
  5
365
100
AcDbEntity
  8
DRAFT
100
AcDbLine
 62
7
  6
CONTINUOUS
 10
-51.6777153058
 20
-25.5832108998
 11
-50.6777153058
 21
-25.5832108998
  0
LINE
  5
366
100
AcDbEntity
  8
RACCORDO
100
AcDbLine
 62
7
  6
CONTINUOUS
 10
-51.6777153058
 20
-25.5832108998
 11
-53.9777153058
 21
-25.5832108998
  0
LINE
  5
367
100
AcDbEntity
  8
COPY-PUBBLISH
100
AcDbLine
 62
7
  6
CONTINUOUS
 10
-96.6777153058
 20
34.468255938
 11
-96.6777153058
 21
-22.6346777376
  0
LINE
  5
368
100
AcDbEntity
  8
COPY-PUBBLISH
100
AcDbLine
 62
7
  6
CONTINUOUS
 10
-88.0586313058
 20
17.4053381002
 11
-86.6777153058
 21
18.2745081002
  0
LINE
  5
369
100
AcDbEntity
  8
COPY-PUBBLISH
100
AcDbLine
 62
7
  6
CONTINUOUS
 10
-86.9969043058
 20
18.3100421002
 11
-88.3780993058
 21
17.4550371002
  0
LINE
  5
36A
100
AcDbEntity
  8
RACCORDO
100
AcDbLine
 62
7
  6
CONTINUOUS
 10
-49.6777153058
 20
-24.8332108998
 11
-50.1277153058
 21
-24.8332108998
  0
LINE
  5
36B
100
AcDbEntity
  8
RACCORDO
100
AcDbLine
 62
253
  6
CONTINUOUS
 10
-49.6777153058
 20
-24.5332108998
 11
-50.4277153058
 21
-24.5332108998
  0
LINE
  5
36C
100
AcDbEntity
  8
RACCORDO
100
AcDbLine
 62
7
  6
CONTINUOUS
 10
-95.2300645509
 20
-24.1337639781
 11
-60.6781921536
 21
-25.3403419496
  0
LINE
  5
36D
100
AcDbEntity
  8
DRAFT
100
AcDbLine
 62
7
  6
CONTINUOUS
 10
-51.6777153058
 20
-23.4046455269
 11
-50.6777153058
 21
-23.4395662964
  0
LINE
  5
36E
100
AcDbEntity
  8
COPY-PUBBLISH
100
AcDbLine
 62
7
  6
CONTINUOUS
 10
-93.7767873793
 20
-10.9839802353
 11
-93.0167863058
 21
-11.8858378998
  0
LINE
  5
36F
100
AcDbEntity
  8
COPY-PUBBLISH
100
AcDbLine
 62
7
  6
CONTINUOUS
 10
-92.6220494464
 20
-11.8858378998
 11
-93.3467878704
 21
-11.0258244164
  0
LINE
  5
370
100
AcDbEntity
  8
COPY-PUBBLISH
100
AcDbLine
 62
7
  6
CONTINUOUS
 10
-94.1595163058
 20
-11.6115908998
 11
-94.1595163058
 21
-12.5026158998
  0
LINE
  5
371
100
AcDbEntity
  8
COPY-PUBBLISH
100
AcDbLine
 62
7
  6
CONTINUOUS
 10
-93.8363213058
 20
-12.5026158998
 11
-93.8363213058
 21
-12.2282588998
  0
LINE
  5
372
100
AcDbEntity
  8
COPY-PUBBLISH
100
AcDbLine
 62
7
  6
CONTINUOUS
 10
-93.8363213058
 20
-11.8858378998
 11
-93.8363213058
 21
-11.6115908998
  0
LINE
  5
373
100
AcDbEntity
  8
COPY-PUBBLISH
100
AcDbLine
 62
7
  6
CONTINUOUS
 10
-93.6007553058
 20
25.5119011002
 11
-93.6007553058
 21
24.0513969882
  0
LINE
  5
374
100
AcDbEntity
  8
COPY-PUBBLISH
100
AcDbLine
 62
7
  6
CONTINUOUS
 10
-92.8507553058
 20
24.0514001002
 11
-92.8507553058
 21
25.5119011002
  0
LINE
  5
375
100
AcDbEntity
  8
COPY-PUBBLISH
100
AcDbLine
 62
7
  6
CONTINUOUS
 10
-91.5527393058
 20
-11.6010938998
 11
-91.5527393058
 21
-11.8858378998
  0
LINE
  5
376
100
AcDbEntity
  8
COPY-PUBBLISH
100
AcDbLine
 62
7
  6
CONTINUOUS
 10
-91.5527393058
 20
-12.2282588998
 11
-91.5527393058
 21
-12.5131118998
  0
LINE
  5
377
100
AcDbEntity
  8
COPY-PUBBLISH
100
AcDbLine
 62
7
  6
CONTINUOUS
 10
-91.3758593723
 20
-12.8033594237
 11
-91.6394714623
 21
-12.655401812
  0
LINE
  5
378
100
AcDbEntity
  8
COPY-PUBBLISH
100
AcDbLine
 62
7
  6
CONTINUOUS
 10
-90.2107893058
 20
-10.8951468998
 11
-90.4485723058
 21
-10.7274168998
  0
LINE
  5
379
100
AcDbEntity
  8
COPY-PUBBLISH
100
AcDbLine
 62
7
  6
CONTINUOUS
 10
-91.2313123058
 20
-12.5131118998
 11
-91.2313123058
 21
-11.6010938998
  0
LINE
  5
37A
100
AcDbEntity
  8
COPY-PUBBLISH
100
AcDbLine
 62
7
  6
CONTINUOUS
 10
-88.3780993058
 20
25.9193751002
 11
-88.3780993058
 21
25.6492941002
  0
LINE
  5
37B
100
AcDbEntity
  8
COPY-PUBBLISH
100
AcDbLine
 62
7
  6
CONTINUOUS
 10
-88.3780993058
 20
24.6736191002
 11
-88.3780993058
 21
24.4060131002
  0
LINE
  5
37C
100
AcDbEntity
  8
COPY-PUBBLISH
100
AcDbLine
 62
7
  6
CONTINUOUS
 10
-88.3780993058
 20
23.4658161002
 11
-88.3780993058
 21
23.2360271002
  0
LINE
  5
37D
100
AcDbEntity
  8
COPY-PUBBLISH
100
AcDbLine
 62
7
  6
CONTINUOUS
 10
-88.3780993058
 20
22.4095151002
 11
-88.3780993058
 21
22.1490461002
  0
LINE
  5
37E
100
AcDbEntity
  8
COPY-PUBBLISH
100
AcDbLine
 62
7
  6
CONTINUOUS
 10
-88.3780993058
 20
21.4432601002
 11
-88.3780993058
 21
20.0625591002
  0
LINE
  5
37F
100
AcDbEntity
  8
COPY-PUBBLISH
100
AcDbLine
 62
7
  6
CONTINUOUS
 10
-88.3780993058
 20
19.8162541002
 11
-88.3780993058
 21
19.5864781002
  0
LINE
  5
380
100
AcDbEntity
  8
COPY-PUBBLISH
100
AcDbLine
 62
7
  6
CONTINUOUS
 10
-88.3780993058
 20
18.5326391002
 11
-88.3780993058
 21
18.3100421002
  0
LINE
  5
381
100
AcDbEntity
  8
COPY-PUBBLISH
100
AcDbLine
 62
7
  6
CONTINUOUS
 10
-88.3780993058
 20
17.4550371002
 11
-88.3780993058
 21
17.1826311002
  0
LINE
  5
382
100
AcDbEntity
  8
COPY-PUBBLISH
100
AcDbLine
 62
7
  6
CONTINUOUS
 10
-88.3780993058
 20
16.7895561002
 11
-88.3780993058
 21
16.5598491002
  0
LINE
  5
383
100
AcDbEntity
  8
COPY-PUBBLISH
100
AcDbLine
 62
7
  6
CONTINUOUS
 10
-88.3780993058
 20
15.5485431002
 11
-88.3780993058
 21
14.3098961002
  0
LINE
  5
384
100
AcDbEntity
  8
COPY-PUBBLISH
100
AcDbLine
 62
7
  6
CONTINUOUS
 10
-88.3780993058
 20
13.3970425219
 11
-88.3780993058
 21
12.5881281002
  0
LINE
  5
385
100
AcDbEntity
  8
COPY-PUBBLISH
100
AcDbLine
 62
7
  6
CONTINUOUS
 10
-88.3780993058
 20
11.7498171002
 11
-88.3780993058
 21
11.4892661002
  0
LINE
  5
386
100
AcDbEntity
  8
COPY-PUBBLISH
100
AcDbLine
 62
7
  6
CONTINUOUS
 10
-88.3780993058
 20
10.6508721002
 11
-88.3780993058
 21
10.3216751002
  0
LINE
  5
387
100
AcDbEntity
  8
COPY-PUBBLISH
100
AcDbLine
 62
7
  6
CONTINUOUS
 10
-88.3780993058
 20
9.3459871002
 11
-88.3780993058
 21
9.0167891002
  0
LINE
  5
388
100
AcDbEntity
  8
COPY-PUBBLISH
100
AcDbLine
 62
7
  6
CONTINUOUS
 10
-88.1815893058
 20
12.8179171002
 11
-88.1815893058
 21
13.2587121002
  0
LINE
  5
389
100
AcDbEntity
  8
COPY-PUBBLISH
100
AcDbLine
 62
7
  6
CONTINUOUS
 10
-88.1744383058
 20
14.5396711002
 11
-88.1744383058
 21
15.5485431002
  0
LINE
  5
38A
100
AcDbEntity
  8
COPY-PUBBLISH
100
AcDbLine
 62
7
  6
CONTINUOUS
 10
-88.1744383058
 20
20.0625591002
 11
-88.1744383058
 21
20.6380631002
  0
LINE
  5
38B
100
AcDbEntity
  8
COPY-PUBBLISH
100
AcDbLine
 62
7
  6
CONTINUOUS
 10
-88.1744383058
 20
20.8677551002
 11
-88.1744383058
 21
21.4432601002
  0
LINE
  5
38C
100
AcDbEntity
  8
COPY-PUBBLISH
100
AcDbLine
 62
7
  6
CONTINUOUS
 10
-86.6777153058
 20
12.3655311002
 11
-88.3780993058
 21
11.7498171002
  0
LINE
  5
38D
100
AcDbEntity
  8
COPY-PUBBLISH
100
AcDbLine
 62
7
  6
CONTINUOUS
 10
-87.1726353058
 20
11.9463411002
 11
-86.6777153058
 21
12.1144681002
  0
LINE
  5
38E
100
AcDbEntity
  8
COPY-PUBBLISH
100
AcDbLine
 62
7
  6
CONTINUOUS
 10
-88.1314613058
 20
11.6101841002
 11
-87.3762963058
 21
11.8635151002
  0
LINE
  5
38F
100
AcDbEntity
  8
COPY-PUBBLISH
100
AcDbLine
 62
7
  6
CONTINUOUS
 10
-99.834459751
 20
-16.0827729337
 11
-96.6777153058
 21
-16.2482108998
  0
LINE
  5
390
100
AcDbEntity
  8
COPY-PUBBLISH
100
AcDbLine
 62
253
  6
CONTINUOUS
 10
-99.8170179761
 20
-15.5834581663
 11
-96.6777153058
 21
-15.7479820477
  0
LINE
  5
391
100
AcDbEntity
  8
COPY-PUBBLISH
100
AcDbLine
 62
7
  6
CONTINUOUS
 10
-87.6533903058
 20
15.4703931002
 11
-87.6533903058
 21
14.5396711002
  0
LINE
  5
392
100
AcDbEntity
  8
COPY-PUBBLISH
100
AcDbLine
 62
7
  6
CONTINUOUS
 10
-87.4497293058
 20
14.5396711002
 11
-87.4497293058
 21
15.4703931002
  0
LINE
  5
393
100
AcDbEntity
  8
COPY-PUBBLISH
100
AcDbLine
 62
7
  6
CONTINUOUS
 10
-87.3762963058
 20
22.5232001002
 11
-87.3762963058
 21
21.9950701002
  0
LINE
  5
394
100
AcDbEntity
  8
COPY-PUBBLISH
100
AcDbLine
 62
7
  6
CONTINUOUS
 10
-87.3762963058
 20
11.8635151002
 11
-87.3762963058
 21
11.3353851002
  0
LINE
  5
395
100
AcDbEntity
  8
COPY-PUBBLISH
100
AcDbLine
 62
7
  6
CONTINUOUS
 10
-87.1726353058
 20
11.2643171002
 11
-87.1726353058
 21
11.9463411002
  0
LINE
  5
396
100
AcDbEntity
  8
COPY-PUBBLISH
100
AcDbLine
 62
7
  6
CONTINUOUS
 10
-87.1726353058
 20
21.9240151002
 11
-87.1726353058
 21
22.6061081002
  0
LINE
  5
397
100
AcDbEntity
  8
COPY-PUBBLISH
100
AcDbLine
 62
7
  6
CONTINUOUS
 10
-86.8813763058
 20
24.3279041002
 11
-86.8813763058
 21
23.4658161002
  0
LINE
  5
398
100
AcDbEntity
  8
COPY-PUBBLISH
100
AcDbLine
 62
7
  6
CONTINUOUS
 10
-86.8813763058
 20
15.5651411002
 11
-86.8813763058
 21
14.5396711002
  0
LINE
  5
399
100
AcDbEntity
  8
COPY-PUBBLISH
100
AcDbLine
 62
7
  6
CONTINUOUS
 10
-86.8742253058
 20
13.3476346771
 11
-86.8742253058
 21
12.8179171002
  0
LINE
  5
39A
100
AcDbEntity
  8
COPY-PUBBLISH
100
AcDbLine
 62
7
  6
CONTINUOUS
 10
-86.6777153058
 20
9.0167891002
 11
-86.6777153058
 21
9.2393921002
  0
LINE
  5
39B
100
AcDbEntity
  8
COPY-PUBBLISH
100
AcDbLine
 62
7
  6
CONTINUOUS
 10
-86.6777153058
 20
9.7178151002
 11
-86.6777153058
 21
9.9498471002
  0
LINE
  5
39C
100
AcDbEntity
  8
COPY-PUBBLISH
100
AcDbLine
 62
7
  6
CONTINUOUS
 10
-86.6777153058
 20
10.4282691002
 11
-86.6777153058
 21
10.6508721002
  0
LINE
  5
39D
100
AcDbEntity
  8
COPY-PUBBLISH
100
AcDbLine
 62
7
  6
CONTINUOUS
 10
-86.6777153058
 20
10.8498721002
 11
-86.6777153058
 21
11.0866741002
  0
LINE
  5
39E
100
AcDbEntity
  8
COPY-PUBBLISH
100
AcDbLine
 62
7
  6
CONTINUOUS
 10
-86.6777153058
 20
12.1144681002
 11
-86.6777153058
 21
12.3655311002
  0
LINE
  5
39F
100
AcDbEntity
  8
COPY-PUBBLISH
100
AcDbLine
 62
7
  6
CONTINUOUS
 10
-86.6777153058
 20
12.5881281002
 11
-86.6777153058
 21
13.2878761002
  0
LINE
  5
3A0
100
AcDbEntity
  8
COPY-PUBBLISH
100
AcDbLine
 62
7
  6
CONTINUOUS
 10
-86.6777153058
 20
14.3098961002
 11
-86.6777153058
 21
15.5651411002
  0
LINE
  5
3A1
100
AcDbEntity
  8
COPY-PUBBLISH
100
AcDbLine
 62
7
  6
CONTINUOUS
 10
-86.6777153058
 20
16.5598491002
 11
-86.6777153058
 21
16.7895561002
  0
LINE
  5
3A2
100
AcDbEntity
  8
COPY-PUBBLISH
100
AcDbLine
 62
7
  6
CONTINUOUS
 10
-86.6777153058
 20
17.1826311002
 11
-86.6777153058
 21
17.4053381002
  0
LINE
  5
3A3
100
AcDbEntity
  8
COPY-PUBBLISH
100
AcDbLine
 62
7
  6
CONTINUOUS
 10
-86.6777153058
 20
18.2745081002
 11
-86.6777153058
 21
18.5326391002
  0
LINE
  5
3A4
100
AcDbEntity
  8
COPY-PUBBLISH
100
AcDbLine
 62
7
  6
CONTINUOUS
 10
-86.6777153058
 20
19.5864781002
 11
-86.6777153058
 21
19.8162541002
  0
LINE
  5
3A5
100
AcDbEntity
  8
COPY-PUBBLISH
100
AcDbLine
 62
7
  6
CONTINUOUS
 10
-86.6777153058
 20
20.6380631002
 11
-86.6777153058
 21
20.8677551002
  0
LINE
  5
3A6
100
AcDbEntity
  8
COPY-PUBBLISH
100
AcDbLine
 62
7
  6
CONTINUOUS
 10
-86.6777153058
 20
21.5095701002
 11
-86.6777153058
 21
21.7463581002
  0
LINE
  5
3A7
100
AcDbEntity
  8
COPY-PUBBLISH
100
AcDbLine
 62
7
  6
CONTINUOUS
 10
-86.6777153058
 20
22.7742491002
 11
-86.6777153058
 21
23.0253531002
  0
LINE
  5
3A8
100
AcDbEntity
  8
COPY-PUBBLISH
100
AcDbLine
 62
7
  6
CONTINUOUS
 10
-86.6777153058
 20
23.2360271002
 11
-86.6777153058
 21
24.3279041002
  0
LINE
  5
3A9
100
AcDbEntity
  8
COPY-PUBBLISH
100
AcDbLine
 62
7
  6
CONTINUOUS
 10
-86.6777153058
 20
25.0478001002
 11
-86.6777153058
 21
25.2774511002
  0
LINE
  5
3AA
100
AcDbEntity
  8
RACCORDO
100
AcDbLine
 62
7
  6
CONTINUOUS
 10
-85.6777153058
 20
-32.031744062
 11
-85.6777153058
 21
-35.1346777376
  0
LINE
  5
3AB
100
AcDbEntity
  8
COPY-PUBBLISH
100
AcDbLine
 62
7
  6
CONTINUOUS
 10
-86.9335923058
 20
9.8338311002
 11
-88.3780993058
 21
9.3459871002
  0
LINE
  5
3AC
100
AcDbEntity
  8
COPY-PUBBLISH
100
AcDbLine
 62
7
  6
CONTINUOUS
 10
-88.1034803058
 20
9.2393921002
 11
-86.6777153058
 21
9.7178151002
  0
LINE
  5
3AD
100
AcDbEntity
  8
COPY-PUBBLISH
100
AcDbLine
 62
253
  6
CONTINUOUS
 10
-100.7638359627
 20
-14.6259552469
 11
-101.2546404591
 21
-14.6465166543
  0
LINE
  5
3AE
100
AcDbEntity
  8
COPY-PUBBLISH
100
AcDbLine
 62
7
  6
CONTINUOUS
 10
-91.5527393058
 20
-12.5131118998
 11
-91.2313123058
 21
-12.5131118998
  0
LINE
  5
3AF
100
AcDbEntity
  8
COPY-PUBBLISH
100
AcDbLine
 62
7
  6
CONTINUOUS
 10
-94.1595163058
 20
-12.5026158998
 11
-93.8363213058
 21
-12.5026158998
  0
LINE
  5
3B0
100
AcDbEntity
  8
COPY-PUBBLISH
100
AcDbLine
 62
7
  6
CONTINUOUS
 10
-82.6777153058
 20
16.2167891002
 11
-82.6777153058
 21
-4.3832108998
  0
LINE
  5
3B1
100
AcDbEntity
  8
DRAFT
100
AcDbLine
 62
7
  6
CONTINUOUS
 10
-82.4939856248
 20
16.2167891002
 11
-82.4939856248
 21
-4.3832108998
  0
LINE
  5
3B2
100
AcDbEntity
  8
COPY-PUBBLISH
100
AcDbLine
 62
7
  6
CONTINUOUS
 10
-93.8363213058
 20
-12.2282588998
 11
-93.0167863058
 21
-12.2282588998
  0
LINE
  5
3B3
100
AcDbEntity
  8
COPY-PUBBLISH
100
AcDbLine
 62
7
  6
CONTINUOUS
 10
-92.6184553058
 20
-12.2282588998
 11
-91.5527393058
 21
-12.2282588998
  0
LINE
  5
3B4
100
AcDbEntity
  8
COPY-PUBBLISH
100
AcDbLine
 62
7
  6
CONTINUOUS
 10
-91.5527393058
 20
-11.8858378998
 11
-92.6220494464
 21
-11.8858378998
  0
LINE
  5
3B5
100
AcDbEntity
  8
COPY-PUBBLISH
100
AcDbLine
 62
7
  6
CONTINUOUS
 10
-93.0167863058
 20
-11.8858378998
 11
-93.8363213058
 21
-11.8858378998
  0
LINE
  5
3B6
100
AcDbEntity
  8
COPY-PUBBLISH
100
AcDbLine
 62
7
  6
CONTINUOUS
 10
-93.8363213058
 20
-11.6115908998
 11
-94.1595163058
 21
-11.6115908998
  0
LINE
  5
3B7
100
AcDbEntity
  8
COPY-PUBBLISH
100
AcDbLine
 62
7
  6
CONTINUOUS
 10
-91.2313123058
 20
-11.6010938998
 11
-91.5527393058
 21
-11.6010938998
  0
LINE
  5
3B8
100
AcDbEntity
  8
COPY-PUBBLISH
100
AcDbLine
 62
7
  6
CONTINUOUS
 10
-49.3777153058
 20
-11.5832108998
 11
-47.6777153058
 21
-11.5832108998
  0
LINE
  5
3B9
100
AcDbEntity
  8
COPY-PUBBLISH
100
AcDbLine
 62
7
  6
CONTINUOUS
 10
-75.6777153058
 20
-11.3832108998
 11
-64.6777153058
 21
-11.3832108998
  0
LINE
  5
3BA
100
AcDbEntity
  8
COPY-PUBBLISH
100
AcDbLine
 62
7
  6
CONTINUOUS
 10
-46.1777153058
 20
-9.9832108998
 11
-47.3083262
 21
-9.9832108998
  0
LINE
  5
3BB
100
AcDbEntity
  8
COPY-PUBBLISH
100
AcDbLine
 62
7
  6
CONTINUOUS
 10
-48.6777153058
 20
-9.9832108998
 11
-51.3777153058
 21
-9.9832108998
  0
LINE
  5
3BC
100
AcDbEntity
  8
DRAFT
100
AcDbLine
 62
7
  6
CONTINUOUS
 10
-75.6777153058
 20
-11.2046854549
 11
-64.6777153058
 21
-11.2130839769
  0
LINE
  5
3BD
100
AcDbEntity
  8
COPY-PUBBLISH
100
AcDbLine
 62
7
  6
CONTINUOUS
 10
-93.0167863058
 20
-12.2282588998
 11
-93.7787373058
 21
-13.1324298998
  0
LINE
  5
3BE
100
AcDbEntity
  8
COPY-PUBBLISH
100
AcDbLine
 62
7
  6
CONTINUOUS
 10
-93.3467883058
 20
-13.0925368998
 11
-92.6184553058
 21
-12.2282588998
  0
LINE
  5
3BF
100
AcDbEntity
  8
COPY-PUBBLISH
100
AcDbLine
 62
253
  6
CONTINUOUS
 10
-75.6777153058
 20
23.2167891002
 11
-75.6777153058
 21
23.0382636552
  0
LINE
  5
3C0
100
AcDbEntity
  8
COPY-PUBBLISH
100
AcDbLine
 62
253
  6
CONTINUOUS
 10
-75.6777153058
 20
-11.3832108998
 11
-75.6777153058
 21
-11.2046854549
  0
LINE
  5
3C1
100
AcDbEntity
  8
COPY-PUBBLISH
100
AcDbLine
 62
253
  6
CONTINUOUS
 10
-82.6777153058
 20
-4.3832108998
 11
-82.4939856248
 21
-4.3832108998
  0
LINE
  5
3C2
100
AcDbEntity
  8
COPY-PUBBLISH
100
AcDbLine
 62
253
  6
CONTINUOUS
 10
-57.6777153058
 20
-4.3832108998
 11
-57.8426236226
 21
-4.3832108998
  0
LINE
  5
3C3
100
AcDbEntity
  8
COPY-PUBBLISH
100
AcDbLine
 62
7
  6
CONTINUOUS
 10
-48.3777153058
 20
-0.0832108998
 11
-46.9777153058
 21
-0.0832108998
  0
LINE
  5
3C4
100
AcDbEntity
  8
COPY-PUBBLISH
100
AcDbLine
 62
7
  6
CONTINUOUS
 10
-91.6394713058
 20
-11.4629598998
 11
-91.3758603058
 21
-11.3150028998
  0
LINE
  5
3C5
100
AcDbEntity
  8
COPY-PUBBLISH
100
AcDbLine
 62
7
  6
CONTINUOUS
 10
-50.3777153058
 20
1.9167891002
 11
-48.9777153058
 21
1.9167891002
  0
LINE
  5
3C6
100
AcDbEntity
  8
RACCORDO
100
AcDbLine
 62
7
  6
CONTINUOUS
 10
-49.2277153058
 20
2.1667891002
 11
-50.1277153058
 21
2.1667891002
  0
LINE
  5
3C7
100
AcDbEntity
  8
RACCORDO
100
AcDbLine
 62
253
  6
CONTINUOUS
 10
-48.9277153058
 20
2.4667891002
 11
-50.4277153058
 21
2.4667891002
  0
LINE
  5
3C8
100
AcDbEntity
  8
COPY-PUBBLISH
100
AcDbLine
 62
7
  6
CONTINUOUS
 10
-86.6777153058
 20
9.9498471002
 11
-88.1034803058
 21
10.4282691002
  0
LINE
  5
3C9
100
AcDbEntity
  8
COPY-PUBBLISH
100
AcDbLine
 62
7
  6
CONTINUOUS
 10
-88.3780993058
 20
10.3216751002
 11
-86.9335923058
 21
9.8338311002
  0
LINE
  5
3CA
100
AcDbEntity
  8
COPY-PUBBLISH
100
AcDbLine
 62
7
  6
CONTINUOUS
 10
-86.6777153058
 20
11.0866741002
 11
-87.1726353058
 21
11.2643171002
  0
LINE
  5
3CB
100
AcDbEntity
  8
COPY-PUBBLISH
100
AcDbLine
 62
7
  6
CONTINUOUS
 10
-87.3762963058
 20
11.3353851002
 11
-88.1314613058
 21
11.6101841002
  0
LINE
  5
3CC
100
AcDbEntity
  8
COPY-PUBBLISH
100
AcDbLine
 62
7
  6
CONTINUOUS
 10
-88.3780993058
 20
11.4892661002
 11
-86.6777153058
 21
10.8498721002
  0
LINE
  5
3CD
100
AcDbEntity
  8
COPY-PUBBLISH
100
AcDbLine
 62
7
  6
CONTINUOUS
 10
-46.1777153058
 20
-9.9832108998
 11
-43.6777153058
 21
-11.4265865728
  0
LINE
  5
3CE
100
AcDbEntity
  8
COPY-PUBBLISH
100
AcDbLine
 62
253
  6
CONTINUOUS
 10
-64.6777153058
 20
23.2167891002
 11
-64.6777153058
 21
23.0466621772
  0
LINE
  5
3CF
100
AcDbEntity
  8
COPY-PUBBLISH
100
AcDbLine
 62
253
  6
CONTINUOUS
 10
-64.6777153058
 20
-11.3832108998
 11
-64.6777153058
 21
-11.2130839769
  0
LINE
  5
3D0
100
AcDbEntity
  8
COPY-PUBBLISH
100
AcDbLine
 62
7
  6
CONTINUOUS
 10
-88.3780993058
 20
9.0167891002
 11
-86.6777153058
 21
9.0167891002
  0
LINE
  5
3D1
100
AcDbEntity
  8
COPY-PUBBLISH
100
AcDbLine
 62
7
  6
CONTINUOUS
 10
-86.6777153058
 20
9.2393921002
 11
-88.1034803058
 21
9.2393921002
  0
LINE
  5
3D2
100
AcDbEntity
  8
RACCORDO
100
AcDbLine
 62
253
  6
CONTINUOUS
 10
-48.9277153058
 20
9.3667891002
 11
-50.4277153058
 21
9.3667891002
  0
LINE
  5
3D3
100
AcDbEntity
  8
RACCORDO
100
AcDbLine
 62
7
  6
CONTINUOUS
 10
-49.2277153058
 20
9.6667891002
 11
-50.1277153058
 21
9.6667891002
  0
LINE
  5
3D4
100
AcDbEntity
  8
COPY-PUBBLISH
100
AcDbLine
 62
7
  6
CONTINUOUS
 10
-48.9777153058
 20
9.9167891002
 11
-50.3777153058
 21
9.9167891002
  0
LINE
  5
3D5
100
AcDbEntity
  8
ASSI
100
AcDbLine
 62
7
  6
CONTINUOUS
 10
-83.2139124034
 20
-28.5495427503
 11
-85.3267819705
 21
-31.0675626475
  0
LINE
  5
3D6
100
AcDbEntity
  8
COPY-PUBBLISH
100
AcDbLine
 62
7
  6
CONTINUOUS
 10
-88.1034803058
 20
10.4282691002
 11
-86.6777153058
 21
10.4282691002
  0
LINE
  5
3D7
100
AcDbEntity
  8
COPY-PUBBLISH
100
AcDbLine
 62
7
  6
CONTINUOUS
 10
-86.6777153058
 20
10.6508721002
 11
-88.3780993058
 21
10.6508721002
  0
LINE
  5
3D8
100
AcDbEntity
  8
COPY-PUBBLISH
100
AcDbLine
 62
7
  6
CONTINUOUS
 10
-46.9777153058
 20
11.9167891002
 11
-48.3777153058
 21
11.9167891002
  0
LINE
  5
3D9
100
AcDbEntity
  8
COPY-PUBBLISH
100
AcDbLine
 62
7
  6
CONTINUOUS
 10
-88.3780993058
 20
12.5881281002
 11
-86.6777153058
 21
12.5881281002
  0
LINE
  5
3DA
100
AcDbEntity
  8
COPY-PUBBLISH
100
AcDbLine
 62
7
  6
CONTINUOUS
 10
-86.8742253058
 20
12.8179171002
 11
-88.1815893058
 21
12.8179171002
  0
LINE
  5
3DB
100
AcDbEntity
  8
DRAFT
100
AcDbLine
 62
7
  6
CONTINUOUS
 10
-57.8426236226
 20
-4.3832108998
 11
-57.8426236226
 21
16.2167891002
  0
LINE
  5
3DC
100
AcDbEntity
  8
COPY-PUBBLISH
100
AcDbLine
 62
7
  6
CONTINUOUS
 10
-57.6777153058
 20
-4.3832108998
 11
-57.6777153058
 21
16.2167891002
  0
LINE
  5
3DD
100
AcDbEntity
  8
COPY-PUBBLISH
100
AcDbLine
 62
7
  6
CONTINUOUS
 10
-87.5399683058
 20
13.7561051002
 11
-87.5158463058
 21
13.7561051002
  0
LINE
  5
3DE
100
AcDbEntity
  8
COPY-PUBBLISH
100
AcDbLine
 62
7
  6
CONTINUOUS
 10
-87.5155643058
 20
13.9937221002
 11
-87.5402513058
 21
13.9937221002
  0
LINE
  5
3DF
100
AcDbEntity
  8
COPY-PUBBLISH
100
AcDbLine
 62
7
  6
CONTINUOUS
 10
-88.3780993058
 20
14.3098961002
 11
-86.6777153058
 21
14.3098961002
  0
LINE
  5
3E0
100
AcDbEntity
  8
COPY-PUBBLISH
100
AcDbLine
 62
7
  6
CONTINUOUS
 10
-86.8813763058
 20
14.5396711002
 11
-87.4497293058
 21
14.5396711002
  0
LINE
  5
3E1
100
AcDbEntity
  8
COPY-PUBBLISH
100
AcDbLine
 62
7
  6
CONTINUOUS
 10
-87.6533903058
 20
14.5396711002
 11
-88.1744383058
 21
14.5396711002
  0
LINE
  5
3E2
100
AcDbEntity
  8
COPY-PUBBLISH
100
AcDbLine
 62
7
  6
CONTINUOUS
 10
-87.4497293058
 20
15.4703931002
 11
-87.6533903058
 21
15.4703931002
  0
LINE
  5
3E3
100
AcDbEntity
  8
COPY-PUBBLISH
100
AcDbLine
 62
7
  6
CONTINUOUS
 10
-88.1744383058
 20
15.5485431002
 11
-88.3780993058
 21
15.5485431002
  0
LINE
  5
3E4
100
AcDbEntity
  8
COPY-PUBBLISH
100
AcDbLine
 62
7
  6
CONTINUOUS
 10
-86.6777153058
 20
15.5651411002
 11
-86.8813763058
 21
15.5651411002
  0
LINE
  5
3E5
100
AcDbEntity
  8
COPY-PUBBLISH
100
AcDbLine
 62
253
  6
CONTINUOUS
 10
-82.6777153058
 20
16.2167891002
 11
-82.4939856248
 21
16.2167891002
  0
LINE
  5
3E6
100
AcDbEntity
  8
COPY-PUBBLISH
100
AcDbLine
 62
253
  6
CONTINUOUS
 10
-57.6777153058
 20
16.2167891002
 11
-57.8426236226
 21
16.2167891002
  0
LINE
  5
3E7
100
AcDbEntity
  8
COPY-PUBBLISH
100
AcDbLine
 62
7
  6
CONTINUOUS
 10
-86.6777153058
 20
21.7463581002
 11
-87.1726353058
 21
21.9240151002
  0
LINE
  5
3E8
100
AcDbEntity
  8
COPY-PUBBLISH
100
AcDbLine
 62
7
  6
CONTINUOUS
 10
-87.3762963058
 20
21.9950701002
 11
-88.1314613058
 21
22.2698541002
  0
LINE
  5
3E9
100
AcDbEntity
  8
COPY-PUBBLISH
100
AcDbLine
 62
7
  6
CONTINUOUS
 10
-88.3780993058
 20
22.1490461002
 11
-86.6777153058
 21
21.5095701002
  0
LINE
  5
3EA
100
AcDbEntity
  8
COPY-PUBBLISH
100
AcDbLine
 62
7
  6
CONTINUOUS
 10
-88.3780993058
 20
25.6492941002
 11
-87.5609803058
 21
25.1615251002
  0
LINE
  5
3EB
100
AcDbEntity
  8
COPY-PUBBLISH
100
AcDbLine
 62
7
  6
CONTINUOUS
 10
-87.3621323058
 20
25.2774511002
 11
-88.3780993058
 21
25.9193751002
  0
LINE
  5
3EC
100
AcDbEntity
  8
RACCORDO
100
AcDbLine
 62
7
  6
CONTINUOUS
 10
-55.4777153058
 20
-27.0832108998
 11
-55.4777153058
 21
-27.9753081905
  0
LINE
  5
3ED
100
AcDbEntity
  8
COPY-PUBBLISH
100
AcDbLine
 62
7
  6
CONTINUOUS
 10
-88.3780993058
 20
16.5598491002
 11
-86.6777153058
 21
16.5598491002
  0
LINE
  5
3EE
100
AcDbEntity
  8
COPY-PUBBLISH
100
AcDbLine
 62
7
  6
CONTINUOUS
 10
-86.6777153058
 20
16.7895561002
 11
-88.3780993058
 21
16.7895561002
  0
LINE
  5
3EF
100
AcDbEntity
  8
COPY-PUBBLISH
100
AcDbLine
 62
7
  6
CONTINUOUS
 10
-88.3780993058
 20
17.1826311002
 11
-86.6777153058
 21
17.1826311002
  0
LINE
  5
3F0
100
AcDbEntity
  8
COPY-PUBBLISH
100
AcDbLine
 62
7
  6
CONTINUOUS
 10
-86.6777153058
 20
17.4053381002
 11
-88.0586313058
 21
17.4053381002
  0
LINE
  5
3F1
100
AcDbEntity
  8
COPY-PUBBLISH
100
AcDbLine
 62
7
  6
CONTINUOUS
 10
-88.3780993058
 20
18.3100421002
 11
-86.9969043058
 21
18.3100421002
  0
LINE
  5
3F2
100
AcDbEntity
  8
COPY-PUBBLISH
100
AcDbLine
 62
7
  6
CONTINUOUS
 10
-86.6777153058
 20
18.5326391002
 11
-88.3780993058
 21
18.5326391002
  0
LINE
  5
3F3
100
AcDbEntity
  8
COPY-PUBBLISH
100
AcDbLine
 62
7
  6
CONTINUOUS
 10
-51.6777153058
 20
-10.2832108998
 11
-51.6777153058
 21
-25.5832108998
  0
LINE
  5
3F4
100
AcDbEntity
  8
COPY-PUBBLISH
100
AcDbLine
 62
7
  6
CONTINUOUS
 10
-50.6777153058
 20
9.6167891002
 11
-50.6777153058
 21
2.2167891002
  0
LINE
  5
3F5
100
AcDbEntity
  8
DRAFT
100
AcDbLine
 62
7
  6
CONTINUOUS
 10
-50.6777153058
 20
-23.4395662964
 11
-50.6777153058
 21
-25.5832108998
  0
LINE
  5
3F6
100
AcDbEntity
  8
RACCORDO
100
AcDbLine
 62
7
  6
CONTINUOUS
 10
-50.4277153058
 20
-24.5332108998
 11
-50.4277153058
 21
-9.9832108998
  0
LINE
  5
3F7
100
AcDbEntity
  8
RACCORDO
100
AcDbLine
 62
7
  6
CONTINUOUS
 10
-50.4277153058
 20
1.9216814674
 11
-50.4277153058
 21
2.4635943242
  0
LINE
  5
3F8
100
AcDbEntity
  8
RACCORDO
100
AcDbLine
 62
7
  6
CONTINUOUS
 10
-50.4277153058
 20
2.4667891002
 11
-50.4277153058
 21
9.9042396334
  0
LINE
  5
3F9
100
AcDbEntity
  8
RACCORDO
100
AcDbLine
 62
253
  6
CONTINUOUS
 10
-50.1277153058
 20
-24.8332108998
 11
-50.1277153058
 21
-9.9832108998
  0
LINE
  5
3FA
100
AcDbEntity
  8
RACCORDO
100
AcDbLine
 62
253
  6
CONTINUOUS
 10
-50.1277153058
 20
1.9167891002
 11
-50.1277153058
 21
9.6667891002
  0
LINE
  5
3FB
100
AcDbEntity
  8
RACCORDO
100
AcDbLine
 62
253
  6
CONTINUOUS
 10
-50.1277153058
 20
9.7192162977
 11
-50.1277153058
 21
9.9167891002
  0
LINE
  5
3FC
100
AcDbEntity
  8
COPY-PUBBLISH
100
AcDbLine
 62
7
  6
CONTINUOUS
 10
-88.3780993058
 20
19.5864781002
 11
-86.6777153058
 21
19.5864781002
  0
LINE
  5
3FD
100
AcDbEntity
  8
COPY-PUBBLISH
100
AcDbLine
 62
7
  6
CONTINUOUS
 10
-86.6777153058
 20
19.8162541002
 11
-88.3780993058
 21
19.8162541002
  0
LINE
  5
3FE
100
AcDbEntity
  8
COPY-PUBBLISH
100
AcDbLine
 62
7
  6
CONTINUOUS
 10
-88.3780993058
 20
20.0625591002
 11
-88.1744383058
 21
20.0625591002
  0
LINE
  5
3FF
100
AcDbEntity
  8
COPY-PUBBLISH
100
AcDbLine
 62
7
  6
CONTINUOUS
 10
-88.1744383058
 20
20.6380631002
 11
-86.6777153058
 21
20.6380631002
  0
LINE
  5
400
100
AcDbEntity
  8
COPY-PUBBLISH
100
AcDbLine
 62
7
  6
CONTINUOUS
 10
-86.6777153058
 20
20.8677551002
 11
-88.1744383058
 21
20.8677551002
  0
LINE
  5
401
100
AcDbEntity
  8
COPY-PUBBLISH
100
AcDbLine
 62
7
  6
CONTINUOUS
 10
-88.1744383058
 20
21.4432601002
 11
-88.3780993058
 21
21.4432601002
  0
LINE
  5
402
100
AcDbEntity
  8
COPY-PUBBLISH
100
AcDbLine
 62
7
  6
CONTINUOUS
 10
-90.6777183451
 20
21.5267911002
 11
-91.4285353058
 21
21.5267911002
  0
LINE
  5
403
100
AcDbEntity
  8
COPY-PUBBLISH
100
AcDbLine
 62
7
  6
CONTINUOUS
 10
-95.0229753058
 20
21.5267911002
 11
-95.7737922666
 21
21.5267911002
  0
LINE
  5
404
100
AcDbEntity
  8
COPY-PUBBLISH
100
AcDbLine
 62
7
  6
CONTINUOUS
 10
-47.3083262
 20
21.8167891002
 11
-43.6777153058
 21
21.8167891002
  0
LINE
  5
405
100
AcDbEntity
  8
COPY-PUBBLISH
100
AcDbLine
 62
7
  6
CONTINUOUS
 10
-49.6777153058
 20
-27.2695024008
 11
-49.6777153058
 21
-11.8832108998
  0
LINE
  5
406
100
AcDbEntity
  8
RACCORDO
100
AcDbLine
 62
253
  6
CONTINUOUS
 10
-49.2277153058
 20
9.9167891002
 11
-49.2277153058
 21
2.1667891002
  0
LINE
  5
407
100
AcDbEntity
  8
RACCORDO
100
AcDbLine
 62
253
  6
CONTINUOUS
 10
-49.2277153058
 20
2.1143619026
 11
-49.2277153058
 21
1.9167891002
  0
LINE
  5
408
100
AcDbEntity
  8
RACCORDO
100
AcDbLine
 62
253
  6
CONTINUOUS
 10
-49.2277153058
 20
-9.9832108998
 11
-49.2277153058
 21
-11.5832108998
  0
LINE
  5
409
100
AcDbEntity
  8
RACCORDO
100
AcDbLine
 62
7
  6
CONTINUOUS
 10
-48.9277153058
 20
9.9118967329
 11
-48.9277153058
 21
9.3699838761
  0
LINE
  5
40A
100
AcDbEntity
  8
RACCORDO
100
AcDbLine
 62
7
  6
CONTINUOUS
 10
-48.9277153058
 20
9.3667891002
 11
-48.9277153058
 21
1.929338567
  0
LINE
  5
40B
100
AcDbEntity
  8
RACCORDO
100
AcDbLine
 62
7
  6
CONTINUOUS
 10
-48.9277153058
 20
-9.9832108998
 11
-48.9277153058
 21
-11.5832108998
  0
LINE
  5
40C
100
AcDbEntity
  8
COPY-PUBBLISH
100
AcDbLine
 62
7
  6
CONTINUOUS
 10
-48.6777153058
 20
-9.9832108998
 11
-48.6777153058
 21
-0.3832108998
  0
LINE
  5
40D
100
AcDbEntity
  8
COPY-PUBBLISH
100
AcDbLine
 62
7
  6
CONTINUOUS
 10
-48.6777153058
 20
2.2167891002
 11
-48.6777153058
 21
9.6167891002
  0
LINE
  5
40E
100
AcDbEntity
  8
COPY-PUBBLISH
100
AcDbLine
 62
7
  6
CONTINUOUS
 10
-48.6777153058
 20
12.2167891002
 11
-48.6777153058
 21
23.4167891002
  0
LINE
  5
40F
100
AcDbEntity
  8
DRAFT
100
AcDbLine
 62
7
  6
CONTINUOUS
 10
-64.6777153058
 20
23.0466621772
 11
-75.6777153058
 21
23.0382636552
  0
LINE
  5
410
100
AcDbEntity
  8
COPY-PUBBLISH
100
AcDbLine
 62
7
  6
CONTINUOUS
 10
-64.6777153058
 20
23.2167891002
 11
-75.6777153058
 21
23.2167891002
  0
LINE
  5
411
100
AcDbEntity
  8
COPY-PUBBLISH
100
AcDbLine
 62
7
  6
CONTINUOUS
 10
-88.3780993058
 20
23.2360271002
 11
-86.6777153058
 21
23.2360271002
  0
LINE
  5
412
100
AcDbEntity
  8
COPY-PUBBLISH
100
AcDbLine
 62
7
  6
CONTINUOUS
 10
-47.6777153058
 20
23.4167891002
 11
-48.6777153058
 21
23.4167891002
  0
LINE
  5
413
100
AcDbEntity
  8
COPY-PUBBLISH
100
AcDbLine
 62
7
  6
CONTINUOUS
 10
-86.8813763058
 20
23.4658161002
 11
-88.3780993058
 21
23.4658161002
  0
LINE
  5
414
100
AcDbEntity
  8
COPY-PUBBLISH
100
AcDbLine
 62
7
  6
CONTINUOUS
 10
-86.6777153058
 20
24.3279041002
 11
-86.8813763058
 21
24.3279041002
  0
LINE
  5
415
100
AcDbEntity
  8
COPY-PUBBLISH
100
AcDbLine
 62
7
  6
CONTINUOUS
 10
-87.3621323058
 20
25.0478001002
 11
-86.6777153058
 21
25.0478001002
  0
LINE
  5
416
100
AcDbEntity
  8
COPY-PUBBLISH
100
AcDbLine
 62
7
  6
CONTINUOUS
 10
-86.6777153058
 20
25.2774511002
 11
-87.3621323058
 21
25.2774511002
  0
LINE
  5
417
100
AcDbEntity
  8
COPY-PUBBLISH
100
AcDbLine
 62
7
  6
CONTINUOUS
 10
-92.8507553058
 20
25.5119011002
 11
-93.6007553058
 21
25.5119011002
  0
LINE
  5
418
100
AcDbEntity
  8
COPY-PUBBLISH
100
AcDbLine
 62
253
  6
CONTINUOUS
 10
-100.7638359627
 20
26.4595334472
 11
-101.2546867208
 21
26.4800967545
  0
LINE
  5
419
100
AcDbEntity
  8
COPY-PUBBLISH
100
AcDbLine
 62
7
  6
CONTINUOUS
 10
-46.6777153058
 20
0.2167891002
 11
-46.6777153058
 21
11.6167891002
  0
LINE
  5
41A
100
AcDbEntity
  8
RACCORDO
100
AcDbLine
 62
7
  6
CONTINUOUS
 10
-43.6777153058
 20
-29.7547837751
 11
-43.6777153058
 21
-11.4265865728
  0
LINE
  5
41B
100
AcDbEntity
  8
COPY-PUBBLISH
100
AcDbLine
 62
7
  6
CONTINUOUS
 10
-43.6777153058
 20
21.8167891002
 11
-43.6777153058
 21
37.7675898832
  0
LINE
  5
41C
100
AcDbEntity
  8
COPY-PUBBLISH
100
AcDbLine
 62
7
  6
CONTINUOUS
 10
-47.6777153058
 20
-11.5832108998
 11
-47.3083262
 21
-9.9832108998
  0
LINE
  5
41D
100
AcDbEntity
  8
COPY-PUBBLISH
100
AcDbLine
 62
253
  6
CONTINUOUS
 10
-96.6777153058
 20
27.5815602481
 11
-99.8170179761
 21
27.4170363667
  0
LINE
  5
41E
100
AcDbEntity
  8
COPY-PUBBLISH
100
AcDbLine
 62
7
  6
CONTINUOUS
 10
-90.6777181881
 20
25.9119011002
 11
-91.4285383542
 21
25.9119011002
  0
LINE
  5
41F
100
AcDbEntity
  8
COPY-PUBBLISH
100
AcDbLine
 62
7
  6
CONTINUOUS
 10
-95.0229753058
 20
25.9119011002
 11
-95.7737924235
 21
25.9119011002
  0
LINE
  5
420
100
AcDbEntity
  8
COPY-PUBBLISH
100
AcDbLine
 62
7
  6
CONTINUOUS
 10
-96.6777153058
 20
28.0817891002
 11
-99.8344597554
 21
27.9163511338
  0
LINE
  5
421
100
AcDbEntity
  8
COPY-PUBBLISH
100
AcDbLine
 62
7
  6
CONTINUOUS
 10
-47.3083262
 20
21.8167891002
 11
-47.6777153058
 21
23.4167891002
  0
LINE
  5
422
100
AcDbEntity
  8
RACCORDO
100
AcDbLine
 62
7
  6
CONTINUOUS
 10
-50.3932146662
 20
-28.8134288859
 11
-50.2635017434
 21
-28.6837159632
  0
LINE
  5
423
100
AcDbEntity
  8
RACCORDO
100
AcDbLine
 62
7
  6
CONTINUOUS
 10
-43.6777153058
 20
37.7675898832
 11
-95.2300645509
 21
35.9673421785
  0
LINE
  5
424
100
AcDbEntity
  8
RACCORDO
100
AcDbLine
 62
7
  6
CONTINUOUS
 10
-50.2775261976
 20
-37.1830217916
 11
-44.2635017434
 21
-31.1689973374
  0
ARC
  5
425
100
AcDbEntity
  8
ASSI
100
AcDbCircle
 62
7
  6
CONTINUOUS
 10
-15.511402
 20
5.9167881002
 40
2.2949984646
100
AcDbArc
 50
87.7525288774
 51
272.2474711226
  0
ARC
  5
426
100
AcDbEntity
  8
ASSI
100
AcDbCircle
 62
7
  6
CONTINUOUS
 10
-19.458001
 20
5.9167881002
 40
2.2949983861
100
AcDbArc
 50
87.7525288006
 51
272.2474711994
  0
ARC
  5
427
100
AcDbEntity
  8
ASSI
100
AcDbCircle
 62
7
  6
CONTINUOUS
 10
-19.458001
 20
5.9167881002
 40
1.6199999321
100
AcDbArc
 50
86.8152613297
 51
273.1847386703
  0
ARC
  5
428
100
AcDbEntity
  8
ASSI
100
AcDbCircle
 62
7
  6
CONTINUOUS
 10
-15.511402
 20
5.9167881002
 40
1.6199999321
100
AcDbArc
 50
86.8152613297
 51
167.9753003079
  0
ARC
  5
429
100
AcDbEntity
  8
ASSI
100
AcDbCircle
 62
7
  6
CONTINUOUS
 10
-15.511402
 20
5.9167881002
 40
1.6199972906
100
AcDbArc
 50
192.0247195925
 51
273.1847438687
  0
ARC
  5
42A
100
AcDbEntity
  8
COPY-PUBBLISH
100
AcDbCircle
 62
253
  6
CONTINUOUS
 10
-25.9450642326
 20
27.4161692249
 40
0.5001617734
100
AcDbArc
 50
90.0246497435
 51
179.9006606003
  0
ARC
  5
42B
100
AcDbEntity
  8
COPY-PUBBLISH
100
AcDbCircle
 62
253
  6
CONTINUOUS
 10
25.9450642358
 20
-15.5825910221
 40
0.500161773
100
AcDbArc
 50
270.024649379
 51
359.9006603219
  0
ARC
  5
42C
100
AcDbEntity
  8
COPY-PUBBLISH
100
AcDbCircle
 62
253
  6
CONTINUOUS
 10
-25.9450642383
 20
-15.582591028
 40
0.5001617691
100
AcDbArc
 50
180.099339012
 51
269.9753508959
  0
ARC
  5
42D
100
AcDbEntity
  8
COPY-PUBBLISH
100
AcDbCircle
 62
253
  6
CONTINUOUS
 10
25.945064246
 20
27.4161692296
 40
0.5001617642
100
AcDbArc
 50
0.0993388647
 51
89.9753518014
  0
ARC
  5
42E
100
AcDbEntity
  8
COPY-PUBBLISH
100
AcDbCircle
 62
7
  6
CONTINUOUS
 10
-64.6777153058
 20
-4.3832108998
 40
7.0
100
AcDbArc
 50
270.0
 51
360.0
  0
ARC
  5
42F
100
AcDbEntity
  8
COPY-PUBBLISH
100
AcDbCircle
 62
7
  6
CONTINUOUS
 10
-75.6777153058
 20
-4.3832108998
 40
7.0
100
AcDbArc
 50
180.0
 51
270.0
  0
ARC
  5
430
100
AcDbEntity
  8
COPY-PUBBLISH
100
AcDbCircle
 62
7
  6
CONTINUOUS
 10
-92.7017453058
 20
-12.0591808998
 40
2.0240299518
100
AcDbArc
 50
22.0885566458
 51
3.4299178772
  0
ARC
  5
431
100
AcDbEntity
  8
RACCORDO
100
AcDbCircle
 62
7
  6
CONTINUOUS
 10
-45.6777153058
 20
-29.7547837751
 40
2.0
100
AcDbArc
 50
315.0
 51
360.0
  0
ARC
  5
432
100
AcDbEntity
  8
RACCORDO
100
AcDbCircle
 62
7
  6
CONTINUOUS
 10
-51.6917397599
 20
-35.7688082292
 40
2.0
100
AcDbArc
 50
268.0
 51
315.0
  0
ARC
  5
433
100
AcDbEntity
  8
RACCORDO
100
AcDbCircle
 62
7
  6
CONTINUOUS
 10
-51.8074282285
 20
-27.3992153236
 40
2.0
100
AcDbArc
 50
272.0
 51
315.0
  0
ARC
  5
434
100
AcDbEntity
  8
RACCORDO
100
AcDbCircle
 62
7
  6
CONTINUOUS
 10
-51.6777153058
 20
-27.2695024008
 40
2.0
100
AcDbArc
 50
315.0
 51
360.0
  0
ARC
  5
435
100
AcDbEntity
  8
COPY-PUBBLISH
100
AcDbCircle
 62
7
  6
CONTINUOUS
 10
-88.8861883058
 20
-12.1203988998
 40
1.8043863978
100
AcDbArc
 50
137.231266101
 51
174.2010765521
  0
ARC
  5
436
100
AcDbEntity
  8
COPY-PUBBLISH
100
AcDbCircle
 62
7
  6
CONTINUOUS
 10
-89.1784583058
 20
-11.9783948998
 40
1.7827326018
100
AcDbArc
 50
135.4348873351
 51
157.5658581852
  0
CIRCLE
  5
437
100
AcDbEntity
  8
COPY-PUBBLISH
100
AcDbCircle
 62
7
  6
CONTINUOUS
 10
-92.7017453058
 20
-12.0591808998
 40
1.700044
  0
ARC
  5
438
100
AcDbEntity
  8
COPY-PUBBLISH
100
AcDbCircle
 62
7
  6
CONTINUOUS
 10
-92.7017453058
 20
-12.0591808998
 40
1.5204522959
100
AcDbArc
 50
224.9002633258
 51
330.6958580291
  0
ARC
  5
439
100
AcDbEntity
  8
COPY-PUBBLISH
100
AcDbCircle
 62
7
  6
CONTINUOUS
 10
-92.7017453058
 20
-12.0591808998
 40
1.5204512254
100
AcDbArc
 50
29.3041419708
 51
134.9957741536
  0
ARC
  5
43A
100
AcDbEntity
  8
COPY-PUBBLISH
100
AcDbCircle
 62
7
  6
CONTINUOUS
 10
-99.7559558167
 20
-14.5848286315
 40
1.5
100
AcDbArc
 50
182.3570462523
 51
267.0
  0
ARC
  5
43B
100
AcDbEntity
  8
RACCORDO
100
AcDbCircle
 62
7
  6
CONTINUOUS
 10
-53.9777153058
 20
-27.9753081905
 40
1.5
100
AcDbArc
 50
180.0
 51
272.0
  0
ARC
  5
43C
100
AcDbEntity
  8
RACCORDO
100
AcDbCircle
 62
7
  6
CONTINUOUS
 10
-53.9777153058
 20
-27.0832108998
 40
1.5
100
AcDbArc
 50
90.0
 51
180.0
  0
ARC
  5
43D
100
AcDbEntity
  8
RACCORDO
100
AcDbCircle
 62
7
  6
CONTINUOUS
 10
-84.1777153058
 20
-35.1346777376
 40
1.5
100
AcDbArc
 50
180.0
 51
268.0
  0
ARC
  5
43E
100
AcDbEntity
  8
ASSI
100
AcDbCircle
 62
7
  6
CONTINUOUS
 10
-84.1777153058
 20
-32.031744062
 40
1.5
100
AcDbArc
 50
140.0
 51
180.0
  0
ARC
  5
43F
100
AcDbEntity
  8
RACCORDO
100
AcDbCircle
 62
7
  6
CONTINUOUS
 10
-95.1777153058
 20
-22.6346777376
 40
1.5
100
AcDbArc
 50
180.0
 51
268.0
  0
ARC
  5
440
100
AcDbEntity
  8
ASSI
100
AcDbCircle
 62
7
  6
CONTINUOUS
 10
-82.0648457387
 20
-29.5137241648
 40
1.5
100
AcDbArc
 50
90.5
 51
140.0
  0
ARC
  5
441
100
AcDbEntity
  8
RACCORDO
100
AcDbCircle
 62
7
  6
CONTINUOUS
 10
-60.7216032156
 20
-26.5834721165
 40
1.2438879098
100
AcDbArc
 50
270.5
 51
88.0
  0
ARC
  5
442
100
AcDbEntity
  8
COPY-PUBBLISH
100
AcDbCircle
 62
7
  6
CONTINUOUS
 10
-92.7017453058
 20
-12.0591808998
 40
1.2181566122
100
AcDbArc
 50
29.3041277351
 51
121.973265948
  0
ARC
  5
443
100
AcDbEntity
  8
COPY-PUBBLISH
100
AcDbCircle
 62
7
  6
CONTINUOUS
 10
-92.7017453058
 20
-12.0591808998
 40
1.2181564327
100
AcDbArc
 50
238.0267046423
 51
330.695872265
  0
ARC
  5
444
100
AcDbEntity
  8
COPY-PUBBLISH
100
AcDbCircle
 62
253
  6
CONTINUOUS
 10
-99.7646694799
 20
-14.5848220797
 40
1.0000067205
100
AcDbArc
 50
182.3573917749
 51
266.999302151
  0
ARC
  5
445
100
AcDbEntity
  8
RACCORDO
100
AcDbCircle
 62
7
  6
CONTINUOUS
 10
-50.1277153058
 20
-24.5332108998
 40
0.3
100
AcDbArc
 50
180.0
 51
270.0
  0
ARC
  5
446
100
AcDbEntity
  8
COPY-PUBBLISH
100
AcDbCircle
 62
7
  6
CONTINUOUS
 10
-49.3777153058
 20
-11.8832108998
 40
0.3
100
AcDbArc
 50
90.0
 51
180.0
  0
ARC
  5
447
100
AcDbEntity
  8
COPY-PUBBLISH
100
AcDbCircle
 62
7
  6
CONTINUOUS
 10
-51.3777153058
 20
-10.2832108998
 40
0.3
100
AcDbArc
 50
90.0
 51
180.0
  0
ARC
  5
448
100
AcDbEntity
  8
COPY-PUBBLISH
100
AcDbCircle
 62
7
  6
CONTINUOUS
 10
-75.6777153058
 20
16.2167891002
 40
7.0
100
AcDbArc
 50
90.0
 51
180.0
  0
ARC
  5
449
100
AcDbEntity
  8
COPY-PUBBLISH
100
AcDbCircle
 62
7
  6
CONTINUOUS
 10
-64.6777153058
 20
16.2167891002
 40
7.0
100
AcDbArc
 50
0.0
 51
90.0
  0
ARC
  5
44A
100
AcDbEntity
  8
COPY-PUBBLISH
100
AcDbCircle
 62
7
  6
CONTINUOUS
 10
-93.2257553058
 20
25.8119011002
 40
2.5499986575
100
AcDbArc
 50
177.752529198
 51
2.247470802
  0
ARC
  5
44B
100
AcDbEntity
  8
COPY-PUBBLISH
100
AcDbCircle
 62
7
  6
CONTINUOUS
 10
-93.2257553058
 20
21.4267911002
 40
2.5499985007
100
AcDbArc
 50
177.7525290597
 51
2.2474709403
  0
ARC
  5
44C
100
AcDbEntity
  8
COPY-PUBBLISH
100
AcDbCircle
 62
7
  6
CONTINUOUS
 10
-93.2257553058
 20
25.8119011002
 40
1.7999999246
100
AcDbArc
 50
176.8152613297
 51
257.9753003079
  0
ARC
  5
44D
100
AcDbEntity
  8
COPY-PUBBLISH
100
AcDbCircle
 62
7
  6
CONTINUOUS
 10
-93.2257553058
 20
21.4267911002
 40
1.7999999246
100
AcDbArc
 50
176.8152613297
 51
3.1847386703
  0
ARC
  5
44E
100
AcDbEntity
  8
COPY-PUBBLISH
100
AcDbCircle
 62
7
  6
CONTINUOUS
 10
-93.2257553058
 20
25.8119011002
 40
1.7999968808
100
AcDbArc
 50
282.0247203293
 51
3.1847440612
  0
ARC
  5
44F
100
AcDbEntity
  8
COPY-PUBBLISH
100
AcDbCircle
 62
7
  6
CONTINUOUS
 10
-99.7559558167
 20
26.4184068319
 40
1.5
100
AcDbArc
 50
93.0
 51
177.6429537477
  0
ARC
  5
450
100
AcDbEntity
  8
RACCORDO
100
AcDbCircle
 62
7
  6
CONTINUOUS
 10
-95.1777153058
 20
34.468255938
 40
1.5
100
AcDbArc
 50
92.0
 51
180.0
  0
ARC
  5
451
100
AcDbEntity
  8
COPY-PUBBLISH
100
AcDbCircle
 62
7
  6
CONTINUOUS
 10
-87.5155643058
 20
12.8368961002
 40
1.1568266175
100
AcDbArc
 50
63.0771784534
 51
90.0
  0
ARC
  5
452
100
AcDbEntity
  8
COPY-PUBBLISH
100
AcDbCircle
 62
7
  6
CONTINUOUS
 10
-87.5402513058
 20
12.8368961002
 40
1.156826
100
AcDbArc
 50
90.0
 51
109.4516760888
  0
ARC
  5
453
100
AcDbEntity
  8
COPY-PUBBLISH
100
AcDbCircle
 62
7
  6
CONTINUOUS
 10
-87.5399683058
 20
12.7245781002
 40
1.031527
100
AcDbArc
 50
90.0
 51
114.4115583033
  0
ARC
  5
454
100
AcDbEntity
  8
COPY-PUBBLISH
100
AcDbCircle
 62
7
  6
CONTINUOUS
 10
-87.5158463058
 20
12.7245781002
 40
1.0315267213
100
AcDbArc
 50
72.0438458896
 51
90.0
  0
ARC
  5
455
100
AcDbEntity
  8
COPY-PUBBLISH
100
AcDbCircle
 62
253
  6
CONTINUOUS
 10
-99.7646753495
 20
26.4183946483
 40
1.0000065436
100
AcDbArc
 50
93.0003451241
 51
177.6422719903
  0
ARC
  5
456
100
AcDbEntity
  8
COPY-PUBBLISH
100
AcDbCircle
 62
7
  6
CONTINUOUS
 10
-87.6939903058
 20
13.2722081002
 40
0.6954054621
100
AcDbArc
 50
109.4516760888
 51
169.658596816
  0
ARC
  5
457
100
AcDbEntity
  8
COPY-PUBBLISH
100
AcDbCircle
 62
7
  6
CONTINUOUS
 10
-87.3711863058
 20
13.2878761002
 40
0.693471
100
AcDbArc
 50
0.0
 51
56.8294020309
  0
ARC
  5
458
100
AcDbEntity
  8
COPY-PUBBLISH
100
AcDbCircle
 62
7
  6
CONTINUOUS
 10
-87.6926933058
 20
13.2587121002
 40
0.4888963883
100
AcDbArc
 50
124.029051702
 51
180.0
  0
ARC
  5
459
100
AcDbEntity
  8
COPY-PUBBLISH
100
AcDbCircle
 62
7
  6
CONTINUOUS
 10
-87.3467653058
 20
13.2463141002
 40
0.4832803647
100
AcDbArc
 50
12.1019450183
 51
72.0438458896
  0
ARC
  5
45A
100
AcDbEntity
  8
RACCORDO
100
AcDbCircle
 62
7
  6
CONTINUOUS
 10
-50.1277153058
 20
2.4667891002
 40
0.3
100
AcDbArc
 50
180.0
 51
270.0
  0
ARC
  5
45B
100
AcDbEntity
  8
RACCORDO
100
AcDbCircle
 62
7
  6
CONTINUOUS
 10
-50.1277153058
 20
9.3667891002
 40
0.3
100
AcDbArc
 50
90.0
 51
180.0
  0
ARC
  5
45C
100
AcDbEntity
  8
RACCORDO
100
AcDbCircle
 62
7
  6
CONTINUOUS
 10
-49.2277153058
 20
9.3667891002
 40
0.3
100
AcDbArc
 50
0.0
 51
90.0
  0
ARC
  5
45D
100
AcDbEntity
  8
RACCORDO
100
AcDbCircle
 62
7
  6
CONTINUOUS
 10
-49.2277153058
 20
2.4667891002
 40
0.3
100
AcDbArc
 50
270.0
 51
360.0
  0
ARC
  5
45E
100
AcDbEntity
  8
COPY-PUBBLISH
100
AcDbCircle
 62
7
  6
CONTINUOUS
 10
-46.9777153058
 20
0.2167891002
 40
0.3
100
AcDbArc
 50
270.0
 51
360.0
  0
ARC
  5
45F
100
AcDbEntity
  8
COPY-PUBBLISH
100
AcDbCircle
 62
7
  6
CONTINUOUS
 10
-46.9777153058
 20
11.6167891002
 40
0.3
100
AcDbArc
 50
0.0
 51
90.0
  0
ARC
  5
460
100
AcDbEntity
  8
COPY-PUBBLISH
100
AcDbCircle
 62
7
  6
CONTINUOUS
 10
-48.9777153058
 20
2.2167891002
 40
0.3
100
AcDbArc
 50
270.0
 51
360.0
  0
ARC
  5
461
100
AcDbEntity
  8
COPY-PUBBLISH
100
AcDbCircle
 62
7
  6
CONTINUOUS
 10
-48.9777153058
 20
9.6167891002
 40
0.3
100
AcDbArc
 50
0.0
 51
90.0
  0
ARC
  5
462
100
AcDbEntity
  8
COPY-PUBBLISH
100
AcDbCircle
 62
7
  6
CONTINUOUS
 10
-50.3777153058
 20
9.6167891002
 40
0.3
100
AcDbArc
 50
90.0
 51
180.0
  0
ARC
  5
463
100
AcDbEntity
  8
COPY-PUBBLISH
100
AcDbCircle
 62
7
  6
CONTINUOUS
 10
-50.3777153058
 20
2.2167891002
 40
0.3
100
AcDbArc
 50
180.0
 51
270.0
  0
ARC
  5
464
100
AcDbEntity
  8
COPY-PUBBLISH
100
AcDbCircle
 62
7
  6
CONTINUOUS
 10
-48.3777153058
 20
12.2167891002
 40
0.3
100
AcDbArc
 50
180.0
 51
270.0
  0
ARC
  5
465
100
AcDbEntity
  8
COPY-PUBBLISH
100
AcDbCircle
 62
7
  6
CONTINUOUS
 10
-48.3777153058
 20
-0.3832108998
 40
0.3
100
AcDbArc
 50
90.0
 51
180.0
  0
ARC
  5
466
100
AcDbEntity
  8
RACCORDO
100
AcDbCircle
 62
7
  6
CONTINUOUS
 10
398.3222846942
 20
5.9167891002
 40
500.0
100
AcDbArc
 50
178.6905669384
 51
182.3570462523
  0
ARC
  5
467
100
AcDbEntity
  8
COPY-PUBBLISH
100
AcDbCircle
 62
7
  6
CONTINUOUS
 10
398.3222846942
 20
5.9167891002
 40
500.0
100
AcDbArc
 50
177.6429537477
 51
182.3570462523
  0
ARC
  5
468
100
AcDbEntity
  8
COPY-PUBBLISH
100
AcDbCircle
 62
253
  6
CONTINUOUS
 10
398.315934053
 20
5.9167891002
 40
499.5023735522
100
AcDbArc
 50
177.6429649543
 51
182.3570350457
  0
SPLINE
  5
469
100
AcDbEntity
  8
0
100
AcDbSpline
 62
7
  6
CONTINUOUS
 70
0
 71
3
 72
9
 73
5
 74
3
 42
0.0000001
 43
0.0000001
 44
0.0000000001
 12
-0.2351603999
 22
0.8631953115
 32
0.0
 13
-0.8542629619
 23
0.2953015792
 33
0.0
 40
0.0
 40
0.0
 40
0.0
 40
0.0
 40
0.9772132234
 40
1.0
 40
1.0
 40
1.0
 40
1.0
 10
7.0172301712
 20
23.1228180563
 30
0.0
 10
6.9406295538
 20
23.4039933472
 30
0.0
 10
6.8282040967
 20
23.7683995621
 30
0.0
 10
6.5473585091
 20
23.872934815
 30
0.0
 10
6.540869876
 20
23.8751778054
 30
0.0
 11
7.0172301712
 21
23.1228180563
 31
0.0
 11
6.5600701904
 21
23.8680358374
 31
0.0
 11
6.540869876
 21
23.8751778054
 31
0.0
  0
SPLINE
  5
46A
100
AcDbEntity
  8
0
100
AcDbSpline
 62
7
  6
CONTINUOUS
 70
0
 71
3
 72
14
 73
10
 74
8
 42
0.0000001
 43
0.0000001
 44
0.0000000001
 12
2.4101828561
 22
0.1404062894
 32
0.0
 13
-2.2337406966
 23
0.8058298463
 33
0.0
 40
0.0
 40
0.0
 40
0.0
 40
0.0
 40
0.0073301592
 40
0.1742263709
 40
0.3259983411
 40
0.5200589526
 40
0.6799515211
 40
0.8122728657
 40
1.0
 40
1.0
 40
1.0
 40
1.0
 10
6.5426057288
 20
23.8888550108
 30
0.0
 10
6.5484947368
 20
23.8891980776
 30
0.0
 10
6.6868501476
 20
23.902204855
 30
0.0
 10
6.8754403562
 20
24.1329706805
 30
0.0
 10
7.0764268754
 20
24.4750762653
 30
0.0
 10
7.1192475148
 20
24.8903537647
 30
0.0
 10
7.0356625345
 20
25.2721909657
 30
0.0
 10
6.829635336
 20
25.5967588956
 30
0.0
 10
6.6180750189
 20
25.7591656235
 30
0.0
 10
6.4782971056
 20
25.8095909994
 30
0.0
 11
6.5426057288
 21
23.8888550108
 31
0.0
 11
6.5600701904
 21
23.8904878203
 31
0.0
 11
6.8678874452
 21
24.1401236677
 31
0.0
 11
7.0393803131
 21
24.4571127926
 31
0.0
 11
7.0948433708
 21
24.9145888606
 31
0.0
 11
7.0084046615
 21
25.284307557
 31
0.0
 11
6.8407413453
 21
25.5500540555
 31
0.0
 11
6.4782971056
 21
25.8095909994
 31
0.0
  0
SPLINE
  5
46B
100
AcDbEntity
  8
0
100
AcDbSpline
 62
7
  6
CONTINUOUS
 70
0
 71
3
 72
9
 73
5
 74
3
 42
0.0000001
 43
0.0000001
 44
0.0000000001
 12
-1.8490833515
 22
0.6680315285
 32
0.0
 13
-1.9451189551
 23
-0.2861601197
 33
0.0
 40
0.0
 40
0.0
 40
0.0
 40
0.0
 40
0.108204615
 40
1.0
 40
1.0
 40
1.0
 40
1.0
 10
6.4782971056
 20
25.8095909994
 30
0.0
 10
6.4116039883
 20
25.8336856975
 30
0.0
 10
5.7793541574
 20
26.0139831796
 30
0.0
 10
5.0992301945
 20
25.9346597032
 30
0.0
 10
4.5210141587
 20
25.8495942785
 30
0.0
 11
6.4782971056
 21
25.8095909994
 31
0.0
 11
6.2742187675
 21
25.8696640326
 31
0.0
 11
4.5210141587
 21
25.8495942785
 31
0.0
  0
SPLINE
  5
46C
100
AcDbEntity
  8
0
100
AcDbSpline
 62
7
  6
CONTINUOUS
 70
0
 71
3
 72
9
 73
5
 74
3
 42
0.0000001
 43
0.0000001
 44
0.0000000001
 12
0.5693427171
 22
0.0
 32
0.0
 13
0.2000440944
 23
-0.5330417336
 33
0.0
 40
0.0
 40
0.0
 40
0.0
 40
0.0
 40
0.1435863572
 40
1.0
 40
1.0
 40
1.0
 40
1.0
 10
5.7361849921
 20
23.5813741629
 30
0.0
 10
5.763434941
 20
23.5813741629
 30
0.0
 10
5.9537656504
 20
23.5679192082
 30
0.0
 10
6.121564575
 20
23.3987569565
 30
0.0
 10
6.1786714055
 20
23.2465888856
 30
0.0
 11
5.7361849921
 21
23.5813741629
 31
0.0
 11
5.8176281887
 21
23.5743000432
 31
0.0
 11
6.1786714055
 21
23.2465888856
 31
0.0
  0
SPLINE
  5
46D
100
AcDbEntity
  8
0
100
AcDbSpline
 62
7
  6
CONTINUOUS
 70
0
 71
3
 72
9
 73
5
 74
3
 42
0.0000001
 43
0.0000001
 44
0.0000000001
 12
0.4231569679
 22
-1.1263576533
 32
0.0
 13
0.3324634843
 23
-1.1563785774
 33
0.0
 40
0.0
 40
0.0
 40
0.0
 40
0.0
 40
0.8657275665
 40
1.0
 40
1.0
 40
1.0
 40
1.0
 10
6.1786714055
 20
23.2465888856
 30
0.0
 10
6.3007842895
 20
22.9215492622
 30
0.0
 10
6.3978960756
 20
22.5310372493
 30
0.0
 10
6.5106002334
 20
22.1461997499
 30
0.0
 10
6.5254804604
 20
22.0944431614
 30
0.0
 11
6.1786714055
 21
23.2465888856
 31
0.0
 11
6.4806152265
 21
22.2496481913
 31
0.0
 11
6.5254804604
 21
22.0944431614
 31
0.0
  0
SPLINE
  5
46E
100
AcDbEntity
  8
0
100
AcDbSpline
 62
7
  6
CONTINUOUS
 70
0
 71
3
 72
9
 73
5
 74
3
 42
0.0000001
 43
0.0000001
 44
0.0000000001
 12
-0.2787501557
 22
1.0263367552
 32
0.0
 13
-0.2795600015
 23
1.0261164602
 33
0.0
 40
0.0
 40
0.0
 40
0.0
 40
0.0
 40
0.1980141723
 40
1.0
 40
1.0
 40
1.0
 40
1.0
 10
7.2883635073
 20
22.0944431614
 30
0.0
 10
7.2699646802
 20
22.1621862357
 30
0.0
 10
7.1799106656
 20
22.5050674656
 30
0.0
 10
7.0919645576
 20
22.8485077701
 30
0.0
 10
7.0172301712
 20
23.1228180563
 30
0.0
 11
7.2883635073
 21
22.0944431614
 31
0.0
 11
7.2343833881
 21
22.2979988427
 31
0.0
 11
7.0172301712
 21
23.1228180563
 31
0.0
  0
SPLINE
  5
46F
100
AcDbEntity
  8
0
100
AcDbSpline
 62
7
  6
CONTINUOUS
 70
0
 71
3
 72
9
 73
5
 74
3
 42
0.0000001
 43
0.0000001
 44
0.0000000001
 12
0.0146048291
 22
-0.9465029213
 32
0.0
 13
-0.9463795554
 23
-0.0211380768
 33
0.0
 40
0.0
 40
0.0
 40
0.0
 40
0.0
 40
0.5206208722
 40
1.0
 40
1.0
 40
1.0
 40
1.0
 10
6.3539849214
 20
24.7940946531
 30
0.0
 10
6.3565194477
 20
24.6298382609
 30
0.0
 10
6.2404802795
 20
24.2710217882
 30
0.0
 10
5.8891194026
 20
24.2070251109
 30
0.0
 10
5.737894534
 20
24.2036473933
 30
0.0
 11
6.3539849214
 21
24.7940946531
 31
0.0
 11
6.1719115921
 21
24.3361333245
 31
0.0
 11
5.737894534
 21
24.2036473933
 31
0.0
  0
SPLINE
  5
470
100
AcDbEntity
  8
0
100
AcDbSpline
 62
7
  6
CONTINUOUS
 70
0
 71
3
 72
11
 73
7
 74
5
 42
0.0000001
 43
0.0000001
 44
0.0000000001
 12
1.3049532435
 22
0.2226699674
 32
0.0
 13
0.0207025745
 23
-1.3236526302
 33
0.0
 40
0.0
 40
0.0
 40
0.0
 40
0.0
 40
0.2429387748
 40
0.4710498328
 40
0.7362395484
 40
1.0
 40
1.0
 40
1.0
 40
1.0
 10
5.284638007
 20
25.2466958557
 30
0.0
 10
5.3903125877
 20
25.2647275787
 30
0.0
 10
5.5976971039
 20
25.2876700438
 30
0.0
 10
5.9221539762
 20
25.2870637469
 30
0.0
 10
6.2569163959
 20
25.1570230755
 30
0.0
 10
6.3521647479
 20
24.9104703916
 30
0.0
 10
6.3539849214
 20
24.7940946531
 30
0.0
 11
5.284638007
 21
25.2466958557
 31
0.0
 11
5.6042795929
 21
25.2821866566
 31
0.0
 11
5.9059709894
 21
25.2690623614
 31
0.0
 11
6.222699231
 21
25.1176432544
 31
0.0
 11
6.3539849214
 21
24.7940946531
 31
0.0
  0
SPLINE
  5
471
100
AcDbEntity
  8
0
100
AcDbSpline
 62
7
  6
CONTINUOUS
 70
0
 71
3
 72
13
 73
9
 74
7
 42
0.0000001
 43
0.0000001
 44
0.0000000001
 12
1.3585840541
 22
0.0000017724
 32
0.0
 13
-0.0
 23
1.3585838534
 33
0.0
 40
0.0
 40
0.0
 40
0.0
 40
0.0
 40
0.2440843853
 40
0.3951671574
 40
0.5865946804
 40
0.7510176722
 40
0.8853895042
 40
1.0
 40
1.0
 40
1.0
 40
1.0
 10
19.2732623155
 20
7.6525617679
 30
0.0
 10
19.3837987
 20
7.6525619121
 30
0.0
 10
19.5665486389
 20
7.6860707427
 30
0.0
 10
19.7939043039
 20
7.8309204853
 30
0.0
 10
19.9358556369
 20
8.0182739825
 30
0.0
 10
20.0146521822
 20
8.2274341083
 30
0.0
 10
20.0497032452
 20
8.4123636533
 30
0.0
 10
20.0507338862
 20
8.5254069638
 30
0.0
 10
20.0507338862
 20
8.5773096202
 30
0.0
 11
19.2732623155
 21
7.6525617679
 31
0.0
 11
19.5982696287
 21
7.7184014208
 31
0.0
 11
19.7710987176
 21
7.8291317461
 31
0.0
 11
19.9311339649
 21
8.0341324836
 31
0.0
 11
20.0126105354
 21
8.2421259326
 31
0.0
 11
20.0455303618
 21
8.4216886224
 31
0.0
 11
20.0507338862
 21
8.5773096202
 31
0.0
  0
SPLINE
  5
472
100
AcDbEntity
  8
0
100
AcDbSpline
 62
7
  6
CONTINUOUS
 70
0
 71
3
 72
13
 73
9
 74
7
 42
0.0000001
 43
0.0000001
 44
0.0000000001
 12
0.0
 22
1.3585837147
 32
0.0
 13
-1.3585839394
 23
0.0000019852
 33
0.0
 40
0.0
 40
0.0
 40
0.0
 40
0.0
 40
0.1146105075
 40
0.2489823532
 40
0.4134053618
 40
0.6048329044
 40
0.7559156919
 40
1.0
 40
1.0
 40
1.0
 40
1.0
 10
20.0507338862
 20
8.5773096202
 30
0.0
 10
20.0507338862
 20
8.6292122765
 30
0.0
 10
20.0497032451
 20
8.742255587
 30
0.0
 10
20.0146521822
 20
8.927185132
 30
0.0
 10
19.9358556369
 20
9.1363452578
 30
0.0
 10
19.7939043039
 20
9.323698755
 30
0.0
 10
19.5665486785
 20
9.4685484724
 30
0.0
 10
19.3837987945
 20
9.5020573109
 30
0.0
 10
19.2732624542
 20
9.5020574724
 30
0.0
 11
20.0507338862
 21
8.5773096202
 31
0.0
 11
20.0455303618
 21
8.732930618
 31
0.0
 11
20.0126105354
 21
8.9124933077
 31
0.0
 11
19.9311339649
 21
9.1204867567
 31
0.0
 11
19.7710987176
 21
9.3254874942
 31
0.0
 11
19.5982696287
 21
9.4362178195
 31
0.0
 11
19.2732624542
 21
9.5020574724
 31
0.0
  0
SPLINE
  5
473
100
AcDbEntity
  8
0
100
AcDbSpline
 62
7
  6
CONTINUOUS
 70
0
 71
3
 72
13
 73
9
 74
7
 42
0.0000001
 43
0.0000001
 44
0.0000000001
 12
0.0
 22
1.019617843
 32
0.0
 13
-1.0196177119
 23
-0.0000024243
 33
0.0
 40
0.0
 40
0.0
 40
0.0
 40
0.0
 40
0.1705949826
 40
0.3141152329
 40
0.5170627049
 40
0.6977963486
 40
0.8426881556
 40
1.0
 40
1.0
 40
1.0
 40
1.0
 10
19.7942483386
 20
8.5773096202
 30
0.0
 10
19.7942483386
 20
8.6352901829
 30
0.0
 10
19.786837617
 20
8.7420459397
 30
0.0
 10
19.7567572304
 20
8.9157626661
 30
0.0
 10
19.6806245304
 20
9.0817126722
 30
0.0
 10
19.5509268022
 20
9.2130189514
 30
0.0
 10
19.3965236018
 20
9.2768803204
 30
0.0
 10
19.2932070236
 20
9.2880787276
 30
0.0
 10
19.2397410426
 20
9.2880786005
 30
0.0
 11
19.7942483386
 21
8.5773096202
 31
0.0
 11
19.7829947458
 21
8.7508868869
 31
0.0
 11
19.7550877111
 21
8.8945370387
 31
0.0
 11
19.6665782686
 21
9.0815815072
 31
0.0
 11
19.5346745094
 21
9.2102681016
 31
0.0
 11
19.3989550431
 21
9.2686259757
 31
0.0
 11
19.2397410426
 21
9.2880786005
 31
0.0
  0
SPLINE
  5
474
100
AcDbEntity
  8
0
100
AcDbSpline
 62
7
  6
CONTINUOUS
 70
0
 71
3
 72
13
 73
9
 74
7
 42
0.0000001
 43
0.0000001
 44
0.0000000001
 12
1.0196146136
 22
0.0000022186
 32
0.0
 13
-0.0
 23
1.0196144936
 33
0.0
 40
0.0
 40
0.0
 40
0.0
 40
0.0
 40
0.1573090762
 40
0.3022013591
 40
0.4829355966
 40
0.6858837353
 40
0.829404457
 40
1.0
 40
1.0
 40
1.0
 40
1.0
 10
19.2397443921
 20
7.8665406399
 30
0.0
 10
19.2932092697
 20
7.8665407562
 30
0.0
 10
19.396524652
 20
7.8777393543
 30
0.0
 10
19.5509268022
 20
7.9416002889
 30
0.0
 10
19.6806245304
 20
8.0729065681
 30
0.0
 10
19.7567572304
 20
8.2388565742
 30
0.0
 10
19.786837617
 20
8.4125733006
 30
0.0
 10
19.7942483386
 20
8.5193290574
 30
0.0
 10
19.7942483386
 20
8.5773096202
 30
0.0
 11
19.2397443921
 21
7.8665406399
 31
0.0
 11
19.3989550431
 21
7.8859932646
 31
0.0
 11
19.5346745094
 21
7.9443511387
 31
0.0
 11
19.6665782686
 21
8.0730377331
 31
0.0
 11
19.7550877111
 21
8.2600822016
 31
0.0
 11
19.7829947458
 21
8.4037323534
 31
0.0
 11
19.7942483386
 21
8.5773096202
 31
0.0
  0
SPLINE
  5
475
100
AcDbEntity
  8
COPY-PUBBLISH
100
AcDbSpline
 62
253
  6
CONTINUOUS
 70
0
 71
3
 72
18
 73
14
 74
12
 42
0.0000001
 43
0.0000001
 44
0.0000000001
 12
0.1956515255
 22
-0.4615128819
 32
0.0
 13
0.5012719126
 23
-0.0003595342
 33
0.0
 40
0.0
 40
0.0
 40
0.0
 40
0.0
 40
0.0075331243
 40
0.0237566405
 40
0.0489332943
 40
0.0829661301
 40
0.1256424628
 40
0.1765070051
 40
0.3007168775
 40
0.4511465974
 40
0.6222910841
 40
0.8079246523
 40
1.0
 40
1.0
 40
1.0
 40
1.0
 10
-26.4286764986
 20
-14.6259552469
 30
0.0
 10
-26.4281852095
 20
-14.6271141248
 30
0.0
 10
-26.4237684987
 20
-14.6284945524
 30
0.0
 10
-26.4163202774
 20
-14.6303441134
 30
0.0
 10
-26.4035638239
 20
-14.6321256807
 30
0.0
 10
-26.3867523845
 20
-14.6339634408
 30
0.0
 10
-26.3654635512
 20
-14.6357173372
 30
0.0
 10
-26.3291780982
 20
-14.6381294259
 30
0.0
 10
-26.2748346104
 20
-14.6407155614
 30
0.0
 10
-26.2003924033
 20
-14.6431726653
 30
0.0
 10
-26.1156598537
 20
-14.6450309644
 30
0.0
 10
-26.0239584917
 20
-14.6461975956
 30
0.0
 10
-25.9608466433
 20
-14.6464955346
 30
0.0
 10
-25.9287526511
 20
-14.6465185538
 30
0.0
 11
-26.4286764986
 21
-14.6259552469
 31
0.0
 11
-26.4254646783
 21
-14.6279410661
 31
0.0
 11
-26.4175756207
 21
-14.6299155584
 31
0.0
 11
-26.4051054572
 21
-14.6318567756
 31
0.0
 11
-26.3881503193
 21
-14.6337427693
 31
0.0
 11
-26.3668345753
 21
-14.6355527634
 31
0.0
 11
-26.3413955418
 21
-14.6372706703
 31
0.0
 11
-26.2792098206
 21
-14.6403705604
 31
0.0
 11
-26.2038470036
 21
-14.6429284387
 31
0.0
 11
-26.1180786158
 21
-14.6448515975
 31
0.0
 11
-26.02503357
 21
-14.6460619442
 31
0.0
 11
-25.9287526511
 21
-14.6465185538
 31
0.0
  0
SPLINE
  5
476
100
AcDbEntity
  8
COPY-PUBBLISH
100
AcDbSpline
 62
253
  6
CONTINUOUS
 70
0
 71
3
 72
9
 73
5
 74
3
 42
0.0000001
 43
0.0000001
 44
0.0000000001
 12
0.0295188476
 22
41.0854800766
 32
0.0
 13
-0.0295188585
 23
41.0854800766
 33
0.0
 40
0.0
 40
0.0
 40
0.0
 40
0.0
 40
0.2499463299
 40
1.0
 40
1.0
 40
1.0
 40
1.0
 10
-26.4286764986
 20
-14.6259552469
 30
0.0
 10
-26.4262171228
 20
-11.2029002607
 30
0.0
 10
-26.4188416023
 20
2.4922614236
 30
0.0
 10
-26.4212962559
 20
16.1874284078
 30
0.0
 10
-26.4286764986
 20
26.4595334472
 30
0.0
 11
-26.4286764986
 21
-14.6259552469
 31
0.0
 11
-26.4231442763
 21
-4.3567891282
 31
0.0
 11
-26.4286764986
 21
26.4595334472
 31
0.0
  0
SPLINE
  5
477
100
AcDbEntity
  8
COPY-PUBBLISH
100
AcDbSpline
 62
253
  6
CONTINUOUS
 70
0
 71
3
 72
18
 73
14
 74
12
 42
0.0000001
 43
0.0000001
 44
0.0000000001
 12
0.1962600848
 22
0.461253611
 32
0.0
 13
0.5012711694
 23
0.0003595923
 33
0.0
 40
0.0
 40
0.0
 40
0.0
 40
0.0
 40
0.0075379543
 40
0.0237665025
 40
0.0489476622
 40
0.0829843181
 40
0.1256636842
 40
0.1765304155
 40
0.3007419824
 40
0.4511696808
 40
0.6223087559
 40
0.8079341617
 40
1.0
 40
1.0
 40
1.0
 40
1.0
 10
-26.4286764976
 20
26.4595334472
 30
0.0
 10
-26.4281833644
 20
26.4606924168
 30
0.0
 10
-26.4237661827
 20
26.4620720583
 30
0.0
 10
-26.4163143753
 20
26.4639221329
 30
0.0
 10
-26.4035563092
 20
26.4657033473
 30
0.0
 10
-26.386742697
 20
26.4675410972
 30
0.0
 10
-26.3654524749
 20
26.4692948179
 30
0.0
 10
-26.3291658535
 20
26.4717066938
 30
0.0
 10
-26.2748221554
 20
26.4742925683
 30
0.0
 10
-26.2003809973
 20
26.4767494231
 30
0.0
 10
-26.11565118
 20
26.4786075141
 30
0.0
 10
-26.0239538086
 20
26.4797740164
 30
0.0
 10
-25.9608450069
 20
26.4800719272
 30
0.0
 10
-25.9287526511
 20
26.480094949
 30
0.0
 11
-26.4286764976
 21
26.4595334472
 31
0.0
 11
-26.425461766
 21
26.4615191505
 31
0.0
 11
-26.4175700888
 21
26.4634935155
 31
0.0
 11
-26.4050976371
 21
26.4654345961
 31
0.0
 11
-26.3881405819
 21
26.4673204457
 31
0.0
 11
-26.366823331
 21
26.4691302904
 31
0.0
 11
-26.3413832253
 21
26.4708480453
 31
0.0
 11
-26.2791967312
 21
26.4739476354
 31
0.0
 11
-26.2038350306
 21
26.4765052392
 31
0.0
 11
-26.1180694785
 21
26.4784281772
 31
0.0
 11
-26.0250286607
 21
26.4796383836
 31
0.0
 11
-25.9287526511
 21
26.480094949
 31
0.0
  0
SPLINE
  5
478
100
AcDbEntity
  8
COPY-PUBBLISH
100
AcDbSpline
 62
253
  6
CONTINUOUS
 70
0
 71
3
 72
16
 73
12
 74
10
 42
0.0000001
 43
0.0000001
 44
0.0000000001
 12
-0.000693474
 22
1.4365113733
 32
0.0
 13
-0.3119193233
 23
1.4022381189
 33
0.0
 40
0.0
 40
0.0
 40
0.0
 40
0.0
 40
0.3737111916
 40
0.5424209258
 40
0.6912750585
 40
0.8151456247
 40
0.9098303245
 40
0.9451970751
 40
0.972146003
 40
0.9904568706
 40
1.0
 40
1.0
 40
1.0
 40
1.0
 10
-25.9287526511
 20
26.4800967549
 30
0.0
 10
-25.9288390374
 20
26.6590435472
 30
0.0
 10
-25.9294765293
 20
26.918775615
 30
0.0
 10
-25.9315508943
 20
27.2497768768
 30
0.0
 10
-25.9335064626
 20
27.4611452809
 30
0.0
 10
-25.9358785588
 20
27.6370542173
 30
0.0
 10
-25.9381699559
 20
27.7586319758
 30
0.0
 10
-25.9403714358
 20
27.8337639072
 30
0.0
 10
-25.9417385932
 20
27.8723728646
 30
0.0
 10
-25.9433867837
 20
27.8985160554
 30
0.0
 10
-25.9442871917
 20
27.9118905541
 30
0.0
 10
-25.9452794205
 20
27.916351134
 30
0.0
 11
-25.9287526511
 21
26.4800967549
 31
0.0
 11
-25.9301874855
 21
27.016935277
 31
0.0
 11
-25.9317385791
 21
27.2592837936
 31
0.0
 11
-25.933781763
 21
27.4731047113
 31
0.0
 11
-25.9362472621
 21
27.6510291279
 31
0.0
 11
-25.9390497907
 21
27.7870159165
 31
0.0
 11
-25.940548374
 21
27.8377985553
 31
0.0
 11
-25.9420955623
 21
27.8764800714
 31
0.0
 11
-25.9436775698
 21
27.9027362269
 31
0.0
 11
-25.9452794205
 21
27.916351134
 31
0.0
  0
SPLINE
  5
479
100
AcDbEntity
  8
COPY-PUBBLISH
100
AcDbSpline
 62
253
  6
CONTINUOUS
 70
0
 71
3
 72
16
 73
12
 74
10
 42
0.0000001
 43
0.0000001
 44
0.0000000001
 12
-0.0006909358
 22
0.9578876624
 32
0.0
 13
-0.3032716057
 23
0.9086118997
 33
0.0
 40
0.0
 40
0.0
 40
0.0
 40
0.0
 40
0.3736332991
 40
0.5423163285
 40
0.6911474427
 40
0.8149933534
 40
0.90967624
 40
0.945056125
 40
0.9720299389
 40
0.9903806341
 40
1.0
 40
1.0
 40
1.0
 40
1.0
 10
-26.4286764986
 20
26.4595334472
 30
0.0
 10
-26.4287625508
 20
26.5788330231
 30
0.0
 10
-26.4294008532
 20
26.7519935479
 30
0.0
 10
-26.431474993
 20
26.9726638162
 30
0.0
 10
-26.4334305478
 20
27.1135778882
 30
0.0
 10
-26.435800833
 20
27.2308444866
 30
0.0
 10
-26.4380964461
 20
27.3119009004
 30
0.0
 10
-26.4402922091
 20
27.361975374
 30
0.0
 10
-26.4416709952
 20
27.387743511
 30
0.0
 10
-26.4432990457
 20
27.4051460435
 30
0.0
 10
-26.4442308412
 20
27.4141229432
 30
0.0
 10
-26.4452032681
 20
27.4170363667
 30
0.0
 11
-26.4286764986
 21
26.4595334472
 31
0.0
 11
-26.4301116124
 21
26.8174293905
 31
0.0
 11
-26.4316626945
 21
26.9790013803
 31
0.0
 11
-26.4337054633
 21
27.1215502694
 31
0.0
 11
-26.4361707042
 21
27.2401551525
 31
0.0
 11
-26.4389732064
 21
27.330807436
 31
0.0
 11
-26.440472017
 21
27.3646642408
 31
0.0
 11
-26.4420197269
 21
27.3904557349
 31
0.0
 11
-26.4436021054
 21
27.4079622756
 31
0.0
 11
-26.4452032681
 21
27.4170363667
 31
0.0
  0
SPLINE
  5
47A
100
AcDbEntity
  8
COPY-PUBBLISH
100
AcDbSpline
 62
253
  6
CONTINUOUS
 70
0
 71
3
 72
16
 73
12
 74
10
 42
0.0000001
 43
0.0000001
 44
0.0000000001
 12
-0.3119165533
 22
-1.4022387352
 32
0.0
 13
-0.0006934078
 23
-1.4365113734
 33
0.0
 40
0.0
 40
0.0
 40
0.0
 40
0.0
 40
0.0095431607
 40
0.0278540114
 40
0.0548029192
 40
0.0901696676
 40
0.1848543776
 40
0.3087249417
 40
0.4575790737
 40
0.6262888091
 40
1.0
 40
1.0
 40
1.0
 40
1.0
 10
25.9452794205
 20
27.916351134
 30
0.0
 10
25.9442871972
 20
27.9118905375
 30
0.0
 10
25.9433867733
 20
27.8985160354
 30
0.0
 10
25.9417385911
 20
27.8723728448
 30
0.0
 10
25.9403714323
 20
27.8337639073
 30
0.0
 10
25.9381699613
 20
27.758631981
 30
0.0
 10
25.9358785624
 20
27.6370542202
 30
0.0
 10
25.9335064565
 20
27.4611452801
 30
0.0
 10
25.9315508926
 20
27.2497768767
 30
0.0
 10
25.9294765402
 20
26.9187756149
 30
0.0
 10
25.9288390291
 20
26.6590435469
 30
0.0
 10
25.9287526511
 20
26.4800967549
 30
0.0
 11
25.9452794205
 21
27.916351134
 31
0.0
 11
25.943677565
 21
27.9027361821
 31
0.0
 11
25.9420955574
 21
27.8764800509
 31
0.0
 11
25.9405483718
 21
27.8377985638
 31
0.0
 11
25.9390497924
 21
27.787015928
 31
0.0
 11
25.936247265
 21
27.6510291247
 31
0.0
 11
25.9337817596
 21
27.4731047113
 31
0.0
 11
25.9317385777
 21
27.2592837943
 31
0.0
 11
25.9301874898
 21
27.016935276
 31
0.0
 11
25.9287526511
 21
26.4800967549
 31
0.0
  0
SPLINE
  5
47B
100
AcDbEntity
  8
COPY-PUBBLISH
100
AcDbSpline
 62
253
  6
CONTINUOUS
 70
0
 71
3
 72
16
 73
12
 74
10
 42
0.0000001
 43
0.0000001
 44
0.0000000001
 12
-0.3032595847
 22
-0.9086159117
 32
0.0
 13
-0.0006908945
 23
-0.9578876622
 33
0.0
 40
0.0
 40
0.0
 40
0.0
 40
0.0
 40
0.0096194129
 40
0.0279699766
 40
0.0549437233
 40
0.0903236902
 40
0.1850067275
 40
0.3088525264
 40
0.4576836179
 40
0.6263666961
 40
1.0
 40
1.0
 40
1.0
 40
1.0
 10
26.4452032681
 20
27.4170363667
 30
0.0
 10
26.444230875
 20
27.4141229161
 30
0.0
 10
26.4432990257
 20
27.405146065
 30
0.0
 10
26.4416710018
 20
27.3877435665
 30
0.0
 10
26.440292201
 20
27.3619754737
 30
0.0
 10
26.4380964533
 20
27.3119009433
 30
0.0
 10
26.4358008356
 20
27.2308444935
 30
0.0
 10
26.4334305465
 20
27.1135778889
 30
0.0
 10
26.4314749909
 20
26.9726638447
 30
0.0
 10
26.4294008583
 20
26.7519935663
 30
0.0
 10
26.4287625457
 20
26.5788330246
 30
0.0
 10
26.4286764986
 20
26.4595334472
 30
0.0
 11
26.4452032681
 21
27.4170363667
 31
0.0
 11
26.4436021053
 21
27.4079622299
 31
0.0
 11
26.4420197265
 21
27.3904558157
 31
0.0
 11
26.4404720167
 21
27.3646643861
 31
0.0
 11
26.4389732068
 21
27.3308075026
 31
0.0
 11
26.4361707052
 21
27.2401550749
 31
0.0
 11
26.4337054631
 21
27.1215502989
 31
0.0
 11
26.4316626936
 21
26.9790014315
 31
0.0
 11
26.4301116137
 21
26.817429395
 31
0.0
 11
26.4286764986
 21
26.4595334472
 31
0.0
  0
SPLINE
  5
47C
100
AcDbEntity
  8
COPY-PUBBLISH
100
AcDbSpline
 62
253
  6
CONTINUOUS
 70
0
 71
3
 72
18
 73
14
 74
12
 42
0.0000001
 43
0.0000001
 44
0.0000000001
 12
-0.1956514112
 22
0.4615129303
 32
0.0
 13
-0.5012719124
 23
0.0003595555
 33
0.0
 40
0.0
 40
0.0
 40
0.0
 40
0.0
 40
0.0075331233
 40
0.0237566386
 40
0.0489332915
 40
0.0829661267
 40
0.1256424589
 40
0.1765070008
 40
0.3007168731
 40
0.4511465935
 40
0.6222910812
 40
0.8079246508
 40
1.0
 40
1.0
 40
1.0
 40
1.0
 10
26.4286764986
 20
26.4595334472
 30
0.0
 10
26.4281852099
 20
26.4606923252
 30
0.0
 10
26.4237684991
 20
26.4620727528
 30
0.0
 10
26.4163202784
 20
26.4639223136
 30
0.0
 10
26.4035638253
 20
26.4657038807
 30
0.0
 10
26.3867523862
 20
26.4675416406
 30
0.0
 10
26.3654635531
 20
26.4692955367
 30
0.0
 10
26.3291781002
 20
26.4717076248
 30
0.0
 10
26.2748346124
 20
26.4742937592
 30
0.0
 10
26.2003924051
 20
26.4767508614
 30
0.0
 10
26.115659855
 20
26.4786091598
 30
0.0
 10
26.0239584924
 20
26.4797757926
 30
0.0
 10
25.9608466436
 20
26.4800737339
 30
0.0
 10
25.9287526511
 20
26.4800967545
 30
0.0
 11
26.4286764986
 21
26.4595334472
 31
0.0
 11
26.4254646788
 21
26.4615192664
 31
0.0
 11
26.4175756217
 21
26.4634937586
 31
0.0
 11
26.4051054586
 21
26.4654349756
 31
0.0
 11
26.388150321
 21
26.467320969
 31
0.0
 11
26.3668345772
 21
26.4691309628
 31
0.0
 11
26.3413955439
 21
26.4708488694
 31
0.0
 11
26.2792098227
 21
26.4739487583
 31
0.0
 11
26.2038470054
 21
26.4765066351
 31
0.0
 11
26.1180786172
 21
26.4784297933
 31
0.0
 11
26.0250335707
 21
26.4796401415
 31
0.0
 11
25.9287526511
 21
26.4800967545
 31
0.0
  0
SPLINE
  5
47D
100
AcDbEntity
  8
COPY-PUBBLISH
100
AcDbSpline
 62
253
  6
CONTINUOUS
 70
0
 71
3
 72
9
 73
5
 74
3
 42
0.0000001
 43
0.0000001
 44
0.0000000001
 12
-0.0295188585
 22
-41.0854800766
 32
0.0
 13
0.0295188476
 23
-41.0854800766
 33
0.0
 40
0.0
 40
0.0
 40
0.0
 40
0.0
 40
0.2499463299
 40
1.0
 40
1.0
 40
1.0
 40
1.0
 10
26.4286764986
 20
26.4595334472
 30
0.0
 10
26.4262171218
 20
23.0364784609
 30
0.0
 10
26.4188416033
 20
9.3413167766
 30
0.0
 10
26.4212962586
 20
-4.3538502076
 30
0.0
 10
26.4286764986
 20
-14.6259552469
 30
0.0
 11
26.4286764986
 21
26.4595334472
 31
0.0
 11
26.4231442764
 21
16.1903673281
 31
0.0
 11
26.4286764986
 21
-14.6259552469
 31
0.0
  0
SPLINE
  5
47E
100
AcDbEntity
  8
COPY-PUBBLISH
100
AcDbSpline
 62
253
  6
CONTINUOUS
 70
0
 71
3
 72
18
 73
14
 74
12
 42
0.0000001
 43
0.0000001
 44
0.0000000001
 12
-0.1962846094
 22
-0.461243132
 32
0.0
 13
-0.5012711296
 23
-0.0003596682
 33
0.0
 40
0.0
 40
0.0
 40
0.0
 40
0.0
 40
0.0075381418
 40
0.0237669068
 40
0.0489482773
 40
0.0829851277
 40
0.1256646638
 40
0.1765315327
 40
0.3007432509
 40
0.4511708992
 40
0.6223097197
 40
0.8079346897
 40
1.0
 40
1.0
 40
1.0
 40
1.0
 10
26.4286764975
 20
-14.6259552469
 30
0.0
 10
26.4281832904
 20
-14.6271142189
 30
0.0
 10
26.4237660811
 20
-14.6284938174
 30
0.0
 10
26.4163141263
 20
-14.6303439091
 30
0.0
 10
26.4035559779
 20
-14.6321251006
 30
0.0
 10
26.3867422591
 20
-14.6339628449
 30
0.0
 10
26.3654519577
 20
-14.6357165531
 30
0.0
 10
26.3291652594
 20
-14.6381284142
 30
0.0
 10
26.2748215263
 20
-14.6407142737
 30
0.0
 10
26.200380399
 20
-14.6431711186
 30
0.0
 10
26.1156507123
 20
-14.6450292054
 30
0.0
 10
26.0239535517
 20
-14.6461957104
 30
0.0
 10
25.9608449162
 20
-14.6464936277
 30
0.0
 10
25.9287526511
 20
-14.6465166543
 30
0.0
 11
26.4286764975
 21
-14.6259552469
 31
0.0
 11
26.4254616476
 21
-14.6279409369
 31
0.0
 11
26.4175698559
 21
-14.6299152892
 31
0.0
 11
26.4050972963
 21
-14.6318563572
 31
0.0
 11
26.3881401431
 21
-14.6337421949
 31
0.0
 11
26.3668228074
 21
-14.6355520282
 31
0.0
 11
26.3413826339
 21
-14.6372697727
 31
0.0
 11
26.2791960679
 21
-14.6403693453
 31
0.0
 11
26.203834398
 21
-14.6429269374
 31
0.0
 11
26.1180689803
 21
-14.6448498704
 31
0.0
 11
26.0250283883
 21
-14.6460600789
 31
0.0
 11
25.9287526511
 21
-14.6465166543
 31
0.0
  0
SPLINE
  5
47F
100
AcDbEntity
  8
COPY-PUBBLISH
100
AcDbSpline
 62
253
  6
CONTINUOUS
 70
0
 71
3
 72
16
 73
12
 74
10
 42
0.0000001
 43
0.0000001
 44
0.0000000001
 12
0.0006861587
 22
-1.4365113359
 32
0.0
 13
0.3111505188
 23
-1.4024088718
 33
0.0
 40
0.0
 40
0.0
 40
0.0
 40
0.0
 40
0.3737261437
 40
0.5424364928
 40
0.6912885438
 40
0.8151552876
 40
0.9098381874
 40
0.9452019161
 40
0.9721459645
 40
0.9904522254
 40
1.0
 40
1.0
 40
1.0
 40
1.0
 10
25.9287526511
 20
-14.6465185545
 30
0.0
 10
25.9288381295
 20
-14.8254725018
 30
0.0
 10
25.9294775351
 20
-15.085212011
 30
0.0
 10
25.9315512354
 20
-15.4162197282
 30
0.0
 10
25.9335057928
 20
-15.6275855886
 30
0.0
 10
25.9358781582
 20
-15.8034908723
 30
0.0
 10
25.9381702406
 20
-15.9250643773
 30
0.0
 10
25.9403713636
 20
-16.0001918059
 30
0.0
 10
25.9417394069
 20
-16.0387944878
 30
0.0
 10
25.9433858788
 20
-16.0649359411
 30
0.0
 10
25.9442891555
 20
-16.0783096391
 30
0.0
 10
25.9452794205
 20
-16.0827729337
 30
0.0
 11
25.9287526511
 21
-14.6465185545
 31
0.0
 11
25.9301880862
 21
-15.1833785387
 31
0.0
 11
25.9317388005
 21
-15.4257279341
 31
0.0
 11
25.9337812963
 21
-15.6395458619
 31
0.0
 11
25.9362470174
 21
-15.8174647789
 31
0.0
 11
25.9390499602
 21
-15.9534489688
 31
0.0
 11
25.9405486149
 21
-16.0042272612
 31
0.0
 11
25.9420957778
 21
-16.042901762
 31
0.0
 11
25.9436777055
 21
-16.069151292
 31
0.0
 11
25.9452794205
 21
-16.0827729337
 31
0.0
  0
SPLINE
  5
480
100
AcDbEntity
  8
COPY-PUBBLISH
100
AcDbSpline
 62
253
  6
CONTINUOUS
 70
0
 71
3
 72
16
 73
12
 74
10
 42
0.0000001
 43
0.0000001
 44
0.0000000001
 12
0.0006863539
 22
-0.9578875761
 32
0.0
 13
0.3018369109
 23
-0.9090894119
 33
0.0
 40
0.0
 40
0.0
 40
0.0
 40
0.0
 40
0.3736462634
 40
0.5423277942
 40
0.6911623149
 40
0.8150134652
 40
0.9096969852
 40
0.9450701031
 40
0.9720315632
 40
0.9903712696
 40
1.0
 40
1.0
 40
1.0
 40
1.0
 10
26.4286764986
 20
-14.6259552469
 30
0.0
 10
26.4287619831
 20
-14.7452589514
 30
0.0
 10
26.4294013205
 20
-14.9184231118
 30
0.0
 10
26.431475337
 20
-15.139098126
 30
0.0
 10
26.4334308884
 20
-15.2800144242
 30
0.0
 10
26.4358008104
 20
-15.3972841031
 30
0.0
 10
26.4380968488
 20
-15.4783399437
 30
0.0
 10
26.440291745
 20
-15.528408925
 30
0.0
 10
26.4416721825
 20
-15.5541666408
 30
0.0
 10
26.4432971892
 20
-15.571566333
 30
0.0
 10
26.4442344993
 20
-15.580540374
 30
0.0
 10
26.4452032681
 20
-15.5834581663
 30
0.0
 11
26.4286764986
 21
-14.6259552469
 31
0.0
 11
26.430111958
 21
-14.9838635737
 31
0.0
 11
26.4316630305
 21
-15.145434113
 31
0.0
 11
26.433705709
 21
-15.2879862534
 31
0.0
 11
26.4361708888
 21
-15.4065961467
 31
0.0
 11
26.4389734131
 21
-15.4972490279
 31
0.0
 11
26.4404722103
 21
-15.5310993418
 31
0.0
 11
26.4420198427
 21
-15.5568789833
 31
0.0
 11
26.4436021484
 21
-15.5743749599
 31
0.0
 11
26.4452032681
 21
-15.5834581663
 31
0.0
  0
SPLINE
  5
481
100
AcDbEntity
  8
COPY-PUBBLISH
100
AcDbSpline
 62
253
  6
CONTINUOUS
 70
0
 71
3
 72
16
 73
12
 74
10
 42
0.0000001
 43
0.0000001
 44
0.0000000001
 12
0.3111440456
 22
1.4024103079
 32
0.0
 13
0.0006861255
 23
1.4365113358
 33
0.0
 40
0.0
 40
0.0
 40
0.0
 40
0.0
 40
0.0095478218
 40
0.0278540564
 40
0.0547980745
 40
0.0901618005
 40
0.1848447157
 40
0.3087114561
 40
0.4575635066
 40
0.6262738569
 40
1.0
 40
1.0
 40
1.0
 40
1.0
 10
-25.9452794205
 20
-16.0827729337
 30
0.0
 10
-25.9442891712
 20
-16.0783096124
 30
0.0
 10
-25.9433858673
 20
-16.0649359116
 30
0.0
 10
-25.9417394059
 20
-16.038794458
 30
0.0
 10
-25.9403713552
 20
-16.0001918069
 30
0.0
 10
-25.9381702454
 20
-15.9250643851
 30
0.0
 10
-25.9358781643
 20
-15.8034908766
 30
0.0
 10
-25.9335057892
 20
-15.6275855872
 30
0.0
 10
-25.9315512295
 20
-15.4162197283
 30
0.0
 10
-25.9294775469
 20
-15.085212011
 30
0.0
 10
-25.9288381254
 20
-14.8254725016
 30
0.0
 10
-25.9287526511
 20
-14.6465185545
 30
0.0
 11
-25.9452794205
 21
-16.0827729337
 31
0.0
 11
-25.9436777037
 21
-16.069151224
 31
0.0
 11
-25.9420957728
 21
-16.042901732
 31
0.0
 11
-25.94054861
 21
-16.0042272747
 31
0.0
 11
-25.9390499597
 21
-15.953448986
 31
0.0
 11
-25.9362470219
 21
-15.8174647739
 31
0.0
 11
-25.9337812945
 21
-15.6395458619
 31
0.0
 11
-25.9317387968
 21
-15.425727935
 31
0.0
 11
-25.9301880899
 21
-15.1833785379
 31
0.0
 11
-25.9287526511
 21
-14.6465185545
 31
0.0
  0
SPLINE
  5
482
100
AcDbEntity
  8
COPY-PUBBLISH
100
AcDbSpline
 62
253
  6
CONTINUOUS
 70
0
 71
3
 72
16
 73
12
 74
10
 42
0.0000001
 43
0.0000001
 44
0.0000000001
 12
0.3018246582
 22
0.9090934794
 32
0.0
 13
0.000686314
 23
0.9578875756
 33
0.0
 40
0.0
 40
0.0
 40
0.0
 40
0.0
 40
0.0096287976
 40
0.0279683971
 40
0.0549297832
 40
0.090302939
 40
0.1849865811
 40
0.3088376964
 40
0.4576721409
 40
0.6263537113
 40
1.0
 40
1.0
 40
1.0
 40
1.0
 10
-26.4452032681
 20
-15.5834581663
 30
0.0
 10
-26.4442345319
 20
-15.5805403406
 30
0.0
 10
-26.4432971712
 20
-15.5715663331
 30
0.0
 10
-26.4416721902
 20
-15.5541666631
 30
0.0
 10
-26.4402917377
 20
-15.5284089998
 30
0.0
 10
-26.4380968535
 20
-15.4783399873
 30
0.0
 10
-26.4358008119
 20
-15.3972841093
 30
0.0
 10
-26.43343089
 20
-15.2800144259
 30
0.0
 10
-26.4314753329
 20
-15.1390981511
 30
0.0
 10
-26.4294013265
 20
-14.9184231403
 30
0.0
 10
-26.4287619782
 20
-14.7452589594
 30
0.0
 10
-26.4286764986
 20
-14.6259552469
 30
0.0
 11
-26.4452032681
 21
-15.5834581663
 31
0.0
 11
-26.4436021484
 21
-15.5743748946
 31
0.0
 11
-26.4420198425
 21
-15.5568790208
 31
0.0
 11
-26.4404722101
 21
-15.5310994503
 31
0.0
 11
-26.4389734132
 21
-15.4972491001
 31
0.0
 11
-26.4361708897
 21
-15.406596102
 31
0.0
 11
-26.4337057095
 21
-15.2879862422
 31
0.0
 11
-26.4316630291
 21
-15.1454341748
 31
0.0
 11
-26.4301119592
 21
-14.9838635977
 31
0.0
 11
-26.4286764986
 21
-14.6259552469
 31
0.0
  0
SPLINE
  5
483
100
AcDbEntity
  8
COPY-PUBBLISH
100
AcDbSpline
 62
253
  6
CONTINUOUS
 70
0
 71
3
 72
18
 73
14
 74
12
 42
0.0000001
 43
0.0000001
 44
0.0000000001
 12
-0.0261515678
 22
-0.4991536771
 32
0.0
 13
0.4991532608
 23
-0.0261595139
 33
0.0
 40
0.0
 40
0.0
 40
0.0
 40
0.0
 40
0.1946213192
 40
0.3825294988
 40
0.5553901946
 40
0.706770809
 40
0.8309883953
 40
0.8814602823
 40
0.9234560151
 40
0.9564987528
 40
0.9803549706
 40
0.9948657551
 40
1.0
 40
1.0
 40
1.0
 40
1.0
 10
-99.8170179761
 20
-15.5834581663
 30
0.0
 10
-99.818714527
 20
-15.6158401487
 30
0.0
 10
-99.8219401719
 20
-15.6794933342
 30
0.0
 10
-99.8263055459
 20
-15.7719237902
 30
0.0
 10
-99.829996999
 20
-15.8571806181
 30
0.0
 10
-99.8328622347
 20
-15.9318273803
 30
0.0
 10
-99.8346264764
 20
-15.9861696702
 30
0.0
 10
-99.8354551537
 20
-16.0221951115
 30
0.0
 10
-99.8358687378
 20
-16.0432496337
 30
0.0
 10
-99.8357749712
 20
-16.0593450928
 30
0.0
 10
-99.8360425175
 20
-16.0721199529
 30
0.0
 10
-99.8349495851
 20
-16.077792438
 30
0.0
 10
-99.8353140094
 20
-16.0827281639
 30
0.0
 10
-99.834459751
 20
-16.0827729337
 30
0.0
 11
-99.8170179761
 21
-15.5834581663
 31
0.0
 11
-99.8219401021
 21
-15.6806127456
 31
0.0
 11
-99.8263599819
 21
-15.774432392
 31
0.0
 11
-99.8300763747
 21
-15.8607548205
 31
0.0
 11
-99.8329544227
 21
-15.9363658902
 31
0.0
 11
-99.8348853728
 21
-15.9984245604
 31
0.0
 11
-99.8354729926
 21
-16.0236454967
 31
0.0
 11
-99.8357985074
 21
-16.0446340471
 31
0.0
 11
-99.8358563483
 21
-16.0611499708
 31
0.0
 11
-99.8356492748
 21
-16.0730724233
 31
0.0
 11
-99.8351821285
 21
-16.0803104094
 31
0.0
 11
-99.834459751
 21
-16.0827729337
 31
0.0
  0
SPLINE
  5
484
100
AcDbEntity
  8
COPY-PUBBLISH
100
AcDbSpline
 62
253
  6
CONTINUOUS
 70
0
 71
3
 72
18
 73
14
 74
12
 42
0.0000001
 43
0.0000001
 44
0.0000000001
 12
-0.0261513858
 22
0.4991536781
 32
0.0
 13
0.4991532522
 23
0.0261595135
 33
0.0
 40
0.0
 40
0.0
 40
0.0
 40
0.0
 40
0.1946212743
 40
0.3825293422
 40
0.555389989
 40
0.7067706343
 40
0.8309882869
 40
0.8814602124
 40
0.9234559668
 40
0.9564987187
 40
0.9803549565
 40
0.9948657571
 40
1.0
 40
1.0
 40
1.0
 40
1.0
 10
-99.8170179761
 20
27.4170363667
 30
0.0
 10
-99.8187145148
 20
27.4494183416
 30
0.0
 10
-99.8219401386
 20
27.513071501
 30
0.0
 10
-99.8263054891
 20
27.6055019223
 30
0.0
 10
-99.8299969282
 20
27.6907587277
 30
0.0
 10
-99.8328621608
 20
27.7654054967
 30
0.0
 10
-99.8346264095
 20
27.8197478082
 30
0.0
 10
-99.8354550966
 20
27.8557732693
 30
0.0
 10
-99.8358686912
 20
27.8768278043
 30
0.0
 10
-99.8357749288
 20
27.89292327
 30
0.0
 10
-99.8360424982
 20
27.905698144
 30
0.0
 10
-99.8349495553
 20
27.9113706249
 30
0.0
 10
-99.8353140134
 20
27.9163063641
 30
0.0
 10
-99.8344597554
 20
27.9163511338
 30
0.0
 11
-99.8170179761
 21
27.4170363667
 31
0.0
 11
-99.8219400703
 21
27.5141909235
 31
0.0
 11
-99.8263599255
 21
27.6080105135
 31
0.0
 11
-99.8300763045
 21
27.6943329166
 31
0.0
 11
-99.8329543506
 21
27.7699440005
 31
0.0
 11
-99.8348853095
 21
27.8320027026
 31
0.0
 11
-99.8354729369
 21
27.8572236575
 31
0.0
 11
-99.8357984606
 21
27.8782122182
 31
0.0
 11
-99.8358563116
 21
27.8947281487
 31
0.0
 11
-99.8356492501
 21
27.9066506112
 31
0.0
 11
-99.8351821175
 21
27.9138886061
 31
0.0
 11
-99.8344597554
 21
27.9163511338
 31
0.0
  0
ELLIPSE
  5
485
100
AcDbEntity
  8
COPY-PUBBLISH
100
AcDbEllipse
 62
7
  6
CONTINUOUS
 10
-13.8597428605
 20
5.9167891002
 30
0.0
 11
-0.0
 21
498.0
 31
0.0
 40
0.0174550649
 41
1.5305723425
 42
1.6110203111
  0
ELLIPSE
  5
486
100
AcDbEntity
  8
COPY-PUBBLISH
100
AcDbEllipse
 62
7
  6
CONTINUOUS
 10
13.8597428605
 20
5.9167891002
 30
0.0
 11
-0.0
 21
498.0
 31
0.0
 40
0.0174550649
 41
-1.6110203111
 42
-1.5305723425
  0
ELLIPSE
  5
487
100
AcDbEntity
  8
DRAFT
100
AcDbEllipse
 62
7
  6
CONTINUOUS
 10
16.6
 20
-16.6879346103
 30
0.0
 11
0.9756453505
 21
-0.0
 31
0.0
 40
0.0087268679
 41
2.5816296024
 42
3.1414363858
  0
ELLIPSE
  5
488
100
AcDbEntity
  8
DRAFT
100
AcDbEllipse
 62
7
  6
CONTINUOUS
 10
-5.9
 20
-16.6879346103
 30
0.0
 11
0.9756453505
 21
-0.0
 31
0.0
 40
0.0087268679
 41
2.5816296024
 42
3.1414363858
  0
ELLIPSE
  5
489
100
AcDbEntity
  8
DRAFT
100
AcDbEllipse
 62
7
  6
CONTINUOUS
 10
5.9
 20
28.5215128106
 30
0.0
 11
0.9756453505
 21
-0.0
 31
0.0
 40
0.0087268679
 41
-0.5599630512
 42
-0.0001562678
  0
ELLIPSE
  5
48A
100
AcDbEntity
  8
DRAFT
100
AcDbEllipse
 62
7
  6
CONTINUOUS
 10
-16.6
 20
28.5215128106
 30
0.0
 11
0.9756453505
 21
-0.0
 31
0.0
 40
0.0087268679
 41
-0.5599630512
 42
-0.0001562678
  0
ELLIPSE
  5
48B
100
AcDbEntity
  8
RACCORDO
100
AcDbEllipse
 62
7
  6
CONTINUOUS
 10
23.2852533351
 20
37.4952078812
 30
0.0
 11
0.8
 21
-0.0
 31
0.0
 40
0.0349207695
 41
1.5707963268
 42
3.1066860685
  0
ELLIPSE
  5
48C
100
AcDbEntity
  8
RACCORDO
100
AcDbEllipse
 62
7
  6
CONTINUOUS
 10
-23.2852533351
 20
37.4952078812
 30
0.0
 11
0.8
 21
0.0
 31
0.0
 40
0.0349207695
 41
0.034906585
 42
1.5707963268
  0
ELLIPSE
  5
48D
100
AcDbEntity
  8
RACCORDO
100
AcDbEllipse
 62
7
  6
CONTINUOUS
 10
-24.5899648399
 20
-26.5834721165
 30
0.0
 11
-0.0
 21
1.2438879098
 31
0.0
 40
0.0087268678
 41
0.034906585
 42
3.1328660073
  0
ELLIPSE
  5
48E
100
AcDbEntity
  8
RACCORDO
100
AcDbEllipse
 62
7
  6
CONTINUOUS
 10
24.5899648399
 20
-26.5834721165
 30
0.0
 11
0.0
 21
1.2438879098
 31
0.0
 40
0.0087268678
 41
-3.1328660073
 42
-0.034906585
  0
ELLIPSE
  5
48F
100
AcDbEntity
  8
RACCORDO
100
AcDbEllipse
 62
7
  6
CONTINUOUS
 10
-18.6029336756
 20
-24.7816262897
 30
0.0
 11
3.0
 21
0.0
 31
0.0
 40
0.0349207695
 41
1.5707963268
 42
3.1066860685
  0
ELLIPSE
  5
490
100
AcDbEntity
  8
RACCORDO
100
AcDbEllipse
 62
7
  6
CONTINUOUS
 10
18.6029336756
 20
-24.7816262897
 30
0.0
 11
3.0
 21
-0.0
 31
0.0
 40
0.0349207695
 41
0.034906585
 42
1.5707963268
  0
ELLIPSE
  5
491
100
AcDbEntity
  8
RACCORDO
100
AcDbEllipse
 62
7
  6
CONTINUOUS
 10
-18.6029336756
 20
-30.2689239744
 30
0.0
 11
3.0
 21
-0.0
 31
0.0
 40
0.0349207695
 41
-3.1066860685
 42
-1.5707963268
  0
ELLIPSE
  5
492
100
AcDbEntity
  8
RACCORDO
100
AcDbEllipse
 62
7
  6
CONTINUOUS
 10
18.6029336756
 20
-30.2689239744
 30
0.0
 11
3.0
 21
-0.0
 31
0.0
 40
0.0349207695
 41
-1.5707963268
 42
-0.034906585
  0
ELLIPSE
  5
493
100
AcDbEntity
  8
RACCORDO
100
AcDbEllipse
 62
7
  6
CONTINUOUS
 10
18.6029336756
 20
36.61520449
 30
0.0
 11
3.0
 21
0.0
 31
0.0
 40
0.0349207695
 41
-1.5707963268
 42
-0.034906585
  0
ELLIPSE
  5
494
100
AcDbEntity
  8
RACCORDO
100
AcDbEllipse
 62
7
  6
CONTINUOUS
 10
-18.6029336756
 20
36.61520449
 30
0.0
 11
3.0
 21
-0.0
 31
0.0
 40
0.0349207695
 41
-3.1066860685
 42
-1.5707963268
  0
ELLIPSE
  5
495
100
AcDbEntity
  8
RACCORDO
100
AcDbEllipse
 62
7
  6
CONTINUOUS
 10
22.9375705399
 20
-36.845116671
 30
0.0
 11
1.5
 21
0.0
 31
0.0
 40
0.0349207695
 41
0.0087266463
 42
1.5707963268
  0
ELLIPSE
  5
496
100
AcDbEntity
  8
RACCORDO
100
AcDbEllipse
 62
7
  6
CONTINUOUS
 10
-22.9375705399
 20
-36.845116671
 30
0.0
 11
1.5
 21
-0.0
 31
0.0
 40
0.0349207695
 41
1.5707963268
 42
3.1328660073
  0
ELLIPSE
  5
497
100
AcDbEntity
  8
DRAFT
100
AcDbEllipse
 62
7
  6
CONTINUOUS
 10
16.6
 20
28.5215128106
 30
0.0
 11
0.9756453505
 21
-0.0
 31
0.0
 40
0.0087268679
 41
-3.1414363858
 42
-2.5816296024
  0
ELLIPSE
  5
498
100
AcDbEntity
  8
DRAFT
100
AcDbEllipse
 62
7
  6
CONTINUOUS
 10
-5.9
 20
28.5215128106
 30
0.0
 11
0.9756453505
 21
0.0
 31
0.0
 40
0.0087268679
 41
-3.1414363858
 42
-2.5816296024
  0
ELLIPSE
  5
499
100
AcDbEntity
  8
DRAFT
100
AcDbEllipse
 62
7
  6
CONTINUOUS
 10
5.9
 20
-16.6879346103
 30
0.0
 11
0.9756453505
 21
-0.0
 31
0.0
 40
0.0087268679
 41
0.0001562678
 42
0.5599630512
  0
ELLIPSE
  5
49A
100
AcDbEntity
  8
DRAFT
100
AcDbEllipse
 62
7
  6
CONTINUOUS
 10
-16.6
 20
-16.6879346103
 30
0.0
 11
0.9756453505
 21
-0.0
 31
0.0
 40
0.0087268679
 41
0.0001562678
 42
0.5599630512
  0
ELLIPSE
  5
49B
100
AcDbEntity
  8
ASSI
100
AcDbEllipse
 62
7
  6
CONTINUOUS
 10
-24.4037051841
 20
-29.5137241648
 30
0.0
 11
0.0
 21
1.5
 31
0.0
 40
0.0087268678
 41
-0.872664626
 42
-0.0087266463
  0
ELLIPSE
  5
49C
100
AcDbEntity
  8
ASSI
100
AcDbEllipse
 62
7
  6
CONTINUOUS
 10
24.4037051841
 20
-29.5137241648
 30
0.0
 11
0.0
 21
1.5
 31
0.0
 40
0.0087268678
 41
0.0087266463
 42
0.872664626
  0
ELLIPSE
  5
49D
100
AcDbEntity
  8
RACCORDO
100
AcDbEllipse
 62
7
  6
CONTINUOUS
 10
-13.8597428605
 20
5.9167891002
 30
0.0
 11
-0.0
 21
500.0
 31
0.0
 40
0.0174550649
 41
1.5296581091
 42
1.6119345445
  0
ELLIPSE
  5
49E
100
AcDbEntity
  8
RACCORDO
100
AcDbEllipse
 62
7
  6
CONTINUOUS
 10
22.553730888
 20
26.4184068319
 30
0.0
 11
0.0
 21
1.5
 31
0.0
 40
0.0174550649
 41
-1.5296581091
 42
-0.0523598776
  0
ELLIPSE
  5
49F
100
AcDbEntity
  8
RACCORDO
100
AcDbEllipse
 62
7
  6
CONTINUOUS
 10
22.553730888
 20
-14.5848286315
 30
0.0
 11
-0.0
 21
1.5
 31
0.0
 40
0.0174550649
 41
-3.089232776
 42
-1.6119345445
  0
ELLIPSE
  5
4A0
100
AcDbEntity
  8
RACCORDO
100
AcDbEllipse
 62
7
  6
CONTINUOUS
 10
-22.553730888
 20
-14.5848286315
 30
0.0
 11
-0.0
 21
1.5
 31
0.0
 40
0.0174550649
 41
-4.6712507627
 42
-3.1939525311
  0
ELLIPSE
  5
4A1
100
AcDbEntity
  8
RACCORDO
100
AcDbEllipse
 62
7
  6
CONTINUOUS
 10
-22.553730888
 20
26.4184068319
 30
0.0
 11
-0.0
 21
1.5
 31
0.0
 40
0.0174550649
 41
0.0523598776
 42
1.5296581091
  0
ELLIPSE
  5
4A2
100
AcDbEntity
  8
COPY-PUBBLISH
100
AcDbEllipse
 62
7
  6
CONTINUOUS
 10
-25.999923836
 20
27.5811029272
 30
0.0
 11
-0.1582391023
 21
0.4751033573
 31
0.0
 40
0.9984778551
 41
-0.3210503505
 42
1.2488325878
  0
ELLIPSE
  5
4A3
100
AcDbEntity
  8
RACCORDO
100
AcDbEllipse
 62
7
  6
CONTINUOUS
 10
13.8597428605
 20
5.9167891002
 30
0.0
 11
-0.0
 21
500.0
 31
0.0
 40
0.0174550649
 41
-1.6119345445
 42
-1.5296581091
  0
ELLIPSE
  5
4A4
100
AcDbEntity
  8
COPY-PUBBLISH
100
AcDbEllipse
 62
7
  6
CONTINUOUS
 10
25.999923836
 20
27.5811029272
 30
0.0
 11
0.1582391023
 21
0.4751033573
 31
0.0
 40
0.9984778551
 41
-1.2488325878
 42
0.3210503505
  0
ELLIPSE
  5
4A5
100
AcDbEntity
  8
COPY-PUBBLISH
100
AcDbEllipse
 62
7
  6
CONTINUOUS
 10
25.999923836
 20
-15.7475247268
 30
0.0
 11
-0.1582391023
 21
0.4751033573
 31
0.0
 40
0.9984778551
 41
-3.4626430041
 42
-1.8927600658
  0
ELLIPSE
  5
4A6
100
AcDbEntity
  8
COPY-PUBBLISH
100
AcDbEllipse
 62
7
  6
CONTINUOUS
 10
-25.999923836
 20
-15.7475247268
 30
0.0
 11
0.1582391023
 21
0.4751033573
 31
0.0
 40
0.9984778551
 41
-4.3904252414
 42
-2.8205423031
  0
ELLIPSE
  5
4A7
100
AcDbEntity
  8
DRAFT
100
AcDbEllipse
 62
7
  6
CONTINUOUS
 10
-75.6725070933
 20
-4.3832108998
 30
0.0
 11
6.8214785315
 21
0.000000003
 31
0.0
 40
0.9999997085
 41
3.1415926532
 42
4.7116254779
  0
ELLIPSE
  5
4A8
100
AcDbEntity
  8
DRAFT
100
AcDbEllipse
 62
7
  6
CONTINUOUS
 10
-64.672500681
 20
-4.3832108998
 30
0.0
 11
6.8298770584
 21
-0.0000000135
 31
0.0
 40
0.9999997085
 41
-1.5715598269
 42
0.000000002
  0
ELLIPSE
  5
4A9
100
AcDbEntity
  8
DRAFT
100
AcDbEllipse
 62
7
  6
CONTINUOUS
 10
-64.672500681
 20
16.2167891002
 30
0.0
 11
6.8298770584
 21
0.0000000113
 31
0.0
 40
0.9999997085
 41
-0.0000000016
 42
1.5715598272
  0
ELLIPSE
  5
4AA
100
AcDbEntity
  8
DRAFT
100
AcDbEllipse
 62
7
  6
CONTINUOUS
 10
-75.6725070933
 20
16.2167891002
 30
0.0
 11
6.8214785315
 21
-0.0000000006
 31
0.0
 40
0.9999997085
 41
1.571559829
 42
3.1415926537
  0
ENDSEC
  0
SECTION
  2
OBJECTS
  0
DICTIONARY
  5
C
100
AcDbDictionary
280
0
281
1
  3
ACAD_GROUP
350
D
  3
ACAD_MLINESTYLE
350
17
  3
ACAD_LAYOUT
350
1A
  3
ACAD_PLOTSETTINGS
350
19
  3
ACAD_PLOTSTYLENAME
350
E
  0
DICTIONARY
  5
D
102
{ACAD_REACTORS
330
C
102
}
100
AcDbDictionary
280
0
281
1
  0
ACDBDICTIONARYWDFLT
  5
E
102
{ACAD_REACTORS
330
C
102
}
100
AcDbDictionary
281
1
  3
Normal
350
F
100
AcDbDictionaryWithDefault
340
F
  0
DICTIONARY
  5
17
102
{ACAD_REACTORS
330
C
102
}
100
AcDbDictionary
280
0
281
1
  3
Standard
350
18
  0
DICTIONARY
  5
19
102
{ACAD_REACTORS
330
C
102
}
100
AcDbDictionary
281
1
  0
DICTIONARY
  5
1A
102
{ACAD_REACTORS
330
C
102
}
100
AcDbDictionary
281
1
  3
Model
350
4AB
  3
Layout1
350
4AC
  0
ACDBPLACEHOLDER
  5
F
102
{ACAD_REACTORS
330
E
102
}
  0
MLINESTYLE
  5
18
102
{ACAD_REACTORS
330
17
102
}
100
AcDbMlineStyle
  2
STANDARD
 70
0
  3

 62
256
 51
90.0
 52
90.0
 71
2
 49
0.5
 62
256
  6
BYLAYER
 49
-0.5
 62
256
  6
BYLAYER
  0
LAYOUT
  5
4AB
102
{ACAD_REACTORS
330
1A
102
}
100
AcDbPlotSettings
  1

  2
none_device
  4
ISO_A4_(297.00_x_210.00_MM)
  6

 40
0.0
 41
0.0
 42
0.0
 43
0.0
 44
297.0
 45
210.0
 46
0.0
 47
0.0
 48
0.0
 49
0.0
140
0.0
141
0.0
142
1.0
143
1.0
 70
1024
 72
1
 73
0
 74
0
  7

 75
0
147
1.0
148
0.0
149
0.0
100
AcDbLayout
  1
Model
 70
0
 71
0
 10
0.0
 20
0.0
 11
297.0
 21
210.0
 12
0.0
 22
0.0
 32
0.0
 14
0.0
 24
0.0
 34
0.0
 15
0.0
 25
0.0
 35
0.0
146
0.0
 13
0.0
 23
0.0
 33
0.0
 16
1.0
 26
0.0
 36
0.0
 17
0.0
 27
1.0
 37
0.0
 76
0
330
212
345
0
346
0
  0
LAYOUT
  5
4AC
102
{ACAD_REACTORS
330
1A
102
}
100
AcDbPlotSettings
  1

  2
none_device
  4
ISO_A4_(297.00_x_210.00_MM)
  6

 40
0.0
 41
0.0
 42
0.0
 43
0.0
 44
297.0
 45
210.0
 46
0.0
 47
0.0
 48
0.0
 49
0.0
140
0.0
141
0.0
142
1.0
143
1.0
 70
0
 72
1
 73
0
 74
0
  7

 75
0
147
1.0
148
0.0
149
0.0
100
AcDbLayout
  1
Layout1
 70
0
 71
1
 10
0.0
 20
0.0
 11
297.0
 21
210.0
 12
0.0
 22
0.0
 32
0.0
 14
0.0
 24
0.0
 34
0.0
 15
0.0
 25
0.0
 35
0.0
146
0.0
 13
0.0
 23
0.0
 33
0.0
 16
1.0
 26
0.0
 36
0.0
 17
0.0
 27
1.0
 37
0.0
 76
0
330
213
345
0
346
0
  0
ENDSEC
  0
EOF
