  0
SECTION
  2
HEADER
  9
$ACADVER
  1
AC1015
  9
$DWGCODEPAGE
  3
ANSI_1252
  9
$EXTMAX
 10
297.0
 20
210.0
 30
0.0
  9
$EXTMIN
 10
0.0
 20
0.0
 30
0.0
  9
$LIMMIN
 10
0.0
 20
0.0
  9
$LIMMAX
 10
297.0
 20
210.0
  9
$VIEWCTR
 10
148.5
 20
105.0
  9
$VIEWSIZE
 40
210.0
  9
$CLAYER
  8
0
  9
$LTSCALE
 40
16.335
  9
$CELTYPE
  6
BYLAYER
  9
$DIMSCALE
 40
1.0
  9
$DIMASZ
 40
3.0
  9
$DIMEXO
 40
0.5
  9
$DIMDLI
 40
11.286
  9
$DIMEXE
 40
1.5
  9
$DIMCEN
 40
2.673
  9
$DIMLFAC
 40
1.0
  9
$DIMBLK
  1
_FILLED
  9
$DIMTXT
 40
3.0
  9
$DIMTOL
 70
1
  9
$DIMLIM
 70
0
  9
$DIMTFAC
 40
1.0
  9
$DIMTP
 40
0.01
  9
$DIMTM
 40
0.01
  9
$DIMGAP
 40
0.625
  9
$DIMDSEP
 70
44
  9
$PDMODE
 70
3
  9
$PDSIZE
 40
3.0
  9
$HANDSEED
  5
6DD
  9
$TILEMODE
 70
1
  9
$MEASUREMENT
 70
1
  9
$INSUNITS
 70
4
  0
ENDSEC
  0
SECTION
  2
CLASSES
  0
CLASS
  1
ACDBDICTIONARYWDFLT
  2
AcDbDictionaryWithDefault
  3
AutoCAD 2000
 90
0
280
0
281
0
  0
CLASS
  1
ACDBPLACEHOLDER
  2
AcDbPlaceHolder
  3
AutoCAD 2000
 90
0
280
0
281
0
  0
CLASS
  1
LAYOUT
  2
AcDbLayout
  3
AutoCAD 2000
 90
0
280
0
281
0
  0
ENDSEC
  0
SECTION
  2
TABLES
  0
TABLE
  2
VPORT
  5
8
100
AcDbSymbolTable
 70
2
  0
VPORT
  5
1F4
100
AcDbSymbolTableRecord
100
AcDbViewportTableRecord
  2
*ACTIVE
 70
0
 10
0.0
 20
0.0
 11
1.0
 21
1.0
 12
148.5
 22
105.0
 13
0.0
 23
0.0
 14
1.0
 24
1.0
 15
0.0
 25
0.0
 16
0.0
 26
0.0
 36
1.0
 17
0.0
 27
0.0
 37
0.0
 40
210.0
 41
1.4142857143
 42
50.0
 43
0.0
 44
0.0
 50
0.0
 51
0.0
 71
0
 72
100
 73
1
 74
1
 75
0
 76
0
 77
0
 78
0
  0
ENDTAB
  0
TABLE
  2
LTYPE
  5
5
100
AcDbSymbolTable
 70
6
  0
LTYPE
  5
14
100
AcDbSymbolTableRecord
100
AcDbLinetypeTableRecord
  2
BYBLOCK
 70
0
  3

 72
65
 73
0
 40
0.0
  0
LTYPE
  5
15
100
AcDbSymbolTableRecord
100
AcDbLinetypeTableRecord
  2
BYLAYER
 70
0
  3

 72
65
 73
0
 40
0.0
  0
LTYPE
  5
16
100
AcDbSymbolTableRecord
100
AcDbLinetypeTableRecord
  2
CONTINUOUS
 70
64
  3
Solid line
 72
65
 73
0
 40
0.0
  0
LTYPE
  5
1F5
100
AcDbSymbolTableRecord
100
AcDbLinetypeTableRecord
  2
CENTER
 70
64
  3
____ _ ____ _ ____ _ ____ _ ____ _ ____ _ ____
 72
65
 73
4
 40
0.6
 49
0.375
 74
0
 49
-0.075
 74
0
 49
0.075
 74
0
 49
-0.075
 74
0
  0
LTYPE
  5
1F6
100
AcDbSymbolTableRecord
100
AcDbLinetypeTableRecord
  2
HIDDEN
 70
64
  3
- - - - - - - - - - - - - - - - - - - -
 72
65
 73
2
 40
0.2
 49
0.1
 74
0
 49
-0.1
 74
0
  0
LTYPE
  5
1F7
100
AcDbSymbolTableRecord
100
AcDbLinetypeTableRecord
  2
PHANTOM
 70
64
  3
_____ _ _ _____ _ _ _____ _ _ _____
 72
65
 73
6
 40
0.8
 49
0.45
 74
0
 49
-0.05
 74
0
 49
0.1
 74
0
 49
-0.05
 74
0
 49
0.1
 74
0
 49
-0.05
 74
0
  0
LTYPE
  5
1F8
100
AcDbSymbolTableRecord
100
AcDbLinetypeTableRecord
  2
DOT
 70
64
  3
. . . . . . . . . . . . . . . . . . . .
 72
65
 73
2
 40
0.2
 49
0.1
 74
0
 49
-0.1
 74
0
  0
LTYPE
  5
1F9
100
AcDbSymbolTableRecord
100
AcDbLinetypeTableRecord
  2
DASHED
 70
64
  3
- - - - - - - - - - - - - - - - - - - -
 72
65
 73
2
 40
0.2
 49
0.1
 74
0
 49
-0.1
 74
0
  0
ENDTAB
  0
TABLE
  2
LAYER
  5
2
100
AcDbSymbolTable
 70
36
  0
LAYER
  5
10
100
AcDbSymbolTableRecord
100
AcDbLayerTableRecord
  2
0
 70
0
 62
7
  6
CONTINUOUS
370
-3
390
F
  0
LAYER
  5
1FA
100
AcDbSymbolTableRecord
100
AcDbLayerTableRecord
  2
DEFAULT_1
 70
0
 62
7
  6
CENTER
370
-3
390
F
  0
LAYER
  5
1FB
100
AcDbSymbolTableRecord
100
AcDbLayerTableRecord
  2
DEFAULT_2
 70
0
 62
7
  6
HIDDEN
370
-3
390
F
  0
LAYER
  5
1FC
100
AcDbSymbolTableRecord
100
AcDbLayerTableRecord
  2
DEFAULT_3
 70
0
 62
7
  6
PHANTOM
370
-3
390
F
  0
LAYER
  5
1FD
100
AcDbSymbolTableRecord
100
AcDbLayerTableRecord
  2
ASSI
 70
0
 62
7
  6
CONTINUOUS
370
-3
390
F
  0
LAYER
  5
1FE
100
AcDbSymbolTableRecord
100
AcDbLayerTableRecord
  2
COORDINATE
 70
0
 62
7
  6
CONTINUOUS
370
-3
390
F
  0
LAYER
  5
1FF
100
AcDbSymbolTableRecord
100
AcDbLayerTableRecord
  2
COPY_PUBLISH
 70
0
 62
7
  6
CONTINUOUS
370
-3
390
F
  0
LAYER
  5
200
100
AcDbSymbolTableRecord
100
AcDbLayerTableRecord
  2
COSMETICI
 70
0
 62
7
  6
CONTINUOUS
370
-3
390
F
  0
LAYER
  5
201
100
AcDbSymbolTableRecord
100
AcDbLayerTableRecord
  2
CURVE
 70
0
 62
7
  6
CONTINUOUS
370
-3
390
F
  0
LAYER
  5
202
100
AcDbSymbolTableRecord
100
AcDbLayerTableRecord
  2
DRAFT
 70
0
 62
7
  6
CONTINUOUS
370
-3
390
F
  0
LAYER
  5
203
100
AcDbSymbolTableRecord
100
AcDbLayerTableRecord
  2
IMPORT_IGES
 70
0
 62
7
  6
CONTINUOUS
370
-3
390
F
  0
LAYER
  5
204
100
AcDbSymbolTableRecord
100
AcDbLayerTableRecord
  2
NOTE
 70
0
 62
7
  6
CONTINUOUS
370
-3
390
F
  0
LAYER
  5
205
100
AcDbSymbolTableRecord
100
AcDbLayerTableRecord
  2
PIANI
 70
0
 62
7
  6
CONTINUOUS
370
-3
390
F
  0
LAYER
  5
206
100
AcDbSymbolTableRecord
100
AcDbLayerTableRecord
  2
PUNTI
 70
0
 62
7
  6
CONTINUOUS
370
-3
390
F
  0
LAYER
  5
207
100
AcDbSymbolTableRecord
100
AcDbLayerTableRecord
  2
RACCORDO
 70
0
 62
7
  6
CONTINUOUS
370
-3
390
F
  0
LAYER
  5
208
100
AcDbSymbolTableRecord
100
AcDbLayerTableRecord
  2
SIMBOLI
 70
0
 62
7
  6
CONTINUOUS
370
-3
390
F
  0
LAYER
  5
209
100
AcDbSymbolTableRecord
100
AcDbLayerTableRecord
  2
SMUSSO
 70
0
 62
7
  6
CONTINUOUS
370
-3
390
F
  0
LAYER
  5
20A
100
AcDbSymbolTableRecord
100
AcDbLayerTableRecord
  2
SNAPLINE
 70
0
 62
7
  6
CONTINUOUS
370
-3
390
F
  0
LAYER
  5
20B
100
AcDbSymbolTableRecord
100
AcDbLayerTableRecord
  2
SUPERFICI
 70
0
 62
7
  6
CONTINUOUS
370
-3
390
F
  0
LAYER
  5
20C
100
AcDbSymbolTableRecord
100
AcDbLayerTableRecord
  2
TRASH
 70
0
 62
7
  6
CONTINUOUS
370
-3
390
F
  0
ENDTAB
  0
TABLE
  2
STYLE
  5
3
100
AcDbSymbolTable
 70
1
  0
STYLE
  5
11
100
AcDbSymbolTableRecord
100
AcDbTextStyleTableRecord
  2
STANDARD
 70
0
 40
0.0
 41
0.8
 50
0.0
 71
0
 42
0.2
  3
txt
  4

  0
STYLE
  5
20D
100
AcDbSymbolTableRecord
100
AcDbTextStyleTableRecord
  2
TEXTSTYLE_1
 70
0
 40
0.0
 41
0.8
 50
0.0
 71
0
 42
0.2
  3
gdt
  4

  0
ENDTAB
  0
TABLE
  2
VIEW
  5
6
100
AcDbSymbolTable
 70
0
  0
ENDTAB
  0
TABLE
  2
UCS
  5
7
100
AcDbSymbolTable
 70
0
  0
ENDTAB
  0
TABLE
  2
APPID
  5
9
100
AcDbSymbolTable
 70
1
  0
APPID
  5
20E
100
AcDbSymbolTableRecord
100
AcDbRegAppTableRecord
  2
ACAD
 70
0
  0
ENDTAB
  0
TABLE
  2
BLOCK_RECORD
  5
1
100
AcDbSymbolTable
 70
0
  0
BLOCK_RECORD
  5
20F
100
AcDbSymbolTableRecord
100
AcDbBlockTableRecord
  2
*Model_Space
  0
BLOCK_RECORD
  5
210
100
AcDbSymbolTableRecord
100
AcDbBlockTableRecord
  2
*Paper_Space
  0
BLOCK_RECORD
  5
211
100
AcDbSymbolTableRecord
100
AcDbBlockTableRecord
  2
_FILLED
  0
BLOCK_RECORD
  5
212
100
AcDbSymbolTableRecord
100
AcDbBlockTableRecord
  2
*D0
  0
BLOCK_RECORD
  5
213
100
AcDbSymbolTableRecord
100
AcDbBlockTableRecord
  2
*D1
  0
BLOCK_RECORD
  5
214
100
AcDbSymbolTableRecord
100
AcDbBlockTableRecord
  2
*D2
  0
BLOCK_RECORD
  5
215
100
AcDbSymbolTableRecord
100
AcDbBlockTableRecord
  2
*D3
  0
ENDTAB
  0
TABLE
  2
DIMSTYLE
  5
A
100
AcDbSymbolTable
 70
1
100
AcDbDimStyleTable
 71
0
  0
DIMSTYLE
105
216
100
AcDbSymbolTableRecord
100
AcDbDimStyleTableRecord
  2
STANDARD
 70
0
  3

  4

 40
1.0
 41
3.0
 42
0.5
 43
0.38
 44
1.5
 45
0.0
 46
0.0
 47
0.01
 48
0.01
140
3.0
141
0.09
142
0.0
143
25.4
144
1.0
145
0.0
146
1.0
147
0.625
 71
1.0
 72
0.0
 73
0
 74
0
 75
0
 76
0
 77
1
 78
8
170
0
171
2
172
0
173
0
174
0
175
0
176
0
177
0
178
0
270
2
271
2
272
2
273
2
274
2
275
0
280
0
281
0
282
0
283
1
284
8
285
0
286
0
287
3
288
0
340
11
278
44
341
211
342
211
343
211
344
211
  0
DIMSTYLE
105
217
100
AcDbSymbolTableRecord
100
AcDbDimStyleTableRecord
  2
DIMSTYLE_1
 70
0
  3

  4

 40
1.0
 41
3.0
 42
0.5
 43
0.38
 44
1.5
 45
0.0
 46
0.0
 47
0.0
 48
0.0
140
3.0
141
0.09
142
0.0
143
25.4
144
1.0
145
0.0
146
1.0
147
0.75
 71
0.0
 72
0.0
 73
0
 74
0
 75
0
 76
0
 77
1
 78
8
170
0
171
2
172
0
173
0
174
0
175
0
176
0
177
0
178
0
270
2
271
2
272
2
273
2
274
2
275
0
280
0
281
0
282
0
283
1
284
8
285
0
286
0
287
3
288
0
340
11
278
44
341
211
342
211
343
211
344
211
  0
ENDTAB
  0
ENDSEC
  0
SECTION
  2
BLOCKS
  0
BLOCK
  5
20
100
AcDbEntity
  8
0
100
AcDbBlockBegin
  2
*Model_Space
 70
0
 10
0.0
 20
0.0
 30
0.0
  3
*Model_Space
  1

  0
ENDBLK
  5
21
100
AcDbEntity
  8
0
100
AcDbBlockEnd
  0
BLOCK
  5
1C
100
AcDbEntity
  8
0
100
AcDbBlockBegin
  2
*Paper_Space
 70
0
 10
0.0
 20
0.0
 30
0.0
  3
*Paper_Space
  1

  0
ENDBLK
  5
1D
100
AcDbEntity
  8
0
100
AcDbBlockEnd
  0
BLOCK
  5
218
100
AcDbEntity
  8
0
100
AcDbBlockBegin
  2
_FILLED
 70
64
 10
0.0
 20
0.0
  3
_FILLED
  1

  0
SOLID
  5
219
100
AcDbEntity
  8
0
  6
BYBLOCK
 62
0
100
AcDbTrace
 10
0.0
 20
0.0
 11
-1.0
 21
0.3166666667
 12
-1.0
 22
-0.3166666667
 13
-1.0
 23
-0.3166666667
  0
ENDBLK
  5
21A
100
AcDbEntity
  8
0
  6
BYBLOCK
 62
0
100
AcDbBlockEnd
  0
BLOCK
  5
21B
100
AcDbEntity
  8
0
100
AcDbBlockBegin
 62
7
  6
CONTINUOUS
  2
*D0
 70
65
 10
0.0
 20
0.0
  3
*D0
  1

  0
MTEXT
  5
21C
100
AcDbEntity
  8
0
100
AcDbMText
 62
7
  6
CONTINUOUS
  7
STANDARD
 71
2
 72
1
 10
4.3640816327
 20
31.75
 30
0.0
 11
1.0
 21
0.0
 31
0.0
 44
0.9
  1
104,5
 40
3.0
 41
15.4285714286
  0
LINE
  5
21D
100
AcDbEntity
  8
0
100
AcDbLine
 62
7
  6
CONTINUOUS
 10
52.25
 20
14.0999999971
 11
52.25
 21
29.5
  0
LINE
  5
21E
100
AcDbEntity
  8
0
100
AcDbLine
 62
7
  6
CONTINUOUS
 10
-52.25
 20
14.0999999971
 11
-52.25
 21
29.5
  0
LINE
  5
21F
100
AcDbEntity
  8
0
100
AcDbLine
 62
7
  6
CONTINUOUS
 10
52.25
 20
28.0
 11
0.0
 21
28.0
  0
LINE
  5
220
100
AcDbEntity
  8
0
100
AcDbLine
 62
7
  6
CONTINUOUS
 10
-52.25
 20
28.0
 11
0.0
 21
28.0
  0
INSERT
  5
221
100
AcDbEntity
  8
0
100
AcDbBlockReference
 62
7
  6
CONTINUOUS
  2
_FILLED
 10
52.25
 20
28.0
 41
3.0
 42
3.0
 43
3.0
  0
INSERT
  5
222
100
AcDbEntity
  8
0
100
AcDbBlockReference
 62
7
  6
CONTINUOUS
  2
_FILLED
 10
-52.25
 20
28.0
 41
3.0
 42
3.0
 43
3.0
 50
180.0
  0
ENDBLK
  5
223
100
AcDbEntity
  8
0
  6
BYBLOCK
 62
0
100
AcDbBlockEnd
  0
BLOCK
  5
224
100
AcDbEntity
  8
0
100
AcDbBlockBegin
 62
7
  6
CONTINUOUS
  2
*D1
 70
65
 10
0.0
 20
0.0
  3
*D1
  1

  0
MTEXT
  5
225
100
AcDbEntity
  8
0
100
AcDbMText
 62
7
  6
CONTINUOUS
  7
TEXTSTYLE_1
 71
2
 72
1
 10
56.5
 20
0.0
 30
0.0
 11
0.0
 21
1.0
 31
0.0
 44
0.9
  1
{\Fgdt;n}\Ftxt;40
 40
3.0
 41
13.0714285714
  0
LINE
  5
226
100
AcDbEntity
  8
0
100
AcDbLine
 62
7
  6
CONTINUOUS
 10
43.0500571132
 20
20.0
 11
61.75
 21
20.0
  0
LINE
  5
227
100
AcDbEntity
  8
0
100
AcDbLine
 62
7
  6
CONTINUOUS
 10
43.0500571132
 20
-20.0
 11
61.75
 21
-20.0
  0
LINE
  5
228
100
AcDbEntity
  8
0
100
AcDbLine
 62
7
  6
CONTINUOUS
 10
60.25
 20
20.0
 11
60.25
 21
0.0
  0
LINE
  5
229
100
AcDbEntity
  8
0
100
AcDbLine
 62
7
  6
CONTINUOUS
 10
60.25
 20
-20.0
 11
60.25
 21
0.0
  0
INSERT
  5
22A
100
AcDbEntity
  8
0
100
AcDbBlockReference
 62
7
  6
CONTINUOUS
  2
_FILLED
 10
60.25
 20
20.0
 41
3.0
 42
3.0
 43
3.0
 50
90.0
  0
INSERT
  5
22B
100
AcDbEntity
  8
0
100
AcDbBlockReference
 62
7
  6
CONTINUOUS
  2
_FILLED
 10
60.25
 20
-20.0
 41
3.0
 42
3.0
 43
3.0
 50
270.0
  0
ENDBLK
  5
22C
100
AcDbEntity
  8
0
  6
BYBLOCK
 62
0
100
AcDbBlockEnd
  0
BLOCK
  5
22D
100
AcDbEntity
  8
0
100
AcDbBlockBegin
 62
7
  6
CONTINUOUS
  2
*D2
 70
65
 10
0.0
 20
0.0
  3
*D2
  1

  0
MTEXT
  5
22E
100
AcDbEntity
  8
0
100
AcDbMText
 62
7
  6
CONTINUOUS
  7
STANDARD
 71
2
 72
1
 10
-73.6895514779
 20
0.0
 30
0.0
 11
0.0
 21
1.0
 31
0.0
 44
0.9
  1
39
 40
3.0
 41
6.75
  0
LINE
  5
22F
100
AcDbEntity
  8
0
100
AcDbLine
 62
7
  6
CONTINUOUS
 10
-99.7395514779
 20
19.4999999971
 11
-68.4395514779
 21
19.4999999971
  0
LINE
  5
230
100
AcDbEntity
  8
0
100
AcDbLine
 62
7
  6
CONTINUOUS
 10
-99.7395514779
 20
-19.4999999971
 11
-68.4395514779
 21
-19.4999999971
  0
LINE
  5
231
100
AcDbEntity
  8
0
100
AcDbLine
 62
7
  6
CONTINUOUS
 10
-69.9395514779
 20
19.4999999971
 11
-69.9395514779
 21
0.0
  0
LINE
  5
232
100
AcDbEntity
  8
0
100
AcDbLine
 62
7
  6
CONTINUOUS
 10
-69.9395514779
 20
-19.4999999971
 11
-69.9395514779
 21
0.0
  0
INSERT
  5
233
100
AcDbEntity
  8
0
100
AcDbBlockReference
 62
7
  6
CONTINUOUS
  2
_FILLED
 10
-69.9395514779
 20
19.4999999971
 41
3.0
 42
3.0
 43
3.0
 50
90.0
  0
INSERT
  5
234
100
AcDbEntity
  8
0
100
AcDbBlockReference
 62
7
  6
CONTINUOUS
  2
_FILLED
 10
-69.9395514779
 20
-19.4999999971
 41
3.0
 42
3.0
 43
3.0
 50
270.0
  0
ENDBLK
  5
235
100
AcDbEntity
  8
0
  6
BYBLOCK
 62
0
100
AcDbBlockEnd
  0
BLOCK
  5
236
100
AcDbEntity
  8
0
100
AcDbBlockBegin
 62
7
  6
CONTINUOUS
  2
*D3
 70
65
 10
0.0
 20
0.0
  3
*D3
  1

  0
MTEXT
  5
237
100
AcDbEntity
  8
0
100
AcDbMText
 62
7
  6
CONTINUOUS
  7
STANDARD
 71
2
 72
1
 10
-100.2395514779
 20
31.75
 30
0.0
 11
1.0
 21
0.0
 31
0.0
 44
0.9
  1
44,6
 40
3.0
 41
13.1785714286
  0
LINE
  5
238
100
AcDbEntity
  8
0
100
AcDbLine
 62
7
  6
CONTINUOUS
 10
-77.9395514779
 20
3.8574543928
 11
-77.9395514779
 21
29.5
  0
LINE
  5
239
100
AcDbEntity
  8
0
100
AcDbLine
 62
7
  6
CONTINUOUS
 10
-122.5395514779
 20
3.8574543928
 11
-122.5395514779
 21
29.5
  0
LINE
  5
23A
100
AcDbEntity
  8
0
100
AcDbLine
 62
7
  6
CONTINUOUS
 10
-77.9395514779
 20
28.0
 11
-100.2395514779
 21
28.0
  0
LINE
  5
23B
100
AcDbEntity
  8
0
100
AcDbLine
 62
7
  6
CONTINUOUS
 10
-122.5395514779
 20
28.0
 11
-100.2395514779
 21
28.0
  0
INSERT
  5
23C
100
AcDbEntity
  8
0
100
AcDbBlockReference
 62
7
  6
CONTINUOUS
  2
_FILLED
 10
-77.9395514779
 20
28.0
 41
3.0
 42
3.0
 43
3.0
 50
360.0
  0
INSERT
  5
23D
100
AcDbEntity
  8
0
100
AcDbBlockReference
 62
7
  6
CONTINUOUS
  2
_FILLED
 10
-122.5395514779
 20
28.0
 41
3.0
 42
3.0
 43
3.0
 50
180.0
  0
ENDBLK
  5
23E
100
AcDbEntity
  8
0
  6
BYBLOCK
 62
0
100
AcDbBlockEnd
  0
ENDSEC
  0
SECTION
  2
ENTITIES
  0
DIMENSION
  5
23F
100
AcDbEntity
  8
0
100
AcDbDimension
 62
7
  6
CONTINUOUS
  2
*D0
 10
-52.25
 20
28.0
 11
4.3640816327
 21
28.0
 70
160
 71
2
 42
104.5
  3
DIMSTYLE_1
100
AcDbAlignedDimension
 13
52.25
 23
13.5999999971
 14
-52.25
 24
13.5999999971
 50
180.0
100
AcDbRotatedDimension
  0
DIMENSION
  5
240
100
AcDbEntity
  8
0
100
AcDbDimension
 62
7
  6
CONTINUOUS
  2
*D1
 10
60.25
 20
-20.0
 11
60.25
 21
0.0
 70
160
 71
2
 42
40.0
  1
%%c<>
  3
DIMSTYLE_1
100
AcDbAlignedDimension
 13
42.5500571132
 23
20.0
 14
42.5500571132
 24
-20.0
 50
270.0
100
AcDbRotatedDimension
  0
DIMENSION
  5
241
100
AcDbEntity
  8
0
100
AcDbDimension
 62
7
  6
CONTINUOUS
  2
*D2
 10
-69.9395514779
 20
-19.4999999971
 11
-69.9395514779
 21
0.0
 70
160
 71
2
 42
38.9999999942
  3
DIMSTYLE_1
100
AcDbAlignedDimension
 13
-100.2395514779
 23
19.4999999971
 14
-100.2395514779
 24
-19.4999999971
 50
270.0
100
AcDbRotatedDimension
  0
DIMENSION
  5
242
100
AcDbEntity
  8
0
100
AcDbDimension
 62
7
  6
CONTINUOUS
  2
*D3
 10
-122.5395514779
 20
28.0
 11
-100.2395514779
 21
28.0
 70
160
 71
2
 42
44.6
  3
DIMSTYLE_1
100
AcDbAlignedDimension
 13
-77.9395514779
 23
3.3574543928
 14
-122.5395514779
 24
3.3574543928
 50
180.0
100
AcDbRotatedDimension
  0
LINE
  5
243
100
AcDbEntity
  8
RACCORDO
100
AcDbLine
 62
253
  6
CONTINUOUS
 10
-52.1792710197
 20
-12.802594389
 11
-52.1771768448
 21
-12.8393113109
  0
LWPOLYLINE
  5
244
100
AcDbEntity
  8
RACCORDO
100
AcDbPolyline
 62
253
  6
CONTINUOUS
 90
19
 70
0
 10
-52.1995829457
 20
-13.4991582086
 10
-52.1976741211
 20
-13.5427249882
 10
-52.1919754376
 20
-13.5859602988
 10
-52.1825302483
 20
-13.6285351596
 10
-52.1694104135
 20
-13.6701256142
 10
-52.152715755
 20
-13.7104151944
 10
-52.132573297
 20
-13.7490973278
 10
-52.1091362978
 20
-13.7858776753
 10
-52.0825830856
 20
-13.8204763658
 10
-52.0531157041
 20
-13.8526301253
 10
-52.0209583687
 20
-13.8820942873
 10
-51.9863557652
 20
-13.9086446493
 10
-51.9495711919
 20
-13.9320791764
 10
-51.9108845454
 20
-13.9522195476
 10
-51.8705901968
 20
-13.9689125066
 10
-51.8289947597
 20
-13.9820310269
 10
-51.7864147433
 20
-13.9914752844
 10
-51.743174143
 20
-13.9971734144
 10
-51.6996019842
 20
-13.9990820562
  0
LWPOLYLINE
  5
245
100
AcDbEntity
  8
RACCORDO
100
AcDbPolyline
 62
7
  6
CONTINUOUS
 90
19
 70
0
 10
-52.25
 20
-13.5999999971
 10
-52.2480981684
 20
-13.6435750005
 10
-52.2424067521
 20
-13.6868186415
 10
-52.2329688641
 20
-13.729402001
 10
-52.2198561395
 20
-13.7710012714
 10
-52.2031681344
 20
-13.8112998332
 10
-52.1830316196
 20
-13.8499906833
 10
-52.1595996391
 20
-13.886779421
 10
-52.133050391
 20
-13.9213860568
 10
-52.1035859203
 20
-13.9535468238
 10
-52.0714303573
 20
-13.9830169411
 10
-52.036828358
 20
-14.0095721236
 10
-52.0000434454
 20
-14.0330099943
 10
-51.9613555532
 20
-14.0531521506
 10
-51.9210590742
 20
-14.0698453451
 10
-51.8794609085
 20
-14.0829624775
 10
-51.8368777039
 20
-14.0924037514
 10
-51.7936334184
 20
-14.0980973637
 10
-51.7500571132
 20
-14.1
  0
LINE
  5
246
100
AcDbEntity
  8
RACCORDO
100
AcDbLine
 62
253
  6
CONTINUOUS
 10
-52.1943301401
 20
12.8443516617
 11
-52.1938763134
 21
12.8221364649
  0
LWPOLYLINE
  5
247
100
AcDbEntity
  8
RACCORDO
100
AcDbPolyline
 62
253
  6
CONTINUOUS
 90
7
 70
0
 10
-52.189007998
 20
13.3108890719
 10
-52.1907330609
 20
13.3651435926
 10
-52.1924815121
 20
13.4104560941
 10
-52.1942418739
 20
13.4465422401
 10
-52.1960103206
 20
13.4733072518
 10
-52.1977906778
 20
13.490845908
 10
-52.1995829457
 20
13.4991582086
  0
LINE
  5
248
100
AcDbEntity
  8
RACCORDO
100
AcDbLine
 62
7
  6
CONTINUOUS
 10
-52.1938763134
 20
12.8221364649
 11
-52.1922422806
 21
12.7718068613
  0
LINE
  5
249
100
AcDbEntity
  8
RACCORDO
100
AcDbLine
 62
253
  6
CONTINUOUS
 10
-52.1923642264
 20
12.7840159309
 11
-52.1922422806
 21
12.7718068613
  0
LINE
  5
24A
100
AcDbEntity
  8
RACCORDO
100
AcDbLine
 62
7
  6
CONTINUOUS
 10
-52.1922422806
 20
12.7718068613
 11
-52.1901676246
 21
12.6971174091
  0
LINE
  5
24B
100
AcDbEntity
  8
RACCORDO
100
AcDbLine
 62
253
  6
CONTINUOUS
 10
-52.1904224128
 20
12.714184061
 11
-52.1901676246
 21
12.6971174091
  0
LINE
  5
24C
100
AcDbEntity
  8
RACCORDO
100
AcDbLine
 62
253
  6
CONTINUOUS
 10
-52.1856283332
 20
13.1754141837
 11
-52.189007998
 21
13.3108890719
  0
LINE
  5
24D
100
AcDbEntity
  8
RACCORDO
100
AcDbLine
 62
7
  6
CONTINUOUS
 10
-52.1901676246
 20
12.6971174091
 11
-52.1872515663
 21
12.5710203062
  0
LINE
  5
24E
100
AcDbEntity
  8
RACCORDO
100
AcDbLine
 62
253
  6
CONTINUOUS
 10
-52.1872484408
 20
12.5770125231
 11
-52.1872515663
 21
12.5710203062
  0
LINE
  5
24F
100
AcDbEntity
  8
RACCORDO
100
AcDbLine
 62
253
  6
CONTINUOUS
 10
-52.1868768532
 20
12.5529591651
 11
-52.186623909
 21
12.5464957884
  0
LINE
  5
250
100
AcDbEntity
  8
RACCORDO
100
AcDbLine
 62
7
  6
CONTINUOUS
 10
-52.1872515663
 20
12.5710203062
 11
-52.1830311627
 21
12.3414991601
  0
LINE
  5
251
100
AcDbEntity
  8
RACCORDO
100
AcDbLine
 62
253
  6
CONTINUOUS
 10
-52.1808077976
 20
12.9084301693
 11
-52.1856283332
 21
13.1754141837
  0
LINE
  5
252
100
AcDbEntity
  8
RACCORDO
100
AcDbLine
 62
7
  6
CONTINUOUS
 10
-52.1830311627
 20
12.3414991601
 11
-52.1754691893
 21
11.7809844738
  0
LINE
  5
253
100
AcDbEntity
  8
RACCORDO
100
AcDbLine
 62
7
  6
CONTINUOUS
 10
-52.1754691893
 20
11.7809844738
 11
-52.1605911823
 21
10.3339108794
  0
LINE
  5
254
100
AcDbEntity
  8
RACCORDO
100
AcDbLine
 62
253
  6
CONTINUOUS
 10
-52.1620079294
 20
10.4965530376
 11
-52.1605911823
 21
10.3339108794
  0
LINE
  5
255
100
AcDbEntity
  8
RACCORDO
100
AcDbLine
 62
253
  6
CONTINUOUS
 10
-52.1479253567
 20
9.6340097498
 11
-52.1808077976
 21
12.9084301693
  0
LINE
  5
256
100
AcDbEntity
  8
RACCORDO
100
AcDbLine
 62
7
  6
CONTINUOUS
 10
-52.1605911823
 20
10.3339108794
 11
-52.1478112519
 21
8.6403919857
  0
LINE
  5
257
100
AcDbEntity
  8
RACCORDO
100
AcDbLine
 62
7
  6
CONTINUOUS
 10
-52.1478112519
 20
8.6403919857
 11
-52.1374467633
 21
6.7412247534
  0
LINE
  5
258
100
AcDbEntity
  8
RACCORDO
100
AcDbLine
 62
253
  6
CONTINUOUS
 10
-52.1383951305
 20
6.9502014732
 11
-52.1374467633
 21
6.7412247534
  0
LINE
  5
259
100
AcDbEntity
  8
RACCORDO
100
AcDbLine
 62
253
  6
CONTINUOUS
 10
-52.17887715
 20
12.0541363537
 11
-52.1788998452
 21
12.0605963717
  0
LINE
  5
25A
100
AcDbEntity
  8
RACCORDO
100
AcDbLine
 62
253
  6
CONTINUOUS
 10
-52.1267489653
 20
5.4937839471
 11
-52.1479253567
 21
9.6340097498
  0
LINE
  5
25B
100
AcDbEntity
  8
RACCORDO
100
AcDbLine
 62
7
  6
CONTINUOUS
 10
-52.1374467633
 20
6.7412247534
 11
-52.1297495908
 21
4.6822056975
  0
LINE
  5
25C
100
AcDbEntity
  8
RACCORDO
100
AcDbLine
 62
7
  6
CONTINUOUS
 10
-52.1297495908
 20
4.6822056975
 11
-52.1249022154
 21
2.5125305257
  0
LINE
  5
25D
100
AcDbEntity
  8
RACCORDO
100
AcDbLine
 62
7
  6
CONTINUOUS
 10
-52.1249022154
 20
2.5125305257
 11
-52.1230189981
 21
0.2834675084
  0
LINE
  5
25E
100
AcDbEntity
  8
RACCORDO
100
AcDbLine
 62
253
  6
CONTINUOUS
 10
-52.1177708788
 20
0.2677288097
 11
-52.1267489653
 21
5.4937839471
  0
LINE
  5
25F
100
AcDbEntity
  8
RACCORDO
100
AcDbLine
 62
7
  6
CONTINUOUS
 10
-52.25
 20
13.5999999971
 11
-52.25
 21
13.0033761064
  0
LINE
  5
260
100
AcDbEntity
  8
RACCORDO
100
AcDbLine
 62
7
  6
CONTINUOUS
 10
-52.25
 20
-13.0033761064
 11
-52.25
 21
-13.5999999971
  0
LINE
  5
261
100
AcDbEntity
  8
RACCORDO
100
AcDbLine
 62
7
  6
CONTINUOUS
 10
-52.1230189981
 20
0.2834675084
 11
-52.1241434016
 21
-1.9526692918
  0
LINE
  5
262
100
AcDbEntity
  8
RACCORDO
100
AcDbLine
 62
7
  6
CONTINUOUS
 10
-52.1241434016
 20
-1.9526692918
 11
-52.1282514243
 21
-4.1430094768
  0
LINE
  5
263
100
AcDbEntity
  8
RACCORDO
100
AcDbLine
 62
253
  6
CONTINUOUS
 10
-52.1282242019
 20
-4.140316508
 11
-52.1282514243
 21
-4.1430094768
  0
LINE
  5
264
100
AcDbEntity
  8
RACCORDO
100
AcDbLine
 62
253
  6
CONTINUOUS
 10
-52.1267501165
 20
-5.4941222141
 11
-52.1177708788
 21
0.2677288097
  0
LINE
  5
265
100
AcDbEntity
  8
RACCORDO
100
AcDbLine
 62
7
  6
CONTINUOUS
 10
-52.1282514243
 20
-4.1430094768
 11
-52.1352465428
 21
-6.2353217858
  0
LINE
  5
266
100
AcDbEntity
  8
RACCORDO
100
AcDbLine
 62
253
  6
CONTINUOUS
 10
-52.1788772735
 20
-12.0541356451
 11
-52.1789048259
 21
-12.0594602631
  0
LINE
  5
267
100
AcDbEntity
  8
RACCORDO
100
AcDbLine
 62
7
  6
CONTINUOUS
 10
-52.1352465428
 20
-6.2353217858
 11
-52.144960037
 21
-8.179359187
  0
LINE
  5
268
100
AcDbEntity
  8
RACCORDO
100
AcDbLine
 62
253
  6
CONTINUOUS
 10
-52.1448884312
 20
-8.1718261052
 11
-52.144960037
 21
-8.179359187
  0
LINE
  5
269
100
AcDbEntity
  8
RACCORDO
100
AcDbLine
 62
253
  6
CONTINUOUS
 10
-52.150963643
 20
-10.0415383289
 11
-52.1267501165
 21
-5.4941222141
  0
LINE
  5
26A
100
AcDbEntity
  8
RACCORDO
100
AcDbLine
 62
7
  6
CONTINUOUS
 10
-52.144960037
 20
-8.179359187
 11
-52.1571554656
 21
-9.9283826214
  0
LINE
  5
26B
100
AcDbEntity
  8
RACCORDO
100
AcDbLine
 62
253
  6
CONTINUOUS
 10
-52.1556031187
 20
-9.7389468263
 11
-52.1571554656
 21
-9.9283826214
  0
LINE
  5
26C
100
AcDbEntity
  8
RACCORDO
100
AcDbLine
 62
7
  6
CONTINUOUS
 10
-52.1571554656
 20
-9.9283826214
 11
-52.1715300289
 21
-11.4405077593
  0
LINE
  5
26D
100
AcDbEntity
  8
RACCORDO
100
AcDbLine
 62
253
  6
CONTINUOUS
 10
-52.1808084641
 20
-12.9084686373
 11
-52.150963643
 21
-10.0415383289
  0
LINE
  5
26E
100
AcDbEntity
  8
RACCORDO
100
AcDbLine
 62
7
  6
CONTINUOUS
 10
-52.1715300289
 20
-11.4405077593
 11
-52.182798783
 21
-12.3271234842
  0
LINE
  5
26F
100
AcDbEntity
  8
RACCORDO
100
AcDbLine
 62
7
  6
CONTINUOUS
 10
-52.182798783
 20
-12.3271234842
 11
-52.1870052515
 21
-12.5591970876
  0
LINE
  5
270
100
AcDbEntity
  8
RACCORDO
100
AcDbLine
 62
253
  6
CONTINUOUS
 10
-52.1856301399
 20
-13.17549904
 11
-52.1808084641
 21
-12.9084686373
  0
LINE
  5
271
100
AcDbEntity
  8
RACCORDO
100
AcDbLine
 62
253
  6
CONTINUOUS
 10
-52.1895634757
 20
-12.6730540546
 11
-52.1897803488
 21
-12.6887874556
  0
LINE
  5
272
100
AcDbEntity
  8
RACCORDO
100
AcDbLine
 62
7
  6
CONTINUOUS
 10
-52.1870052515
 20
-12.5591970876
 11
-52.1898797424
 21
-12.6857829064
  0
LINE
  5
273
100
AcDbEntity
  8
RACCORDO
100
AcDbLine
 62
253
  6
CONTINUOUS
 10
-52.1920614553
 20
-12.7657803678
 11
-52.1923634786
 21
-12.783991129
  0
LINE
  5
274
100
AcDbEntity
  8
RACCORDO
100
AcDbLine
 62
7
  6
CONTINUOUS
 10
-52.1898797424
 20
-12.6857829064
 11
-52.1920614553
 21
-12.7657803678
  0
LINE
  5
275
100
AcDbEntity
  8
RACCORDO
100
AcDbLine
 62
7
  6
CONTINUOUS
 10
-52.1920614553
 20
-12.7657803678
 11
-52.1938699887
 21
-12.821956013
  0
LINE
  5
276
100
AcDbEntity
  8
RACCORDO
100
AcDbLine
 62
253
  6
CONTINUOUS
 10
-52.1938699887
 20
-12.821956013
 11
-52.194329562
 21
-12.8443354339
  0
LWPOLYLINE
  5
277
100
AcDbEntity
  8
RACCORDO
100
AcDbPolyline
 62
7
  6
CONTINUOUS
 90
19
 70
0
 10
-52.25
 20
13.5999999971
 10
-52.2480981684
 20
13.6435750005
 10
-52.2424067521
 20
13.6868186415
 10
-52.2329688641
 20
13.729402001
 10
-52.2198561395
 20
13.7710012714
 10
-52.2031681344
 20
13.8112998332
 10
-52.1830316196
 20
13.8499906833
 10
-52.1595996391
 20
13.886779421
 10
-52.133050391
 20
13.9213860568
 10
-52.1035859203
 20
13.9535468238
 10
-52.0714303573
 20
13.9830169411
 10
-52.036828358
 20
14.0095721236
 10
-52.0000434454
 20
14.0330099943
 10
-51.9613555532
 20
14.0531521506
 10
-51.9210590742
 20
14.0698453451
 10
-51.8794609085
 20
14.0829624775
 10
-51.8368777039
 20
14.0924037514
 10
-51.7936334184
 20
14.0980973637
 10
-51.7500571132
 20
14.1
  0
LWPOLYLINE
  5
278
100
AcDbEntity
  8
RACCORDO
100
AcDbPolyline
 62
253
  6
CONTINUOUS
 90
19
 70
0
 10
-52.1995829457
 20
13.4991582086
 10
-52.1976740999
 20
13.5427252296
 10
-52.1919753591
 20
13.5859607435
 10
-52.1825300858
 20
13.6285357657
 10
-52.1694101502
 20
13.6701263373
 10
-52.1527153837
 20
13.7104159904
 10
-52.1325728189
 20
13.7490981558
 10
-52.1091357231
 20
13.7858784959
 10
-52.0825824322
 20
13.8204771444
 10
-52.0531149937
 20
13.8526308356
 10
-52.0209576291
 20
13.8820949079
 10
-51.986355028
 20
13.9086451655
 10
-51.9495704859
 20
13.9320795841
 10
-51.9108839012
 20
13.952219848
 10
-51.8705896452
 20
13.9689127074
 10
-51.828994322
 20
13.9820311443
 10
-51.7864144358
 20
13.9914753386
 10
-51.7431739825
 20
13.9971734284
 10
-51.6996019842
 20
13.9990820562
  0
LINE
  5
279
100
AcDbEntity
  8
RACCORDO
100
AcDbLine
 62
253
  6
CONTINUOUS
 10
-52.1792710197
 20
12.802594389
 11
-52.1771766458
 21
12.8393111771
  0
LWPOLYLINE
  5
27A
100
AcDbEntity
  8
RACCORDO
100
AcDbPolyline
 62
253
  6
CONTINUOUS
 90
18
 70
0
 10
-52.1771766458
 20
12.8393111771
 10
-52.1713155591
 20
12.8757501603
 10
-52.1617321013
 20
12.911635663
 10
-52.1484987749
 20
12.9466961969
 10
-52.1317156955
 20
12.9806665149
 10
-52.1115098338
 20
13.0132896179
 10
-52.0880340553
 20
13.0443186989
 10
-52.0614659637
 20
13.0735190104
 10
-52.0320065574
 20
13.1006696402
 10
-51.9998787087
 20
13.125565183
 10
-51.9653254777
 20
13.1480172939
 10
-51.9286082734
 20
13.1678561136
 10
-51.8900048765
 20
13.1849315534
 10
-51.8498073371
 20
13.1991144307
 10
-51.8083197659
 20
13.2102974464
 10
-51.7658560331
 20
13.2183959964
 10
-51.7227373939
 20
13.223348812
 10
-51.6792900582
 20
13.2251184231
  0
LWPOLYLINE
  5
27B
100
AcDbEntity
  8
RACCORDO
100
AcDbPolyline
 62
253
  6
CONTINUOUS
 90
18
 70
0
 10
-52.1771768448
 20
-12.8393113109
 10
-52.1713159324
 20
-12.8757504406
 10
-52.1617326227
 20
-12.9116360999
 10
-52.148499418
 20
-12.9466967976
 10
-52.1317164334
 20
-12.9806672836
 10
-52.1115106396
 20
-13.0132905561
 10
-52.0880349027
 20
-13.0443198051
 10
-52.061466827
 20
-13.0735202806
 10
-52.0320074122
 20
-13.1006710677
 10
-51.9998795319
 20
-13.1255667585
 10
-51.9653262479
 20
-13.148019006
 10
-51.9286089715
 20
-13.1678579487
 10
-51.8900054854
 20
-13.1849334962
 10
-51.8498078423
 20
-13.1991164642
 10
-51.8083201554
 20
-13.2102995522
 10
-51.7658562979
 20
-13.218398155
 10
-51.7227375278
 20
-13.2233510033
 10
-51.6792900582
 20
-13.2251206263
  0
LWPOLYLINE
  5
27C
100
AcDbEntity
  8
RACCORDO
100
AcDbPolyline
 62
7
  6
CONTINUOUS
 90
5
 70
0
 10
-52.1991110647
 20
12.9318873387
 10
-52.1991479591
 20
12.9322592984
 10
-52.1991335316
 20
12.9321010632
 10
-52.1990721522
 20
12.9313932186
 10
-52.1989789325
 20
12.9302556179
  0
LINE
  5
27D
100
AcDbEntity
  8
RACCORDO
100
AcDbLine
 62
7
  6
CONTINUOUS
 10
-52.1988580778
 20
12.9286996747
 11
-52.1985455183
 21
12.9243463195
  0
LINE
  5
27E
100
AcDbEntity
  8
RACCORDO
100
AcDbLine
 62
7
  6
CONTINUOUS
 10
-52.1985455183
 20
12.9243463195
 11
-52.1981675621
 21
12.9185570542
  0
LINE
  5
27F
100
AcDbEntity
  8
RACCORDO
100
AcDbLine
 62
7
  6
CONTINUOUS
 10
-52.1981675621
 20
12.9185570542
 11
-52.19773944
 21
12.9113939305
  0
LINE
  5
280
100
AcDbEntity
  8
RACCORDO
100
AcDbLine
 62
7
  6
CONTINUOUS
 10
-52.19773944
 20
12.9113939305
 11
-52.1970240937
 21
12.8981211007
  0
LINE
  5
281
100
AcDbEntity
  8
RACCORDO
100
AcDbLine
 62
253
  6
CONTINUOUS
 10
-52.198319582
 20
12.9361065384
 11
-52.1969825047
 21
12.9098366381
  0
LINE
  5
282
100
AcDbEntity
  8
RACCORDO
100
AcDbLine
 62
7
  6
CONTINUOUS
 10
-52.1970240937
 20
12.8981211007
 11
-52.1962392765
 21
12.8818006978
  0
LWPOLYLINE
  5
283
100
AcDbEntity
  8
RACCORDO
100
AcDbPolyline
 62
7
  6
CONTINUOUS
 90
5
 70
0
 10
-52.25
 20
13.0033761064
 10
-52.2481393261
 20
12.960281651
 10
-52.2425711725
 20
12.9175078634
 10
-52.2333369623
 20
12.8753730847
 10
-52.2205053875
 20
12.83419089
  0
LINE
  5
284
100
AcDbEntity
  8
RACCORDO
100
AcDbLine
 62
253
  6
CONTINUOUS
 10
-52.1969825047
 20
12.9098366381
 11
-52.1962392765
 21
12.8818006978
  0
LINE
  5
285
100
AcDbEntity
  8
RACCORDO
100
AcDbLine
 62
7
  6
CONTINUOUS
 10
-52.1962392765
 20
12.8818006978
 11
-52.1951025047
 21
12.8550421993
  0
LINE
  5
286
100
AcDbEntity
  8
RACCORDO
100
AcDbLine
 62
253
  6
CONTINUOUS
 10
-52.1956523424
 20
12.8792442316
 11
-52.1951025047
 21
12.8550421993
  0
LINE
  5
287
100
AcDbEntity
  8
RACCORDO
100
AcDbLine
 62
7
  6
CONTINUOUS
 10
-52.1951025047
 20
12.8550421993
 11
-52.1938763134
 21
12.8221364649
  0
LWPOLYLINE
  5
288
100
AcDbEntity
  8
RACCORDO
100
AcDbPolyline
 62
253
  6
CONTINUOUS
 90
7
 70
0
 10
-51.6890279882
 20
13.7899304821
 10
-51.6907518287
 20
13.8502443067
 10
-51.6924990008
 20
13.9004939149
 10
-51.6942586843
 20
13.9405753249
 10
-51.6960272728
 20
13.9704051296
 10
-51.6978083727
 20
13.9899209782
 10
-51.6996019842
 20
13.9990820562
  0
LINE
  5
289
100
AcDbEntity
  8
RACCORDO
100
AcDbLine
 62
253
  6
CONTINUOUS
 10
-51.6856505886
 20
13.6396315412
 11
-51.6890279882
 21
13.7899304821
  0
LINE
  5
28A
100
AcDbEntity
  8
RACCORDO
100
AcDbLine
 62
253
  6
CONTINUOUS
 10
-51.6808287426
 20
13.342487676
 11
-51.6856505886
 21
13.6396315412
  0
LINE
  5
28B
100
AcDbEntity
  8
RACCORDO
100
AcDbLine
 62
253
  6
CONTINUOUS
 10
-51.6574232581
 20
11.1752584188
 11
-51.6808287426
 21
13.342487676
  0
LINE
  5
28C
100
AcDbEntity
  8
RACCORDO
100
AcDbLine
 62
253
  6
CONTINUOUS
 10
-51.6347516871
 20
7.6734737265
 11
-51.6574232581
 21
11.1752584188
  0
LINE
  5
28D
100
AcDbEntity
  8
RACCORDO
100
AcDbLine
 62
253
  6
CONTINUOUS
 10
-51.6194373691
 20
2.4783908636
 11
-51.6347516871
 21
7.6734737265
  0
LINE
  5
28E
100
AcDbEntity
  8
RACCORDO
100
AcDbLine
 62
253
  6
CONTINUOUS
 10
-51.6212435145
 20
-3.5638925289
 11
-51.6194373691
 21
2.4783908636
  0
LINE
  5
28F
100
AcDbEntity
  8
RACCORDO
100
AcDbLine
 62
253
  6
CONTINUOUS
 10
-51.6396194683
 20
-8.6177920601
 11
-51.6212435145
 21
-3.5638925289
  0
LINE
  5
290
100
AcDbEntity
  8
RACCORDO
100
AcDbLine
 62
253
  6
CONTINUOUS
 10
-51.6643218838
 20
-11.9209191036
 11
-51.6396194683
 21
-8.6177920601
  0
LINE
  5
291
100
AcDbEntity
  8
RACCORDO
100
AcDbLine
 62
253
  6
CONTINUOUS
 10
-51.6824011582
 20
-13.450841295
 11
-51.6643218838
 21
-11.9209191036
  0
LINE
  5
292
100
AcDbEntity
  8
RACCORDO
100
AcDbLine
 62
253
  6
CONTINUOUS
 10
-51.6856506025
 20
-13.6396319972
 11
-51.6824011582
 21
-13.450841295
  0
LINE
  5
293
100
AcDbEntity
  8
RACCORDO
100
AcDbLine
 62
7
  6
CONTINUOUS
 10
-52.1938699887
 20
-12.821956013
 11
-52.195029875
 21
-12.853209549
  0
LINE
  5
294
100
AcDbEntity
  8
RACCORDO
100
AcDbLine
 62
253
  6
CONTINUOUS
 10
-52.1953123325
 20
-12.8602544792
 11
-52.1956519628
 21
-12.8792349321
  0
LWPOLYLINE
  5
295
100
AcDbEntity
  8
RACCORDO
100
AcDbPolyline
 62
7
  6
CONTINUOUS
 90
5
 70
0
 10
-52.25
 20
-13.0033761064
 10
-52.2481393261
 20
-12.960281651
 10
-52.2425711725
 20
-12.9175078634
 10
-52.2333369623
 20
-12.8753730847
 10
-52.2205053875
 20
-12.83419089
  0
LINE
  5
296
100
AcDbEntity
  8
RACCORDO
100
AcDbLine
 62
7
  6
CONTINUOUS
 10
-52.195029875
 20
-12.853209549
 11
-52.1961376439
 21
-12.8795570766
  0
LINE
  5
297
100
AcDbEntity
  8
RACCORDO
100
AcDbLine
 62
253
  6
CONTINUOUS
 10
-52.1964040794
 20
-12.8853761227
 11
-52.1969823408
 21
-12.9098331423
  0
LINE
  5
298
100
AcDbEntity
  8
RACCORDO
100
AcDbLine
 62
7
  6
CONTINUOUS
 10
-52.1961376439
 20
-12.8795570766
 11
-52.1969213351
 21
-12.8960869071
  0
LWPOLYLINE
  5
299
100
AcDbEntity
  8
RACCORDO
100
AcDbPolyline
 62
253
  6
CONTINUOUS
 90
13
 70
0
 10
-52.1969823408
 20
-12.9098331423
 10
-52.1983196015
 20
-12.9361069629
 10
-52.1989906725
 20
-12.9476190862
 10
-52.1996630093
 20
-12.9580415509
 10
-52.2003366432
 20
-12.9673741062
 10
-52.201011543
 20
-12.9756170029
 10
-52.2016872529
 20
-12.9827643523
 10
-52.2023638057
 20
-12.9888151699
 10
-52.2030411686
 20
-12.9937704403
 10
-52.2037187881
 20
-12.9976272285
 10
-52.2043964797
 20
-13.0003845564
 10
-52.2050744279
 20
-13.0020434021
 10
-52.2057526327
 20
-13.0026037657
  0
LINE
  5
29A
100
AcDbEntity
  8
RACCORDO
100
AcDbLine
 62
7
  6
CONTINUOUS
 10
-52.1969213351
 20
-12.8960869071
 11
-52.1976480749
 21
-12.9097873973
  0
LINE
  5
29B
100
AcDbEntity
  8
RACCORDO
100
AcDbLine
 62
7
  6
CONTINUOUS
 10
-52.1976480749
 20
-12.9097873973
 11
-52.1980895561
 21
-12.9172979867
  0
LINE
  5
29C
100
AcDbEntity
  8
RACCORDO
100
AcDbLine
 62
7
  6
CONTINUOUS
 10
-52.1980895561
 20
-12.9172979867
 11
-52.1984819354
 21
-12.9234101722
  0
LWPOLYLINE
  5
29D
100
AcDbEntity
  8
RACCORDO
100
AcDbPolyline
 62
7
  6
CONTINUOUS
 90
3
 70
0
 10
-52.1984819354
 20
-12.9234101722
 10
-52.1988093156
 20
-12.9280499376
 10
-52.1989465
 20
-12.9298462578
  0
LWPOLYLINE
  5
29E
100
AcDbEntity
  8
RACCORDO
100
AcDbPolyline
 62
253
  6
CONTINUOUS
 90
8
 70
0
 10
-51.6996019842
 20
-13.9990820562
 10
-51.697808378
 20
-13.989921004
 10
-51.6960272822
 20
-13.970405211
 10
-51.6942586966
 20
-13.9405754818
 10
-51.6924990145
 20
-13.9004941585
 10
-51.6907518426
 20
-13.8502446379
 10
-51.689028002
 20
-13.7899308872
 10
-51.6856506025
 20
-13.6396319972
  0
LWPOLYLINE
  5
29F
100
AcDbEntity
  8
RACCORDO
100
AcDbPolyline
 62
253
  6
CONTINUOUS
 90
8
 70
0
 10
-52.1995829457
 20
-13.4991582086
 10
-52.1977914192
 20
-13.4908557184
 10
-52.1960116345
 20
-13.4733273315
 10
-52.1942435918
 20
-13.4465730479
 10
-52.1924834286
 20
-13.4104989193
 10
-52.1907350074
 20
-13.365198894
 10
-52.1890099151
 20
-13.310954817
 10
-52.1856301399
 20
-13.17549904
  0
LWPOLYLINE
  5
2A0
100
AcDbEntity
  8
RACCORDO
100
AcDbPolyline
 62
253
  6
CONTINUOUS
 90
4
 70
0
 10
-52.1979542099
 20
-12.9150456759
 10
-52.198324347
 20
-12.9167346947
 10
-52.2038921282
 20
-12.9595088623
 10
-52.2057526327
 20
-13.0026037657
  0
LWPOLYLINE
  5
2A1
100
AcDbEntity
  8
RACCORDO
100
AcDbPolyline
 62
253
  6
CONTINUOUS
 90
4
 70
0
 10
-52.1979528856
 20
12.9150396325
 10
-52.1983243471
 20
12.9167346951
 10
-52.2038921282
 20
12.9595088626
 10
-52.2057526327
 20
13.0026037657
  0
LINE
  5
2A2
100
AcDbEntity
  8
RACCORDO
100
AcDbLine
 62
7
  6
CONTINUOUS
 10
-45.55
 20
-14.1
 11
-45.55
 21
14.1
  0
LWPOLYLINE
  5
2A3
100
AcDbEntity
  8
RACCORDO
100
AcDbPolyline
 62
253
  6
CONTINUOUS
 90
11
 70
0
 10
-41.1220570699
 20
19.355874881
 10
-41.1238921378
 20
19.3495523537
 10
-41.1256984276
 20
19.3391571081
 10
-41.1274759393
 20
19.3246891443
 10
-41.1292232791
 20
19.306001784
 10
-41.1309418407
 20
19.2832417054
 10
-41.1326358055
 20
19.2568489431
 10
-41.1343051871
 20
19.2268789335
 10
-41.1359499719
 20
19.1932762403
 10
-41.1375742994
 20
19.1563145892
 10
-41.1407615894
 20
19.0724164125
  0
LWPOLYLINE
  5
2A4
100
AcDbEntity
  8
RACCORDO
100
AcDbPolyline
 62
253
  6
CONTINUOUS
 90
10
 70
0
 10
-41.6220380314
 20
19.8557987286
 10
-41.6238736162
 20
19.8494862142
 10
-41.6256802726
 20
19.8384701958
 10
-41.6274580006
 20
19.8229604599
 10
-41.6292053552
 20
19.8031912877
 10
-41.6309237815
 20
19.7793541537
 10
-41.6326176144
 20
19.7515460472
 10
-41.6342869192
 20
19.719922025
 10
-41.6359316305
 20
19.6846415105
 10
-41.6391596918
 20
19.6032706828
  0
LINE
  5
2A5
100
AcDbEntity
  8
RACCORDO
100
AcDbLine
 62
253
  6
CONTINUOUS
 10
-41.5499428868
 20
20.0
 11
-41.6220380314
 21
19.8557987286
  0
LINE
  5
2A6
100
AcDbEntity
  8
RACCORDO
100
AcDbLine
 62
253
  6
CONTINUOUS
 10
-41.05
 20
19.4999999971
 11
-41.1220570699
 21
19.355874881
  0
LINE
  5
2A7
100
AcDbEntity
  8
RACCORDO
100
AcDbLine
 62
253
  6
CONTINUOUS
 10
-41.6220380314
 20
-19.8557987286
 11
-41.5499428868
 21
-20.0
  0
LINE
  5
2A8
100
AcDbEntity
  8
RACCORDO
100
AcDbLine
 62
253
  6
CONTINUOUS
 10
-41.1220570699
 20
-19.355874881
 11
-41.05
 21
-19.4999999971
  0
LWPOLYLINE
  5
2A9
100
AcDbEntity
  8
RACCORDO
100
AcDbPolyline
 62
253
  6
CONTINUOUS
 90
19
 70
0
 10
-42.9268066956
 20
-17.201992905
 10
-42.9246770744
 20
-17.2355660298
 10
-42.9187851504
 20
-17.2688854345
 10
-42.9091754493
 20
-17.3016993215
 10
-42.8959205925
 20
-17.3337597138
 10
-42.8791207479
 20
-17.3648243284
 10
-42.8589028734
 20
-17.3946584073
 10
-42.8354197571
 20
-17.4230364922
 10
-42.8088488628
 20
-17.4497441275
 10
-42.7793909888
 20
-17.4745794814
 10
-42.7472687507
 20
-17.4973548712
 10
-42.7127248989
 20
-17.5178981815
 10
-42.6760204841
 20
-17.5360541646
 10
-42.6374328844
 20
-17.5516856146
 10
-42.5972537094
 20
-17.5646744031
 10
-42.5557865965
 20
-17.5749223728
 10
-42.513344916
 20
-17.5823520791
 10
-42.4702494031
 20
-17.5869073751
 10
-42.4268257341
 20
-17.588553836
  0
LWPOLYLINE
  5
2AA
100
AcDbEntity
  8
RACCORDO
100
AcDbPolyline
 62
253
  6
CONTINUOUS
 90
9
 70
0
 10
-41.135949972
 20
-19.1932762382
 10
-41.1343051872
 20
-19.2268789311
 10
-41.1326358056
 20
-19.2568489408
 10
-41.1309418408
 20
-19.2832417039
 10
-41.1292232792
 20
-19.3060017837
 10
-41.1274759394
 20
-19.3246891449
 10
-41.1256984277
 20
-19.3391571089
 10
-41.1238921379
 20
-19.3495523543
 10
-41.1220570699
 20
-19.355874881
  0
LWPOLYLINE
  5
2AB
100
AcDbEntity
  8
RACCORDO
100
AcDbPolyline
 62
253
  6
CONTINUOUS
 90
9
 70
0
 10
-42.964050028
 20
19.1932762382
 10
-42.9656948128
 20
19.2268789311
 10
-42.9673641944
 20
19.2568489408
 10
-42.9690581592
 20
19.2832417039
 10
-42.9707767208
 20
19.3060017837
 10
-42.9725240606
 20
19.3246891449
 10
-42.9743015723
 20
19.3391571089
 10
-42.9761078621
 20
19.3495523543
 10
-42.9779429301
 20
19.355874881
  0
LWPOLYLINE
  5
2AC
100
AcDbEntity
  8
RACCORDO
100
AcDbPolyline
 62
253
  6
CONTINUOUS
 90
9
 70
0
 10
-41.6359316306
 20
-19.6846415084
 10
-41.6342869192
 20
-19.7199220231
 10
-41.6326176144
 20
-19.7515460455
 10
-41.6309237816
 20
-19.7793541524
 10
-41.6292053553
 20
-19.8031912867
 10
-41.6274580006
 20
-19.8229604592
 10
-41.6256802726
 20
-19.8384701955
 10
-41.6238736162
 20
-19.849486214
 10
-41.6220380314
 20
-19.8557987286
  0
LWPOLYLINE
  5
2AD
100
AcDbEntity
  8
RACCORDO
100
AcDbPolyline
 62
253
  6
CONTINUOUS
 90
9
 70
0
 10
-42.4640683694
 20
19.6846415084
 10
-42.4657130808
 20
19.7199220231
 10
-42.4673823856
 20
19.7515460455
 10
-42.4690762184
 20
19.7793541524
 10
-42.4707946447
 20
19.8031912867
 10
-42.4725419994
 20
19.8229604592
 10
-42.4743197274
 20
19.8384701955
 10
-42.4761263838
 20
19.849486214
 10
-42.4779619686
 20
19.8557987286
  0
LWPOLYLINE
  5
2AE
100
AcDbEntity
  8
RACCORDO
100
AcDbPolyline
 62
253
  6
CONTINUOUS
 90
19
 70
0
 10
-42.9779429301
 20
-19.355874881
 10
-42.9760340863
 20
-19.3994418789
 10
-42.970335351
 20
-19.4426773735
 10
-42.9608900857
 20
-19.4852523804
 10
-42.9477701596
 20
-19.5268429411
 10
-42.9310754033
 20
-19.5671325874
 10
-42.9109328485
 20
-19.6058147499
 10
-42.8874957617
 20
-19.6425950909
 10
-42.8609424782
 20
-19.6771937434
 10
-42.831475045
 20
-19.7093474411
 10
-42.799317683
 20
-19.738811522
 10
-42.7647150815
 20
-19.7653617895
 10
-42.7279305365
 20
-19.7887962182
 10
-42.689243946
 20
-19.8089364922
 10
-42.6489496812
 20
-19.825629361
 10
-42.6073543473
 20
-19.8387478057
 10
-42.5647744489
 20
-19.848192006
 10
-42.5215339819
 20
-19.8538900995
 10
-42.4779619686
 20
-19.8557987286
  0
LWPOLYLINE
  5
2AF
100
AcDbEntity
  8
RACCORDO
100
AcDbPolyline
 62
7
  6
CONTINUOUS
 90
19
 70
0
 10
-43.05
 20
-19.4999999971
 10
-43.0480981684
 20
-19.5435750005
 10
-43.0424067521
 20
-19.5868186415
 10
-43.0329688641
 20
-19.629402001
 10
-43.0198561395
 20
-19.6710012714
 10
-43.0031681344
 20
-19.7112998332
 10
-42.9830316196
 20
-19.7499906833
 10
-42.9595996391
 20
-19.786779421
 10
-42.933050391
 20
-19.8213860568
 10
-42.9035859203
 20
-19.8535468238
 10
-42.8714303573
 20
-19.8830169411
 10
-42.836828358
 20
-19.9095721236
 10
-42.8000434454
 20
-19.9330099943
 10
-42.7613555532
 20
-19.9531521506
 10
-42.7210590742
 20
-19.9698453451
 10
-42.6794609085
 20
-19.9829624775
 10
-42.6368777039
 20
-19.9924037514
 10
-42.5936334184
 20
-19.9980973637
 10
-42.5500571132
 20
-20.0
  0
LINE
  5
2B0
100
AcDbEntity
  8
RACCORDO
100
AcDbLine
 62
253
  6
CONTINUOUS
 10
-42.9608218269
 20
19.1160449779
 11
-42.964050028
 21
19.1932762382
  0
LINE
  5
2B1
100
AcDbEntity
  8
RACCORDO
100
AcDbLine
 62
253
  6
CONTINUOUS
 10
-41.1391781731
 20
-19.1160449779
 11
-41.135949972
 21
-19.1932762382
  0
LINE
  5
2B2
100
AcDbEntity
  8
RACCORDO
100
AcDbLine
 62
253
  6
CONTINUOUS
 10
-41.6391596919
 20
-19.6032706806
 11
-41.6359316306
 21
-19.6846415084
  0
LINE
  5
2B3
100
AcDbEntity
  8
RACCORDO
100
AcDbLine
 62
253
  6
CONTINUOUS
 10
-42.4608403081
 20
19.6032706806
 11
-42.4640683694
 21
19.6846415084
  0
LINE
  5
2B4
100
AcDbEntity
  8
RACCORDO
100
AcDbLine
 62
253
  6
CONTINUOUS
 10
-42.9576713224
 20
19.0255496122
 11
-42.9608218269
 21
19.1160449779
  0
LINE
  5
2B5
100
AcDbEntity
  8
RACCORDO
100
AcDbLine
 62
253
  6
CONTINUOUS
 10
-41.1423286776
 20
-19.0255496122
 11
-41.1391781731
 21
-19.1160449779
  0
LINE
  5
2B6
100
AcDbEntity
  8
RACCORDO
100
AcDbLine
 62
253
  6
CONTINUOUS
 10
-41.6423100653
 20
-19.5080739797
 11
-41.6391596919
 21
-19.6032706806
  0
LINE
  5
2B7
100
AcDbEntity
  8
RACCORDO
100
AcDbLine
 62
253
  6
CONTINUOUS
 10
-42.4576899347
 20
19.5080739797
 11
-42.4608403081
 21
19.6032706806
  0
LINE
  5
2B8
100
AcDbEntity
  8
RACCORDO
100
AcDbLine
 62
253
  6
CONTINUOUS
 10
-42.9530638981
 20
18.8656405577
 11
-42.9576713224
 21
19.0255496122
  0
LINE
  5
2B9
100
AcDbEntity
  8
RACCORDO
100
AcDbLine
 62
253
  6
CONTINUOUS
 10
-41.1469361019
 20
-18.8656405577
 11
-41.1423286776
 21
-19.0255496122
  0
LINE
  5
2BA
100
AcDbEntity
  8
RACCORDO
100
AcDbLine
 62
253
  6
CONTINUOUS
 10
-41.6469173038
 20
-19.339752891
 11
-41.6423100653
 21
-19.5080739797
  0
LINE
  5
2BB
100
AcDbEntity
  8
RACCORDO
100
AcDbLine
 62
253
  6
CONTINUOUS
 10
-42.4530826962
 20
19.339752891
 11
-42.4576899347
 21
19.5080739797
  0
LINE
  5
2BC
100
AcDbEntity
  8
RACCORDO
100
AcDbLine
 62
253
  6
CONTINUOUS
 10
-42.9470876296
 20
18.6065728771
 11
-42.9530638981
 21
18.8656405577
  0
LINE
  5
2BD
100
AcDbEntity
  8
RACCORDO
100
AcDbLine
 62
253
  6
CONTINUOUS
 10
-41.1529123704
 20
-18.6065728771
 11
-41.1469361019
 21
-18.8656405577
  0
LINE
  5
2BE
100
AcDbEntity
  8
RACCORDO
100
AcDbLine
 62
253
  6
CONTINUOUS
 10
-42.4471066688
 20
19.0670391183
 11
-42.4530826962
 21
19.339752891
  0
LINE
  5
2BF
100
AcDbEntity
  8
RACCORDO
100
AcDbLine
 62
253
  6
CONTINUOUS
 10
-41.6528933312
 20
-19.0670391183
 11
-41.6469173038
 21
-19.339752891
  0
LINE
  5
2C0
100
AcDbEntity
  8
RACCORDO
100
AcDbLine
 62
253
  6
CONTINUOUS
 10
-42.9397835547
 20
18.2031387341
 11
-42.9470876296
 21
18.6065728771
  0
LINE
  5
2C1
100
AcDbEntity
  8
RACCORDO
100
AcDbLine
 62
253
  6
CONTINUOUS
 10
-41.1602164453
 20
-18.2031387341
 11
-41.1529123704
 21
-18.6065728771
  0
LINE
  5
2C2
100
AcDbEntity
  8
RACCORDO
100
AcDbLine
 62
253
  6
CONTINUOUS
 10
-42.4383542259
 20
18.5451013022
 11
-42.4471066688
 21
19.0670391183
  0
LINE
  5
2C3
100
AcDbEntity
  8
RACCORDO
100
AcDbLine
 62
253
  6
CONTINUOUS
 10
-41.6616457741
 20
-18.5451013022
 11
-41.6528933312
 21
-19.0670391183
  0
LINE
  5
2C4
100
AcDbEntity
  8
RACCORDO
100
AcDbLine
 62
253
  6
CONTINUOUS
 10
-42.928244021
 20
17.3336619258
 11
-42.9397835547
 21
18.2031387341
  0
LINE
  5
2C5
100
AcDbEntity
  8
RACCORDO
100
AcDbLine
 62
253
  6
CONTINUOUS
 10
-41.171755979
 20
-17.3336619258
 11
-41.1602164453
 21
-18.2031387341
  0
LINE
  5
2C6
100
AcDbEntity
  8
RACCORDO
100
AcDbLine
 62
253
  6
CONTINUOUS
 10
-42.4268257341
 20
17.5885545433
 11
-42.4383542259
 21
18.5451013022
  0
LINE
  5
2C7
100
AcDbEntity
  8
RACCORDO
100
AcDbLine
 62
253
  6
CONTINUOUS
 10
-41.6731742659
 20
-17.5885545433
 11
-41.6616457741
 21
-18.5451013022
  0
LINE
  5
2C8
100
AcDbEntity
  8
RACCORDO
100
AcDbLine
 62
7
  6
CONTINUOUS
 10
-43.8767800339
 20
12.1920026544
 11
-43.8720259378
 21
11.7100316031
  0
LINE
  5
2C9
100
AcDbEntity
  8
RACCORDO
100
AcDbLine
 62
253
  6
CONTINUOUS
 10
-42.9024944369
 20
14.4746923235
 11
-42.928244021
 21
17.3336619258
  0
LINE
  5
2CA
100
AcDbEntity
  8
RACCORDO
100
AcDbLine
 62
253
  6
CONTINUOUS
 10
-41.1975062692
 20
-14.4745979797
 11
-41.171755979
 21
-17.3336619258
  0
LINE
  5
2CB
100
AcDbEntity
  8
RACCORDO
100
AcDbLine
 62
253
  6
CONTINUOUS
 10
-42.3988676698
 20
14.2859980362
 11
-42.4268257341
 21
17.5885545433
  0
LINE
  5
2CC
100
AcDbEntity
  8
RACCORDO
100
AcDbLine
 62
253
  6
CONTINUOUS
 10
-41.7011335321
 20
-14.2858237877
 11
-41.6731742659
 21
-17.5885545433
  0
LINE
  5
2CD
100
AcDbEntity
  8
RACCORDO
100
AcDbLine
 62
253
  6
CONTINUOUS
 10
-42.8770790471
 20
10.1295713771
 11
-42.9024944369
 21
14.4746923235
  0
LINE
  5
2CE
100
AcDbEntity
  8
RACCORDO
100
AcDbLine
 62
253
  6
CONTINUOUS
 10
-41.2229214962
 20
-10.1294505236
 11
-41.1975062692
 21
-14.4745979797
  0
LINE
  5
2CF
100
AcDbEntity
  8
RACCORDO
100
AcDbLine
 62
253
  6
CONTINUOUS
 10
-42.3745695729
 20
9.7562298032
 11
-42.3988676698
 21
14.2859980362
  0
LINE
  5
2D0
100
AcDbEntity
  8
RACCORDO
100
AcDbLine
 62
253
  6
CONTINUOUS
 10
-41.7254308853
 20
-9.7561167618
 11
-41.7011335321
 21
-14.2858237877
  0
LINE
  5
2D1
100
AcDbEntity
  8
RACCORDO
100
AcDbLine
 62
7
  6
CONTINUOUS
 10
-43.8720259378
 20
11.7100316031
 11
-43.8673543818
 21
10.8471996905
  0
LINE
  5
2D2
100
AcDbEntity
  8
RACCORDO
100
AcDbLine
 62
7
  6
CONTINUOUS
 10
-43.8673543818
 20
10.8471996905
 11
-43.8655493294
 21
10.0
  0
LINE
  5
2D3
100
AcDbEntity
  8
RACCORDO
100
AcDbLine
 62
253
  6
CONTINUOUS
 10
-42.8597162045
 20
3.3574543928
 11
-42.8770790471
 21
10.1295713771
  0
LINE
  5
2D4
100
AcDbEntity
  8
RACCORDO
100
AcDbLine
 62
253
  6
CONTINUOUS
 10
-41.2402837955
 20
-3.3574543928
 11
-41.2229214962
 21
-10.1294505236
  0
LINE
  5
2D5
100
AcDbEntity
  8
DRAFT
100
AcDbLine
 62
7
  6
CONTINUOUS
 10
-43.95
 20
17.35
 11
-43.95
 21
13.4
  0
LINE
  5
2D6
100
AcDbEntity
  8
DRAFT
100
AcDbLine
 62
7
  6
CONTINUOUS
 10
-43.95
 20
-13.4
 11
-43.95
 21
-17.35
  0
LINE
  5
2D7
100
AcDbEntity
  8
RACCORDO
100
AcDbLine
 62
7
  6
CONTINUOUS
 10
-43.05
 20
-19.4999999971
 11
-43.05
 21
-17.35
  0
LINE
  5
2D8
100
AcDbEntity
  8
RACCORDO
100
AcDbLine
 62
7
  6
CONTINUOUS
 10
-43.05
 20
17.35
 11
-43.05
 21
19.4999999971
  0
LINE
  5
2D9
100
AcDbEntity
  8
RACCORDO
100
AcDbLine
 62
7
  6
CONTINUOUS
 10
-42.8597162045
 20
-3.3574543928
 11
-42.8597162045
 21
3.3574543928
  0
LINE
  5
2DA
100
AcDbEntity
  8
RACCORDO
100
AcDbLine
 62
253
  6
CONTINUOUS
 10
-42.359735243
 20
3.3574543928
 11
-42.3745695729
 21
9.7562298032
  0
LINE
  5
2DB
100
AcDbEntity
  8
RACCORDO
100
AcDbLine
 62
253
  6
CONTINUOUS
 10
-41.740264757
 20
-3.3574543928
 11
-41.7254308853
 21
-9.7561167618
  0
LINE
  5
2DC
100
AcDbEntity
  8
RACCORDO
100
AcDbLine
 62
7
  6
CONTINUOUS
 10
-41.2402837955
 20
3.3574543928
 11
-41.2402837955
 21
-3.3574543928
  0
LINE
  5
2DD
100
AcDbEntity
  8
RACCORDO
100
AcDbLine
 62
7
  6
CONTINUOUS
 10
-41.05
 20
-19.4999999971
 11
-41.05
 21
-14.1
  0
LINE
  5
2DE
100
AcDbEntity
  8
RACCORDO
100
AcDbLine
 62
7
  6
CONTINUOUS
 10
-41.05
 20
14.1
 11
-41.05
 21
19.4999999971
  0
LINE
  5
2DF
100
AcDbEntity
  8
RACCORDO
100
AcDbLine
 62
253
  6
CONTINUOUS
 10
-42.3642510343
 20
-6.6344606484
 11
-42.359735243
 21
3.3574543928
  0
LINE
  5
2E0
100
AcDbEntity
  8
RACCORDO
100
AcDbLine
 62
253
  6
CONTINUOUS
 10
-41.7357489277
 20
6.634476213
 11
-41.740264757
 21
-3.3574543928
  0
LINE
  5
2E1
100
AcDbEntity
  8
RACCORDO
100
AcDbLine
 62
253
  6
CONTINUOUS
 10
-42.8642319639
 20
-6.4895282081
 11
-42.8597162045
 21
-3.3574543928
  0
LINE
  5
2E2
100
AcDbEntity
  8
RACCORDO
100
AcDbLine
 62
253
  6
CONTINUOUS
 10
-41.2357679966
 20
6.4895437984
 11
-41.2402837955
 21
3.3574543928
  0
LINE
  5
2E3
100
AcDbEntity
  8
RACCORDO
100
AcDbLine
 62
7
  6
CONTINUOUS
 10
-43.8655493294
 20
-10.0
 11
-43.8678605856
 21
-10.9808509875
  0
LINE
  5
2E4
100
AcDbEntity
  8
RACCORDO
100
AcDbLine
 62
253
  6
CONTINUOUS
 10
-42.3886988056
 20
-12.6681591441
 11
-42.3642510343
 21
-6.6344606484
  0
LINE
  5
2E5
100
AcDbEntity
  8
RACCORDO
100
AcDbLine
 62
253
  6
CONTINUOUS
 10
-41.7113000739
 20
12.668354329
 11
-41.7357489277
 21
6.634476213
  0
LINE
  5
2E6
100
AcDbEntity
  8
RACCORDO
100
AcDbLine
 62
253
  6
CONTINUOUS
 10
-42.8886784466
 20
-12.3896376644
 11
-42.8642319639
 21
-6.4895282081
  0
LINE
  5
2E7
100
AcDbEntity
  8
RACCORDO
100
AcDbLine
 62
253
  6
CONTINUOUS
 10
-41.2113206259
 20
12.3897952208
 11
-41.2357679966
 21
6.4895437984
  0
LINE
  5
2E8
100
AcDbEntity
  8
RACCORDO
100
AcDbLine
 62
7
  6
CONTINUOUS
 10
-43.8678605856
 20
-10.9808509875
 11
-43.8728992725
 21
-11.8175294311
  0
LINE
  5
2E9
100
AcDbEntity
  8
RACCORDO
100
AcDbLine
 62
253
  6
CONTINUOUS
 10
-42.4225016519
 20
-17.1611207418
 11
-42.3886988056
 21
-12.6681591441
  0
LINE
  5
2EA
100
AcDbEntity
  8
RACCORDO
100
AcDbLine
 62
253
  6
CONTINUOUS
 10
-41.6774980991
 20
17.1611460306
 11
-41.7113000739
 21
12.668354329
  0
LINE
  5
2EB
100
AcDbEntity
  8
RACCORDO
100
AcDbLine
 62
253
  6
CONTINUOUS
 10
-42.9224828592
 20
-16.7834684672
 11
-42.8886784466
 21
-12.3896376644
  0
LINE
  5
2EC
100
AcDbEntity
  8
RACCORDO
100
AcDbLine
 62
253
  6
CONTINUOUS
 10
-41.1775172916
 20
16.7834495347
 11
-41.2113206259
 21
12.3897952208
  0
LINE
  5
2ED
100
AcDbEntity
  8
RACCORDO
100
AcDbLine
 62
7
  6
CONTINUOUS
 10
-43.8728992725
 20
-11.8175294311
 11
-43.876780034
 21
-12.1920026702
  0
LINE
  5
2EE
100
AcDbEntity
  8
RACCORDO
100
AcDbLine
 62
253
  6
CONTINUOUS
 10
-42.936889291
 20
-18.014136703
 11
-42.9224828592
 21
-16.7834684672
  0
LINE
  5
2EF
100
AcDbEntity
  8
RACCORDO
100
AcDbLine
 62
253
  6
CONTINUOUS
 10
-42.4383542259
 20
-18.5451012964
 11
-42.4225016519
 21
-17.1611207418
  0
LINE
  5
2F0
100
AcDbEntity
  8
RACCORDO
100
AcDbLine
 62
253
  6
CONTINUOUS
 10
-41.6616457741
 20
18.5451012964
 11
-41.6774980991
 21
17.1611460306
  0
LINE
  5
2F1
100
AcDbEntity
  8
RACCORDO
100
AcDbLine
 62
253
  6
CONTINUOUS
 10
-41.163110709
 20
18.014136703
 11
-41.1775172916
 21
16.7834495347
  0
LINE
  5
2F2
100
AcDbEntity
  8
RACCORDO
100
AcDbLine
 62
253
  6
CONTINUOUS
 10
-42.945616198
 20
-18.5333378512
 11
-42.936889291
 21
-18.014136703
  0
LINE
  5
2F3
100
AcDbEntity
  8
RACCORDO
100
AcDbLine
 62
253
  6
CONTINUOUS
 10
-41.154383802
 20
18.5333378512
 11
-41.163110709
 21
18.014136703
  0
LINE
  5
2F4
100
AcDbEntity
  8
RACCORDO
100
AcDbLine
 62
253
  6
CONTINUOUS
 10
-42.4471066688
 20
-19.0670391164
 11
-42.4383542259
 21
-18.5451012964
  0
LINE
  5
2F5
100
AcDbEntity
  8
RACCORDO
100
AcDbLine
 62
253
  6
CONTINUOUS
 10
-41.6528933312
 20
19.0670391164
 11
-41.6616457741
 21
18.5451012964
  0
LINE
  5
2F6
100
AcDbEntity
  8
RACCORDO
100
AcDbLine
 62
253
  6
CONTINUOUS
 10
-42.9515540391
 20
-18.8058696029
 11
-42.945616198
 21
-18.5333378512
  0
LINE
  5
2F7
100
AcDbEntity
  8
RACCORDO
100
AcDbLine
 62
253
  6
CONTINUOUS
 10
-41.1484459609
 20
18.8058696029
 11
-41.154383802
 21
18.5333378512
  0
LINE
  5
2F8
100
AcDbEntity
  8
RACCORDO
100
AcDbLine
 62
253
  6
CONTINUOUS
 10
-41.6469173038
 20
19.3397528917
 11
-41.6528933312
 21
19.0670391164
  0
LINE
  5
2F9
100
AcDbEntity
  8
RACCORDO
100
AcDbLine
 62
253
  6
CONTINUOUS
 10
-42.4530826962
 20
-19.3397528917
 11
-42.4471066688
 21
-19.0670391164
  0
LINE
  5
2FA
100
AcDbEntity
  8
RACCORDO
100
AcDbLine
 62
253
  6
CONTINUOUS
 10
-42.9561205055
 20
-18.9754920484
 11
-42.9515540391
 21
-18.8058696029
  0
LINE
  5
2FB
100
AcDbEntity
  8
RACCORDO
100
AcDbLine
 62
253
  6
CONTINUOUS
 10
-41.1438794945
 20
18.9754920484
 11
-41.1484459609
 21
18.8058696029
  0
LINE
  5
2FC
100
AcDbEntity
  8
RACCORDO
100
AcDbLine
 62
253
  6
CONTINUOUS
 10
-41.6423100653
 20
19.5080739817
 11
-41.6469173038
 21
19.3397528917
  0
LINE
  5
2FD
100
AcDbEntity
  8
RACCORDO
100
AcDbLine
 62
253
  6
CONTINUOUS
 10
-42.4576899347
 20
-19.5080739817
 11
-42.4530826962
 21
-19.3397528917
  0
LINE
  5
2FE
100
AcDbEntity
  8
RACCORDO
100
AcDbLine
 62
253
  6
CONTINUOUS
 10
-42.9592384106
 20
-19.0724164125
 11
-42.9561205055
 21
-18.9754920484
  0
LINE
  5
2FF
100
AcDbEntity
  8
RACCORDO
100
AcDbLine
 62
253
  6
CONTINUOUS
 10
-41.1407615894
 20
19.0724164125
 11
-41.1438794945
 21
18.9754920484
  0
LINE
  5
300
100
AcDbEntity
  8
RACCORDO
100
AcDbLine
 62
253
  6
CONTINUOUS
 10
-41.6391596918
 20
19.6032706828
 11
-41.6423100653
 21
19.5080739817
  0
LINE
  5
301
100
AcDbEntity
  8
RACCORDO
100
AcDbLine
 62
253
  6
CONTINUOUS
 10
-42.4608403082
 20
-19.6032706828
 11
-42.4576899347
 21
-19.5080739817
  0
LWPOLYLINE
  5
302
100
AcDbEntity
  8
RACCORDO
100
AcDbPolyline
 62
7
  6
CONTINUOUS
 90
19
 70
0
 10
-43.05
 20
19.4999999971
 10
-43.0480981684
 20
19.5435750005
 10
-43.0424067521
 20
19.5868186415
 10
-43.0329688641
 20
19.629402001
 10
-43.0198561395
 20
19.6710012714
 10
-43.0031681344
 20
19.7112998332
 10
-42.9830316196
 20
19.7499906833
 10
-42.9595996391
 20
19.786779421
 10
-42.933050391
 20
19.8213860568
 10
-42.9035859203
 20
19.8535468238
 10
-42.8714303573
 20
19.8830169411
 10
-42.836828358
 20
19.9095721236
 10
-42.8000434454
 20
19.9330099943
 10
-42.7613555532
 20
19.9531521506
 10
-42.7210590742
 20
19.9698453451
 10
-42.6794609085
 20
19.9829624775
 10
-42.6368777039
 20
19.9924037514
 10
-42.5936334184
 20
19.9980973637
 10
-42.5500571132
 20
20.0
  0
LWPOLYLINE
  5
303
100
AcDbEntity
  8
RACCORDO
100
AcDbPolyline
 62
253
  6
CONTINUOUS
 90
19
 70
0
 10
-42.9779429301
 20
19.355874881
 10
-42.9760340843
 20
19.399441902
 10
-42.9703353435
 20
19.4426774159
 10
-42.9608900702
 20
19.4852524381
 10
-42.9477701346
 20
19.5268430097
 10
-42.9310753681
 20
19.5671326628
 10
-42.9109328033
 20
19.6058148282
 10
-42.8874957075
 20
19.6425951683
 10
-42.8609424166
 20
19.6771938168
 10
-42.8314749781
 20
19.709347508
 10
-42.7993176135
 20
19.7388115803
 10
-42.7647150124
 20
19.7653618379
 10
-42.7279304703
 20
19.7887962565
 10
-42.6892438856
 20
19.8089365204
 10
-42.6489496296
 20
19.8256293798
 10
-42.6073543064
 20
19.8387478167
 10
-42.5647744202
 20
19.848192011
 10
-42.5215339669
 20
19.8538901008
 10
-42.4779619686
 20
19.8557987286
  0
LWPOLYLINE
  5
304
100
AcDbEntity
  8
RACCORDO
100
AcDbPolyline
 62
253
  6
CONTINUOUS
 90
19
 70
0
 10
-42.9268066956
 20
17.201992905
 10
-42.924677127
 20
17.2355660589
 10
-42.918785249
 20
17.2688854957
 10
-42.9091755871
 20
17.3016994175
 10
-42.8959207624
 20
17.3337598462
 10
-42.8791209429
 20
17.3648244984
 10
-42.8589030864
 20
17.3946586154
 10
-42.8354199811
 20
17.4230367382
 10
-42.8088490909
 20
17.4497444105
 10
-42.7793912147
 20
17.4745798
 10
-42.7472689683
 20
17.4973552234
 10
-42.7127251025
 20
17.5178985647
 10
-42.6760206686
 20
17.5360545759
 10
-42.6374330453
 20
17.5516860503
 10
-42.5972538429
 20
17.5646748595
 10
-42.5557866995
 20
17.5749228457
 10
-42.513344986
 20
17.5823525641
 10
-42.4702494385
 20
17.5869078675
 10
-42.4268257341
 20
17.5885543311
  0
LWPOLYLINE
  5
305
100
AcDbEntity
  8
RACCORDO
100
AcDbPolyline
 62
253
  6
CONTINUOUS
 90
19
 70
0
 10
-42.8626422719
 20
5.8590870777
 10
-42.8603948048
 20
5.8705014238
 10
-42.8543997919
 20
5.8818298211
 10
-42.8447023711
 20
5.8929869756
 10
-42.8313755565
 20
5.9038888826
 10
-42.8145196884
 20
5.9144534591
 10
-42.7942616786
 20
5.9246011622
 10
-42.7707540541
 20
5.9342555875
 10
-42.7441738089
 20
5.9433440448
 10
-42.7147210717
 20
5.951798105
 10
-42.6826175987
 20
5.9595541156
 10
-42.648105104
 20
5.9665536799
 10
-42.6114434399
 20
5.9727440966
 10
-42.5729086401
 20
5.9780787568
 10
-42.5327908418
 20
5.9825174945
 10
-42.4913921007
 20
5.9860268895
 10
-42.4490241172
 20
5.9885805189
 10
-42.4060058891
 20
5.9901591557
 10
-42.3626613104
 20
5.990750914
  0
LWPOLYLINE
  5
306
100
AcDbEntity
  8
RACCORDO
100
AcDbPolyline
 62
7
  6
CONTINUOUS
 90
3
 70
0
 10
-52.2205053875
 20
-12.83419089
 10
-52.2041719371
 20
-12.7942677917
 10
-52.1922190497
 20
-12.7710051086
  0
LINE
  5
307
100
AcDbEntity
  8
RACCORDO
100
AcDbLine
 62
7
  6
CONTINUOUS
 10
-41.100455129
 20
13.9990820562
 11
-41.05
 21
14.1
  0
LINE
  5
308
100
AcDbEntity
  8
RACCORDO
100
AcDbLine
 62
253
  6
CONTINUOUS
 10
-52.25
 20
-13.5999999971
 11
-52.1995829457
 21
-13.4991582086
  0
LINE
  5
309
100
AcDbEntity
  8
RACCORDO
100
AcDbLine
 62
7
  6
CONTINUOUS
 10
-41.05
 20
-14.1
 11
-41.100455129
 21
-13.9990820562
  0
LINE
  5
30A
100
AcDbEntity
  8
RACCORDO
100
AcDbLine
 62
253
  6
CONTINUOUS
 10
-52.1995829457
 20
13.4991582086
 11
-52.25
 21
13.5999999971
  0
LWPOLYLINE
  5
30B
100
AcDbEntity
  8
RACCORDO
100
AcDbPolyline
 62
7
  6
CONTINUOUS
 90
3
 70
0
 10
-52.2205053875
 20
12.83419089
 10
-52.2041719371
 20
12.7942677917
 10
-52.1922183411
 20
12.7710037295
  0
LWPOLYLINE
  5
30C
100
AcDbEntity
  8
RACCORDO
100
AcDbPolyline
 62
253
  6
CONTINUOUS
 90
19
 70
0
 10
-42.8626422719
 20
-5.8590870777
 10
-42.8603950827
 20
-5.8705014783
 10
-42.8544003129
 20
-5.8818299357
 10
-42.8447030991
 20
-5.8929871547
 10
-42.8313764542
 20
-5.9038891294
 10
-42.8145207184
 20
-5.9144537757
 10
-42.7942628034
 20
-5.9246015493
 10
-42.7707552369
 20
-5.9342560447
 10
-42.744175014
 20
-5.9433445705
 10
-42.7147222649
 20
-5.9517986965
 10
-42.6826187479
 20
-5.9595547693
 10
-42.6481061794
 20
-5.966554391
 10
-42.6114444146
 20
-5.9727448596
 10
-42.5729094904
 20
-5.9780795652
 10
-42.5327915473
 20
-5.9825183413
 10
-42.4913926448
 20
-5.986027767
 10
-42.4490244871
 20
-5.988581419
 10
-42.4060060763
 20
-5.99016007
 10
-42.3626613104
 20
-5.9907518339
  0
LWPOLYLINE
  5
30D
100
AcDbEntity
  8
RACCORDO
100
AcDbPolyline
 62
253
  6
CONTINUOUS
 90
19
 70
0
 10
-41.1731933044
 20
17.201992905
 10
-41.1753228994
 20
17.2355660446
 10
-41.1812148004
 20
17.2688854655
 10
-41.1908244819
 20
17.3016993702
 10
-41.2040793227
 20
17.3337597809
 10
-41.2208791547
 20
17.3648244144
 10
-41.2410970203
 20
17.3946585126
 10
-41.2645801311
 20
17.4230366166
 10
-41.2911510233
 20
17.4497442706
 10
-41.3206088984
 20
17.4745796425
 10
-41.3527311407
 20
17.4973550492
 10
-41.3872749995
 20
17.5178983751
 10
-41.4239794239
 20
17.5360543724
 10
-41.4625670353
 20
17.5516858347
 10
-41.5027462239
 20
17.5646746336
 10
-41.5442133521
 20
17.5749226117
 10
-41.586655049
 20
17.5823523241
 10
-41.6297505792
 20
17.5869076238
 10
-41.6731742659
 20
17.5885540861
  0
LWPOLYLINE
  5
30E
100
AcDbEntity
  8
RACCORDO
100
AcDbPolyline
 62
253
  6
CONTINUOUS
 90
19
 70
0
 10
-41.1220570699
 20
19.355874881
 10
-41.1239659137
 20
19.3994418789
 10
-41.129664649
 20
19.4426773735
 10
-41.1391099143
 20
19.4852523804
 10
-41.1522298404
 20
19.5268429411
 10
-41.1689245967
 20
19.5671325874
 10
-41.1890671515
 20
19.6058147499
 10
-41.2125042383
 20
19.6425950909
 10
-41.2390575218
 20
19.6771937434
 10
-41.268524955
 20
19.7093474411
 10
-41.300682317
 20
19.738811522
 10
-41.3352849185
 20
19.7653617895
 10
-41.3720694635
 20
19.7887962182
 10
-41.410756054
 20
19.8089364922
 10
-41.4510503188
 20
19.825629361
 10
-41.4926456527
 20
19.8387478057
 10
-41.5352255511
 20
19.848192006
 10
-41.5784660181
 20
19.8538900995
 10
-41.6220380314
 20
19.8557987286
  0
LWPOLYLINE
  5
30F
100
AcDbEntity
  8
RACCORDO
100
AcDbPolyline
 62
7
  6
CONTINUOUS
 90
19
 70
0
 10
-41.05
 20
19.4999999971
 10
-41.0519018316
 20
19.5435750005
 10
-41.0575932479
 20
19.5868186415
 10
-41.0670311359
 20
19.629402001
 10
-41.0801438605
 20
19.6710012714
 10
-41.0968318656
 20
19.7112998332
 10
-41.1169683804
 20
19.7499906833
 10
-41.1404003609
 20
19.786779421
 10
-41.166949609
 20
19.8213860568
 10
-41.1964140797
 20
19.8535468238
 10
-41.2285696427
 20
19.8830169411
 10
-41.263171642
 20
19.9095721236
 10
-41.2999565546
 20
19.9330099943
 10
-41.3386444468
 20
19.9531521506
 10
-41.3789409258
 20
19.9698453451
 10
-41.4205390915
 20
19.9829624775
 10
-41.4631222961
 20
19.9924037514
 10
-41.5063665816
 20
19.9980973637
 10
-41.5499428868
 20
20.0
  0
LWPOLYLINE
  5
310
100
AcDbEntity
  8
RACCORDO
100
AcDbPolyline
 62
7
  6
CONTINUOUS
 90
19
 70
0
 10
-41.05
 20
-19.4999999971
 10
-41.0519018316
 20
-19.5435750005
 10
-41.0575932479
 20
-19.5868186415
 10
-41.0670311359
 20
-19.629402001
 10
-41.0801438605
 20
-19.6710012714
 10
-41.0968318656
 20
-19.7112998332
 10
-41.1169683804
 20
-19.7499906833
 10
-41.1404003609
 20
-19.786779421
 10
-41.166949609
 20
-19.8213860568
 10
-41.1964140797
 20
-19.8535468238
 10
-41.2285696427
 20
-19.8830169411
 10
-41.263171642
 20
-19.9095721236
 10
-41.2999565546
 20
-19.9330099943
 10
-41.3386444468
 20
-19.9531521506
 10
-41.3789409258
 20
-19.9698453451
 10
-41.4205390915
 20
-19.9829624775
 10
-41.4631222961
 20
-19.9924037514
 10
-41.5063665816
 20
-19.9980973637
 10
-41.5499428868
 20
-20.0
  0
LWPOLYLINE
  5
311
100
AcDbEntity
  8
RACCORDO
100
AcDbPolyline
 62
253
  6
CONTINUOUS
 90
19
 70
0
 10
-41.1220570699
 20
-19.355874881
 10
-41.1239659157
 20
-19.399441902
 10
-41.1296646565
 20
-19.4426774159
 10
-41.1391099298
 20
-19.4852524381
 10
-41.1522298654
 20
-19.5268430097
 10
-41.1689246319
 20
-19.5671326628
 10
-41.1890671967
 20
-19.6058148282
 10
-41.2125042925
 20
-19.6425951683
 10
-41.2390575834
 20
-19.6771938168
 10
-41.2685250219
 20
-19.709347508
 10
-41.3006823865
 20
-19.7388115803
 10
-41.3352849876
 20
-19.7653618379
 10
-41.3720695297
 20
-19.7887962565
 10
-41.4107561144
 20
-19.8089365204
 10
-41.4510503704
 20
-19.8256293798
 10
-41.4926456936
 20
-19.8387478167
 10
-41.5352255798
 20
-19.848192011
 10
-41.5784660331
 20
-19.8538901008
 10
-41.6220380314
 20
-19.8557987286
  0
LWPOLYLINE
  5
312
100
AcDbEntity
  8
RACCORDO
100
AcDbPolyline
 62
253
  6
CONTINUOUS
 90
19
 70
0
 10
-41.1731933044
 20
-17.201992905
 10
-41.175322873
 20
-17.2355660589
 10
-41.181214751
 20
-17.2688854957
 10
-41.1908244129
 20
-17.3016994175
 10
-41.2040792376
 20
-17.3337598462
 10
-41.2208790571
 20
-17.3648244984
 10
-41.2410969136
 20
-17.3946586154
 10
-41.2645800189
 20
-17.4230367382
 10
-41.2911509091
 20
-17.4497444105
 10
-41.3206087853
 20
-17.4745798
 10
-41.3527310317
 20
-17.4973552234
 10
-41.3872748975
 20
-17.5178985647
 10
-41.4239793314
 20
-17.5360545759
 10
-41.4625669547
 20
-17.5516860503
 10
-41.5027461571
 20
-17.5646748595
 10
-41.5442133005
 20
-17.5749228457
 10
-41.586655014
 20
-17.5823525641
 10
-41.6297505615
 20
-17.5869078675
 10
-41.6731742659
 20
-17.5885543311
  0
LWPOLYLINE
  5
313
100
AcDbEntity
  8
RACCORDO
100
AcDbPolyline
 62
253
  6
CONTINUOUS
 90
19
 70
0
 10
-41.2373577281
 20
-5.8590870777
 10
-41.2396052125
 20
-5.8705014204
 10
-41.2456002405
 20
-5.881829814
 10
-41.2552976741
 20
-5.8929869645
 10
-41.2686244994
 20
-5.9038888672
 10
-41.2854803757
 20
-5.9144534394
 10
-41.3057383914
 20
-5.9246011381
 10
-41.3292460195
 20
-5.9342555591
 10
-41.3558262661
 20
-5.9433440121
 10
-41.3852790025
 20
-5.9517980682
 10
-41.4173824728
 20
-5.9595540749
 10
-41.4518949629
 20
-5.9665536357
 10
-41.4885566208
 20
-5.9727440492
 10
-41.5270914128
 20
-5.9780787065
 10
-41.5672092021
 20
-5.9825174419
 10
-41.6086079331
 20
-5.986026835
 10
-41.6509759058
 20
-5.9885804629
 10
-41.6939941225
 20
-5.9901590988
 10
-41.7373386896
 20
-5.9907508569
  0
LINE
  5
314
100
AcDbEntity
  8
RACCORDO
100
AcDbLine
 62
253
  6
CONTINUOUS
 10
-51.7500571132
 20
-14.1
 11
-51.6996019842
 21
-13.9990820562
  0
LINE
  5
315
100
AcDbEntity
  8
RACCORDO
100
AcDbLine
 62
253
  6
CONTINUOUS
 10
-51.6996019842
 20
13.9990820562
 11
-51.7500571132
 21
14.1
  0
LWPOLYLINE
  5
316
100
AcDbEntity
  8
RACCORDO
100
AcDbPolyline
 62
253
  6
CONTINUOUS
 90
19
 70
0
 10
-41.2373577281
 20
5.8590870777
 10
-41.2396049173
 20
5.8705014783
 10
-41.2455996871
 20
5.8818299357
 10
-41.2552969009
 20
5.8929871547
 10
-41.2686235458
 20
5.9038891294
 10
-41.2854792816
 20
5.9144537757
 10
-41.3057371966
 20
5.9246015493
 10
-41.3292447631
 20
5.9342560447
 10
-41.355824986
 20
5.9433445705
 10
-41.3852777351
 20
5.9517986965
 10
-41.4173812521
 20
5.9595547693
 10
-41.4518938206
 20
5.966554391
 10
-41.4885555854
 20
5.9727448596
 10
-41.5270905096
 20
5.9780795652
 10
-41.5672084527
 20
5.9825183413
 10
-41.6086073552
 20
5.986027767
 10
-41.6509755129
 20
5.988581419
 10
-41.6939939237
 20
5.99016007
 10
-41.7373386896
 20
5.9907518339
  0
LINE
  5
317
100
AcDbEntity
  8
0
100
AcDbLine
 62
7
  6
CONTINUOUS
 10
-35.703795
 20
0.667624
 11
-35.703795
 21
2.717111
  0
LINE
  5
318
100
AcDbEntity
  8
0
100
AcDbLine
 62
7
  6
CONTINUOUS
 10
-35.436047
 20
0.667624
 11
-35.436047
 21
2.386078
  0
LINE
  5
319
100
AcDbEntity
  8
0
100
AcDbLine
 62
7
  6
CONTINUOUS
 10
-34.008059
 20
0.667624
 11
-34.008059
 21
2.389323
  0
LINE
  5
31A
100
AcDbEntity
  8
0
100
AcDbLine
 62
7
  6
CONTINUOUS
 10
-33.740311
 20
0.667624
 11
-33.740311
 21
2.717111
  0
LINE
  5
31B
100
AcDbEntity
  8
0
100
AcDbLine
 62
7
  6
CONTINUOUS
 10
-33.336797
 20
-2.713029
 11
-33.336797
 21
-0.663001
  0
LWPOLYLINE
  5
31C
100
AcDbEntity
  8
RACCORDO
100
AcDbPolyline
 62
253
  6
CONTINUOUS
 90
11
 70
0
 10
-42.9779429301
 20
-19.355874881
 10
-42.9761078622
 20
-19.3495523537
 10
-42.9743015724
 20
-19.3391571081
 10
-42.9725240607
 20
-19.3246891443
 10
-42.9707767209
 20
-19.306001784
 10
-42.9690581593
 20
-19.2832417054
 10
-42.9673641945
 20
-19.2568489431
 10
-42.9656948129
 20
-19.2268789335
 10
-42.9640500281
 20
-19.1932762403
 10
-42.9624257006
 20
-19.1563145892
 10
-42.9592384106
 20
-19.0724164125
  0
LWPOLYLINE
  5
31D
100
AcDbEntity
  8
RACCORDO
100
AcDbPolyline
 62
253
  6
CONTINUOUS
 90
10
 70
0
 10
-42.4779619686
 20
-19.8557987286
 10
-42.4761263838
 20
-19.8494862142
 10
-42.4743197274
 20
-19.8384701958
 10
-42.4725419994
 20
-19.8229604599
 10
-42.4707946448
 20
-19.8031912877
 10
-42.4690762185
 20
-19.7793541537
 10
-42.4673823856
 20
-19.7515460472
 10
-42.4657130808
 20
-19.719922025
 10
-42.4640683695
 20
-19.6846415105
 10
-42.4608403082
 20
-19.6032706828
  0
LINE
  5
31E
100
AcDbEntity
  8
0
100
AcDbLine
 62
7
  6
CONTINUOUS
 10
-34.71907
 20
0.975763
 11
-34.13409
 21
2.717111
  0
LINE
  5
31F
100
AcDbEntity
  8
0
100
AcDbLine
 62
7
  6
CONTINUOUS
 10
-33.059853
 20
-2.713029
 11
-33.059853
 21
-0.663001
  0
LINE
  5
320
100
AcDbEntity
  8
0
100
AcDbLine
 62
7
  6
CONTINUOUS
 10
-32.762356
 20
-0.909113
 11
-32.762356
 21
-0.663001
  0
LINE
  5
321
100
AcDbEntity
  8
0
100
AcDbLine
 62
7
  6
CONTINUOUS
 10
-32.068916
 20
-2.713029
 11
-32.068916
 21
-0.909113
  0
LINE
  5
322
100
AcDbEntity
  8
0
100
AcDbLine
 62
7
  6
CONTINUOUS
 10
-31.791973
 20
-2.713029
 11
-31.791973
 21
-0.909113
  0
LINE
  5
323
100
AcDbEntity
  8
0
100
AcDbLine
 62
7
  6
CONTINUOUS
 10
-31.399277
 20
0.667624
 11
-31.399277
 21
2.717111
  0
LINE
  5
324
100
AcDbEntity
  8
0
100
AcDbLine
 62
7
  6
CONTINUOUS
 10
-31.121793
 20
0.90454
 11
-31.121793
 21
2.480195
  0
LINE
  5
325
100
AcDbEntity
  8
0
100
AcDbLine
 62
7
  6
CONTINUOUS
 10
-31.097993
 20
-0.909113
 11
-31.097993
 21
-0.663001
  0
LINE
  5
326
100
AcDbEntity
  8
0
100
AcDbLine
 62
7
  6
CONTINUOUS
 10
-34.584663
 20
0.667624
 11
-34.008059
 21
2.389323
  0
LINE
  5
327
100
AcDbEntity
  8
0
100
AcDbLine
 62
7
  6
CONTINUOUS
 10
-33.209143
 20
0.667624
 11
-32.994945
 21
1.264242
  0
LINE
  5
328
100
AcDbEntity
  8
0
100
AcDbLine
 62
7
  6
CONTINUOUS
 10
-32.908941
 20
1.509812
 11
-32.578058
 21
2.42056
  0
LINE
  5
329
100
AcDbEntity
  8
0
100
AcDbLine
 62
7
  6
CONTINUOUS
 10
-33.494741
 20
0.667624
 11
-32.723411
 21
2.717111
  0
LINE
  5
32A
100
AcDbEntity
  8
RACCORDO
100
AcDbLine
 62
253
  6
CONTINUOUS
 10
-43.05
 20
-19.4999999971
 11
-42.9779429301
 21
-19.355874881
  0
LINE
  5
32B
100
AcDbEntity
  8
RACCORDO
100
AcDbLine
 62
253
  6
CONTINUOUS
 10
-42.9779429301
 20
19.355874881
 11
-43.05
 21
19.4999999971
  0
LINE
  5
32C
100
AcDbEntity
  8
0
100
AcDbLine
 62
7
  6
CONTINUOUS
 10
-31.667565
 20
0.667624
 11
-32.409686
 21
2.717111
  0
LINE
  5
32D
100
AcDbEntity
  8
0
100
AcDbLine
 62
7
  6
CONTINUOUS
 10
-31.969931
 20
0.667624
 11
-32.17277
 21
1.264242
  0
LINE
  5
32E
100
AcDbEntity
  8
0
100
AcDbLine
 62
7
  6
CONTINUOUS
 10
-34.71907
 20
0.975763
 11
-35.307312
 21
2.717111
  0
LINE
  5
32F
100
AcDbEntity
  8
0
100
AcDbLine
 62
7
  6
CONTINUOUS
 10
-34.858902
 20
0.667624
 11
-35.436047
 21
2.386078
  0
LINE
  5
330
100
AcDbEntity
  8
0
100
AcDbLine
 62
7
  6
CONTINUOUS
 10
-32.272837
 20
1.509812
 11
-32.578058
 21
2.42056
  0
LINE
  5
331
100
AcDbEntity
  8
0
100
AcDbLine
 62
7
  6
CONTINUOUS
 10
-29.323826
 20
0.667624
 11
-29.323826
 21
2.717111
  0
LINE
  5
332
100
AcDbEntity
  8
0
100
AcDbLine
 62
7
  6
CONTINUOUS
 10
-29.279472
 20
-2.713029
 11
-29.279472
 21
-0.663001
  0
LINE
  5
333
100
AcDbEntity
  8
0
100
AcDbLine
 62
7
  6
CONTINUOUS
 10
-29.046883
 20
0.913195
 11
-29.046883
 21
1.59798
  0
LINE
  5
334
100
AcDbEntity
  8
0
100
AcDbLine
 62
7
  6
CONTINUOUS
 10
-29.046883
 20
1.84355
 11
-29.046883
 21
2.47154
  0
LINE
  5
335
100
AcDbEntity
  8
0
100
AcDbLine
 62
7
  6
CONTINUOUS
 10
-29.002529
 20
-2.467458
 11
-29.002529
 21
-0.663001
  0
LINE
  5
336
100
AcDbEntity
  8
0
100
AcDbLine
 62
7
  6
CONTINUOUS
 10
-27.963451
 20
-2.713029
 11
-27.963451
 21
-2.467458
  0
LINE
  5
337
100
AcDbEntity
  8
0
100
AcDbLine
 62
7
  6
CONTINUOUS
 10
-27.925047
 20
1.59798
 11
-27.925047
 21
1.84355
  0
LINE
  5
338
100
AcDbEntity
  8
0
100
AcDbLine
 62
7
  6
CONTINUOUS
 10
-27.830389
 20
2.47154
 11
-27.830389
 21
2.717111
  0
LINE
  5
339
100
AcDbEntity
  8
0
100
AcDbLine
 62
7
  6
CONTINUOUS
 10
-27.810916
 20
0.667624
 11
-27.810916
 21
0.913195
  0
LINE
  5
33A
100
AcDbEntity
  8
0
100
AcDbLine
 62
7
  6
CONTINUOUS
 10
-27.495028
 20
-2.713029
 11
-27.495028
 21
-1.88815
  0
LINE
  5
33B
100
AcDbEntity
  8
0
100
AcDbLine
 62
7
  6
CONTINUOUS
 10
-27.218085
 20
-2.713029
 11
-27.218085
 21
-1.88815
  0
LINE
  5
33C
100
AcDbEntity
  8
0
100
AcDbLine
 62
7
  6
CONTINUOUS
 10
-26.68313
 20
0.667624
 11
-26.68313
 21
2.717111
  0
LINE
  5
33D
100
AcDbEntity
  8
0
100
AcDbLine
 62
7
  6
CONTINUOUS
 10
-26.406187
 20
0.667624
 11
-26.406187
 21
2.717111
  0
LINE
  5
33E
100
AcDbEntity
  8
0
100
AcDbLine
 62
7
  6
CONTINUOUS
 10
-25.932355
 20
0.667624
 11
-25.932355
 21
2.717111
  0
LINE
  5
33F
100
AcDbEntity
  8
0
100
AcDbLine
 62
7
  6
CONTINUOUS
 10
-25.664066
 20
0.667624
 11
-25.664066
 21
2.332789
  0
LINE
  5
340
100
AcDbEntity
  8
0
100
AcDbLine
 62
7
  6
CONTINUOUS
 10
-31.075275
 20
-2.713029
 11
-30.861077
 21
-2.116411
  0
LINE
  5
341
100
AcDbEntity
  8
0
100
AcDbLine
 62
7
  6
CONTINUOUS
 10
-30.775614
 20
-1.870841
 11
-30.44419
 21
-0.960108
  0
LINE
  5
342
100
AcDbEntity
  8
0
100
AcDbLine
 62
7
  6
CONTINUOUS
 10
-31.360332
 20
-2.713029
 11
-30.589543
 21
-0.663001
  0
LINE
  5
343
100
AcDbEntity
  8
RACCORDO
100
AcDbLine
 62
253
  6
CONTINUOUS
 10
-42.5500571132
 20
-20.0
 11
-42.4779619686
 21
-19.8557987286
  0
LINE
  5
344
100
AcDbEntity
  8
RACCORDO
100
AcDbLine
 62
253
  6
CONTINUOUS
 10
-42.4779619686
 20
19.8557987286
 11
-42.5500571132
 21
20.0
  0
LINE
  5
345
100
AcDbEntity
  8
0
100
AcDbLine
 62
7
  6
CONTINUOUS
 10
-29.533697
 20
-2.713029
 11
-30.275818
 21
-0.663001
  0
LINE
  5
346
100
AcDbEntity
  8
0
100
AcDbLine
 62
7
  6
CONTINUOUS
 10
-29.836063
 20
-2.713029
 11
-30.038902
 21
-2.116411
  0
LINE
  5
347
100
AcDbEntity
  8
0
100
AcDbLine
 62
7
  6
CONTINUOUS
 10
-30.138428
 20
-1.870841
 11
-30.44419
 21
-0.960108
  0
LINE
  5
348
100
AcDbEntity
  8
0
100
AcDbLine
 62
7
  6
CONTINUOUS
 10
-24.573603
 20
1.052665
 11
-24.573603
 21
2.717111
  0
LINE
  5
349
100
AcDbEntity
  8
0
100
AcDbLine
 62
7
  6
CONTINUOUS
 10
-24.304773
 20
0.667624
 11
-24.304773
 21
2.717111
  0
LINE
  5
34A
100
AcDbEntity
  8
0
100
AcDbLine
 62
7
  6
CONTINUOUS
 10
-27.358179
 20
-1.647988
 11
-26.769675
 21
-0.663001
  0
LINE
  5
34B
100
AcDbEntity
  8
0
100
AcDbLine
 62
7
  6
CONTINUOUS
 10
-27.218085
 20
-1.88815
 11
-26.444592
 21
-0.663001
  0
LWPOLYLINE
  5
34C
100
AcDbEntity
  8
RACCORDO
100
AcDbPolyline
 62
253
  6
CONTINUOUS
 90
12
 70
0
 10
-52.2057526327
 20
13.0026037657
 10
-52.2050742529
 20
13.0020427386
 10
-52.2043961765
 20
13.0003832667
 10
-52.2037184033
 20
12.9976253501
 10
-52.2030407588
 20
12.993767928
 10
-52.2023634176
 20
12.9888120612
 10
-52.2016869034
 20
12.9827609313
 10
-52.2010112432
 20
12.9756136342
 10
-52.20033641
 20
12.967371074
 10
-52.1996628471
 20
12.9580391442
 10
-52.1989905794
 20
12.9476175261
 10
-52.198319582
 20
12.9361065384
  0
LINE
  5
34D
100
AcDbEntity
  8
0
100
AcDbLine
 62
7
  6
CONTINUOUS
 10
-27.495028
 20
-1.88815
 11
-28.268521
 21
-0.663001
  0
LINE
  5
34E
100
AcDbEntity
  8
0
100
AcDbLine
 62
7
  6
CONTINUOUS
 10
-27.358179
 20
-1.647988
 11
-27.946142
 21
-0.663001
  0
LINE
  5
34F
100
AcDbEntity
  8
RACCORDO
100
AcDbLine
 62
7
  6
CONTINUOUS
 10
42.5500571132
 20
-20.0
 11
41.5499428868
 21
-20.0
  0
LINE
  5
350
100
AcDbEntity
  8
RACCORDO
100
AcDbLine
 62
7
  6
CONTINUOUS
 10
-41.5499428868
 20
-20.0
 11
-42.5500571132
 21
-20.0
  0
LINE
  5
351
100
AcDbEntity
  8
RACCORDO
100
AcDbLine
 62
253
  6
CONTINUOUS
 10
-42.4779619686
 20
-19.8557987286
 11
-41.6220380314
 21
-19.8557987286
  0
LINE
  5
352
100
AcDbEntity
  8
RACCORDO
100
AcDbLine
 62
253
  6
CONTINUOUS
 10
41.6220380314
 20
-19.8557987286
 11
42.4779619686
 21
-19.8557987286
  0
LINE
  5
353
100
AcDbEntity
  8
0
100
AcDbLine
 62
7
  6
CONTINUOUS
 10
-24.616334
 20
0.667624
 11
-25.664066
 21
2.332789
  0
LINE
  5
354
100
AcDbEntity
  8
0
100
AcDbLine
 62
7
  6
CONTINUOUS
 10
-24.573603
 20
1.052665
 11
-25.604026
 21
2.717111
  0
LINE
  5
355
100
AcDbEntity
  8
0
100
AcDbLine
 62
7
  6
CONTINUOUS
 10
-16.867554
 20
-2.548037
 11
-16.867554
 21
-1.79722
  0
LINE
  5
356
100
AcDbEntity
  8
0
100
AcDbLine
 62
7
  6
CONTINUOUS
 10
-16.867554
 20
1.79722
 11
-16.867554
 21
2.548037
  0
LINE
  5
357
100
AcDbEntity
  8
RACCORDO
100
AcDbLine
 62
253
  6
CONTINUOUS
 10
-42.4268257341
 20
-17.5885545433
 11
-41.6731742659
 21
-17.5885545433
  0
LINE
  5
358
100
AcDbEntity
  8
RACCORDO
100
AcDbLine
 62
253
  6
CONTINUOUS
 10
41.6731742659
 20
-17.5885545433
 11
42.4268257341
 21
-17.5885545433
  0
LINE
  5
359
100
AcDbEntity
  8
0
100
AcDbLine
 62
7
  6
CONTINUOUS
 10
43.95
 20
-17.35
 11
43.05
 21
-17.35
  0
LINE
  5
35A
100
AcDbEntity
  8
DRAFT
100
AcDbLine
 62
7
  6
CONTINUOUS
 10
43.05
 20
-17.35
 11
43.95
 21
-17.35
  0
LINE
  5
35B
100
AcDbEntity
  8
0
100
AcDbLine
 62
7
  6
CONTINUOUS
 10
-43.05
 20
-17.35
 11
-43.95
 21
-17.35
  0
LINE
  5
35C
100
AcDbEntity
  8
DRAFT
100
AcDbLine
 62
7
  6
CONTINUOUS
 10
-43.05
 20
-17.35
 11
-43.95
 21
-17.35
  0
LINE
  5
35D
100
AcDbEntity
  8
0
100
AcDbLine
 62
7
  6
CONTINUOUS
 10
-12.882444
 20
-0.375
 11
-12.882444
 21
0.375
  0
LINE
  5
35E
100
AcDbEntity
  8
0
100
AcDbLine
 62
7
  6
CONTINUOUS
 10
-12.482444
 20
-2.5480371177
 11
-12.482444
 21
-1.7972169516
  0
LINE
  5
35F
100
AcDbEntity
  8
0
100
AcDbLine
 62
7
  6
CONTINUOUS
 10
-12.482444
 20
1.79722
 11
-12.482444
 21
2.5480371177
  0
LINE
  5
360
100
AcDbEntity
  8
RACCORDO
100
AcDbLine
 62
253
  6
CONTINUOUS
 10
43.8767800328
 20
-12.1920026021
 11
45.55
 21
-12.1529436477
  0
LINE
  5
361
100
AcDbEntity
  8
RACCORDO
100
AcDbLine
 62
253
  6
CONTINUOUS
 10
-52.2057526327
 20
-13.0026037657
 11
-52.25
 21
-13.0033761064
  0
LINE
  5
362
100
AcDbEntity
  8
RACCORDO
100
AcDbLine
 62
7
  6
CONTINUOUS
 10
51.7500571132
 20
-14.1
 11
45.55
 21
-14.1
  0
LINE
  5
363
100
AcDbEntity
  8
DRAFT
100
AcDbLine
 62
7
  6
CONTINUOUS
 10
41.05
 20
-14.1
 11
-41.05
 21
-14.1
  0
LINE
  5
364
100
AcDbEntity
  8
RACCORDO
100
AcDbLine
 62
7
  6
CONTINUOUS
 10
-45.55
 20
-14.1
 11
-51.7500571132
 21
-14.1
  0
LINE
  5
365
100
AcDbEntity
  8
RACCORDO
100
AcDbLine
 62
253
  6
CONTINUOUS
 10
-51.6996019842
 20
-13.9990820562
 11
-45.55
 21
-13.9990820562
  0
LINE
  5
366
100
AcDbEntity
  8
RACCORDO
100
AcDbLine
 62
253
  6
CONTINUOUS
 10
-41.100455129
 20
-13.9990820562
 11
41.100455129
 21
-13.9990820562
  0
LINE
  5
367
100
AcDbEntity
  8
RACCORDO
100
AcDbLine
 62
253
  6
CONTINUOUS
 10
45.55
 20
-13.9990820562
 11
51.6996019842
 21
-13.9990820562
  0
LINE
  5
368
100
AcDbEntity
  8
RACCORDO
100
AcDbLine
 62
7
  6
CONTINUOUS
 10
45.55
 20
-13.4
 11
43.905948763
 21
-13.4
  0
LINE
  5
369
100
AcDbEntity
  8
RACCORDO
100
AcDbLine
 62
7
  6
CONTINUOUS
 10
-43.905948763
 20
-13.4
 11
-45.55
 21
-13.4
  0
LINE
  5
36A
100
AcDbEntity
  8
RACCORDO
100
AcDbLine
 62
253
  6
CONTINUOUS
 10
-51.6792900582
 20
-13.2251222567
 11
-45.55
 21
-13.2251222567
  0
LINE
  5
36B
100
AcDbEntity
  8
RACCORDO
100
AcDbLine
 62
253
  6
CONTINUOUS
 10
-41.1230239357
 20
-13.2251222567
 11
41.1230239357
 21
-13.2251222567
  0
LINE
  5
36C
100
AcDbEntity
  8
RACCORDO
100
AcDbLine
 62
253
  6
CONTINUOUS
 10
45.55
 20
-13.2251222567
 11
51.6792900582
 21
-13.2251222567
  0
LINE
  5
36D
100
AcDbEntity
  8
RACCORDO
100
AcDbLine
 62
253
  6
CONTINUOUS
 10
45.55
 20
-12.6857142857
 11
43.8834736421
 21
-12.6857142857
  0
LINE
  5
36E
100
AcDbEntity
  8
RACCORDO
100
AcDbLine
 62
253
  6
CONTINUOUS
 10
-43.8834736421
 20
-12.6857142857
 11
-45.55
 21
-12.6857142857
  0
LINE
  5
36F
100
AcDbEntity
  8
RACCORDO
100
AcDbLine
 62
253
  6
CONTINUOUS
 10
52.25
 20
-13.0033761064
 11
52.2057526327
 21
-13.0026037657
  0
LINE
  5
370
100
AcDbEntity
  8
RACCORDO
100
AcDbLine
 62
253
  6
CONTINUOUS
 10
-45.55
 20
-12.1529436477
 11
-43.8767800327
 21
-12.1920026021
  0
LINE
  5
371
100
AcDbEntity
  8
0
100
AcDbLine
 62
7
  6
CONTINUOUS
 10
35.5625
 20
-1.1170212775
 11
35.3124995232
 21
-1.1808510572
  0
LINE
  5
372
100
AcDbEntity
  8
0
100
AcDbLine
 62
7
  6
CONTINUOUS
 10
34.6875004768
 20
0.0319148898
 11
34.9374995232
 21
0.0957446694
  0
LINE
  5
373
100
AcDbEntity
  8
0
100
AcDbLine
 62
7
  6
CONTINUOUS
 10
30.0625002384
 20
-1.1170212775
 11
29.8124997616
 21
-1.1808510572
  0
LINE
  5
374
100
AcDbEntity
  8
0
100
AcDbLine
 62
7
  6
CONTINUOUS
 10
27.125
 20
-1.5
 11
27.3749997616
 21
-1.4361702148
  0
LINE
  5
375
100
AcDbEntity
  8
0
100
AcDbLine
 62
7
  6
CONTINUOUS
 10
29.1875
 20
0.0319148898
 11
29.4374997616
 21
0.0957446694
  0
LINE
  5
376
100
AcDbEntity
  8
0
100
AcDbLine
 62
7
  6
CONTINUOUS
 10
24.5625001192
 20
-1.1170212775
 11
24.3125
 21
-1.1808510572
  0
LINE
  5
377
100
AcDbEntity
  8
0
100
AcDbLine
 62
7
  6
CONTINUOUS
 10
35.3124995232
 20
-1.5
 11
35.6250004768
 21
-1.4361702148
  0
LINE
  5
378
100
AcDbEntity
  8
0
100
AcDbLine
 62
7
  6
CONTINUOUS
 10
32.4999995232
 20
-1.5
 11
32.8125004768
 21
-1.4361702148
  0
LINE
  5
379
100
AcDbEntity
  8
0
100
AcDbLine
 62
7
  6
CONTINUOUS
 10
29.8124997616
 20
-1.5
 11
30.125
 21
-1.4361702148
  0
LINE
  5
37A
100
AcDbEntity
  8
RACCORDO
100
AcDbLine
 62
7
  6
CONTINUOUS
 10
-45.55
 20
-10.0
 11
-43.8655493294
 21
-10.0
  0
LINE
  5
37B
100
AcDbEntity
  8
RACCORDO
100
AcDbLine
 62
7
  6
CONTINUOUS
 10
43.8655493294
 20
-10.0
 11
45.55
 21
-10.0
  0
LINE
  5
37C
100
AcDbEntity
  8
0
100
AcDbLine
 62
7
  6
CONTINUOUS
 10
23.6874998808
 20
0.0319148898
 11
23.9375
 21
0.0957446694
  0
LINE
  5
37D
100
AcDbEntity
  8
0
100
AcDbLine
 62
7
  6
CONTINUOUS
 10
32.4999995232
 20
-0.414893657
 11
32.8125004768
 21
-0.3510637879
  0
LINE
  5
37E
100
AcDbEntity
  8
0
100
AcDbLine
 62
7
  6
CONTINUOUS
 10
34.9374995232
 20
0.4148935676
 11
34.625
 21
0.3510637879
  0
LINE
  5
37F
100
AcDbEntity
  8
0
100
AcDbLine
 62
7
  6
CONTINUOUS
 10
27.3749997616
 20
-1.1170212775
 11
27.0625002384
 21
-1.1808510572
  0
LINE
  5
380
100
AcDbEntity
  8
0
100
AcDbLine
 62
7
  6
CONTINUOUS
 10
24.3125
 20
-1.5
 11
24.6249998808
 21
-1.4361702148
  0
LINE
  5
381
100
AcDbEntity
  8
0
100
AcDbLine
 62
7
  6
CONTINUOUS
 10
29.4374997616
 20
0.4148935676
 11
29.1250002384
 21
0.3510637879
  0
LINE
  5
382
100
AcDbEntity
  8
0
100
AcDbLine
 62
7
  6
CONTINUOUS
 10
32.1875
 20
1.5
 11
31.8749997616
 21
1.4361702204
  0
LINE
  5
383
100
AcDbEntity
  8
0
100
AcDbLine
 62
7
  6
CONTINUOUS
 10
23.9375
 20
0.4148935676
 11
23.6250001192
 21
0.3510637879
  0
LINE
  5
384
100
AcDbEntity
  8
0
100
AcDbLine
 62
7
  6
CONTINUOUS
 10
26.4374997616
 20
1.1170213223
 11
26.75
 21
1.1808511019
  0
LINE
  5
385
100
AcDbEntity
  8
RACCORDO
100
AcDbLine
 62
253
  6
CONTINUOUS
 10
42.3626613104
 20
-5.9907519559
 11
41.7373386896
 21
-5.9907519559
  0
LINE
  5
386
100
AcDbEntity
  8
RACCORDO
100
AcDbLine
 62
253
  6
CONTINUOUS
 10
-41.7373386896
 20
-5.9907519559
 11
-42.3626613104
 21
-5.9907519559
  0
LINE
  5
387
100
AcDbEntity
  8
RACCORDO
100
AcDbLine
 62
253
  6
CONTINUOUS
 10
41.2402837955
 20
-3.3574543928
 11
42.8597162045
 21
-3.3574543928
  0
LINE
  5
388
100
AcDbEntity
  8
RACCORDO
100
AcDbLine
 62
253
  6
CONTINUOUS
 10
-41.2402837955
 20
-3.3574543928
 11
-42.8597162045
 21
-3.3574543928
  0
LINE
  5
389
100
AcDbEntity
  8
0
100
AcDbLine
 62
7
  6
CONTINUOUS
 10
-3.411332
 20
-2.63767
 11
-5.091325
 21
2.661666
  0
LINE
  5
38A
100
AcDbEntity
  8
0
100
AcDbLine
 62
7
  6
CONTINUOUS
 10
-0.322587
 20
-2.63767
 11
-0.322587
 21
2.661983
  0
LINE
  5
38B
100
AcDbEntity
  8
0
100
AcDbLine
 62
7
  6
CONTINUOUS
 10
-2.879523
 20
-0.986031
 11
-1.838516
 21
2.661666
  0
LINE
  5
38C
100
AcDbEntity
  8
0
100
AcDbLine
 62
7
  6
CONTINUOUS
 10
-2.436511
 20
-2.63767
 11
-0.733092
 21
2.661666
  0
LWPOLYLINE
  5
38D
100
AcDbEntity
  8
0
100
AcDbPolyline
 62
7
  6
CONTINUOUS
 90
10
 70
0
 10
12.6753759177
 20
1.7588713833
 10
12.7752615708
 20
1.7753876517
 10
12.8743424352
 20
1.7886048001
 10
12.9726185109
 20
1.7985237577
 10
13.0702170131
 20
1.8050981519
 10
13.1670107267
 20
1.8083755368
 10
13.2626180058
 20
1.8084973774
 10
13.3569116354
 20
1.8055107594
 10
13.4500188306
 20
1.7993684008
 10
13.5419395914
 20
1.7900698801
  0
LINE
  5
38E
100
AcDbEntity
  8
0
100
AcDbLine
 62
7
  6
CONTINUOUS
 10
26.8124997616
 20
1.5
 11
26.375
 21
1.4361702204
  0
LINE
  5
38F
100
AcDbEntity
  8
0
100
AcDbLine
 62
7
  6
CONTINUOUS
 10
-16.9819864558
 20
-1.7999420637
 11
-16.867554
 21
-1.79722
  0
LINE
  5
390
100
AcDbEntity
  8
0
100
AcDbLine
 62
7
  6
CONTINUOUS
 10
-27.218085
 20
-2.713029
 11
-27.495028
 21
-2.713029
  0
LINE
  5
391
100
AcDbEntity
  8
0
100
AcDbLine
 62
7
  6
CONTINUOUS
 10
-27.963451
 20
-2.713029
 11
-29.279472
 21
-2.713029
  0
LINE
  5
392
100
AcDbEntity
  8
0
100
AcDbLine
 62
7
  6
CONTINUOUS
 10
-29.533697
 20
-2.713029
 11
-29.836063
 21
-2.713029
  0
LINE
  5
393
100
AcDbEntity
  8
0
100
AcDbLine
 62
7
  6
CONTINUOUS
 10
-31.075275
 20
-2.713029
 11
-31.360332
 21
-2.713029
  0
LINE
  5
394
100
AcDbEntity
  8
0
100
AcDbLine
 62
7
  6
CONTINUOUS
 10
-31.791973
 20
-2.713029
 11
-32.068916
 21
-2.713029
  0
LINE
  5
395
100
AcDbEntity
  8
0
100
AcDbLine
 62
7
  6
CONTINUOUS
 10
-33.059853
 20
-2.713029
 11
-33.336797
 21
-2.713029
  0
LINE
  5
396
100
AcDbEntity
  8
0
100
AcDbLine
 62
7
  6
CONTINUOUS
 10
15.4700320112
 20
-2.6376700585
 11
14.4060161292
 21
-2.6376700585
  0
LINE
  5
397
100
AcDbEntity
  8
0
100
AcDbLine
 62
7
  6
CONTINUOUS
 10
12.712055158
 20
-2.6376700585
 11
11.6103268177
 21
-2.6376700585
  0
LINE
  5
398
100
AcDbEntity
  8
0
100
AcDbLine
 62
7
  6
CONTINUOUS
 10
11.285499
 20
-2.63767
 11
10.119632
 21
-2.63767
  0
LINE
  5
399
100
AcDbEntity
  8
0
100
AcDbLine
 62
7
  6
CONTINUOUS
 10
8.021404
 20
-2.63767
 11
6.927226
 21
-2.63767
  0
LINE
  5
39A
100
AcDbEntity
  8
0
100
AcDbLine
 62
7
  6
CONTINUOUS
 10
6.753527
 20
-2.63767
 11
5.67139
 21
-2.63767
  0
LINE
  5
39B
100
AcDbEntity
  8
0
100
AcDbLine
 62
7
  6
CONTINUOUS
 10
4.128874
 20
-2.63767
 11
3.973733
 21
-2.63767
  0
LINE
  5
39C
100
AcDbEntity
  8
0
100
AcDbLine
 62
7
  6
CONTINUOUS
 10
2.437338
 20
-2.63767
 11
1.379084
 21
-2.63767
  0
LINE
  5
39D
100
AcDbEntity
  8
0
100
AcDbLine
 62
7
  6
CONTINUOUS
 10
0.783593
 20
-2.63767
 11
-0.322587
 21
-2.63767
  0
LINE
  5
39E
100
AcDbEntity
  8
0
100
AcDbLine
 62
7
  6
CONTINUOUS
 10
-2.436511
 20
-2.63767
 11
-3.411332
 21
-2.63767
  0
LINE
  5
39F
100
AcDbEntity
  8
0
100
AcDbLine
 62
7
  6
CONTINUOUS
 10
-27.963451
 20
-2.467458
 11
-29.002529
 21
-2.467458
  0
LINE
  5
3A0
100
AcDbEntity
  8
0
100
AcDbLine
 62
7
  6
CONTINUOUS
 10
-30.038902
 20
-2.116411
 11
-30.861077
 21
-2.116411
  0
LINE
  5
3A1
100
AcDbEntity
  8
0
100
AcDbLine
 62
7
  6
CONTINUOUS
 10
-30.138428
 20
-1.870841
 11
-30.775614
 21
-1.870841
  0
LINE
  5
3A2
100
AcDbEntity
  8
0
100
AcDbLine
 62
7
  6
CONTINUOUS
 10
9.833073
 20
-1.579734
 11
8.326641
 21
-1.579734
  0
LINE
  5
3A3
100
AcDbEntity
  8
0
100
AcDbLine
 62
7
  6
CONTINUOUS
 10
21.0000000298
 20
-1.5
 11
21.5
 21
-1.5
  0
LINE
  5
3A4
100
AcDbEntity
  8
0
100
AcDbLine
 62
7
  6
CONTINUOUS
 10
23.9375
 20
-1.5
 11
24.3125
 21
-1.5
  0
LINE
  5
3A5
100
AcDbEntity
  8
0
100
AcDbLine
 62
7
  6
CONTINUOUS
 10
26.6249997616
 20
-1.5
 11
27.125
 21
-1.5
  0
LINE
  5
3A6
100
AcDbEntity
  8
0
100
AcDbLine
 62
7
  6
CONTINUOUS
 10
29.4374997616
 20
-1.5
 11
29.8124997616
 21
-1.5
  0
LINE
  5
3A7
100
AcDbEntity
  8
0
100
AcDbLine
 62
7
  6
CONTINUOUS
 10
32.2500004768
 20
-1.5
 11
32.4999995232
 21
-1.5
  0
LINE
  5
3A8
100
AcDbEntity
  8
0
100
AcDbLine
 62
7
  6
CONTINUOUS
 10
34.9374995232
 20
-1.5
 11
35.3124995232
 21
-1.5
  0
LINE
  5
3A9
100
AcDbEntity
  8
0
100
AcDbLine
 62
7
  6
CONTINUOUS
 10
35.3124995232
 20
-1.1808510572
 11
34.9374995232
 21
-1.1808510572
  0
LINE
  5
3AA
100
AcDbEntity
  8
0
100
AcDbLine
 62
7
  6
CONTINUOUS
 10
32.5625
 20
-1.1808510572
 11
32.1875
 21
-1.1808510572
  0
LINE
  5
3AB
100
AcDbEntity
  8
0
100
AcDbLine
 62
7
  6
CONTINUOUS
 10
29.8124997616
 20
-1.1808510572
 11
29.4374997616
 21
-1.1808510572
  0
LINE
  5
3AC
100
AcDbEntity
  8
0
100
AcDbLine
 62
7
  6
CONTINUOUS
 10
27.0625002384
 20
-1.1808510572
 11
26.6875002384
 21
-1.1808510572
  0
LINE
  5
3AD
100
AcDbEntity
  8
0
100
AcDbLine
 62
7
  6
CONTINUOUS
 10
24.3125
 20
-1.1808510572
 11
23.9375
 21
-1.1808510572
  0
LINE
  5
3AE
100
AcDbEntity
  8
0
100
AcDbLine
 62
7
  6
CONTINUOUS
 10
-31.097993
 20
-0.909113
 11
-31.791973
 21
-0.909113
  0
LINE
  5
3AF
100
AcDbEntity
  8
0
100
AcDbLine
 62
7
  6
CONTINUOUS
 10
-32.068916
 20
-0.909113
 11
-32.762356
 21
-0.909113
  0
LINE
  5
3B0
100
AcDbEntity
  8
0
100
AcDbLine
 62
7
  6
CONTINUOUS
 10
31.6874997616
 20
-0.7978723347
 11
31.3750002384
 21
-0.7978723347
  0
LINE
  5
3B1
100
AcDbEntity
  8
0
100
AcDbLine
 62
7
  6
CONTINUOUS
 10
26.0624997616
 20
-0.7978723347
 11
25.7499998808
 21
-0.7978723347
  0
LINE
  5
3B2
100
AcDbEntity
  8
0
100
AcDbLine
 62
7
  6
CONTINUOUS
 10
9.612004
 20
-0.761108
 11
8.552915
 21
-0.761108
  0
LINE
  5
3B3
100
AcDbEntity
  8
0
100
AcDbLine
 62
7
  6
CONTINUOUS
 10
34.3749995232
 20
-0.7340425551
 11
33.9999995232
 21
-0.7340425551
  0
LINE
  5
3B4
100
AcDbEntity
  8
0
100
AcDbLine
 62
7
  6
CONTINUOUS
 10
28.8749997616
 20
-0.7340425551
 11
28.4999997616
 21
-0.7340425551
  0
LINE
  5
3B5
100
AcDbEntity
  8
0
100
AcDbLine
 62
7
  6
CONTINUOUS
 10
23.375
 20
-0.7340425551
 11
23.0
 21
-0.7340425551
  0
LINE
  5
3B6
100
AcDbEntity
  8
0
100
AcDbLine
 62
7
  6
CONTINUOUS
 10
-26.444592
 20
-0.663001
 11
-26.769675
 21
-0.663001
  0
LINE
  5
3B7
100
AcDbEntity
  8
0
100
AcDbLine
 62
7
  6
CONTINUOUS
 10
-27.946142
 20
-0.663001
 11
-28.268521
 21
-0.663001
  0
LINE
  5
3B8
100
AcDbEntity
  8
0
100
AcDbLine
 62
7
  6
CONTINUOUS
 10
-29.002529
 20
-0.663001
 11
-29.279472
 21
-0.663001
  0
LINE
  5
3B9
100
AcDbEntity
  8
0
100
AcDbLine
 62
7
  6
CONTINUOUS
 10
-30.275818
 20
-0.663001
 11
-30.589543
 21
-0.663001
  0
LINE
  5
3BA
100
AcDbEntity
  8
0
100
AcDbLine
 62
7
  6
CONTINUOUS
 10
-31.097993
 20
-0.663001
 11
-32.762356
 21
-0.663001
  0
LINE
  5
3BB
100
AcDbEntity
  8
0
100
AcDbLine
 62
7
  6
CONTINUOUS
 10
-33.059853
 20
-0.663001
 11
-33.336797
 21
-0.663001
  0
LINE
  5
3BC
100
AcDbEntity
  8
0
100
AcDbLine
 62
7
  6
CONTINUOUS
 10
13.3051620502
 20
-0.5638027631
 11
12.712055158
 21
-0.5638027631
  0
LINE
  5
3BD
100
AcDbEntity
  8
0
100
AcDbLine
 62
7
  6
CONTINUOUS
 10
32.1875
 20
-0.414893657
 11
32.4999995232
 21
-0.414893657
  0
LINE
  5
3BE
100
AcDbEntity
  8
0
100
AcDbLine
 62
7
  6
CONTINUOUS
 10
-12.882444
 20
-0.375
 11
-14.342945
 21
-0.375
  0
LINE
  5
3BF
100
AcDbEntity
  8
0
100
AcDbLine
 62
7
  6
CONTINUOUS
 10
23.0
 20
-0.1595744491
 11
23.4375001192
 21
-0.1595744491
  0
LINE
  5
3C0
100
AcDbEntity
  8
0
100
AcDbLine
 62
7
  6
CONTINUOUS
 10
28.4999997616
 20
-0.1595744491
 11
28.9375002384
 21
-0.1595744491
  0
LINE
  5
3C1
100
AcDbEntity
  8
0
100
AcDbLine
 62
7
  6
CONTINUOUS
 10
33.9999995232
 20
-0.1595744491
 11
34.4375
 21
-0.1595744491
  0
LINE
  5
3C2
100
AcDbEntity
  8
0
100
AcDbLine
 62
7
  6
CONTINUOUS
 10
32.5625
 20
-0.0957446694
 11
32.1249995232
 21
-0.0957446694
  0
LINE
  5
3C3
100
AcDbEntity
  8
0
100
AcDbLine
 62
7
  6
CONTINUOUS
 10
26.75
 20
-0.0957446694
 11
26.9999997616
 21
-0.0957446694
  0
LINE
  5
3C4
100
AcDbEntity
  8
0
100
AcDbLine
 62
7
  6
CONTINUOUS
 10
23.9375
 20
0.0957446694
 11
24.3125
 21
0.0957446694
  0
LINE
  5
3C5
100
AcDbEntity
  8
0
100
AcDbLine
 62
7
  6
CONTINUOUS
 10
29.4374997616
 20
0.0957446694
 11
29.8124997616
 21
0.0957446694
  0
LINE
  5
3C6
100
AcDbEntity
  8
0
100
AcDbLine
 62
7
  6
CONTINUOUS
 10
34.9374995232
 20
0.0957446694
 11
35.3124995232
 21
0.0957446694
  0
LINE
  5
3C7
100
AcDbEntity
  8
0
100
AcDbLine
 62
7
  6
CONTINUOUS
 10
26.9999997616
 20
0.1595744491
 11
26.75
 21
0.1595744491
  0
LINE
  5
3C8
100
AcDbEntity
  8
0
100
AcDbLine
 62
7
  6
CONTINUOUS
 10
13.3075463996
 20
0.3041003877
 11
12.6753759177
 21
0.3041003877
  0
LINE
  5
3C9
100
AcDbEntity
  8
0
100
AcDbLine
 62
7
  6
CONTINUOUS
 10
-12.882444
 20
0.375
 11
-14.342948112
 21
0.375
  0
LINE
  5
3CA
100
AcDbEntity
  8
0
100
AcDbLine
 62
7
  6
CONTINUOUS
 10
35.3124995232
 20
0.4148935676
 11
34.9374995232
 21
0.4148935676
  0
LINE
  5
3CB
100
AcDbEntity
  8
0
100
AcDbLine
 62
7
  6
CONTINUOUS
 10
29.8124997616
 20
0.4148935676
 11
29.4374997616
 21
0.4148935676
  0
LINE
  5
3CC
100
AcDbEntity
  8
0
100
AcDbLine
 62
7
  6
CONTINUOUS
 10
24.3125
 20
0.4148935676
 11
23.9375
 21
0.4148935676
  0
LWPOLYLINE
  5
3CD
100
AcDbEntity
  8
0
100
AcDbPolyline
 62
7
  6
CONTINUOUS
 90
22
 70
0
 10
13.3051620502
 20
-0.5638027631
 10
13.3445226183
 20
-0.5648749278
 10
13.383483524
 20
-0.5683216986
 10
13.4220447674
 20
-0.5741430198
 10
13.4603957371
 20
-0.582296356
 10
13.4983470445
 20
-0.5928240122
 10
13.5353305239
 20
-0.6058531207
 10
13.5713199848
 20
-0.6215286209
 10
13.6063416178
 20
-0.6397050165
 10
13.6399058289
 20
-0.6600737316
 10
13.6718779571
 20
-0.6827192021
 10
13.7023926634
 20
-0.7075561551
 10
13.7313643371
 20
-0.7340215158
 10
13.7587623506
 20
-0.7620613711
 10
13.7846173314
 20
-0.7917286987
 10
13.8089355516
 20
-0.8226209083
 10
13.8317349208
 20
-0.8546973494
 10
13.8529975294
 20
-0.8879976688
 10
13.8726759197
 20
-0.922239866
 10
13.8907542725
 20
-0.9573296325
 10
13.907248407
 20
-0.9933602424
 10
13.9221583233
 20
-1.0303311103
  0
LINE
  5
3CE
100
AcDbEntity
  8
0
100
AcDbLine
 62
7
  6
CONTINUOUS
 10
-2.879523
 20
-0.986031
 11
-3.889672
 21
2.661666
  0
LINE
  5
3CF
100
AcDbEntity
  8
0
100
AcDbLine
 62
7
  6
CONTINUOUS
 10
0.783593
 20
-2.63767
 11
0.783593
 21
2.661983
  0
LINE
  5
3D0
100
AcDbEntity
  8
0
100
AcDbLine
 62
7
  6
CONTINUOUS
 10
2.437338
 20
-2.63767
 11
2.676051
 21
0.822696
  0
LINE
  5
3D1
100
AcDbEntity
  8
0
100
AcDbLine
 62
7
  6
CONTINUOUS
 10
1.379084
 20
-2.63767
 11
1.857583
 21
2.661666
  0
LINE
  5
3D2
100
AcDbEntity
  8
0
100
AcDbLine
 62
7
  6
CONTINUOUS
 10
4.057344
 20
-0.280542
 11
5.163523
 21
2.661666
  0
LWPOLYLINE
  5
3D3
100
AcDbEntity
  8
0
100
AcDbPolyline
 62
7
  6
CONTINUOUS
 90
4
 70
0
 10
14.4542594637
 20
-0.1326726677
 10
14.4698327233
 20
-0.1281168396
 10
14.4851776985
 20
-0.1225795837
 10
14.5002943892
 20
-0.1160608925
  0
LINE
  5
3D4
100
AcDbEntity
  8
0
100
AcDbLine
 62
7
  6
CONTINUOUS
 10
-24.304773
 20
0.667624
 11
-24.616334
 21
0.667624
  0
LINE
  5
3D5
100
AcDbEntity
  8
0
100
AcDbLine
 62
7
  6
CONTINUOUS
 10
-25.664066
 20
0.667624
 11
-25.932355
 21
0.667624
  0
LINE
  5
3D6
100
AcDbEntity
  8
0
100
AcDbLine
 62
7
  6
CONTINUOUS
 10
-26.406187
 20
0.667624
 11
-26.68313
 21
0.667624
  0
LINE
  5
3D7
100
AcDbEntity
  8
0
100
AcDbLine
 62
7
  6
CONTINUOUS
 10
-27.810916
 20
0.667624
 11
-29.323826
 21
0.667624
  0
LINE
  5
3D8
100
AcDbEntity
  8
0
100
AcDbLine
 62
7
  6
CONTINUOUS
 10
-30.568447
 20
0.667624
 11
-31.399277
 21
0.667624
  0
LINE
  5
3D9
100
AcDbEntity
  8
0
100
AcDbLine
 62
7
  6
CONTINUOUS
 10
-31.667565
 20
0.667624
 11
-31.969931
 21
0.667624
  0
LINE
  5
3DA
100
AcDbEntity
  8
0
100
AcDbLine
 62
7
  6
CONTINUOUS
 10
-33.209143
 20
0.667624
 11
-33.494741
 21
0.667624
  0
LINE
  5
3DB
100
AcDbEntity
  8
0
100
AcDbLine
 62
7
  6
CONTINUOUS
 10
-33.740311
 20
0.667624
 11
-34.008059
 21
0.667624
  0
LINE
  5
3DC
100
AcDbEntity
  8
0
100
AcDbLine
 62
7
  6
CONTINUOUS
 10
-34.584663
 20
0.667624
 11
-34.858902
 21
0.667624
  0
LINE
  5
3DD
100
AcDbEntity
  8
0
100
AcDbLine
 62
7
  6
CONTINUOUS
 10
-35.436047
 20
0.667624
 11
-35.703795
 21
0.667624
  0
LINE
  5
3DE
100
AcDbEntity
  8
0
100
AcDbLine
 62
7
  6
CONTINUOUS
 10
25.8125
 20
0.7978724241
 11
26.1250002384
 21
0.7978724241
  0
LINE
  5
3DF
100
AcDbEntity
  8
0
100
AcDbLine
 62
7
  6
CONTINUOUS
 10
-30.60577
 20
0.90454
 11
-31.121793
 21
0.90454
  0
LINE
  5
3E0
100
AcDbEntity
  8
0
100
AcDbLine
 62
7
  6
CONTINUOUS
 10
-27.810916
 20
0.913195
 11
-29.046883
 21
0.913195
  0
LINE
  5
3E1
100
AcDbEntity
  8
0
100
AcDbLine
 62
7
  6
CONTINUOUS
 10
23.3124998808
 20
1.1808511019
 11
25.1250001192
 21
1.1808511019
  0
LINE
  5
3E2
100
AcDbEntity
  8
0
100
AcDbLine
 62
7
  6
CONTINUOUS
 10
26.75
 20
1.1808511019
 11
26.9999997616
 21
1.1808511019
  0
LINE
  5
3E3
100
AcDbEntity
  8
0
100
AcDbLine
 62
7
  6
CONTINUOUS
 10
28.8125
 20
1.1808511019
 11
30.6250002384
 21
1.1808511019
  0
LINE
  5
3E4
100
AcDbEntity
  8
0
100
AcDbLine
 62
7
  6
CONTINUOUS
 10
32.1249995232
 20
1.1808511019
 11
32.5625
 21
1.1808511019
  0
LINE
  5
3E5
100
AcDbEntity
  8
0
100
AcDbLine
 62
7
  6
CONTINUOUS
 10
34.3125004768
 20
1.1808511019
 11
36.125
 21
1.1808511019
  0
LINE
  5
3E6
100
AcDbEntity
  8
0
100
AcDbLine
 62
7
  6
CONTINUOUS
 10
-32.17277
 20
1.264242
 11
-32.994945
 21
1.264242
  0
LINE
  5
3E7
100
AcDbEntity
  8
0
100
AcDbLine
 62
7
  6
CONTINUOUS
 10
36.125
 20
1.5
 11
33.9999995232
 21
1.5
  0
LINE
  5
3E8
100
AcDbEntity
  8
0
100
AcDbLine
 62
7
  6
CONTINUOUS
 10
32.4999995232
 20
1.5
 11
32.1875
 21
1.5
  0
LINE
  5
3E9
100
AcDbEntity
  8
0
100
AcDbLine
 62
7
  6
CONTINUOUS
 10
30.6250002384
 20
1.5
 11
28.4999997616
 21
1.5
  0
LINE
  5
3EA
100
AcDbEntity
  8
0
100
AcDbLine
 62
7
  6
CONTINUOUS
 10
26.9375
 20
1.5
 11
26.8124997616
 21
1.5
  0
LINE
  5
3EB
100
AcDbEntity
  8
0
100
AcDbLine
 62
7
  6
CONTINUOUS
 10
25.1250001192
 20
1.5
 11
23.0
 21
1.5
  0
LINE
  5
3EC
100
AcDbEntity
  8
0
100
AcDbLine
 62
7
  6
CONTINUOUS
 10
22.4999999404
 20
1.5
 11
22.1249999404
 21
1.5
  0
LINE
  5
3ED
100
AcDbEntity
  8
0
100
AcDbLine
 62
7
  6
CONTINUOUS
 10
20.375
 20
1.5
 11
20.0
 21
1.5
  0
LINE
  5
3EE
100
AcDbEntity
  8
0
100
AcDbLine
 62
7
  6
CONTINUOUS
 10
-32.272837
 20
1.509812
 11
-32.908941
 21
1.509812
  0
LINE
  5
3EF
100
AcDbEntity
  8
0
100
AcDbLine
 62
7
  6
CONTINUOUS
 10
-27.925047
 20
1.59798
 11
-29.046883
 21
1.59798
  0
LINE
  5
3F0
100
AcDbEntity
  8
0
100
AcDbLine
 62
7
  6
CONTINUOUS
 10
-27.925047
 20
1.84355
 11
-29.046883
 21
1.84355
  0
LINE
  5
3F1
100
AcDbEntity
  8
0
100
AcDbLine
 62
7
  6
CONTINUOUS
 10
-27.830389
 20
2.47154
 11
-29.046883
 21
2.47154
  0
LINE
  5
3F2
100
AcDbEntity
  8
0
100
AcDbLine
 62
7
  6
CONTINUOUS
 10
-30.60577
 20
2.480195
 11
-31.121793
 21
2.480195
  0
LINE
  5
3F3
100
AcDbEntity
  8
0
100
AcDbLine
 62
7
  6
CONTINUOUS
 10
9.659532
 20
2.661666
 11
8.589436
 21
2.661666
  0
LINE
  5
3F4
100
AcDbEntity
  8
0
100
AcDbLine
 62
7
  6
CONTINUOUS
 10
6.257979
 20
2.661666
 11
5.163523
 21
2.661666
  0
LINE
  5
3F5
100
AcDbEntity
  8
0
100
AcDbLine
 62
7
  6
CONTINUOUS
 10
2.962848
 20
2.661666
 11
1.857583
 21
2.661666
  0
LINE
  5
3F6
100
AcDbEntity
  8
0
100
AcDbLine
 62
7
  6
CONTINUOUS
 10
-0.733092
 20
2.661666
 11
-1.838516
 21
2.661666
  0
LINE
  5
3F7
100
AcDbEntity
  8
0
100
AcDbLine
 62
7
  6
CONTINUOUS
 10
-3.889672
 20
2.661666
 11
-5.091325
 21
2.661666
  0
LINE
  5
3F8
100
AcDbEntity
  8
0
100
AcDbLine
 62
7
  6
CONTINUOUS
 10
0.783593
 20
2.661983
 11
-0.322587
 21
2.661983
  0
LINE
  5
3F9
100
AcDbEntity
  8
0
100
AcDbLine
 62
7
  6
CONTINUOUS
 10
-24.304773
 20
2.717111
 11
-24.573603
 21
2.717111
  0
LINE
  5
3FA
100
AcDbEntity
  8
0
100
AcDbLine
 62
7
  6
CONTINUOUS
 10
-25.604026
 20
2.717111
 11
-25.932355
 21
2.717111
  0
LINE
  5
3FB
100
AcDbEntity
  8
0
100
AcDbLine
 62
7
  6
CONTINUOUS
 10
-26.406187
 20
2.717111
 11
-26.68313
 21
2.717111
  0
LINE
  5
3FC
100
AcDbEntity
  8
0
100
AcDbLine
 62
7
  6
CONTINUOUS
 10
-27.830389
 20
2.717111
 11
-29.323826
 21
2.717111
  0
LINE
  5
3FD
100
AcDbEntity
  8
0
100
AcDbLine
 62
7
  6
CONTINUOUS
 10
-30.568447
 20
2.717111
 11
-31.399277
 21
2.717111
  0
LINE
  5
3FE
100
AcDbEntity
  8
0
100
AcDbLine
 62
7
  6
CONTINUOUS
 10
-32.409686
 20
2.717111
 11
-32.723411
 21
2.717111
  0
LINE
  5
3FF
100
AcDbEntity
  8
0
100
AcDbLine
 62
7
  6
CONTINUOUS
 10
-33.740311
 20
2.717111
 11
-34.13409
 21
2.717111
  0
LINE
  5
400
100
AcDbEntity
  8
0
100
AcDbLine
 62
7
  6
CONTINUOUS
 10
-35.307312
 20
2.717111
 11
-35.703795
 21
2.717111
  0
LINE
  5
401
100
AcDbEntity
  8
RACCORDO
100
AcDbLine
 62
253
  6
CONTINUOUS
 10
41.2402837955
 20
3.3574543928
 11
42.8597162045
 21
3.3574543928
  0
LINE
  5
402
100
AcDbEntity
  8
RACCORDO
100
AcDbLine
 62
253
  6
CONTINUOUS
 10
-41.2402837955
 20
3.3574543928
 11
-42.8597162045
 21
3.3574543928
  0
LWPOLYLINE
  5
403
100
AcDbEntity
  8
0
100
AcDbPolyline
 62
7
  6
CONTINUOUS
 90
22
 70
0
 10
13.5419395914
 20
1.7900698801
 10
13.5903957296
 20
1.7829238463
 10
13.6380684958
 20
1.7727848009
 10
13.6849578901
 20
1.7596520961
 10
13.7313711212
 20
1.7434829973
 10
13.7770009805
 20
1.724318394
 10
13.8209258414
 20
1.7022828648
 10
13.8630934072
 20
1.6773863521
 10
13.9035559748
 20
1.6496162584
 10
13.9415488084
 20
1.6190632592
 10
13.977068655
 20
1.5853601758
 10
14.0101187677
 20
1.5488708216
 10
14.0399441694
 20
1.5107831059
 10
14.0662194022
 20
1.4712615115
 10
14.0892699241
 20
1.4301398587
 10
14.1093171319
 20
1.3881113918
 10
14.1264401531
 20
1.3450700103
 10
14.1405598602
 20
1.3011211083
 10
14.1516602671
 20
1.2572764116
 10
14.1597360452
 20
1.2138737443
 10
14.1647925232
 20
1.1705762463
 10
14.166829701
 20
1.1273843134
  0
LINE
  5
404
100
AcDbEntity
  8
0
100
AcDbLine
 62
7
  6
CONTINUOUS
 10
23.6250001192
 20
-1.4361702148
 11
23.9375
 21
-1.5
  0
LINE
  5
405
100
AcDbEntity
  8
0
100
AcDbLine
 62
7
  6
CONTINUOUS
 10
26.6875002384
 20
-1.1808510572
 11
26.375
 21
-1.1170212775
  0
LINE
  5
406
100
AcDbEntity
  8
0
100
AcDbLine
 62
7
  6
CONTINUOUS
 10
3.973733
 20
-2.63767
 11
2.676051
 21
0.822696
  0
LINE
  5
407
100
AcDbEntity
  8
0
100
AcDbLine
 62
7
  6
CONTINUOUS
 10
4.057344
 20
-0.280542
 11
2.962848
 21
2.661666
  0
LINE
  5
408
100
AcDbEntity
  8
0
100
AcDbLine
 62
7
  6
CONTINUOUS
 10
6.753527
 20
-2.63767
 11
6.257979
 21
2.661666
  0
LINE
  5
409
100
AcDbEntity
  8
0
100
AcDbLine
 62
7
  6
CONTINUOUS
 10
5.67139
 20
-2.63767
 11
5.444121
 21
0.808271
  0
LINE
  5
40A
100
AcDbEntity
  8
0
100
AcDbLine
 62
7
  6
CONTINUOUS
 10
6.927226
 20
-2.63767
 11
8.589436
 21
2.661666
  0
LINE
  5
40B
100
AcDbEntity
  8
0
100
AcDbLine
 62
7
  6
CONTINUOUS
 10
4.128874
 20
-2.63767
 11
5.444121
 21
0.808271
  0
LWPOLYLINE
  5
40C
100
AcDbEntity
  8
0
100
AcDbPolyline
 62
7
  6
CONTINUOUS
 90
64
 70
0
 10
14.5295070756
 20
-0.099724583
 10
14.5594746928
 20
-0.0812841242
 10
14.574950109
 20
-0.0715025453
 10
14.5907344198
 20
-0.0611251862
 10
14.6068533321
 20
-0.0501375614
 10
14.623281139
 20
-0.0385541568
 10
14.6399741356
 20
-0.0262722255
 10
14.6569287237
 20
-0.0132842311
 10
14.6741485016
 20
0.0004022793
 10
14.6916005594
 20
0.0148674237
 10
14.7092801593
 20
0.0301035199
 10
14.7271920392
 20
0.0461182196
 10
14.7453175029
 20
0.0630146347
 10
14.7636629691
 20
0.0807923407
 10
14.7822220192
 20
0.0994516971
 10
14.8009567008
 20
0.1190969785
 10
14.819868765
 20
0.1397197717
 10
14.8389564607
 20
0.1613283679
 10
14.8581765825
 20
0.1840520746
 10
14.8775476459
 20
0.2078764513
 10
14.8970511353
 20
0.2328157236
 10
14.9165882994
 20
0.259042156
 10
14.9361851341
 20
0.2865401743
 10
14.9558156434
 20
0.3153249838
 10
14.9753030883
 20
0.3456149433
 10
14.9946665985
 20
0.3774049058
 10
15.0138870443
 20
0.4106993922
 10
15.032730297
 20
0.4457311365
 10
15.0512176486
 20
0.4825025579
 10
15.0693278071
 20
0.5210101997
 10
15.0867627673
 20
0.5614777885
 10
15.1035528554
 20
0.6039063022
 10
15.1196677451
 20
0.6482930977
 10
15.1347184525
 20
0.6948561857
 10
15.1487320378
 20
0.7436062543
 10
15.1616814409
 20
0.7945300136
 10
15.1730964974
 20
0.8478091098
 10
15.1829981025
 20
0.9034589818
 10
15.191365361
 20
0.9614602712
 10
15.1976654235
 20
1.0219419198
 10
15.2019486323
 20
1.0848978845
 10
15.204164645
 20
1.1503285476
 10
15.2036295852
 20
1.2183718232
 10
15.2006152122
 20
1.2890266366
 10
15.1948497667
 20
1.3622860318
 10
15.184834095
 20
1.4382782124
 10
15.1705656262
 20
1.5176592217
 10
15.1520469312
 20
1.5997612053
 10
15.1277865692
 20
1.6827284136
 10
15.0970602661
 20
1.7672431495
 10
15.0605922962
 20
1.8526145064
 10
15.0190640411
 20
1.9349367595
 10
14.9717753004
 20
2.0137753138
 10
14.9194262747
 20
2.0895723833
 10
14.8647989473
 20
2.1597499335
 10
14.8081511017
 20
2.2233605429
 10
14.7492249544
 20
2.2813698384
 10
14.6900291386
 20
2.3340734456
 10
14.6309739538
 20
2.3814207819
 10
14.5716491005
 20
2.4234764581
 10
14.5128323138
 20
2.4607071695
 10
14.4547828387
 20
2.4932714963
 10
14.3972414301
 20
2.5210204835
 10
14.3402080881
 20
2.5439581346
  0
LWPOLYLINE
  5
40D
100
AcDbEntity
  8
0
100
AcDbPolyline
 62
7
  6
CONTINUOUS
 90
3
 70
0
 10
14.5002943892
 20
-0.1160608925
 10
14.5150148746
 20
-0.1083834641
 10
14.5295070756
 20
-0.099724583
  0
LINE
  5
40E
100
AcDbEntity
  8
RACCORDO
100
AcDbLine
 62
253
  6
CONTINUOUS
 10
-42.3626613104
 20
5.9907519559
 11
-41.7373386896
 21
5.9907519559
  0
LINE
  5
40F
100
AcDbEntity
  8
RACCORDO
100
AcDbLine
 62
253
  6
CONTINUOUS
 10
41.7373386896
 20
5.9907519559
 11
42.3626613104
 21
5.9907519559
  0
LINE
  5
410
100
AcDbEntity
  8
0
100
AcDbLine
 62
7
  6
CONTINUOUS
 10
27.3749997616
 20
1.4361702204
 11
26.9375
 21
1.5
  0
LINE
  5
411
100
AcDbEntity
  8
0
100
AcDbLine
 62
7
  6
CONTINUOUS
 10
26.9999997616
 20
-0.0957446694
 11
27.3749997616
 21
-0.1595744491
  0
LINE
  5
412
100
AcDbEntity
  8
0
100
AcDbLine
 62
7
  6
CONTINUOUS
 10
29.1250002384
 20
-1.4361702148
 11
29.4374997616
 21
-1.5
  0
LINE
  5
413
100
AcDbEntity
  8
0
100
AcDbLine
 62
7
  6
CONTINUOUS
 10
31.9375002384
 20
-1.4361702148
 11
32.2500004768
 21
-1.5
  0
LINE
  5
414
100
AcDbEntity
  8
0
100
AcDbLine
 62
7
  6
CONTINUOUS
 10
24.6249998808
 20
0.3510637879
 11
24.3125
 21
0.4148935676
  0
LINE
  5
415
100
AcDbEntity
  8
0
100
AcDbLine
 62
7
  6
CONTINUOUS
 10
34.625
 20
-1.4361702148
 11
34.9374995232
 21
-1.5
  0
LINE
  5
416
100
AcDbEntity
  8
0
100
AcDbLine
 62
7
  6
CONTINUOUS
 10
31.8749997616
 20
-0.3510637879
 11
32.1875
 21
-0.414893657
  0
LINE
  5
417
100
AcDbEntity
  8
0
100
AcDbLine
 62
7
  6
CONTINUOUS
 10
30.125
 20
0.3510637879
 11
29.8124997616
 21
0.4148935676
  0
LINE
  5
418
100
AcDbEntity
  8
0
100
AcDbLine
 62
7
  6
CONTINUOUS
 10
26.9999997616
 20
1.1808511019
 11
27.3125
 21
1.1170213223
  0
LINE
  5
419
100
AcDbEntity
  8
0
100
AcDbLine
 62
7
  6
CONTINUOUS
 10
35.6250004768
 20
0.3510637879
 11
35.3124995232
 21
0.4148935676
  0
LINE
  5
41A
100
AcDbEntity
  8
0
100
AcDbLine
 62
7
  6
CONTINUOUS
 10
23.9375
 20
-1.1808510572
 11
23.6874998808
 21
-1.1170212775
  0
LINE
  5
41B
100
AcDbEntity
  8
0
100
AcDbLine
 62
7
  6
CONTINUOUS
 10
26.375
 20
-1.4361702148
 11
26.6249997616
 21
-1.5
  0
LINE
  5
41C
100
AcDbEntity
  8
0
100
AcDbLine
 62
7
  6
CONTINUOUS
 10
24.3125
 20
0.0957446694
 11
24.5625001192
 21
0.0319148898
  0
LINE
  5
41D
100
AcDbEntity
  8
0
100
AcDbLine
 62
7
  6
CONTINUOUS
 10
29.4374997616
 20
-1.1808510572
 11
29.1875
 21
-1.1170212775
  0
LINE
  5
41E
100
AcDbEntity
  8
0
100
AcDbLine
 62
7
  6
CONTINUOUS
 10
29.8124997616
 20
0.0957446694
 11
30.0625002384
 21
0.0319148898
  0
LINE
  5
41F
100
AcDbEntity
  8
0
100
AcDbLine
 62
7
  6
CONTINUOUS
 10
34.9374995232
 20
-1.1808510572
 11
34.6875004768
 21
-1.1170212775
  0
LWPOLYLINE
  5
420
100
AcDbEntity
  8
0
100
AcDbPolyline
 62
7
  6
CONTINUOUS
 90
25
 70
0
 10
14.3402080881
 20
2.5439581346
 10
14.2305391313
 20
2.5795677592
 10
14.1195901342
 20
2.6107893233
 10
14.0073610967
 20
2.6376270488
 10
13.8935057332
 20
2.6596626838
 10
13.7783703294
 20
2.6773214921
 10
13.6629937426
 20
2.691871402
 10
13.5476052469
 20
2.7034807808
 10
13.4319755683
 20
2.7119838801
 10
13.3164557415
 20
2.7181460373
 10
13.2010752323
 20
2.7220937564
 10
13.085804575
 20
2.7237013087
 10
12.9709064081
 20
2.7233551699
 10
12.856501081
 20
2.721060526
 10
12.7424682443
 20
2.7168120185
 10
12.6287094881
 20
2.7109801456
 10
12.5152469813
 20
2.7035788783
 10
12.402058555
 20
2.6945935518
 10
12.2889792917
 20
2.6843517367
 10
12.1760334595
 20
2.672865876
 10
12.0631967904
 20
2.6601226405
 10
11.9502315637
 20
2.6464110881
 10
11.8370585393
 20
2.6318273373
 10
11.7237569573
 20
2.6162744338
 10
11.6103268177
 20
2.5997519086
  0
LINE
  5
421
100
AcDbEntity
  8
0
100
AcDbLine
 62
7
  6
CONTINUOUS
 10
11.6103268177
 20
-2.6376700585
 11
11.6103268177
 21
2.5997519086
  0
LINE
  5
422
100
AcDbEntity
  8
0
100
AcDbLine
 62
7
  6
CONTINUOUS
 10
8.552915
 20
-0.761108
 11
9.1037
 21
1.205543
  0
LINE
  5
423
100
AcDbEntity
  8
0
100
AcDbLine
 62
7
  6
CONTINUOUS
 10
8.021404
 20
-2.63767
 11
8.326641
 21
-1.579734
  0
LINE
  5
424
100
AcDbEntity
  8
0
100
AcDbLine
 62
7
  6
CONTINUOUS
 10
26.375
 20
1.4361702204
 11
26.1250002384
 21
1.3085106611
  0
LINE
  5
425
100
AcDbEntity
  8
0
100
AcDbLine
 62
7
  6
CONTINUOUS
 10
27.3749997616
 20
0.2872340083
 11
26.9999997616
 21
0.1595744491
  0
LINE
  5
426
100
AcDbEntity
  8
0
100
AcDbLine
 62
7
  6
CONTINUOUS
 10
31.9375002384
 20
1.1170213223
 11
32.1249995232
 21
1.1808511019
  0
LINE
  5
427
100
AcDbEntity
  8
0
100
AcDbLine
 62
7
  6
CONTINUOUS
 10
32.75
 20
-0.0319148898
 11
32.5625
 21
-0.0957446694
  0
LINE
  5
428
100
AcDbEntity
  8
0
100
AcDbLine
 62
7
  6
CONTINUOUS
 10
32.75
 20
-1.1170212775
 11
32.5625
 21
-1.1808510572
  0
LINE
  5
429
100
AcDbEntity
  8
RACCORDO
100
AcDbLine
 62
7
  6
CONTINUOUS
 10
45.55
 20
10.0
 11
43.8655493294
 21
10.0
  0
LINE
  5
42A
100
AcDbEntity
  8
RACCORDO
100
AcDbLine
 62
7
  6
CONTINUOUS
 10
-43.8655493294
 20
10.0
 11
-45.55
 21
10.0
  0
LINE
  5
42B
100
AcDbEntity
  8
0
100
AcDbLine
 62
7
  6
CONTINUOUS
 10
32.8125004768
 20
1.4361702204
 11
32.4999995232
 21
1.5
  0
LINE
  5
42C
100
AcDbEntity
  8
0
100
AcDbLine
 62
7
  6
CONTINUOUS
 10
35.3124995232
 20
0.0957446694
 11
35.5625
 21
0.0319148898
  0
LINE
  5
42D
100
AcDbEntity
  8
0
100
AcDbLine
 62
7
  6
CONTINUOUS
 10
32.1875
 20
-1.1808510572
 11
32.0
 21
-1.1170212775
  0
LINE
  5
42E
100
AcDbEntity
  8
0
100
AcDbLine
 62
7
  6
CONTINUOUS
 10
32.1249995232
 20
-0.0957446694
 11
31.9375002384
 21
-0.0319148898
  0
LINE
  5
42F
100
AcDbEntity
  8
0
100
AcDbLine
 62
7
  6
CONTINUOUS
 10
32.5625
 20
1.1808511019
 11
32.75
 21
1.1170213223
  0
LINE
  5
430
100
AcDbEntity
  8
0
100
AcDbLine
 62
7
  6
CONTINUOUS
 10
27.8125002384
 20
-0.0957446694
 11
27.5
 21
0.0319148898
  0
LINE
  5
431
100
AcDbEntity
  8
0
100
AcDbLine
 62
7
  6
CONTINUOUS
 10
26.1250002384
 20
-1.3085106388
 11
26.375
 21
-1.4361702148
  0
LINE
  5
432
100
AcDbEntity
  8
0
100
AcDbLine
 62
7
  6
CONTINUOUS
 10
26.375
 20
-1.1170212775
 11
26.2499997616
 21
-1.0531914979
  0
LINE
  5
433
100
AcDbEntity
  8
0
100
AcDbLine
 62
7
  6
CONTINUOUS
 10
23.3124998808
 20
-1.2446808591
 11
23.6250001192
 21
-1.4361702148
  0
LINE
  5
434
100
AcDbEntity
  8
0
100
AcDbLine
 62
7
  6
CONTINUOUS
 10
11.285499
 20
-2.63767
 11
9.659532
 21
2.661666
  0
LINE
  5
435
100
AcDbEntity
  8
0
100
AcDbLine
 62
7
  6
CONTINUOUS
 10
10.119632
 20
-2.63767
 11
9.833073
 21
-1.579734
  0
LINE
  5
436
100
AcDbEntity
  8
0
100
AcDbLine
 62
7
  6
CONTINUOUS
 10
9.612004
 20
-0.761108
 11
9.1037
 21
1.205543
  0
LWPOLYLINE
  5
437
100
AcDbEntity
  8
0
100
AcDbPolyline
 62
7
  6
CONTINUOUS
 90
34
 70
0
 10
14.166829701
 20
1.1273843134
 10
14.1670511944
 20
1.0864806037
 10
14.1657871479
 20
1.0457468422
 10
14.1630375615
 20
1.0051833915
 10
14.1589312322
 20
0.96472232
 10
14.153339363
 20
0.9244322417
 10
14.1458755627
 20
0.8845184193
 10
14.1365289759
 20
0.8449271292
 10
14.1253104581
 20
0.8057129037
 10
14.1118661837
 20
0.7672436008
 10
14.0960697026
 20
0.7294902319
 10
14.0780474651
 20
0.692482746
 10
14.0578249963
 20
0.6566776459
 10
14.0353303192
 20
0.6220459187
 10
14.0106354109
 20
0.588617589
 10
13.983981728
 20
0.5569379208
 10
13.9553241903
 20
0.5270628122
 10
13.9247078781
 20
0.4989373258
 10
13.8925094883
 20
0.4729405778
 10
13.8586426011
 20
0.4492330859
 10
13.8231936364
 20
0.4276550718
 10
13.7867985512
 20
0.4081051754
 10
13.7495259086
 20
0.3906552416
 10
13.7113071455
 20
0.3752338486
 10
13.6725725296
 20
0.3615246459
 10
13.6334066427
 20
0.34952413
 10
13.593724903
 20
0.3392360125
 10
13.5537038327
 20
0.3303547004
 10
13.5133747949
 20
0.3228487355
 10
13.4727064263
 20
0.3167496713
 10
13.4317811593
 20
0.3118463992
 10
13.3906264712
 20
0.3080685607
 10
13.3492148846
 20
0.305486553
 10
13.3075463996
 20
0.3041003877
  0
LINE
  5
438
100
AcDbEntity
  8
0
100
AcDbLine
 62
7
  6
CONTINUOUS
 10
12.6753759177
 20
0.3041003877
 11
12.6753759177
 21
1.7588713833
  0
LINE
  5
439
100
AcDbEntity
  8
0
100
AcDbLine
 62
7
  6
CONTINUOUS
 10
12.712055158
 20
-2.6376700585
 11
12.712055158
 21
-0.5638027631
  0
LINE
  5
43A
100
AcDbEntity
  8
0
100
AcDbLine
 62
7
  6
CONTINUOUS
 10
14.4542594637
 20
-0.1639871221
 11
14.4542594637
 21
-0.1326726677
  0
LINE
  5
43B
100
AcDbEntity
  8
0
100
AcDbLine
 62
7
  6
CONTINUOUS
 10
23.4375001192
 20
-0.1595744491
 11
23.6874998808
 21
0.0319148898
  0
LINE
  5
43C
100
AcDbEntity
  8
0
100
AcDbLine
 62
7
  6
CONTINUOUS
 10
26.2499997616
 20
0.989361763
 11
26.4374997616
 21
1.1170213223
  0
LINE
  5
43D
100
AcDbEntity
  8
0
100
AcDbLine
 62
7
  6
CONTINUOUS
 10
24.7500001192
 20
-0.9893617183
 11
24.5625001192
 21
-1.1170212775
  0
LINE
  5
43E
100
AcDbEntity
  8
0
100
AcDbLine
 62
7
  6
CONTINUOUS
 10
23.6250001192
 20
0.3510637879
 11
23.3124998808
 21
0.1595744491
  0
LINE
  5
43F
100
AcDbEntity
  8
0
100
AcDbLine
 62
7
  6
CONTINUOUS
 10
24.6249998808
 20
-1.4361702148
 11
24.9375001192
 21
-1.2446808591
  0
LINE
  5
440
100
AcDbEntity
  8
0
100
AcDbLine
 62
7
  6
CONTINUOUS
 10
29.1250002384
 20
0.3510637879
 11
28.8125
 21
0.1595744491
  0
LINE
  5
441
100
AcDbEntity
  8
0
100
AcDbLine
 62
7
  6
CONTINUOUS
 10
27.5
 20
-1.0531914979
 11
27.3749997616
 21
-1.1170212775
  0
LINE
  5
442
100
AcDbEntity
  8
0
100
AcDbLine
 62
7
  6
CONTINUOUS
 10
27.3749997616
 20
-1.4361702148
 11
27.6250002384
 21
-1.3085106388
  0
LINE
  5
443
100
AcDbEntity
  8
RACCORDO
100
AcDbLine
 62
253
  6
CONTINUOUS
 10
-43.8767800329
 20
12.1920026021
 11
-45.55
 21
12.1529436477
  0
LINE
  5
444
100
AcDbEntity
  8
RACCORDO
100
AcDbLine
 62
253
  6
CONTINUOUS
 10
52.2057526327
 20
13.0026037657
 11
52.25
 21
13.0033761064
  0
LINE
  5
445
100
AcDbEntity
  8
RACCORDO
100
AcDbLine
 62
253
  6
CONTINUOUS
 10
45.55
 20
12.6857142857
 11
43.8834736421
 21
12.6857142857
  0
LINE
  5
446
100
AcDbEntity
  8
RACCORDO
100
AcDbLine
 62
253
  6
CONTINUOUS
 10
-43.8834736421
 20
12.6857142857
 11
-45.55
 21
12.6857142857
  0
LINE
  5
447
100
AcDbEntity
  8
RACCORDO
100
AcDbLine
 62
253
  6
CONTINUOUS
 10
-51.6792900582
 20
13.2251222567
 11
-45.55
 21
13.2251222567
  0
LINE
  5
448
100
AcDbEntity
  8
RACCORDO
100
AcDbLine
 62
253
  6
CONTINUOUS
 10
-41.1230239357
 20
13.2251222567
 11
41.1230239357
 21
13.2251222567
  0
LINE
  5
449
100
AcDbEntity
  8
RACCORDO
100
AcDbLine
 62
253
  6
CONTINUOUS
 10
45.55
 20
13.2251222567
 11
51.6792900582
 21
13.2251222567
  0
LINE
  5
44A
100
AcDbEntity
  8
RACCORDO
100
AcDbLine
 62
7
  6
CONTINUOUS
 10
45.55
 20
13.4
 11
43.905948763
 21
13.4
  0
LINE
  5
44B
100
AcDbEntity
  8
RACCORDO
100
AcDbLine
 62
7
  6
CONTINUOUS
 10
-43.905948763
 20
13.4
 11
-45.55
 21
13.4
  0
LINE
  5
44C
100
AcDbEntity
  8
RACCORDO
100
AcDbLine
 62
253
  6
CONTINUOUS
 10
-51.6996019842
 20
13.9990820562
 11
-45.55
 21
13.9990820562
  0
LINE
  5
44D
100
AcDbEntity
  8
RACCORDO
100
AcDbLine
 62
253
  6
CONTINUOUS
 10
-41.100455129
 20
13.9990820562
 11
41.100455129
 21
13.9990820562
  0
LINE
  5
44E
100
AcDbEntity
  8
RACCORDO
100
AcDbLine
 62
253
  6
CONTINUOUS
 10
45.55
 20
13.9990820562
 11
51.6996019842
 21
13.9990820562
  0
LINE
  5
44F
100
AcDbEntity
  8
RACCORDO
100
AcDbLine
 62
7
  6
CONTINUOUS
 10
51.7500571132
 20
14.1
 11
45.55
 21
14.1
  0
LINE
  5
450
100
AcDbEntity
  8
DRAFT
100
AcDbLine
 62
7
  6
CONTINUOUS
 10
41.05
 20
14.1
 11
-41.05
 21
14.1
  0
LINE
  5
451
100
AcDbEntity
  8
RACCORDO
100
AcDbLine
 62
7
  6
CONTINUOUS
 10
-45.55
 20
14.1
 11
-51.7500571132
 21
14.1
  0
LINE
  5
452
100
AcDbEntity
  8
RACCORDO
100
AcDbLine
 62
253
  6
CONTINUOUS
 10
-52.25
 20
13.0033761064
 11
-52.2057526327
 21
13.0026037657
  0
LINE
  5
453
100
AcDbEntity
  8
RACCORDO
100
AcDbLine
 62
253
  6
CONTINUOUS
 10
45.55
 20
12.1529436477
 11
43.8767800327
 21
12.1920026021
  0
LINE
  5
454
100
AcDbEntity
  8
0
100
AcDbLine
 62
7
  6
CONTINUOUS
 10
27.6250002384
 20
1.3085106611
 11
27.3749997616
 21
1.4361702204
  0
LINE
  5
455
100
AcDbEntity
  8
0
100
AcDbLine
 62
7
  6
CONTINUOUS
 10
24.9375001192
 20
0.1595744491
 11
24.6249998808
 21
0.3510637879
  0
LINE
  5
456
100
AcDbEntity
  8
0
100
AcDbLine
 62
7
  6
CONTINUOUS
 10
28.8125
 20
-1.2446808591
 11
29.1250002384
 21
-1.4361702148
  0
LINE
  5
457
100
AcDbEntity
  8
0
100
AcDbLine
 62
7
  6
CONTINUOUS
 10
23.6874998808
 20
-1.1170212775
 11
23.4999998808
 21
-0.9893617183
  0
LINE
  5
458
100
AcDbEntity
  8
0
100
AcDbLine
 62
7
  6
CONTINUOUS
 10
25.9374998808
 20
-1.1808510572
 11
26.1250002384
 21
-1.3085106388
  0
LINE
  5
459
100
AcDbEntity
  8
0
100
AcDbLine
 62
7
  6
CONTINUOUS
 10
24.5625001192
 20
0.0319148898
 11
24.7500001192
 21
-0.0957446694
  0
LINE
  5
45A
100
AcDbEntity
  8
0
100
AcDbLine
 62
7
  6
CONTINUOUS
 10
27.3749997616
 20
-0.1595744491
 11
27.5624997616
 21
-0.2872340083
  0
LWPOLYLINE
  5
45B
100
AcDbEntity
  8
0
100
AcDbPolyline
 62
7
  6
CONTINUOUS
 90
5
 70
0
 10
13.9221583233
 20
-1.0303311103
 10
13.9596105509
 20
-1.1430445122
 10
13.9973512017
 20
-1.2597933138
 10
14.0353802756
 20
-1.3805642344
 10
14.0734906314
 20
-1.5054494727
  0
LINE
  5
45C
100
AcDbEntity
  8
0
100
AcDbLine
 62
7
  6
CONTINUOUS
 10
14.0734906314
 20
-1.5054494727
 11
14.2752044162
 21
-2.1858112851
  0
LINE
  5
45D
100
AcDbEntity
  8
0
100
AcDbLine
 62
7
  6
CONTINUOUS
 10
14.2752044162
 20
-2.1858112851
 11
14.4060161292
 21
-2.6376700585
  0
LWPOLYLINE
  5
45E
100
AcDbEntity
  8
0
100
AcDbPolyline
 62
7
  6
CONTINUOUS
 90
29
 70
0
 10
15.0425446952
 20
-1.0219999473
 10
15.0322356805
 20
-0.9858371308
 10
15.0216097146
 20
-0.9496956416
 10
15.010665726
 20
-0.9135844334
 10
14.9991653984
 20
-0.8775097877
 10
14.9870917971
 20
-0.8414225436
 10
14.9744618568
 20
-0.805372256
 10
14.9610880645
 20
-0.7695133352
 10
14.9469435122
 20
-0.733819476
 10
14.9320551081
 20
-0.6983174722
 10
14.9163160633
 20
-0.6632414991
 10
14.8997168149
 20
-0.6286243272
 10
14.8822669258
 20
-0.5944337672
 10
14.8638882963
 20
-0.5608066382
 10
14.8446045638
 20
-0.527760629
 10
14.8243920908
 20
-0.4952786022
 10
14.8031018651
 20
-0.4634451632
 10
14.7807331547
 20
-0.4322018829
 10
14.7572866917
 20
-0.4016076612
 10
14.7326156595
 20
-0.371923126
 10
14.7066927374
 20
-0.3430835258
 10
14.6795452461
 20
-0.3151540438
 10
14.6511083317
 20
-0.2885902657
 10
14.6213240718
 20
-0.2633523977
 10
14.5902503887
 20
-0.239480615
 10
14.557996195
 20
-0.2175505061
 10
14.5245977951
 20
-0.1977540448
 10
14.4900188846
 20
-0.1798995497
 10
14.4542594637
 20
-0.1639871221
  0
LINE
  5
45F
100
AcDbEntity
  8
0
100
AcDbLine
 62
7
  6
CONTINUOUS
 10
15.0723472781
 20
-1.1307340471
 11
15.0425446952
 21
-1.0219999473
  0
LINE
  5
460
100
AcDbEntity
  8
0
100
AcDbLine
 62
7
  6
CONTINUOUS
 10
15.2255406505
 20
-1.7046215194
 11
15.0723472781
 21
-1.1307340471
  0
LINE
  5
461
100
AcDbEntity
  8
0
100
AcDbLine
 62
7
  6
CONTINUOUS
 10
15.4700320112
 20
-2.6376700585
 11
15.2255406505
 21
-1.7046215194
  0
LINE
  5
462
100
AcDbEntity
  8
0
100
AcDbLine
 62
7
  6
CONTINUOUS
 10
26.1250002384
 20
1.3085106611
 11
25.8750001192
 21
1.0531915426
  0
LINE
  5
463
100
AcDbEntity
  8
0
100
AcDbLine
 62
7
  6
CONTINUOUS
 10
27.5
 20
0.0319148898
 11
27.7499997616
 21
0.2234042287
  0
LINE
  5
464
100
AcDbEntity
  8
0
100
AcDbLine
 62
7
  6
CONTINUOUS
 10
28.9375002384
 20
-0.1595744491
 11
29.1875
 21
0.0319148898
  0
LINE
  5
465
100
AcDbEntity
  8
0
100
AcDbLine
 62
7
  6
CONTINUOUS
 10
27.6250002384
 20
-1.3085106388
 11
27.8125002384
 21
-1.1808510572
  0
LINE
  5
466
100
AcDbEntity
  8
0
100
AcDbLine
 62
7
  6
CONTINUOUS
 10
31.7500002384
 20
0.989361763
 11
31.9375002384
 21
1.1170213223
  0
LINE
  5
467
100
AcDbEntity
  8
0
100
AcDbLine
 62
7
  6
CONTINUOUS
 10
30.2500002384
 20
-0.9893617183
 11
30.0625002384
 21
-1.1170212775
  0
LINE
  5
468
100
AcDbEntity
  8
0
100
AcDbLine
 62
7
  6
CONTINUOUS
 10
32.9375
 20
0.0957446694
 11
32.75
 21
-0.0319148898
  0
LINE
  5
469
100
AcDbEntity
  8
0
100
AcDbLine
 62
7
  6
CONTINUOUS
 10
32.8125004768
 20
-0.3510637879
 11
33.1875004768
 21
-0.0957446694
  0
LINE
  5
46A
100
AcDbEntity
  8
0
100
AcDbLine
 62
7
  6
CONTINUOUS
 10
31.8749997616
 20
1.4361702204
 11
31.5625002384
 21
1.2446808815
  0
LINE
  5
46B
100
AcDbEntity
  8
0
100
AcDbLine
 62
7
  6
CONTINUOUS
 10
30.125
 20
-1.4361702148
 11
30.4375002384
 21
-1.2446808591
  0
LINE
  5
46C
100
AcDbEntity
  8
0
100
AcDbLine
 62
7
  6
CONTINUOUS
 10
34.625
 20
0.3510637879
 11
34.3125004768
 21
0.1595744491
  0
LINE
  5
46D
100
AcDbEntity
  8
0
100
AcDbLine
 62
7
  6
CONTINUOUS
 10
32.8125004768
 20
-1.4361702148
 11
33.125
 21
-1.2446808591
  0
LINE
  5
46E
100
AcDbEntity
  8
0
100
AcDbLine
 62
7
  6
CONTINUOUS
 10
43.95
 20
17.35
 11
43.05
 21
17.35
  0
LINE
  5
46F
100
AcDbEntity
  8
DRAFT
100
AcDbLine
 62
7
  6
CONTINUOUS
 10
43.05
 20
17.35
 11
43.95
 21
17.35
  0
LINE
  5
470
100
AcDbEntity
  8
0
100
AcDbLine
 62
7
  6
CONTINUOUS
 10
-43.05
 20
17.35
 11
-43.95
 21
17.35
  0
LINE
  5
471
100
AcDbEntity
  8
DRAFT
100
AcDbLine
 62
7
  6
CONTINUOUS
 10
-43.05
 20
17.35
 11
-43.95
 21
17.35
  0
LINE
  5
472
100
AcDbEntity
  8
RACCORDO
100
AcDbLine
 62
253
  6
CONTINUOUS
 10
42.4268257341
 20
17.5885545433
 11
41.6731742659
 21
17.5885545433
  0
LINE
  5
473
100
AcDbEntity
  8
RACCORDO
100
AcDbLine
 62
253
  6
CONTINUOUS
 10
-41.6731742659
 20
17.5885545433
 11
-42.4268257341
 21
17.5885545433
  0
LINE
  5
474
100
AcDbEntity
  8
0
100
AcDbLine
 62
7
  6
CONTINUOUS
 10
31.625
 20
-1.2446808591
 11
31.9375002384
 21
-1.4361702148
  0
LINE
  5
475
100
AcDbEntity
  8
0
100
AcDbLine
 62
7
  6
CONTINUOUS
 10
30.4375002384
 20
0.1595744491
 11
30.125
 21
0.3510637879
  0
LINE
  5
476
100
AcDbEntity
  8
0
100
AcDbLine
 62
7
  6
CONTINUOUS
 10
31.5625002384
 20
-0.1595744491
 11
31.8749997616
 21
-0.3510637879
  0
LINE
  5
477
100
AcDbEntity
  8
0
100
AcDbLine
 62
7
  6
CONTINUOUS
 10
34.3125004768
 20
-1.2446808591
 11
34.625
 21
-1.4361702148
  0
LINE
  5
478
100
AcDbEntity
  8
0
100
AcDbLine
 62
7
  6
CONTINUOUS
 10
33.125
 20
1.2446808815
 11
32.8125004768
 21
1.4361702204
  0
LINE
  5
479
100
AcDbEntity
  8
0
100
AcDbLine
 62
7
  6
CONTINUOUS
 10
35.9375
 20
0.1595744491
 11
35.6250004768
 21
0.3510637879
  0
LINE
  5
47A
100
AcDbEntity
  8
0
100
AcDbLine
 62
7
  6
CONTINUOUS
 10
29.1875
 20
-1.1170212775
 11
29.0
 21
-0.9893617183
  0
LINE
  5
47B
100
AcDbEntity
  8
0
100
AcDbLine
 62
7
  6
CONTINUOUS
 10
27.3125
 20
1.1170213223
 11
27.5
 21
0.989361763
  0
LINE
  5
47C
100
AcDbEntity
  8
0
100
AcDbLine
 62
7
  6
CONTINUOUS
 10
30.0625002384
 20
0.0319148898
 11
30.2500002384
 21
-0.0957446694
  0
LINE
  5
47D
100
AcDbEntity
  8
0
100
AcDbLine
 62
7
  6
CONTINUOUS
 10
32.0
 20
-1.1170212775
 11
31.8125
 21
-0.9893617183
  0
LINE
  5
47E
100
AcDbEntity
  8
0
100
AcDbLine
 62
7
  6
CONTINUOUS
 10
31.9375002384
 20
-0.0319148898
 11
31.7500002384
 21
0.0957446694
  0
LINE
  5
47F
100
AcDbEntity
  8
0
100
AcDbLine
 62
7
  6
CONTINUOUS
 10
34.6875004768
 20
-1.1170212775
 11
34.5000004768
 21
-0.9893617183
  0
LINE
  5
480
100
AcDbEntity
  8
0
100
AcDbLine
 62
7
  6
CONTINUOUS
 10
26.2499997616
 20
-1.0531914979
 11
26.1250002384
 21
-0.925531894
  0
LINE
  5
481
100
AcDbEntity
  8
0
100
AcDbLine
 62
7
  6
CONTINUOUS
 10
23.1249998808
 20
-0.9893617183
 11
23.3124998808
 21
-1.2446808591
  0
LINE
  5
482
100
AcDbEntity
  8
0
100
AcDbLine
 62
7
  6
CONTINUOUS
 10
21.5
 20
-1.5
 11
22.4999999404
 21
1.5
  0
LINE
  5
483
100
AcDbEntity
  8
0
100
AcDbLine
 62
7
  6
CONTINUOUS
 10
22.1249999404
 20
1.5
 11
21.2499999702
 21
-1.1170212775
  0
LINE
  5
484
100
AcDbEntity
  8
0
100
AcDbLine
 62
7
  6
CONTINUOUS
 10
24.875
 20
-0.7978723347
 11
24.7500001192
 21
-0.9893617183
  0
LINE
  5
485
100
AcDbEntity
  8
0
100
AcDbLine
 62
7
  6
CONTINUOUS
 10
26.1250002384
 20
0.7978724241
 11
26.2499997616
 21
0.989361763
  0
LINE
  5
486
100
AcDbEntity
  8
0
100
AcDbLine
 62
7
  6
CONTINUOUS
 10
24.9375001192
 20
-1.2446808591
 11
25.1250001192
 21
-0.9893617183
  0
LINE
  5
487
100
AcDbEntity
  8
0
100
AcDbLine
 62
7
  6
CONTINUOUS
 10
27.5
 20
0.4148935676
 11
27.3749997616
 21
0.2872340083
  0
LINE
  5
488
100
AcDbEntity
  8
0
100
AcDbLine
 62
7
  6
CONTINUOUS
 10
27.6250002384
 20
-0.925531894
 11
27.5
 21
-1.0531914979
  0
LINE
  5
489
100
AcDbEntity
  8
0
100
AcDbLine
 62
7
  6
CONTINUOUS
 10
34.4375
 20
-0.1595744491
 11
34.6875004768
 21
0.0319148898
  0
LINE
  5
48A
100
AcDbEntity
  8
0
100
AcDbLine
 62
7
  6
CONTINUOUS
 10
32.9375
 20
-0.9893617183
 11
32.75
 21
-1.1170212775
  0
LINE
  5
48B
100
AcDbEntity
  8
0
100
AcDbLine
 62
7
  6
CONTINUOUS
 10
35.75
 20
-0.9893617183
 11
35.5625
 21
-1.1170212775
  0
LINE
  5
48C
100
AcDbEntity
  8
0
100
AcDbLine
 62
7
  6
CONTINUOUS
 10
35.6250004768
 20
-1.4361702148
 11
35.9375
 21
-1.2446808591
  0
LINE
  5
48D
100
AcDbEntity
  8
RACCORDO
100
AcDbLine
 62
253
  6
CONTINUOUS
 10
42.4779619686
 20
19.8557987286
 11
41.6220380314
 21
19.8557987286
  0
LINE
  5
48E
100
AcDbEntity
  8
RACCORDO
100
AcDbLine
 62
253
  6
CONTINUOUS
 10
-41.6220380314
 20
19.8557987286
 11
-42.4779619686
 21
19.8557987286
  0
LINE
  5
48F
100
AcDbEntity
  8
RACCORDO
100
AcDbLine
 62
7
  6
CONTINUOUS
 10
42.5500571132
 20
20.0
 11
41.5499428868
 21
20.0
  0
LINE
  5
490
100
AcDbEntity
  8
RACCORDO
100
AcDbLine
 62
7
  6
CONTINUOUS
 10
-41.5499428868
 20
20.0
 11
-42.5500571132
 21
20.0
  0
LINE
  5
491
100
AcDbEntity
  8
0
100
AcDbLine
 62
7
  6
CONTINUOUS
 10
32.75
 20
1.1170213223
 11
32.9375
 21
0.989361763
  0
LINE
  5
492
100
AcDbEntity
  8
0
100
AcDbLine
 62
7
  6
CONTINUOUS
 10
35.5625
 20
0.0319148898
 11
35.75
 21
-0.0957446694
  0
LINE
  5
493
100
AcDbEntity
  8
0
100
AcDbLine
 62
7
  6
CONTINUOUS
 10
27.875
 20
1.0531915426
 11
27.6250002384
 21
1.3085106611
  0
LINE
  5
494
100
AcDbEntity
  8
0
100
AcDbLine
 62
7
  6
CONTINUOUS
 10
25.1250001192
 20
-0.0957446694
 11
24.9375001192
 21
0.1595744491
  0
LINE
  5
495
100
AcDbEntity
  8
0
100
AcDbLine
 62
7
  6
CONTINUOUS
 10
28.625
 20
-0.9893617183
 11
28.8125
 21
-1.2446808591
  0
LINE
  5
496
100
AcDbEntity
  8
0
100
AcDbLine
 62
7
  6
CONTINUOUS
 10
24.7500001192
 20
-0.0957446694
 11
24.875
 21
-0.2872340083
  0
LINE
  5
497
100
AcDbEntity
  8
0
100
AcDbLine
 62
7
  6
CONTINUOUS
 10
25.8125
 20
-0.9893617183
 11
25.9374998808
 21
-1.1808510572
  0
LINE
  5
498
100
AcDbEntity
  8
0
100
AcDbLine
 62
7
  6
CONTINUOUS
 10
23.0
 20
-0.7340425551
 11
23.1249998808
 21
-0.9893617183
  0
LINE
  5
499
100
AcDbEntity
  8
0
100
AcDbLine
 62
7
  6
CONTINUOUS
 10
23.4999998808
 20
-0.9893617183
 11
23.375
 21
-0.7340425551
  0
LINE
  5
49A
100
AcDbEntity
  8
0
100
AcDbLine
 62
7
  6
CONTINUOUS
 10
21.2499999702
 20
-1.1170212775
 11
20.375
 21
1.5
  0
LINE
  5
49B
100
AcDbEntity
  8
0
100
AcDbLine
 62
7
  6
CONTINUOUS
 10
20.0
 20
1.5
 11
21.0000000298
 21
-1.5
  0
LINE
  5
49C
100
AcDbEntity
  8
0
100
AcDbLine
 62
7
  6
CONTINUOUS
 10
23.0
 20
1.5
 11
23.0
 21
-0.1595744491
  0
LINE
  5
49D
100
AcDbEntity
  8
0
100
AcDbLine
 62
7
  6
CONTINUOUS
 10
23.3124998808
 20
0.1595744491
 11
23.3124998808
 21
1.1808511019
  0
LINE
  5
49E
100
AcDbEntity
  8
0
100
AcDbLine
 62
7
  6
CONTINUOUS
 10
24.9375001192
 20
-0.4787234366
 11
24.9375001192
 21
-0.6063829958
  0
LINE
  5
49F
100
AcDbEntity
  8
0
100
AcDbLine
 62
7
  6
CONTINUOUS
 10
25.1250001192
 20
1.1808511019
 11
25.1250001192
 21
1.5
  0
LINE
  5
4A0
100
AcDbEntity
  8
0
100
AcDbLine
 62
7
  6
CONTINUOUS
 10
25.25
 20
-0.6702127755
 11
25.25
 21
-0.414893657
  0
LINE
  5
4A1
100
AcDbEntity
  8
0
100
AcDbLine
 62
7
  6
CONTINUOUS
 10
25.8750001192
 20
1.0531915426
 11
25.8125
 21
0.7978724241
  0
LINE
  5
4A2
100
AcDbEntity
  8
0
100
AcDbLine
 62
7
  6
CONTINUOUS
 10
24.9375001192
 20
-0.6063829958
 11
24.875
 21
-0.7978723347
  0
LINE
  5
4A3
100
AcDbEntity
  8
0
100
AcDbLine
 62
7
  6
CONTINUOUS
 10
25.1250001192
 20
-0.9893617183
 11
25.25
 21
-0.6702127755
  0
LINE
  5
4A4
100
AcDbEntity
  8
0
100
AcDbLine
 62
7
  6
CONTINUOUS
 10
27.6250002384
 20
0.6702126861
 11
27.5
 21
0.4148935676
  0
LINE
  5
4A5
100
AcDbEntity
  8
0
100
AcDbLine
 62
7
  6
CONTINUOUS
 10
27.6875
 20
-0.7978723347
 11
27.6250002384
 21
-0.925531894
  0
LINE
  5
4A6
100
AcDbEntity
  8
0
100
AcDbLine
 62
7
  6
CONTINUOUS
 10
27.7499997616
 20
0.2234042287
 11
27.875
 21
0.4148935676
  0
LINE
  5
4A7
100
AcDbEntity
  8
0
100
AcDbLine
 62
7
  6
CONTINUOUS
 10
27.8125002384
 20
-1.1808510572
 11
27.9374997616
 21
-0.9893617183
  0
LINE
  5
4A8
100
AcDbEntity
  8
0
100
AcDbLine
 62
7
  6
CONTINUOUS
 10
30.3749997616
 20
-0.7978723347
 11
30.2500002384
 21
-0.9893617183
  0
LINE
  5
4A9
100
AcDbEntity
  8
0
100
AcDbLine
 62
7
  6
CONTINUOUS
 10
31.625
 20
0.7978724241
 11
31.7500002384
 21
0.989361763
  0
LINE
  5
4AA
100
AcDbEntity
  8
0
100
AcDbLine
 62
7
  6
CONTINUOUS
 10
31.5625002384
 20
1.2446808815
 11
31.3750002384
 21
0.989361763
  0
LINE
  5
4AB
100
AcDbEntity
  8
0
100
AcDbLine
 62
7
  6
CONTINUOUS
 10
30.4375002384
 20
-1.2446808591
 11
30.6250002384
 21
-0.9893617183
  0
LWPOLYLINE
  5
4AC
100
AcDbEntity
  8
RACCORDO
100
AcDbPolyline
 62
253
  6
CONTINUOUS
 90
12
 70
0
 10
52.2057526327
 20
-13.0026037657
 10
52.2050742529
 20
-13.0020427386
 10
52.2043961763
 20
-13.0003832666
 10
52.2037184031
 20
-12.9976253498
 10
52.2030407586
 20
-12.9937679276
 10
52.2023634173
 20
-12.9888120606
 10
52.2016869031
 20
-12.9827609304
 10
52.2010112428
 20
-12.975613633
 10
52.2003364097
 20
-12.9673710725
 10
52.1996628467
 20
-12.9580391424
 10
52.198990579
 20
-12.9476175241
 10
52.1983195815
 20
-12.936106536
  0
LINE
  5
4AD
100
AcDbEntity
  8
0
100
AcDbLine
 62
7
  6
CONTINUOUS
 10
30.6250002384
 20
-0.0957446694
 11
30.4375002384
 21
0.1595744491
  0
LINE
  5
4AE
100
AcDbEntity
  8
0
100
AcDbLine
 62
7
  6
CONTINUOUS
 10
31.4375
 20
-0.9893617183
 11
31.625
 21
-1.2446808591
  0
LINE
  5
4AF
100
AcDbEntity
  8
0
100
AcDbLine
 62
7
  6
CONTINUOUS
 10
31.3750002384
 20
0.0957446694
 11
31.5625002384
 21
-0.1595744491
  0
LINE
  5
4B0
100
AcDbEntity
  8
0
100
AcDbLine
 62
7
  6
CONTINUOUS
 10
27.9374997616
 20
-0.2872340083
 11
27.8125002384
 21
-0.0957446694
  0
LINE
  5
4B1
100
AcDbEntity
  8
0
100
AcDbLine
 62
7
  6
CONTINUOUS
 10
27.5
 20
0.989361763
 11
27.6250002384
 21
0.7978724241
  0
LINE
  5
4B2
100
AcDbEntity
  8
0
100
AcDbLine
 62
7
  6
CONTINUOUS
 10
30.2500002384
 20
-0.0957446694
 11
30.3749997616
 21
-0.2872340083
  0
LINE
  5
4B3
100
AcDbEntity
  8
0
100
AcDbLine
 62
7
  6
CONTINUOUS
 10
31.8125
 20
-0.9893617183
 11
31.6874997616
 21
-0.7978723347
  0
LINE
  5
4B4
100
AcDbEntity
  8
0
100
AcDbLine
 62
7
  6
CONTINUOUS
 10
26.1250002384
 20
-0.925531894
 11
26.0624997616
 21
-0.7978723347
  0
LINE
  5
4B5
100
AcDbEntity
  8
0
100
AcDbLine
 62
7
  6
CONTINUOUS
 10
27.5624997616
 20
-0.2872340083
 11
27.6875
 21
-0.5425532162
  0
LINE
  5
4B6
100
AcDbEntity
  8
0
100
AcDbLine
 62
7
  6
CONTINUOUS
 10
28.4999997616
 20
-0.7340425551
 11
28.625
 21
-0.9893617183
  0
LINE
  5
4B7
100
AcDbEntity
  8
0
100
AcDbLine
 62
7
  6
CONTINUOUS
 10
29.0
 20
-0.9893617183
 11
28.8749997616
 21
-0.7340425551
  0
LINE
  5
4B8
100
AcDbEntity
  8
0
100
AcDbLine
 62
7
  6
CONTINUOUS
 10
25.25
 20
-0.414893657
 11
25.1250001192
 21
-0.0957446694
  0
LINE
  5
4B9
100
AcDbEntity
  8
0
100
AcDbLine
 62
7
  6
CONTINUOUS
 10
24.875
 20
-0.2872340083
 11
24.9375001192
 21
-0.4787234366
  0
LINE
  5
4BA
100
AcDbEntity
  8
0
100
AcDbLine
 62
7
  6
CONTINUOUS
 10
25.7499998808
 20
-0.7978723347
 11
25.8125
 21
-0.9893617183
  0
LINE
  5
4BB
100
AcDbEntity
  8
0
100
AcDbLine
 62
7
  6
CONTINUOUS
 10
26.75
 20
0.1595744491
 11
26.75
 21
-0.0957446694
  0
LINE
  5
4BC
100
AcDbEntity
  8
0
100
AcDbLine
 62
7
  6
CONTINUOUS
 10
27.6250002384
 20
0.7978724241
 11
27.6250002384
 21
0.6702126861
  0
LINE
  5
4BD
100
AcDbEntity
  8
0
100
AcDbLine
 62
7
  6
CONTINUOUS
 10
27.6875
 20
-0.5425532162
 11
27.6875
 21
-0.7978723347
  0
LINE
  5
4BE
100
AcDbEntity
  8
0
100
AcDbLine
 62
7
  6
CONTINUOUS
 10
27.9374997616
 20
0.6702126861
 11
27.9374997616
 21
0.7978724241
  0
LINE
  5
4BF
100
AcDbEntity
  8
0
100
AcDbLine
 62
7
  6
CONTINUOUS
 10
28.0000002384
 20
-0.7978723347
 11
28.0000002384
 21
-0.5425532162
  0
LINE
  5
4C0
100
AcDbEntity
  8
0
100
AcDbLine
 62
7
  6
CONTINUOUS
 10
28.4999997616
 20
1.5
 11
28.4999997616
 21
-0.1595744491
  0
LINE
  5
4C1
100
AcDbEntity
  8
0
100
AcDbLine
 62
7
  6
CONTINUOUS
 10
28.8125
 20
0.1595744491
 11
28.8125
 21
1.1808511019
  0
LINE
  5
4C2
100
AcDbEntity
  8
0
100
AcDbLine
 62
7
  6
CONTINUOUS
 10
27.875
 20
0.4148935676
 11
27.9374997616
 21
0.6702126861
  0
LINE
  5
4C3
100
AcDbEntity
  8
0
100
AcDbLine
 62
7
  6
CONTINUOUS
 10
27.9374997616
 20
-0.9893617183
 11
28.0000002384
 21
-0.7978723347
  0
LINE
  5
4C4
100
AcDbEntity
  8
0
100
AcDbLine
 62
7
  6
CONTINUOUS
 10
30.4375002384
 20
-0.6063829958
 11
30.3749997616
 21
-0.7978723347
  0
LINE
  5
4C5
100
AcDbEntity
  8
0
100
AcDbLine
 62
7
  6
CONTINUOUS
 10
31.5625002384
 20
0.6063829064
 11
31.625
 21
0.7978724241
  0
LINE
  5
4C6
100
AcDbEntity
  8
0
100
AcDbLine
 62
7
  6
CONTINUOUS
 10
31.3750002384
 20
0.989361763
 11
31.25
 21
0.6702126861
  0
LINE
  5
4C7
100
AcDbEntity
  8
0
100
AcDbLine
 62
7
  6
CONTINUOUS
 10
30.6250002384
 20
-0.9893617183
 11
30.7499997616
 21
-0.6702127755
  0
LINE
  5
4C8
100
AcDbEntity
  8
RACCORDO
100
AcDbLine
 62
253
  6
CONTINUOUS
 10
42.5500571132
 20
20.0
 11
42.4779619686
 21
19.8557987286
  0
LINE
  5
4C9
100
AcDbEntity
  8
RACCORDO
100
AcDbLine
 62
253
  6
CONTINUOUS
 10
43.05
 20
19.4999999971
 11
42.9779429301
 21
19.355874881
  0
LINE
  5
4CA
100
AcDbEntity
  8
0
100
AcDbLine
 62
7
  6
CONTINUOUS
 10
33.0624995232
 20
0.2872340083
 11
32.9375
 21
0.0957446694
  0
LINE
  5
4CB
100
AcDbEntity
  8
0
100
AcDbLine
 62
7
  6
CONTINUOUS
 10
33.0624995232
 20
-0.7978723347
 11
32.9375
 21
-0.9893617183
  0
LINE
  5
4CC
100
AcDbEntity
  8
0
100
AcDbLine
 62
7
  6
CONTINUOUS
 10
33.125
 20
-1.2446808591
 11
33.3125
 21
-0.9893617183
  0
LINE
  5
4CD
100
AcDbEntity
  8
0
100
AcDbLine
 62
7
  6
CONTINUOUS
 10
35.9375
 20
-1.2446808591
 11
36.125
 21
-0.9893617183
  0
LINE
  5
4CE
100
AcDbEntity
  8
0
100
AcDbLine
 62
7
  6
CONTINUOUS
 10
34.1250004768
 20
-0.9893617183
 11
34.3125004768
 21
-1.2446808591
  0
LINE
  5
4CF
100
AcDbEntity
  8
0
100
AcDbLine
 62
7
  6
CONTINUOUS
 10
33.3125
 20
0.989361763
 11
33.125
 21
1.2446808815
  0
LINE
  5
4D0
100
AcDbEntity
  8
0
100
AcDbLine
 62
7
  6
CONTINUOUS
 10
36.125
 20
-0.0957446694
 11
35.9375
 21
0.1595744491
  0
LINE
  5
4D1
100
AcDbEntity
  8
0
100
AcDbLine
 62
7
  6
CONTINUOUS
 10
31.7500002384
 20
0.0957446694
 11
31.625
 21
0.2872340083
  0
LINE
  5
4D2
100
AcDbEntity
  8
0
100
AcDbLine
 62
7
  6
CONTINUOUS
 10
32.9375
 20
0.989361763
 11
33.0624995232
 21
0.7978724241
  0
LINE
  5
4D3
100
AcDbEntity
  8
0
100
AcDbLine
 62
7
  6
CONTINUOUS
 10
35.75
 20
-0.0957446694
 11
35.8749995232
 21
-0.2872340083
  0
LINE
  5
4D4
100
AcDbEntity
  8
RACCORDO
100
AcDbLine
 62
253
  6
CONTINUOUS
 10
42.4779619686
 20
-19.8557987286
 11
42.5500571132
 21
-20.0
  0
LINE
  5
4D5
100
AcDbEntity
  8
RACCORDO
100
AcDbLine
 62
253
  6
CONTINUOUS
 10
42.9779429301
 20
-19.355874881
 11
43.05
 21
-19.4999999971
  0
LINE
  5
4D6
100
AcDbEntity
  8
0
100
AcDbLine
 62
7
  6
CONTINUOUS
 10
33.9999995232
 20
-0.7340425551
 11
34.1250004768
 21
-0.9893617183
  0
LINE
  5
4D7
100
AcDbEntity
  8
0
100
AcDbLine
 62
7
  6
CONTINUOUS
 10
30.7499997616
 20
-0.414893657
 11
30.6250002384
 21
-0.0957446694
  0
LINE
  5
4D8
100
AcDbEntity
  8
0
100
AcDbLine
 62
7
  6
CONTINUOUS
 10
31.25
 20
0.4148935676
 11
31.3750002384
 21
0.0957446694
  0
LINE
  5
4D9
100
AcDbEntity
  8
0
100
AcDbLine
 62
7
  6
CONTINUOUS
 10
30.3749997616
 20
-0.2872340083
 11
30.4375002384
 21
-0.4787234366
  0
LINE
  5
4DA
100
AcDbEntity
  8
0
100
AcDbLine
 62
7
  6
CONTINUOUS
 10
31.3750002384
 20
-0.7978723347
 11
31.4375
 21
-0.9893617183
  0
LINE
  5
4DB
100
AcDbEntity
  8
0
100
AcDbLine
 62
7
  6
CONTINUOUS
 10
31.625
 20
0.2872340083
 11
31.5625002384
 21
0.4787233472
  0
LINE
  5
4DC
100
AcDbEntity
  8
0
100
AcDbLine
 62
7
  6
CONTINUOUS
 10
28.0000002384
 20
-0.5425532162
 11
27.9374997616
 21
-0.2872340083
  0
LINE
  5
4DD
100
AcDbEntity
  8
0
100
AcDbLine
 62
7
  6
CONTINUOUS
 10
27.9374997616
 20
0.7978724241
 11
27.875
 21
1.0531915426
  0
LINE
  5
4DE
100
AcDbEntity
  8
0
100
AcDbLine
 62
7
  6
CONTINUOUS
 10
30.4375002384
 20
-0.4787234366
 11
30.4375002384
 21
-0.6063829958
  0
LINE
  5
4DF
100
AcDbEntity
  8
0
100
AcDbLine
 62
7
  6
CONTINUOUS
 10
30.6250002384
 20
1.1808511019
 11
30.6250002384
 21
1.5
  0
LINE
  5
4E0
100
AcDbEntity
  8
0
100
AcDbLine
 62
7
  6
CONTINUOUS
 10
30.7499997616
 20
-0.6702127755
 11
30.7499997616
 21
-0.414893657
  0
LINE
  5
4E1
100
AcDbEntity
  8
0
100
AcDbLine
 62
7
  6
CONTINUOUS
 10
31.25
 20
0.6702126861
 11
31.25
 21
0.4148935676
  0
LINE
  5
4E2
100
AcDbEntity
  8
0
100
AcDbLine
 62
7
  6
CONTINUOUS
 10
31.5625002384
 20
0.4787233472
 11
31.5625002384
 21
0.6063829064
  0
LINE
  5
4E3
100
AcDbEntity
  8
0
100
AcDbLine
 62
7
  6
CONTINUOUS
 10
33.125
 20
0.6063829064
 11
33.125
 21
0.4787233472
  0
LINE
  5
4E4
100
AcDbEntity
  8
0
100
AcDbLine
 62
7
  6
CONTINUOUS
 10
33.1875004768
 20
-0.0957446694
 11
33.1875004768
 21
-0.2234042287
  0
LINE
  5
4E5
100
AcDbEntity
  8
0
100
AcDbLine
 62
7
  6
CONTINUOUS
 10
33.5
 20
-0.2234042287
 11
33.5
 21
0.2234042287
  0
LINE
  5
4E6
100
AcDbEntity
  8
0
100
AcDbLine
 62
7
  6
CONTINUOUS
 10
33.9999995232
 20
1.5
 11
33.9999995232
 21
-0.1595744491
  0
LINE
  5
4E7
100
AcDbEntity
  8
0
100
AcDbLine
 62
7
  6
CONTINUOUS
 10
33.4374995232
 20
-0.6702127755
 11
33.5
 21
-0.2234042287
  0
LINE
  5
4E8
100
AcDbEntity
  8
0
100
AcDbLine
 62
7
  6
CONTINUOUS
 10
33.1875004768
 20
-0.2234042287
 11
33.125
 21
-0.6063829958
  0
LINE
  5
4E9
100
AcDbEntity
  8
0
100
AcDbLine
 62
7
  6
CONTINUOUS
 10
33.125
 20
0.4787233472
 11
33.0624995232
 21
0.2872340083
  0
LINE
  5
4EA
100
AcDbEntity
  8
0
100
AcDbLine
 62
7
  6
CONTINUOUS
 10
33.125
 20
-0.6063829958
 11
33.0624995232
 21
-0.7978723347
  0
LINE
  5
4EB
100
AcDbEntity
  8
0
100
AcDbLine
 62
7
  6
CONTINUOUS
 10
33.3125
 20
-0.9893617183
 11
33.4374995232
 21
-0.6702127755
  0
LINE
  5
4EC
100
AcDbEntity
  8
0
100
AcDbLine
 62
7
  6
CONTINUOUS
 10
36.125
 20
-0.9893617183
 11
36.2499995232
 21
-0.6702127755
  0
LINE
  5
4ED
100
AcDbEntity
  8
0
100
AcDbLine
 62
7
  6
CONTINUOUS
 10
35.8749995232
 20
-0.7978723347
 11
35.75
 21
-0.9893617183
  0
LINE
  5
4EE
100
AcDbEntity
  8
0
100
AcDbLine
 62
7
  6
CONTINUOUS
 10
34.5000004768
 20
-0.9893617183
 11
34.3749995232
 21
-0.7340425551
  0
LINE
  5
4EF
100
AcDbEntity
  8
0
100
AcDbLine
 62
7
  6
CONTINUOUS
 10
33.4374995232
 20
0.6702126861
 11
33.3125
 21
0.989361763
  0
LINE
  5
4F0
100
AcDbEntity
  8
0
100
AcDbLine
 62
7
  6
CONTINUOUS
 10
36.2499995232
 20
-0.414893657
 11
36.125
 21
-0.0957446694
  0
LINE
  5
4F1
100
AcDbEntity
  8
0
100
AcDbLine
 62
7
  6
CONTINUOUS
 10
33.0624995232
 20
0.7978724241
 11
33.125
 21
0.6063829064
  0
LINE
  5
4F2
100
AcDbEntity
  8
0
100
AcDbLine
 62
7
  6
CONTINUOUS
 10
35.8749995232
 20
-0.2872340083
 11
35.9375
 21
-0.4787234366
  0
LINE
  5
4F3
100
AcDbEntity
  8
0
100
AcDbLine
 62
7
  6
CONTINUOUS
 10
33.5
 20
0.2234042287
 11
33.4374995232
 21
0.6702126861
  0
LINE
  5
4F4
100
AcDbEntity
  8
0
100
AcDbLine
 62
7
  6
CONTINUOUS
 10
34.3125004768
 20
0.1595744491
 11
34.3125004768
 21
1.1808511019
  0
LINE
  5
4F5
100
AcDbEntity
  8
0
100
AcDbLine
 62
7
  6
CONTINUOUS
 10
35.9375
 20
-0.4787234366
 11
35.9375
 21
-0.6063829958
  0
LINE
  5
4F6
100
AcDbEntity
  8
0
100
AcDbLine
 62
7
  6
CONTINUOUS
 10
36.125
 20
1.1808511019
 11
36.125
 21
1.5
  0
LINE
  5
4F7
100
AcDbEntity
  8
0
100
AcDbLine
 62
7
  6
CONTINUOUS
 10
36.2499995232
 20
-0.6702127755
 11
36.2499995232
 21
-0.414893657
  0
LWPOLYLINE
  5
4F8
100
AcDbEntity
  8
RACCORDO
100
AcDbPolyline
 62
253
  6
CONTINUOUS
 90
11
 70
0
 10
42.9779429301
 20
19.355874881
 10
42.9761078622
 20
19.3495523537
 10
42.9743015724
 20
19.3391571081
 10
42.9725240607
 20
19.3246891443
 10
42.9707767209
 20
19.306001784
 10
42.9690581593
 20
19.2832417054
 10
42.9673641945
 20
19.2568489431
 10
42.9656948129
 20
19.2268789335
 10
42.9640500281
 20
19.1932762403
 10
42.9624257006
 20
19.1563145892
 10
42.9592384106
 20
19.0724164125
  0
LWPOLYLINE
  5
4F9
100
AcDbEntity
  8
RACCORDO
100
AcDbPolyline
 62
253
  6
CONTINUOUS
 90
10
 70
0
 10
42.4779619686
 20
19.8557987286
 10
42.4761263838
 20
19.8494862142
 10
42.4743197274
 20
19.8384701958
 10
42.4725419994
 20
19.8229604599
 10
42.4707946448
 20
19.8031912877
 10
42.4690762185
 20
19.7793541537
 10
42.4673823856
 20
19.7515460472
 10
42.4657130808
 20
19.719922025
 10
42.4640683695
 20
19.6846415105
 10
42.4608403082
 20
19.6032706828
  0
LINE
  5
4FA
100
AcDbEntity
  8
0
100
AcDbLine
 62
7
  6
CONTINUOUS
 10
35.9375
 20
-0.6063829958
 11
35.8749995232
 21
-0.7978723347
  0
LWPOLYLINE
  5
4FB
100
AcDbEntity
  8
RACCORDO
100
AcDbPolyline
 62
253
  6
CONTINUOUS
 90
19
 70
0
 10
41.1731933044
 20
-17.201992905
 10
41.1753229256
 20
-17.2355660298
 10
41.1812148496
 20
-17.2688854345
 10
41.1908245507
 20
-17.3016993215
 10
41.2040794075
 20
-17.3337597138
 10
41.2208792521
 20
-17.3648243284
 10
41.2410971266
 20
-17.3946584073
 10
41.2645802429
 20
-17.4230364922
 10
41.2911511372
 20
-17.4497441275
 10
41.3206090112
 20
-17.4745794814
 10
41.3527312493
 20
-17.4973548712
 10
41.3872751011
 20
-17.5178981815
 10
41.4239795159
 20
-17.5360541646
 10
41.4625671156
 20
-17.5516856146
 10
41.5027462906
 20
-17.5646744031
 10
41.5442134035
 20
-17.5749223728
 10
41.586655084
 20
-17.5823520791
 10
41.6297505969
 20
-17.5869073751
 10
41.6731742659
 20
-17.588553836
  0
LWPOLYLINE
  5
4FC
100
AcDbEntity
  8
RACCORDO
100
AcDbPolyline
 62
253
  6
CONTINUOUS
 90
9
 70
0
 10
42.4640683694
 20
-19.6846415084
 10
42.4657130808
 20
-19.7199220231
 10
42.4673823856
 20
-19.7515460455
 10
42.4690762184
 20
-19.7793541524
 10
42.4707946447
 20
-19.8031912867
 10
42.4725419994
 20
-19.8229604592
 10
42.4743197274
 20
-19.8384701955
 10
42.4761263838
 20
-19.849486214
 10
42.4779619686
 20
-19.8557987286
  0
LWPOLYLINE
  5
4FD
100
AcDbEntity
  8
RACCORDO
100
AcDbPolyline
 62
253
  6
CONTINUOUS
 90
19
 70
0
 10
41.1220570699
 20
-19.355874881
 10
41.1239659137
 20
-19.3994418789
 10
41.129664649
 20
-19.4426773735
 10
41.1391099143
 20
-19.4852523804
 10
41.1522298404
 20
-19.5268429411
 10
41.1689245967
 20
-19.5671325874
 10
41.1890671515
 20
-19.6058147499
 10
41.2125042383
 20
-19.6425950909
 10
41.2390575218
 20
-19.6771937434
 10
41.268524955
 20
-19.7093474411
 10
41.300682317
 20
-19.738811522
 10
41.3352849185
 20
-19.7653617895
 10
41.3720694635
 20
-19.7887962182
 10
41.410756054
 20
-19.8089364922
 10
41.4510503188
 20
-19.825629361
 10
41.4926456527
 20
-19.8387478057
 10
41.5352255511
 20
-19.848192006
 10
41.5784660181
 20
-19.8538900995
 10
41.6220380314
 20
-19.8557987286
  0
LWPOLYLINE
  5
4FE
100
AcDbEntity
  8
RACCORDO
100
AcDbPolyline
 62
7
  6
CONTINUOUS
 90
19
 70
0
 10
41.05
 20
-19.4999999971
 10
41.0519018316
 20
-19.5435750005
 10
41.0575932479
 20
-19.5868186415
 10
41.0670311359
 20
-19.629402001
 10
41.0801438605
 20
-19.6710012714
 10
41.0968318656
 20
-19.7112998332
 10
41.1169683804
 20
-19.7499906833
 10
41.1404003609
 20
-19.786779421
 10
41.166949609
 20
-19.8213860568
 10
41.1964140797
 20
-19.8535468238
 10
41.2285696427
 20
-19.8830169411
 10
41.263171642
 20
-19.9095721236
 10
41.2999565546
 20
-19.9330099943
 10
41.3386444468
 20
-19.9531521506
 10
41.3789409258
 20
-19.9698453451
 10
41.4205390915
 20
-19.9829624775
 10
41.4631222961
 20
-19.9924037514
 10
41.5063665816
 20
-19.9980973637
 10
41.5499428868
 20
-20.0
  0
LINE
  5
4FF
100
AcDbEntity
  8
RACCORDO
100
AcDbLine
 62
253
  6
CONTINUOUS
 10
41.1602164453
 20
18.2031387341
 11
41.1529123704
 21
18.6065728771
  0
LINE
  5
500
100
AcDbEntity
  8
RACCORDO
100
AcDbLine
 62
253
  6
CONTINUOUS
 10
41.171755979
 20
17.3336619258
 11
41.1602164453
 21
18.2031387341
  0
LINE
  5
501
100
AcDbEntity
  8
RACCORDO
100
AcDbLine
 62
253
  6
CONTINUOUS
 10
41.1975055631
 20
14.4746923235
 11
41.171755979
 21
17.3336619258
  0
LINE
  5
502
100
AcDbEntity
  8
RACCORDO
100
AcDbLine
 62
253
  6
CONTINUOUS
 10
41.2229209529
 20
10.1295713771
 11
41.1975055631
 21
14.4746923235
  0
LINE
  5
503
100
AcDbEntity
  8
RACCORDO
100
AcDbLine
 62
253
  6
CONTINUOUS
 10
41.2402837955
 20
3.3574543928
 11
41.2229209529
 21
10.1295713771
  0
LINE
  5
504
100
AcDbEntity
  8
RACCORDO
100
AcDbLine
 62
7
  6
CONTINUOUS
 10
41.05
 20
-19.4999999971
 11
41.05
 21
-14.1
  0
LINE
  5
505
100
AcDbEntity
  8
RACCORDO
100
AcDbLine
 62
7
  6
CONTINUOUS
 10
41.05
 20
14.1
 11
41.05
 21
19.4999999971
  0
LINE
  5
506
100
AcDbEntity
  8
RACCORDO
100
AcDbLine
 62
7
  6
CONTINUOUS
 10
41.2402837955
 20
-3.3574543928
 11
41.2402837955
 21
3.3574543928
  0
LINE
  5
507
100
AcDbEntity
  8
RACCORDO
100
AcDbLine
 62
253
  6
CONTINUOUS
 10
41.2357680361
 20
-6.4895282081
 11
41.2402837955
 21
-3.3574543928
  0
LINE
  5
508
100
AcDbEntity
  8
RACCORDO
100
AcDbLine
 62
253
  6
CONTINUOUS
 10
41.2113215534
 20
-12.3896376644
 11
41.2357680361
 21
-6.4895282081
  0
LINE
  5
509
100
AcDbEntity
  8
RACCORDO
100
AcDbLine
 62
253
  6
CONTINUOUS
 10
41.1775171408
 20
-16.7834684672
 11
41.2113215534
 21
-12.3896376644
  0
LINE
  5
50A
100
AcDbEntity
  8
RACCORDO
100
AcDbLine
 62
253
  6
CONTINUOUS
 10
41.163110709
 20
-18.014136703
 11
41.1775171408
 21
-16.7834684672
  0
LWPOLYLINE
  5
50B
100
AcDbEntity
  8
RACCORDO
100
AcDbPolyline
 62
253
  6
CONTINUOUS
 90
3
 70
0
 10
41.1529123704
 20
-18.6065728753
 10
41.154383802
 20
-18.5333378512
 10
41.163110709
 20
-18.014136703
  0
LWPOLYLINE
  5
50C
100
AcDbEntity
  8
RACCORDO
100
AcDbPolyline
 62
7
  6
CONTINUOUS
 90
19
 70
0
 10
41.05
 20
19.4999999971
 10
41.0519018316
 20
19.5435750005
 10
41.0575932479
 20
19.5868186415
 10
41.0670311359
 20
19.629402001
 10
41.0801438605
 20
19.6710012714
 10
41.0968318656
 20
19.7112998332
 10
41.1169683804
 20
19.7499906833
 10
41.1404003609
 20
19.786779421
 10
41.166949609
 20
19.8213860568
 10
41.1964140797
 20
19.8535468238
 10
41.2285696427
 20
19.8830169411
 10
41.263171642
 20
19.9095721236
 10
41.2999565546
 20
19.9330099943
 10
41.3386444468
 20
19.9531521506
 10
41.3789409258
 20
19.9698453451
 10
41.4205390915
 20
19.9829624775
 10
41.4631222961
 20
19.9924037514
 10
41.5063665816
 20
19.9980973637
 10
41.5499428868
 20
20.0
  0
LWPOLYLINE
  5
50D
100
AcDbEntity
  8
RACCORDO
100
AcDbPolyline
 62
253
  6
CONTINUOUS
 90
19
 70
0
 10
41.1220570699
 20
19.355874881
 10
41.1239659157
 20
19.399441902
 10
41.1296646565
 20
19.4426774159
 10
41.1391099298
 20
19.4852524381
 10
41.1522298654
 20
19.5268430097
 10
41.1689246319
 20
19.5671326628
 10
41.1890671967
 20
19.6058148282
 10
41.2125042925
 20
19.6425951683
 10
41.2390575834
 20
19.6771938168
 10
41.2685250219
 20
19.709347508
 10
41.3006823865
 20
19.7388115803
 10
41.3352849876
 20
19.7653618379
 10
41.3720695297
 20
19.7887962565
 10
41.4107561144
 20
19.8089365204
 10
41.4510503704
 20
19.8256293798
 10
41.4926456936
 20
19.8387478167
 10
41.5352255798
 20
19.848192011
 10
41.5784660331
 20
19.8538901008
 10
41.6220380314
 20
19.8557987286
  0
LWPOLYLINE
  5
50E
100
AcDbEntity
  8
RACCORDO
100
AcDbPolyline
 62
253
  6
CONTINUOUS
 90
19
 70
0
 10
41.1731933044
 20
17.201992905
 10
41.175322873
 20
17.2355660589
 10
41.181214751
 20
17.2688854957
 10
41.1908244129
 20
17.3016994175
 10
41.2040792376
 20
17.3337598462
 10
41.2208790571
 20
17.3648244984
 10
41.2410969136
 20
17.3946586154
 10
41.2645800189
 20
17.4230367382
 10
41.2911509091
 20
17.4497444105
 10
41.3206087853
 20
17.4745798
 10
41.3527310317
 20
17.4973552234
 10
41.3872748975
 20
17.5178985647
 10
41.4239793314
 20
17.5360545759
 10
41.4625669547
 20
17.5516860503
 10
41.5027461571
 20
17.5646748595
 10
41.5442133005
 20
17.5749228457
 10
41.586655014
 20
17.5823525641
 10
41.6297505615
 20
17.5869078675
 10
41.6731742659
 20
17.5885543311
  0
LWPOLYLINE
  5
50F
100
AcDbEntity
  8
RACCORDO
100
AcDbPolyline
 62
253
  6
CONTINUOUS
 90
19
 70
0
 10
41.2373577281
 20
5.8590870777
 10
41.2396051952
 20
5.8705014238
 10
41.2456002081
 20
5.8818298211
 10
41.2552976289
 20
5.8929869756
 10
41.2686244435
 20
5.9038888826
 10
41.2854803116
 20
5.9144534591
 10
41.3057383214
 20
5.9246011622
 10
41.3292459459
 20
5.9342555875
 10
41.3558261911
 20
5.9433440448
 10
41.3852789283
 20
5.951798105
 10
41.4173824013
 20
5.9595541156
 10
41.451894896
 20
5.9665536799
 10
41.4885565601
 20
5.9727440966
 10
41.5270913599
 20
5.9780787568
 10
41.5672091582
 20
5.9825174945
 10
41.6086078993
 20
5.9860268895
 10
41.6509758828
 20
5.9885805189
 10
41.6939941109
 20
5.9901591557
 10
41.7373386896
 20
5.990750914
  0
LINE
  5
510
100
AcDbEntity
  8
RACCORDO
100
AcDbLine
 62
253
  6
CONTINUOUS
 10
51.7500571132
 20
14.1
 11
51.6996019842
 21
13.9990820562
  0
LINE
  5
511
100
AcDbEntity
  8
RACCORDO
100
AcDbLine
 62
253
  6
CONTINUOUS
 10
52.25
 20
13.5999999971
 11
52.1995829457
 21
13.4991582086
  0
LINE
  5
512
100
AcDbEntity
  8
RACCORDO
100
AcDbLine
 62
253
  6
CONTINUOUS
 10
51.6996019842
 20
-13.9990820562
 11
51.7500571132
 21
-14.1
  0
LINE
  5
513
100
AcDbEntity
  8
RACCORDO
100
AcDbLine
 62
253
  6
CONTINUOUS
 10
52.1995829457
 20
-13.4991582086
 11
52.25
 21
-13.5999999971
  0
LWPOLYLINE
  5
514
100
AcDbEntity
  8
RACCORDO
100
AcDbPolyline
 62
253
  6
CONTINUOUS
 90
19
 70
0
 10
41.2373577281
 20
-5.8590870777
 10
41.2396049173
 20
-5.8705014783
 10
41.2455996871
 20
-5.8818299357
 10
41.2552969009
 20
-5.8929871547
 10
41.2686235458
 20
-5.9038891294
 10
41.2854792816
 20
-5.9144537757
 10
41.3057371966
 20
-5.9246015493
 10
41.3292447631
 20
-5.9342560447
 10
41.355824986
 20
-5.9433445705
 10
41.3852777351
 20
-5.9517986965
 10
41.4173812521
 20
-5.9595547693
 10
41.4518938206
 20
-5.966554391
 10
41.4885555854
 20
-5.9727448596
 10
41.5270905096
 20
-5.9780795652
 10
41.5672084527
 20
-5.9825183413
 10
41.6086073552
 20
-5.986027767
 10
41.6509755129
 20
-5.988581419
 10
41.6939939237
 20
-5.99016007
 10
41.7373386896
 20
-5.9907518339
  0
LWPOLYLINE
  5
515
100
AcDbEntity
  8
RACCORDO
100
AcDbPolyline
 62
253
  6
CONTINUOUS
 90
19
 70
0
 10
42.9268066956
 20
17.201992905
 10
42.9246771006
 20
17.2355660446
 10
42.9187851996
 20
17.2688854655
 10
42.9091755181
 20
17.3016993702
 10
42.8959206773
 20
17.3337597809
 10
42.8791208453
 20
17.3648244144
 10
42.8589029797
 20
17.3946585126
 10
42.8354198689
 20
17.4230366166
 10
42.8088489767
 20
17.4497442706
 10
42.7793911016
 20
17.4745796425
 10
42.7472688593
 20
17.4973550492
 10
42.7127250005
 20
17.5178983751
 10
42.6760205761
 20
17.5360543724
 10
42.6374329647
 20
17.5516858347
 10
42.5972537761
 20
17.5646746336
 10
42.5557866479
 20
17.5749226117
 10
42.513344951
 20
17.5823523241
 10
42.4702494208
 20
17.5869076238
 10
42.4268257341
 20
17.5885540861
  0
LWPOLYLINE
  5
516
100
AcDbEntity
  8
RACCORDO
100
AcDbPolyline
 62
253
  6
CONTINUOUS
 90
9
 70
0
 10
42.964050028
 20
-19.1932762382
 10
42.9656948128
 20
-19.2268789311
 10
42.9673641944
 20
-19.2568489408
 10
42.9690581592
 20
-19.2832417039
 10
42.9707767208
 20
-19.3060017837
 10
42.9725240606
 20
-19.3246891449
 10
42.9743015723
 20
-19.3391571089
 10
42.9761078621
 20
-19.3495523543
 10
42.9779429301
 20
-19.355874881
  0
LWPOLYLINE
  5
517
100
AcDbEntity
  8
RACCORDO
100
AcDbPolyline
 62
253
  6
CONTINUOUS
 90
9
 70
0
 10
41.135949972
 20
19.1932762382
 10
41.1343051872
 20
19.2268789311
 10
41.1326358056
 20
19.2568489408
 10
41.1309418408
 20
19.2832417039
 10
41.1292232792
 20
19.3060017837
 10
41.1274759394
 20
19.3246891449
 10
41.1256984277
 20
19.3391571089
 10
41.1238921379
 20
19.3495523543
 10
41.1220570699
 20
19.355874881
  0
LWPOLYLINE
  5
518
100
AcDbEntity
  8
RACCORDO
100
AcDbPolyline
 62
253
  6
CONTINUOUS
 90
9
 70
0
 10
41.6359316306
 20
19.6846415084
 10
41.6342869192
 20
19.7199220231
 10
41.6326176144
 20
19.7515460455
 10
41.6309237816
 20
19.7793541524
 10
41.6292053553
 20
19.8031912867
 10
41.6274580006
 20
19.8229604592
 10
41.6256802726
 20
19.8384701955
 10
41.6238736162
 20
19.849486214
 10
41.6220380314
 20
19.8557987286
  0
LWPOLYLINE
  5
519
100
AcDbEntity
  8
RACCORDO
100
AcDbPolyline
 62
253
  6
CONTINUOUS
 90
19
 70
0
 10
42.9779429301
 20
19.355874881
 10
42.9760340863
 20
19.3994418789
 10
42.970335351
 20
19.4426773735
 10
42.9608900857
 20
19.4852523804
 10
42.9477701596
 20
19.5268429411
 10
42.9310754033
 20
19.5671325874
 10
42.9109328485
 20
19.6058147499
 10
42.8874957617
 20
19.6425950909
 10
42.8609424782
 20
19.6771937434
 10
42.831475045
 20
19.7093474411
 10
42.799317683
 20
19.738811522
 10
42.7647150815
 20
19.7653617895
 10
42.7279305365
 20
19.7887962182
 10
42.689243946
 20
19.8089364922
 10
42.6489496812
 20
19.825629361
 10
42.6073543473
 20
19.8387478057
 10
42.5647744489
 20
19.848192006
 10
42.5215339819
 20
19.8538900995
 10
42.4779619686
 20
19.8557987286
  0
LWPOLYLINE
  5
51A
100
AcDbEntity
  8
RACCORDO
100
AcDbPolyline
 62
7
  6
CONTINUOUS
 90
19
 70
0
 10
43.05
 20
19.4999999971
 10
43.0480981684
 20
19.5435750005
 10
43.0424067521
 20
19.5868186415
 10
43.0329688641
 20
19.629402001
 10
43.0198561395
 20
19.6710012714
 10
43.0031681344
 20
19.7112998332
 10
42.9830316196
 20
19.7499906833
 10
42.9595996391
 20
19.786779421
 10
42.933050391
 20
19.8213860568
 10
42.9035859203
 20
19.8535468238
 10
42.8714303573
 20
19.8830169411
 10
42.836828358
 20
19.9095721236
 10
42.8000434454
 20
19.9330099943
 10
42.7613555532
 20
19.9531521506
 10
42.7210590742
 20
19.9698453451
 10
42.6794609085
 20
19.9829624775
 10
42.6368777039
 20
19.9924037514
 10
42.5936334184
 20
19.9980973637
 10
42.5500571132
 20
20.0
  0
LINE
  5
51B
100
AcDbEntity
  8
RACCORDO
100
AcDbLine
 62
253
  6
CONTINUOUS
 10
41.1391781731
 20
19.1160449779
 11
41.135949972
 21
19.1932762382
  0
LINE
  5
51C
100
AcDbEntity
  8
RACCORDO
100
AcDbLine
 62
253
  6
CONTINUOUS
 10
42.9608218269
 20
-19.1160449779
 11
42.964050028
 21
-19.1932762382
  0
LINE
  5
51D
100
AcDbEntity
  8
RACCORDO
100
AcDbLine
 62
253
  6
CONTINUOUS
 10
42.4608403081
 20
-19.6032706806
 11
42.4640683694
 21
-19.6846415084
  0
LINE
  5
51E
100
AcDbEntity
  8
RACCORDO
100
AcDbLine
 62
253
  6
CONTINUOUS
 10
41.6391596919
 20
19.6032706806
 11
41.6359316306
 21
19.6846415084
  0
LINE
  5
51F
100
AcDbEntity
  8
RACCORDO
100
AcDbLine
 62
253
  6
CONTINUOUS
 10
41.1423286776
 20
19.0255496122
 11
41.1391781731
 21
19.1160449779
  0
LINE
  5
520
100
AcDbEntity
  8
RACCORDO
100
AcDbLine
 62
253
  6
CONTINUOUS
 10
42.9576713224
 20
-19.0255496122
 11
42.9608218269
 21
-19.1160449779
  0
LINE
  5
521
100
AcDbEntity
  8
RACCORDO
100
AcDbLine
 62
253
  6
CONTINUOUS
 10
42.4576899347
 20
-19.5080739797
 11
42.4608403081
 21
-19.6032706806
  0
LINE
  5
522
100
AcDbEntity
  8
RACCORDO
100
AcDbLine
 62
253
  6
CONTINUOUS
 10
41.6423100653
 20
19.5080739797
 11
41.6391596919
 21
19.6032706806
  0
LINE
  5
523
100
AcDbEntity
  8
RACCORDO
100
AcDbLine
 62
253
  6
CONTINUOUS
 10
41.1469361019
 20
18.8656405577
 11
41.1423286776
 21
19.0255496122
  0
LINE
  5
524
100
AcDbEntity
  8
RACCORDO
100
AcDbLine
 62
253
  6
CONTINUOUS
 10
42.9530638981
 20
-18.8656405577
 11
42.9576713224
 21
-19.0255496122
  0
LINE
  5
525
100
AcDbEntity
  8
RACCORDO
100
AcDbLine
 62
253
  6
CONTINUOUS
 10
42.4530826962
 20
-19.339752891
 11
42.4576899347
 21
-19.5080739797
  0
LINE
  5
526
100
AcDbEntity
  8
RACCORDO
100
AcDbLine
 62
253
  6
CONTINUOUS
 10
41.6469173038
 20
19.339752891
 11
41.6423100653
 21
19.5080739797
  0
LINE
  5
527
100
AcDbEntity
  8
RACCORDO
100
AcDbLine
 62
253
  6
CONTINUOUS
 10
41.1529123704
 20
18.6065728771
 11
41.1469361019
 21
18.8656405577
  0
LINE
  5
528
100
AcDbEntity
  8
RACCORDO
100
AcDbLine
 62
253
  6
CONTINUOUS
 10
42.9470876296
 20
-18.6065728771
 11
42.9530638981
 21
-18.8656405577
  0
LINE
  5
529
100
AcDbEntity
  8
RACCORDO
100
AcDbLine
 62
253
  6
CONTINUOUS
 10
41.6528933312
 20
19.0670391183
 11
41.6469173038
 21
19.339752891
  0
LINE
  5
52A
100
AcDbEntity
  8
RACCORDO
100
AcDbLine
 62
253
  6
CONTINUOUS
 10
42.4471066688
 20
-19.0670391183
 11
42.4530826962
 21
-19.339752891
  0
LINE
  5
52B
100
AcDbEntity
  8
RACCORDO
100
AcDbLine
 62
253
  6
CONTINUOUS
 10
42.9397835547
 20
-18.2031387341
 11
42.9470876296
 21
-18.6065728771
  0
LINE
  5
52C
100
AcDbEntity
  8
RACCORDO
100
AcDbLine
 62
253
  6
CONTINUOUS
 10
41.6616457741
 20
18.5451013022
 11
41.6528933312
 21
19.0670391183
  0
LINE
  5
52D
100
AcDbEntity
  8
RACCORDO
100
AcDbLine
 62
253
  6
CONTINUOUS
 10
42.4383542259
 20
-18.5451013022
 11
42.4471066688
 21
-19.0670391183
  0
LINE
  5
52E
100
AcDbEntity
  8
RACCORDO
100
AcDbLine
 62
253
  6
CONTINUOUS
 10
42.928244021
 20
-17.3336619258
 11
42.9397835547
 21
-18.2031387341
  0
LINE
  5
52F
100
AcDbEntity
  8
RACCORDO
100
AcDbLine
 62
253
  6
CONTINUOUS
 10
41.6731742659
 20
17.5885545433
 11
41.6616457741
 21
18.5451013022
  0
LINE
  5
530
100
AcDbEntity
  8
RACCORDO
100
AcDbLine
 62
253
  6
CONTINUOUS
 10
42.4268257341
 20
-17.5885545433
 11
42.4383542259
 21
-18.5451013022
  0
LINE
  5
531
100
AcDbEntity
  8
RACCORDO
100
AcDbLine
 62
7
  6
CONTINUOUS
 10
43.8767800339
 20
-12.1920026615
 11
43.8720259377
 21
-11.7100316135
  0
LINE
  5
532
100
AcDbEntity
  8
RACCORDO
100
AcDbLine
 62
253
  6
CONTINUOUS
 10
42.9024937308
 20
-14.4745979797
 11
42.928244021
 21
-17.3336619258
  0
LINE
  5
533
100
AcDbEntity
  8
RACCORDO
100
AcDbLine
 62
253
  6
CONTINUOUS
 10
41.7011323302
 20
14.2859980362
 11
41.6731742659
 21
17.5885545433
  0
LINE
  5
534
100
AcDbEntity
  8
RACCORDO
100
AcDbLine
 62
253
  6
CONTINUOUS
 10
42.3988664679
 20
-14.2858237877
 11
42.4268257341
 21
-17.5885545433
  0
LINE
  5
535
100
AcDbEntity
  8
RACCORDO
100
AcDbLine
 62
253
  6
CONTINUOUS
 10
42.8770785038
 20
-10.1294505236
 11
42.9024937308
 21
-14.4745979797
  0
LINE
  5
536
100
AcDbEntity
  8
RACCORDO
100
AcDbLine
 62
253
  6
CONTINUOUS
 10
41.7254304271
 20
9.7562298032
 11
41.7011323302
 21
14.2859980362
  0
LINE
  5
537
100
AcDbEntity
  8
RACCORDO
100
AcDbLine
 62
253
  6
CONTINUOUS
 10
42.3745691147
 20
-9.7561167618
 11
42.3988664679
 21
-14.2858237877
  0
LINE
  5
538
100
AcDbEntity
  8
RACCORDO
100
AcDbLine
 62
7
  6
CONTINUOUS
 10
43.8720259377
 20
-11.7100316135
 11
43.8673543818
 21
-10.8471996939
  0
LINE
  5
539
100
AcDbEntity
  8
RACCORDO
100
AcDbLine
 62
7
  6
CONTINUOUS
 10
43.8673543818
 20
-10.8471996939
 11
43.8655493294
 21
-10.0
  0
LINE
  5
53A
100
AcDbEntity
  8
RACCORDO
100
AcDbLine
 62
253
  6
CONTINUOUS
 10
42.8597162045
 20
-3.3574543928
 11
42.8770785038
 21
-10.1294505236
  0
LINE
  5
53B
100
AcDbEntity
  8
RACCORDO
100
AcDbLine
 62
253
  6
CONTINUOUS
 10
41.740264757
 20
3.3574543928
 11
41.7254304271
 21
9.7562298032
  0
LINE
  5
53C
100
AcDbEntity
  8
RACCORDO
100
AcDbLine
 62
253
  6
CONTINUOUS
 10
42.359735243
 20
-3.3574543928
 11
42.3745691147
 21
-9.7561167618
  0
LINE
  5
53D
100
AcDbEntity
  8
RACCORDO
100
AcDbLine
 62
7
  6
CONTINUOUS
 10
42.8597162045
 20
3.3574543928
 11
42.8597162045
 21
-3.3574543928
  0
LINE
  5
53E
100
AcDbEntity
  8
RACCORDO
100
AcDbLine
 62
7
  6
CONTINUOUS
 10
43.05
 20
19.4999999971
 11
43.05
 21
17.35
  0
LINE
  5
53F
100
AcDbEntity
  8
RACCORDO
100
AcDbLine
 62
7
  6
CONTINUOUS
 10
43.05
 20
-17.35
 11
43.05
 21
-19.4999999971
  0
LINE
  5
540
100
AcDbEntity
  8
DRAFT
100
AcDbLine
 62
7
  6
CONTINUOUS
 10
43.95
 20
17.35
 11
43.95
 21
13.4
  0
LINE
  5
541
100
AcDbEntity
  8
DRAFT
100
AcDbLine
 62
7
  6
CONTINUOUS
 10
43.95
 20
-13.4
 11
43.95
 21
-17.35
  0
LINE
  5
542
100
AcDbEntity
  8
RACCORDO
100
AcDbLine
 62
253
  6
CONTINUOUS
 10
41.7357489657
 20
-6.6344606484
 11
41.740264757
 21
3.3574543928
  0
LINE
  5
543
100
AcDbEntity
  8
RACCORDO
100
AcDbLine
 62
253
  6
CONTINUOUS
 10
42.3642510723
 20
6.634476213
 11
42.359735243
 21
-3.3574543928
  0
LINE
  5
544
100
AcDbEntity
  8
RACCORDO
100
AcDbLine
 62
253
  6
CONTINUOUS
 10
42.8642320034
 20
6.4895437984
 11
42.8597162045
 21
3.3574543928
  0
LINE
  5
545
100
AcDbEntity
  8
RACCORDO
100
AcDbLine
 62
7
  6
CONTINUOUS
 10
43.8655493294
 20
10.0
 11
43.8678605856
 21
10.9808509897
  0
LINE
  5
546
100
AcDbEntity
  8
RACCORDO
100
AcDbLine
 62
253
  6
CONTINUOUS
 10
41.7113011944
 20
-12.6681591441
 11
41.7357489657
 21
-6.6344606484
  0
LINE
  5
547
100
AcDbEntity
  8
RACCORDO
100
AcDbLine
 62
253
  6
CONTINUOUS
 10
42.3886999261
 20
12.668354329
 11
42.3642510723
 21
6.634476213
  0
LINE
  5
548
100
AcDbEntity
  8
RACCORDO
100
AcDbLine
 62
253
  6
CONTINUOUS
 10
42.8886793741
 20
12.3897952208
 11
42.8642320034
 21
6.4895437984
  0
LINE
  5
549
100
AcDbEntity
  8
RACCORDO
100
AcDbLine
 62
7
  6
CONTINUOUS
 10
43.8678605856
 20
10.9808509897
 11
43.8728992724
 21
11.8175294368
  0
LINE
  5
54A
100
AcDbEntity
  8
RACCORDO
100
AcDbLine
 62
253
  6
CONTINUOUS
 10
41.6774983481
 20
-17.1611207418
 11
41.7113011944
 21
-12.6681591441
  0
LINE
  5
54B
100
AcDbEntity
  8
RACCORDO
100
AcDbLine
 62
253
  6
CONTINUOUS
 10
42.4225019009
 20
17.1611460306
 11
42.3886999261
 21
12.668354329
  0
LINE
  5
54C
100
AcDbEntity
  8
RACCORDO
100
AcDbLine
 62
253
  6
CONTINUOUS
 10
42.9224827084
 20
16.7834495347
 11
42.8886793741
 21
12.3897952208
  0
LINE
  5
54D
100
AcDbEntity
  8
RACCORDO
100
AcDbLine
 62
7
  6
CONTINUOUS
 10
43.8728992724
 20
11.8175294368
 11
43.8767800341
 21
12.1920026737
  0
LINE
  5
54E
100
AcDbEntity
  8
RACCORDO
100
AcDbLine
 62
253
  6
CONTINUOUS
 10
41.6616457741
 20
-18.5451012964
 11
41.6774983481
 21
-17.1611207418
  0
LINE
  5
54F
100
AcDbEntity
  8
RACCORDO
100
AcDbLine
 62
253
  6
CONTINUOUS
 10
42.4383542259
 20
18.5451012964
 11
42.4225019009
 21
17.1611460306
  0
LINE
  5
550
100
AcDbEntity
  8
RACCORDO
100
AcDbLine
 62
253
  6
CONTINUOUS
 10
42.936889291
 20
18.014136703
 11
42.9224827084
 21
16.7834495347
  0
LINE
  5
551
100
AcDbEntity
  8
RACCORDO
100
AcDbLine
 62
253
  6
CONTINUOUS
 10
42.945616198
 20
18.5333378512
 11
42.936889291
 21
18.014136703
  0
LINE
  5
552
100
AcDbEntity
  8
RACCORDO
100
AcDbLine
 62
253
  6
CONTINUOUS
 10
41.6528933312
 20
-19.0670391164
 11
41.6616457741
 21
-18.5451012964
  0
LINE
  5
553
100
AcDbEntity
  8
RACCORDO
100
AcDbLine
 62
253
  6
CONTINUOUS
 10
42.4471066688
 20
19.0670391164
 11
42.4383542259
 21
18.5451012964
  0
LINE
  5
554
100
AcDbEntity
  8
RACCORDO
100
AcDbLine
 62
253
  6
CONTINUOUS
 10
42.9515540391
 20
18.8058696029
 11
42.945616198
 21
18.5333378512
  0
LINE
  5
555
100
AcDbEntity
  8
RACCORDO
100
AcDbLine
 62
253
  6
CONTINUOUS
 10
42.4530826962
 20
19.3397528917
 11
42.4471066688
 21
19.0670391164
  0
LINE
  5
556
100
AcDbEntity
  8
RACCORDO
100
AcDbLine
 62
253
  6
CONTINUOUS
 10
41.6469173038
 20
-19.3397528917
 11
41.6528933312
 21
-19.0670391164
  0
LINE
  5
557
100
AcDbEntity
  8
RACCORDO
100
AcDbLine
 62
253
  6
CONTINUOUS
 10
41.1469361019
 20
-18.8656405584
 11
41.1529123704
 21
-18.6065728753
  0
LINE
  5
558
100
AcDbEntity
  8
RACCORDO
100
AcDbLine
 62
253
  6
CONTINUOUS
 10
42.9561205055
 20
18.9754920484
 11
42.9515540391
 21
18.8058696029
  0
LINE
  5
559
100
AcDbEntity
  8
RACCORDO
100
AcDbLine
 62
253
  6
CONTINUOUS
 10
42.4576899347
 20
19.5080739817
 11
42.4530826962
 21
19.3397528917
  0
LINE
  5
55A
100
AcDbEntity
  8
RACCORDO
100
AcDbLine
 62
253
  6
CONTINUOUS
 10
41.6423100653
 20
-19.5080739817
 11
41.6469173038
 21
-19.3397528917
  0
LINE
  5
55B
100
AcDbEntity
  8
RACCORDO
100
AcDbLine
 62
253
  6
CONTINUOUS
 10
41.1423286776
 20
-19.0255496141
 11
41.1469361019
 21
-18.8656405584
  0
LINE
  5
55C
100
AcDbEntity
  8
RACCORDO
100
AcDbLine
 62
253
  6
CONTINUOUS
 10
42.9592384106
 20
19.0724164125
 11
42.9561205055
 21
18.9754920484
  0
LINE
  5
55D
100
AcDbEntity
  8
RACCORDO
100
AcDbLine
 62
253
  6
CONTINUOUS
 10
42.4608403082
 20
19.6032706828
 11
42.4576899347
 21
19.5080739817
  0
LINE
  5
55E
100
AcDbEntity
  8
RACCORDO
100
AcDbLine
 62
253
  6
CONTINUOUS
 10
41.6391596918
 20
-19.6032706828
 11
41.6423100653
 21
-19.5080739817
  0
LINE
  5
55F
100
AcDbEntity
  8
RACCORDO
100
AcDbLine
 62
253
  6
CONTINUOUS
 10
41.139178173
 20
-19.1160449798
 11
41.1423286776
 21
-19.0255496141
  0
LWPOLYLINE
  5
560
100
AcDbEntity
  8
RACCORDO
100
AcDbPolyline
 62
7
  6
CONTINUOUS
 90
19
 70
0
 10
43.05
 20
-19.4999999971
 10
43.0480981684
 20
-19.5435750005
 10
43.0424067521
 20
-19.5868186415
 10
43.0329688641
 20
-19.629402001
 10
43.0198561395
 20
-19.6710012714
 10
43.0031681344
 20
-19.7112998332
 10
42.9830316196
 20
-19.7499906833
 10
42.9595996391
 20
-19.786779421
 10
42.933050391
 20
-19.8213860568
 10
42.9035859203
 20
-19.8535468238
 10
42.8714303573
 20
-19.8830169411
 10
42.836828358
 20
-19.9095721236
 10
42.8000434454
 20
-19.9330099943
 10
42.7613555532
 20
-19.9531521506
 10
42.7210590742
 20
-19.9698453451
 10
42.6794609085
 20
-19.9829624775
 10
42.6368777039
 20
-19.9924037514
 10
42.5936334184
 20
-19.9980973637
 10
42.5500571132
 20
-20.0
  0
LWPOLYLINE
  5
561
100
AcDbEntity
  8
RACCORDO
100
AcDbPolyline
 62
253
  6
CONTINUOUS
 90
19
 70
0
 10
42.9779429301
 20
-19.355874881
 10
42.9760340843
 20
-19.399441902
 10
42.9703353435
 20
-19.4426774159
 10
42.9608900702
 20
-19.4852524381
 10
42.9477701346
 20
-19.5268430097
 10
42.9310753681
 20
-19.5671326628
 10
42.9109328033
 20
-19.6058148282
 10
42.8874957075
 20
-19.6425951683
 10
42.8609424166
 20
-19.6771938168
 10
42.8314749781
 20
-19.709347508
 10
42.7993176135
 20
-19.7388115803
 10
42.7647150124
 20
-19.7653618379
 10
42.7279304703
 20
-19.7887962565
 10
42.6892438856
 20
-19.8089365204
 10
42.6489496296
 20
-19.8256293798
 10
42.6073543064
 20
-19.8387478167
 10
42.5647744202
 20
-19.848192011
 10
42.5215339669
 20
-19.8538901008
 10
42.4779619686
 20
-19.8557987286
  0
LWPOLYLINE
  5
562
100
AcDbEntity
  8
RACCORDO
100
AcDbPolyline
 62
253
  6
CONTINUOUS
 90
19
 70
0
 10
42.9268066956
 20
-17.201992905
 10
42.924677127
 20
-17.2355660589
 10
42.918785249
 20
-17.2688854957
 10
42.9091755871
 20
-17.3016994175
 10
42.8959207624
 20
-17.3337598462
 10
42.8791209429
 20
-17.3648244984
 10
42.8589030864
 20
-17.3946586154
 10
42.8354199811
 20
-17.4230367382
 10
42.8088490909
 20
-17.4497444105
 10
42.7793912147
 20
-17.4745798
 10
42.7472689683
 20
-17.4973552234
 10
42.7127251025
 20
-17.5178985647
 10
42.6760206686
 20
-17.5360545759
 10
42.6374330453
 20
-17.5516860503
 10
42.5972538429
 20
-17.5646748595
 10
42.5557866995
 20
-17.5749228457
 10
42.513344986
 20
-17.5823525641
 10
42.4702494385
 20
-17.5869078675
 10
42.4268257341
 20
-17.5885543311
  0
LWPOLYLINE
  5
563
100
AcDbEntity
  8
RACCORDO
100
AcDbPolyline
 62
253
  6
CONTINUOUS
 90
19
 70
0
 10
42.8626422719
 20
-5.8590870777
 10
42.8603947875
 20
-5.8705014204
 10
42.8543997595
 20
-5.881829814
 10
42.8447023259
 20
-5.8929869645
 10
42.8313755006
 20
-5.9038888672
 10
42.8145196243
 20
-5.9144534394
 10
42.7942616086
 20
-5.9246011381
 10
42.7707539805
 20
-5.9342555591
 10
42.7441737339
 20
-5.9433440121
 10
42.7147209975
 20
-5.9517980682
 10
42.6826175272
 20
-5.9595540749
 10
42.6481050371
 20
-5.9665536357
 10
42.6114433792
 20
-5.9727440492
 10
42.5729085872
 20
-5.9780787065
 10
42.5327907979
 20
-5.9825174419
 10
42.4913920669
 20
-5.986026835
 10
42.4490240942
 20
-5.9885804629
 10
42.4060058775
 20
-5.9901590988
 10
42.3626613104
 20
-5.9907508569
  0
LWPOLYLINE
  5
564
100
AcDbEntity
  8
RACCORDO
100
AcDbPolyline
 62
253
  6
CONTINUOUS
 90
10
 70
0
 10
41.1220570699
 20
-19.355874881
 10
41.1238921378
 20
-19.3495523537
 10
41.1256984276
 20
-19.3391571081
 10
41.1274759393
 20
-19.3246891443
 10
41.1292232791
 20
-19.306001784
 10
41.1309418407
 20
-19.2832417054
 10
41.1326358055
 20
-19.2568489431
 10
41.1343051871
 20
-19.2268789335
 10
41.1359499719
 20
-19.1932762403
 10
41.139178173
 20
-19.1160449798
  0
LWPOLYLINE
  5
565
100
AcDbEntity
  8
RACCORDO
100
AcDbPolyline
 62
7
  6
CONTINUOUS
 90
3
 70
0
 10
52.2205053875
 20
12.83419089
 10
52.2041719371
 20
12.7942677917
 10
52.1922190501
 20
12.7710051094
  0
LINE
  5
566
100
AcDbEntity
  8
RACCORDO
100
AcDbLine
 62
7
  6
CONTINUOUS
 10
41.05
 20
-14.1
 11
41.100455129
 21
-13.9990820562
  0
LINE
  5
567
100
AcDbEntity
  8
RACCORDO
100
AcDbLine
 62
7
  6
CONTINUOUS
 10
41.100455129
 20
13.9990820562
 11
41.05
 21
14.1
  0
LWPOLYLINE
  5
568
100
AcDbEntity
  8
RACCORDO
100
AcDbPolyline
 62
7
  6
CONTINUOUS
 90
3
 70
0
 10
52.2205053875
 20
-12.83419089
 10
52.2041719371
 20
-12.7942677917
 10
52.1922183406
 20
-12.7710037284
  0
LWPOLYLINE
  5
569
100
AcDbEntity
  8
RACCORDO
100
AcDbPolyline
 62
253
  6
CONTINUOUS
 90
19
 70
0
 10
42.8626422719
 20
5.8590870777
 10
42.8603950827
 20
5.8705014783
 10
42.8544003129
 20
5.8818299357
 10
42.8447030991
 20
5.8929871547
 10
42.8313764542
 20
5.9038891294
 10
42.8145207184
 20
5.9144537757
 10
42.7942628034
 20
5.9246015493
 10
42.7707552369
 20
5.9342560447
 10
42.744175014
 20
5.9433445705
 10
42.7147222649
 20
5.9517986965
 10
42.6826187479
 20
5.9595547693
 10
42.6481061794
 20
5.966554391
 10
42.6114444146
 20
5.9727448596
 10
42.5729094904
 20
5.9780795652
 10
42.5327915473
 20
5.9825183413
 10
42.4913926448
 20
5.986027767
 10
42.4490244871
 20
5.988581419
 10
42.4060060763
 20
5.99016007
 10
42.3626613104
 20
5.9907518339
  0
LINE
  5
56A
100
AcDbEntity
  8
RACCORDO
100
AcDbLine
 62
7
  6
CONTINUOUS
 10
45.55
 20
-14.1
 11
45.55
 21
14.1
  0
LWPOLYLINE
  5
56B
100
AcDbEntity
  8
RACCORDO
100
AcDbPolyline
 62
253
  6
CONTINUOUS
 90
8
 70
0
 10
51.6996019842
 20
13.9990820562
 10
51.6978083727
 20
13.9899209782
 10
51.6960272728
 20
13.9704051296
 10
51.6942586843
 20
13.9405753249
 10
51.6924990008
 20
13.9004939149
 10
51.6907518287
 20
13.8502443067
 10
51.6890279882
 20
13.7899304821
 10
51.6856505886
 20
13.6396315412
  0
LWPOLYLINE
  5
56C
100
AcDbEntity
  8
RACCORDO
100
AcDbPolyline
 62
253
  6
CONTINUOUS
 90
8
 70
0
 10
52.1995829457
 20
13.4991582086
 10
52.1977906778
 20
13.490845908
 10
52.1960103206
 20
13.4733072518
 10
52.1942418739
 20
13.4465422401
 10
52.1924815121
 20
13.4104560941
 10
52.1907330609
 20
13.3651435926
 10
52.189007998
 20
13.3108890718
 10
52.1856283332
 20
13.1754141837
  0
LWPOLYLINE
  5
56D
100
AcDbEntity
  8
RACCORDO
100
AcDbPolyline
 62
253
  6
CONTINUOUS
 90
4
 70
0
 10
52.1979542103
 20
12.9150456774
 10
52.198324347
 20
12.9167346947
 10
52.2038921282
 20
12.9595088623
 10
52.2057526327
 20
13.0026037657
  0
LWPOLYLINE
  5
56E
100
AcDbEntity
  8
RACCORDO
100
AcDbPolyline
 62
253
  6
CONTINUOUS
 90
10
 70
0
 10
41.6220380314
 20
-19.8557987286
 10
41.6238736162
 20
-19.8494862142
 10
41.6256802726
 20
-19.8384701958
 10
41.6274580006
 20
-19.8229604599
 10
41.6292053552
 20
-19.8031912877
 10
41.6309237815
 20
-19.7793541537
 10
41.6326176144
 20
-19.7515460472
 10
41.6342869192
 20
-19.719922025
 10
41.6359316305
 20
-19.6846415105
 10
41.6391596918
 20
-19.6032706828
  0
LINE
  5
56F
100
AcDbEntity
  8
RACCORDO
100
AcDbLine
 62
253
  6
CONTINUOUS
 10
41.05
 20
-19.4999999971
 11
41.1220570699
 21
-19.355874881
  0
LINE
  5
570
100
AcDbEntity
  8
RACCORDO
100
AcDbLine
 62
253
  6
CONTINUOUS
 10
41.5499428868
 20
-20.0
 11
41.6220380314
 21
-19.8557987286
  0
LINE
  5
571
100
AcDbEntity
  8
RACCORDO
100
AcDbLine
 62
253
  6
CONTINUOUS
 10
41.1220570699
 20
19.355874881
 11
41.05
 21
19.4999999971
  0
LINE
  5
572
100
AcDbEntity
  8
RACCORDO
100
AcDbLine
 62
253
  6
CONTINUOUS
 10
41.6220380314
 20
19.8557987286
 11
41.5499428868
 21
20.0
  0
LWPOLYLINE
  5
573
100
AcDbEntity
  8
RACCORDO
100
AcDbPolyline
 62
253
  6
CONTINUOUS
 90
4
 70
0
 10
52.1979528851
 20
-12.9150396306
 10
52.1983243471
 20
-12.9167346951
 10
52.2038921282
 20
-12.9595088626
 10
52.2057526327
 20
-13.0026037657
  0
LWPOLYLINE
  5
574
100
AcDbEntity
  8
RACCORDO
100
AcDbPolyline
 62
7
  6
CONTINUOUS
 90
5
 70
0
 10
52.1991110642
 20
-12.9318873356
 10
52.1991479587
 20
-12.9322592961
 10
52.1991335312
 20
-12.9321010619
 10
52.1990721519
 20
-12.931393218
 10
52.1989789322
 20
-12.9302556182
  0
LINE
  5
575
100
AcDbEntity
  8
RACCORDO
100
AcDbLine
 62
7
  6
CONTINUOUS
 10
52.1988580776
 20
-12.9286996757
 11
52.1985455182
 21
-12.924346322
  0
LINE
  5
576
100
AcDbEntity
  8
RACCORDO
100
AcDbLine
 62
7
  6
CONTINUOUS
 10
52.1985455182
 20
-12.924346322
 11
52.1981675621
 21
-12.9185570581
  0
LINE
  5
577
100
AcDbEntity
  8
RACCORDO
100
AcDbLine
 62
7
  6
CONTINUOUS
 10
52.1981675621
 20
-12.9185570581
 11
52.19773944
 21
-12.9113939358
  0
LINE
  5
578
100
AcDbEntity
  8
RACCORDO
100
AcDbLine
 62
253
  6
CONTINUOUS
 10
52.1792710197
 20
12.802594389
 11
52.1771768937
 21
12.8393113417
  0
LINE
  5
579
100
AcDbEntity
  8
RACCORDO
100
AcDbLine
 62
7
  6
CONTINUOUS
 10
52.19773944
 20
-12.9113939358
 11
52.1970240938
 21
-12.898121108
  0
LINE
  5
57A
100
AcDbEntity
  8
RACCORDO
100
AcDbLine
 62
253
  6
CONTINUOUS
 10
52.1983195815
 20
-12.936106536
 11
52.1969825042
 21
-12.9098366353
  0
LINE
  5
57B
100
AcDbEntity
  8
RACCORDO
100
AcDbLine
 62
7
  6
CONTINUOUS
 10
52.1970240938
 20
-12.898121108
 11
52.1962392765
 21
-12.8818007071
  0
LWPOLYLINE
  5
57C
100
AcDbEntity
  8
RACCORDO
100
AcDbPolyline
 62
253
  6
CONTINUOUS
 90
19
 70
0
 10
52.1995829457
 20
13.4991582086
 10
52.1976741134
 20
13.5427250762
 10
52.191975409
 20
13.5859604611
 10
52.1825301889
 20
13.628535381
 10
52.1694103172
 20
13.6701258788
 10
52.1527156189
 20
13.7104154862
 10
52.1325731215
 20
13.7490976318
 10
52.1091360866
 20
13.7858779769
 10
52.0825828452
 20
13.8204766523
 10
52.0531154424
 20
13.852630387
 10
52.020958096
 20
13.8820945162
 10
51.986355493
 20
13.9086448399
 10
51.9495709311
 20
13.932079327
 10
51.9108843072
 20
13.9522196586
 10
51.8705899927
 20
13.9689125809
 10
51.8289945977
 20
13.9820310704
 10
51.7864146294
 20
13.9914753045
 10
51.7431740835
 20
13.9971734196
 10
51.6996019842
 20
13.9990820562
  0
LWPOLYLINE
  5
57D
100
AcDbEntity
  8
RACCORDO
100
AcDbPolyline
 62
7
  6
CONTINUOUS
 90
19
 70
0
 10
52.25
 20
13.5999999971
 10
52.2480981684
 20
13.6435750005
 10
52.2424067521
 20
13.6868186415
 10
52.2329688641
 20
13.729402001
 10
52.2198561395
 20
13.7710012714
 10
52.2031681344
 20
13.8112998332
 10
52.1830316196
 20
13.8499906833
 10
52.1595996391
 20
13.886779421
 10
52.133050391
 20
13.9213860568
 10
52.1035859203
 20
13.9535468238
 10
52.0714303573
 20
13.9830169411
 10
52.036828358
 20
14.0095721236
 10
52.0000434454
 20
14.0330099943
 10
51.9613555532
 20
14.0531521506
 10
51.9210590742
 20
14.0698453451
 10
51.8794609085
 20
14.0829624775
 10
51.8368777039
 20
14.0924037514
 10
51.7936334184
 20
14.0980973637
 10
51.7500571132
 20
14.1
  0
LWPOLYLINE
  5
57E
100
AcDbEntity
  8
RACCORDO
100
AcDbPolyline
 62
7
  6
CONTINUOUS
 90
5
 70
0
 10
52.25
 20
-13.0033761064
 10
52.2481393261
 20
-12.960281651
 10
52.2425711725
 20
-12.9175078634
 10
52.2333369623
 20
-12.8753730847
 10
52.2205053875
 20
-12.83419089
  0
LINE
  5
57F
100
AcDbEntity
  8
RACCORDO
100
AcDbLine
 62
253
  6
CONTINUOUS
 10
52.1969825042
 20
-12.9098366353
 11
52.1962392765
 21
-12.8818007071
  0
LINE
  5
580
100
AcDbEntity
  8
RACCORDO
100
AcDbLine
 62
7
  6
CONTINUOUS
 10
52.1962392765
 20
-12.8818007071
 11
52.1951025047
 21
-12.8550422113
  0
LINE
  5
581
100
AcDbEntity
  8
RACCORDO
100
AcDbLine
 62
253
  6
CONTINUOUS
 10
52.1956523418
 20
-12.8792442284
 11
52.1951025047
 21
-12.8550422113
  0
LINE
  5
582
100
AcDbEntity
  8
RACCORDO
100
AcDbLine
 62
7
  6
CONTINUOUS
 10
52.1951025047
 20
-12.8550422113
 11
52.1938763135
 21
-12.8221364798
  0
LINE
  5
583
100
AcDbEntity
  8
RACCORDO
100
AcDbLine
 62
253
  6
CONTINUOUS
 10
52.1943301395
 20
-12.8443516585
 11
52.1938763135
 21
-12.8221364798
  0
LWPOLYLINE
  5
584
100
AcDbEntity
  8
RACCORDO
100
AcDbPolyline
 62
253
  6
CONTINUOUS
 90
7
 70
0
 10
52.1890099151
 20
-13.310954817
 10
52.1907350074
 20
-13.365198894
 10
52.1924834286
 20
-13.4104989193
 10
52.1942435918
 20
-13.4465730479
 10
52.1960116345
 20
-13.4733273315
 10
52.1977914192
 20
-13.4908557184
 10
52.1995829457
 20
-13.4991582086
  0
LINE
  5
585
100
AcDbEntity
  8
RACCORDO
100
AcDbLine
 62
7
  6
CONTINUOUS
 10
52.1938763135
 20
-12.8221364798
 11
52.1922422807
 21
-12.7718068796
  0
LINE
  5
586
100
AcDbEntity
  8
RACCORDO
100
AcDbLine
 62
253
  6
CONTINUOUS
 10
52.1923642258
 20
-12.784015928
 11
52.1922422807
 21
-12.7718068796
  0
LWPOLYLINE
  5
587
100
AcDbEntity
  8
RACCORDO
100
AcDbPolyline
 62
253
  6
CONTINUOUS
 90
7
 70
0
 10
51.689028002
 20
-13.7899308872
 10
51.6907518426
 20
-13.8502446379
 10
51.6924990145
 20
-13.9004941585
 10
51.6942586966
 20
-13.9405754818
 10
51.6960272822
 20
-13.970405211
 10
51.697808378
 20
-13.989921004
 10
51.6996019842
 20
-13.9990820562
  0
LINE
  5
588
100
AcDbEntity
  8
RACCORDO
100
AcDbLine
 62
7
  6
CONTINUOUS
 10
52.1922422807
 20
-12.7718068796
 11
52.1901676246
 21
-12.6971174315
  0
LINE
  5
589
100
AcDbEntity
  8
RACCORDO
100
AcDbLine
 62
253
  6
CONTINUOUS
 10
52.1904224122
 20
-12.7141840589
 11
52.1901676246
 21
-12.6971174315
  0
LINE
  5
58A
100
AcDbEntity
  8
RACCORDO
100
AcDbLine
 62
253
  6
CONTINUOUS
 10
52.1856301399
 20
-13.17549904
 11
52.1890099151
 21
-13.310954817
  0
LINE
  5
58B
100
AcDbEntity
  8
RACCORDO
100
AcDbLine
 62
7
  6
CONTINUOUS
 10
52.1901676246
 20
-12.6971174315
 11
52.1872515663
 21
-12.5710203333
  0
LINE
  5
58C
100
AcDbEntity
  8
RACCORDO
100
AcDbLine
 62
253
  6
CONTINUOUS
 10
51.6856506025
 20
-13.6396319972
 11
51.689028002
 21
-13.7899308872
  0
LINE
  5
58D
100
AcDbEntity
  8
RACCORDO
100
AcDbLine
 62
253
  6
CONTINUOUS
 10
52.1872484402
 20
-12.5770125242
 11
52.1872515663
 21
-12.5710203333
  0
LINE
  5
58E
100
AcDbEntity
  8
RACCORDO
100
AcDbLine
 62
253
  6
CONTINUOUS
 10
52.1868768532
 20
-12.5529591926
 11
52.1866239084
 21
-12.5464957904
  0
LINE
  5
58F
100
AcDbEntity
  8
RACCORDO
100
AcDbLine
 62
7
  6
CONTINUOUS
 10
52.1872515663
 20
-12.5710203333
 11
52.1830311626
 21
-12.341499191
  0
LINE
  5
590
100
AcDbEntity
  8
RACCORDO
100
AcDbLine
 62
253
  6
CONTINUOUS
 10
52.1808084641
 20
-12.9084686373
 11
52.1856301399
 21
-13.17549904
  0
LINE
  5
591
100
AcDbEntity
  8
RACCORDO
100
AcDbLine
 62
253
  6
CONTINUOUS
 10
51.680828748
 20
-13.342487878
 11
51.6856506025
 21
-13.6396319972
  0
LINE
  5
592
100
AcDbEntity
  8
RACCORDO
100
AcDbLine
 62
7
  6
CONTINUOUS
 10
52.1830311626
 20
-12.341499191
 11
52.1754694076
 21
-11.7810027833
  0
LINE
  5
593
100
AcDbEntity
  8
RACCORDO
100
AcDbLine
 62
7
  6
CONTINUOUS
 10
52.1754694076
 20
-11.7810027833
 11
52.1605919983
 21
-10.3340049989
  0
LINE
  5
594
100
AcDbEntity
  8
RACCORDO
100
AcDbLine
 62
253
  6
CONTINUOUS
 10
51.657425008
 20
-11.1754611758
 11
51.680828748
 21
-13.342487878
  0
LINE
  5
595
100
AcDbEntity
  8
RACCORDO
100
AcDbLine
 62
253
  6
CONTINUOUS
 10
52.162014866
 20
-10.4973098255
 11
52.1605919983
 21
-10.3340049989
  0
LINE
  5
596
100
AcDbEntity
  8
RACCORDO
100
AcDbLine
 62
253
  6
CONTINUOUS
 10
52.1479273904
 20
-9.6342920725
 11
52.1808084641
 21
-12.9084686373
  0
LINE
  5
597
100
AcDbEntity
  8
RACCORDO
100
AcDbLine
 62
7
  6
CONTINUOUS
 10
52.1605919983
 20
-10.3340049989
 11
52.1478122367
 21
-8.6405422329
  0
LINE
  5
598
100
AcDbEntity
  8
RACCORDO
100
AcDbLine
 62
253
  6
CONTINUOUS
 10
51.634752854
 20
-7.673718525
 11
51.657425008
 21
-11.1754611758
  0
LINE
  5
599
100
AcDbEntity
  8
RACCORDO
100
AcDbLine
 62
7
  6
CONTINUOUS
 10
52.1478122367
 20
-8.6405422329
 11
52.1374473946
 21
-6.7413673092
  0
LINE
  5
59A
100
AcDbEntity
  8
RACCORDO
100
AcDbLine
 62
253
  6
CONTINUOUS
 10
52.1383974211
 20
-6.9506875936
 11
52.1374473946
 21
-6.7413673092
  0
LINE
  5
59B
100
AcDbEntity
  8
RACCORDO
100
AcDbLine
 62
253
  6
CONTINUOUS
 10
52.1267501165
 20
-5.4941222141
 11
52.1479273904
 21
-9.6342920725
  0
LINE
  5
59C
100
AcDbEntity
  8
RACCORDO
100
AcDbLine
 62
253
  6
CONTINUOUS
 10
52.1788771723
 20
-12.0541366234
 11
52.1788998678
 21
-12.0605966655
  0
LINE
  5
59D
100
AcDbEntity
  8
RACCORDO
100
AcDbLine
 62
7
  6
CONTINUOUS
 10
52.1374473946
 20
-6.7413673092
 11
52.1297497875
 21
-4.6822661013
  0
LINE
  5
59E
100
AcDbEntity
  8
RACCORDO
100
AcDbLine
 62
7
  6
CONTINUOUS
 10
52.1297497875
 20
-4.6822661013
 11
52.1249022155
 21
-2.5125319013
  0
LINE
  5
59F
100
AcDbEntity
  8
RACCORDO
100
AcDbLine
 62
253
  6
CONTINUOUS
 10
51.6194377554
 20
-2.4786751135
 11
51.634752854
 21
-7.673718525
  0
LINE
  5
5A0
100
AcDbEntity
  8
RACCORDO
100
AcDbLine
 62
253
  6
CONTINUOUS
 10
52.1177709366
 20
-0.2681023473
 11
52.1267501165
 21
-5.4941222141
  0
LINE
  5
5A1
100
AcDbEntity
  8
RACCORDO
100
AcDbLine
 62
7
  6
CONTINUOUS
 10
52.1249022155
 20
-2.5125319013
 11
52.1230189913
 21
-0.2835100408
  0
LINE
  5
5A2
100
AcDbEntity
  8
RACCORDO
100
AcDbLine
 62
7
  6
CONTINUOUS
 10
52.25
 20
13.5999999971
 11
52.25
 21
13.0033761064
  0
LINE
  5
5A3
100
AcDbEntity
  8
RACCORDO
100
AcDbLine
 62
7
  6
CONTINUOUS
 10
52.25
 20
-13.0033761064
 11
52.25
 21
-13.5999999971
  0
LINE
  5
5A4
100
AcDbEntity
  8
RACCORDO
100
AcDbLine
 62
7
  6
CONTINUOUS
 10
52.1230189913
 20
-0.2835100408
 11
52.1241432147
 21
1.95249614
  0
LINE
  5
5A5
100
AcDbEntity
  8
RACCORDO
100
AcDbLine
 62
253
  6
CONTINUOUS
 10
51.6212429556
 20
3.5636106858
 11
51.6194377554
 21
-2.4786751135
  0
LINE
  5
5A6
100
AcDbEntity
  8
RACCORDO
100
AcDbLine
 62
7
  6
CONTINUOUS
 10
52.1241432147
 20
1.95249614
 11
52.1282506663
 21
4.1427246255
  0
LINE
  5
5A7
100
AcDbEntity
  8
RACCORDO
100
AcDbLine
 62
253
  6
CONTINUOUS
 10
52.128225653
 20
4.1408750447
 11
52.1282506663
 21
4.1427246255
  0
LINE
  5
5A8
100
AcDbEntity
  8
RACCORDO
100
AcDbLine
 62
253
  6
CONTINUOUS
 10
52.1267489653
 20
5.4937839471
 11
52.1177709366
 21
-0.2681023473
  0
LINE
  5
5A9
100
AcDbEntity
  8
RACCORDO
100
AcDbLine
 62
7
  6
CONTINUOUS
 10
52.1282506663
 20
4.1427246255
 11
52.1352453074
 21
6.2350191603
  0
LINE
  5
5AA
100
AcDbEntity
  8
RACCORDO
100
AcDbLine
 62
253
  6
CONTINUOUS
 10
52.1788772555
 20
12.0541353551
 11
52.1789044791
 21
12.0595797665
  0
LINE
  5
5AB
100
AcDbEntity
  8
RACCORDO
100
AcDbLine
 62
253
  6
CONTINUOUS
 10
51.6396181168
 20
8.6175500371
 11
51.6212429556
 21
3.5636106858
  0
LINE
  5
5AC
100
AcDbEntity
  8
RACCORDO
100
AcDbLine
 62
7
  6
CONTINUOUS
 10
52.1352453074
 20
6.2350191603
 11
52.1449585172
 21
8.1791033147
  0
LINE
  5
5AD
100
AcDbEntity
  8
RACCORDO
100
AcDbLine
 62
253
  6
CONTINUOUS
 10
52.1448937707
 20
8.1727188978
 11
52.1449585172
 21
8.1791033147
  0
LINE
  5
5AE
100
AcDbEntity
  8
RACCORDO
100
AcDbLine
 62
253
  6
CONTINUOUS
 10
52.1509615574
 20
10.0412687999
 11
52.1267489653
 21
5.4937839471
  0
LINE
  5
5AF
100
AcDbEntity
  8
RACCORDO
100
AcDbLine
 62
7
  6
CONTINUOUS
 10
52.1449585172
 20
8.1791033147
 11
52.1571540806
 21
9.9282143793
  0
LINE
  5
5B0
100
AcDbEntity
  8
RACCORDO
100
AcDbLine
 62
253
  6
CONTINUOUS
 10
52.1556114747
 20
9.7400038658
 11
52.1571540806
 21
9.9282143793
  0
LINE
  5
5B1
100
AcDbEntity
  8
RACCORDO
100
AcDbLine
 62
253
  6
CONTINUOUS
 10
51.6643204101
 20
11.9207708896
 11
51.6396181168
 21
8.6175500371
  0
LINE
  5
5B2
100
AcDbEntity
  8
RACCORDO
100
AcDbLine
 62
7
  6
CONTINUOUS
 10
52.1571540806
 20
9.9282143793
 11
52.1715294179
 21
11.4404509998
  0
LINE
  5
5B3
100
AcDbEntity
  8
RACCORDO
100
AcDbLine
 62
253
  6
CONTINUOUS
 10
51.6824011486
 20
13.450840955
 11
51.6643204101
 21
11.9207708896
  0
LINE
  5
5B4
100
AcDbEntity
  8
RACCORDO
100
AcDbLine
 62
253
  6
CONTINUOUS
 10
52.1808077976
 20
12.9084301693
 11
52.1509615574
 21
10.0412687999
  0
LINE
  5
5B5
100
AcDbEntity
  8
RACCORDO
100
AcDbLine
 62
7
  6
CONTINUOUS
 10
52.1715294179
 20
11.4404509998
 11
52.1827987831
 21
12.3271234641
  0
LINE
  5
5B6
100
AcDbEntity
  8
RACCORDO
100
AcDbLine
 62
253
  6
CONTINUOUS
 10
51.6856505886
 20
13.6396315412
 11
51.6824011486
 21
13.450840955
  0
LINE
  5
5B7
100
AcDbEntity
  8
RACCORDO
100
AcDbLine
 62
253
  6
CONTINUOUS
 10
52.1856283332
 20
13.1754141837
 11
52.1808077976
 21
12.9084301693
  0
LINE
  5
5B8
100
AcDbEntity
  8
RACCORDO
100
AcDbLine
 62
7
  6
CONTINUOUS
 10
52.1827987831
 20
12.3271234641
 11
52.1870052516
 21
12.5591970719
  0
LINE
  5
5B9
100
AcDbEntity
  8
RACCORDO
100
AcDbLine
 62
7
  6
CONTINUOUS
 10
52.1870052516
 20
12.5591970719
 11
52.1898797425
 21
12.6857828944
  0
LINE
  5
5BA
100
AcDbEntity
  8
RACCORDO
100
AcDbLine
 62
7
  6
CONTINUOUS
 10
52.1898797425
 20
12.6857828944
 11
52.1920614554
 21
12.7657803587
  0
LINE
  5
5BB
100
AcDbEntity
  8
RACCORDO
100
AcDbLine
 62
253
  6
CONTINUOUS
 10
52.1929744385
 20
12.7952754128
 11
52.1930164209
 21
12.8051697055
  0
LINE
  5
5BC
100
AcDbEntity
  8
RACCORDO
100
AcDbLine
 62
7
  6
CONTINUOUS
 10
52.1920614554
 20
12.7657803587
 11
52.1938699888
 21
12.8219560064
  0
LINE
  5
5BD
100
AcDbEntity
  8
RACCORDO
100
AcDbLine
 62
253
  6
CONTINUOUS
 10
52.1944554176
 20
12.838196861
 11
52.1949897621
 21
12.8623225932
  0
LINE
  5
5BE
100
AcDbEntity
  8
RACCORDO
100
AcDbLine
 62
7
  6
CONTINUOUS
 10
52.1938699888
 20
12.8219560064
 11
52.1950298751
 21
12.853209544
  0
LINE
  5
5BF
100
AcDbEntity
  8
RACCORDO
100
AcDbLine
 62
253
  6
CONTINUOUS
 10
52.1958666757
 20
12.8734314361
 11
52.1963161515
 21
12.8950714472
  0
LWPOLYLINE
  5
5C0
100
AcDbEntity
  8
RACCORDO
100
AcDbPolyline
 62
7
  6
CONTINUOUS
 90
5
 70
0
 10
52.25
 20
13.0033761064
 10
52.2481393261
 20
12.960281651
 10
52.2425711725
 20
12.9175078634
 10
52.2333369623
 20
12.8753730847
 10
52.2205053875
 20
12.83419089
  0
LWPOLYLINE
  5
5C1
100
AcDbEntity
  8
RACCORDO
100
AcDbPolyline
 62
7
  6
CONTINUOUS
 90
19
 70
0
 10
52.25
 20
-13.5999999971
 10
52.2480981684
 20
-13.6435750005
 10
52.2424067521
 20
-13.6868186415
 10
52.2329688641
 20
-13.729402001
 10
52.2198561395
 20
-13.7710012714
 10
52.2031681344
 20
-13.8112998332
 10
52.1830316196
 20
-13.8499906833
 10
52.1595996391
 20
-13.886779421
 10
52.133050391
 20
-13.9213860568
 10
52.1035859203
 20
-13.9535468238
 10
52.0714303573
 20
-13.9830169411
 10
52.036828358
 20
-14.0095721236
 10
52.0000434454
 20
-14.0330099943
 10
51.9613555532
 20
-14.0531521506
 10
51.9210590742
 20
-14.0698453451
 10
51.8794609085
 20
-14.0829624775
 10
51.8368777039
 20
-14.0924037514
 10
51.7936334184
 20
-14.0980973637
 10
51.7500571132
 20
-14.1
  0
LWPOLYLINE
  5
5C2
100
AcDbEntity
  8
RACCORDO
100
AcDbPolyline
 62
253
  6
CONTINUOUS
 90
19
 70
0
 10
52.1995829457
 20
-13.4991582086
 10
52.1976740999
 20
-13.5427252296
 10
52.1919753591
 20
-13.5859607435
 10
52.1825300858
 20
-13.6285357656
 10
52.1694101502
 20
-13.6701263373
 10
52.1527153837
 20
-13.7104159904
 10
52.1325728189
 20
-13.7490981558
 10
52.1091357231
 20
-13.7858784959
 10
52.0825824322
 20
-13.8204771444
 10
52.0531149938
 20
-13.8526308355
 10
52.0209576292
 20
-13.8820949079
 10
51.986355028
 20
-13.9086451655
 10
51.9495704859
 20
-13.932079584
 10
51.9108839013
 20
-13.952219848
 10
51.8705896452
 20
-13.9689127074
 10
51.828994322
 20
-13.9820311443
 10
51.7864144358
 20
-13.9914753386
 10
51.7431739825
 20
-13.9971734284
 10
51.6996019842
 20
-13.9990820562
  0
LINE
  5
5C3
100
AcDbEntity
  8
RACCORDO
100
AcDbLine
 62
7
  6
CONTINUOUS
 10
52.1950298751
 20
12.853209544
 11
52.1961376441
 21
12.8795570731
  0
LWPOLYLINE
  5
5C4
100
AcDbEntity
  8
RACCORDO
100
AcDbPolyline
 62
253
  6
CONTINUOUS
 90
14
 70
0
 10
52.1963161515
 20
12.8950714472
 10
52.1976501592
 20
12.9235118235
 10
52.1983196019
 20
12.9361069645
 10
52.1989906728
 20
12.9476190876
 10
52.1996630096
 20
12.9580415521
 10
52.2003366435
 20
12.9673741073
 10
52.2010115432
 20
12.9756170038
 10
52.2016872532
 20
12.982764353
 10
52.2023638059
 20
12.9888151705
 10
52.2030411688
 20
12.9937704407
 10
52.2037187883
 20
12.9976272288
 10
52.2043964798
 20
13.0003845565
 10
52.2050744279
 20
13.0020434022
 10
52.2057526327
 20
13.0026037657
  0
LINE
  5
5C5
100
AcDbEntity
  8
RACCORDO
100
AcDbLine
 62
7
  6
CONTINUOUS
 10
52.1961376441
 20
12.8795570731
 11
52.1969213352
 21
12.8960869046
  0
LINE
  5
5C6
100
AcDbEntity
  8
RACCORDO
100
AcDbLine
 62
7
  6
CONTINUOUS
 10
52.1969213352
 20
12.8960869046
 11
52.1976480751
 21
12.9097873958
  0
LINE
  5
5C7
100
AcDbEntity
  8
RACCORDO
100
AcDbLine
 62
253
  6
CONTINUOUS
 10
52.1792710197
 20
-12.802594389
 11
52.1771767703
 21
-12.8393112609
  0
LINE
  5
5C8
100
AcDbEntity
  8
RACCORDO
100
AcDbLine
 62
7
  6
CONTINUOUS
 10
52.1976480751
 20
12.9097873958
 11
52.1980895563
 21
12.9172979859
  0
LINE
  5
5C9
100
AcDbEntity
  8
RACCORDO
100
AcDbLine
 62
7
  6
CONTINUOUS
 10
52.1980895563
 20
12.9172979859
 11
52.1984819356
 21
12.923410172
  0
LWPOLYLINE
  5
5CA
100
AcDbEntity
  8
RACCORDO
100
AcDbPolyline
 62
7
  6
CONTINUOUS
 90
3
 70
0
 10
52.1984819356
 20
12.923410172
 10
52.1988093158
 20
12.928049938
 10
52.1989465002
 20
12.9298462585
  0
LWPOLYLINE
  5
5CB
100
AcDbEntity
  8
RACCORDO
100
AcDbPolyline
 62
253
  6
CONTINUOUS
 90
18
 70
0
 10
52.1771767703
 20
-12.8393112609
 10
52.1713157927
 20
-12.8757503359
 10
52.1617324276
 20
-12.9116359367
 10
52.1484991773
 20
-12.9466965732
 10
52.1317161572
 20
-12.9806669964
 10
52.111510338
 20
-13.0132902055
 10
52.0880345855
 20
-13.0443193918
 10
52.0614665039
 20
-13.0735198059
 10
52.0320070922
 20
-13.1006705342
 10
51.9998792237
 20
-13.1255661697
 10
51.9653259596
 20
-13.1480183661
 10
51.9286087102
 20
-13.1678572628
 10
51.8900052575
 20
-13.18493277
 10
51.8498076532
 20
-13.1991157041
 10
51.8083200096
 20
-13.210298765
 10
51.7658561988
 20
-13.2183973481
 10
51.7227374777
 20
-13.223350184
 10
51.6792900582
 20
-13.2251198025
  0
LWPOLYLINE
  5
5CC
100
AcDbEntity
  8
RACCORDO
100
AcDbPolyline
 62
253
  6
CONTINUOUS
 90
18
 70
0
 10
52.1771768937
 20
12.8393113417
 10
52.1713160239
 20
12.8757505055
 10
52.1617327507
 20
12.9116362013
 10
52.1484995758
 20
12.9466969373
 10
52.1317166144
 20
12.9806674628
 10
52.1115108373
 20
13.013290775
 10
52.0880351106
 20
13.0443200636
 10
52.0614670389
 20
13.0735205778
 10
52.0320076219
 20
13.100671402
 10
51.9998797339
 20
13.1255671278
 10
51.9653264369
 20
13.1480194076
 10
51.9286091428
 20
13.1678583795
 10
51.8900056348
 20
13.1849339524
 10
51.8498079662
 20
13.1991169419
 10
51.808320251
 20
13.210300047
 10
51.7658563629
 20
13.2183986624
 10
51.7227375607
 20
13.2233515184
 10
51.6792900582
 20
13.2251211442
  0
LWPOLYLINE
  5
5CD
100
AcDbEntity
  8
RACCORDO
100
AcDbPolyline
 62
253
  6
CONTINUOUS
 90
10
 70
0
 10
-122.0439147456
 20
-3.3574543928
 10
-122.0397303134
 20
-3.6390000644
 10
-122.0272515599
 20
-3.9198511139
 10
-122.0064784851
 20
-4.2000075413
 10
-121.9773754841
 20
-4.4797386788
 10
-121.9399781618
 20
-4.7587751943
 10
-121.8943933335
 20
-5.0363090916
 10
-121.8406566043
 20
-5.3120710385
 10
-121.7787323691
 20
-5.5863303672
 10
-121.708620628
 20
-5.8590870777
  0
LINE
  5
5CE
100
AcDbEntity
  8
RACCORDO
100
AcDbLine
 62
7
  6
CONTINUOUS
 10
-122.5395514779
 20
3.3574543928
 11
-122.5395514779
 21
-3.3574543928
  0
LINE
  5
5CF
100
AcDbEntity
  8
RACCORDO
100
AcDbLine
 62
253
  6
CONTINUOUS
 10
-122.0439147456
 20
3.3574543928
 11
-122.0439147456
 21
-3.3574543928
  0
LWPOLYLINE
  5
5D0
100
AcDbEntity
  8
RACCORDO
100
AcDbPolyline
 62
253
  6
CONTINUOUS
 90
10
 70
0
 10
-121.708620628
 20
5.8590870777
 10
-121.7787323691
 20
5.5863303672
 10
-121.8406566043
 20
5.3120710385
 10
-121.8943933335
 20
5.0363090916
 10
-121.9399781618
 20
4.7587751943
 10
-121.9773754841
 20
4.4797386788
 10
-122.0064784851
 20
4.2000075413
 10
-122.0272515599
 20
3.9198511139
 10
-122.0397303134
 20
3.6390000644
 10
-122.0439147456
 20
3.3574543928
  0
LWPOLYLINE
  5
5D1
100
AcDbEntity
  8
RACCORDO
100
AcDbPolyline
 62
253
  6
CONTINUOUS
 90
22
 70
0
 10
-114.3561059325
 20
17.201992905
 10
-114.8515857905
 20
16.7834495347
 10
-115.3346009662
 20
16.3505034738
 10
-115.8051514596
 20
15.9031547224
 10
-116.2637727369
 20
15.440955902
 10
-116.709929332
 20
14.964354391
 10
-117.1420148456
 20
14.474692325
 10
-117.5599650367
 20
13.9718947057
 10
-117.9638441463
 20
13.4560365314
 10
-118.3522384995
 20
12.928684933
 10
-118.7250642357
 20
12.3897952208
 10
-119.0824052154
 20
11.8394120846
 10
-119.4230993451
 20
11.2792367244
 10
-119.7470381198
 20
10.7093001628
 10
-120.0543300445
 20
10.1295713772
 10
-120.3441385401
 20
9.5416585008
 10
-120.6163900697
 20
8.9455955232
 10
-120.8711581702
 20
8.3413484548
 10
-121.1078268731
 20
7.7304234596
 10
-121.3261908556
 20
7.1133225924
 10
-121.5264554406
 20
6.4895437984
 10
-121.708620628
 20
5.8590870777
  0
LWPOLYLINE
  5
5D2
100
AcDbEntity
  8
RACCORDO
100
AcDbPolyline
 62
253
  6
CONTINUOUS
 90
34
 70
0
 10
-114.3561059325
 20
-17.201992905
 10
-114.1914047562
 20
-17.3336619258
 10
-114.0265912192
 20
-17.4600613673
 10
-113.8616653217
 20
-17.5811912295
 10
-113.6966509596
 20
-17.6968356052
 10
-113.5315242371
 20
-17.8072104016
 10
-113.3662134656
 20
-17.9129633405
 10
-113.2007549227
 20
-18.0141367092
 10
-113.0351123309
 20
-18.1106882204
 10
-112.8691051697
 20
-18.2031387341
 10
-112.7027664217
 20
-18.2915274312
 10
-112.5360631042
 20
-18.3758151309
 10
-112.3687157488
 20
-18.4564051496
 10
-112.2007504337
 20
-18.5333378538
 10
-112.0321410806
 20
-18.6065728771
 10
-111.8625299858
 20
-18.6763924373
 10
-111.6919364861
 20
-18.7428387516
 10
-111.5203412447
 20
-18.8058696028
 10
-111.3473285482
 20
-18.8656405577
 10
-111.1729110163
 20
-18.9221962504
 10
-110.9970760293
 20
-18.9754920468
 10
-110.8193700151
 20
-19.0255496122
 10
-110.6397994989
 20
-19.0724164106
 10
-110.4583579555
 20
-19.1160449779
 10
-110.2745722376
 20
-19.1563145873
 10
-110.0884427475
 20
-19.1932762382
 10
-109.899969083
 20
-19.2268789311
 10
-109.7086768902
 20
-19.2568489408
 10
-109.5145677581
 20
-19.2832417039
 10
-109.3176400977
 20
-19.3060017837
 10
-109.1174147887
 20
-19.3246891449
 10
-108.9137321241
 20
-19.3391571089
 10
-108.7067518108
 20
-19.3495523543
 10
-108.4964738487
 20
-19.355874881
  0
LWPOLYLINE
  5
5D3
100
AcDbEntity
  8
RACCORDO
100
AcDbPolyline
 62
253
  6
CONTINUOUS
 90
22
 70
0
 10
-121.708620628
 20
-5.8590870777
 10
-121.5264599726
 20
-6.489528208
 10
-121.3262013204
 20
-7.1132908815
 10
-121.1078446714
 20
-7.730375098
 10
-120.8711847383
 20
-8.3412826841
 10
-120.6164268084
 20
-8.9455118132
 10
-120.3441867441
 20
-9.5415570064
 10
-120.0543923069
 20
-10.1294505236
 10
-119.7471157353
 20
-10.7091601049
 10
-119.4231896076
 20
-11.2790834906
 10
-119.0825048414
 20
-11.8392536756
 10
-118.7251705192
 20
-12.3896376652
 10
-118.3523464664
 20
-12.9285342148
 10
-117.9639489554
 20
-13.455898645
 10
-117.5600617138
 20
-13.9717756352
 10
-117.1420957505
 20
-14.4745979797
 10
-116.7099792869
 20
-14.9642972457
 10
-116.2637841015
 20
-15.4409418658
 10
-115.8051365389
 20
-15.9031699326
 10
-115.3345787139
 20
-16.3505274768
 10
-114.8515685118
 20
-16.7834684676
 10
-114.3561059325
 20
-17.201992905
  0
LINE
  5
5D4
100
AcDbEntity
  8
RACCORDO
100
AcDbLine
 62
7
  6
CONTINUOUS
 10
-100.2395514779
 20
-20.0
 11
-91.9782661716
 21
-19.8557987286
  0
LINE
  5
5D5
100
AcDbEntity
  8
RACCORDO
100
AcDbLine
 62
7
  6
CONTINUOUS
 10
-108.5008367842
 20
-19.8557987286
 11
-100.2395514779
 21
-20.0
  0
LWPOLYLINE
  5
5D6
100
AcDbEntity
  8
RACCORDO
100
AcDbPolyline
 62
253
  6
CONTINUOUS
 90
34
 70
0
 10
-91.982629107
 20
-19.355874881
 10
-91.7723511482
 20
-19.3495523537
 10
-91.5653708375
 20
-19.3391571081
 10
-91.3616881749
 20
-19.3246891443
 10
-91.1614628673
 20
-19.306001784
 10
-90.9645352078
 20
-19.2832417054
 10
-90.7704260761
 20
-19.2568489431
 10
-90.5791338835
 20
-19.2268789335
 10
-90.3906602188
 20
-19.1932762403
 10
-90.2045307281
 20
-19.1563145892
 10
-90.0207450095
 20
-19.1160449798
 10
-89.8393034649
 20
-19.0724164125
 10
-89.6597329474
 20
-19.0255496141
 10
-89.4820269318
 20
-18.9754920484
 10
-89.3061919432
 20
-18.9221962516
 10
-89.1317744097
 20
-18.8656405584
 10
-88.9587617116
 20
-18.8058696029
 10
-88.7871664686
 20
-18.7428387511
 10
-88.6165729672
 20
-18.6763924362
 10
-88.446961871
 20
-18.6065728753
 10
-88.2783525164
 20
-18.5333378512
 10
-88.1103872001
 20
-18.4564051464
 10
-87.9430398435
 20
-18.375815127
 10
-87.7763365252
 20
-18.2915274268
 10
-87.6099977766
 20
-18.203138729
 10
-87.4439906152
 20
-18.1106882148
 10
-87.2783480235
 20
-18.014136703
 10
-87.1128894809
 20
-17.9129633342
 10
-86.9475787099
 20
-17.8072103957
 10
-86.7824519879
 20
-17.6968356002
 10
-86.6174376271
 20
-17.5811912255
 10
-86.4525117314
 20
-17.4600613645
 10
-86.2876981967
 20
-17.3336619243
 10
-86.1229970232
 20
-17.201992905
  0
LINE
  5
5D7
100
AcDbEntity
  8
RACCORDO
100
AcDbLine
 62
253
  6
CONTINUOUS
 10
-100.2395514779
 20
-19.4999999971
 11
-91.982629107
 21
-19.355874881
  0
LINE
  5
5D8
100
AcDbEntity
  8
RACCORDO
100
AcDbLine
 62
253
  6
CONTINUOUS
 10
-108.4964738487
 20
-19.355874881
 11
-100.2395514779
 21
-19.4999999971
  0
LWPOLYLINE
  5
5D9
100
AcDbEntity
  8
RACCORDO
100
AcDbPolyline
 62
253
  6
CONTINUOUS
 90
43
 70
0
 10
-108.3812186542
 20
12.0636916178
 10
-108.3189596515
 20
12.1053765203
 10
-108.2554908841
 20
12.1464770024
 10
-108.1908123519
 20
12.186993064
 10
-108.1246992155
 20
12.2270502416
 10
-108.0573763144
 20
12.2665229988
 10
-107.989518167
 20
12.3050347265
 10
-107.9213345783
 20
12.3424677244
 10
-107.8526157434
 20
12.3789396928
 10
-107.7834067664
 20
12.4144271236
 10
-107.7137106884
 20
12.4489278306
 10
-107.6435244682
 20
12.4824439999
 10
-107.5728840863
 20
12.5149586822
 10
-107.5017843654
 20
12.5464734199
 10
-107.4302304826
 20
12.5769866706
 10
-107.3582739505
 20
12.6064768574
 10
-107.2859187294
 20
12.6349415359
 10
-107.2131608588
 20
12.6623831505
 10
-107.1400399694
 20
12.6887874575
 10
-107.0665561017
 20
12.7141540292
 10
-106.9927092153
 20
12.7384832933
 10
-106.9185388189
 20
12.7617622889
 10
-106.8440426048
 20
12.7839911314
 10
-106.7692228808
 20
12.8051697055
 10
-106.6941260796
 20
12.8252847035
 10
-106.6187517695
 20
12.8443354363
 10
-106.5431003822
 20
12.8623225932
 10
-106.4672196454
 20
12.8792349343
 10
-106.3911112121
 20
12.8950714472
 10
-106.3147734293
 20
12.9098331442
 10
-106.2382490655
 20
12.9235118235
 10
-106.161538536
 20
12.9361069645
 10
-106.0846414254
 20
12.9476190876
 10
-106.0075992563
 20
12.9580415521
 10
-105.9304084619
 20
12.9673741073
 10
-105.8530726089
 20
12.9756170038
 10
-105.7756439198
 20
12.982764353
 10
-105.6981186578
 20
12.9888151705
 10
-105.6205005596
 20
12.9937704407
 10
-105.5428530585
 20
12.9976272288
 10
-105.4651972989
 20
13.0003845565
 10
-105.3875121364
 20
13.0020434022
 10
-105.309797571
 20
13.0026037657
  0
LINE
  5
5DA
100
AcDbEntity
  8
RACCORDO
100
AcDbLine
 62
253
  6
CONTINUOUS
 10
-108.1026967956
 20
11.6462691995
 11
-108.0438628322
 21
11.6854019991
  0
LWPOLYLINE
  5
5DB
100
AcDbEntity
  8
RACCORDO
100
AcDbPolyline
 62
253
  6
CONTINUOUS
 90
58
 70
0
 10
-108.3442898548
 20
12.802594389
 10
-108.7895859592
 20
12.5098490184
 10
-109.2238179816
 20
12.2019017756
 10
-109.646985922
 20
11.8787526606
 10
-110.0597379573
 20
11.5399057068
 10
-110.4614259105
 20
11.1858568809
 10
-110.8501052515
 20
10.8180940823
 10
-111.2256733952
 20
10.4365384275
 10
-111.5882329265
 20
10.0412687999
 10
-111.9361470698
 20
9.6340097502
 10
-112.2692664504
 20
9.214786371
 10
-112.587740443
 20
8.7835735697
 10
-112.8903803952
 20
8.3420206184
 10
-113.1771088593
 20
7.8901244727
 10
-113.4480032832
 20
7.4278881769
 10
-113.7021073575
 20
6.956970136
 10
-113.9393755092
 20
6.4773210829
 10
-114.1598533114
 20
5.9889902846
 10
-114.3627211747
 20
5.4937839471
 10
-114.5479181288
 20
4.991663274
 10
-114.715505144
 20
4.4826670617
 10
-114.8648455426
 20
3.9687179056
 10
-114.9958678189
 20
3.4498009116
 10
-115.1086434786
 20
2.9259309738
 10
-115.202750362
 20
2.3990753698
 10
-115.2781176262
 20
1.8692273462
 10
-115.334816114
 20
1.3363936564
 10
-115.3726361944
 20
0.8025618386
 10
-115.3915079786
 20
0.2677288097
 10
-115.3915013553
 20
-0.2681023473
 10
-115.3726163598
 20
-0.8029348456
 10
-115.3347830988
 20
-1.3367656162
 10
-115.2780714655
 20
-1.8695977281
 10
-115.2026911746
 20
-2.3994436016
 10
-115.1085713084
 20
-2.9262966534
 10
-114.9957827847
 20
-3.4501634669
 10
-114.8647480713
 20
-3.9690762126
 10
-114.7153956967
 20
-4.4830197379
 10
-114.5477971325
 20
-4.9920091955
 10
-114.3625892613
 20
-5.4941222141
 10
-114.1597115508
 20
-5.9893193625
 10
-113.9392245332
 20
-6.477640072
 10
-113.7019466882
 20
-6.9572802641
 10
-113.4478321449
 20
-7.4281915544
 10
-113.176926774
 20
-7.8904223275
 10
-112.8901866677
 20
-8.3423136583
 10
-112.5875326858
 20
-8.783864118
 10
-112.2690439684
 20
-9.2150751355
 10
-111.935914028
 20
-9.6342920725
 10
-111.5879939345
 20
-10.041538329
 10
-111.225432618
 20
-10.4367905048
 10
-110.8498703813
 20
-10.8183237618
 10
-110.4612046731
 20
-11.1860587812
 10
-110.0595380448
 20
-11.5400748816
 10
-109.6468184531
 20
-11.8788851808
 10
-109.223695217
 20
-12.2019940514
 10
-108.7895190176
 20
-12.5098971208
 10
-108.3442898548
 20
-12.802594389
  0
LWPOLYLINE
  5
5DC
100
AcDbEntity
  8
RACCORDO
100
AcDbPolyline
 62
253
  6
CONTINUOUS
 90
13
 70
0
 10
-108.1027192212
 20
11.6462540155
 10
-107.8943147494
 20
11.7795516557
 10
-107.6795747737
 20
11.9023784309
 10
-107.4590252049
 20
12.0144340457
 10
-107.2332070687
 20
12.1154442029
 10
-107.0026724424
 20
12.2051625248
 10
-106.7679829202
 20
12.2833706928
 10
-106.5297120338
 20
12.3498775064
 10
-106.2884439538
 20
12.4045198356
 10
-106.0447691928
 20
12.447163936
 10
-105.7992842027
 20
12.4777054129
 10
-105.5525899176
 20
12.4960694899
 10
-105.3052902077
 20
12.5022112034
  0
LWPOLYLINE
  5
5DD
100
AcDbEntity
  8
RACCORDO
100
AcDbPolyline
 62
253
  6
CONTINUOUS
 90
4
 70
0
 10
-107.9844701835
 20
11.7237068496
 10
-107.9245299574
 20
11.7611758464
 10
-107.8640491087
 20
11.7978037337
 10
-107.803043856
 20
11.8335799704
  0
LWPOLYLINE
  5
5DE
100
AcDbEntity
  8
RACCORDO
100
AcDbPolyline
 62
253
  6
CONTINUOUS
 90
3
 70
0
 10
-107.7415395924
 20
11.868489279
 10
-107.6795520715
 20
11.9025227282
 10
-107.6170904056
 20
11.9356755822
  0
LWPOLYLINE
  5
5DF
100
AcDbEntity
  8
RACCORDO
100
AcDbPolyline
 62
253
  6
CONTINUOUS
 90
34
 70
0
 10
-107.5541704303
 20
11.9679395663
 10
-107.490807756
 20
11.999306859
 10
-107.4270122175
 20
12.0297730053
 10
-107.362790939
 20
12.0593346854
 10
-107.2981522057
 20
12.0879877638
 10
-107.2331133771
 20
12.1157244518
 10
-107.1676952213
 20
12.1425360467
 10
-107.1019147621
 20
12.1684158483
 10
-107.0357814396
 20
12.1933606177
 10
-106.969304728
 20
12.2173670499
 10
-106.9024980599
 20
12.2404302949
 10
-106.8353746881
 20
12.2625459466
 10
-106.7679437166
 20
12.2837110957
 10
-106.7002166082
 20
12.3039219024
 10
-106.6322088182
 20
12.3231736441
 10
-106.5639354363
 20
12.3414620888
 10
-106.4954098665
 20
12.3587835274
 10
-106.4266460106
 20
12.3751344158
 10
-106.357659791
 20
12.3905111022
 10
-106.2884666241
 20
12.4049101847
 10
-106.219078728
 20
12.4183292016
 10
-106.1495072777
 20
12.4307661254
 10
-106.0797666223
 20
12.4422182999
 10
-106.0098702262
 20
12.4526834227
 10
-105.9398279186
 20
12.4621600046
 10
-105.8696504713
 20
12.4706462539
 10
-105.799355035
 20
12.4781397312
 10
-105.7289611429
 20
12.4846383862
 10
-105.6584808363
 20
12.4901410676
 10
-105.5879303767
 20
12.4946463747
 10
-105.5173353711
 20
12.4981530154
 10
-105.4467134258
 20
12.5006606793
 10
-105.3760745491
 20
12.5021694958
 10
-105.3054343033
 20
12.5026798212
  0
LWPOLYLINE
  5
5E0
100
AcDbEntity
  8
RACCORDO
100
AcDbPolyline
 62
253
  6
CONTINUOUS
 90
13
 70
0
 10
-94.4623292846
 20
-13.4991582086
 10
-94.2569557244
 20
-13.490845908
 10
-94.0529469889
 20
-13.4733072518
 10
-93.8503030782
 20
-13.4465422401
 10
-93.648585594
 20
-13.4104560941
 10
-93.4482329345
 20
-13.3651435926
 10
-93.2505602946
 20
-13.3108890718
 10
-93.055584671
 20
-13.2476226374
 10
-92.863289067
 20
-13.1754141837
 10
-92.6749376875
 20
-13.0947577301
 10
-92.4909519342
 20
-13.0058179497
 10
-92.3109104053
 20
-12.9084301693
 10
-92.1348131009
 20
-12.802594389
  0
LINE
  5
5E1
100
AcDbEntity
  8
RACCORDO
100
AcDbLine
 62
7
  6
CONTINUOUS
 10
-100.2395514779
 20
-14.1
 11
-94.4579663493
 21
-13.9990820562
  0
LINE
  5
5E2
100
AcDbEntity
  8
RACCORDO
100
AcDbLine
 62
7
  6
CONTINUOUS
 10
-106.0211366066
 20
-13.9990820562
 11
-100.2395514779
 21
-14.1
  0
LWPOLYLINE
  5
5E3
100
AcDbEntity
  8
RACCORDO
100
AcDbPolyline
 62
253
  6
CONTINUOUS
 90
3
 70
0
 10
-107.6170610275
 20
-11.9356909171
 10
-107.6795252644
 20
-11.9025372008
 10
-107.7415158369
 20
-11.8685025438
  0
LWPOLYLINE
  5
5E4
100
AcDbEntity
  8
RACCORDO
100
AcDbPolyline
 62
253
  6
CONTINUOUS
 90
4
 70
0
 10
-107.8030239909
 20
-11.833591442
 10
-107.8640335832
 20
-11.7978129877
 10
-107.9245186634
 20
-11.7611827939
 10
-107.9844628161
 20
-11.7237115335
  0
LWPOLYLINE
  5
5E5
100
AcDbEntity
  8
RACCORDO
100
AcDbPolyline
 62
253
  6
CONTINUOUS
 90
13
 70
0
 10
-108.3442898548
 20
-12.802594389
 10
-108.1681161804
 20
-12.9084686373
 10
-107.988014184
 20
-13.0058838814
 10
-107.8039838656
 20
-13.0948401215
 10
-107.6156068611
 20
-13.17549904
 10
-107.4233015346
 20
-13.2476989543
 10
-107.2283229791
 20
-13.310954817
 10
-107.0306469793
 20
-13.365198894
 10
-106.8302977504
 20
-13.4104989193
 10
-106.6286030312
 20
-13.4465730479
 10
-106.4260054015
 20
-13.4733273315
 10
-106.2220622814
 20
-13.4908557184
 10
-106.0167736712
 20
-13.4991582086
  0
LINE
  5
5E6
100
AcDbEntity
  8
RACCORDO
100
AcDbLine
 62
253
  6
CONTINUOUS
 10
-108.0438592274
 20
-11.6854043624
 11
-108.1026967966
 21
-11.6462692038
  0
LWPOLYLINE
  5
5E7
100
AcDbEntity
  8
RACCORDO
100
AcDbPolyline
 62
253
  6
CONTINUOUS
 90
58
 70
0
 10
-108.3866950664
 20
-12.0606666004
 10
-108.7949863624
 20
-11.7746172324
 10
-109.1925207875
 20
-11.475355485
 10
-109.5792983415
 20
-11.1628813583
 10
-109.9558522142
 20
-10.8367017816
 10
-110.321649216
 20
-10.4973098255
 10
-110.6750897773
 20
-10.1461847022
 10
-111.016002578
 20
-9.783378074
 10
-111.3445589383
 20
-9.4088382786
 10
-111.6596732496
 20
-9.0238895411
 10
-111.9612784116
 20
-8.6285443612
 10
-112.2494415246
 20
-8.2227902392
 10
-112.523278281
 20
-7.8079139018
 10
-112.7827724917
 20
-7.3838618554
 10
-113.0279403458
 20
-6.9506875936
 10
-113.2579461027
 20
-6.5098383232
 10
-113.4727571514
 20
-6.061247467
 10
-113.6724061029
 20
-5.6049816022
 10
-113.8561550496
 20
-5.1426876667
 10
-114.0239400581
 20
-4.6743441411
 10
-114.175825062
 20
-4.1999725448
 10
-114.3112639544
 20
-3.7212843738
 10
-114.4301907803
 20
-3.2382856208
 10
-114.5326714948
 20
-2.750970293
 10
-114.6183578564
 20
-2.2610319078
 10
-114.6871932725
 20
-1.7684697649
 10
-114.7392343357
 20
-1.2732845645
 10
-114.7743025812
 20
-0.7771719242
 10
-114.7923424778
 20
-0.2801205267
 10
-114.7934095567
 20
0.2178583106
 10
-114.7774919475
 20
0.7150350179
 10
-114.7445271292
 20
1.2114259717
 10
-114.6945776226
 20
1.7070147955
 10
-114.62781912
 20
2.2000227903
 10
-114.5441843931
 20
2.6904464396
 10
-114.4437406701
 20
3.1782892598
 10
-114.3268653272
 20
3.6617831011
 10
-114.1935095161
 20
4.1408750447
 10
-114.0437220851
 20
4.6156180095
 10
-113.8780269557
 20
5.0844026016
 10
-113.6963993051
 20
5.5471711285
 10
-113.4988639562
 20
6.0039812827
 10
-113.2860192989
 20
6.4533967479
 10
-113.0578016951
 20
6.8954456132
 10
-112.8142747829
 20
7.3300997895
 10
-112.5562278657
 20
7.7558386933
 10
-112.2835324125
 20
8.1727188978
 10
-111.9963169543
 20
8.5806838297
 10
-111.6957563883
 20
8.978043186
 10
-111.3822533396
 20
9.3643263138
 10
-111.055405183
 20
9.7400038658
 10
-110.7151789406
 20
10.1047974971
 10
-110.3619931406
 20
10.4586421536
 10
-109.9954292548
 20
10.8016028894
 10
-109.6141987195
 20
11.1335965219
 10
-109.2178720138
 20
11.4545953238
 10
-108.8068786587
 20
11.7646270224
 10
-108.3812186542
 20
12.0636916178
  0
LWPOLYLINE
  5
5E8
100
AcDbEntity
  8
RACCORDO
100
AcDbPolyline
 62
253
  6
CONTINUOUS
 90
55
 70
0
 10
-108.1027232296
 20
-11.646251311
 10
-108.5181740386
 20
-11.3546115033
 10
-108.9228993067
 20
-11.0480980656
 10
-109.3163644059
 20
-10.7271024109
 10
-109.698135728
 20
-10.3919560928
 10
-110.0676150291
 20
-10.0431615968
 10
-110.4240692971
 20
-9.6814226763
 10
-110.7669507099
 20
-9.3073462536
 10
-111.0959424586
 20
-8.9213308435
 10
-111.4107033303
 20
-8.5238102112
 10
-111.7108162959
 20
-8.1153390473
 10
-111.9959250016
 20
-7.6964316998
 10
-112.2657807862
 20
-7.2674611859
 10
-112.5200595806
 20
-6.8289221369
 10
-112.758387131
 20
-6.3814381776
 10
-112.9804500653
 20
-5.9255816913
 10
-113.1859646918
 20
-5.4619126289
 10
-113.3746412522
 20
-4.9910604208
 10
-113.5461976439
 20
-4.5137207439
 10
-113.7004053993
 20
-4.0305378866
 10
-113.8370733986
 20
-3.5421201533
 10
-113.9560207184
 20
-3.0491247774
 10
-114.0570929037
 20
-2.552213066
 10
-114.1401669535
 20
-2.0520144727
 10
-114.2051425268
 20
-1.5491457644
 10
-114.251935155
 20
-1.0442616602
 10
-114.2804840496
 20
-0.5380191177
 10
-114.2907522402
 20
-0.0310413359
 10
-114.2827220107
 20
0.4760289377
 10
-114.2563993605
 20
0.982514316
 10
-114.2118164218
 20
1.4877394587
 10
-114.1490257748
 20
1.9910699505
 10
-114.0681087697
 20
2.4918260425
 10
-113.9691872915
 20
2.989269542
 10
-113.8524043078
 20
3.4827270084
 10
-113.7179140199
 20
3.9715852657
 10
-113.5658996239
 20
4.4552064927
 10
-113.3965891922
 20
4.9329026661
 10
-113.2101917098
 20
5.4041177953
 10
-113.006876342
 20
5.8684166401
 10
-112.7868911284
 20
6.3251988636
 10
-112.5505143239
 20
6.773855293
 10
-112.2979585122
 20
7.2139351685
 10
-112.0294032858
 20
7.6450392731
 10
-111.7452822139
 20
8.0663902725
 10
-111.44625209
 20
8.4770087901
 10
-111.1331584975
 20
8.875839675
 10
-110.8060336599
 20
9.2629428106
 10
-110.4642595757
 20
9.6389581593
 10
-110.1084939213
 20
10.002985627
 10
-109.7388077789
 20
10.3547822742
 10
-109.3533950656
 20
10.6956509837
 10
-108.9517126236
 20
11.0253853646
 10
-108.5347223135
 20
11.3425245565
 10
-108.1027192216
 20
11.6462540183
  0
LWPOLYLINE
  5
5E9
100
AcDbEntity
  8
RACCORDO
100
AcDbPolyline
 62
7
  6
CONTINUOUS
 90
16
 70
0
 10
-107.9541236504
 20
10.6493134169
 10
-107.7826010382
 20
10.7681893338
 10
-107.6061498142
 20
10.8798737954
 10
-107.4250685826
 20
10.9841575004
 10
-107.2395526453
 20
11.0808991015
 10
-107.0500262439
 20
11.1698490959
 10
-106.8571643461
 20
11.2506977305
 10
-106.661584941
 20
11.3232377757
 10
-106.4633785472
 20
11.3874865841
 10
-106.2624354446
 20
11.4434797214
 10
-106.0588187584
 20
11.4911500315
 10
-105.8531505302
 20
11.5303027867
 10
-105.6461590911
 20
11.5607928592
 10
-105.4383343794
 20
11.5825734194
 10
-105.2299174799
 20
11.5956443596
 10
-105.021273001
 20
11.6
  0
LINE
  5
5EA
100
AcDbEntity
  8
RACCORDO
100
AcDbLine
 62
253
  6
CONTINUOUS
 10
-100.2395514779
 20
-13.5999999971
 11
-94.4623292846
 21
-13.4991582086
  0
LINE
  5
5EB
100
AcDbEntity
  8
RACCORDO
100
AcDbLine
 62
253
  6
CONTINUOUS
 10
-95.1693053847
 20
-13.0026037657
 11
-105.309797571
 21
-13.0026037657
  0
LINE
  5
5EC
100
AcDbEntity
  8
RACCORDO
100
AcDbLine
 62
253
  6
CONTINUOUS
 10
-95.1736686525
 20
-12.5026799181
 11
-105.3054343033
 21
-12.5026799181
  0
LWPOLYLINE
  5
5ED
100
AcDbEntity
  8
RACCORDO
100
AcDbPolyline
 62
253
  6
CONTINUOUS
 90
43
 70
0
 10
-105.309797571
 20
-13.0026037657
 10
-105.3875321974
 20
-13.0020427386
 10
-105.4652320709
 20
-13.0003832666
 10
-105.5428971913
 20
-12.9976253498
 10
-105.6205475652
 20
-12.9937679276
 10
-105.6981631862
 20
-12.9888120606
 10
-105.7756840348
 20
-12.9827609304
 10
-105.8531070312
 20
-12.975613633
 10
-105.9304352553
 20
-12.9673710725
 10
-106.0076179271
 20
-12.9580391424
 10
-106.0846521764
 20
-12.9476175241
 10
-106.1615408734
 20
-12.936106536
 10
-106.2382418482
 20
-12.9235130276
 10
-106.3147547581
 20
-12.9098366353
 10
-106.3910799458
 20
-12.8950777226
 10
-106.467176269
 20
-12.8792442284
 10
-106.5430453887
 20
-12.8623352342
 10
-106.6186856439
 20
-12.8443516585
 10
-106.6940509092
 20
-12.8253041963
 10
-106.7691414705
 20
-12.8051920054
 10
-106.8439570418
 20
-12.784015928
 10
-106.9184506392
 20
-12.7617891856
 10
-106.992619726
 20
-12.7385119548
 10
-107.0664668389
 20
-12.7141840589
 10
-107.1399526036
 20
-12.6888181897
 10
-107.2130772203
 20
-12.6624138613
 10
-107.2858404888
 20
-12.6349715596
 10
-107.3582024346
 20
-12.6065054345
 10
-107.4301680107
 20
-12.5770125242
 10
-107.5017322642
 20
-12.5464957904
 10
-107.5728403613
 20
-12.5149782685
 10
-107.6434853988
 20
-12.4824622299
 10
-107.7136742798
 20
-12.4489454031
 10
-107.7833728802
 20
-12.4144440086
 10
-107.8525846431
 20
-12.378955745
 10
-107.9213061252
 20
-12.3424829138
 10
-107.9894928731
 20
-12.3050486391
 10
-108.05715229
 20
-12.2666470118
 10
-108.1242769725
 20
-12.2272839411
 10
-108.1908002578
 20
-12.1870002793
 10
-108.2566999247
 20
-12.145809644
 10
-108.3219981942
 20
-12.1036984177
 10
-108.3866950664
 20
-12.0606666004
  0
LWPOLYLINE
  5
5EE
100
AcDbEntity
  8
RACCORDO
100
AcDbPolyline
 62
253
  6
CONTINUOUS
 90
34
 70
0
 10
-105.3054343033
 20
-12.5026798276
 10
-105.3760927413
 20
-12.5021692288
 10
-105.4467450915
 20
-12.5006597732
 10
-105.5173756741
 20
-12.498151301
 10
-105.5879733314
 20
-12.4946439355
 10
-105.6585215057
 20
-12.490138183
 10
-105.728997734
 20
-12.4846352739
 10
-105.7993864033
 20
-12.4781366083
 10
-105.8696748782
 20
-12.4706434738
 10
-105.9398449154
 20
-12.4621578317
 10
-106.0098799913
 20
-12.4526820301
 10
-106.0797687075
 20
-12.4422179702
 10
-106.149500627
 20
-12.4307672713
 10
-106.2190616079
 20
-12.4183323868
 10
-106.2884380121
 20
-12.4049159248
 10
-106.3576201285
 20
-12.3905196543
 10
-106.4265957249
 20
-12.3751459986
 10
-106.4953494029
 20
-12.3587983534
 10
-106.5638667127
 20
-12.3414799834
 10
-106.63213437
 20
-12.3231941532
 10
-106.700138314
 20
-12.3039446614
 10
-106.7678629896
 20
-12.2837358137
 10
-106.8352927087
 20
-12.2625723186
 10
-106.9024162059
 20
-12.2404579035
 10
-106.9692245452
 20
-12.2173953716
 10
-107.0357045832
 20
-12.193388992
 10
-107.1018427224
 20
-12.1684436014
 10
-107.1676292323
 20
-12.1425625532
 10
-107.233055565
 20
-12.11574863
 10
-107.2981037349
 20
-12.0880088394
 10
-107.3627499825
 20
-12.0593531924
 10
-107.4269754275
 20
-12.0297902632
 10
-107.490773377
 20
-11.9993235757
 10
-107.5541384035
 20
-11.9679557063
  0
LINE
  5
5EF
100
AcDbEntity
  8
RACCORDO
100
AcDbLine
 62
253
  6
CONTINUOUS
 10
-106.0167736712
 20
-13.4991582086
 11
-100.2395514779
 21
-13.5999999971
  0
LWPOLYLINE
  5
5F0
100
AcDbEntity
  8
RACCORDO
100
AcDbPolyline
 62
253
  6
CONTINUOUS
 90
13
 70
0
 10
-105.3052886135
 20
-12.5022112033
 10
-105.5525889981
 20
-12.4960695358
 10
-105.7992837869
 20
-12.477705455
 10
-106.0447691079
 20
-12.4471639498
 10
-106.2884439698
 20
-12.4045198337
 10
-106.529711983
 20
-12.3498775205
 10
-106.7679828104
 20
-12.2833707276
 10
-107.0026721689
 20
-12.2051626245
 10
-107.2332066438
 20
-12.115444381
 10
-107.4590251269
 20
-12.0144340829
 10
-107.679575663
 20
-11.9023779503
 10
-107.8943170175
 20
-11.7795502813
 10
-108.1027232291
 20
-11.6462513075
  0
LWPOLYLINE
  5
5F1
100
AcDbEntity
  8
RACCORDO
100
AcDbPolyline
 62
7
  6
CONTINUOUS
 90
16
 70
0
 10
-95.4578299547
 20
-11.6
 10
-95.2491854758
 20
-11.5956443596
 10
-95.0407685763
 20
-11.5825734194
 10
-94.8329438647
 20
-11.5607928592
 10
-94.6259524255
 20
-11.5303027867
 10
-94.4202841973
 20
-11.4911500315
 10
-94.2166675111
 20
-11.4434797214
 10
-94.0157244086
 20
-11.3874865841
 10
-93.8175180148
 20
-11.3232377757
 10
-93.6219386096
 20
-11.2506977305
 10
-93.4290767118
 20
-11.1698490959
 10
-93.2395503105
 20
-11.0808991015
 10
-93.0540343731
 20
-10.9841575004
 10
-92.8729531416
 20
-10.8798737954
 10
-92.6965019176
 20
-10.7681893338
 10
-92.5249793053
 20
-10.6493134169
  0
LINE
  5
5F2
100
AcDbEntity
  8
RACCORDO
100
AcDbLine
 62
7
  6
CONTINUOUS
 10
-105.021273001
 20
-11.6
 11
-95.4578299547
 21
-11.6
  0
LINE
  5
5F3
100
AcDbEntity
  8
RACCORDO
100
AcDbLine
 62
7
  6
CONTINUOUS
 10
-90.5202301943
 20
-10.0
 11
-90.5624631316
 21
-10.0
  0
LINE
  5
5F4
100
AcDbEntity
  8
RACCORDO
100
AcDbLine
 62
7
  6
CONTINUOUS
 10
-109.9166398241
 20
-10.0
 11
-109.9588727614
 21
-10.0
  0
LWPOLYLINE
  5
5F5
100
AcDbEntity
  8
RACCORDO
100
AcDbPolyline
 62
7
  6
CONTINUOUS
 90
16
 70
0
 10
-105.021273001
 20
-11.6
 10
-105.2299174799
 20
-11.5956443596
 10
-105.4383343794
 20
-11.5825734194
 10
-105.6461590911
 20
-11.5607928592
 10
-105.8531505302
 20
-11.5303027867
 10
-106.0588187584
 20
-11.4911500315
 10
-106.2624354446
 20
-11.4434797214
 10
-106.4633785472
 20
-11.3874865841
 10
-106.661584941
 20
-11.3232377757
 10
-106.8571643461
 20
-11.2506977305
 10
-107.0500262439
 20
-11.1698490959
 10
-107.2395526453
 20
-11.0808991015
 10
-107.4250685826
 20
-10.9841575004
 10
-107.6061498142
 20
-10.8798737954
 10
-107.7826010382
 20
-10.7681893338
 10
-107.9541236504
 20
-10.6493134169
  0
LINE
  5
5F6
100
AcDbEntity
  8
RACCORDO
100
AcDbLine
 62
253
  6
CONTINUOUS
 10
-108.4964738487
 20
19.355874881
 11
-108.5002517773
 21
19.6058147499
  0
LWPOLYLINE
  5
5F7
100
AcDbEntity
  8
RACCORDO
100
AcDbPolyline
 62
253
  6
CONTINUOUS
 90
5
 70
0
 10
-108.501802363
 20
-19.8256293798
 10
-108.5016683492
 20
-19.8387478167
 10
-108.5014616092
 20
-19.848192011
 10
-108.501183716
 20
-19.8538901008
 10
-108.5008367842
 20
-19.8557987286
  0
LINE
  5
5F8
100
AcDbEntity
  8
RACCORDO
100
AcDbLine
 62
253
  6
CONTINUOUS
 10
-108.5002517773
 20
19.6058147499
 11
-108.5015991938
 21
19.738811522
  0
LINE
  5
5F9
100
AcDbEntity
  8
RACCORDO
100
AcDbLine
 62
253
  6
CONTINUOUS
 10
-108.5015991938
 20
19.738811522
 11
-108.5018486937
 21
19.7887962182
  0
LINE
  5
5FA
100
AcDbEntity
  8
RACCORDO
100
AcDbLine
 62
253
  6
CONTINUOUS
 10
-108.5018486938
 20
-19.7887962565
 11
-108.501802363
 21
-19.8256293798
  0
LWPOLYLINE
  5
5FB
100
AcDbEntity
  8
RACCORDO
100
AcDbPolyline
 62
253
  6
CONTINUOUS
 90
6
 70
0
 10
-108.5018486937
 20
19.7887962182
 10
-108.5018023631
 20
19.825629361
 10
-108.5016683494
 20
19.8387478057
 10
-108.5014616094
 20
19.848192006
 10
-108.5011837162
 20
19.8538900995
 10
-108.5008367842
 20
19.8557987286
  0
LINE
  5
5FC
100
AcDbEntity
  8
RACCORDO
100
AcDbLine
 62
253
  6
CONTINUOUS
 10
-108.5013655299
 20
-19.709347508
 11
-108.5018486938
 21
-19.7887962565
  0
LINE
  5
5FD
100
AcDbEntity
  8
RACCORDO
100
AcDbLine
 62
253
  6
CONTINUOUS
 10
-108.49975236
 20
-19.5671326628
 11
-108.5013655299
 21
-19.709347508
  0
LINE
  5
5FE
100
AcDbEntity
  8
RACCORDO
100
AcDbLine
 62
253
  6
CONTINUOUS
 10
-108.4964738487
 20
-19.355874881
 11
-108.49975236
 21
-19.5671326628
  0
LWPOLYLINE
  5
5FF
100
AcDbEntity
  8
RACCORDO
100
AcDbPolyline
 62
253
  6
CONTINUOUS
 90
5
 70
0
 10
-106.0221021852
 20
-13.9689127074
 10
-106.0219681715
 20
-13.9820311443
 10
-106.0217614315
 20
-13.9914753386
 10
-106.0214835384
 20
-13.9971734284
 10
-106.0211366066
 20
-13.9990820562
  0
LWPOLYLINE
  5
600
100
AcDbEntity
  8
RACCORDO
100
AcDbPolyline
 62
253
  6
CONTINUOUS
 90
7
 70
0
 10
-106.0220604797
 20
13.9086448399
 10
-106.0221624538
 20
13.9522196586
 10
-106.0221021866
 20
13.9689125809
 10
-106.0219681731
 20
13.9820310704
 10
-106.0217614329
 20
13.9914753045
 10
-106.0214835392
 20
13.9971734196
 10
-106.0211366065
 20
13.9990820562
  0
LWPOLYLINE
  5
601
100
AcDbEntity
  8
RACCORDO
100
AcDbPolyline
 62
253
  6
CONTINUOUS
 90
3
 70
0
 10
-106.0220604806
 20
-13.9086451655
 10
-106.022148516
 20
-13.932079584
 10
-106.0221021852
 20
-13.9689127074
  0
LWPOLYLINE
  5
602
100
AcDbEntity
  8
RACCORDO
100
AcDbPolyline
 62
253
  6
CONTINUOUS
 90
3
 70
0
 10
-107.9541236492
 20
-10.6493134151
 10
-108.0669450314
 20
-11.4091703989
 10
-108.1027232296
 20
-11.646251311
  0
LINE
  5
603
100
AcDbEntity
  8
RACCORDO
100
AcDbLine
 62
253
  6
CONTINUOUS
 10
-107.9541236492
 20
10.6493134151
 11
-108.1027192216
 21
11.6462540183
  0
LINE
  5
604
100
AcDbEntity
  8
RACCORDO
100
AcDbLine
 62
253
  6
CONTINUOUS
 10
-105.3069108876
 20
12.5351220099
 11
-105.3075941817
 21
12.5725290793
  0
LINE
  5
605
100
AcDbEntity
  8
RACCORDO
100
AcDbLine
 62
253
  6
CONTINUOUS
 10
-106.0167736712
 20
13.4991582086
 11
-106.0205515947
 21
13.7490976318
  0
LINE
  5
606
100
AcDbEntity
  8
RACCORDO
100
AcDbLine
 62
253
  6
CONTINUOUS
 10
-105.3075941817
 20
12.5725290793
 11
-105.3084929584
 21
12.652149011
  0
LWPOLYLINE
  5
607
100
AcDbEntity
  8
RACCORDO
100
AcDbPolyline
 62
253
  6
CONTINUOUS
 90
3
 70
0
 10
-106.0205515947
 20
13.7490976318
 10
-106.0218990145
 20
13.8820945162
 10
-106.0220604797
 20
13.9086448399
  0
LINE
  5
608
100
AcDbEntity
  8
RACCORDO
100
AcDbLine
 62
253
  6
CONTINUOUS
 10
-105.3084929584
 20
12.652149011
 11
-105.3095143832
 21
12.8334172022
  0
LINE
  5
609
100
AcDbEntity
  8
RACCORDO
100
AcDbLine
 62
253
  6
CONTINUOUS
 10
-105.3095143832
 20
12.8334172022
 11
-105.309797571
 21
13.0026037657
  0
LINE
  5
60A
100
AcDbEntity
  8
RACCORDO
100
AcDbLine
 62
253
  6
CONTINUOUS
 10
-105.3091878795
 20
-12.7551270452
 11
-105.309797571
 21
-13.0026037657
  0
LINE
  5
60B
100
AcDbEntity
  8
RACCORDO
100
AcDbLine
 62
253
  6
CONTINUOUS
 10
-106.0213612659
 20
-13.8204771444
 11
-106.0220604806
 21
-13.9086451655
  0
LINE
  5
60C
100
AcDbEntity
  8
RACCORDO
100
AcDbLine
 62
253
  6
CONTINUOUS
 10
-105.3082132975
 20
-12.6227157008
 11
-105.3091878795
 21
-12.7551270452
  0
LINE
  5
60D
100
AcDbEntity
  8
RACCORDO
100
AcDbLine
 62
253
  6
CONTINUOUS
 10
-105.3075941773
 20
-12.5725290796
 11
-105.3082132975
 21
-12.6227157008
  0
LINE
  5
60E
100
AcDbEntity
  8
RACCORDO
100
AcDbLine
 62
253
  6
CONTINUOUS
 10
-106.0188831468
 20
-13.6285357656
 11
-106.0213612659
 21
-13.8204771444
  0
LINE
  5
60F
100
AcDbEntity
  8
RACCORDO
100
AcDbLine
 62
253
  6
CONTINUOUS
 10
-106.0167736712
 20
-13.4991582086
 11
-106.0188831468
 21
-13.6285357656
  0
LWPOLYLINE
  5
610
100
AcDbEntity
  8
RACCORDO
100
AcDbPolyline
 62
253
  6
CONTINUOUS
 90
6
 70
0
 10
-105.3054343033
 20
-12.5026799181
 10
-105.3058104117
 20
-12.5052923481
 10
-105.3061837234
 20
-12.5116060327
 10
-105.3065514599
 20
-12.5215739823
 10
-105.3069108842
 20
-12.5351220101
 10
-105.3075941773
 20
-12.5725290796
  0
LINE
  5
611
100
AcDbEntity
  8
RACCORDO
100
AcDbLine
 62
253
  6
CONTINUOUS
 10
-78.4351882101
 20
-3.3574543928
 11
-77.9395514779
 21
-3.3574543928
  0
LINE
  5
612
100
AcDbEntity
  8
RACCORDO
100
AcDbLine
 62
253
  6
CONTINUOUS
 10
-122.0439147456
 20
-3.3574543928
 11
-122.5395514779
 21
-3.3574543928
  0
LWPOLYLINE
  5
613
100
AcDbEntity
  8
RACCORDO
100
AcDbPolyline
 62
253
  6
CONTINUOUS
 90
5
 70
0
 10
-105.3054343033
 20
12.5026799181
 10
-105.3058104127
 20
12.5052923481
 10
-105.3061837253
 20
12.5116060327
 10
-105.3065514626
 20
12.5215739822
 10
-105.3069108876
 20
12.5351220099
  0
LINE
  5
614
100
AcDbEntity
  8
DRAFT
100
AcDbLine
 62
7
  6
CONTINUOUS
 10
-100.2395514779
 20
17.35
 11
-100.2395514779
 21
14.1
  0
LINE
  5
615
100
AcDbEntity
  8
DRAFT
100
AcDbLine
 62
7
  6
CONTINUOUS
 10
-100.2395514779
 20
-14.1
 11
-100.2395514779
 21
-17.35
  0
LINE
  5
616
100
AcDbEntity
  8
RACCORDO
100
AcDbLine
 62
7
  6
CONTINUOUS
 10
-100.2395514779
 20
-17.35
 11
-100.2395514779
 21
-20.0
  0
LINE
  5
617
100
AcDbEntity
  8
RACCORDO
100
AcDbLine
 62
7
  6
CONTINUOUS
 10
-100.2395514779
 20
-14.1
 11
-100.2395514779
 21
-12.5034515941
  0
LINE
  5
618
100
AcDbEntity
  8
RACCORDO
100
AcDbLine
 62
7
  6
CONTINUOUS
 10
-100.2395514779
 20
12.5034515941
 11
-100.2395514779
 21
14.1
  0
LINE
  5
619
100
AcDbEntity
  8
RACCORDO
100
AcDbLine
 62
7
  6
CONTINUOUS
 10
-100.2395514779
 20
17.35
 11
-100.2395514779
 21
20.0
  0
LINE
  5
61A
100
AcDbEntity
  8
RACCORDO
100
AcDbLine
 62
253
  6
CONTINUOUS
 10
-105.2064019459
 20
-12.1821751085
 11
-105.3052897514
 21
-12.5022112032
  0
LINE
  5
61B
100
AcDbEntity
  8
RACCORDO
100
AcDbLine
 62
253
  6
CONTINUOUS
 10
-105.11343393
 20
-11.8870546472
 11
-105.2064019459
 21
-12.1821751085
  0
LINE
  5
61C
100
AcDbEntity
  8
RACCORDO
100
AcDbLine
 62
253
  6
CONTINUOUS
 10
-105.021273001
 20
-11.6
 11
-105.11343393
 21
-11.8870546472
  0
LWPOLYLINE
  5
61D
100
AcDbEntity
  8
RACCORDO
100
AcDbPolyline
 62
253
  6
CONTINUOUS
 90
5
 70
0
 10
-108.5922990851
 20
-13.1991157041
 10
-108.5990127024
 20
-13.210298765
 10
-108.6037662098
 20
-13.2183973481
 10
-108.6065236451
 20
-13.223350184
 10
-108.607264147
 20
-13.2251198025
  0
LINE
  5
61E
100
AcDbEntity
  8
RACCORDO
100
AcDbLine
 62
253
  6
CONTINUOUS
 10
-108.5732091316
 20
-13.1678572628
 11
-108.5922990851
 21
-13.1991157041
  0
LINE
  5
61F
100
AcDbEntity
  8
RACCORDO
100
AcDbLine
 62
253
  6
CONTINUOUS
 10
-91.9181257366
 20
13.1480183661
 11
-91.8954268063
 21
13.18493277
  0
LINE
  5
620
100
AcDbEntity
  8
RACCORDO
100
AcDbLine
 62
253
  6
CONTINUOUS
 10
-108.5316015211
 20
-13.1006705342
 11
-108.5732091316
 21
-13.1678572628
  0
LINE
  5
621
100
AcDbEntity
  8
RACCORDO
100
AcDbLine
 62
253
  6
CONTINUOUS
 10
-91.9826666222
 20
13.0443193918
 11
-91.9181257366
 21
13.1480183661
  0
LINE
  5
622
100
AcDbEntity
  8
RACCORDO
100
AcDbLine
 62
253
  6
CONTINUOUS
 10
-108.435196719
 20
-12.9466965732
 11
-108.5316015211
 21
-13.1006705342
  0
LINE
  5
623
100
AcDbEntity
  8
RACCORDO
100
AcDbLine
 62
253
  6
CONTINUOUS
 10
-108.3442898548
 20
-12.802594389
 11
-108.435196719
 21
-12.9466965732
  0
LWPOLYLINE
  5
624
100
AcDbEntity
  8
RACCORDO
100
AcDbPolyline
 62
253
  6
CONTINUOUS
 90
3
 70
0
 10
-92.1348131009
 20
12.802594389
 10
-92.1116001144
 20
12.8393112609
 10
-91.9826666222
 20
13.0443193918
  0
LINE
  5
625
100
AcDbEntity
  8
RACCORDO
100
AcDbLine
 62
253
  6
CONTINUOUS
 10
-92.2524543806
 20
11.8245913456
 11
-92.0923037805
 21
12.0605966654
  0
LINE
  5
626
100
AcDbEntity
  8
RACCORDO
100
AcDbLine
 62
253
  6
CONTINUOUS
 10
-108.2266485751
 20
-11.8245913456
 11
-108.3867991752
 21
-12.0605966655
  0
LINE
  5
627
100
AcDbEntity
  8
RACCORDO
100
AcDbLine
 62
253
  6
CONTINUOUS
 10
-92.3221101681
 20
11.7230071583
 11
-92.2524543806
 21
11.8245913456
  0
LINE
  5
628
100
AcDbEntity
  8
RACCORDO
100
AcDbLine
 62
253
  6
CONTINUOUS
 10
-108.1569927876
 20
-11.7230071583
 11
-108.2266485751
 21
-11.8245913456
  0
LWPOLYLINE
  5
629
100
AcDbEntity
  8
RACCORDO
100
AcDbPolyline
 62
253
  6
CONTINUOUS
 90
5
 70
0
 10
-114.650767417
 20
-17.5646748595
 10
-114.6588127938
 20
-17.5749228457
 10
-114.6645376117
 20
-17.5823525641
 10
-114.6678986077
 20
-17.5869078675
 10
-114.6688703826
 20
-17.5885543311
  0
LINE
  5
62A
100
AcDbEntity
  8
RACCORDO
100
AcDbLine
 62
253
  6
CONTINUOUS
 10
-114.6279752628
 20
-17.5360545759
 11
-114.650767417
 21
-17.5646748595
  0
LINE
  5
62B
100
AcDbEntity
  8
RACCORDO
100
AcDbLine
 62
253
  6
CONTINUOUS
 10
-114.5784446149
 20
-17.4745798
 11
-114.6279752628
 21
-17.5360545759
  0
LINE
  5
62C
100
AcDbEntity
  8
RACCORDO
100
AcDbLine
 62
253
  6
CONTINUOUS
 10
-85.9006583409
 20
17.4745798
 11
-85.851127693
 21
17.5360545759
  0
LINE
  5
62D
100
AcDbEntity
  8
RACCORDO
100
AcDbLine
 62
253
  6
CONTINUOUS
 10
-114.4377494142
 20
-17.3016994175
 11
-114.5784446149
 21
-17.4745798
  0
LINE
  5
62E
100
AcDbEntity
  8
RACCORDO
100
AcDbLine
 62
253
  6
CONTINUOUS
 10
-86.0413535415
 20
17.3016994175
 11
-85.9006583409
 21
17.4745798
  0
LINE
  5
62F
100
AcDbEntity
  8
RACCORDO
100
AcDbLine
 62
253
  6
CONTINUOUS
 10
-114.3561059325
 20
-17.201992905
 11
-114.4377494142
 21
-17.3016994175
  0
LINE
  5
630
100
AcDbEntity
  8
RACCORDO
100
AcDbLine
 62
253
  6
CONTINUOUS
 10
-86.1229970232
 20
17.201992905
 11
-86.0413535415
 21
17.3016994175
  0
LWPOLYLINE
  5
631
100
AcDbEntity
  8
RACCORDO
100
AcDbPolyline
 62
253
  6
CONTINUOUS
 90
7
 70
0
 10
-92.3764075847
 20
11.6462670962
 10
-92.3746787347
 20
11.6482689684
 10
-92.3708677323
 20
11.6533589417
 10
-92.3650031245
 20
11.6614988883
 10
-92.3571288408
 20
11.6726278347
 10
-92.3473038583
 20
11.6866624267
 10
-92.3221101681
 20
11.7230071583
  0
LWPOLYLINE
  5
632
100
AcDbEntity
  8
RACCORDO
100
AcDbPolyline
 62
253
  6
CONTINUOUS
 90
3
 70
0
 10
-122.1794087356
 20
-5.9885804629
 10
-122.184816638
 20
-5.9901590988
 10
-122.1866062752
 20
-5.9907508569
  0
LINE
  5
633
100
AcDbEntity
  8
RACCORDO
100
AcDbLine
 62
253
  6
CONTINUOUS
 10
-78.3211750151
 20
5.9825174419
 11
-78.2996942201
 21
5.9885804629
  0
LINE
  5
634
100
AcDbEntity
  8
RACCORDO
100
AcDbLine
 62
253
  6
CONTINUOUS
 10
-122.1579279406
 20
-5.9825174419
 11
-122.1794087356
 21
-5.9885804629
  0
LINE
  5
635
100
AcDbEntity
  8
RACCORDO
100
AcDbLine
 62
253
  6
CONTINUOUS
 10
-78.5310689832
 20
5.9246011381
 11
-78.3211750151
 21
5.9825174419
  0
LINE
  5
636
100
AcDbEntity
  8
RACCORDO
100
AcDbLine
 62
253
  6
CONTINUOUS
 10
-121.9480339725
 20
-5.9246011381
 11
-122.1579279406
 21
-5.9825174419
  0
LINE
  5
637
100
AcDbEntity
  8
RACCORDO
100
AcDbLine
 62
253
  6
CONTINUOUS
 10
-78.7704823278
 20
5.8590870777
 11
-78.5310689832
 21
5.9246011381
  0
LINE
  5
638
100
AcDbEntity
  8
RACCORDO
100
AcDbLine
 62
253
  6
CONTINUOUS
 10
-121.708620628
 20
-5.8590870777
 11
-121.9480339725
 21
-5.9246011381
  0
LINE
  5
639
100
AcDbEntity
  8
RACCORDO
100
AcDbLine
 62
253
  6
CONTINUOUS
 10
-121.708620628
 20
5.8590870777
 11
-122.1420199359
 21
5.9780795652
  0
LINE
  5
63A
100
AcDbEntity
  8
RACCORDO
100
AcDbLine
 62
253
  6
CONTINUOUS
 10
-78.7704823278
 20
-5.8590870777
 11
-78.3370830198
 21
-5.9780795652
  0
LWPOLYLINE
  5
63B
100
AcDbEntity
  8
RACCORDO
100
AcDbPolyline
 62
253
  6
CONTINUOUS
 90
5
 70
0
 10
-122.1420199359
 20
5.9780795652
 10
-122.1704267056
 20
5.986027767
 10
-122.1794122421
 20
5.988581419
 10
-122.1848201977
 20
5.99016007
 10
-122.1866098545
 20
5.9907518339
  0
LWPOLYLINE
  5
63C
100
AcDbEntity
  8
RACCORDO
100
AcDbPolyline
 62
253
  6
CONTINUOUS
 90
5
 70
0
 10
-78.3370830198
 20
-5.9780795652
 10
-78.3086762502
 20
-5.986027767
 10
-78.2996907137
 20
-5.988581419
 10
-78.294282758
 20
-5.99016007
 10
-78.2924931013
 20
-5.9907518339
  0
LWPOLYLINE
  5
63D
100
AcDbEntity
  8
RACCORDO
100
AcDbPolyline
 62
253
  6
CONTINUOUS
 90
5
 70
0
 10
-92.3764065692
 20
-11.6462685947
 10
-92.37467773
 20
-11.6482704527
 10
-92.3708667523
 20
-11.6533603908
 10
-92.3650021795
 20
-11.6615002868
 10
-92.3571279356
 20
-11.6726291751
  0
LINE
  5
63E
100
AcDbEntity
  8
RACCORDO
100
AcDbLine
 62
253
  6
CONTINUOUS
 10
-114.3561059325
 20
17.201992905
 11
-114.5366485122
 21
17.4230366166
  0
LINE
  5
63F
100
AcDbEntity
  8
RACCORDO
100
AcDbLine
 62
253
  6
CONTINUOUS
 10
-86.1229970232
 20
-17.201992905
 11
-85.9424544435
 21
-17.4230366166
  0
LINE
  5
640
100
AcDbEntity
  8
RACCORDO
100
AcDbLine
 62
253
  6
CONTINUOUS
 10
-114.5366485122
 20
17.4230366166
 11
-114.6134005714
 21
17.5178983751
  0
LWPOLYLINE
  5
641
100
AcDbEntity
  8
RACCORDO
100
AcDbPolyline
 62
253
  6
CONTINUOUS
 90
3
 70
0
 10
-85.9424544435
 20
-17.4230366166
 10
-85.8657023843
 20
-17.5178983751
 10
-85.8511278606
 20
-17.5360543724
  0
LWPOLYLINE
  5
642
100
AcDbEntity
  8
RACCORDO
100
AcDbPolyline
 62
253
  6
CONTINUOUS
 90
7
 70
0
 10
-114.6134005714
 20
17.5178983751
 10
-114.6404621036
 20
17.5516858347
 10
-114.6507672313
 20
17.5646746336
 10
-114.6588126014
 20
17.5749226117
 10
-114.6645374145
 20
17.5823523241
 10
-114.6678984077
 20
17.5869076238
 10
-114.6688701815
 20
17.5885540861
  0
LINE
  5
643
100
AcDbEntity
  8
RACCORDO
100
AcDbLine
 62
253
  6
CONTINUOUS
 10
-92.3571279356
 20
-11.6726291751
 11
-92.3356009377
 21
-11.7034987717
  0
LINE
  5
644
100
AcDbEntity
  8
RACCORDO
100
AcDbLine
 62
253
  6
CONTINUOUS
 10
-108.1219750202
 20
11.6726291751
 11
-108.1435020181
 21
11.7034987717
  0
LINE
  5
645
100
AcDbEntity
  8
RACCORDO
100
AcDbLine
 62
253
  6
CONTINUOUS
 10
-92.3356009377
 20
-11.7034987717
 11
-92.2901747322
 21
-11.7694472865
  0
LINE
  5
646
100
AcDbEntity
  8
RACCORDO
100
AcDbLine
 62
253
  6
CONTINUOUS
 10
-108.1435020181
 20
11.7034987717
 11
-108.1889282235
 21
11.7694472865
  0
LINE
  5
647
100
AcDbEntity
  8
RACCORDO
100
AcDbLine
 62
253
  6
CONTINUOUS
 10
-92.2901747322
 20
-11.7694472865
 11
-92.1643044883
 21
-11.9541925616
  0
LINE
  5
648
100
AcDbEntity
  8
RACCORDO
100
AcDbLine
 62
253
  6
CONTINUOUS
 10
-108.1889282235
 20
11.7694472865
 11
-108.3147984674
 21
11.9541925616
  0
LINE
  5
649
100
AcDbEntity
  8
RACCORDO
100
AcDbLine
 62
253
  6
CONTINUOUS
 10
-92.1643044883
 20
-11.9541925616
 11
-92.0929904979
 21
-12.0595797666
  0
LINE
  5
64A
100
AcDbEntity
  8
RACCORDO
100
AcDbLine
 62
253
  6
CONTINUOUS
 10
-108.3147984674
 20
11.9541925616
 11
-108.3861124578
 21
12.0595797665
  0
LINE
  5
64B
100
AcDbEntity
  8
RACCORDO
100
AcDbLine
 62
253
  6
CONTINUOUS
 10
-108.3442898548
 20
12.802594389
 11
-108.4770089816
 21
13.013290775
  0
LINE
  5
64C
100
AcDbEntity
  8
RACCORDO
100
AcDbLine
 62
253
  6
CONTINUOUS
 10
-92.1348131009
 20
-12.802594389
 11
-92.0020939741
 21
-13.013290775
  0
LINE
  5
64D
100
AcDbEntity
  8
RACCORDO
100
AcDbLine
 62
253
  6
CONTINUOUS
 10
-108.4770089816
 20
13.013290775
 11
-108.5470735629
 21
13.1255671278
  0
LINE
  5
64E
100
AcDbEntity
  8
RACCORDO
100
AcDbLine
 62
253
  6
CONTINUOUS
 10
-92.0020939741
 20
-13.013290775
 11
-91.9320293928
 21
-13.1255671278
  0
LINE
  5
64F
100
AcDbEntity
  8
RACCORDO
100
AcDbLine
 62
253
  6
CONTINUOUS
 10
-108.5470735629
 20
13.1255671278
 11
-108.5732098424
 21
13.1678583795
  0
LWPOLYLINE
  5
650
100
AcDbEntity
  8
RACCORDO
100
AcDbPolyline
 62
253
  6
CONTINUOUS
 90
8
 70
0
 10
-91.9320293928
 20
-13.1255671278
 10
-91.9058931133
 20
-13.1678583795
 10
-91.8954260544
 20
-13.1849339524
 10
-91.8868030843
 20
-13.1991169419
 10
-91.8800894398
 20
-13.210300047
 10
-91.8753359127
 20
-13.2183986624
 10
-91.8725784657
 20
-13.2233515184
 10
-91.87183796
 20
-13.2251211442
  0
LWPOLYLINE
  5
651
100
AcDbEntity
  8
RACCORDO
100
AcDbPolyline
 62
253
  6
CONTINUOUS
 90
6
 70
0
 10
-108.5732098424
 20
13.1678583795
 10
-108.5922998714
 20
13.1991169419
 10
-108.5990135159
 20
13.210300047
 10
-108.603767043
 20
13.2183986624
 10
-108.6065244901
 20
13.2233515184
 10
-108.6072649958
 20
13.2251211442
  0
LINE
  5
652
100
AcDbEntity
  8
RACCORDO
100
AcDbLine
 62
253
  6
CONTINUOUS
 10
-105.021273001
 20
11.6
 11
-105.1134326175
 21
11.8870505201
  0
LINE
  5
653
100
AcDbEntity
  8
RACCORDO
100
AcDbLine
 62
253
  6
CONTINUOUS
 10
-105.1134326175
 20
11.8870505201
 11
-105.2064005783
 21
12.182170726
  0
LINE
  5
654
100
AcDbEntity
  8
RACCORDO
100
AcDbLine
 62
253
  6
CONTINUOUS
 10
-105.2064005783
 20
12.182170726
 11
-105.3052905486
 21
12.5022112034
  0
LINE
  5
655
100
AcDbEntity
  8
RACCORDO
100
AcDbLine
 62
253
  6
CONTINUOUS
 10
-95.2727010098
 20
12.1821751085
 11
-95.1738132043
 21
12.5022112032
  0
LINE
  5
656
100
AcDbEntity
  8
RACCORDO
100
AcDbLine
 62
253
  6
CONTINUOUS
 10
-95.3656690257
 20
11.8870546472
 11
-95.2727010098
 21
12.1821751085
  0
LINE
  5
657
100
AcDbEntity
  8
RACCORDO
100
AcDbLine
 62
253
  6
CONTINUOUS
 10
-95.4578299547
 20
11.6
 11
-95.3656690257
 21
11.8870546472
  0
LWPOLYLINE
  5
658
100
AcDbEntity
  8
RACCORDO
100
AcDbPolyline
 62
253
  6
CONTINUOUS
 90
6
 70
0
 10
-91.8954268063
 20
13.18493277
 10
-91.8868038706
 20
13.1991157041
 10
-91.8800902534
 20
13.210298765
 10
-91.8753367459
 20
13.2183973481
 10
-91.8725793107
 20
13.223350184
 10
-91.8718388087
 20
13.2251198025
  0
LWPOLYLINE
  5
659
100
AcDbEntity
  8
RACCORDO
100
AcDbPolyline
 62
253
  6
CONTINUOUS
 90
5
 70
0
 10
-85.8283355387
 20
17.5646748595
 10
-85.8202901619
 20
17.5749228457
 10
-85.8145653441
 20
17.5823525641
 10
-85.811204348
 20
17.5869078675
 10
-85.8102325732
 20
17.5885543311
  0
LINE
  5
65A
100
AcDbEntity
  8
RACCORDO
100
AcDbLine
 62
253
  6
CONTINUOUS
 10
-85.851127693
 20
17.5360545759
 11
-85.8283355387
 21
17.5646748595
  0
LWPOLYLINE
  5
65B
100
AcDbEntity
  8
RACCORDO
100
AcDbPolyline
 62
253
  6
CONTINUOUS
 90
7
 70
0
 10
-108.102695371
 20
-11.6462670962
 10
-108.104424221
 20
-11.6482689684
 10
-108.1082352235
 20
-11.6533589417
 10
-108.1140998313
 20
-11.6614988883
 10
-108.1219741149
 20
-11.6726278347
 10
-108.1317990975
 20
-11.6866624267
 10
-108.1569927876
 20
-11.7230071583
  0
LWPOLYLINE
  5
65C
100
AcDbEntity
  8
RACCORDO
100
AcDbPolyline
 62
253
  6
CONTINUOUS
 90
3
 70
0
 10
-78.2996942201
 20
5.9885804629
 10
-78.2942863178
 20
5.9901590988
 10
-78.2924966806
 20
5.9907508569
  0
LWPOLYLINE
  5
65D
100
AcDbEntity
  8
RACCORDO
100
AcDbPolyline
 62
253
  6
CONTINUOUS
 90
5
 70
0
 10
-108.1026963865
 20
11.6462685947
 10
-108.1044252258
 20
11.6482704527
 10
-108.1082362034
 20
11.6533603908
 10
-108.1141007762
 20
11.6615002868
 10
-108.1219750202
 20
11.6726291751
  0
LWPOLYLINE
  5
65E
100
AcDbEntity
  8
RACCORDO
100
AcDbPolyline
 62
253
  6
CONTINUOUS
 90
6
 70
0
 10
-85.8511278606
 20
-17.5360543724
 10
-85.8283357245
 20
-17.5646746336
 10
-85.8202903543
 20
-17.5749226117
 10
-85.8145655412
 20
-17.5823523241
 10
-85.8112045481
 20
-17.5869076238
 10
-85.8102327742
 20
-17.5885540861
  0
LINE
  5
65F
100
AcDbEntity
  8
RACCORDO
100
AcDbLine
 62
253
  6
CONTINUOUS
 10
-95.4578299547
 20
-11.6
 11
-95.3656703382
 21
-11.8870505201
  0
LINE
  5
660
100
AcDbEntity
  8
RACCORDO
100
AcDbLine
 62
253
  6
CONTINUOUS
 10
-95.3656703382
 20
-11.8870505201
 11
-95.2727023774
 21
-12.182170726
  0
LINE
  5
661
100
AcDbEntity
  8
RACCORDO
100
AcDbLine
 62
253
  6
CONTINUOUS
 10
-95.2727023774
 20
-12.182170726
 11
-95.1738124072
 21
-12.5022112034
  0
LWPOLYLINE
  5
662
100
AcDbEntity
  8
RACCORDO
100
AcDbPolyline
 62
253
  6
CONTINUOUS
 90
6
 70
0
 10
-95.1736686525
 20
12.5026799181
 10
-95.173292544
 20
12.5052923481
 10
-95.1729192323
 20
12.5116060327
 10
-95.1725514959
 20
12.5215739823
 10
-95.1721920716
 20
12.5351220101
 10
-95.1715087785
 20
12.5725290796
  0
LINE
  5
663
100
AcDbEntity
  8
RACCORDO
100
AcDbLine
 62
253
  6
CONTINUOUS
 10
-78.4351882101
 20
3.3574543928
 11
-77.9395514779
 21
3.3574543928
  0
LINE
  5
664
100
AcDbEntity
  8
RACCORDO
100
AcDbLine
 62
253
  6
CONTINUOUS
 10
-122.0439147456
 20
3.3574543928
 11
-122.5395514779
 21
3.3574543928
  0
LWPOLYLINE
  5
665
100
AcDbEntity
  8
RACCORDO
100
AcDbPolyline
 62
253
  6
CONTINUOUS
 90
5
 70
0
 10
-95.1736686525
 20
-12.5026799181
 10
-95.173292543
 20
-12.5052923481
 10
-95.1729192304
 20
-12.5116060327
 10
-95.1725514932
 20
-12.5215739822
 10
-95.1721920682
 20
-12.5351220099
  0
LINE
  5
666
100
AcDbEntity
  8
RACCORDO
100
AcDbLine
 62
253
  6
CONTINUOUS
 10
-95.1721920682
 20
-12.5351220099
 11
-95.171508774
 21
-12.5725290793
  0
LINE
  5
667
100
AcDbEntity
  8
RACCORDO
100
AcDbLine
 62
253
  6
CONTINUOUS
 10
-94.4623292846
 20
-13.4991582086
 11
-94.4585513611
 21
-13.7490976318
  0
LWPOLYLINE
  5
668
100
AcDbEntity
  8
RACCORDO
100
AcDbPolyline
 62
253
  6
CONTINUOUS
 90
5
 70
0
 10
-94.4570007706
 20
13.9689127074
 10
-94.4571347843
 20
13.9820311443
 10
-94.4573415242
 20
13.9914753386
 10
-94.4576194174
 20
13.9971734284
 10
-94.4579663491
 20
13.9990820562
  0
LINE
  5
669
100
AcDbEntity
  8
RACCORDO
100
AcDbLine
 62
253
  6
CONTINUOUS
 10
-95.171508774
 20
-12.5725290793
 11
-95.1706099974
 21
-12.652149011
  0
LINE
  5
66A
100
AcDbEntity
  8
RACCORDO
100
AcDbLine
 62
253
  6
CONTINUOUS
 10
-94.4585513611
 20
-13.7490976318
 11
-94.4572039413
 21
-13.8820945162
  0
LINE
  5
66B
100
AcDbEntity
  8
RACCORDO
100
AcDbLine
 62
253
  6
CONTINUOUS
 10
-95.1706099974
 20
-12.652149011
 11
-95.1695885725
 21
-12.8334172022
  0
LINE
  5
66C
100
AcDbEntity
  8
RACCORDO
100
AcDbLine
 62
253
  6
CONTINUOUS
 10
-94.4572039413
 20
-13.8820945162
 11
-94.4569544396
 21
-13.932079327
  0
LINE
  5
66D
100
AcDbEntity
  8
RACCORDO
100
AcDbLine
 62
253
  6
CONTINUOUS
 10
-95.1695885725
 20
-12.8334172022
 11
-95.1693053847
 21
-13.0026037657
  0
LINE
  5
66E
100
AcDbEntity
  8
RACCORDO
100
AcDbLine
 62
253
  6
CONTINUOUS
 10
-94.4569544397
 20
13.932079584
 11
-94.4570007706
 21
13.9689127074
  0
LWPOLYLINE
  5
66F
100
AcDbEntity
  8
RACCORDO
100
AcDbPolyline
 62
253
  6
CONTINUOUS
 90
6
 70
0
 10
-94.4569544396
 20
-13.932079327
 10
-94.4570007691
 20
-13.9689125809
 10
-94.4571347826
 20
-13.9820310704
 10
-94.4573415228
 20
-13.9914753045
 10
-94.4576194165
 20
-13.9971734196
 10
-94.4579663493
 20
-13.9990820562
  0
LINE
  5
670
100
AcDbEntity
  8
RACCORDO
100
AcDbLine
 62
253
  6
CONTINUOUS
 10
-95.1699150762
 20
12.7551270452
 11
-95.1693053847
 21
13.0026037657
  0
LINE
  5
671
100
AcDbEntity
  8
RACCORDO
100
AcDbLine
 62
253
  6
CONTINUOUS
 10
-94.4574376035
 20
13.8526308355
 11
-94.4569544397
 21
13.932079584
  0
LINE
  5
672
100
AcDbEntity
  8
RACCORDO
100
AcDbLine
 62
253
  6
CONTINUOUS
 10
-95.1708896583
 20
12.6227157008
 11
-95.1699150762
 21
12.7551270452
  0
LINE
  5
673
100
AcDbEntity
  8
RACCORDO
100
AcDbLine
 62
253
  6
CONTINUOUS
 10
-94.4590507733
 20
13.7104159904
 11
-94.4574376035
 21
13.8526308355
  0
LINE
  5
674
100
AcDbEntity
  8
RACCORDO
100
AcDbLine
 62
253
  6
CONTINUOUS
 10
-95.1715087785
 20
12.5725290796
 11
-95.1708896583
 21
12.6227157008
  0
LINE
  5
675
100
AcDbEntity
  8
RACCORDO
100
AcDbLine
 62
253
  6
CONTINUOUS
 10
-94.4623292846
 20
13.4991582086
 11
-94.4590507733
 21
13.7104159904
  0
LWPOLYLINE
  5
676
100
AcDbEntity
  8
RACCORDO
100
AcDbPolyline
 62
253
  6
CONTINUOUS
 90
3
 70
0
 10
-92.5249793066
 20
10.6493134151
 10
-92.4121579243
 20
11.4091703989
 10
-92.3763797261
 20
11.646251311
  0
LWPOLYLINE
  5
677
100
AcDbEntity
  8
RACCORDO
100
AcDbPolyline
 62
253
  6
CONTINUOUS
 90
3
 70
0
 10
-92.5249793066
 20
-10.6493134151
 10
-92.5094953891
 20
-10.7550272966
 10
-92.3763837341
 20
-11.6462540183
  0
LINE
  5
678
100
AcDbEntity
  8
RACCORDO
100
AcDbLine
 62
253
  6
CONTINUOUS
 10
-91.982629107
 20
-19.355874881
 11
-91.9788511785
 21
-19.6058147499
  0
LINE
  5
679
100
AcDbEntity
  8
RACCORDO
100
AcDbLine
 62
253
  6
CONTINUOUS
 10
-91.9788511785
 20
-19.6058147499
 11
-91.977503762
 21
-19.738811522
  0
LWPOLYLINE
  5
67A
100
AcDbEntity
  8
RACCORDO
100
AcDbPolyline
 62
253
  6
CONTINUOUS
 90
8
 70
0
 10
-91.977503762
 20
-19.738811522
 10
-91.977254262
 20
-19.7887962182
 10
-91.977240325
 20
-19.8089364922
 10
-91.9773005926
 20
-19.825629361
 10
-91.9774346063
 20
-19.8387478057
 10
-91.9776413463
 20
-19.848192006
 10
-91.9779192396
 20
-19.8538900995
 10
-91.9782661716
 20
-19.8557987286
  0
LINE
  5
67B
100
AcDbEntity
  8
RACCORDO
100
AcDbLine
 62
253
  6
CONTINUOUS
 10
-91.9773422975
 20
19.7653618379
 11
-91.9772403251
 21
19.8089365204
  0
LINE
  5
67C
100
AcDbEntity
  8
RACCORDO
100
AcDbLine
 62
253
  6
CONTINUOUS
 10
-91.9780415122
 20
19.6771938168
 11
-91.9773422975
 21
19.7653618379
  0
LINE
  5
67D
100
AcDbEntity
  8
RACCORDO
100
AcDbLine
 62
253
  6
CONTINUOUS
 10
-91.9805196314
 20
19.4852524381
 11
-91.9780415122
 21
19.6771938168
  0
LINE
  5
67E
100
AcDbEntity
  8
RACCORDO
100
AcDbLine
 62
253
  6
CONTINUOUS
 10
-91.982629107
 20
19.355874881
 11
-91.9805196314
 21
19.4852524381
  0
LWPOLYLINE
  5
67F
100
AcDbEntity
  8
RACCORDO
100
AcDbPolyline
 62
253
  6
CONTINUOUS
 90
6
 70
0
 10
-91.9772403251
 20
19.8089365204
 10
-91.9773005928
 20
19.8256293798
 10
-91.9774346065
 20
19.8387478167
 10
-91.9776413465
 20
19.848192011
 10
-91.9779192397
 20
19.8538901008
 10
-91.9782661716
 20
19.8557987286
  0
LINE
  5
680
100
AcDbEntity
  8
RACCORDO
100
AcDbLine
 62
7
  6
CONTINUOUS
 10
-109.9588727614
 20
10.0
 11
-109.9166398241
 21
10.0
  0
LINE
  5
681
100
AcDbEntity
  8
RACCORDO
100
AcDbLine
 62
7
  6
CONTINUOUS
 10
-90.5624631316
 20
10.0
 11
-90.5202301943
 21
10.0
  0
LINE
  5
682
100
AcDbEntity
  8
RACCORDO
100
AcDbLine
 62
7
  6
CONTINUOUS
 10
-95.4578299547
 20
11.6
 11
-105.021273001
 21
11.6
  0
LWPOLYLINE
  5
683
100
AcDbEntity
  8
RACCORDO
100
AcDbPolyline
 62
7
  6
CONTINUOUS
 90
16
 70
0
 10
-95.4578299547
 20
11.6
 10
-95.2491854758
 20
11.5956443596
 10
-95.0407685763
 20
11.5825734194
 10
-94.8329438647
 20
11.5607928592
 10
-94.6259524255
 20
11.5303027867
 10
-94.4202841973
 20
11.4911500315
 10
-94.2166675111
 20
11.4434797214
 10
-94.0157244086
 20
11.3874865841
 10
-93.8175180148
 20
11.3232377757
 10
-93.6219386096
 20
11.2506977305
 10
-93.4290767118
 20
11.1698490959
 10
-93.2395503105
 20
11.0808991015
 10
-93.0540343731
 20
10.9841575004
 10
-92.8729531416
 20
10.8798737954
 10
-92.6965019176
 20
10.7681893338
 10
-92.5249793053
 20
10.6493134169
  0
LINE
  5
684
100
AcDbEntity
  8
RACCORDO
100
AcDbLine
 62
253
  6
CONTINUOUS
 10
-92.3764061601
 20
-11.6462691995
 11
-92.4352401236
 21
-11.6854019991
  0
LWPOLYLINE
  5
685
100
AcDbEntity
  8
RACCORDO
100
AcDbPolyline
 62
253
  6
CONTINUOUS
 90
13
 70
0
 10
-92.3763837346
 20
-11.6462540155
 10
-92.5847882063
 20
-11.7795516557
 10
-92.7995281821
 20
-11.9023784309
 10
-93.0200777509
 20
-12.0144340457
 10
-93.245895887
 20
-12.1154442029
 10
-93.4764305133
 20
-12.2051625248
 10
-93.7111200356
 20
-12.2833706928
 10
-93.9493909219
 20
-12.3498775064
 10
-94.1906590019
 20
-12.4045198356
 10
-94.434333763
 20
-12.447163936
 10
-94.679818753
 20
-12.4777054129
 10
-94.9265130382
 20
-12.4960694899
 10
-95.173812748
 20
-12.5022112034
  0
LWPOLYLINE
  5
686
100
AcDbEntity
  8
RACCORDO
100
AcDbPolyline
 62
253
  6
CONTINUOUS
 90
4
 70
0
 10
-92.4946327723
 20
-11.7237068496
 10
-92.5545729983
 20
-11.7611758464
 10
-92.615053847
 20
-11.7978037337
 10
-92.6760590997
 20
-11.8335799704
  0
LWPOLYLINE
  5
687
100
AcDbEntity
  8
RACCORDO
100
AcDbPolyline
 62
253
  6
CONTINUOUS
 90
3
 70
0
 10
-92.7375633634
 20
-11.868489279
 10
-92.7995508843
 20
-11.9025227282
 10
-92.8620125501
 20
-11.9356755822
  0
LWPOLYLINE
  5
688
100
AcDbEntity
  8
RACCORDO
100
AcDbPolyline
 62
253
  6
CONTINUOUS
 90
34
 70
0
 10
-92.9249325254
 20
-11.9679395663
 10
-92.9882951997
 20
-11.999306859
 10
-93.0520907382
 20
-12.0297730053
 10
-93.1163120167
 20
-12.0593346854
 10
-93.1809507501
 20
-12.0879877638
 10
-93.2459895786
 20
-12.1157244518
 10
-93.3114077344
 20
-12.1425360467
 10
-93.3771881937
 20
-12.1684158483
 10
-93.4433215161
 20
-12.1933606177
 10
-93.5097982277
 20
-12.2173670499
 10
-93.5766048958
 20
-12.2404302949
 10
-93.6437282676
 20
-12.2625459466
 10
-93.7111592392
 20
-12.2837110957
 10
-93.7788863475
 20
-12.3039219024
 10
-93.8468941376
 20
-12.3231736441
 10
-93.9151675194
 20
-12.3414620888
 10
-93.9836930893
 20
-12.3587835274
 10
-94.0524569451
 20
-12.3751344158
 10
-94.1214431647
 20
-12.3905111022
 10
-94.1906363316
 20
-12.4049101847
 10
-94.2600242277
 20
-12.4183292016
 10
-94.3295956781
 20
-12.4307661254
 10
-94.3993363334
 20
-12.4422182999
 10
-94.4692327296
 20
-12.4526834227
 10
-94.5392750372
 20
-12.4621600046
 10
-94.6094524844
 20
-12.4706462539
 10
-94.6797479207
 20
-12.4781397312
 10
-94.7501418129
 20
-12.4846383862
 10
-94.8206221194
 20
-12.4901410676
 10
-94.891172579
 20
-12.4946463747
 10
-94.9617675846
 20
-12.4981530154
 10
-95.0323895299
 20
-12.5006606793
 10
-95.1030284066
 20
-12.5021694958
 10
-95.1736686525
 20
-12.5026798212
  0
LWPOLYLINE
  5
689
100
AcDbEntity
  8
RACCORDO
100
AcDbPolyline
 62
253
  6
CONTINUOUS
 90
13
 70
0
 10
-106.0167736712
 20
13.4991582086
 10
-106.2221472314
 20
13.490845908
 10
-106.4261559668
 20
13.4733072518
 10
-106.6287998775
 20
13.4465422401
 10
-106.8305173618
 20
13.4104560941
 10
-107.0308700213
 20
13.3651435926
 10
-107.2285426612
 20
13.3108890718
 10
-107.4235182848
 20
13.2476226374
 10
-107.6158138887
 20
13.1754141837
 10
-107.8041652682
 20
13.0947577301
 10
-107.9881510216
 20
13.0058179497
 10
-108.1681925505
 20
12.9084301693
 10
-108.3442898548
 20
12.802594389
  0
LINE
  5
68A
100
AcDbEntity
  8
RACCORDO
100
AcDbLine
 62
253
  6
CONTINUOUS
 10
-100.2395514779
 20
13.5999999971
 11
-106.0167736712
 21
13.4991582086
  0
LINE
  5
68B
100
AcDbEntity
  8
RACCORDO
100
AcDbLine
 62
7
  6
CONTINUOUS
 10
-100.2395514779
 20
14.1
 11
-106.0211366065
 21
13.9990820562
  0
LINE
  5
68C
100
AcDbEntity
  8
RACCORDO
100
AcDbLine
 62
253
  6
CONTINUOUS
 10
-105.3054343033
 20
12.5026799181
 11
-95.1736686525
 21
12.5026799181
  0
LINE
  5
68D
100
AcDbEntity
  8
RACCORDO
100
AcDbLine
 62
253
  6
CONTINUOUS
 10
-105.309797571
 20
13.0026037657
 11
-95.1693053847
 21
13.0026037657
  0
LWPOLYLINE
  5
68E
100
AcDbEntity
  8
RACCORDO
100
AcDbPolyline
 62
253
  6
CONTINUOUS
 90
34
 70
0
 10
-95.1736686525
 20
12.5026798276
 10
-95.1030102144
 20
12.5021692288
 10
-95.0323578643
 20
12.5006597732
 10
-94.9617272817
 20
12.498151301
 10
-94.8911296244
 20
12.4946439355
 10
-94.8205814501
 20
12.490138183
 10
-94.7501052219
 20
12.4846352739
 10
-94.6797165526
 20
12.4781366083
 10
-94.6094280777
 20
12.4706434739
 10
-94.5392580406
 20
12.4621578317
 10
-94.4692229647
 20
12.4526820302
 10
-94.3993342486
 20
12.4422179702
 10
-94.3296023291
 20
12.4307672714
 10
-94.2600413482
 20
12.4183323869
 10
-94.190664944
 20
12.4049159248
 10
-94.1214828275
 20
12.3905196544
 10
-94.052507231
 20
12.3751459986
 10
-93.9837535528
 20
12.3587983534
 10
-93.9152362429
 20
12.3414799834
 10
-93.8469685855
 20
12.3231941531
 10
-93.7789646414
 20
12.3039446613
 10
-93.7112399658
 20
12.2837358136
 10
-93.6438102466
 20
12.2625723185
 10
-93.5766867494
 20
12.2404579033
 10
-93.5098784101
 20
12.2173953714
 10
-93.4433983722
 20
12.1933889918
 10
-93.377260233
 20
12.1684436013
 10
-93.3114737231
 20
12.1425625531
 10
-93.2460473905
 20
12.1157486299
 10
-93.1809992206
 20
12.0880088393
 10
-93.116352973
 20
12.0593531923
 10
-93.0521275281
 20
12.0297902631
 10
-92.9883295786
 20
11.9993235756
 10
-92.9249645521
 20
11.9679557062
  0
LWPOLYLINE
  5
68F
100
AcDbEntity
  8
RACCORDO
100
AcDbPolyline
 62
253
  6
CONTINUOUS
 90
43
 70
0
 10
-95.1693053847
 20
13.0026037657
 10
-95.0915707583
 20
13.0020427386
 10
-95.0138708849
 20
13.0003832666
 10
-94.9362057645
 20
12.9976253498
 10
-94.8585553906
 20
12.9937679276
 10
-94.7809397696
 20
12.9888120606
 10
-94.7034189211
 20
12.9827609304
 10
-94.6259959247
 20
12.975613633
 10
-94.5486677006
 20
12.9673710726
 10
-94.4714850289
 20
12.9580391424
 10
-94.3944507796
 20
12.9476175241
 10
-94.3175620827
 20
12.9361065361
 10
-94.240861108
 20
12.9235130276
 10
-94.164348198
 20
12.9098366354
 10
-94.0880230103
 20
12.8950777227
 10
-94.011926687
 20
12.8792442285
 10
-93.9360575672
 20
12.8623352342
 10
-93.8604173118
 20
12.8443516585
 10
-93.7850520464
 20
12.8253041962
 10
-93.709961485
 20
12.8051920053
 10
-93.6351459135
 20
12.7840159279
 10
-93.5606523161
 20
12.7617891855
 10
-93.4864832292
 20
12.7385119546
 10
-93.4126361164
 20
12.7141840587
 10
-93.3391503517
 20
12.6888181896
 10
-93.2660257351
 20
12.6624138611
 10
-93.1932624666
 20
12.6349715595
 10
-93.1209005209
 20
12.6065054344
 10
-93.0489349447
 20
12.5770125241
 10
-92.9773706913
 20
12.5464957903
 10
-92.9062625942
 20
12.5149782684
 10
-92.8356175568
 20
12.4824622298
 10
-92.7654286757
 20
12.448945403
 10
-92.6957300753
 20
12.4144440085
 10
-92.6265183125
 20
12.378955745
 10
-92.5577968304
 20
12.3424829137
 10
-92.4896100825
 20
12.3050486391
 10
-92.4219506649
 20
12.2666470112
 10
-92.3548259815
 20
12.22728394
 10
-92.2883026979
 20
12.1870002793
 10
-92.2224030359
 20
12.1458096472
 10
-92.1571047738
 20
12.1036984256
 10
-92.0924079114
 20
12.0606666146
  0
LINE
  5
690
100
AcDbEntity
  8
RACCORDO
100
AcDbLine
 62
253
  6
CONTINUOUS
 10
-94.4623292846
 20
13.4991582086
 11
-100.2395514779
 21
13.5999999971
  0
LINE
  5
691
100
AcDbEntity
  8
RACCORDO
100
AcDbLine
 62
7
  6
CONTINUOUS
 10
-94.4579663491
 20
13.9990820562
 11
-100.2395514779
 21
14.1
  0
LWPOLYLINE
  5
692
100
AcDbEntity
  8
RACCORDO
100
AcDbPolyline
 62
253
  6
CONTINUOUS
 90
13
 70
0
 10
-95.1738143423
 20
12.5022112033
 10
-94.9265139577
 20
12.4960695358
 10
-94.6798191688
 20
12.477705455
 10
-94.4343338478
 20
12.4471639498
 10
-94.190658986
 20
12.4045198337
 10
-93.9493909728
 20
12.3498775205
 10
-93.7111201454
 20
12.2833707276
 10
-93.4764307869
 20
12.2051626245
 10
-93.2458963119
 20
12.115444381
 10
-93.0200778288
 20
12.0144340829
 10
-92.7995272927
 20
11.9023779503
 10
-92.5847859383
 20
11.7795502813
 10
-92.3763797267
 20
11.6462513075
  0
LWPOLYLINE
  5
693
100
AcDbEntity
  8
RACCORDO
100
AcDbPolyline
 62
253
  6
CONTINUOUS
 90
3
 70
0
 10
-92.8620419281
 20
11.935690917
 10
-92.7995776912
 20
11.9025372007
 10
-92.7375871187
 20
11.8685025438
  0
LWPOLYLINE
  5
694
100
AcDbEntity
  8
RACCORDO
100
AcDbPolyline
 62
253
  6
CONTINUOUS
 90
4
 70
0
 10
-92.6760789647
 20
11.833591442
 10
-92.6150693725
 20
11.7978129877
 10
-92.5545842922
 20
11.7611827939
 10
-92.4946401396
 20
11.7237115335
  0
LINE
  5
695
100
AcDbEntity
  8
RACCORDO
100
AcDbLine
 62
253
  6
CONTINUOUS
 10
-92.4352437283
 20
11.6854043624
 11
-92.3764061591
 21
11.6462692038
  0
LWPOLYLINE
  5
696
100
AcDbEntity
  8
RACCORDO
100
AcDbPolyline
 62
253
  6
CONTINUOUS
 90
55
 70
0
 10
-92.3763797261
 20
11.646251311
 10
-91.9609228549
 20
11.3546070822
 10
-91.5561927184
 20
11.0480894724
 10
-91.162723892
 20
10.727090005
 10
-90.7809500702
 20
10.3919404726
 10
-90.4114692742
 20
10.0431433397
 10
-90.0550140334
 20
9.6814020267
 10
-89.7121321305
 20
9.3073234966
 10
-89.3831403434
 20
8.9213063133
 10
-89.0683795011
 20
8.5237838313
 10
-88.7682665336
 20
8.1153105928
 10
-88.483157919
 20
7.6964010902
 10
-88.2133023179
 20
7.2674283292
 10
-87.9590237735
 20
6.8288868807
 10
-87.7206965882
 20
6.3814004335
 10
-87.4986342272
 20
5.9255415553
 10
-87.2931204184
 20
5.4618703219
 10
-87.1044448535
 20
4.9910160683
 10
-86.9328895702
 20
4.5136743286
 10
-86.778683028
 20
4.0304893575
 10
-86.6420163651
 20
3.5420695028
 10
-86.5230704988
 20
3.0490719627
 10
-86.4219998886
 20
2.5521580321
 10
-86.3389275473
 20
2.0519571876
 10
-86.2739538244
 20
1.5490862145
 10
-86.2271631932
 20
1.0441998224
 10
-86.1986164496
 20
0.537954993
 10
-86.1883505691
 20
0.0309749944
 10
-86.1963832705
 20
-0.4760975438
 10
-86.2227085562
 20
-0.9825850992
 10
-86.2672942446
 20
-1.4878118843
 10
-86.3300876667
 20
-1.9911432133
 10
-86.4110074403
 20
-2.4918996086
 10
-86.5099317089
 20
-2.9893432454
 10
-86.6267174448
 20
-3.4828004903
 10
-86.7612104718
 20
-3.9716583635
 10
-86.9132278894
 20
-4.4552799606
 10
-87.0825417525
 20
-4.9329773302
 10
-87.2689431304
 20
-5.404194335
 10
-87.4722632052
 20
-5.8684962616
 10
-87.6922559556
 20
-6.325286416
 10
-87.928641651
 20
-6.7739516681
 10
-88.1812017308
 20
-7.2140309435
 10
-88.4497494739
 20
-7.6451160921
 10
-88.733855843
 20
-8.0664403491
 10
-89.0328764682
 20
-8.4770426433
 10
-89.345969013
 20
-8.8758698179
 10
-89.6731002755
 20
-9.2629781569
 10
-90.0148972111
 20
-9.6390152737
 10
-90.3707273027
 20
-10.0031023362
 10
-90.7404994177
 20
-10.3549696814
 10
-91.1259550702
 20
-10.6958616539
 10
-91.5276099808
 20
-11.0255589684
 10
-91.9445192325
 20
-11.3426259366
 10
-92.3763837341
 20
-11.6462540183
  0
LWPOLYLINE
  5
697
100
AcDbEntity
  8
RACCORDO
100
AcDbPolyline
 62
253
  6
CONTINUOUS
 90
43
 70
0
 10
-92.0978843044
 20
-12.0636916119
 10
-92.1601433053
 20
-12.1053765167
 10
-92.2236120714
 20
-12.1464770005
 10
-92.2882906027
 20
-12.1869930633
 10
-92.3544037388
 20
-12.2270502413
 10
-92.4217266401
 20
-12.2665229983
 10
-92.4895847876
 20
-12.3050347258
 10
-92.5577683763
 20
-12.3424677238
 10
-92.6264872113
 20
-12.3789396923
 10
-92.6956961883
 20
-12.4144271231
 10
-92.7653922664
 20
-12.4489278301
 10
-92.8355784865
 20
-12.4824439994
 10
-92.9062188685
 20
-12.5149586817
 10
-92.9773185894
 20
-12.5464734195
 10
-93.0488724722
 20
-12.5769866702
 10
-93.1208290044
 20
-12.606476857
 10
-93.1931842255
 20
-12.6349415356
 10
-93.2659420961
 20
-12.6623831502
 10
-93.3390629856
 20
-12.6887874572
 10
-93.4125468532
 20
-12.7141540289
 10
-93.4863937397
 20
-12.7384832931
 10
-93.5605641361
 20
-12.7617622887
 10
-93.6350603503
 20
-12.7839911312
 10
-93.7098800743
 20
-12.8051697053
 10
-93.7849768755
 20
-12.8252847033
 10
-93.8603511856
 20
-12.8443354362
 10
-93.936002573
 20
-12.8623225931
 10
-94.0118833098
 20
-12.8792349342
 10
-94.0879917431
 20
-12.8950714471
 10
-94.164329526
 20
-12.9098331442
 10
-94.2408538899
 20
-12.9235118234
 10
-94.3175644194
 20
-12.9361069644
 10
-94.3944615299
 20
-12.9476190876
 10
-94.4715036991
 20
-12.9580415521
 10
-94.5486944935
 20
-12.9673741072
 10
-94.6260303466
 20
-12.9756170038
 10
-94.7034590357
 20
-12.982764353
 10
-94.7809842978
 20
-12.9888151705
 10
-94.858602396
 20
-12.9937704407
 10
-94.9362498971
 20
-12.9976272288
 10
-95.0139056567
 20
-13.0003845565
 10
-95.0915908193
 20
-13.0020434022
 10
-95.1693053847
 20
-13.0026037657
  0
LWPOLYLINE
  5
698
100
AcDbEntity
  8
RACCORDO
100
AcDbPolyline
 62
253
  6
CONTINUOUS
 90
58
 70
0
 10
-92.1348131009
 20
-12.802594389
 10
-91.6895169965
 20
-12.5098490184
 10
-91.2552849741
 20
-12.2019017756
 10
-90.8321170337
 20
-11.8787526606
 10
-90.4193649985
 20
-11.5399057068
 10
-90.0176770452
 20
-11.1858568809
 10
-89.6289977043
 20
-10.8180940823
 10
-89.2534295606
 20
-10.4365384275
 10
-88.8908700292
 20
-10.0412687999
 10
-88.542955886
 20
-9.6340097502
 10
-88.2098365053
 20
-9.214786371
 10
-87.8913625128
 20
-8.7835735697
 10
-87.5887225606
 20
-8.3420206184
 10
-87.3019940964
 20
-7.8901244727
 10
-87.0310996726
 20
-7.4278881769
 10
-86.7769955982
 20
-6.956970136
 10
-86.5397274466
 20
-6.4773210829
 10
-86.3192496444
 20
-5.9889902846
 10
-86.116381781
 20
-5.4937839471
 10
-85.931184827
 20
-4.991663274
 10
-85.7635978118
 20
-4.4826670617
 10
-85.6142574131
 20
-3.9687179056
 10
-85.4832351369
 20
-3.4498009116
 10
-85.3704594771
 20
-2.9259309738
 10
-85.2763525937
 20
-2.3990753698
 10
-85.2009853296
 20
-1.8692273462
 10
-85.1442868418
 20
-1.3363936564
 10
-85.1064667614
 20
-0.8025618386
 10
-85.0875949772
 20
-0.2677288097
 10
-85.0876016004
 20
0.2681023473
 10
-85.1064865959
 20
0.8029348456
 10
-85.1443198569
 20
1.3367656162
 10
-85.2010314903
 20
1.8695977281
 10
-85.2764117811
 20
2.3994436016
 10
-85.3705316473
 20
2.9262966534
 10
-85.483320171
 20
3.4501634669
 10
-85.6143548844
 20
3.9690762126
 10
-85.763707259
 20
4.4830197379
 10
-85.9313058232
 20
4.9920091955
 10
-86.1165136945
 20
5.4941222141
 10
-86.319391405
 20
5.9893193625
 10
-86.5398784225
 20
6.477640072
 10
-86.7771562675
 20
6.9572802641
 10
-87.0312708109
 20
7.4281915544
 10
-87.3021761817
 20
7.8904223275
 10
-87.588916288
 20
8.3423136583
 10
-87.8915702699
 20
8.783864118
 10
-88.2100589873
 20
9.2150751355
 10
-88.5431889277
 20
9.6342920725
 10
-88.8911090212
 20
10.041538329
 10
-89.2536703377
 20
10.4367905048
 10
-89.6292325744
 20
10.8183237618
 10
-90.0178982826
 20
11.1860587812
 10
-90.419564911
 20
11.5400748816
 10
-90.8322845027
 20
11.8788851808
 10
-91.2554077388
 20
12.2019940514
 10
-91.6895839382
 20
12.5098971208
 10
-92.1348131009
 20
12.802594389
  0
LWPOLYLINE
  5
699
100
AcDbEntity
  8
RACCORDO
100
AcDbPolyline
 62
253
  6
CONTINUOUS
 90
13
 70
0
 10
-92.1348131009
 20
12.802594389
 10
-92.3109867754
 20
12.9084686373
 10
-92.4910887718
 20
13.0058838814
 10
-92.6751190901
 20
13.0948401215
 10
-92.8634960946
 20
13.17549904
 10
-93.0558014211
 20
13.2476989543
 10
-93.2507799766
 20
13.310954817
 10
-93.4484559765
 20
13.365198894
 10
-93.6488052054
 20
13.4104989193
 10
-93.8504999245
 20
13.4465730479
 10
-94.0530975543
 20
13.4733273315
 10
-94.2570406743
 20
13.4908557184
 10
-94.4623292846
 20
13.4991582086
  0
LWPOLYLINE
  5
69A
100
AcDbEntity
  8
RACCORDO
100
AcDbPolyline
 62
253
  6
CONTINUOUS
 90
58
 70
0
 10
-92.0924079114
 20
12.0606666146
 10
-91.683739495
 20
11.7743186239
 10
-91.2859260573
 20
11.4748234651
 10
-90.8989675983
 20
11.1621811382
 10
-90.5223584578
 20
10.8359143576
 10
-90.156604296
 20
10.496500409
 10
-89.8032220935
 20
10.1453711496
 10
-89.4623631269
 20
9.7825698884
 10
-89.1338761196
 20
9.4080533164
 10
-88.8188242218
 20
9.0231233642
 10
-88.517267904
 20
8.6277887329
 10
-88.2291466956
 20
8.2220407214
 10
-87.9553423359
 20
7.8071551567
 10
-87.695865473
 20
7.3830679396
 10
-87.4507054586
 20
6.9498431694
 10
-87.2207120877
 20
6.5089489715
 10
-87.0059227112
 20
6.06032349
 10
-86.806299978
 20
5.6040285808
 10
-86.6225816305
 20
5.1417179366
 10
-86.4548333215
 20
4.6733754757
 10
-86.3029893981
 20
4.1990172798
 10
-86.1675906439
 20
3.7203452872
 10
-86.0487014625
 20
3.2373630428
 10
-85.9462574502
 20
2.7500670018
 10
-85.8606061803
 20
2.2601484682
 10
-85.7918039927
 20
1.767606009
 10
-85.7397945474
 20
1.2724410572
 10
-85.7047563968
 20
0.7763492154
 10
-85.6867450981
 20
0.2793191364
 10
-85.685705094
 20
-0.2186378325
 10
-85.701648266
 20
-0.7157920465
 10
-85.7346376017
 20
-1.2121615513
 10
-85.7846101134
 20
-1.707728301
 10
-85.8513887194
 20
-2.2007085137
 10
-85.9350403753
 20
-2.6910958278
 10
-86.0354981255
 20
-3.1788966048
 10
-86.1523840213
 20
-3.6623461463
 10
-86.2857459056
 20
-4.1413903962
 10
-86.4355359356
 20
-4.6160834107
 10
-86.6012326333
 20
-5.0848226599
 10
-86.7828602579
 20
-5.5475513458
 10
-86.9803945503
 20
-6.0043262664
 10
-87.1932412559
 20
-6.4537152865
 10
-87.421471904
 20
-6.8957577657
 10
-87.6650149652
 20
-7.3304143445
 10
-87.9230615966
 20
-7.7561348089
 10
-88.1957256388
 20
-8.172953499
 10
-88.4828932512
 20
-8.5808360747
 10
-88.7834140693
 20
-8.9781293017
 10
-89.0968926529
 20
-9.3643764077
 10
-89.4237244423
 20
-9.740034165
 10
-89.763945394
 20
-10.1048196557
 10
-90.117146424
 20
-10.4586740389
 10
-90.4837366163
 20
-10.8016561555
 10
-90.8649791797
 20
-11.1336596106
 10
-91.2612951836
 20
-11.4546489392
 10
-91.6722635585
 20
-11.7646596063
 10
-92.0978843044
 20
-12.0636916119
  0
LWPOLYLINE
  5
69B
100
AcDbEntity
  8
RACCORDO
100
AcDbPolyline
 62
253
  6
CONTINUOUS
 90
34
 70
0
 10
-108.4964738487
 20
19.355874881
 10
-108.7067518076
 20
19.3495523537
 10
-108.9137321183
 20
19.3391571081
 10
-109.1174147808
 20
19.3246891443
 10
-109.3176400885
 20
19.306001784
 10
-109.514567748
 20
19.2832417054
 10
-109.7086768796
 20
19.2568489431
 10
-109.8999690722
 20
19.2268789335
 10
-110.088442737
 20
19.1932762403
 10
-110.2745722276
 20
19.1563145892
 10
-110.4583579463
 20
19.1160449798
 10
-110.6397994908
 20
19.0724164125
 10
-110.8193700084
 20
19.0255496141
 10
-110.9970760239
 20
18.9754920484
 10
-111.1729110125
 20
18.9221962516
 10
-111.3473285461
 20
18.8656405584
 10
-111.5203412441
 20
18.8058696029
 10
-111.6919364872
 20
18.7428387511
 10
-111.8625299885
 20
18.6763924362
 10
-112.0321410848
 20
18.6065728753
 10
-112.2007504393
 20
18.5333378512
 10
-112.3687157557
 20
18.4564051464
 10
-112.5360631122
 20
18.375815127
 10
-112.7027664306
 20
18.2915274268
 10
-112.8691051792
 20
18.203138729
 10
-113.0351123406
 20
18.1106882148
 10
-113.2007549323
 20
18.014136703
 10
-113.3662134748
 20
17.9129633342
 10
-113.5315242459
 20
17.8072103957
 10
-113.6966509678
 20
17.6968356002
 10
-113.8616653286
 20
17.5811912255
 10
-114.0265912244
 20
17.4600613645
 10
-114.191404759
 20
17.3336619243
 10
-114.3561059325
 20
17.201992905
  0
LINE
  5
69C
100
AcDbEntity
  8
RACCORDO
100
AcDbLine
 62
253
  6
CONTINUOUS
 10
-100.2395514779
 20
19.4999999971
 11
-108.4964738487
 21
19.355874881
  0
LINE
  5
69D
100
AcDbEntity
  8
RACCORDO
100
AcDbLine
 62
7
  6
CONTINUOUS
 10
-100.2395514779
 20
20.0
 11
-108.5008367842
 21
19.8557987286
  0
LINE
  5
69E
100
AcDbEntity
  8
RACCORDO
100
AcDbLine
 62
253
  6
CONTINUOUS
 10
-91.982629107
 20
19.355874881
 11
-100.2395514779
 21
19.4999999971
  0
LINE
  5
69F
100
AcDbEntity
  8
RACCORDO
100
AcDbLine
 62
7
  6
CONTINUOUS
 10
-91.9782661716
 20
19.8557987286
 11
-100.2395514779
 21
20.0
  0
LWPOLYLINE
  5
6A0
100
AcDbEntity
  8
RACCORDO
100
AcDbPolyline
 62
253
  6
CONTINUOUS
 90
10
 70
0
 10
-78.4351882101
 20
3.3574543928
 10
-78.4393726424
 20
3.6390000644
 10
-78.4518513959
 20
3.9198511139
 10
-78.4726244706
 20
4.2000075413
 10
-78.5017274717
 20
4.4797386788
 10
-78.539124794
 20
4.7587751943
 10
-78.5847096223
 20
5.0363090916
 10
-78.6384463515
 20
5.3120710385
 10
-78.7003705866
 20
5.5863303672
 10
-78.7704823278
 20
5.8590870777
  0
LINE
  5
6A1
100
AcDbEntity
  8
RACCORDO
100
AcDbLine
 62
253
  6
CONTINUOUS
 10
-78.4351882101
 20
-3.3574543928
 11
-78.4351882101
 21
3.3574543928
  0
LINE
  5
6A2
100
AcDbEntity
  8
RACCORDO
100
AcDbLine
 62
7
  6
CONTINUOUS
 10
-77.9395514779
 20
-3.3574543928
 11
-77.9395514779
 21
3.3574543928
  0
LWPOLYLINE
  5
6A3
100
AcDbEntity
  8
RACCORDO
100
AcDbPolyline
 62
253
  6
CONTINUOUS
 90
10
 70
0
 10
-78.7704823278
 20
-5.8590870777
 10
-78.7003705866
 20
-5.5863303672
 10
-78.6384463515
 20
-5.3120710385
 10
-78.5847096223
 20
-5.0363090916
 10
-78.539124794
 20
-4.7587751943
 10
-78.5017274717
 20
-4.4797386788
 10
-78.4726244706
 20
-4.2000075413
 10
-78.4518513959
 20
-3.9198511139
 10
-78.4393726424
 20
-3.6390000644
 10
-78.4351882101
 20
-3.3574543928
  0
LWPOLYLINE
  5
6A4
100
AcDbEntity
  8
RACCORDO
100
AcDbPolyline
 62
253
  6
CONTINUOUS
 90
22
 70
0
 10
-86.1229970232
 20
-17.201992905
 10
-85.6275171652
 20
-16.7834495347
 10
-85.1445019895
 20
-16.3505034738
 10
-84.6739514962
 20
-15.9031547224
 10
-84.2153302188
 20
-15.440955902
 10
-83.7691736238
 20
-14.964354391
 10
-83.3370881101
 20
-14.474692325
 10
-82.9191379191
 20
-13.9718947057
 10
-82.5152588094
 20
-13.4560365314
 10
-82.1268644562
 20
-12.928684933
 10
-81.7540387201
 20
-12.3897952208
 10
-81.3966977403
 20
-11.8394120846
 10
-81.0560036107
 20
-11.2792367244
 10
-80.7320648359
 20
-10.7093001628
 10
-80.4247729112
 20
-10.1295713772
 10
-80.1349644156
 20
-9.5416585008
 10
-79.862712886
 20
-8.9455955232
 10
-79.6079447856
 20
-8.3413484548
 10
-79.3712760827
 20
-7.7304234596
 10
-79.1529121001
 20
-7.1133225924
 10
-78.9526475152
 20
-6.4895437984
 10
-78.7704823278
 20
-5.8590870777
  0
LWPOLYLINE
  5
6A5
100
AcDbEntity
  8
RACCORDO
100
AcDbPolyline
 62
253
  6
CONTINUOUS
 90
34
 70
0
 10
-86.1229970232
 20
17.201992905
 10
-86.2876981996
 20
17.3336619258
 10
-86.4525117365
 20
17.4600613673
 10
-86.6174376341
 20
17.5811912295
 10
-86.7824519961
 20
17.6968356052
 10
-86.9475787187
 20
17.8072104016
 10
-87.1128894902
 20
17.9129633405
 10
-87.2783480331
 20
18.0141367092
 10
-87.4439906248
 20
18.1106882204
 10
-87.6099977861
 20
18.2031387341
 10
-87.7763365341
 20
18.2915274312
 10
-87.9430398515
 20
18.3758151309
 10
-88.1103872069
 20
18.4564051496
 10
-88.2783525221
 20
18.5333378538
 10
-88.4469618752
 20
18.6065728771
 10
-88.6165729699
 20
18.6763924373
 10
-88.7871664697
 20
18.7428387516
 10
-88.9587617111
 20
18.8058696028
 10
-89.1317744075
 20
18.8656405577
 10
-89.3061919395
 20
18.9221962504
 10
-89.4820269265
 20
18.9754920468
 10
-89.6597329406
 20
19.0255496122
 10
-89.8393034569
 20
19.0724164106
 10
-90.0207450003
 20
19.1160449779
 10
-90.2045307181
 20
19.1563145873
 10
-90.3906602082
 20
19.1932762382
 10
-90.5791338728
 20
19.2268789311
 10
-90.7704260656
 20
19.2568489408
 10
-90.9645351977
 20
19.2832417039
 10
-91.161462858
 20
19.3060017837
 10
-91.3616881671
 20
19.3246891449
 10
-91.5653708317
 20
19.3391571089
 10
-91.772351145
 20
19.3495523543
 10
-91.982629107
 20
19.355874881
  0
LWPOLYLINE
  5
6A6
100
AcDbEntity
  8
RACCORDO
100
AcDbPolyline
 62
253
  6
CONTINUOUS
 90
22
 70
0
 10
-78.7704823278
 20
5.8590870777
 10
-78.9526429832
 20
6.489528208
 10
-79.1529016354
 20
7.1132908815
 10
-79.3712582843
 20
7.730375098
 10
-79.6079182175
 20
8.3412826841
 10
-79.8626761474
 20
8.9455118132
 10
-80.1349162116
 20
9.5415570064
 10
-80.4247106489
 20
10.1294505236
 10
-80.7319872204
 20
10.7091601049
 10
-81.0559133481
 20
11.2790834906
 10
-81.3965981143
 20
11.8392536756
 10
-81.7539324366
 20
12.3896376652
 10
-82.1267564894
 20
12.9285342148
 10
-82.5151540004
 20
13.455898645
 10
-82.9190412419
 20
13.9717756352
 10
-83.3370072052
 20
14.4745979797
 10
-83.7691236689
 20
14.9642972457
 10
-84.2153188543
 20
15.4409418658
 10
-84.6739664169
 20
15.9031699326
 10
-85.1445242418
 20
16.3505274768
 10
-85.6275344439
 20
16.7834684676
 10
-86.1229970232
 20
17.201992905
  0
ARC
  5
6A7
100
AcDbEntity
  8
0
100
AcDbCircle
 62
7
  6
CONTINUOUS
 10
-12.582444
 20
-0.0
 40
2.5499986575
100
AcDbArc
 50
87.752529198
 51
272.247470802
  0
ARC
  5
6A8
100
AcDbEntity
  8
0
100
AcDbCircle
 62
7
  6
CONTINUOUS
 10
-16.967554
 20
-0.0
 40
2.5499985399
100
AcDbArc
 50
87.7525290943
 51
272.2474709057
  0
ARC
  5
6A9
100
AcDbEntity
  8
0
100
AcDbCircle
 62
7
  6
CONTINUOUS
 10
-16.967554
 20
-0.0
 40
1.7999999246
100
AcDbArc
 50
86.8152613297
 51
269.5405957226
  0
ARC
  5
6AA
100
AcDbEntity
  8
0
100
AcDbCircle
 62
7
  6
CONTINUOUS
 10
-12.582444
 20
-0.0
 40
1.7999999246
100
AcDbArc
 50
86.8152613297
 51
167.9753003079
  0
ARC
  5
6AB
100
AcDbEntity
  8
0
100
AcDbCircle
 62
7
  6
CONTINUOUS
 10
-12.582444
 20
-0.0
 40
1.7999968808
100
AcDbArc
 50
192.0247203293
 51
273.1847440612
  0
ARC
  5
6AC
100
AcDbEntity
  8
0
100
AcDbCircle
 62
7
  6
CONTINUOUS
 10
-30.7596823029
 20
1.6923675
 40
1.0424347375
100
AcDbArc
 50
280.5708137818
 51
79.4291862182
  0
ARC
  5
6AD
100
AcDbEntity
  8
0
100
AcDbCircle
 62
7
  6
CONTINUOUS
 10
-30.7596823029
 20
1.6923675
 40
0.8027211015
100
AcDbArc
 50
281.0542412448
 51
78.9457587552
  0
ARC
  5
6AE
100
AcDbEntity
  8
RACCORDO
100
AcDbCircle
 62
7
  6
CONTINUOUS
 10
-112.5395514779
 20
-3.3574543928
 40
10.0
100
AcDbArc
 50
180.0
 51
195.2677302386
  0
ARC
  5
6AF
100
AcDbEntity
  8
RACCORDO
100
AcDbCircle
 62
7
  6
CONTINUOUS
 10
-108.3263127198
 20
-9.857321777
 40
10.0
100
AcDbArc
 50
230.6351908355
 51
269.0
  0
ARC
  5
6B0
100
AcDbEntity
  8
RACCORDO
100
AcDbCircle
 62
7
  6
CONTINUOUS
 10
-105.9338745744
 20
-8.9998435804
 40
5.0
100
AcDbArc
 50
237.6779079399
 51
269.0
  0
ARC
  5
6B1
100
AcDbEntity
  8
RACCORDO
100
AcDbCircle
 62
7
  6
CONTINUOUS
 10
-108.3263127198
 20
9.857321777
 40
10.0
100
AcDbArc
 50
91.0
 51
129.3648091645
  0
ARC
  5
6B2
100
AcDbEntity
  8
RACCORDO
100
AcDbCircle
 62
7
  6
CONTINUOUS
 10
-112.5395514779
 20
3.3574543928
 40
10.0
100
AcDbArc
 50
164.7322697614
 51
180.0
  0
ARC
  5
6B3
100
AcDbEntity
  8
RACCORDO
100
AcDbCircle
 62
7
  6
CONTINUOUS
 10
-105.9338745744
 20
8.9998435804
 40
5.0
100
AcDbArc
 50
91.0
 51
122.3220920601
  0
ARC
  5
6B4
100
AcDbEntity
  8
RACCORDO
100
AcDbCircle
 62
7
  6
CONTINUOUS
 10
-87.9395514779
 20
-3.3574543928
 40
10.0
100
AcDbArc
 50
344.7322697614
 51
360.0
  0
ARC
  5
6B5
100
AcDbEntity
  8
RACCORDO
100
AcDbCircle
 62
7
  6
CONTINUOUS
 10
-92.1527902359
 20
-9.857321777
 40
10.0
100
AcDbArc
 50
271.0
 51
309.3648091645
  0
ARC
  5
6B6
100
AcDbEntity
  8
RACCORDO
100
AcDbCircle
 62
7
  6
CONTINUOUS
 10
-94.5452283813
 20
-8.9998435804
 40
5.0
100
AcDbArc
 50
271.0
 51
302.3220920601
  0
ARC
  5
6B7
100
AcDbEntity
  8
RACCORDO
100
AcDbCircle
 62
7
  6
CONTINUOUS
 10
-100.2395514779
 20
-0.0
 40
22.75
100
AcDbArc
 50
195.2677302386
 51
230.6351908355
  0
ARC
  5
6B8
100
AcDbEntity
  8
RACCORDO
100
AcDbCircle
 62
7
  6
CONTINUOUS
 10
-100.2395514779
 20
-0.0
 40
22.75
100
AcDbArc
 50
129.3648091645
 51
164.7322697614
  0
ARC
  5
6B9
100
AcDbEntity
  8
RACCORDO
100
AcDbCircle
 62
7
  6
CONTINUOUS
 10
-100.2395514779
 20
-0.0
 40
22.75
100
AcDbArc
 50
309.3648091645
 51
344.7322697614
  0
ARC
  5
6BA
100
AcDbEntity
  8
RACCORDO
100
AcDbCircle
 62
7
  6
CONTINUOUS
 10
-100.2395514779
 20
-0.0
 40
22.75
100
AcDbArc
 50
15.2677302386
 51
50.6351908355
  0
CIRCLE
  5
6BB
100
AcDbEntity
  8
DRAFT
100
AcDbCircle
 62
7
  6
CONTINUOUS
 10
-100.2395514779
 20
0.0
 40
17.35
  0
ARC
  5
6BC
100
AcDbEntity
  8
RACCORDO
100
AcDbCircle
 62
7
  6
CONTINUOUS
 10
-100.2395514779
 20
0.0
 40
15.65
100
AcDbArc
 50
302.3220920601
 51
57.6779079399
  0
ARC
  5
6BD
100
AcDbEntity
  8
RACCORDO
100
AcDbCircle
 62
7
  6
CONTINUOUS
 10
-100.2395514779
 20
0.0
 40
15.65
100
AcDbArc
 50
122.3220920601
 51
237.6779079399
  0
ARC
  5
6BE
100
AcDbEntity
  8
RACCORDO
100
AcDbCircle
 62
7
  6
CONTINUOUS
 10
-100.2395514779
 20
0.0
 40
13.9450782075
100
AcDbArc
 50
314.1845246744
 51
45.8154753256
  0
ARC
  5
6BF
100
AcDbEntity
  8
RACCORDO
100
AcDbCircle
 62
7
  6
CONTINUOUS
 10
-100.2395514779
 20
0.0
 40
13.9450782075
100
AcDbArc
 50
134.1845246744
 51
225.8154753256
  0
ARC
  5
6C0
100
AcDbEntity
  8
RACCORDO
100
AcDbCircle
 62
7
  6
CONTINUOUS
 10
-100.2395514779
 20
0.0
 40
13.15
100
AcDbArc
 50
125.9203114288
 51
234.0796885712
  0
ARC
  5
6C1
100
AcDbEntity
  8
RACCORDO
100
AcDbCircle
 62
7
  6
CONTINUOUS
 10
-100.2395514779
 20
0.0
 40
13.15
100
AcDbArc
 50
305.9203114288
 51
54.0796885712
  0
ARC
  5
6C2
100
AcDbEntity
  8
RACCORDO
100
AcDbCircle
 62
7
  6
CONTINUOUS
 10
-94.5452283813
 20
8.9998435804
 40
5.0
100
AcDbArc
 50
57.6779079399
 51
89.0
  0
ARC
  5
6C3
100
AcDbEntity
  8
RACCORDO
100
AcDbCircle
 62
7
  6
CONTINUOUS
 10
-87.9395514779
 20
3.3574543928
 40
10.0
100
AcDbArc
 50
0.0
 51
15.2677302386
  0
ARC
  5
6C4
100
AcDbEntity
  8
RACCORDO
100
AcDbCircle
 62
7
  6
CONTINUOUS
 10
-92.1527902359
 20
9.857321777
 40
10.0
100
AcDbArc
 50
50.6351908355
 51
89.0
  0
ELLIPSE
  5
6C5
100
AcDbEntity
  8
RACCORDO
100
AcDbEllipse
 62
7
  6
CONTINUOUS
 10
43.9500185007
 20
0.0
 30
0.0
 11
-0.0
 21
13.9171502651
 31
0.0
 40
0.0087268679
 41
0.7690985552
 42
2.3724940984
  0
ELLIPSE
  5
6C6
100
AcDbEntity
  8
RACCORDO
100
AcDbEllipse
 62
7
  6
CONTINUOUS
 10
-43.9500185007
 20
-0.0
 30
0.0
 11
0.0
 21
13.9171502651
 31
0.0
 40
0.0087268679
 41
-2.3724940984
 42
-0.7690985552
  0
ELLIPSE
  5
6C7
100
AcDbEntity
  8
RACCORDO
100
AcDbEllipse
 62
7
  6
CONTINUOUS
 10
43.95
 20
0.0
 30
0.0
 11
-0.0
 21
14.8
 31
0.0
 40
0.0087268678
 41
0.541099526
 42
0.6027425302
  0
ELLIPSE
  5
6C8
100
AcDbEntity
  8
RACCORDO
100
AcDbEllipse
 62
7
  6
CONTINUOUS
 10
43.95
 20
0.0
 30
0.0
 11
-0.0
 21
14.8
 31
0.0
 40
0.0087268678
 41
-3.7443351851
 42
-3.6826921795
  0
ELLIPSE
  5
6C9
100
AcDbEntity
  8
RACCORDO
100
AcDbEllipse
 62
7
  6
CONTINUOUS
 10
-43.905948763
 20
-8.4
 30
0.0
 11
0.0
 21
5.0
 31
0.0
 40
0.0087268678
 41
-3.1415926536
 42
-2.6004931276
  0
ELLIPSE
  5
6CA
100
AcDbEntity
  8
RACCORDO
100
AcDbEllipse
 62
7
  6
CONTINUOUS
 10
43.905948763
 20
8.4
 30
0.0
 11
-0.0
 21
5.0
 31
0.0
 40
0.0087268678
 41
-0.0
 42
0.541099526
  0
ELLIPSE
  5
6CB
100
AcDbEntity
  8
RACCORDO
100
AcDbEllipse
 62
7
  6
CONTINUOUS
 10
41.05
 20
0.0
 30
0.0
 11
-0.0
 21
15.65
 31
0.0
 40
0.0087268678
 41
-2.577465726
 42
-0.5641269276
  0
ELLIPSE
  5
6CC
100
AcDbEntity
  8
RACCORDO
100
AcDbEllipse
 62
7
  6
CONTINUOUS
 10
-41.05
 20
-0.0
 30
0.0
 11
-0.0
 21
15.65
 31
0.0
 40
0.0087268678
 41
0.5641269276
 42
2.577465726
  0
ELLIPSE
  5
6CD
100
AcDbEntity
  8
RACCORDO
100
AcDbEllipse
 62
7
  6
CONTINUOUS
 10
-41.0996936048
 20
8.9998435804
 30
0.0
 11
-0.0
 21
5.0
 31
0.0
 40
0.0087268678
 41
0.0174532925
 42
0.5641269276
  0
ELLIPSE
  5
6CE
100
AcDbEntity
  8
RACCORDO
100
AcDbEllipse
 62
7
  6
CONTINUOUS
 10
41.0996936048
 20
8.9998435804
 30
0.0
 11
-0.0
 21
5.0
 31
0.0
 40
0.0087268678
 41
-0.5641269276
 42
-0.0174532925
  0
ELLIPSE
  5
6CF
100
AcDbEntity
  8
RACCORDO
100
AcDbEllipse
 62
7
  6
CONTINUOUS
 10
-41.0996936048
 20
-8.9998435804
 30
0.0
 11
-0.0
 21
5.0
 31
0.0
 40
0.0087268678
 41
-3.7057195812
 42
-3.1590459461
  0
ELLIPSE
  5
6D0
100
AcDbEntity
  8
RACCORDO
100
AcDbEllipse
 62
7
  6
CONTINUOUS
 10
41.0996936048
 20
-8.9998435804
 30
0.0
 11
-0.0
 21
5.0
 31
0.0
 40
0.0087268678
 41
-3.1241393611
 42
-2.577465726
  0
ELLIPSE
  5
6D1
100
AcDbEntity
  8
DRAFT
100
AcDbEllipse
 62
7
  6
CONTINUOUS
 10
43.05
 20
0.0
 30
0.0
 11
-0.0
 21
17.35
 31
0.0
 40
0.0087268678
 41
0.0
 42
3.1415926536
  0
ELLIPSE
  5
6D2
100
AcDbEntity
  8
DRAFT
100
AcDbEllipse
 62
7
  6
CONTINUOUS
 10
43.95
 20
0.0
 30
0.0
 11
-0.0
 21
17.35
 31
0.0
 40
0.0087268678
 41
0.0
 42
3.1415926536
  0
ELLIPSE
  5
6D3
100
AcDbEntity
  8
DRAFT
100
AcDbEllipse
 62
7
  6
CONTINUOUS
 10
-43.95
 20
-0.0
 30
0.0
 11
-0.0
 21
17.35
 31
0.0
 40
0.0087268678
 41
3.1415926536
 42
6.2831853072
  0
ELLIPSE
  5
6D4
100
AcDbEntity
  8
DRAFT
100
AcDbEllipse
 62
7
  6
CONTINUOUS
 10
-43.05
 20
-0.0
 30
0.0
 11
-0.0
 21
17.35
 31
0.0
 40
0.0087268678
 41
3.1415926536
 42
6.2831853072
  0
ELLIPSE
  5
6D5
100
AcDbEntity
  8
RACCORDO
100
AcDbEllipse
 62
7
  6
CONTINUOUS
 10
43.905948763
 20
-8.4
 30
0.0
 11
-0.0
 21
5.0
 31
0.0
 40
0.0087268678
 41
-3.6826921795
 42
-3.1415926536
  0
ELLIPSE
  5
6D6
100
AcDbEntity
  8
RACCORDO
100
AcDbEllipse
 62
7
  6
CONTINUOUS
 10
-43.95
 20
-0.0
 30
0.0
 11
-0.0
 21
14.8
 31
0.0
 40
0.0087268678
 41
-0.6027425322
 42
-0.541099526
  0
ELLIPSE
  5
6D7
100
AcDbEntity
  8
RACCORDO
100
AcDbEllipse
 62
7
  6
CONTINUOUS
 10
-43.95
 20
-0.0
 30
0.0
 11
-0.0
 21
14.8
 31
0.0
 40
0.0087268678
 41
-2.6004931276
 42
-2.5388501231
  0
ELLIPSE
  5
6D8
100
AcDbEntity
  8
RACCORDO
100
AcDbEllipse
 62
7
  6
CONTINUOUS
 10
-43.905948763
 20
8.4
 30
0.0
 11
0.0
 21
5.0
 31
0.0
 40
0.0087268678
 41
-0.541099526
 42
0.0
  0
ELLIPSE
  5
6D9
100
AcDbEntity
  8
RACCORDO
100
AcDbEllipse
 62
7
  6
CONTINUOUS
 10
-100.2374315056
 20
0.0
 30
0.0
 11
13.9171504265
 21
-0.0
 31
0.0
 40
0.9999999884
 41
2.339894882
 42
3.9432904252
  0
ELLIPSE
  5
6DA
100
AcDbEntity
  8
RACCORDO
100
AcDbEllipse
 62
7
  6
CONTINUOUS
 10
-100.2416714502
 20
0.0
 30
0.0
 11
13.9171504265
 21
0.0
 31
0.0
 40
0.9999999884
 41
5.4814875355
 42
7.0848830788
  0
ENDSEC
  0
SECTION
  2
OBJECTS
  0
DICTIONARY
  5
C
100
AcDbDictionary
280
0
281
1
  3
ACAD_GROUP
350
D
  3
ACAD_MLINESTYLE
350
17
  3
ACAD_LAYOUT
350
1A
  3
ACAD_PLOTSETTINGS
350
19
  3
ACAD_PLOTSTYLENAME
350
E
  0
DICTIONARY
  5
D
102
{ACAD_REACTORS
330
C
102
}
100
AcDbDictionary
280
0
281
1
  0
ACDBDICTIONARYWDFLT
  5
E
102
{ACAD_REACTORS
330
C
102
}
100
AcDbDictionary
281
1
  3
Normal
350
F
100
AcDbDictionaryWithDefault
340
F
  0
DICTIONARY
  5
17
102
{ACAD_REACTORS
330
C
102
}
100
AcDbDictionary
280
0
281
1
  3
Standard
350
18
  0
DICTIONARY
  5
19
102
{ACAD_REACTORS
330
C
102
}
100
AcDbDictionary
281
1
  0
DICTIONARY
  5
1A
102
{ACAD_REACTORS
330
C
102
}
100
AcDbDictionary
281
1
  3
Model
350
6DB
  3
Layout1
350
6DC
  0
ACDBPLACEHOLDER
  5
F
102
{ACAD_REACTORS
330
E
102
}
  0
MLINESTYLE
  5
18
102
{ACAD_REACTORS
330
17
102
}
100
AcDbMlineStyle
  2
STANDARD
 70
0
  3

 62
256
 51
90.0
 52
90.0
 71
2
 49
0.5
 62
256
  6
BYLAYER
 49
-0.5
 62
256
  6
BYLAYER
  0
LAYOUT
  5
6DB
102
{ACAD_REACTORS
330
1A
102
}
100
AcDbPlotSettings
  1

  2
none_device
  4
ISO_A4_(297.00_x_210.00_MM)
  6

 40
0.0
 41
0.0
 42
0.0
 43
0.0
 44
297.0
 45
210.0
 46
0.0
 47
0.0
 48
0.0
 49
0.0
140
0.0
141
0.0
142
1.0
143
1.0
 70
1024
 72
1
 73
0
 74
0
  7

 75
0
147
1.0
148
0.0
149
0.0
100
AcDbLayout
  1
Model
 70
0
 71
0
 10
0.0
 20
0.0
 11
297.0
 21
210.0
 12
0.0
 22
0.0
 32
0.0
 14
0.0
 24
0.0
 34
0.0
 15
0.0
 25
0.0
 35
0.0
146
0.0
 13
0.0
 23
0.0
 33
0.0
 16
1.0
 26
0.0
 36
0.0
 17
0.0
 27
1.0
 37
0.0
 76
0
330
20F
345
0
346
0
  0
LAYOUT
  5
6DC
102
{ACAD_REACTORS
330
1A
102
}
100
AcDbPlotSettings
  1

  2
none_device
  4
ISO_A4_(297.00_x_210.00_MM)
  6

 40
0.0
 41
0.0
 42
0.0
 43
0.0
 44
297.0
 45
210.0
 46
0.0
 47
0.0
 48
0.0
 49
0.0
140
0.0
141
0.0
142
1.0
143
1.0
 70
0
 72
1
 73
0
 74
0
  7

 75
0
147
1.0
148
0.0
149
0.0
100
AcDbLayout
  1
Layout1
 70
0
 71
1
 10
0.0
 20
0.0
 11
297.0
 21
210.0
 12
0.0
 22
0.0
 32
0.0
 14
0.0
 24
0.0
 34
0.0
 15
0.0
 25
0.0
 35
0.0
146
0.0
 13
0.0
 23
0.0
 33
0.0
 16
1.0
 26
0.0
 36
0.0
 17
0.0
 27
1.0
 37
0.0
 76
0
330
210
345
0
346
0
  0
ENDSEC
  0
EOF
