  0
SECTION
  2
HEADER
  9
$ACADVER
  1
AC1024
  9
$DWGCODEPAGE
  3
ANSI_1252
  9
$EXTMAX
 10
297.0
 20
210.0
 30
0.0
  9
$EXTMIN
 10
0.0
 20
0.0
 30
0.0
  9
$LIMMIN
 10
0.0
 20
0.0
  9
$LIMMAX
 10
297.0
 20
210.0
  9
$VIEWCTR
 10
148.5
 20
105.0
  9
$VIEWSIZE
 40
210.0
  9
$CLAYER
  8
0
  9
$LTSCALE
 40
16.335
  9
$CELTYPE
  6
BYLAYER
  9
$DIMSCALE
 40
1.0
  9
$DIMASZ
 40
3.0
  9
$DIMEXO
 40
0.5
  9
$DIMDLI
 40
11.286
  9
$DIMEXE
 40
1.5
  9
$DIMCEN
 40
2.673
  9
$DIMLFAC
 40
1.0
  9
$DIMBLK
  1
_FILLED
  9
$DIMALT
 70
0
  9
$DIMALTF
 40
0.0393700787
  9
$DIMTXT
 40
3.0
  9
$DIMTOL
 70
1
  9
$DIMLIM
 70
0
  9
$DIMTFAC
 40
1.0
  9
$DIMTP
 40
0.01
  9
$DIMTM
 40
0.01
  9
$DIMGAP
 40
0.625
  9
$DIMDSEP
 70
44
  9
$AUNITS
 70
0
  9
$PDMODE
 70
3
  9
$PDSIZE
 40
3.0
  9
$HANDSEED
  5
6D4
  9
$TILEMODE
 70
1
  9
$MEASUREMENT
 70
1
  9
$INSUNITS
 70
4
  0
ENDSEC
  0
SECTION
  2
CLASSES
  0
CLASS
  1
ACDBDICTIONARYWDFLT
  2
AcDbDictionaryWithDefault
  3
AutoCAD 2000
 90
0
 91
1
280
0
281
0
  0
CLASS
  1
ACDBPLACEHOLDER
  2
AcDbPlaceHolder
  3
AutoCAD 2000
 90
0
 91
1
280
0
281
0
  0
CLASS
  1
LAYOUT
  2
AcDbLayout
  3
AutoCAD 2000
 90
0
 91
0
280
0
281
0
  0
ENDSEC
  0
SECTION
  2
TABLES
  0
TABLE
  2
VPORT
  5
8
100
AcDbSymbolTable
 70
2
  0
VPORT
  5
1F4
100
AcDbSymbolTableRecord
100
AcDbViewportTableRecord
  2
*ACTIVE
 70
0
 10
0.0
 20
0.0
 11
1.0
 21
1.0
 12
148.5
 22
105.0
 13
0.0
 23
0.0
 14
1.0
 24
1.0
 15
0.0
 25
0.0
 16
0.0
 26
0.0
 36
1.0
 17
0.0
 27
0.0
 37
0.0
 40
210.0
 41
1.4142857143
 42
50.0
 43
0.0
 44
0.0
 50
0.0
 51
0.0
 71
0
 72
100
 73
1
 74
1
 75
0
 76
0
 77
0
 78
0
  0
ENDTAB
  0
TABLE
  2
LTYPE
  5
5
100
AcDbSymbolTable
 70
6
  0
LTYPE
  5
14
100
AcDbSymbolTableRecord
100
AcDbLinetypeTableRecord
  2
BYBLOCK
 70
0
  3

 72
65
 73
0
 40
0.0
  0
LTYPE
  5
15
100
AcDbSymbolTableRecord
100
AcDbLinetypeTableRecord
  2
BYLAYER
 70
0
  3

 72
65
 73
0
 40
0.0
  0
LTYPE
  5
16
100
AcDbSymbolTableRecord
100
AcDbLinetypeTableRecord
  2
CONTINUOUS
 70
64
  3
Solid line
 72
65
 73
0
 40
0.0
  0
LTYPE
  5
1F5
100
AcDbSymbolTableRecord
100
AcDbLinetypeTableRecord
  2
CENTER
 70
64
  3
____ _ ____ _ ____ _ ____ _ ____ _ ____ _ ____
 72
65
 73
4
 40
0.6
 49
0.375
 74
0
 49
-0.075
 74
0
 49
0.075
 74
0
 49
-0.075
 74
0
  0
LTYPE
  5
1F6
100
AcDbSymbolTableRecord
100
AcDbLinetypeTableRecord
  2
HIDDEN
 70
64
  3
- - - - - - - - - - - - - - - - - - - -
 72
65
 73
2
 40
0.2
 49
0.1
 74
0
 49
-0.1
 74
0
  0
LTYPE
  5
1F7
100
AcDbSymbolTableRecord
100
AcDbLinetypeTableRecord
  2
PHANTOM
 70
64
  3
_____ _ _ _____ _ _ _____ _ _ _____
 72
65
 73
6
 40
0.8
 49
0.45
 74
0
 49
-0.05
 74
0
 49
0.1
 74
0
 49
-0.05
 74
0
 49
0.1
 74
0
 49
-0.05
 74
0
  0
LTYPE
  5
1F8
100
AcDbSymbolTableRecord
100
AcDbLinetypeTableRecord
  2
DOT
 70
64
  3
. . . . . . . . . . . . . . . . . . . .
 72
65
 73
2
 40
0.2
 49
0.1
 74
0
 49
-0.1
 74
0
  0
LTYPE
  5
1F9
100
AcDbSymbolTableRecord
100
AcDbLinetypeTableRecord
  2
DASHED
 70
64
  3
- - - - - - - - - - - - - - - - - - - -
 72
65
 73
2
 40
0.2
 49
0.1
 74
0
 49
-0.1
 74
0
  0
ENDTAB
  0
TABLE
  2
LAYER
  5
2
100
AcDbSymbolTable
 70
36
  0
LAYER
  5
10
100
AcDbSymbolTableRecord
100
AcDbLayerTableRecord
  2
0
 70
0
 62
7
  6
CONTINUOUS
370
-3
390
F
  0
LAYER
  5
1FA
100
AcDbSymbolTableRecord
100
AcDbLayerTableRecord
  2
DEFAULT_1
 70
0
 62
7
  6
CENTER
370
-3
390
F
  0
LAYER
  5
1FB
100
AcDbSymbolTableRecord
100
AcDbLayerTableRecord
  2
DEFAULT_2
 70
0
 62
7
  6
HIDDEN
370
-3
390
F
  0
LAYER
  5
1FC
100
AcDbSymbolTableRecord
100
AcDbLayerTableRecord
  2
DEFAULT_3
 70
0
 62
7
  6
PHANTOM
370
-3
390
F
  0
LAYER
  5
1FD
100
AcDbSymbolTableRecord
100
AcDbLayerTableRecord
  2
ASSI
 70
0
 62
7
  6
CONTINUOUS
370
-3
390
F
  0
LAYER
  5
1FE
100
AcDbSymbolTableRecord
100
AcDbLayerTableRecord
  2
COLOR1
 70
0
 62
7
  6
CONTINUOUS
370
-3
390
F
  0
LAYER
  5
1FF
100
AcDbSymbolTableRecord
100
AcDbLayerTableRecord
  2
COLOR15
 70
0
 62
7
  6
CONTINUOUS
370
-3
390
F
  0
LAYER
  5
200
100
AcDbSymbolTableRecord
100
AcDbLayerTableRecord
  2
COORDINATE
 70
0
 62
7
  6
CONTINUOUS
370
-3
390
F
  0
LAYER
  5
201
100
AcDbSymbolTableRecord
100
AcDbLayerTableRecord
  2
COORD_ORIGINE
 70
0
 62
7
  6
CONTINUOUS
370
-3
390
F
  0
LAYER
  5
202
100
AcDbSymbolTableRecord
100
AcDbLayerTableRecord
  2
COPY_PUBLISH
 70
0
 62
7
  6
CONTINUOUS
370
-3
390
F
  0
LAYER
  5
203
100
AcDbSymbolTableRecord
100
AcDbLayerTableRecord
  2
COSMETIC
 70
0
 62
7
  6
CONTINUOUS
370
-3
390
F
  0
LAYER
  5
204
100
AcDbSymbolTableRecord
100
AcDbLayerTableRecord
  2
COSMETICHE
 70
0
 62
7
  6
CONTINUOUS
370
-3
390
F
  0
LAYER
  5
205
100
AcDbSymbolTableRecord
100
AcDbLayerTableRecord
  2
COSMETICI
 70
0
 62
7
  6
CONTINUOUS
370
-3
390
F
  0
LAYER
  5
206
100
AcDbSymbolTableRecord
100
AcDbLayerTableRecord
  2
CURVE
 70
0
 62
7
  6
CONTINUOUS
370
-3
390
F
  0
LAYER
  5
207
100
AcDbSymbolTableRecord
100
AcDbLayerTableRecord
  2
DRAFT
 70
0
 62
7
  6
CONTINUOUS
370
-3
390
F
  0
LAYER
  5
208
100
AcDbSymbolTableRecord
100
AcDbLayerTableRecord
  2
IMPORT_IGES
 70
0
 62
7
  6
CONTINUOUS
370
-3
390
F
  0
LAYER
  5
209
100
AcDbSymbolTableRecord
100
AcDbLayerTableRecord
  2
INTFCLR_3
 70
0
 62
7
  6
CONTINUOUS
370
-3
390
F
  0
LAYER
  5
20A
100
AcDbSymbolTableRecord
100
AcDbLayerTableRecord
  2
INTF_1
 70
0
 62
7
  6
CONTINUOUS
370
-3
390
F
  0
LAYER
  5
20B
100
AcDbSymbolTableRecord
100
AcDbLayerTableRecord
  2
INTF_2
 70
0
 62
7
  6
CONTINUOUS
370
-3
390
F
  0
LAYER
  5
20C
100
AcDbSymbolTableRecord
100
AcDbLayerTableRecord
  2
INTF_5
 70
0
 62
7
  6
CONTINUOUS
370
-3
390
F
  0
LAYER
  5
20D
100
AcDbSymbolTableRecord
100
AcDbLayerTableRecord
  2
INTF_CYAN
 70
0
 62
7
  6
CONTINUOUS
370
-3
390
F
  0
LAYER
  5
20E
100
AcDbSymbolTableRecord
100
AcDbLayerTableRecord
  2
INTF_YELLOW
 70
0
 62
7
  6
CONTINUOUS
370
-3
390
F
  0
LAYER
  5
20F
100
AcDbSymbolTableRecord
100
AcDbLayerTableRecord
  2
NONE
 70
0
 62
7
  6
CONTINUOUS
370
-3
390
F
  0
LAYER
  5
210
100
AcDbSymbolTableRecord
100
AcDbLayerTableRecord
  2
NOTE
 70
0
 62
7
  6
CONTINUOUS
370
-3
390
F
  0
LAYER
  5
211
100
AcDbSymbolTableRecord
100
AcDbLayerTableRecord
  2
PIANI
 70
0
 62
7
  6
CONTINUOUS
370
-3
390
F
  0
LAYER
  5
212
100
AcDbSymbolTableRecord
100
AcDbLayerTableRecord
  2
PIANI_ORIGINE
 70
0
 62
7
  6
CONTINUOUS
370
-3
390
F
  0
LAYER
  5
213
100
AcDbSymbolTableRecord
100
AcDbLayerTableRecord
  2
PUNTI
 70
0
 62
7
  6
CONTINUOUS
370
-3
390
F
  0
LAYER
  5
214
100
AcDbSymbolTableRecord
100
AcDbLayerTableRecord
  2
RACCORDO
 70
0
 62
7
  6
CONTINUOUS
370
-3
390
F
  0
LAYER
  5
215
100
AcDbSymbolTableRecord
100
AcDbLayerTableRecord
  2
RGB__255__255__255__
 70
0
 62
7
  6
CONTINUOUS
370
-3
390
F
  0
LAYER
  5
216
100
AcDbSymbolTableRecord
100
AcDbLayerTableRecord
  2
RGB____0____0____0__
 70
0
 62
7
  6
CONTINUOUS
370
-3
390
F
  0
LAYER
  5
217
100
AcDbSymbolTableRecord
100
AcDbLayerTableRecord
  2
SCRITTE
 70
0
 62
7
  6
CONTINUOUS
370
-3
390
F
  0
LAYER
  5
218
100
AcDbSymbolTableRecord
100
AcDbLayerTableRecord
  2
SIMBOLI
 70
0
 62
7
  6
CONTINUOUS
370
-3
390
F
  0
LAYER
  5
219
100
AcDbSymbolTableRecord
100
AcDbLayerTableRecord
  2
SMUSSO
 70
0
 62
7
  6
CONTINUOUS
370
-3
390
F
  0
LAYER
  5
21A
100
AcDbSymbolTableRecord
100
AcDbLayerTableRecord
  2
SNAPLINE
 70
0
 62
7
  6
CONTINUOUS
370
-3
390
F
  0
LAYER
  5
21B
100
AcDbSymbolTableRecord
100
AcDbLayerTableRecord
  2
SUPERFICI
 70
0
 62
7
  6
CONTINUOUS
370
-3
390
F
  0
LAYER
  5
21C
100
AcDbSymbolTableRecord
100
AcDbLayerTableRecord
  2
TRASH
 70
0
 62
7
  6
CONTINUOUS
370
-3
390
F
  0
ENDTAB
  0
TABLE
  2
STYLE
  5
3
100
AcDbSymbolTable
 70
1
  0
STYLE
  5
11
100
AcDbSymbolTableRecord
100
AcDbTextStyleTableRecord
  2
STANDARD
 70
0
 40
0.0
 41
0.8
 50
0.0
 71
0
 42
0.2
  3
txt
  4

  0
STYLE
  5
21D
100
AcDbSymbolTableRecord
100
AcDbTextStyleTableRecord
  2
TEXTSTYLE_1
 70
0
 40
0.0
 41
0.8
 50
0.0
 71
0
 42
0.2
  3
gdt
  4

  0
ENDTAB
  0
TABLE
  2
VIEW
  5
6
100
AcDbSymbolTable
 70
0
  0
ENDTAB
  0
TABLE
  2
UCS
  5
7
100
AcDbSymbolTable
 70
0
  0
ENDTAB
  0
TABLE
  2
APPID
  5
9
100
AcDbSymbolTable
 70
1
  0
APPID
  5
21E
100
AcDbSymbolTableRecord
100
AcDbRegAppTableRecord
  2
ACAD
 70
0
  0
ENDTAB
  0
TABLE
  2
BLOCK_RECORD
  5
1
100
AcDbSymbolTable
 70
0
  0
BLOCK_RECORD
  5
21F
100
AcDbSymbolTableRecord
100
AcDbBlockTableRecord
  2
*Model_Space
  0
BLOCK_RECORD
  5
220
100
AcDbSymbolTableRecord
100
AcDbBlockTableRecord
  2
*Paper_Space
  0
BLOCK_RECORD
  5
221
100
AcDbSymbolTableRecord
100
AcDbBlockTableRecord
  2
_FILLED
  0
BLOCK_RECORD
  5
222
100
AcDbSymbolTableRecord
100
AcDbBlockTableRecord
  2
*D0
  0
BLOCK_RECORD
  5
223
100
AcDbSymbolTableRecord
100
AcDbBlockTableRecord
  2
*D1
  0
BLOCK_RECORD
  5
224
100
AcDbSymbolTableRecord
100
AcDbBlockTableRecord
  2
*D2
  0
BLOCK_RECORD
  5
225
100
AcDbSymbolTableRecord
100
AcDbBlockTableRecord
  2
*D3
  0
ENDTAB
  0
TABLE
  2
DIMSTYLE
  5
A
100
AcDbSymbolTable
 70
1
100
AcDbDimStyleTable
 71
0
  0
DIMSTYLE
105
226
100
AcDbSymbolTableRecord
100
AcDbDimStyleTableRecord
  2
STANDARD
 70
0
  3

  4

 40
1.0
 41
3.0
 42
0.5
 43
0.38
 44
1.5
 45
0.0
 46
0.0
 47
0.01
 48
0.01
140
3.0
141
0.09
142
0.0
143
25.4
144
1.0
145
0.0
146
1.0
147
0.625
 71
1
 72
0
 73
0
 74
0
 75
0
 76
0
 77
1
 78
8
 79
2
170
0
171
1
172
0
173
0
174
0
175
0
176
0
177
0
178
0
270
2
179
2
271
2
272
2
273
2
274
2
275
0
280
0
281
0
282
0
283
1
284
8
285
0
286
0
287
3
288
0
340
11
278
44
341
221
342
221
343
221
344
221
  0
DIMSTYLE
105
227
100
AcDbSymbolTableRecord
100
AcDbDimStyleTableRecord
  2
DIMSTYLE_1
 70
0
  3

  4

 40
1.0
 41
3.0
 42
0.5
 43
0.38
 44
1.5
 45
0.0
 46
0.0
 47
0.0
 48
0.0
140
3.0
141
0.09
142
0.0
143
25.4
144
1.0
145
0.0
146
1.0
147
0.75
 71
0
 72
0
 73
0
 74
0
 75
0
 76
0
 77
1
 78
8
 79
2
170
0
171
1
172
0
173
0
174
0
175
0
176
0
177
0
178
0
270
2
179
2
271
2
272
2
273
2
274
2
275
0
280
0
281
0
282
0
283
1
284
8
285
0
286
0
287
3
288
0
340
11
278
44
341
221
342
221
343
221
344
221
  0
DIMSTYLE
105
228
100
AcDbSymbolTableRecord
100
AcDbDimStyleTableRecord
  2
DIMSTYLE_2
 70
0
  3

  4

 40
1.0
 41
3.0
 42
0.5
 43
0.38
 44
1.5
 45
0.0
 46
0.0
 47
0.0
 48
0.0
140
3.0
141
0.09
142
0.0
143
25.4
144
1.0
145
0.0
146
1.0
147
0.75
 71
0
 72
0
 73
0
 74
0
 75
0
 76
0
 77
1
 78
8
 79
2
170
0
171
1
172
0
173
0
174
0
175
0
176
0
177
0
178
0
270
2
179
2
271
1
272
1
273
2
274
2
275
0
280
0
281
0
282
0
283
1
284
8
285
0
286
0
287
3
288
0
340
11
278
44
341
221
342
221
343
221
344
221
  0
ENDTAB
  0
ENDSEC
  0
SECTION
  2
BLOCKS
  0
BLOCK
  5
20
100
AcDbEntity
  8
0
100
AcDbBlockBegin
  2
*Model_Space
 70
0
 10
0.0
 20
0.0
 30
0.0
  3
*Model_Space
  1

  0
ENDBLK
  5
21
100
AcDbEntity
  8
0
100
AcDbBlockEnd
  0
BLOCK
  5
1C
100
AcDbEntity
  8
0
100
AcDbBlockBegin
  2
*Paper_Space
 70
0
 10
0.0
 20
0.0
 30
0.0
  3
*Paper_Space
  1

  0
ENDBLK
  5
1D
100
AcDbEntity
  8
0
100
AcDbBlockEnd
  0
BLOCK
  5
229
100
AcDbEntity
  8
0
100
AcDbBlockBegin
  2
_FILLED
 70
64
 10
0.0
 20
0.0
  3
_FILLED
  1

  0
SOLID
  5
22A
100
AcDbEntity
  8
0
  6
BYBLOCK
 62
0
100
AcDbTrace
 10
0.0
 20
0.0
 11
-1.0
 21
0.3166666667
 12
-1.0
 22
-0.3166666667
 13
-1.0
 23
-0.3166666667
  0
ENDBLK
  5
22B
100
AcDbEntity
  8
0
  6
BYBLOCK
 62
0
100
AcDbBlockEnd
  0
BLOCK
  5
22C
100
AcDbEntity
  8
0
100
AcDbBlockBegin
 62
7
  6
CONTINUOUS
  2
*D0
 70
65
 10
0.0
 20
0.0
  3
*D0
  1

  0
LINE
  5
22D
100
AcDbEntity
  8
0
100
AcDbLine
 62
7
  6
CONTINUOUS
 10
-60.0
 20
55.5
 11
-60.0
 21
75.383429273
  0
LINE
  5
22E
100
AcDbEntity
  8
0
100
AcDbLine
 62
7
  6
CONTINUOUS
 10
60.0
 20
55.5
 11
60.0
 21
75.383429273
  0
LINE
  5
22F
100
AcDbEntity
  8
0
100
AcDbLine
 62
7
  6
CONTINUOUS
 10
-60.0
 20
73.883429273
 11
0.0
 21
73.883429273
  0
LINE
  5
230
100
AcDbEntity
  8
0
100
AcDbLine
 62
7
  6
CONTINUOUS
 10
60.0
 20
73.883429273
 11
0.0
 21
73.883429273
  0
INSERT
  5
231
100
AcDbEntity
  8
0
100
AcDbBlockReference
 62
7
  6
CONTINUOUS
  2
_FILLED
 10
-60.0
 20
73.883429273
 41
3.0
 42
3.0
 43
3.0
 50
180.0
  0
INSERT
  5
232
100
AcDbEntity
  8
0
100
AcDbBlockReference
 62
7
  6
CONTINUOUS
  2
_FILLED
 10
60.0
 20
73.883429273
 41
3.0
 42
3.0
 43
3.0
 50
0.0
  0
ENDBLK
  5
233
100
AcDbEntity
  8
0
  6
BYBLOCK
 62
0
100
AcDbBlockEnd
  0
BLOCK
  5
234
100
AcDbEntity
  8
0
100
AcDbBlockBegin
 62
7
  6
CONTINUOUS
  2
*D1
 70
65
 10
0.0
 20
0.0
  3
*D1
  1

  0
LINE
  5
235
100
AcDbEntity
  8
0
100
AcDbLine
 62
7
  6
CONTINUOUS
 10
55.5
 20
60.0
 11
75.90619518
 21
60.0
  0
LINE
  5
236
100
AcDbEntity
  8
0
100
AcDbLine
 62
7
  6
CONTINUOUS
 10
55.5
 20
-60.0
 11
75.90619518
 21
-60.0
  0
LINE
  5
237
100
AcDbEntity
  8
0
100
AcDbLine
 62
7
  6
CONTINUOUS
 10
74.40619518
 20
60.0
 11
74.40619518
 21
0.0
  0
LINE
  5
238
100
AcDbEntity
  8
0
100
AcDbLine
 62
7
  6
CONTINUOUS
 10
74.40619518
 20
-60.0
 11
74.40619518
 21
0.0
  0
INSERT
  5
239
100
AcDbEntity
  8
0
100
AcDbBlockReference
 62
7
  6
CONTINUOUS
  2
_FILLED
 10
74.40619518
 20
60.0
 41
3.0
 42
3.0
 43
3.0
 50
90.0
  0
INSERT
  5
23A
100
AcDbEntity
  8
0
100
AcDbBlockReference
 62
7
  6
CONTINUOUS
  2
_FILLED
 10
74.40619518
 20
-60.0
 41
3.0
 42
3.0
 43
3.0
 50
270.0
  0
ENDBLK
  5
23B
100
AcDbEntity
  8
0
  6
BYBLOCK
 62
0
100
AcDbBlockEnd
  0
BLOCK
  5
23C
100
AcDbEntity
  8
0
100
AcDbBlockBegin
 62
7
  6
CONTINUOUS
  2
*D2
 70
65
 10
0.0
 20
0.0
  3
*D2
  1

  0
LINE
  5
23D
100
AcDbEntity
  8
0
100
AcDbLine
 62
7
  6
CONTINUOUS
 10
-165.1053511645
 20
55.5
 11
-165.1053511645
 21
83.52665152
  0
LINE
  5
23E
100
AcDbEntity
  8
0
100
AcDbLine
 62
7
  6
CONTINUOUS
 10
-104.5581202582
 20
-20.8890699783
 11
-104.5581202582
 21
83.52665152
  0
LINE
  5
23F
100
AcDbEntity
  8
0
100
AcDbLine
 62
7
  6
CONTINUOUS
 10
-165.1053511645
 20
82.02665152
 11
-134.8317357113
 21
82.02665152
  0
LINE
  5
240
100
AcDbEntity
  8
0
100
AcDbLine
 62
7
  6
CONTINUOUS
 10
-104.5581202582
 20
82.02665152
 11
-134.8317357113
 21
82.02665152
  0
INSERT
  5
241
100
AcDbEntity
  8
0
100
AcDbBlockReference
 62
7
  6
CONTINUOUS
  2
_FILLED
 10
-165.1053511645
 20
82.02665152
 41
3.0
 42
3.0
 43
3.0
 50
180.0
  0
INSERT
  5
242
100
AcDbEntity
  8
0
100
AcDbBlockReference
 62
7
  6
CONTINUOUS
  2
_FILLED
 10
-104.5581202582
 20
82.02665152
 41
3.0
 42
3.0
 43
3.0
  0
ENDBLK
  5
243
100
AcDbEntity
  8
0
  6
BYBLOCK
 62
0
100
AcDbBlockEnd
  0
BLOCK
  5
244
100
AcDbEntity
  8
0
100
AcDbBlockBegin
 62
7
  6
CONTINUOUS
  2
*D3
 70
65
 10
0.0
 20
0.0
  3
*D3
  1

  0
LINE
  5
245
100
AcDbEntity
  8
0
100
AcDbLine
 62
7
  6
CONTINUOUS
 10
-162.1053511645
 20
55.5
 11
-162.1053511645
 21
75.5448284217
  0
LINE
  5
246
100
AcDbEntity
  8
0
100
AcDbLine
 62
7
  6
CONTINUOUS
 10
-104.5581202582
 20
-20.8890699783
 11
-104.5581202582
 21
75.5448284217
  0
LINE
  5
247
100
AcDbEntity
  8
0
100
AcDbLine
 62
7
  6
CONTINUOUS
 10
-162.1053511645
 20
74.0448284217
 11
-133.3317357113
 21
74.0448284217
  0
LINE
  5
248
100
AcDbEntity
  8
0
100
AcDbLine
 62
7
  6
CONTINUOUS
 10
-104.5581202582
 20
74.0448284217
 11
-133.3317357113
 21
74.0448284217
  0
INSERT
  5
249
100
AcDbEntity
  8
0
100
AcDbBlockReference
 62
7
  6
CONTINUOUS
  2
_FILLED
 10
-162.1053511645
 20
74.0448284217
 41
3.0
 42
3.0
 43
3.0
 50
180.0
  0
INSERT
  5
24A
100
AcDbEntity
  8
0
100
AcDbBlockReference
 62
7
  6
CONTINUOUS
  2
_FILLED
 10
-104.5581202582
 20
74.0448284217
 41
3.0
 42
3.0
 43
3.0
  0
ENDBLK
  5
24B
100
AcDbEntity
  8
0
  6
BYBLOCK
 62
0
100
AcDbBlockEnd
  0
ENDSEC
  0
SECTION
  2
ENTITIES
  0
DIMENSION
  5
24C
100
AcDbEntity
  8
0
100
AcDbDimension
 62
7
  6
CONTINUOUS
  2
*D0
 10
60.0
 20
73.883429273
 11
-3.2142857143
 21
73.883429273
 70
160
 71
2
 72
2
 41
0.9
 42
120.0
  3
DIMSTYLE_1
100
AcDbAlignedDimension
 13
-60.0
 23
55.0
 14
60.0
 24
55.0
100
AcDbRotatedDimension
  0
DIMENSION
  5
24D
100
AcDbEntity
  8
0
100
AcDbDimension
 62
7
  6
CONTINUOUS
  2
*D1
 10
74.40619518
 20
-60.0
 11
74.40619518
 21
-3.2142857143
 70
160
 71
2
 72
2
 41
0.9
 42
120.0
  3
DIMSTYLE_1
100
AcDbAlignedDimension
 13
55.0
 23
60.0
 14
55.0
 24
-60.0
 50
270.0
100
AcDbRotatedDimension
  0
DIMENSION
  5
24E
100
AcDbEntity
  8
0
100
AcDbDimension
 62
7
  6
CONTINUOUS
  2
*D2
 10
-104.5581202582
 20
82.02665152
 11
-139.1174499971
 21
82.02665152
 70
160
 71
2
 72
2
 41
0.9
 42
60.5472309063
  3
DIMSTYLE_2
100
AcDbAlignedDimension
 13
-165.1053511645
 23
55.0
 14
-104.5581202582
 24
-21.3890699783
100
AcDbRotatedDimension
  0
DIMENSION
  5
24F
100
AcDbEntity
  8
0
100
AcDbDimension
 62
7
  6
CONTINUOUS
  2
*D3
 10
-104.5581202582
 20
74.0448284217
 11
-137.5103071399
 21
74.0448284217
 70
160
 71
2
 72
2
 41
0.9
 42
57.5472309063
  3
DIMSTYLE_2
100
AcDbAlignedDimension
 13
-162.1053511645
 23
55.0
 14
-104.5581202582
 24
-21.3890699783
100
AcDbRotatedDimension
  0
LINE
  5
250
100
AcDbEntity
  8
0
100
AcDbLine
 62
7
  6
CONTINUOUS
 10
-64.0
 20
58.0
 11
-64.0
 21
42.1224989992
  0
LINE
  5
251
100
AcDbEntity
  8
0
100
AcDbLine
 62
7
  6
CONTINUOUS
 10
-64.0
 20
40.5612494996
 11
-64.0
 21
31.4387505004
  0
LINE
  5
252
100
AcDbEntity
  8
0
100
AcDbLine
 62
7
  6
CONTINUOUS
 10
-64.0
 20
29.8775010008
 11
-64.0
 21
-29.8775010008
  0
LINE
  5
253
100
AcDbEntity
  8
0
100
AcDbLine
 62
7
  6
CONTINUOUS
 10
-64.0
 20
-42.1224989992
 11
-64.0
 21
-40.5612494996
  0
LINE
  5
254
100
AcDbEntity
  8
0
100
AcDbLine
 62
7
  6
CONTINUOUS
 10
-64.0
 20
-31.4387505004
 11
-64.0
 21
-29.8775010008
  0
LINE
  5
255
100
AcDbEntity
  8
0
100
AcDbLine
 62
7
  6
CONTINUOUS
 10
-64.0
 20
-31.4387505004
 11
-64.0
 21
-40.5612494996
  0
LINE
  5
256
100
AcDbEntity
  8
0
100
AcDbLine
 62
7
  6
CONTINUOUS
 10
-64.0
 20
-42.1224989992
 11
-64.0
 21
-58.0
  0
LINE
  5
257
100
AcDbEntity
  8
0
100
AcDbLine
 62
7
  6
CONTINUOUS
 10
-64.0
 20
29.8775010008
 11
-64.0
 21
31.4387505004
  0
LINE
  5
258
100
AcDbEntity
  8
0
100
AcDbLine
 62
7
  6
CONTINUOUS
 10
-64.0
 20
40.5612494996
 11
-64.0
 21
42.1224989992
  0
LINE
  5
259
100
AcDbEntity
  8
0
100
AcDbLine
 62
7
  6
CONTINUOUS
 10
-62.2
 20
-37.5
 11
-62.2
 21
-34.5
  0
LINE
  5
25A
100
AcDbEntity
  8
0
100
AcDbLine
 62
7
  6
CONTINUOUS
 10
-62.2
 20
34.5
 11
-62.2
 21
37.5
  0
LINE
  5
25B
100
AcDbEntity
  8
0
100
AcDbLine
 62
250
  6
CONTINUOUS
 10
-61.1225106314
 20
42.1224776862
 11
-61.1224989992
 21
48.0
  0
LINE
  5
25C
100
AcDbEntity
  8
IMPORT_IGES
100
AcDbLine
 62
7
  6
CONTINUOUS
 10
-60.0
 20
-55.0
 11
-60.0
 21
55.0
  0
LINE
  5
25D
100
AcDbEntity
  8
0
100
AcDbLine
 62
250
  6
CONTINUOUS
 10
-61.1226313151
 20
42.1224776871
 11
-61.1228232568
 21
40.5613403227
  0
LINE
  5
25E
100
AcDbEntity
  8
0
100
AcDbLine
 62
250
  6
CONTINUOUS
 10
-61.1225106314
 20
-29.8775223138
 11
-61.1223539175
 21
31.438771097
  0
LINE
  5
25F
100
AcDbEntity
  8
0
100
AcDbLine
 62
250
  6
CONTINUOUS
 10
-61.1224989992
 20
-48.0
 11
-61.1223539175
 21
-40.561228903
  0
LINE
  5
260
100
AcDbEntity
  8
0
100
AcDbLine
 62
250
  6
CONTINUOUS
 10
-61.1226313151
 20
-29.8775223129
 11
-61.1228232568
 21
-31.4386596773
  0
LINE
  5
261
100
AcDbEntity
  8
0
100
AcDbLine
 62
7
  6
CONTINUOUS
 10
-58.0
 20
-64.0
 11
-42.1224989992
 21
-64.0
  0
LINE
  5
262
100
AcDbEntity
  8
0
100
AcDbLine
 62
7
  6
CONTINUOUS
 10
42.1224989992
 20
-64.0
 11
40.5612494996
 21
-64.0
  0
LINE
  5
263
100
AcDbEntity
  8
0
100
AcDbLine
 62
7
  6
CONTINUOUS
 10
-40.5612494996
 20
-64.0
 11
-31.4387505004
 21
-64.0
  0
LINE
  5
264
100
AcDbEntity
  8
0
100
AcDbLine
 62
7
  6
CONTINUOUS
 10
31.4387505004
 20
-64.0
 11
29.8775010008
 21
-64.0
  0
LINE
  5
265
100
AcDbEntity
  8
0
100
AcDbLine
 62
7
  6
CONTINUOUS
 10
-29.8775010008
 20
-64.0
 11
29.8775010008
 21
-64.0
  0
LINE
  5
266
100
AcDbEntity
  8
0
100
AcDbLine
 62
7
  6
CONTINUOUS
 10
-29.8775010008
 20
-64.0
 11
-31.4387505004
 21
-64.0
  0
LINE
  5
267
100
AcDbEntity
  8
0
100
AcDbLine
 62
7
  6
CONTINUOUS
 10
31.4387505004
 20
-64.0
 11
40.5612494996
 21
-64.0
  0
LINE
  5
268
100
AcDbEntity
  8
0
100
AcDbLine
 62
7
  6
CONTINUOUS
 10
-40.5612494996
 20
-64.0
 11
-42.1224989992
 21
-64.0
  0
LINE
  5
269
100
AcDbEntity
  8
0
100
AcDbLine
 62
7
  6
CONTINUOUS
 10
42.1224989992
 20
-64.0
 11
58.0
 21
-64.0
  0
LINE
  5
26A
100
AcDbEntity
  8
0
100
AcDbLine
 62
7
  6
CONTINUOUS
 10
37.5
 20
-62.2
 11
34.5
 21
-62.2
  0
LINE
  5
26B
100
AcDbEntity
  8
0
100
AcDbLine
 62
7
  6
CONTINUOUS
 10
-34.5
 20
-62.2
 11
-37.5
 21
-62.2
  0
LINE
  5
26C
100
AcDbEntity
  8
0
100
AcDbLine
 62
250
  6
CONTINUOUS
 10
-42.1224776862
 20
-61.1225106314
 11
-48.0
 21
-61.1224989992
  0
LINE
  5
26D
100
AcDbEntity
  8
IMPORT_IGES
100
AcDbLine
 62
7
  6
CONTINUOUS
 10
55.0
 20
-60.0
 11
-55.0
 21
-60.0
  0
LINE
  5
26E
100
AcDbEntity
  8
0
100
AcDbLine
 62
250
  6
CONTINUOUS
 10
-42.1224776871
 20
-61.1226313151
 11
-40.5613403227
 21
-61.1228232568
  0
LINE
  5
26F
100
AcDbEntity
  8
0
100
AcDbLine
 62
250
  6
CONTINUOUS
 10
29.8775223138
 20
-61.1225106314
 11
-31.438771097
 21
-61.1223539175
  0
LINE
  5
270
100
AcDbEntity
  8
0
100
AcDbLine
 62
250
  6
CONTINUOUS
 10
48.0
 20
-61.1224989992
 11
40.561228903
 21
-61.1223539175
  0
LINE
  5
271
100
AcDbEntity
  8
0
100
AcDbLine
 62
250
  6
CONTINUOUS
 10
29.8775223129
 20
-61.1226313151
 11
31.4386596773
 21
-61.1228232568
  0
LINE
  5
272
100
AcDbEntity
  8
IMPORT_IGES
100
AcDbLine
 62
250
  6
CONTINUOUS
 10
-59.0
 20
55.0
 11
-59.0
 21
-55.0
  0
LINE
  5
273
100
AcDbEntity
  8
IMPORT_IGES
100
AcDbLine
 62
250
  6
CONTINUOUS
 10
-55.0
 20
60.0
 11
-55.0
 21
59.0
  0
LINE
  5
274
100
AcDbEntity
  8
IMPORT_IGES
100
AcDbLine
 62
250
  6
CONTINUOUS
 10
-55.0
 20
-59.0
 11
-55.0
 21
-60.0
  0
LWPOLYLINE
  5
275
100
AcDbEntity
  8
0
100
AcDbPolyline
 62
250
  6
CONTINUOUS
 90
3
 70
0
 10
-31.4387400281
 20
61.1227654309
 10
-31.5113761224
 20
60.976715411
 10
-31.5889533222
 20
60.8216605485
  0
LINE
  5
276
100
AcDbEntity
  8
0
100
AcDbLine
 62
250
  6
CONTINUOUS
 10
-31.4387400281
 20
61.1227654309
 11
-31.9999149631
 21
60.0001853445
  0
LWPOLYLINE
  5
277
100
AcDbEntity
  8
0
100
AcDbPolyline
 62
7
  6
CONTINUOUS
 90
3
 70
0
 43
0.3500000006
 10
-3.2142856836
 20
76.7762897644
 10
-2.3571427875
 20
77.6334277039
 10
-2.3571427875
 20
74.6334267883
  0
LINE
  5
278
100
AcDbEntity
  8
0
100
AcDbLine
 62
250
  6
CONTINUOUS
 10
-60.000079806
 20
31.9999804327
 11
-61.1223017014
 21
31.4387710978
  0
LINE
  5
279
100
AcDbEntity
  8
IMPORT_IGES
100
AcDbLine
 62
250
  6
CONTINUOUS
 10
-55.0
 20
-59.0
 11
-15.0
 21
-59.0
  0
LINE
  5
27A
100
AcDbEntity
  8
IMPORT_IGES
100
AcDbLine
 62
250
  6
CONTINUOUS
 10
-14.8
 20
-59.0
 11
14.8
 21
-59.0
  0
LINE
  5
27B
100
AcDbEntity
  8
IMPORT_IGES
100
AcDbLine
 62
250
  6
CONTINUOUS
 10
15.0
 20
-59.0
 11
55.0
 21
-59.0
  0
LINE
  5
27C
100
AcDbEntity
  8
IMPORT_IGES
100
AcDbLine
 62
250
  6
CONTINUOUS
 10
-60.0
 20
-55.0
 11
-59.0
 21
-55.0
  0
LINE
  5
27D
100
AcDbEntity
  8
IMPORT_IGES
100
AcDbLine
 62
250
  6
CONTINUOUS
 10
59.0
 20
-55.0
 11
60.0
 21
-55.0
  0
LWPOLYLINE
  5
27E
100
AcDbEntity
  8
0
100
AcDbPolyline
 62
250
  6
CONTINUOUS
 90
3
 70
0
 10
-61.1227756992
 20
-31.4387373588
 10
-60.9764558051
 20
-31.5114934622
 10
-60.8212026167
 20
-31.5891692776
  0
LINE
  5
27F
100
AcDbEntity
  8
0
100
AcDbLine
 62
250
  6
CONTINUOUS
 10
-61.1227756992
 20
-31.4387373588
 11
-60.0001859429
 21
-31.9999136546
  0
LINE
  5
280
100
AcDbEntity
  8
0
100
AcDbLine
 62
250
  6
CONTINUOUS
 10
-31.9999804331
 20
-60.0000798063
 11
-31.4387710978
 21
-61.1223017307
  0
LINE
  5
281
100
AcDbEntity
  8
IMPORT_IGES
100
AcDbLine
 62
7
  6
CONTINUOUS
 10
-48.1
 20
-31.8
 11
-48.1
 21
23.2
  0
LINE
  5
282
100
AcDbEntity
  8
0
100
AcDbLine
 62
250
  6
CONTINUOUS
 10
-48.0
 20
61.1224989992
 11
-48.0
 21
60.0
  0
LINE
  5
283
100
AcDbEntity
  8
0
100
AcDbLine
 62
250
  6
CONTINUOUS
 10
-48.0
 20
-61.1224989992
 11
-48.0
 21
-60.0
  0
LINE
  5
284
100
AcDbEntity
  8
IMPORT_IGES
100
AcDbLine
 62
7
  6
CONTINUOUS
 10
-47.9000000002
 20
23.1999999998
 11
-47.9000000002
 21
-31.8000000002
  0
LINE
  5
285
100
AcDbEntity
  8
IMPORT_IGES
100
AcDbLine
 62
7
  6
CONTINUOUS
 10
14.8
 20
-52.7294864354
 11
3.25
 21
-52.7294864354
  0
LINE
  5
286
100
AcDbEntity
  8
IMPORT_IGES
100
AcDbLine
 62
7
  6
CONTINUOUS
 10
-3.25
 20
-52.7294864354
 11
-14.8
 21
-52.7294864354
  0
LINE
  5
287
100
AcDbEntity
  8
IMPORT_IGES
100
AcDbLine
 62
7
  6
CONTINUOUS
 10
-14.8
 20
-51.2294864354
 11
-2.7293364418
 21
-51.2294864354
  0
LINE
  5
288
100
AcDbEntity
  8
IMPORT_IGES
100
AcDbLine
 62
7
  6
CONTINUOUS
 10
2.7293364418
 20
-51.2294864354
 11
14.8
 21
-51.2294864354
  0
LINE
  5
289
100
AcDbEntity
  8
IMPORT_IGES
100
AcDbLine
 62
7
  6
CONTINUOUS
 10
14.8
 20
-48.7294864354
 11
3.25
 21
-48.7294864354
  0
LINE
  5
28A
100
AcDbEntity
  8
IMPORT_IGES
100
AcDbLine
 62
7
  6
CONTINUOUS
 10
-3.25
 20
-48.7294864354
 11
-14.8
 21
-48.7294864354
  0
LINE
  5
28B
100
AcDbEntity
  8
0
100
AcDbLine
 62
250
  6
CONTINUOUS
 10
-61.1224989992
 20
-48.0
 11
-60.0
 21
-48.0
  0
LINE
  5
28C
100
AcDbEntity
  8
0
100
AcDbLine
 62
250
  6
CONTINUOUS
 10
61.1224989992
 20
-48.0
 11
60.0
 21
-48.0
  0
LINE
  5
28D
100
AcDbEntity
  8
IMPORT_IGES
100
AcDbLine
 62
250
  6
CONTINUOUS
 10
-43.1
 20
30.1169048105
 11
-43.1
 21
28.2
  0
LINE
  5
28E
100
AcDbEntity
  8
0
100
AcDbLine
 62
250
  6
CONTINUOUS
 10
-42.1224989992
 20
64.0
 11
-42.1225247354
 21
60.0
  0
LINE
  5
28F
100
AcDbEntity
  8
0
100
AcDbLine
 62
250
  6
CONTINUOUS
 10
-42.1224989992
 20
-64.0
 11
-42.1224493584
 21
-60.0
  0
LINE
  5
290
100
AcDbEntity
  8
IMPORT_IGES
100
AcDbLine
 62
7
  6
CONTINUOUS
 10
-14.8
 20
-47.2294864354
 11
-2.7293364418
 21
-47.2294864354
  0
LINE
  5
291
100
AcDbEntity
  8
IMPORT_IGES
100
AcDbLine
 62
7
  6
CONTINUOUS
 10
2.7293364418
 20
-47.2294864354
 11
14.8
 21
-47.2294864354
  0
LINE
  5
292
100
AcDbEntity
  8
IMPORT_IGES
100
AcDbLine
 62
7
  6
CONTINUOUS
 10
14.8
 20
-44.7294864354
 11
3.25
 21
-44.7294864354
  0
LINE
  5
293
100
AcDbEntity
  8
IMPORT_IGES
100
AcDbLine
 62
7
  6
CONTINUOUS
 10
-3.25
 20
-44.7294864354
 11
-14.8
 21
-44.7294864354
  0
LINE
  5
294
100
AcDbEntity
  8
IMPORT_IGES
100
AcDbLine
 62
7
  6
CONTINUOUS
 10
-14.8
 20
-43.2294864354
 11
-2.7293364418
 21
-43.2294864354
  0
LINE
  5
295
100
AcDbEntity
  8
IMPORT_IGES
100
AcDbLine
 62
7
  6
CONTINUOUS
 10
2.7293364418
 20
-43.2294864354
 11
14.8
 21
-43.2294864354
  0
LINE
  5
296
100
AcDbEntity
  8
0
100
AcDbLine
 62
250
  6
CONTINUOUS
 10
-64.0
 20
-42.1224989992
 11
-60.0
 21
-42.1225182465
  0
LINE
  5
297
100
AcDbEntity
  8
0
100
AcDbLine
 62
250
  6
CONTINUOUS
 10
64.0
 20
-42.1224989992
 11
60.0
 21
-42.1224394146
  0
LINE
  5
298
100
AcDbEntity
  8
IMPORT_IGES
100
AcDbLine
 62
7
  6
CONTINUOUS
 10
-3.25
 20
-52.7294864354
 11
0.0
 21
-55.2947729214
  0
LINE
  5
299
100
AcDbEntity
  8
IMPORT_IGES
100
AcDbLine
 62
7
  6
CONTINUOUS
 10
0.0
 20
-53.3838033246
 11
-2.7293364418
 21
-51.2294864354
  0
LINE
  5
29A
100
AcDbEntity
  8
0
100
AcDbLine
 62
250
  6
CONTINUOUS
 10
-40.5612494996
 20
-64.0
 11
-40.5612626412
 21
-61.1227764376
  0
LINE
  5
29B
100
AcDbEntity
  8
0
100
AcDbLine
 62
250
  6
CONTINUOUS
 10
-40.5612288822
 20
61.1223143464
 11
-40.5612494996
 21
64.0
  0
LINE
  5
29C
100
AcDbEntity
  8
0
100
AcDbLine
 62
250
  6
CONTINUOUS
 10
-39.0
 20
-60.0
 11
-39.0
 21
-64.0
  0
LINE
  5
29D
100
AcDbEntity
  8
0
100
AcDbLine
 62
250
  6
CONTINUOUS
 10
-39.0
 20
60.0
 11
-39.0
 21
64.0
  0
LINE
  5
29E
100
AcDbEntity
  8
0
100
AcDbLine
 62
7
  6
CONTINUOUS
 10
-38.5
 20
-61.2
 11
-38.5
 21
-60.0
  0
LINE
  5
29F
100
AcDbEntity
  8
0
100
AcDbLine
 62
7
  6
CONTINUOUS
 10
-38.5
 20
60.0
 11
-38.5
 21
61.2
  0
LINE
  5
2A0
100
AcDbEntity
  8
0
100
AcDbLine
 62
250
  6
CONTINUOUS
 10
64.0
 20
-40.5612494996
 11
61.1227659521
 21
-40.5612599719
  0
LINE
  5
2A1
100
AcDbEntity
  8
0
100
AcDbLine
 62
250
  6
CONTINUOUS
 10
-61.1223017014
 20
-40.5612289022
 11
-64.0
 21
-40.5612494996
  0
LINE
  5
2A2
100
AcDbEntity
  8
0
100
AcDbLine
 62
250
  6
CONTINUOUS
 10
60.0
 20
-39.0
 11
64.0
 21
-39.0
  0
LINE
  5
2A3
100
AcDbEntity
  8
0
100
AcDbLine
 62
250
  6
CONTINUOUS
 10
-60.0
 20
-39.0
 11
-64.0
 21
-39.0
  0
LINE
  5
2A4
100
AcDbEntity
  8
IMPORT_IGES
100
AcDbLine
 62
7
  6
CONTINUOUS
 10
12.0
 20
-38.9
 11
-12.0
 21
-38.9
  0
LINE
  5
2A5
100
AcDbEntity
  8
IMPORT_IGES
100
AcDbLine
 62
7
  6
CONTINUOUS
 10
-12.0
 20
-38.8
 11
12.0
 21
-38.8
  0
LINE
  5
2A6
100
AcDbEntity
  8
0
100
AcDbLine
 62
7
  6
CONTINUOUS
 10
61.2
 20
-38.5
 11
60.0
 21
-38.5
  0
LINE
  5
2A7
100
AcDbEntity
  8
0
100
AcDbLine
 62
7
  6
CONTINUOUS
 10
-60.0
 20
-38.5
 11
-61.2
 21
-38.5
  0
LINE
  5
2A8
100
AcDbEntity
  8
IMPORT_IGES
100
AcDbLine
 62
7
  6
CONTINUOUS
 10
43.1
 20
-36.8
 11
-43.1
 21
-36.8
  0
LINE
  5
2A9
100
AcDbEntity
  8
IMPORT_IGES
100
AcDbLine
 62
7
  6
CONTINUOUS
 10
-43.1000000002
 20
-36.6000000002
 11
43.0999999998
 21
-36.6000000002
  0
LINE
  5
2AA
100
AcDbEntity
  8
IMPORT_IGES
100
AcDbLine
 62
7
  6
CONTINUOUS
 10
-3.25
 20
-48.7294864354
 11
0.0
 21
-51.2947729214
  0
LINE
  5
2AB
100
AcDbEntity
  8
IMPORT_IGES
100
AcDbLine
 62
7
  6
CONTINUOUS
 10
0.0
 20
-49.3838033246
 11
-2.7293364418
 21
-47.2294864354
  0
LINE
  5
2AC
100
AcDbEntity
  8
IMPORT_IGES
100
AcDbLine
 62
7
  6
CONTINUOUS
 10
-3.25
 20
-44.7294864354
 11
0.0
 21
-47.2947729214
  0
LINE
  5
2AD
100
AcDbEntity
  8
IMPORT_IGES
100
AcDbLine
 62
7
  6
CONTINUOUS
 10
0.0
 20
-45.3838033246
 11
-2.7293364418
 21
-43.2294864354
  0
LINE
  5
2AE
100
AcDbEntity
  8
0
100
AcDbLine
 62
7
  6
CONTINUOUS
 10
-33.5
 20
61.2
 11
-33.5
 21
60.0
  0
LINE
  5
2AF
100
AcDbEntity
  8
0
100
AcDbLine
 62
7
  6
CONTINUOUS
 10
-33.5
 20
-60.0
 11
-33.5
 21
-61.2
  0
LINE
  5
2B0
100
AcDbEntity
  8
0
100
AcDbLine
 62
250
  6
CONTINUOUS
 10
-33.0
 20
-60.0
 11
-33.0
 21
-64.0
  0
LINE
  5
2B1
100
AcDbEntity
  8
0
100
AcDbLine
 62
250
  6
CONTINUOUS
 10
-33.0
 20
60.0
 11
-33.0
 21
64.0
  0
LINE
  5
2B2
100
AcDbEntity
  8
0
100
AcDbLine
 62
250
  6
CONTINUOUS
 10
-31.4387710978
 20
-61.1223017307
 11
-31.4387505004
 21
-64.0
  0
LINE
  5
2B3
100
AcDbEntity
  8
0
100
AcDbLine
 62
250
  6
CONTINUOUS
 10
-31.4387505004
 20
64.0
 11
-31.4387400281
 21
61.1227654309
  0
LINE
  5
2B4
100
AcDbEntity
  8
0
100
AcDbLine
 62
250
  6
CONTINUOUS
 10
-29.8774817535
 20
-60.0
 11
-29.8775010008
 21
-64.0
  0
LINE
  5
2B5
100
AcDbEntity
  8
0
100
AcDbLine
 62
250
  6
CONTINUOUS
 10
-29.8775010008
 20
64.0
 11
-29.8775605854
 21
60.0
  0
LINE
  5
2B6
100
AcDbEntity
  8
0
100
AcDbLine
 62
7
  6
CONTINUOUS
 10
-61.2
 20
-33.5
 11
-60.0
 21
-33.5
  0
LINE
  5
2B7
100
AcDbEntity
  8
0
100
AcDbLine
 62
7
  6
CONTINUOUS
 10
60.0
 20
-33.5
 11
61.2
 21
-33.5
  0
LINE
  5
2B8
100
AcDbEntity
  8
0
100
AcDbLine
 62
250
  6
CONTINUOUS
 10
60.0
 20
-33.0
 11
64.0
 21
-33.0
  0
LINE
  5
2B9
100
AcDbEntity
  8
0
100
AcDbLine
 62
250
  6
CONTINUOUS
 10
-60.0
 20
-33.0
 11
-64.0
 21
-33.0
  0
LINE
  5
2BA
100
AcDbEntity
  8
0
100
AcDbLine
 62
250
  6
CONTINUOUS
 10
61.1223144469
 20
-31.4387711178
 11
64.0
 21
-31.4387505004
  0
LINE
  5
2BB
100
AcDbEntity
  8
0
100
AcDbLine
 62
250
  6
CONTINUOUS
 10
-64.0
 20
-31.4387505004
 11
-61.1227756992
 21
-31.4387373588
  0
LINE
  5
2BC
100
AcDbEntity
  8
0
100
AcDbLine
 62
250
  6
CONTINUOUS
 10
60.0
 20
-29.8774752646
 11
64.0
 21
-29.8775010008
  0
LINE
  5
2BD
100
AcDbEntity
  8
0
100
AcDbLine
 62
250
  6
CONTINUOUS
 10
-64.0
 20
-29.8775010008
 11
-60.0
 21
-29.8775506416
  0
LINE
  5
2BE
100
AcDbEntity
  8
IMPORT_IGES
100
AcDbLine
 62
7
  6
CONTINUOUS
 10
-15.0
 20
-60.0
 11
-15.0
 21
-41.8
  0
LINE
  5
2BF
100
AcDbEntity
  8
IMPORT_IGES
100
AcDbLine
 62
7
  6
CONTINUOUS
 10
-14.8
 20
-41.7
 11
-14.8
 21
-60.0
  0
LINE
  5
2C0
100
AcDbEntity
  8
SCRITTE
100
AcDbLine
 62
250
  6
CONTINUOUS
 10
-6.9851790002
 20
-5.0209890002
 11
-6.1013020002
 21
-1.9238770002
  0
LWPOLYLINE
  5
2C1
100
AcDbEntity
  8
0
100
AcDbPolyline
 62
250
  6
CONTINUOUS
 90
3
 70
0
 10
-40.5612626412
 20
-61.1227764376
 10
-40.4885065946
 20
-60.9764563393
 10
-40.4108308254
 20
-60.8212029948
  0
LINE
  5
2C2
100
AcDbEntity
  8
0
100
AcDbLine
 62
250
  6
CONTINUOUS
 10
-40.5612626412
 20
-61.1227764376
 11
-40.0000863353
 21
-60.0001859509
  0
LINE
  5
2C3
100
AcDbEntity
  8
0
100
AcDbLine
 62
250
  6
CONTINUOUS
 10
60.0000823276
 20
40.0000238751
 11
61.1223144469
 21
40.5612288822
  0
LINE
  5
2C4
100
AcDbEntity
  8
SCRITTE
100
AcDbLine
 62
250
  6
CONTINUOUS
 10
-4.8141880002
 20
-6.4233290002
 11
-3.8749760002
 21
-6.4233290002
  0
LINE
  5
2C5
100
AcDbEntity
  8
SCRITTE
100
AcDbLine
 62
250
  6
CONTINUOUS
 10
5.0417669998
 20
-6.4233290002
 11
4.0518759998
 21
-6.4233290002
  0
LINE
  5
2C6
100
AcDbEntity
  8
SCRITTE
100
AcDbLine
 62
250
  6
CONTINUOUS
 10
2.2703569998
 20
-6.4233290002
 11
1.3413339998
 21
-6.4233290002
  0
LINE
  5
2C7
100
AcDbEntity
  8
SCRITTE
100
AcDbLine
 62
250
  6
CONTINUOUS
 10
1.1938529998
 20
-6.4233290002
 11
0.2750539998
 21
-6.4233290002
  0
LINE
  5
2C8
100
AcDbEntity
  8
SCRITTE
100
AcDbLine
 62
250
  6
CONTINUOUS
 10
-1.0346330002
 20
-6.4233290002
 11
-1.1663570002
 21
-6.4233290002
  0
LINE
  5
2C9
100
AcDbEntity
  8
SCRITTE
100
AcDbLine
 62
250
  6
CONTINUOUS
 10
-2.4708480002
 20
-6.4233290002
 11
-3.3693690002
 21
-6.4233290002
  0
LINE
  5
2CA
100
AcDbEntity
  8
SCRITTE
100
AcDbLine
 62
250
  6
CONTINUOUS
 10
-6.6090360002
 20
-6.4233290002
 11
-7.4367170002
 21
-6.4233290002
  0
LINE
  5
2CB
100
AcDbEntity
  8
SCRITTE
100
AcDbLine
 62
250
  6
CONTINUOUS
 10
5.317565265
 20
-6.4233285011
 11
6.2529981649
 21
-6.4233285011
  0
LINE
  5
2CC
100
AcDbEntity
  8
SCRITTE
100
AcDbLine
 62
250
  6
CONTINUOUS
 10
7.6912717987
 20
-6.4233285011
 11
8.594684578
 21
-6.4233285011
  0
LINE
  5
2CD
100
AcDbEntity
  8
SCRITTE
100
AcDbLine
 62
250
  6
CONTINUOUS
 10
-4.5641880002
 20
-6.1733290002
 11
-4.1249760002
 21
-6.1733290002
  0
LINE
  5
2CE
100
AcDbEntity
  8
SCRITTE
100
AcDbLine
 62
250
  6
CONTINUOUS
 10
4.7035577906
 20
-6.1733290002
 11
4.2431683687
 21
-6.1733290002
  0
LINE
  5
2CF
100
AcDbEntity
  8
SCRITTE
100
AcDbLine
 62
250
  6
CONTINUOUS
 10
2.0822894277
 20
-6.1733290002
 11
1.6817595931
 21
-6.1733290002
  0
LINE
  5
2D0
100
AcDbEntity
  8
SCRITTE
100
AcDbLine
 62
250
  6
CONTINUOUS
 10
0.9193845453
 20
-6.1733290002
 11
0.50910904
 21
-6.1733290002
  0
LINE
  5
2D1
100
AcDbEntity
  8
SCRITTE
100
AcDbLine
 62
250
  6
CONTINUOUS
 10
-2.7041959787
 20
-6.1733290002
 11
-3.0957783535
 21
-6.1733290002
  0
LINE
  5
2D2
100
AcDbEntity
  8
SCRITTE
100
AcDbLine
 62
250
  6
CONTINUOUS
 10
-6.7912740325
 20
-6.1733290002
 11
-7.2537099152
 21
-6.1733290002
  0
LINE
  5
2D3
100
AcDbEntity
  8
SCRITTE
100
AcDbLine
 62
250
  6
CONTINUOUS
 10
5.567565265
 20
-6.1733285011
 11
6.0029981649
 21
-6.1733285011
  0
LINE
  5
2D4
100
AcDbEntity
  8
SCRITTE
100
AcDbLine
 62
250
  6
CONTINUOUS
 10
7.8792435592
 20
-6.1733285011
 11
8.2699557642
 21
-6.1733285011
  0
LINE
  5
2D5
100
AcDbEntity
  8
SCRITTE
100
AcDbLine
 62
250
  6
CONTINUOUS
 10
3.8085709998
 20
-5.5250780002
 11
2.5295199998
 21
-5.5250780002
  0
LINE
  5
2D6
100
AcDbEntity
  8
SCRITTE
100
AcDbLine
 62
250
  6
CONTINUOUS
 10
3.9998633687
 20
-5.2750780002
 11
2.3414524277
 21
-5.2750780002
  0
LWPOLYLINE
  5
2D7
100
AcDbEntity
  8
0
100
AcDbPolyline
 62
250
  6
CONTINUOUS
 90
3
 70
0
 10
61.1227659521
 20
-40.5612599719
 10
60.9767157882
 20
-40.4886239177
 10
60.8216608156
 20
-40.4110467506
  0
LINE
  5
2D8
100
AcDbEntity
  8
0
100
AcDbLine
 62
250
  6
CONTINUOUS
 10
61.1227659521
 20
-40.5612599719
 11
60.0001853502
 21
-40.0000850297
  0
LINE
  5
2D9
100
AcDbEntity
  8
0
100
AcDbLine
 62
250
  6
CONTINUOUS
 10
-40.0000238764
 20
60.0000823265
 11
-40.5612288822
 21
61.1223143464
  0
LINE
  5
2DA
100
AcDbEntity
  8
SCRITTE
100
AcDbLine
 62
250
  6
CONTINUOUS
 10
-7.4367170002
 20
-6.4233290002
 11
-8.8631310002
 21
-1.9238770002
  0
LINE
  5
2DB
100
AcDbEntity
  8
SCRITTE
100
AcDbLine
 62
250
  6
CONTINUOUS
 10
-7.2537099152
 20
-6.1733290002
 11
-8.5216141677
 21
-2.1738770002
  0
LINE
  5
2DC
100
AcDbEntity
  8
SCRITTE
100
AcDbLine
 62
250
  6
CONTINUOUS
 10
-8.0330330802
 20
-2.1738770002
 11
-6.9887996582
 21
-5.9446530176
  0
LINE
  5
2DD
100
AcDbEntity
  8
SCRITTE
100
AcDbLine
 62
250
  6
CONTINUOUS
 10
-7.8428560002
 20
-1.9238770002
 11
-6.9851790002
 21
-5.0209890002
  0
LINE
  5
2DE
100
AcDbEntity
  8
SCRITTE
100
AcDbLine
 62
250
  6
CONTINUOUS
 10
0.545391128
 20
-2.1738770002
 11
0.9193845453
 21
-6.1733290002
  0
LINE
  5
2DF
100
AcDbEntity
  8
SCRITTE
100
AcDbLine
 62
250
  6
CONTINUOUS
 10
0.7731039998
 20
-1.9238770002
 11
1.1938529998
 21
-6.4233290002
  0
LINE
  5
2E0
100
AcDbEntity
  8
SCRITTE
100
AcDbLine
 62
250
  6
CONTINUOUS
 10
0.2750539998
 20
-6.4233290002
 11
0.0820899998
 21
-3.4975190002
  0
LINE
  5
2E1
100
AcDbEntity
  8
SCRITTE
100
AcDbLine
 62
250
  6
CONTINUOUS
 10
0.50910904
 20
-6.1733290002
 11
0.2618239272
 21
-2.4238770002
  0
LINE
  5
2E2
100
AcDbEntity
  8
SCRITTE
100
AcDbLine
 62
250
  6
CONTINUOUS
 10
-4.8141880002
 20
-1.9236070002
 11
-4.8141880002
 21
-6.4233290002
  0
LINE
  5
2E3
100
AcDbEntity
  8
SCRITTE
100
AcDbLine
 62
250
  6
CONTINUOUS
 10
-4.5641880002
 20
-2.1736070002
 11
-4.5641880002
 21
-6.1733290002
  0
LINE
  5
2E4
100
AcDbEntity
  8
SCRITTE
100
AcDbLine
 62
250
  6
CONTINUOUS
 10
-4.1249760002
 20
-6.1733290002
 11
-4.1249760002
 21
-2.1736070002
  0
LINE
  5
2E5
100
AcDbEntity
  8
SCRITTE
100
AcDbLine
 62
250
  6
CONTINUOUS
 10
-3.8749760002
 20
-6.4233290002
 11
-3.8749760002
 21
-1.9236070002
  0
LINE
  5
2E6
100
AcDbEntity
  8
SCRITTE
100
AcDbLine
 62
250
  6
CONTINUOUS
 10
-2.4455411328
 20
-2.4238770002
 11
-2.7041959787
 21
-6.1733290002
  0
LINE
  5
2E7
100
AcDbEntity
  8
SCRITTE
100
AcDbLine
 62
250
  6
CONTINUOUS
 10
-2.2681670002
 20
-3.4852720002
 11
-2.4708480002
 21
-6.4233290002
  0
LINE
  5
2E8
100
AcDbEntity
  8
SCRITTE
100
AcDbLine
 62
250
  6
CONTINUOUS
 10
-3.3693690002
 20
-6.4233290002
 11
-2.9630940002
 21
-1.9238770002
  0
LINE
  5
2E9
100
AcDbEntity
  8
SCRITTE
100
AcDbLine
 62
250
  6
CONTINUOUS
 10
-3.0957783535
 20
-6.1733290002
 11
-2.7346505181
 21
-2.1738770002
  0
LINE
  5
2EA
100
AcDbEntity
  8
SCRITTE
100
AcDbLine
 62
250
  6
CONTINUOUS
 10
-6.9887996582
 20
-5.9446530176
 11
-5.9126673795
 21
-2.1738770002
  0
LINE
  5
2EB
100
AcDbEntity
  8
SCRITTE
100
AcDbLine
 62
250
  6
CONTINUOUS
 10
-5.5056900491
 20
-2.1738770002
 11
-6.7912740325
 21
-6.1733290002
  0
LINE
  5
2EC
100
AcDbEntity
  8
SCRITTE
100
AcDbLine
 62
250
  6
CONTINUOUS
 10
-5.1627320002
 20
-1.9238770002
 11
-6.6090360002
 21
-6.4233290002
  0
LINE
  5
2ED
100
AcDbEntity
  8
SCRITTE
100
AcDbLine
 62
250
  6
CONTINUOUS
 10
-1.0953660002
 20
-4.4219870002
 11
-0.1561550002
 21
-1.9238770002
  0
LINE
  5
2EE
100
AcDbEntity
  8
SCRITTE
100
AcDbLine
 62
250
  6
CONTINUOUS
 10
-1.0966089239
 20
-5.1356852753
 11
0.0169380824
 21
-2.1738770002
  0
LINE
  5
2EF
100
AcDbEntity
  8
SCRITTE
100
AcDbLine
 62
7
  6
CONTINUOUS
 10
-8.8197473574
 20
-2.0607255017
 11
-8.6828988558
 21
-1.9238770002
  0
LINE
  5
2F0
100
AcDbEntity
  8
SCRITTE
100
AcDbLine
 62
7
  6
CONTINUOUS
 10
-8.7186440848
 20
-2.3796436572
 11
-8.5195111489
 21
-2.1805107213
  0
LINE
  5
2F1
100
AcDbEntity
  8
SCRITTE
100
AcDbLine
 62
7
  6
CONTINUOUS
 10
-8.5128774278
 20
-2.1738770002
 11
-8.2628774278
 21
-1.9238770002
  0
LINE
  5
2F2
100
AcDbEntity
  8
SCRITTE
100
AcDbLine
 62
7
  6
CONTINUOUS
 10
-8.6175408123
 20
-2.6985618127
 11
-8.4184078763
 21
-2.4994288767
  0
LINE
  5
2F3
100
AcDbEntity
  8
SCRITTE
100
AcDbLine
 62
7
  6
CONTINUOUS
 10
-8.0928559998
 20
-2.1738770002
 11
-7.8428560001
 21
-1.9238770005
  0
LINE
  5
2F4
100
AcDbEntity
  8
SCRITTE
100
AcDbLine
 62
7
  6
CONTINUOUS
 10
-8.5164375398
 20
-3.0174799682
 11
-8.3173046038
 21
-2.8183470322
  0
LINE
  5
2F5
100
AcDbEntity
  8
SCRITTE
100
AcDbLine
 62
7
  6
CONTINUOUS
 10
-7.9549166558
 20
-2.4559590842
 11
-7.7517657502
 21
-2.2528081787
  0
LINE
  5
2F6
100
AcDbEntity
  8
SCRITTE
100
AcDbLine
 62
7
  6
CONTINUOUS
 10
-8.4153342672
 20
-3.3363981237
 11
-8.2162013312
 21
-3.1372651877
  0
LINE
  5
2F7
100
AcDbEntity
  8
SCRITTE
100
AcDbLine
 62
7
  6
CONTINUOUS
 10
-7.8638264059
 20
-2.7848902623
 11
-7.6606755003
 21
-2.5817393568
  0
LINE
  5
2F8
100
AcDbEntity
  8
SCRITTE
100
AcDbLine
 62
7
  6
CONTINUOUS
 10
-8.3142309947
 20
-3.6553162792
 11
-8.1150980587
 21
-3.4561833432
  0
LINE
  5
2F9
100
AcDbEntity
  8
SCRITTE
100
AcDbLine
 62
7
  6
CONTINUOUS
 10
-7.772736156
 20
-3.1138214405
 11
-7.5695852504
 21
-2.9106705349
  0
LINE
  5
2FA
100
AcDbEntity
  8
SCRITTE
100
AcDbLine
 62
7
  6
CONTINUOUS
 10
-8.2131277221
 20
-3.9742344347
 11
-8.0139947862
 21
-3.7751014987
  0
LINE
  5
2FB
100
AcDbEntity
  8
SCRITTE
100
AcDbLine
 62
7
  6
CONTINUOUS
 10
-7.6816459061
 20
-3.4427526186
 11
-7.4784950005
 21
-3.239601713
  0
LINE
  5
2FC
100
AcDbEntity
  8
SCRITTE
100
AcDbLine
 62
7
  6
CONTINUOUS
 10
-8.1120244496
 20
-4.2931525901
 11
-7.9128915136
 21
-4.0940196542
  0
LINE
  5
2FD
100
AcDbEntity
  8
SCRITTE
100
AcDbLine
 62
7
  6
CONTINUOUS
 10
-7.5905556562
 20
-3.7716837967
 11
-7.3874047506
 21
-3.5685328911
  0
LINE
  5
2FE
100
AcDbEntity
  8
SCRITTE
100
AcDbLine
 62
7
  6
CONTINUOUS
 10
-6.2444936966
 20
-2.4256218372
 11
-5.7427488597
 21
-1.9238770002
  0
LINE
  5
2FF
100
AcDbEntity
  8
SCRITTE
100
AcDbLine
 62
7
  6
CONTINUOUS
 10
-8.0109211771
 20
-4.6120707456
 11
-7.8117882411
 21
-4.4129378096
  0
LINE
  5
300
100
AcDbEntity
  8
SCRITTE
100
AcDbLine
 62
7
  6
CONTINUOUS
 10
-7.4994654063
 20
-4.1006149748
 11
-7.2963145007
 21
-3.8974640693
  0
LINE
  5
301
100
AcDbEntity
  8
SCRITTE
100
AcDbLine
 62
7
  6
CONTINUOUS
 10
-6.4122333536
 20
-3.0133829222
 11
-6.0484257157
 21
-2.6495752843
  0
LINE
  5
302
100
AcDbEntity
  8
SCRITTE
100
AcDbLine
 62
7
  6
CONTINUOUS
 10
-5.5727274316
 20
-2.1738770002
 11
-5.3227274316
 21
-1.9238770002
  0
LINE
  5
303
100
AcDbEntity
  8
SCRITTE
100
AcDbLine
 62
7
  6
CONTINUOUS
 10
-7.9098179045
 20
-4.9309889011
 11
-7.7106849685
 21
-4.7318559651
  0
LINE
  5
304
100
AcDbEntity
  8
SCRITTE
100
AcDbLine
 62
7
  6
CONTINUOUS
 10
-7.4083751564
 20
-4.429546153
 11
-7.2052242508
 21
-4.2263952474
  0
LINE
  5
305
100
AcDbEntity
  8
SCRITTE
100
AcDbLine
 62
7
  6
CONTINUOUS
 10
-6.5799730106
 20
-3.6011440072
 11
-6.2161653727
 21
-3.2373363693
  0
LINE
  5
306
100
AcDbEntity
  8
SCRITTE
100
AcDbLine
 62
7
  6
CONTINUOUS
 10
-5.6729018046
 20
-2.6940728012
 11
-5.2859086818
 21
-2.3070796784
  0
LINE
  5
307
100
AcDbEntity
  8
SCRITTE
100
AcDbLine
 62
7
  6
CONTINUOUS
 10
-7.808714632
 20
-5.2499070566
 11
-7.609581696
 21
-5.0507741206
  0
LINE
  5
308
100
AcDbEntity
  8
SCRITTE
100
AcDbLine
 62
7
  6
CONTINUOUS
 10
-7.3172849065
 20
-4.7584773311
 11
-7.1141340009
 21
-4.5553264255
  0
LINE
  5
309
100
AcDbEntity
  8
SCRITTE
100
AcDbLine
 62
7
  6
CONTINUOUS
 10
-6.7477126676
 20
-4.1889050922
 11
-6.3839050297
 21
-3.8250974543
  0
LINE
  5
30A
100
AcDbEntity
  8
SCRITTE
100
AcDbLine
 62
7
  6
CONTINUOUS
 10
-5.8718697785
 20
-3.3130622031
 11
-5.4848766556
 21
-2.9260690802
  0
LINE
  5
30B
100
AcDbEntity
  8
SCRITTE
100
AcDbLine
 62
7
  6
CONTINUOUS
 10
-4.8141880002
 20
-2.2553804248
 11
-4.4824145756
 21
-1.9236070002
  0
LINE
  5
30C
100
AcDbEntity
  8
SCRITTE
100
AcDbLine
 62
7
  6
CONTINUOUS
 10
-7.7076113594
 20
-5.5688252121
 11
-7.5084784235
 21
-5.3696922761
  0
LINE
  5
30D
100
AcDbEntity
  8
SCRITTE
100
AcDbLine
 62
7
  6
CONTINUOUS
 10
-7.2261946566
 20
-5.0874085092
 11
-7.023043751
 21
-4.8842576036
  0
LINE
  5
30E
100
AcDbEntity
  8
SCRITTE
100
AcDbLine
 62
7
  6
CONTINUOUS
 10
-6.9154523246
 20
-4.7766661772
 11
-6.5516446867
 21
-4.4128585393
  0
LINE
  5
30F
100
AcDbEntity
  8
SCRITTE
100
AcDbLine
 62
7
  6
CONTINUOUS
 10
-6.0708377523
 20
-3.932051605
 11
-5.6838446295
 21
-3.5450584821
  0
LINE
  5
310
100
AcDbEntity
  8
SCRITTE
100
AcDbLine
 62
7
  6
CONTINUOUS
 10
-4.8141880002
 20
-2.6754018528
 11
-4.5641880002
 21
-2.4254018528
  0
LINE
  5
311
100
AcDbEntity
  8
SCRITTE
100
AcDbLine
 62
7
  6
CONTINUOUS
 10
-4.3123931476
 20
-2.1736070002
 11
-4.0623931476
 21
-1.9236070002
  0
LINE
  5
312
100
AcDbEntity
  8
SCRITTE
100
AcDbLine
 62
7
  6
CONTINUOUS
 10
-7.6065080869
 20
-5.8877433676
 11
-7.4073751509
 21
-5.6886104316
  0
LINE
  5
313
100
AcDbEntity
  8
SCRITTE
100
AcDbLine
 62
7
  6
CONTINUOUS
 10
-7.1351044067
 20
-5.4163396873
 11
-6.7193843437
 21
-5.0006196243
  0
LINE
  5
314
100
AcDbEntity
  8
SCRITTE
100
AcDbLine
 62
7
  6
CONTINUOUS
 10
-6.2698057262
 20
-4.5510410068
 11
-5.8828126033
 21
-4.164047884
  0
LINE
  5
315
100
AcDbEntity
  8
SCRITTE
100
AcDbLine
 62
7
  6
CONTINUOUS
 10
-4.8141880002
 20
-3.0954232809
 11
-4.5641880002
 21
-2.8454232809
  0
LINE
  5
316
100
AcDbEntity
  8
SCRITTE
100
AcDbLine
 62
7
  6
CONTINUOUS
 10
-4.1249760002
 20
-2.4062112809
 11
-3.8749760002
 21
-2.1562112809
  0
LINE
  5
317
100
AcDbEntity
  8
SCRITTE
100
AcDbLine
 62
7
  6
CONTINUOUS
 10
-7.5054048144
 20
-6.206661523
 11
-7.3062718784
 21
-6.0075285871
  0
LINE
  5
318
100
AcDbEntity
  8
SCRITTE
100
AcDbLine
 62
7
  6
CONTINUOUS
 10
-7.0440141567
 20
-5.7452708654
 11
-6.8871240006
 21
-5.5883807093
  0
LINE
  5
319
100
AcDbEntity
  8
SCRITTE
100
AcDbLine
 62
7
  6
CONTINUOUS
 10
-6.4687737
 20
-5.1700304087
 11
-6.0817805772
 21
-4.7830372859
  0
LINE
  5
31A
100
AcDbEntity
  8
SCRITTE
100
AcDbLine
 62
7
  6
CONTINUOUS
 10
-4.8141880002
 20
-3.5154447089
 11
-4.5641880002
 21
-3.2654447089
  0
LINE
  5
31B
100
AcDbEntity
  8
SCRITTE
100
AcDbLine
 62
7
  6
CONTINUOUS
 10
-4.1249760002
 20
-2.8262327089
 11
-3.8749760002
 21
-2.5762327089
  0
LINE
  5
31C
100
AcDbEntity
  8
SCRITTE
100
AcDbLine
 62
7
  6
CONTINUOUS
 10
-7.3020508635
 20
-6.4233290002
 11
-7.0520508635
 21
-6.1733290002
  0
LINE
  5
31D
100
AcDbEntity
  8
SCRITTE
100
AcDbLine
 62
7
  6
CONTINUOUS
 10
-6.6677416739
 20
-5.7890198106
 11
-6.280748551
 21
-5.4020266878
  0
LINE
  5
31E
100
AcDbEntity
  8
SCRITTE
100
AcDbLine
 62
7
  6
CONTINUOUS
 10
-4.8141880002
 20
-3.9354661369
 11
-4.5641880002
 21
-3.6854661369
  0
LINE
  5
31F
100
AcDbEntity
  8
SCRITTE
100
AcDbLine
 62
7
  6
CONTINUOUS
 10
-4.1249760002
 20
-3.2462541369
 11
-3.8749760002
 21
-2.9962541369
  0
LINE
  5
320
100
AcDbEntity
  8
SCRITTE
100
AcDbLine
 62
7
  6
CONTINUOUS
 10
-2.9790242084
 20
-2.1003023451
 11
-2.8025988635
 21
-1.9238770002
  0
LINE
  5
321
100
AcDbEntity
  8
SCRITTE
100
AcDbLine
 62
7
  6
CONTINUOUS
 10
-6.8820294355
 20
-6.4233290002
 11
-6.4797165249
 21
-6.0210160896
  0
LINE
  5
322
100
AcDbEntity
  8
SCRITTE
100
AcDbLine
 62
7
  6
CONTINUOUS
 10
-4.8141880002
 20
-4.3554875649
 11
-4.5641880002
 21
-4.1054875649
  0
LINE
  5
323
100
AcDbEntity
  8
SCRITTE
100
AcDbLine
 62
7
  6
CONTINUOUS
 10
-4.1249760002
 20
-3.6662755649
 11
-3.8749760002
 21
-3.4162755649
  0
LINE
  5
324
100
AcDbEntity
  8
SCRITTE
100
AcDbLine
 62
7
  6
CONTINUOUS
 10
-3.0207141245
 20
-2.5620136892
 11
-2.7447819494
 21
-2.2860815142
  0
LINE
  5
325
100
AcDbEntity
  8
SCRITTE
100
AcDbLine
 62
7
  6
CONTINUOUS
 10
-2.6325774355
 20
-2.1738770002
 11
-2.3825774355
 21
-1.9238770002
  0
LINE
  5
326
100
AcDbEntity
  8
SCRITTE
100
AcDbLine
 62
7
  6
CONTINUOUS
 10
-4.8141880002
 20
-4.775508993
 11
-4.5641880002
 21
-4.525508993
  0
LINE
  5
327
100
AcDbEntity
  8
SCRITTE
100
AcDbLine
 62
7
  6
CONTINUOUS
 10
-4.1249760002
 20
-4.086296993
 11
-3.8749760002
 21
-3.836296993
  0
LINE
  5
328
100
AcDbEntity
  8
SCRITTE
100
AcDbLine
 62
7
  6
CONTINUOUS
 10
-3.0624040405
 20
-3.0237250333
 11
-2.7864718655
 21
-2.7477928583
  0
LINE
  5
329
100
AcDbEntity
  8
SCRITTE
100
AcDbLine
 62
7
  6
CONTINUOUS
 10
-2.2125560074
 20
-2.1738770002
 11
-2.0078206312
 21
-1.969141624
  0
LINE
  5
32A
100
AcDbEntity
  8
SCRITTE
100
AcDbLine
 62
7
  6
CONTINUOUS
 10
-4.8141880002
 20
-5.195530421
 11
-4.5641880002
 21
-4.945530421
  0
LINE
  5
32B
100
AcDbEntity
  8
SCRITTE
100
AcDbLine
 62
7
  6
CONTINUOUS
 10
-4.1249760002
 20
-4.506318421
 11
-3.8749760002
 21
-4.256318421
  0
LINE
  5
32C
100
AcDbEntity
  8
SCRITTE
100
AcDbLine
 62
7
  6
CONTINUOUS
 10
-3.1040939566
 20
-3.4854363774
 11
-2.8281617816
 21
-3.2095042024
  0
LINE
  5
32D
100
AcDbEntity
  8
SCRITTE
100
AcDbLine
 62
7
  6
CONTINUOUS
 10
-2.4754023918
 20
-2.8567448126
 11
-2.3019271745
 21
-2.6832695953
  0
LINE
  5
32E
100
AcDbEntity
  8
SCRITTE
100
AcDbLine
 62
7
  6
CONTINUOUS
 10
-2.0883529755
 20
-2.4696953963
 11
-1.8939376204
 21
-2.2752800412
  0
LINE
  5
32F
100
AcDbEntity
  8
SCRITTE
100
AcDbLine
 62
7
  6
CONTINUOUS
 10
-4.8141880002
 20
-5.615551849
 11
-4.5641880002
 21
-5.365551849
  0
LINE
  5
330
100
AcDbEntity
  8
SCRITTE
100
AcDbLine
 62
7
  6
CONTINUOUS
 10
-4.1249760002
 20
-4.926339849
 11
-3.8749760002
 21
-4.676339849
  0
LINE
  5
331
100
AcDbEntity
  8
SCRITTE
100
AcDbLine
 62
7
  6
CONTINUOUS
 10
-3.1457838727
 20
-3.9471477215
 11
-2.8698516977
 21
-3.6712155465
  0
LINE
  5
332
100
AcDbEntity
  8
SCRITTE
100
AcDbLine
 62
7
  6
CONTINUOUS
 10
-2.5065243885
 20
-3.3078882374
 11
-2.1873729553
 21
-2.9887368041
  0
LINE
  5
333
100
AcDbEntity
  8
SCRITTE
100
AcDbLine
 62
7
  6
CONTINUOUS
 10
-1.9744699646
 20
-2.7758338135
 11
-1.7800546096
 21
-2.5814184584
  0
LINE
  5
334
100
AcDbEntity
  8
SCRITTE
100
AcDbLine
 62
250
  6
CONTINUOUS
 10
5.9718518343
 20
-2.4794526043
 11
6.1798044836
 21
-2.4439651965
  0
LINE
  5
335
100
AcDbEntity
  8
SCRITTE
100
AcDbLine
 62
250
  6
CONTINUOUS
 10
6.7641881929
 20
-4.1755280569
 11
6.7586046708
 21
-4.1755903941
  0
LINE
  5
336
100
AcDbEntity
  8
SCRITTE
100
AcDbLine
 62
250
  6
CONTINUOUS
 10
3.9437007252
 20
-5.0800150002
 11
2.3920061002
 21
-5.0800150002
  0
LINE
  5
337
100
AcDbEntity
  8
SCRITTE
100
AcDbLine
 62
250
  6
CONTINUOUS
 10
2.7216409998
 20
-4.8300150002
 11
3.6208699998
 21
-4.8300150002
  0
LINE
  5
338
100
AcDbEntity
  8
SCRITTE
100
AcDbLine
 62
250
  6
CONTINUOUS
 10
6.2529981649
 20
-4.6624917984
 11
6.7565811987
 21
-4.6624917984
  0
LINE
  5
339
100
AcDbEntity
  8
SCRITTE
100
AcDbLine
 62
250
  6
CONTINUOUS
 10
6.0029933718
 20
-4.4124965913
 11
6.7565783255
 21
-4.4124917984
  0
LINE
  5
33A
100
AcDbEntity
  8
SCRITTE
100
AcDbLine
 62
250
  6
CONTINUOUS
 10
6.7586046708
 20
-4.1755903941
 11
5.9718551259
 21
-4.1755902121
  0
LINE
  5
33B
100
AcDbEntity
  8
SCRITTE
100
AcDbLine
 62
250
  6
CONTINUOUS
 10
6.7586056532
 20
-3.9255903941
 11
6.2218553079
 21
-3.9255903941
  0
LINE
  5
33C
100
AcDbEntity
  8
SCRITTE
100
AcDbLine
 62
250
  6
CONTINUOUS
 10
0.2618239272
 20
-2.4238770002
 11
0.2242865624
 21
-2.4238770002
  0
LINE
  5
33D
100
AcDbEntity
  8
SCRITTE
100
AcDbLine
 62
250
  6
CONTINUOUS
 10
-2.3992028077
 20
-2.4238770002
 11
-2.4455411328
 21
-2.4238770002
  0
LINE
  5
33E
100
AcDbEntity
  8
SCRITTE
100
AcDbLine
 62
250
  6
CONTINUOUS
 10
3.1358904264
 20
-2.4238770002
 11
3.2571909764
 21
-2.4238770002
  0
LINE
  5
33F
100
AcDbEntity
  8
SCRITTE
100
AcDbLine
 62
250
  6
CONTINUOUS
 10
-8.5216141677
 20
-2.1738770002
 11
-8.0330330802
 21
-2.1738770002
  0
LINE
  5
340
100
AcDbEntity
  8
SCRITTE
100
AcDbLine
 62
250
  6
CONTINUOUS
 10
-5.9126673795
 20
-2.1738770002
 11
-5.5056900491
 21
-2.1738770002
  0
LINE
  5
341
100
AcDbEntity
  8
SCRITTE
100
AcDbLine
 62
250
  6
CONTINUOUS
 10
-2.7346505181
 20
-2.1738770002
 11
-2.1983969546
 21
-2.1738770002
  0
LINE
  5
342
100
AcDbEntity
  8
SCRITTE
100
AcDbLine
 62
250
  6
CONTINUOUS
 10
0.0169380824
 20
-2.1738770002
 11
0.545391128
 21
-2.1738770002
  0
LINE
  5
343
100
AcDbEntity
  8
SCRITTE
100
AcDbLine
 62
250
  6
CONTINUOUS
 10
2.9362427167
 20
-2.1738770002
 11
3.4764271395
 21
-2.1738770002
  0
LINE
  5
344
100
AcDbEntity
  8
SCRITTE
100
AcDbLine
 62
250
  6
CONTINUOUS
 10
-4.1249760002
 20
-2.1736070002
 11
-4.5641880002
 21
-2.1736070002
  0
LINE
  5
345
100
AcDbEntity
  8
SCRITTE
100
AcDbLine
 62
250
  6
CONTINUOUS
 10
-8.8631310002
 20
-1.9238770002
 11
-7.8428560002
 21
-1.9238770002
  0
LINE
  5
346
100
AcDbEntity
  8
SCRITTE
100
AcDbLine
 62
250
  6
CONTINUOUS
 10
-6.1013020002
 20
-1.9238770002
 11
-5.1627320002
 21
-1.9238770002
  0
LINE
  5
347
100
AcDbEntity
  8
SCRITTE
100
AcDbLine
 62
250
  6
CONTINUOUS
 10
-2.9630940002
 20
-1.9238770002
 11
-2.0246590002
 21
-1.9238770002
  0
LINE
  5
348
100
AcDbEntity
  8
SCRITTE
100
AcDbLine
 62
250
  6
CONTINUOUS
 10
-0.1561550002
 20
-1.9238770002
 11
0.7731039998
 21
-1.9238770002
  0
LINE
  5
349
100
AcDbEntity
  8
SCRITTE
100
AcDbLine
 62
250
  6
CONTINUOUS
 10
2.7526489998
 20
-1.9238770002
 11
3.6612239998
 21
-1.9238770002
  0
LINE
  5
34A
100
AcDbEntity
  8
SCRITTE
100
AcDbLine
 62
250
  6
CONTINUOUS
 10
-3.8749760002
 20
-1.9236070002
 11
-4.8141880002
 21
-1.9236070002
  0
LINE
  5
34B
100
AcDbEntity
  8
SCRITTE
100
AcDbLine
 62
250
  6
CONTINUOUS
 10
7.6396358805
 20
-4.5552436675
 11
7.4822332482
 21
-4.4924793557
  0
LINE
  5
34C
100
AcDbEntity
  8
SCRITTE
100
AcDbLine
 62
250
  6
CONTINUOUS
 10
-1.1663570002
 20
-6.4233290002
 11
-2.2681670002
 21
-3.4852720002
  0
LINE
  5
34D
100
AcDbEntity
  8
SCRITTE
100
AcDbLine
 62
250
  6
CONTINUOUS
 10
-1.0990151697
 20
-5.8909224901
 11
-2.3992028077
 21
-2.4238770002
  0
LINE
  5
34E
100
AcDbEntity
  8
SCRITTE
100
AcDbLine
 62
250
  6
CONTINUOUS
 10
-2.1983969546
 20
-2.1738770002
 11
-1.0966089239
 21
-5.1356852753
  0
LINE
  5
34F
100
AcDbEntity
  8
SCRITTE
100
AcDbLine
 62
250
  6
CONTINUOUS
 10
-2.0246590002
 20
-1.9238770002
 11
-1.0953660002
 21
-4.4219870002
  0
LWPOLYLINE
  5
350
100
AcDbEntity
  8
0
100
AcDbPolyline
 62
7
  6
CONTINUOUS
 90
13
 70
0
 43
0.3500000006
 10
0.8571428254
 20
75.4905737915
 10
0.8571428254
 20
76.7762897644
 10
1.0714285848
 20
77.2048587341
 10
1.5000000329
 20
77.6334277039
 10
1.7142856507
 20
77.6334277039
 10
2.1428571696
 20
77.2048587341
 10
2.3571427875
 20
76.7762897644
 10
2.3571427875
 20
75.4905737915
 10
2.1428571696
 20
75.0620048218
 10
1.7142856507
 20
74.6334267883
 10
1.5000000329
 20
74.6334267883
 10
1.0714285848
 20
75.0620048218
 10
0.8571428254
 20
75.4905737915
  0
LINE
  5
351
100
AcDbEntity
  8
SCRITTE
100
AcDbLine
 62
250
  6
CONTINUOUS
 10
5.317565265
 20
-1.9764456906
 11
5.317565265
 21
-6.4233285011
  0
LINE
  5
352
100
AcDbEntity
  8
SCRITTE
100
AcDbLine
 62
250
  6
CONTINUOUS
 10
5.567565265
 20
-2.1943514272
 11
5.567565265
 21
-6.1733285011
  0
LINE
  5
353
100
AcDbEntity
  8
SCRITTE
100
AcDbLine
 62
250
  6
CONTINUOUS
 10
5.9718551259
 20
-4.1755902121
 11
5.9718518343
 21
-2.4794526043
  0
LINE
  5
354
100
AcDbEntity
  8
SCRITTE
100
AcDbLine
 62
250
  6
CONTINUOUS
 10
6.0029981649
 20
-6.1733285011
 11
6.0029933718
 21
-4.4124965913
  0
LINE
  5
355
100
AcDbEntity
  8
SCRITTE
100
AcDbLine
 62
250
  6
CONTINUOUS
 10
6.2218553079
 20
-3.9255903941
 11
6.2218553079
 21
-2.6904032783
  0
LINE
  5
356
100
AcDbEntity
  8
SCRITTE
100
AcDbLine
 62
250
  6
CONTINUOUS
 10
6.2529981649
 20
-6.4233285011
 11
6.2529981649
 21
-4.6624917984
  0
LINE
  5
357
100
AcDbEntity
  8
SCRITTE
100
AcDbLine
 62
250
  6
CONTINUOUS
 10
2.3920061002
 20
-5.0800150002
 11
3.1358904264
 21
-2.4238770002
  0
LINE
  5
358
100
AcDbEntity
  8
SCRITTE
100
AcDbLine
 62
250
  6
CONTINUOUS
 10
3.1892899998
 20
-3.1602120002
 11
2.7216409998
 21
-4.8300150002
  0
LINE
  5
359
100
AcDbEntity
  8
SCRITTE
100
AcDbLine
 62
250
  6
CONTINUOUS
 10
2.3414524277
 20
-5.2750780002
 11
2.0822894277
 21
-6.1733290002
  0
LINE
  5
35A
100
AcDbEntity
  8
SCRITTE
100
AcDbLine
 62
250
  6
CONTINUOUS
 10
2.5295199998
 20
-5.5250780002
 11
2.2703569998
 21
-6.4233290002
  0
LINE
  5
35B
100
AcDbEntity
  8
SCRITTE
100
AcDbLine
 62
250
  6
CONTINUOUS
 10
1.3413339998
 20
-6.4233290002
 11
2.7526489998
 21
-1.9238770002
  0
LINE
  5
35C
100
AcDbEntity
  8
SCRITTE
100
AcDbLine
 62
250
  6
CONTINUOUS
 10
1.6817595931
 20
-6.1733290002
 11
2.9362427167
 21
-2.1738770002
  0
LINE
  5
35D
100
AcDbEntity
  8
SCRITTE
100
AcDbLine
 62
250
  6
CONTINUOUS
 10
0.2242865624
 20
-2.4238770002
 11
-1.0990151697
 21
-5.8909224901
  0
LINE
  5
35E
100
AcDbEntity
  8
SCRITTE
100
AcDbLine
 62
250
  6
CONTINUOUS
 10
0.0820899998
 20
-3.4975190002
 11
-1.0346330002
 21
-6.4233290002
  0
LINE
  5
35F
100
AcDbEntity
  8
SCRITTE
100
AcDbLine
 62
7
  6
CONTINUOUS
 10
-4.8141880002
 20
-6.035573277
 11
-4.5641880002
 21
-5.785573277
  0
LINE
  5
360
100
AcDbEntity
  8
SCRITTE
100
AcDbLine
 62
7
  6
CONTINUOUS
 10
-4.1249760002
 20
-5.346361277
 11
-3.8749760002
 21
-5.096361277
  0
LINE
  5
361
100
AcDbEntity
  8
SCRITTE
100
AcDbLine
 62
7
  6
CONTINUOUS
 10
-3.1874737888
 20
-4.4088590657
 11
-2.9115416138
 21
-4.1329268906
  0
LINE
  5
362
100
AcDbEntity
  8
SCRITTE
100
AcDbLine
 62
7
  6
CONTINUOUS
 10
-2.5376463853
 20
-3.7590316622
 11
-2.2684841525
 21
-3.4898694293
  0
LINE
  5
363
100
AcDbEntity
  8
SCRITTE
100
AcDbLine
 62
7
  6
CONTINUOUS
 10
-2.2669996222
 20
-3.4883848991
 11
-2.0728187362
 21
-3.294204013
  0
LINE
  5
364
100
AcDbEntity
  8
SCRITTE
100
AcDbLine
 62
7
  6
CONTINUOUS
 10
-1.8605869538
 20
-3.0819722307
 11
-1.6661715987
 21
-2.8875568756
  0
LINE
  5
365
100
AcDbEntity
  8
SCRITTE
100
AcDbLine
 62
7
  6
CONTINUOUS
 10
-4.7819222953
 20
-6.4233290002
 11
-4.5319222953
 21
-6.1733290002
  0
LINE
  5
366
100
AcDbEntity
  8
SCRITTE
100
AcDbLine
 62
7
  6
CONTINUOUS
 10
-4.1249760002
 20
-5.7663827051
 11
-3.8749760002
 21
-5.5163827051
  0
LINE
  5
367
100
AcDbEntity
  8
SCRITTE
100
AcDbLine
 62
7
  6
CONTINUOUS
 10
-3.2291637049
 20
-4.8705704098
 11
-2.9532315299
 21
-4.5946382347
  0
LINE
  5
368
100
AcDbEntity
  8
SCRITTE
100
AcDbLine
 62
7
  6
CONTINUOUS
 10
-2.5687683821
 20
-4.210175087
 11
-2.2996061493
 21
-3.9410128541
  0
LINE
  5
369
100
AcDbEntity
  8
SCRITTE
100
AcDbLine
 62
7
  6
CONTINUOUS
 10
-2.1524454031
 20
-3.7938521079
 11
-1.958264517
 21
-3.5996712219
  0
LINE
  5
36A
100
AcDbEntity
  8
SCRITTE
100
AcDbLine
 62
7
  6
CONTINUOUS
 10
-1.746703943
 20
-3.3881106479
 11
-1.5522885879
 21
-3.1936952928
  0
LINE
  5
36B
100
AcDbEntity
  8
SCRITTE
100
AcDbLine
 62
7
  6
CONTINUOUS
 10
-4.3619008673
 20
-6.4233290002
 11
-3.8749760002
 21
-5.9364041331
  0
LINE
  5
36C
100
AcDbEntity
  8
SCRITTE
100
AcDbLine
 62
7
  6
CONTINUOUS
 10
-3.270853621
 20
-5.3322817539
 11
-2.994921446
 21
-5.0563495789
  0
LINE
  5
36D
100
AcDbEntity
  8
SCRITTE
100
AcDbLine
 62
7
  6
CONTINUOUS
 10
-2.5998903789
 20
-4.6613185118
 11
-2.3307281461
 21
-4.3921562789
  0
LINE
  5
36E
100
AcDbEntity
  8
SCRITTE
100
AcDbLine
 62
7
  6
CONTINUOUS
 10
-2.0378911839
 20
-4.0993193168
 11
-1.8437102979
 21
-3.9051384308
  0
LINE
  5
36F
100
AcDbEntity
  8
SCRITTE
100
AcDbLine
 62
7
  6
CONTINUOUS
 10
-1.6328209322
 20
-3.6942490651
 11
-1.4384055771
 21
-3.49983371
  0
LINE
  5
370
100
AcDbEntity
  8
SCRITTE
100
AcDbLine
 62
7
  6
CONTINUOUS
 10
-0.3331081131
 20
-2.394536246
 11
0.1375511327
 21
-1.9238770002
  0
LINE
  5
371
100
AcDbEntity
  8
SCRITTE
100
AcDbLine
 62
7
  6
CONTINUOUS
 10
-3.9418794393
 20
-6.4233290002
 11
-3.8749760002
 21
-6.3564255611
  0
LINE
  5
372
100
AcDbEntity
  8
SCRITTE
100
AcDbLine
 62
7
  6
CONTINUOUS
 10
-3.3125435371
 20
-5.793993098
 11
-3.036611362
 21
-5.518060923
  0
LINE
  5
373
100
AcDbEntity
  8
SCRITTE
100
AcDbLine
 62
7
  6
CONTINUOUS
 10
-2.6310123757
 20
-5.1124619366
 11
-2.3618501428
 21
-4.8432997037
  0
LINE
  5
374
100
AcDbEntity
  8
SCRITTE
100
AcDbLine
 62
7
  6
CONTINUOUS
 10
-1.9233369648
 20
-4.4047865257
 11
-1.7291560788
 21
-4.2106056397
  0
LINE
  5
375
100
AcDbEntity
  8
SCRITTE
100
AcDbLine
 62
7
  6
CONTINUOUS
 10
-1.5189379214
 20
-4.0003874823
 11
-1.3245225663
 21
-3.8059721272
  0
LINE
  5
376
100
AcDbEntity
  8
SCRITTE
100
AcDbLine
 62
7
  6
CONTINUOUS
 10
-0.5861641132
 20
-3.0676136741
 11
-0.1581644092
 21
-2.6396139701
  0
LINE
  5
377
100
AcDbEntity
  8
SCRITTE
100
AcDbLine
 62
7
  6
CONTINUOUS
 10
0.3075725607
 20
-2.1738770002
 11
0.5575725607
 21
-1.9238770002
  0
LINE
  5
378
100
AcDbEntity
  8
SCRITTE
100
AcDbLine
 62
7
  6
CONTINUOUS
 10
-3.3542334532
 20
-6.2557044421
 11
-3.0783012781
 21
-5.9797722671
  0
LINE
  5
379
100
AcDbEntity
  8
SCRITTE
100
AcDbLine
 62
7
  6
CONTINUOUS
 10
-2.6621343724
 20
-5.5636053614
 11
-2.3929721396
 21
-5.2944431285
  0
LINE
  5
37A
100
AcDbEntity
  8
SCRITTE
100
AcDbLine
 62
7
  6
CONTINUOUS
 10
-1.8087827457
 20
-4.7102537346
 11
-1.6146018596
 21
-4.5160728486
  0
LINE
  5
37B
100
AcDbEntity
  8
SCRITTE
100
AcDbLine
 62
7
  6
CONTINUOUS
 10
-1.4050549106
 20
-4.3065258995
 11
-1.2106395555
 21
-4.1121105444
  0
LINE
  5
37C
100
AcDbEntity
  8
SCRITTE
100
AcDbLine
 62
7
  6
CONTINUOUS
 10
-0.8392201132
 20
-3.7406911022
 11
-0.4112204093
 21
-3.3126913982
  0
LINE
  5
37D
100
AcDbEntity
  8
SCRITTE
100
AcDbLine
 62
7
  6
CONTINUOUS
 10
0.0679235853
 20
-2.8335474036
 11
0.2751739982
 21
-2.6262969908
  0
LINE
  5
37E
100
AcDbEntity
  8
SCRITTE
100
AcDbLine
 62
7
  6
CONTINUOUS
 10
0.560972132
 20
-2.340498857
 11
0.7905908786
 21
-2.1108801104
  0
LINE
  5
37F
100
AcDbEntity
  8
SCRITTE
100
AcDbLine
 62
7
  6
CONTINUOUS
 10
-3.1018365832
 20
-6.4233290002
 11
-2.8518365832
 21
-6.1733290002
  0
LINE
  5
380
100
AcDbEntity
  8
SCRITTE
100
AcDbLine
 62
7
  6
CONTINUOUS
 10
-2.6932563692
 20
-6.0147487862
 11
-2.4240941364
 21
-5.7455865534
  0
LINE
  5
381
100
AcDbEntity
  8
SCRITTE
100
AcDbLine
 62
7
  6
CONTINUOUS
 10
-1.6942285265
 20
-5.0157209435
 11
-1.5000476405
 21
-4.8215400575
  0
LINE
  5
382
100
AcDbEntity
  8
SCRITTE
100
AcDbLine
 62
7
  6
CONTINUOUS
 10
-1.2911718998
 20
-4.6126643167
 11
-1.0967565447
 21
-4.4182489616
  0
LINE
  5
383
100
AcDbEntity
  8
SCRITTE
100
AcDbLine
 62
7
  6
CONTINUOUS
 10
-1.0922761133
 20
-4.4137685303
 11
-0.6642764093
 21
-3.9857688263
  0
LINE
  5
384
100
AcDbEntity
  8
SCRITTE
100
AcDbLine
 62
7
  6
CONTINUOUS
 10
-0.1913495117
 20
-3.5128419286
 11
0.3011614583
 21
-3.0203309587
  0
LINE
  5
385
100
AcDbEntity
  8
SCRITTE
100
AcDbLine
 62
7
  6
CONTINUOUS
 10
0.5968900946
 20
-2.7246023223
 11
0.8265088412
 21
-2.4949835757
  0
LINE
  5
386
100
AcDbEntity
  8
SCRITTE
100
AcDbLine
 62
7
  6
CONTINUOUS
 10
-2.6818151552
 20
-6.4233290002
 11
-2.4552161332
 21
-6.1967299782
  0
LINE
  5
387
100
AcDbEntity
  8
SCRITTE
100
AcDbLine
 62
7
  6
CONTINUOUS
 10
-1.5796743074
 20
-5.3211881524
 11
-1.3854934214
 21
-5.1270072663
  0
LINE
  5
388
100
AcDbEntity
  8
SCRITTE
100
AcDbLine
 62
7
  6
CONTINUOUS
 10
-1.1772888889
 20
-4.9188027339
 11
-0.9173324094
 21
-4.6588462544
  0
LINE
  5
389
100
AcDbEntity
  8
SCRITTE
100
AcDbLine
 62
7
  6
CONTINUOUS
 10
-0.4506226086
 20
-4.1921364536
 11
-0.0178514979
 21
-3.7593653429
  0
LINE
  5
38A
100
AcDbEntity
  8
SCRITTE
100
AcDbLine
 62
7
  6
CONTINUOUS
 10
0.0921073356
 20
-3.6494065094
 11
0.3271489184
 21
-3.4143649266
  0
LINE
  5
38B
100
AcDbEntity
  8
SCRITTE
100
AcDbLine
 62
7
  6
CONTINUOUS
 10
0.6328080573
 20
-3.1087057877
 11
0.8624268039
 21
-2.8790870411
  0
LINE
  5
38C
100
AcDbEntity
  8
SCRITTE
100
AcDbLine
 62
7
  6
CONTINUOUS
 10
-1.4651200882
 20
-5.6266553613
 11
-1.2709392022
 21
-5.4324744752
  0
LINE
  5
38D
100
AcDbEntity
  8
SCRITTE
100
AcDbLine
 62
7
  6
CONTINUOUS
 10
-0.7098957056
 20
-4.8714309786
 11
-0.2771245948
 21
-4.4386598679
  0
LINE
  5
38E
100
AcDbEntity
  8
SCRITTE
100
AcDbLine
 62
7
  6
CONTINUOUS
 10
0.1180947957
 20
-4.0434404773
 11
0.3531363784
 21
-3.8083988946
  0
LINE
  5
38F
100
AcDbEntity
  8
SCRITTE
100
AcDbLine
 62
7
  6
CONTINUOUS
 10
0.66872602
 20
-3.492809253
 11
0.8983447666
 21
-3.2631905065
  0
LINE
  5
390
100
AcDbEntity
  8
SCRITTE
100
AcDbLine
 62
7
  6
CONTINUOUS
 10
-1.3505658691
 20
-5.9321225701
 11
-1.1563849831
 21
-5.7379416841
  0
LINE
  5
391
100
AcDbEntity
  8
SCRITTE
100
AcDbLine
 62
7
  6
CONTINUOUS
 10
-0.9691688026
 20
-5.5507255036
 11
-0.5363976918
 21
-5.1179543929
  0
LINE
  5
392
100
AcDbEntity
  8
SCRITTE
100
AcDbLine
 62
7
  6
CONTINUOUS
 10
0.1440822558
 20
-4.4374744453
 11
0.3791238385
 21
-4.2024328625
  0
LINE
  5
393
100
AcDbEntity
  8
SCRITTE
100
AcDbLine
 62
7
  6
CONTINUOUS
 10
0.7046439826
 20
-3.8769127184
 11
0.9342627292
 21
-3.6472939718
  0
LINE
  5
394
100
AcDbEntity
  8
SCRITTE
100
AcDbLine
 62
7
  6
CONTINUOUS
 10
-1.23601165
 20
-6.237589779
 11
-0.7956707888
 21
-5.7972489178
  0
LINE
  5
395
100
AcDbEntity
  8
SCRITTE
100
AcDbLine
 62
7
  6
CONTINUOUS
 10
0.1700697159
 20
-4.8315084132
 11
0.4051112986
 21
-4.5964668305
  0
LINE
  5
396
100
AcDbEntity
  8
SCRITTE
100
AcDbLine
 62
7
  6
CONTINUOUS
 10
0.7405619453
 20
-4.2610161838
 11
0.9701806919
 21
-4.0313974372
  0
LINE
  5
397
100
AcDbEntity
  8
SCRITTE
100
AcDbLine
 62
7
  6
CONTINUOUS
 10
2.6040963464
 20
-2.3974817827
 11
3.0777011289
 21
-1.9238770002
  0
LINE
  5
398
100
AcDbEntity
  8
SCRITTE
100
AcDbLine
 62
7
  6
CONTINUOUS
 10
0.196057176
 20
-5.2255423811
 11
0.4310987587
 21
-4.9905007984
  0
LINE
  5
399
100
AcDbEntity
  8
SCRITTE
100
AcDbLine
 62
7
  6
CONTINUOUS
 10
0.776479908
 20
-4.6451196491
 11
1.0060986545
 21
-4.4155009025
  0
LINE
  5
39A
100
AcDbEntity
  8
SCRITTE
100
AcDbLine
 62
7
  6
CONTINUOUS
 10
2.4121416042
 20
-3.0094579529
 11
2.7938927592
 21
-2.6277067979
  0
LINE
  5
39B
100
AcDbEntity
  8
SCRITTE
100
AcDbLine
 62
7
  6
CONTINUOUS
 10
3.2477225569
 20
-2.1738770002
 11
3.4977225569
 21
-1.9238770002
  0
LINE
  5
39C
100
AcDbEntity
  8
SCRITTE
100
AcDbLine
 62
7
  6
CONTINUOUS
 10
0.222044636
 20
-5.6195763491
 11
0.4570862188
 21
-5.3845347663
  0
LINE
  5
39D
100
AcDbEntity
  8
SCRITTE
100
AcDbLine
 62
7
  6
CONTINUOUS
 10
0.8123978706
 20
-5.0292231145
 11
1.0420166172
 21
-4.7996043679
  0
LINE
  5
39E
100
AcDbEntity
  8
SCRITTE
100
AcDbLine
 62
7
  6
CONTINUOUS
 10
2.220186862
 20
-3.6214341231
 11
2.601938017
 21
-3.2396829681
  0
LINE
  5
39F
100
AcDbEntity
  8
SCRITTE
100
AcDbLine
 62
7
  6
CONTINUOUS
 10
3.0262467911
 20
-2.815374194
 11
3.2901651974
 21
-2.5514557877
  0
LINE
  5
3A0
100
AcDbEntity
  8
SCRITTE
100
AcDbLine
 62
7
  6
CONTINUOUS
 10
3.5213457375
 20
-2.3202752476
 11
3.7214514098
 21
-2.1201695753
  0
LINE
  5
3A1
100
AcDbEntity
  8
SCRITTE
100
AcDbLine
 62
7
  6
CONTINUOUS
 10
0.2480320961
 20
-6.013610317
 11
0.4830736789
 21
-5.7785687343
  0
LINE
  5
3A2
100
AcDbEntity
  8
SCRITTE
100
AcDbLine
 62
7
  6
CONTINUOUS
 10
0.8483158333
 20
-5.4133265799
 11
1.0779345799
 21
-5.1837078333
  0
LINE
  5
3A3
100
AcDbEntity
  8
SCRITTE
100
AcDbLine
 62
7
  6
CONTINUOUS
 10
2.0282321198
 20
-4.2334102934
 11
2.4099832748
 21
-3.8516591383
  0
LINE
  5
3A4
100
AcDbEntity
  8
SCRITTE
100
AcDbLine
 62
7
  6
CONTINUOUS
 10
2.8628545795
 20
-3.3987878337
 11
3.3764287904
 21
-2.8852136227
  0
LINE
  5
3A5
100
AcDbEntity
  8
SCRITTE
100
AcDbLine
 62
7
  6
CONTINUOUS
 10
3.6199610666
 20
-2.6416813465
 11
3.820066739
 21
-2.4415756742
  0
LINE
  5
3A6
100
AcDbEntity
  8
SCRITTE
100
AcDbLine
 62
7
  6
CONTINUOUS
 10
0.2740195562
 20
-6.407644285
 11
0.5090611389
 21
-6.1726027022
  0
LINE
  5
3A7
100
AcDbEntity
  8
SCRITTE
100
AcDbLine
 62
7
  6
CONTINUOUS
 10
0.884233796
 20
-5.7974300452
 11
1.1138525425
 21
-5.5678112986
  0
LINE
  5
3A8
100
AcDbEntity
  8
SCRITTE
100
AcDbLine
 62
7
  6
CONTINUOUS
 10
1.8362773776
 20
-4.8453864636
 11
2.2180285326
 21
-4.4636353085
  0
LINE
  5
3A9
100
AcDbEntity
  8
SCRITTE
100
AcDbLine
 62
7
  6
CONTINUOUS
 10
2.6994623678
 20
-3.9822014733
 11
3.0600759783
 21
-3.6215878629
  0
LINE
  5
3AA
100
AcDbEntity
  8
SCRITTE
100
AcDbLine
 62
7
  6
CONTINUOUS
 10
3.2575090762
 20
-3.424154765
 11
3.4626923834
 21
-3.2189714577
  0
LINE
  5
3AB
100
AcDbEntity
  8
SCRITTE
100
AcDbLine
 62
7
  6
CONTINUOUS
 10
3.7185763958
 20
-2.9630874454
 11
3.9186820681
 21
-2.762981773
  0
LINE
  5
3AC
100
AcDbEntity
  8
SCRITTE
100
AcDbLine
 62
7
  6
CONTINUOUS
 10
0.678356269
 20
-6.4233290002
 11
1.1497705052
 21
-5.951914764
  0
LINE
  5
3AD
100
AcDbEntity
  8
SCRITTE
100
AcDbLine
 62
7
  6
CONTINUOUS
 10
1.6443226354
 20
-5.4573626338
 11
2.0260737904
 21
-5.0756114788
  0
LINE
  5
3AE
100
AcDbEntity
  8
SCRITTE
100
AcDbLine
 62
7
  6
CONTINUOUS
 10
2.5360701562
 20
-4.565615113
 11
2.8966837666
 21
-4.2050015026
  0
LINE
  5
3AF
100
AcDbEntity
  8
SCRITTE
100
AcDbLine
 62
7
  6
CONTINUOUS
 10
3.3437726692
 20
-3.7579126
 11
3.5489559765
 21
-3.5527292927
  0
LINE
  5
3B0
100
AcDbEntity
  8
SCRITTE
100
AcDbLine
 62
7
  6
CONTINUOUS
 10
3.8171917249
 20
-3.2844935443
 11
4.0172973973
 21
-3.0843878719
  0
LINE
  5
3B1
100
AcDbEntity
  8
SCRITTE
100
AcDbLine
 62
7
  6
CONTINUOUS
 10
1.098377697
 20
-6.4233290002
 11
1.1856884679
 21
-6.3360182293
  0
LINE
  5
3B2
100
AcDbEntity
  8
SCRITTE
100
AcDbLine
 62
7
  6
CONTINUOUS
 10
1.4523678932
 20
-6.069338804
 11
1.8341190482
 21
-5.687587649
  0
LINE
  5
3B3
100
AcDbEntity
  8
SCRITTE
100
AcDbLine
 62
7
  6
CONTINUOUS
 10
2.441691697
 20
-5.0800150002
 11
2.733291555
 21
-4.7884151422
  0
LINE
  5
3B4
100
AcDbEntity
  8
SCRITTE
100
AcDbLine
 62
7
  6
CONTINUOUS
 10
3.4300362622
 20
-4.091670435
 11
3.6352195695
 21
-3.8864871277
  0
LINE
  5
3B5
100
AcDbEntity
  8
SCRITTE
100
AcDbLine
 62
7
  6
CONTINUOUS
 10
3.9158070541
 20
-3.6058996431
 11
4.1159127264
 21
-3.4057939708
  0
LINE
  5
3B6
100
AcDbEntity
  8
SCRITTE
100
AcDbLine
 62
7
  6
CONTINUOUS
 10
5.317565265
 20
-2.2041414322
 11
5.5816911482
 21
-1.940015549
  0
LINE
  5
3B7
100
AcDbEntity
  8
SCRITTE
100
AcDbLine
 62
7
  6
CONTINUOUS
 10
1.518399125
 20
-6.4233290002
 11
1.768399125
 21
-6.1733290002
  0
LINE
  5
3B8
100
AcDbEntity
  8
SCRITTE
100
AcDbLine
 62
7
  6
CONTINUOUS
 10
2.2095782401
 20
-5.7321498852
 11
2.666650125
 21
-5.2750780002
  0
LINE
  5
3B9
100
AcDbEntity
  8
SCRITTE
100
AcDbLine
 62
7
  6
CONTINUOUS
 10
2.861713125
 20
-5.0800150002
 11
3.111713125
 21
-4.8300150002
  0
LINE
  5
3BA
100
AcDbEntity
  8
SCRITTE
100
AcDbLine
 62
7
  6
CONTINUOUS
 10
3.5162998553
 20
-4.42542827
 11
3.7214831625
 21
-4.2202449627
  0
LINE
  5
3BB
100
AcDbEntity
  8
SCRITTE
100
AcDbLine
 62
7
  6
CONTINUOUS
 10
4.0144223832
 20
-3.927305742
 11
4.2145280556
 21
-3.7272000697
  0
LINE
  5
3BC
100
AcDbEntity
  8
SCRITTE
100
AcDbLine
 62
7
  6
CONTINUOUS
 10
5.317565265
 20
-2.6241628602
 11
5.567565265
 21
-2.3741628602
  0
LINE
  5
3BD
100
AcDbEntity
  8
SCRITTE
100
AcDbLine
 62
7
  6
CONTINUOUS
 10
5.7693651945
 20
-2.1723629308
 11
6.0496487925
 21
-1.8920793328
  0
LINE
  5
3BE
100
AcDbEntity
  8
SCRITTE
100
AcDbLine
 62
7
  6
CONTINUOUS
 10
1.9384205531
 20
-6.4233290002
 11
2.4049638855
 21
-5.9567856678
  0
LINE
  5
3BF
100
AcDbEntity
  8
SCRITTE
100
AcDbLine
 62
7
  6
CONTINUOUS
 10
2.8366715531
 20
-5.5250780002
 11
3.0866715531
 21
-5.2750780002
  0
LINE
  5
3C0
100
AcDbEntity
  8
SCRITTE
100
AcDbLine
 62
7
  6
CONTINUOUS
 10
3.2817345531
 20
-5.0800150002
 11
3.5317345531
 21
-4.8300150002
  0
LINE
  5
3C1
100
AcDbEntity
  8
SCRITTE
100
AcDbLine
 62
7
  6
CONTINUOUS
 10
3.6025634483
 20
-4.759186105
 11
3.8077467556
 21
-4.5540027977
  0
LINE
  5
3C2
100
AcDbEntity
  8
SCRITTE
100
AcDbLine
 62
7
  6
CONTINUOUS
 10
4.1130377124
 20
-4.2487118409
 11
4.3131433847
 21
-4.0486061686
  0
LINE
  5
3C3
100
AcDbEntity
  8
SCRITTE
100
AcDbLine
 62
7
  6
CONTINUOUS
 10
5.317565265
 20
-3.0441842882
 11
5.567565265
 21
-2.7941842882
  0
LINE
  5
3C4
100
AcDbEntity
  8
SCRITTE
100
AcDbLine
 62
7
  6
CONTINUOUS
 10
6.226749521
 20
-2.1350000322
 11
6.4890250174
 21
-1.8727245359
  0
LINE
  5
3C5
100
AcDbEntity
  8
SCRITTE
100
AcDbLine
 62
7
  6
CONTINUOUS
 10
3.2566929811
 20
-5.5250780002
 11
3.5066929811
 21
-5.2750780002
  0
LINE
  5
3C6
100
AcDbEntity
  8
SCRITTE
100
AcDbLine
 62
7
  6
CONTINUOUS
 10
3.7017559811
 20
-5.0800150002
 11
3.8940103486
 21
-4.8877606327
  0
LINE
  5
3C7
100
AcDbEntity
  8
SCRITTE
100
AcDbLine
 62
7
  6
CONTINUOUS
 10
4.2116530415
 20
-4.5701179398
 11
4.4117587139
 21
-4.3700122674
  0
LINE
  5
3C8
100
AcDbEntity
  8
SCRITTE
100
AcDbLine
 62
7
  6
CONTINUOUS
 10
5.317565265
 20
-3.4642057163
 11
5.567565265
 21
-3.2142057163
  0
LINE
  5
3C9
100
AcDbEntity
  8
SCRITTE
100
AcDbLine
 62
7
  6
CONTINUOUS
 10
5.9718553079
 20
-2.8099156734
 11
6.3643235203
 21
-2.417447461
  0
LINE
  5
3CA
100
AcDbEntity
  8
SCRITTE
100
AcDbLine
 62
7
  6
CONTINUOUS
 10
6.656683451
 20
-2.1250875303
 11
6.8969160319
 21
-1.8848549494
  0
LINE
  5
3CB
100
AcDbEntity
  8
SCRITTE
100
AcDbLine
 62
7
  6
CONTINUOUS
 10
3.6767144091
 20
-5.5250780002
 11
3.9267144091
 21
-5.2750780002
  0
LINE
  5
3CC
100
AcDbEntity
  8
SCRITTE
100
AcDbLine
 62
7
  6
CONTINUOUS
 10
4.3102683707
 20
-4.8915240387
 11
4.510374043
 21
-4.6914183663
  0
LINE
  5
3CD
100
AcDbEntity
  8
SCRITTE
100
AcDbLine
 62
7
  6
CONTINUOUS
 10
5.317565265
 20
-3.8842271443
 11
5.567565265
 21
-3.6342271443
  0
LINE
  5
3CE
100
AcDbEntity
  8
SCRITTE
100
AcDbLine
 62
7
  6
CONTINUOUS
 10
5.9718553079
 20
-3.2299371014
 11
6.2218553079
 21
-2.9799371014
  0
LINE
  5
3CF
100
AcDbEntity
  8
SCRITTE
100
AcDbLine
 62
7
  6
CONTINUOUS
 10
6.5499302536
 20
-2.6518621557
 11
6.8011140105
 21
-2.4006783988
  0
LINE
  5
3D0
100
AcDbEntity
  8
SCRITTE
100
AcDbLine
 62
7
  6
CONTINUOUS
 10
7.0518775546
 20
-2.1499148547
 11
7.272440727
 21
-1.9293516823
  0
LINE
  5
3D1
100
AcDbEntity
  8
SCRITTE
100
AcDbLine
 62
7
  6
CONTINUOUS
 10
3.8699888766
 20
-5.7518249608
 11
4.0737938687
 21
-5.5480199686
  0
LINE
  5
3D2
100
AcDbEntity
  8
SCRITTE
100
AcDbLine
 62
7
  6
CONTINUOUS
 10
4.4088836998
 20
-5.2129301375
 11
4.6089893722
 21
-5.0128244652
  0
LINE
  5
3D3
100
AcDbEntity
  8
SCRITTE
100
AcDbLine
 62
7
  6
CONTINUOUS
 10
5.317565265
 20
-4.3042485723
 11
5.567565265
 21
-4.0542485723
  0
LINE
  5
3D4
100
AcDbEntity
  8
SCRITTE
100
AcDbLine
 62
7
  6
CONTINUOUS
 10
5.9718553079
 20
-3.6499585294
 11
6.2218553079
 21
-3.3999585294
  0
LINE
  5
3D5
100
AcDbEntity
  8
SCRITTE
100
AcDbLine
 62
7
  6
CONTINUOUS
 10
6.9578627836
 20
-2.6639510537
 11
7.1655789184
 21
-2.456234919
  0
LINE
  5
3D6
100
AcDbEntity
  8
SCRITTE
100
AcDbLine
 62
7
  6
CONTINUOUS
 10
7.4074962347
 20
-2.2143176027
 11
7.6068931837
 21
-2.0149206536
  0
LINE
  5
3D7
100
AcDbEntity
  8
SCRITTE
100
AcDbLine
 62
250
  6
CONTINUOUS
 10
7.4891692586
 20
-4.1241904584
 11
7.6585798596
 21
-4.0585889116
  0
LWPOLYLINE
  5
3D8
100
AcDbEntity
  8
0
100
AcDbPolyline
 62
7
  6
CONTINUOUS
 90
13
 70
0
 43
0.3500000006
 10
72.7990523987
 20
0.8571421509
 10
71.5133364258
 20
0.8571421509
 10
71.0847674561
 20
1.0714289017
 10
70.6561939545
 20
1.5000001373
 10
70.6561939545
 20
1.7142846222
 10
71.0847674561
 20
2.1428581238
 10
71.5133364258
 20
2.3571426086
 10
72.7990523987
 20
2.3571426086
 10
73.2276259003
 20
2.1428581238
 10
73.65619487
 20
1.7142846222
 10
73.65619487
 20
1.5000001373
 10
73.2276259003
 20
1.0714289017
 10
72.7990523987
 20
0.8571421509
  0
LINE
  5
3D9
100
AcDbEntity
  8
SCRITTE
100
AcDbLine
 62
250
  6
CONTINUOUS
 10
3.4764271395
 20
-2.1738770002
 11
4.7035577906
 21
-6.1733290002
  0
LINE
  5
3DA
100
AcDbEntity
  8
SCRITTE
100
AcDbLine
 62
250
  6
CONTINUOUS
 10
3.6612239998
 20
-1.9238770002
 11
5.0417669998
 21
-6.4233290002
  0
LINE
  5
3DB
100
AcDbEntity
  8
SCRITTE
100
AcDbLine
 62
250
  6
CONTINUOUS
 10
4.0518759998
 20
-6.4233290002
 11
3.8085709998
 21
-5.5250780002
  0
LINE
  5
3DC
100
AcDbEntity
  8
SCRITTE
100
AcDbLine
 62
250
  6
CONTINUOUS
 10
4.2431683687
 20
-6.1733290002
 11
3.9998633687
 21
-5.2750780002
  0
LINE
  5
3DD
100
AcDbEntity
  8
SCRITTE
100
AcDbLine
 62
250
  6
CONTINUOUS
 10
3.6208699998
 20
-4.8300150002
 11
3.1892899998
 21
-3.1602120002
  0
LINE
  5
3DE
100
AcDbEntity
  8
SCRITTE
100
AcDbLine
 62
250
  6
CONTINUOUS
 10
3.2571909764
 20
-2.4238770002
 11
3.9437007252
 21
-5.0800150002
  0
LINE
  5
3DF
100
AcDbEntity
  8
SCRITTE
100
AcDbLine
 62
250
  6
CONTINUOUS
 10
7.4822332482
 20
-4.4924793557
 11
7.4822332595
 21
-4.2964370041
  0
LINE
  5
3E0
100
AcDbEntity
  8
SCRITTE
100
AcDbLine
 62
250
  6
CONTINUOUS
 10
7.7322332595
 20
-4.3230245352
 11
7.7322332595
 21
-4.2964367007
  0
LINE
  5
3E1
100
AcDbEntity
  8
SCRITTE
100
AcDbLine
 62
250
  6
CONTINUOUS
 10
7.4822332595
 20
-4.2964370041
 11
7.4891692586
 21
-4.1241904584
  0
LWPOLYLINE
  5
3E2
100
AcDbEntity
  8
0
100
AcDbPolyline
 62
250
  6
CONTINUOUS
 90
3
 70
0
 10
40.5612599719
 20
61.1227654309
 10
40.4886238776
 20
60.976715411
 10
40.4110466778
 20
60.8216605485
  0
LINE
  5
3E3
100
AcDbEntity
  8
0
100
AcDbLine
 62
250
  6
CONTINUOUS
 10
40.5612599719
 20
61.1227654309
 11
40.0000850369
 21
60.0001853445
  0
LINE
  5
3E4
100
AcDbEntity
  8
SCRITTE
100
AcDbLine
 62
7
  6
CONTINUOUS
 10
3.9595099457
 20
-6.0823253197
 11
4.1633149378
 21
-5.8785203275
  0
LINE
  5
3E5
100
AcDbEntity
  8
SCRITTE
100
AcDbLine
 62
7
  6
CONTINUOUS
 10
4.507499029
 20
-5.5343362364
 11
4.7076047013
 21
-5.3342305641
  0
LINE
  5
3E6
100
AcDbEntity
  8
SCRITTE
100
AcDbLine
 62
7
  6
CONTINUOUS
 10
5.317565265
 20
-4.7242700003
 11
5.567565265
 21
-4.4742700003
  0
LINE
  5
3E7
100
AcDbEntity
  8
SCRITTE
100
AcDbLine
 62
7
  6
CONTINUOUS
 10
5.9718552028
 20
-4.0699800626
 11
6.2218553079
 21
-3.8199799574
  0
LINE
  5
3E8
100
AcDbEntity
  8
SCRITTE
100
AcDbLine
 62
7
  6
CONTINUOUS
 10
7.2608947247
 20
-2.7809405406
 11
7.4389037499
 21
-2.6029315155
  0
LINE
  5
3E9
100
AcDbEntity
  8
SCRITTE
100
AcDbLine
 62
7
  6
CONTINUOUS
 10
7.7017465103
 20
-2.3400887551
 11
7.8799947858
 21
-2.1618404795
  0
LINE
  5
3EA
100
AcDbEntity
  8
SCRITTE
100
AcDbLine
 62
7
  6
CONTINUOUS
 10
4.0490310148
 20
-6.4128256786
 11
4.2885276932
 21
-6.1733290002
  0
LINE
  5
3EB
100
AcDbEntity
  8
SCRITTE
100
AcDbLine
 62
7
  6
CONTINUOUS
 10
4.6061143581
 20
-5.8557423353
 11
4.8062200304
 21
-5.6556366629
  0
LINE
  5
3EC
100
AcDbEntity
  8
SCRITTE
100
AcDbLine
 62
7
  6
CONTINUOUS
 10
5.317565265
 20
-5.1442914284
 11
5.567565265
 21
-4.8942914284
  0
LINE
  5
3ED
100
AcDbEntity
  8
SCRITTE
100
AcDbLine
 62
7
  6
CONTINUOUS
 10
6.0029942607
 20
-4.4588624327
 11
6.049360991
 21
-4.4124957024
  0
LINE
  5
3EE
100
AcDbEntity
  8
SCRITTE
100
AcDbLine
 62
7
  6
CONTINUOUS
 10
6.2862662993
 20
-4.1755903941
 11
6.5362662993
 21
-3.9255903941
  0
LINE
  5
3EF
100
AcDbEntity
  8
SCRITTE
100
AcDbLine
 62
7
  6
CONTINUOUS
 10
7.4443658896
 20
-3.0174908038
 11
7.6317796122
 21
-2.8300770812
  0
LINE
  5
3F0
100
AcDbEntity
  8
SCRITTE
100
AcDbLine
 62
7
  6
CONTINUOUS
 10
7.9161818274
 20
-2.545674866
 11
8.0937006507
 21
-2.3681560427
  0
LINE
  5
3F1
100
AcDbEntity
  8
SCRITTE
100
AcDbLine
 62
7
  6
CONTINUOUS
 10
4.4585491212
 20
-6.4233290002
 11
4.9048353596
 21
-5.9770427618
  0
LINE
  5
3F2
100
AcDbEntity
  8
SCRITTE
100
AcDbLine
 62
7
  6
CONTINUOUS
 10
5.317565265
 20
-5.5643128564
 11
5.567565265
 21
-5.3143128564
  0
LINE
  5
3F3
100
AcDbEntity
  8
SCRITTE
100
AcDbLine
 62
7
  6
CONTINUOUS
 10
6.0029981649
 20
-4.8788799565
 11
6.469386323
 21
-4.4124917984
  0
LINE
  5
3F4
100
AcDbEntity
  8
SCRITTE
100
AcDbLine
 62
7
  6
CONTINUOUS
 10
6.7062877273
 20
-4.1755903941
 11
6.9820439767
 21
-3.8998341447
  0
LINE
  5
3F5
100
AcDbEntity
  8
SCRITTE
100
AcDbLine
 62
7
  6
CONTINUOUS
 10
7.4746914667
 20
-3.4071866548
 11
7.7331470319
 21
-3.1487310895
  0
LINE
  5
3F6
100
AcDbEntity
  8
SCRITTE
100
AcDbLine
 62
7
  6
CONTINUOUS
 10
8.062131636
 20
-2.8197464854
 11
8.2541728717
 21
-2.6277052497
  0
LINE
  5
3F7
100
AcDbEntity
  8
SCRITTE
100
AcDbLine
 62
7
  6
CONTINUOUS
 10
4.8785705492
 20
-6.4233290002
 11
5.0034506887
 21
-6.2984488607
  0
LINE
  5
3F8
100
AcDbEntity
  8
SCRITTE
100
AcDbLine
 62
7
  6
CONTINUOUS
 10
5.317565265
 20
-5.9843342844
 11
5.567565265
 21
-5.7343342844
  0
LINE
  5
3F9
100
AcDbEntity
  8
SCRITTE
100
AcDbLine
 62
7
  6
CONTINUOUS
 10
6.0029981649
 20
-5.2989013845
 11
6.2529981649
 21
-5.0489013845
  0
LINE
  5
3FA
100
AcDbEntity
  8
SCRITTE
100
AcDbLine
 62
7
  6
CONTINUOUS
 10
6.639407751
 20
-4.6624917984
 11
6.8789199363
 21
-4.4229796131
  0
LINE
  5
3FB
100
AcDbEntity
  8
SCRITTE
100
AcDbLine
 62
7
  6
CONTINUOUS
 10
7.2135264384
 20
-4.088373111
 11
7.6686913216
 21
-3.6332082278
  0
LINE
  5
3FC
100
AcDbEntity
  8
SCRITTE
100
AcDbLine
 62
7
  6
CONTINUOUS
 10
8.1181042426
 20
-3.1837953068
 11
8.3502193091
 21
-2.9516802404
  0
LINE
  5
3FD
100
AcDbEntity
  8
SCRITTE
100
AcDbLine
 62
7
  6
CONTINUOUS
 10
5.317565265
 20
-6.4043557124
 11
5.567565265
 21
-6.1543557124
  0
LINE
  5
3FE
100
AcDbEntity
  8
SCRITTE
100
AcDbLine
 62
7
  6
CONTINUOUS
 10
6.0029981649
 20
-5.7189228126
 11
6.2529981649
 21
-5.4689228126
  0
LINE
  5
3FF
100
AcDbEntity
  8
SCRITTE
100
AcDbLine
 62
7
  6
CONTINUOUS
 10
7.0010342847
 20
-4.7208866928
 11
7.1831758145
 21
-4.538745163
  0
LINE
  5
400
100
AcDbEntity
  8
SCRITTE
100
AcDbLine
 62
7
  6
CONTINUOUS
 10
7.4846143115
 20
-4.237306666
 11
7.6692798987
 21
-4.0526410787
  0
LINE
  5
401
100
AcDbEntity
  8
SCRITTE
100
AcDbLine
 62
7
  6
CONTINUOUS
 10
7.9530179412
 20
-3.7689030363
 11
8.3578901047
 21
-3.3640308728
  0
LINE
  5
402
100
AcDbEntity
  8
SCRITTE
100
AcDbLine
 62
7
  6
CONTINUOUS
 10
5.7186139044
 20
-6.4233285011
 11
5.9686139044
 21
-6.1733285011
  0
LINE
  5
403
100
AcDbEntity
  8
SCRITTE
100
AcDbLine
 62
7
  6
CONTINUOUS
 10
6.0029981649
 20
-6.1389442406
 11
6.2529981649
 21
-5.8889442406
  0
LINE
  5
404
100
AcDbEntity
  8
SCRITTE
100
AcDbLine
 62
7
  6
CONTINUOUS
 10
7.2148082336
 20
-4.9271341719
 11
7.3963850532
 21
-4.7455573523
  0
LINE
  5
405
100
AcDbEntity
  8
SCRITTE
100
AcDbLine
 62
7
  6
CONTINUOUS
 10
7.6017898468
 20
-4.5401525587
 11
7.7907549484
 21
-4.3511874571
  0
LINE
  5
406
100
AcDbEntity
  8
SCRITTE
100
AcDbLine
 62
7
  6
CONTINUOUS
 10
6.1386353324
 20
-6.4233285011
 11
6.2529981649
 21
-6.3089656686
  0
LINE
  5
407
100
AcDbEntity
  8
SCRITTE
100
AcDbLine
 62
7
  6
CONTINUOUS
 10
7.3368089307
 20
-5.2251549028
 11
7.534167455
 21
-5.0277963785
  0
LINE
  5
408
100
AcDbEntity
  8
SCRITTE
100
AcDbLine
 62
7
  6
CONTINUOUS
 10
7.8319718043
 20
-4.7299920292
 11
8.0100987184
 21
-4.5518651151
  0
LINE
  5
409
100
AcDbEntity
  8
SCRITTE
100
AcDbLine
 62
7
  6
CONTINUOUS
 10
7.4340526372
 20
-5.5479326244
 11
7.6344250225
 21
-5.347560239
  0
LINE
  5
40A
100
AcDbEntity
  8
SCRITTE
100
AcDbLine
 62
7
  6
CONTINUOUS
 10
7.960666467
 20
-5.0213187946
 11
8.1571249495
 21
-4.8248603121
  0
LINE
  5
40B
100
AcDbEntity
  8
SCRITTE
100
AcDbLine
 62
7
  6
CONTINUOUS
 10
7.5305120246
 20
-5.8714946649
 11
7.7319813471
 21
-5.6700253424
  0
LINE
  5
40C
100
AcDbEntity
  8
SCRITTE
100
AcDbLine
 62
7
  6
CONTINUOUS
 10
8.0532409753
 20
-5.3487657142
 11
8.2572048848
 21
-5.1448018047
  0
LINE
  5
40D
100
AcDbEntity
  8
SCRITTE
100
AcDbLine
 62
7
  6
CONTINUOUS
 10
7.6252680664
 20
-6.1967600512
 11
7.8270934539
 21
-5.9949346637
  0
LINE
  5
40E
100
AcDbEntity
  8
SCRITTE
100
AcDbLine
 62
7
  6
CONTINUOUS
 10
8.1407457549
 20
-5.6812823626
 11
8.3456640337
 21
-5.4763640839
  0
LINE
  5
40F
100
AcDbEntity
  8
SCRITTE
100
AcDbLine
 62
7
  6
CONTINUOUS
 10
7.8187210445
 20
-6.4233285011
 11
8.0687210445
 21
-6.1733285011
  0
LINE
  5
410
100
AcDbEntity
  8
SCRITTE
100
AcDbLine
 62
7
  6
CONTINUOUS
 10
8.2281025929
 20
-6.0139469527
 11
8.4334235683
 21
-5.8086259773
  0
LINE
  5
411
100
AcDbEntity
  8
SCRITTE
100
AcDbLine
 62
7
  6
CONTINUOUS
 10
8.2387424725
 20
-6.4233285011
 11
8.5202278962
 21
-6.1418430774
  0
LINE
  5
412
100
AcDbEntity
  8
0
100
AcDbLine
 62
250
  6
CONTINUOUS
 10
-60.000079806
 20
-40.0000195673
 11
-61.1223017014
 21
-40.5612289022
  0
LWPOLYLINE
  5
413
100
AcDbEntity
  8
0
100
AcDbPolyline
 62
250
  6
CONTINUOUS
 90
3
 70
0
 10
-61.1227756992
 20
40.5612626412
 10
-60.9764558051
 20
40.4885065378
 10
-60.8212026167
 20
40.4108307224
  0
LINE
  5
414
100
AcDbEntity
  8
0
100
AcDbLine
 62
250
  6
CONTINUOUS
 10
-61.1227756992
 20
40.5612626412
 11
-60.0001859429
 21
40.0000863454
  0
LINE
  5
415
100
AcDbEntity
  8
0
100
AcDbLine
 62
250
  6
CONTINUOUS
 10
40.0000195669
 20
-60.0000798063
 11
40.5612289022
 21
-61.1223017307
  0
LINE
  5
416
100
AcDbEntity
  8
IMPORT_IGES
100
AcDbLine
 62
7
  6
CONTINUOUS
 10
14.8
 20
-41.7
 11
14.8
 21
-60.0
  0
LINE
  5
417
100
AcDbEntity
  8
IMPORT_IGES
100
AcDbLine
 62
7
  6
CONTINUOUS
 10
15.0
 20
-41.8
 11
15.0
 21
-60.0
  0
LINE
  5
418
100
AcDbEntity
  8
0
100
AcDbLine
 62
250
  6
CONTINUOUS
 10
29.8775010008
 20
64.0
 11
29.8774752646
 21
60.0
  0
LINE
  5
419
100
AcDbEntity
  8
0
100
AcDbLine
 62
250
  6
CONTINUOUS
 10
29.8775010008
 20
-64.0
 11
29.8775506416
 21
-60.0
  0
LINE
  5
41A
100
AcDbEntity
  8
IMPORT_IGES
100
AcDbLine
 62
7
  6
CONTINUOUS
 10
43.0999999998
 20
27.9999999998
 11
-43.1000000002
 21
27.9999999998
  0
LINE
  5
41B
100
AcDbEntity
  8
IMPORT_IGES
100
AcDbLine
 62
7
  6
CONTINUOUS
 10
-43.1
 20
28.2
 11
43.1
 21
28.2
  0
LINE
  5
41C
100
AcDbEntity
  8
0
100
AcDbLine
 62
250
  6
CONTINUOUS
 10
-64.0
 20
29.8775010008
 11
-60.0
 21
29.8774817535
  0
LINE
  5
41D
100
AcDbEntity
  8
IMPORT_IGES
100
AcDbLine
 62
7
  6
CONTINUOUS
 10
-43.1
 20
30.1169048105
 11
43.1
 21
30.1169048105
  0
LINE
  5
41E
100
AcDbEntity
  8
0
100
AcDbLine
 62
250
  6
CONTINUOUS
 10
64.0
 20
29.8775010008
 11
60.0
 21
29.8775605854
  0
LINE
  5
41F
100
AcDbEntity
  8
0
100
AcDbLine
 62
250
  6
CONTINUOUS
 10
31.4387505004
 20
-64.0
 11
31.4387373588
 21
-61.1227764376
  0
LINE
  5
420
100
AcDbEntity
  8
0
100
AcDbLine
 62
250
  6
CONTINUOUS
 10
31.4387711178
 20
61.1223143464
 11
31.4387505004
 21
64.0
  0
LINE
  5
421
100
AcDbEntity
  8
0
100
AcDbLine
 62
250
  6
CONTINUOUS
 10
33.0
 20
-60.0
 11
33.0
 21
-64.0
  0
LINE
  5
422
100
AcDbEntity
  8
0
100
AcDbLine
 62
250
  6
CONTINUOUS
 10
33.0
 20
60.0
 11
33.0
 21
64.0
  0
LINE
  5
423
100
AcDbEntity
  8
0
100
AcDbLine
 62
7
  6
CONTINUOUS
 10
33.5
 20
-61.2
 11
33.5
 21
-60.0
  0
LINE
  5
424
100
AcDbEntity
  8
0
100
AcDbLine
 62
7
  6
CONTINUOUS
 10
33.5
 20
60.0
 11
33.5
 21
61.2
  0
LINE
  5
425
100
AcDbEntity
  8
IMPORT_IGES
100
AcDbLine
 62
7
  6
CONTINUOUS
 10
2.7293364418
 20
-43.2294864354
 11
0.0
 21
-45.3838033246
  0
LINE
  5
426
100
AcDbEntity
  8
0
100
AcDbLine
 62
250
  6
CONTINUOUS
 10
64.0
 20
31.4387505004
 11
61.1227659521
 21
31.4387400281
  0
LINE
  5
427
100
AcDbEntity
  8
0
100
AcDbLine
 62
250
  6
CONTINUOUS
 10
-61.1223017014
 20
31.4387710978
 11
-64.0
 21
31.4387505004
  0
LINE
  5
428
100
AcDbEntity
  8
0
100
AcDbLine
 62
250
  6
CONTINUOUS
 10
60.0
 20
33.0
 11
64.0
 21
33.0
  0
LINE
  5
429
100
AcDbEntity
  8
0
100
AcDbLine
 62
250
  6
CONTINUOUS
 10
-60.0
 20
33.0
 11
-64.0
 21
33.0
  0
LINE
  5
42A
100
AcDbEntity
  8
0
100
AcDbLine
 62
7
  6
CONTINUOUS
 10
61.2
 20
33.5
 11
60.0
 21
33.5
  0
LINE
  5
42B
100
AcDbEntity
  8
0
100
AcDbLine
 62
7
  6
CONTINUOUS
 10
-60.0
 20
33.5
 11
-61.2
 21
33.5
  0
LINE
  5
42C
100
AcDbEntity
  8
0
100
AcDbLine
 62
7
  6
CONTINUOUS
 10
38.5
 20
61.2
 11
38.5
 21
60.0
  0
LINE
  5
42D
100
AcDbEntity
  8
0
100
AcDbLine
 62
7
  6
CONTINUOUS
 10
38.5
 20
-60.0
 11
38.5
 21
-61.2
  0
LINE
  5
42E
100
AcDbEntity
  8
0
100
AcDbLine
 62
250
  6
CONTINUOUS
 10
39.0
 20
-60.0
 11
39.0
 21
-64.0
  0
LINE
  5
42F
100
AcDbEntity
  8
0
100
AcDbLine
 62
250
  6
CONTINUOUS
 10
39.0
 20
60.0
 11
39.0
 21
64.0
  0
LINE
  5
430
100
AcDbEntity
  8
0
100
AcDbLine
 62
250
  6
CONTINUOUS
 10
40.5612289022
 20
-61.1223017307
 11
40.5612494996
 21
-64.0
  0
LINE
  5
431
100
AcDbEntity
  8
0
100
AcDbLine
 62
250
  6
CONTINUOUS
 10
40.5612494996
 20
64.0
 11
40.5612599719
 21
61.1227654309
  0
LINE
  5
432
100
AcDbEntity
  8
0
100
AcDbLine
 62
250
  6
CONTINUOUS
 10
42.1225182465
 20
-60.0
 11
42.1224989992
 21
-64.0
  0
LINE
  5
433
100
AcDbEntity
  8
0
100
AcDbLine
 62
250
  6
CONTINUOUS
 10
42.1224989992
 20
64.0
 11
42.1224394146
 21
60.0
  0
LINE
  5
434
100
AcDbEntity
  8
IMPORT_IGES
100
AcDbLine
 62
7
  6
CONTINUOUS
 10
0.0
 20
-47.2947729214
 11
3.25
 21
-44.7294864354
  0
LINE
  5
435
100
AcDbEntity
  8
IMPORT_IGES
100
AcDbLine
 62
7
  6
CONTINUOUS
 10
2.7293364418
 20
-47.2294864354
 11
0.0
 21
-49.3838033246
  0
LINE
  5
436
100
AcDbEntity
  8
IMPORT_IGES
100
AcDbLine
 62
7
  6
CONTINUOUS
 10
0.0
 20
-51.2947729214
 11
3.25
 21
-48.7294864354
  0
LINE
  5
437
100
AcDbEntity
  8
IMPORT_IGES
100
AcDbLine
 62
7
  6
CONTINUOUS
 10
2.7293364418
 20
-51.2294864354
 11
0.0
 21
-53.3838033246
  0
LINE
  5
438
100
AcDbEntity
  8
0
100
AcDbLine
 62
7
  6
CONTINUOUS
 10
-61.2
 20
38.5
 11
-60.0
 21
38.5
  0
LINE
  5
439
100
AcDbEntity
  8
0
100
AcDbLine
 62
7
  6
CONTINUOUS
 10
60.0
 20
38.5
 11
61.2
 21
38.5
  0
LINE
  5
43A
100
AcDbEntity
  8
0
100
AcDbLine
 62
250
  6
CONTINUOUS
 10
60.0
 20
39.0
 11
64.0
 21
39.0
  0
LINE
  5
43B
100
AcDbEntity
  8
0
100
AcDbLine
 62
250
  6
CONTINUOUS
 10
-60.0
 20
39.0
 11
-64.0
 21
39.0
  0
LINE
  5
43C
100
AcDbEntity
  8
0
100
AcDbLine
 62
250
  6
CONTINUOUS
 10
61.1223144469
 20
40.5612288822
 11
64.0
 21
40.5612494996
  0
LINE
  5
43D
100
AcDbEntity
  8
0
100
AcDbLine
 62
250
  6
CONTINUOUS
 10
-64.0
 20
40.5612494996
 11
-61.1227756992
 21
40.5612626412
  0
LINE
  5
43E
100
AcDbEntity
  8
0
100
AcDbLine
 62
250
  6
CONTINUOUS
 10
60.0
 20
42.1225247354
 11
64.0
 21
42.1224989992
  0
LINE
  5
43F
100
AcDbEntity
  8
0
100
AcDbLine
 62
250
  6
CONTINUOUS
 10
-64.0
 20
42.1224989992
 11
-60.0
 21
42.1224493584
  0
LINE
  5
440
100
AcDbEntity
  8
IMPORT_IGES
100
AcDbLine
 62
250
  6
CONTINUOUS
 10
43.1
 20
28.2
 11
43.1
 21
30.1169048105
  0
LINE
  5
441
100
AcDbEntity
  8
IMPORT_IGES
100
AcDbLine
 62
7
  6
CONTINUOUS
 10
47.8999999998
 20
-31.8000000002
 11
47.8999999998
 21
23.1999999998
  0
LINE
  5
442
100
AcDbEntity
  8
0
100
AcDbLine
 62
250
  6
CONTINUOUS
 10
48.0
 20
61.1224989992
 11
48.0
 21
60.0
  0
LINE
  5
443
100
AcDbEntity
  8
0
100
AcDbLine
 62
250
  6
CONTINUOUS
 10
48.0
 20
-61.1224989992
 11
48.0
 21
-60.0
  0
LINE
  5
444
100
AcDbEntity
  8
IMPORT_IGES
100
AcDbLine
 62
7
  6
CONTINUOUS
 10
48.1
 20
23.2
 11
48.1
 21
-31.8
  0
LINE
  5
445
100
AcDbEntity
  8
IMPORT_IGES
100
AcDbLine
 62
7
  6
CONTINUOUS
 10
0.0
 20
-55.2947729214
 11
3.25
 21
-52.7294864354
  0
LINE
  5
446
100
AcDbEntity
  8
0
100
AcDbLine
 62
250
  6
CONTINUOUS
 10
-61.1224989992
 20
48.0
 11
-60.0
 21
48.0
  0
LINE
  5
447
100
AcDbEntity
  8
0
100
AcDbLine
 62
250
  6
CONTINUOUS
 10
61.1224989992
 20
48.0
 11
60.0
 21
48.0
  0
LWPOLYLINE
  5
448
100
AcDbEntity
  8
0
100
AcDbPolyline
 62
7
  6
CONTINUOUS
 90
3
 70
0
 43
0.3500000006
 10
71.5133364258
 20
-3.2142857208
 10
70.6561939545
 20
-2.3571432495
 10
73.65619487
 20
-2.3571432495
  0
LINE
  5
449
100
AcDbEntity
  8
IMPORT_IGES
100
AcDbLine
 62
250
  6
CONTINUOUS
 10
55.0
 20
-60.0
 11
55.0
 21
-59.0
  0
LINE
  5
44A
100
AcDbEntity
  8
IMPORT_IGES
100
AcDbLine
 62
250
  6
CONTINUOUS
 10
55.0
 20
59.0
 11
55.0
 21
60.0
  0
LINE
  5
44B
100
AcDbEntity
  8
IMPORT_IGES
100
AcDbLine
 62
250
  6
CONTINUOUS
 10
60.0
 20
55.0
 11
59.0
 21
55.0
  0
LINE
  5
44C
100
AcDbEntity
  8
IMPORT_IGES
100
AcDbLine
 62
250
  6
CONTINUOUS
 10
-59.0
 20
55.0
 11
-60.0
 21
55.0
  0
LINE
  5
44D
100
AcDbEntity
  8
IMPORT_IGES
100
AcDbLine
 62
250
  6
CONTINUOUS
 10
59.0
 20
-55.0
 11
59.0
 21
55.0
  0
LINE
  5
44E
100
AcDbEntity
  8
IMPORT_IGES
100
AcDbLine
 62
7
  6
CONTINUOUS
 10
60.0
 20
55.0
 11
60.0
 21
-55.0
  0
LINE
  5
44F
100
AcDbEntity
  8
0
100
AcDbLine
 62
250
  6
CONTINUOUS
 10
61.1225122732
 20
-42.1224734197
 11
61.1224989992
 21
-48.0
  0
LINE
  5
450
100
AcDbEntity
  8
0
100
AcDbLine
 62
250
  6
CONTINUOUS
 10
61.1226363653
 20
29.8775265792
 11
61.122808221
 21
31.4386704797
  0
LINE
  5
451
100
AcDbEntity
  8
0
100
AcDbLine
 62
250
  6
CONTINUOUS
 10
61.1224989992
 20
48.0
 11
61.1223656564
 21
40.561228883
  0
LINE
  5
452
100
AcDbEntity
  8
0
100
AcDbLine
 62
250
  6
CONTINUOUS
 10
61.1225122731
 20
29.8775265803
 11
61.1223656564
 21
-31.438771117
  0
LINE
  5
453
100
AcDbEntity
  8
0
100
AcDbLine
 62
250
  6
CONTINUOUS
 10
61.1226363653
 20
-42.1224734208
 11
61.122808221
 21
-40.5613295203
  0
LWPOLYLINE
  5
454
100
AcDbEntity
  8
0
100
AcDbPolyline
 62
250
  6
CONTINUOUS
 90
3
 70
0
 10
31.4387373588
 20
-61.1227764376
 10
31.5114934054
 20
-60.9764563393
 10
31.5891691746
 20
-60.8212029948
  0
LINE
  5
455
100
AcDbEntity
  8
0
100
AcDbLine
 62
250
  6
CONTINUOUS
 10
31.4387373588
 20
-61.1227764376
 11
31.9999136647
 21
-60.0001859509
  0
LINE
  5
456
100
AcDbEntity
  8
0
100
AcDbLine
 62
250
  6
CONTINUOUS
 10
60.0000823276
 20
-31.9999761249
 11
61.1223144469
 21
-31.4387711178
  0
LINE
  5
457
100
AcDbEntity
  8
IMPORT_IGES
100
AcDbLine
 62
250
  6
CONTINUOUS
 10
55.0
 20
59.0
 11
-55.0
 21
59.0
  0
LINE
  5
458
100
AcDbEntity
  8
IMPORT_IGES
100
AcDbLine
 62
7
  6
CONTINUOUS
 10
-55.0
 20
60.0
 11
55.0
 21
60.0
  0
LINE
  5
459
100
AcDbEntity
  8
0
100
AcDbLine
 62
250
  6
CONTINUOUS
 10
42.1224734197
 20
61.1225122732
 11
48.0
 21
61.1224989992
  0
LINE
  5
45A
100
AcDbEntity
  8
0
100
AcDbLine
 62
250
  6
CONTINUOUS
 10
-29.8775265792
 20
61.1226363653
 11
-31.4386704797
 21
61.122808221
  0
LINE
  5
45B
100
AcDbEntity
  8
0
100
AcDbLine
 62
250
  6
CONTINUOUS
 10
-48.0
 20
61.1224989992
 11
-40.561228883
 21
61.1223656564
  0
LINE
  5
45C
100
AcDbEntity
  8
0
100
AcDbLine
 62
250
  6
CONTINUOUS
 10
-29.8775265803
 20
61.1225122731
 11
31.438771117
 21
61.1223656564
  0
LINE
  5
45D
100
AcDbEntity
  8
0
100
AcDbLine
 62
250
  6
CONTINUOUS
 10
42.1224734208
 20
61.1226363653
 11
40.5613295203
 21
61.122808221
  0
LWPOLYLINE
  5
45E
100
AcDbEntity
  8
0
100
AcDbPolyline
 62
250
  6
CONTINUOUS
 90
3
 70
0
 10
61.1227659521
 20
31.4387400281
 10
60.9767157882
 20
31.5113760823
 10
60.8216608156
 20
31.5889532494
  0
LINE
  5
45F
100
AcDbEntity
  8
0
100
AcDbLine
 62
250
  6
CONTINUOUS
 10
61.1227659521
 20
31.4387400281
 11
60.0001853502
 21
31.9999149703
  0
LINE
  5
460
100
AcDbEntity
  8
0
100
AcDbLine
 62
250
  6
CONTINUOUS
 10
31.9999761236
 20
60.0000823265
 11
31.4387711178
 21
61.1223143464
  0
LINE
  5
461
100
AcDbEntity
  8
0
100
AcDbLine
 62
7
  6
CONTINUOUS
 10
62.2
 20
37.5
 11
62.2
 21
34.5
  0
LINE
  5
462
100
AcDbEntity
  8
0
100
AcDbLine
 62
7
  6
CONTINUOUS
 10
62.2
 20
-34.5
 11
62.2
 21
-37.5
  0
LINE
  5
463
100
AcDbEntity
  8
0
100
AcDbLine
 62
7
  6
CONTINUOUS
 10
64.0
 20
42.1224989992
 11
64.0
 21
40.5612494996
  0
LINE
  5
464
100
AcDbEntity
  8
0
100
AcDbLine
 62
7
  6
CONTINUOUS
 10
64.0
 20
40.5612494996
 11
64.0
 21
31.4387505004
  0
LINE
  5
465
100
AcDbEntity
  8
0
100
AcDbLine
 62
7
  6
CONTINUOUS
 10
64.0
 20
31.4387505004
 11
64.0
 21
29.8775010008
  0
LINE
  5
466
100
AcDbEntity
  8
0
100
AcDbLine
 62
7
  6
CONTINUOUS
 10
64.0
 20
-58.0
 11
64.0
 21
-42.1224989992
  0
LINE
  5
467
100
AcDbEntity
  8
0
100
AcDbLine
 62
7
  6
CONTINUOUS
 10
64.0
 20
-29.8775010008
 11
64.0
 21
-31.4387505004
  0
LINE
  5
468
100
AcDbEntity
  8
0
100
AcDbLine
 62
7
  6
CONTINUOUS
 10
64.0
 20
-31.4387505004
 11
64.0
 21
-40.5612494996
  0
LINE
  5
469
100
AcDbEntity
  8
0
100
AcDbLine
 62
7
  6
CONTINUOUS
 10
64.0
 20
-40.5612494996
 11
64.0
 21
-42.1224989992
  0
LINE
  5
46A
100
AcDbEntity
  8
0
100
AcDbLine
 62
7
  6
CONTINUOUS
 10
64.0
 20
-29.8775010008
 11
64.0
 21
29.8775010008
  0
LINE
  5
46B
100
AcDbEntity
  8
0
100
AcDbLine
 62
7
  6
CONTINUOUS
 10
64.0
 20
42.1224989992
 11
64.0
 21
58.0
  0
LINE
  5
46C
100
AcDbEntity
  8
0
100
AcDbLine
 62
7
  6
CONTINUOUS
 10
-37.5
 20
62.2
 11
-34.5
 21
62.2
  0
LINE
  5
46D
100
AcDbEntity
  8
0
100
AcDbLine
 62
7
  6
CONTINUOUS
 10
34.5
 20
62.2
 11
37.5
 21
62.2
  0
LINE
  5
46E
100
AcDbEntity
  8
0
100
AcDbLine
 62
7
  6
CONTINUOUS
 10
58.0
 20
64.0
 11
42.1224989992
 21
64.0
  0
LINE
  5
46F
100
AcDbEntity
  8
0
100
AcDbLine
 62
7
  6
CONTINUOUS
 10
-42.1224989992
 20
64.0
 11
-40.5612494996
 21
64.0
  0
LINE
  5
470
100
AcDbEntity
  8
0
100
AcDbLine
 62
7
  6
CONTINUOUS
 10
-40.5612494996
 20
64.0
 11
-31.4387505004
 21
64.0
  0
LINE
  5
471
100
AcDbEntity
  8
0
100
AcDbLine
 62
7
  6
CONTINUOUS
 10
-31.4387505004
 20
64.0
 11
-29.8775010008
 21
64.0
  0
LINE
  5
472
100
AcDbEntity
  8
0
100
AcDbLine
 62
7
  6
CONTINUOUS
 10
29.8775010008
 20
64.0
 11
-29.8775010008
 21
64.0
  0
LINE
  5
473
100
AcDbEntity
  8
0
100
AcDbLine
 62
7
  6
CONTINUOUS
 10
29.8775010008
 20
64.0
 11
31.4387505004
 21
64.0
  0
LINE
  5
474
100
AcDbEntity
  8
0
100
AcDbLine
 62
7
  6
CONTINUOUS
 10
31.4387505004
 20
64.0
 11
40.5612494996
 21
64.0
  0
LINE
  5
475
100
AcDbEntity
  8
0
100
AcDbLine
 62
7
  6
CONTINUOUS
 10
40.5612494996
 20
64.0
 11
42.1224989992
 21
64.0
  0
LINE
  5
476
100
AcDbEntity
  8
0
100
AcDbLine
 62
7
  6
CONTINUOUS
 10
-42.1224989992
 20
64.0
 11
-58.0
 21
64.0
  0
LWPOLYLINE
  5
477
100
AcDbEntity
  8
0
100
AcDbPolyline
 62
7
  6
CONTINUOUS
 90
7
 70
0
 43
0.3500000006
 10
73.65619487
 20
-0.0000003204
 10
73.65619487
 20
-1.4999996452
 10
71.5133364258
 20
-0.0000003204
 10
71.0847674561
 20
-0.0000003204
 10
70.6561939545
 20
-0.4285715561
 10
70.6561939545
 20
-1.0714295425
 10
71.2990519409
 20
-1.4999996452
  0
LWPOLYLINE
  5
478
100
AcDbEntity
  8
0
100
AcDbPolyline
 62
7
  6
CONTINUOUS
 90
7
 70
0
 43
0.3500000006
 10
0.0
 20
74.6334267883
 10
-1.5000000329
 20
74.6334267883
 10
0.0
 20
76.7762897644
 10
0.0
 20
77.2048587341
 10
-0.4285714127
 20
77.6334277039
 10
-1.0714285848
 20
77.6334277039
 10
-1.5000000329
 20
76.9905742493
  0
LWPOLYLINE
  5
479
100
AcDbEntity
  8
0
100
AcDbPolyline
 62
7
  6
CONTINUOUS
 90
10
 70
0
 43
0.3500000006
 10
-138.0460223694
 20
85.7766550598
 10
-138.688875824
 20
85.1337925415
 10
-139.1174538574
 20
84.2766546021
 10
-139.1174538574
 20
83.205223114
 10
-138.688875824
 20
82.7766541443
 10
-138.0460223694
 20
82.7766541443
 10
-137.6174533997
 20
83.205223114
 10
-137.6174533997
 20
84.0623701172
 10
-138.0460223694
 20
84.4909390869
 10
-138.9745914917
 20
84.4909390869
  0
LINE
  5
47A
100
AcDbEntity
  8
ASSI
100
AcDbLine
 62
7
  6
CONTINUOUS
 10
-118.5053511645
 20
-64.0
 11
-117.5053511645
 21
-64.0
  0
LINE
  5
47B
100
AcDbEntity
  8
0
100
AcDbLine
 62
7
  6
CONTINUOUS
 10
-116.0053511645
 20
-64.0
 11
-117.5053511645
 21
-64.0
  0
LINE
  5
47C
100
AcDbEntity
  8
IMPORT_IGES
100
AcDbLine
 62
7
  6
CONTINUOUS
 10
-162.1053511645
 20
-60.0
 11
-164.1053511645
 21
-60.0
  0
LINE
  5
47D
100
AcDbEntity
  8
IMPORT_IGES
100
AcDbLine
 62
7
  6
CONTINUOUS
 10
-161.1053511645
 20
-59.8
 11
-162.1053511645
 21
-59.8
  0
LINE
  5
47E
100
AcDbEntity
  8
ASSI
100
AcDbLine
 62
250
  6
CONTINUOUS
 10
-118.5053511645
 20
-58.0
 11
-117.5053511645
 21
-58.0
  0
LINE
  5
47F
100
AcDbEntity
  8
0
100
AcDbLine
 62
7
  6
CONTINUOUS
 10
-134.5038067621
 20
-52.3555555556
 11
-133.5053511645
 21
-52.3
  0
LINE
  5
480
100
AcDbEntity
  8
IMPORT_IGES
100
AcDbLine
 62
250
  6
CONTINUOUS
 10
-165.1053511645
 20
-55.0
 11
-161.1053511645
 21
-55.0
  0
LINE
  5
481
100
AcDbEntity
  8
0
100
AcDbLine
 62
7
  6
CONTINUOUS
 10
-119.6053511645
 20
-51.5
 11
-121.586359848
 21
-51.5
  0
LINE
  5
482
100
AcDbEntity
  8
0
100
AcDbLine
 62
7
  6
CONTINUOUS
 10
-119.6053511645
 20
-50.5
 11
-121.586359848
 21
-50.5
  0
LINE
  5
483
100
AcDbEntity
  8
0
100
AcDbLine
 62
250
  6
CONTINUOUS
 10
-117.5053511645
 20
-48.0
 11
-116.0053511645
 21
-48.0
  0
LINE
  5
484
100
AcDbEntity
  8
IMPORT_IGES
100
AcDbLine
 62
7
  6
CONTINUOUS
 10
-160.6053511645
 20
-46.5000000004
 11
-161.1053511645
 21
-46.5000000004
  0
LINE
  5
485
100
AcDbEntity
  8
IMPORT_IGES
100
AcDbLine
 62
250
  6
CONTINUOUS
 10
-161.1053511645
 20
-44.5000000004
 11
-160.6053511645
 21
-44.5000000004
  0
LINE
  5
486
100
AcDbEntity
  8
IMPORT_IGES
100
AcDbLine
 62
7
  6
CONTINUOUS
 10
-160.6053511645
 20
-46.1214522079
 11
-156.1053511645
 21
-46.2
  0
LINE
  5
487
100
AcDbEntity
  8
IMPORT_IGES
100
AcDbLine
 62
250
  6
CONTINUOUS
 10
-156.1053511645
 20
-45.7000761525
 11
-160.6053511645
 21
-45.6215283603
  0
LINE
  5
488
100
AcDbEntity
  8
IMPORT_IGES
100
AcDbLine
 62
250
  6
CONTINUOUS
 10
-160.6053511645
 20
-41.8000000004
 11
-161.1053511645
 21
-41.8000000004
  0
LINE
  5
489
100
AcDbEntity
  8
IMPORT_IGES
100
AcDbLine
 62
7
  6
CONTINUOUS
 10
-160.6053511645
 20
-39.8000000004
 11
-161.1053511645
 21
-39.8000000004
  0
LINE
  5
48A
100
AcDbEntity
  8
0
100
AcDbLine
 62
250
  6
CONTINUOUS
 10
-117.0053511645
 20
-39.0
 11
-116.0053511645
 21
-39.0
  0
LINE
  5
48B
100
AcDbEntity
  8
IMPORT_IGES
100
AcDbLine
 62
250
  6
CONTINUOUS
 10
-141.5727536582
 20
43.2877134548
 11
-141.7756671148
 21
43.0667471019
  0
LINE
  5
48C
100
AcDbEntity
  8
IMPORT_IGES
100
AcDbLine
 62
7
  6
CONTINUOUS
 10
-156.1053511645
 20
-37.5
 11
-154.5791831864
 21
-37.4200169255
  0
LINE
  5
48D
100
AcDbEntity
  8
IMPORT_IGES
100
AcDbLine
 62
250
  6
CONTINUOUS
 10
-154.5791831864
 20
-36.9207021581
 11
-156.1053511645
 21
-37.0006852326
  0
LINE
  5
48E
100
AcDbEntity
  8
IMPORT_IGES
100
AcDbLine
 62
250
  6
CONTINUOUS
 10
-160.6053511645
 20
-35.2784951043
 11
-156.1053495361
 21
-35.1994196847
  0
LINE
  5
48F
100
AcDbEntity
  8
IMPORT_IGES
100
AcDbLine
 62
7
  6
CONTINUOUS
 10
-156.1053510098
 20
-34.6999999973
 11
-160.6053511645
 21
-34.7785477922
  0
LINE
  5
490
100
AcDbEntity
  8
IMPORT_IGES
100
AcDbLine
 62
250
  6
CONTINUOUS
 10
-154.5791831864
 20
-36.9207021581
 11
-154.1053511645
 21
-36.9207021581
  0
LINE
  5
491
100
AcDbEntity
  8
IMPORT_IGES
100
AcDbLine
 62
250
  6
CONTINUOUS
 10
-154.1053511645
 20
-35.279297842
 11
-154.5791831864
 21
-35.279297842
  0
LINE
  5
492
100
AcDbEntity
  8
0
100
AcDbLine
 62
7
  6
CONTINUOUS
 10
-118.5053511645
 20
-34.0768379631
 11
-120.5053511645
 21
-34.0768379631
  0
LINE
  5
493
100
AcDbEntity
  8
0
100
AcDbLine
 62
250
  6
CONTINUOUS
 10
-117.0053511645
 20
-33.0
 11
-116.0053511645
 21
-33.0
  0
LINE
  5
494
100
AcDbEntity
  8
IMPORT_IGES
100
AcDbLine
 62
250
  6
CONTINUOUS
 10
-156.1053495342
 20
-35.1994196847
 11
-154.5791831864
 21
-35.279297842
  0
LINE
  5
495
100
AcDbEntity
  8
IMPORT_IGES
100
AcDbLine
 62
7
  6
CONTINUOUS
 10
-154.5791834876
 20
-34.7799830588
 11
-156.1053510062
 21
-34.7000000083
  0
LINE
  5
496
100
AcDbEntity
  8
IMPORT_IGES
100
AcDbLine
 62
7
  6
CONTINUOUS
 10
-165.1053511645
 20
-59.0
 11
-165.1053511645
 21
59.0
  0
LINE
  5
497
100
AcDbEntity
  8
IMPORT_IGES
100
AcDbLine
 62
250
  6
CONTINUOUS
 10
-164.1053511645
 20
60.0
 11
-164.1053511645
 21
-60.0
  0
LINE
  5
498
100
AcDbEntity
  8
IMPORT_IGES
100
AcDbLine
 62
250
  6
CONTINUOUS
 10
-161.1053511645
 20
-31.8000000004
 11
-160.6053511645
 21
-31.8000000004
  0
LINE
  5
499
100
AcDbEntity
  8
IMPORT_IGES
100
AcDbLine
 62
250
  6
CONTINUOUS
 10
-158.6286952323
 20
-28.8078705142
 11
-158.6465682107
 21
-28.7098455195
  0
LINE
  5
49A
100
AcDbEntity
  8
IMPORT_IGES
100
AcDbLine
 62
7
  6
CONTINUOUS
 10
-162.1053511645
 20
-60.0
 11
-162.1053511645
 21
60.0
  0
LINE
  5
49B
100
AcDbEntity
  8
IMPORT_IGES
100
AcDbLine
 62
7
  6
CONTINUOUS
 10
-161.1053511645
 20
-59.8
 11
-161.1053511645
 21
59.8
  0
LINE
  5
49C
100
AcDbEntity
  8
IMPORT_IGES
100
AcDbLine
 62
7
  6
CONTINUOUS
 10
-160.6053511645
 20
-46.5000000004
 11
-160.6053511645
 21
31.1999999996
  0
LINE
  5
49D
100
AcDbEntity
  8
IMPORT_IGES
100
AcDbLine
 62
7
  6
CONTINUOUS
 10
-160.4553511645
 20
-32.8006419624
 11
-160.4553511645
 21
-34.7759295325
  0
LINE
  5
49E
100
AcDbEntity
  8
IMPORT_IGES
100
AcDbLine
 62
250
  6
CONTINUOUS
 10
-160.1053511645
 20
-11.8000000004
 11
-160.1053511645
 21
-16.8000000004
  0
LINE
  5
49F
100
AcDbEntity
  8
IMPORT_IGES
100
AcDbLine
 62
250
  6
CONTINUOUS
 10
-158.1553511645
 20
-34.7357828831
 11
-158.1553511645
 21
-32.3812810602
  0
LINE
  5
4A0
100
AcDbEntity
  8
IMPORT_IGES
100
AcDbLine
 62
7
  6
CONTINUOUS
 10
-157.9553511645
 20
-34.7322918702
 11
-157.9553511645
 21
-32.3448148947
  0
LWPOLYLINE
  5
4A1
100
AcDbEntity
  8
0
100
AcDbPolyline
 62
7
  6
CONTINUOUS
 90
3
 70
0
 43
0.3500000006
 10
-133.6888742981
 20
83.062369812
 10
-133.760305481
 20
82.8480762634
 10
-133.9031678467
 20
82.5623696594
  0
LINE
  5
4A2
100
AcDbEntity
  8
0
100
AcDbLine
 62
250
  6
CONTINUOUS
 10
-118.2337410471
 20
41.1161847272
 11
-117.5053511645
 21
41.5980762114
  0
LINE
  5
4A3
100
AcDbEntity
  8
IMPORT_IGES
100
AcDbLine
 62
7
  6
CONTINUOUS
 10
-105.5234091618
 20
-22.784855544
 11
-116.0053511645
 21
-24.6960366988
  0
LINE
  5
4A4
100
AcDbEntity
  8
IMPORT_IGES
100
AcDbLine
 62
7
  6
CONTINUOUS
 10
-122.2618565855
 20
-25.8367905068
 11
-124.3725151382
 21
-26.2216286264
  0
LINE
  5
4A5
100
AcDbEntity
  8
IMPORT_IGES
100
AcDbLine
 62
7
  6
CONTINUOUS
 10
-128.449846106
 20
-26.965051754
 11
-160.6053511645
 21
-32.8279915864
  0
LINE
  5
4A6
100
AcDbEntity
  8
IMPORT_IGES
100
AcDbLine
 62
7
  6
CONTINUOUS
 10
-160.403057274
 20
-29.0301076231
 11
-158.6465682107
 21
-28.7098455195
  0
LINE
  5
4A7
100
AcDbEntity
  8
0
100
AcDbLine
 62
250
  6
CONTINUOUS
 10
-118.2337410471
 20
-41.1161847272
 11
-117.5053511645
 21
-41.5980762114
  0
LINE
  5
4A8
100
AcDbEntity
  8
IMPORT_IGES
100
AcDbLine
 62
7
  6
CONTINUOUS
 10
-157.6053511645
 20
-11.8000000004
 11
-157.6053511645
 21
-16.8000000004
  0
LINE
  5
4A9
100
AcDbEntity
  8
IMPORT_IGES
100
AcDbLine
 62
7
  6
CONTINUOUS
 10
-156.1053511645
 20
-46.2
 11
-156.1053495342
 21
-35.1994196847
  0
LINE
  5
4AA
100
AcDbEntity
  8
IMPORT_IGES
100
AcDbLine
 62
7
  6
CONTINUOUS
 10
-155.9053511645
 20
26.1229076688
 11
-155.9053511645
 21
47.5002376915
  0
LINE
  5
4AB
100
AcDbEntity
  8
IMPORT_IGES
100
AcDbLine
 62
7
  6
CONTINUOUS
 10
-155.1064717371
 20
16.3690032523
 11
-155.1064717371
 21
15.8623157633
  0
LINE
  5
4AC
100
AcDbEntity
  8
IMPORT_IGES
100
AcDbLine
 62
250
  6
CONTINUOUS
 10
-154.5791831864
 20
-36.9207021581
 11
-154.5791831864
 21
-35.279297842
  0
LINE
  5
4AD
100
AcDbEntity
  8
IMPORT_IGES
100
AcDbLine
 62
7
  6
CONTINUOUS
 10
-154.1053511645
 20
-35.2792978419
 11
-154.1053511645
 21
-36.9207021581
  0
LWPOLYLINE
  5
4AE
100
AcDbEntity
  8
0
100
AcDbPolyline
 62
7
  6
CONTINUOUS
 90
3
 70
0
 43
0.3500000006
 10
-132.2960251465
 20
75.0805401306
 10
-132.3674472656
 20
74.8662556458
 10
-132.5103096313
 20
74.580539978
  0
LINE
  5
4AF
100
AcDbEntity
  8
0
100
AcDbLine
 62
250
  6
CONTINUOUS
 10
-130.9474182178
 20
53.8313540167
 11
-130.5247999561
 21
54.7376618037
  0
LINE
  5
4B0
100
AcDbEntity
  8
IMPORT_IGES
100
AcDbLine
 62
250
  6
CONTINUOUS
 10
-142.0799078702
 20
21.5582796581
 11
-141.5401323496
 21
21.8241135959
  0
LINE
  5
4B1
100
AcDbEntity
  8
IMPORT_IGES
100
AcDbLine
 62
250
  6
CONTINUOUS
 10
-141.0901819469
 20
21.554543618
 11
-141.368008689
 21
21.4424463982
  0
LINE
  5
4B2
100
AcDbEntity
  8
0
100
AcDbLine
 62
250
  6
CONTINUOUS
 10
-130.9474182178
 20
-53.8313540167
 11
-130.5247999561
 21
-54.7376618037
  0
LINE
  5
4B3
100
AcDbEntity
  8
IMPORT_IGES
100
AcDbLine
 62
250
  6
CONTINUOUS
 10
-150.3879014162
 20
32.6923021094
 11
-150.3879014162
 21
46.4546883186
  0
LINE
  5
4B4
100
AcDbEntity
  8
IMPORT_IGES
100
AcDbLine
 62
7
  6
CONTINUOUS
 10
-150.2053511645
 20
31.513295872
 11
-150.2053511645
 21
31.7343642686
  0
LINE
  5
4B5
100
AcDbEntity
  8
IMPORT_IGES
100
AcDbLine
 62
7
  6
CONTINUOUS
 10
-150.2053511645
 20
46.3864681226
 11
-150.2053511645
 21
46.4925919858
  0
LINE
  5
4B6
100
AcDbEntity
  8
IMPORT_IGES
100
AcDbLine
 62
7
  6
CONTINUOUS
 10
-149.9053511645
 20
32.1926066959
 11
-149.9053511645
 21
45.9274359314
  0
LINE
  5
4B7
100
AcDbEntity
  8
IMPORT_IGES
100
AcDbLine
 62
250
  6
CONTINUOUS
 10
-149.6053511645
 20
41.45
 11
-149.6053511645
 21
36.15
  0
LINE
  5
4B8
100
AcDbEntity
  8
IMPORT_IGES
100
AcDbLine
 62
250
  6
CONTINUOUS
 10
-149.2053511645
 20
36.15
 11
-149.2053511645
 21
41.45
  0
LINE
  5
4B9
100
AcDbEntity
  8
IMPORT_IGES
100
AcDbLine
 62
7
  6
CONTINUOUS
 10
-148.9053511645
 20
41.9001364078
 11
-148.9053511645
 21
35.7001213327
  0
LINE
  5
4BA
100
AcDbEntity
  8
IMPORT_IGES
100
AcDbLine
 62
250
  6
CONTINUOUS
 10
-148.8053511645
 20
42.0
 11
-148.8053511645
 21
35.6
  0
LINE
  5
4BB
100
AcDbEntity
  8
IMPORT_IGES
100
AcDbLine
 62
7
  6
CONTINUOUS
 10
-149.6365153663
 20
50.2602287611
 11
-149.634794374
 21
50.5288426245
  0
LINE
  5
4BC
100
AcDbEntity
  8
IMPORT_IGES
100
AcDbLine
 62
7
  6
CONTINUOUS
 10
-148.6347940285
 20
50.5224356846
 11
-148.6649810441
 21
45.8108219614
  0
LINE
  5
4BD
100
AcDbEntity
  8
0
100
AcDbLine
 62
250
  6
CONTINUOUS
 10
-125.8125424654
 20
51.4369221296
 11
-125.3899242037
 21
52.3432299167
  0
LINE
  5
4BE
100
AcDbEntity
  8
IMPORT_IGES
100
AcDbLine
 62
7
  6
CONTINUOUS
 10
-108.6339882376
 20
-11.021002767
 11
-106.5188549844
 21
-10.6353496243
  0
LINE
  5
4BF
100
AcDbEntity
  8
0
100
AcDbLine
 62
7
  6
CONTINUOUS
 10
-106.5367923452
 20
-10.5369715216
 11
-107.0286828936
 21
-10.6266581338
  0
LINE
  5
4C0
100
AcDbEntity
  8
IMPORT_IGES
100
AcDbLine
 62
7
  6
CONTINUOUS
 10
-157.6053511645
 20
-16.8000000004
 11
-160.3232961117
 21
-16.8000000004
  0
LINE
  5
4C1
100
AcDbEntity
  8
0
100
AcDbLine
 62
7
  6
CONTINUOUS
 10
-127.5053511645
 20
-16.0
 11
-127.2053511645
 21
-16.0
  0
LINE
  5
4C2
100
AcDbEntity
  8
0
100
AcDbLine
 62
250
  6
CONTINUOUS
 10
-125.8125424654
 20
-51.4369221296
 11
-125.3899242037
 21
-52.3432299167
  0
LINE
  5
4C3
100
AcDbEntity
  8
IMPORT_IGES
100
AcDbLine
 62
7
  6
CONTINUOUS
 10
-150.3389331291
 20
50.2192129285
 11
-150.1131174174
 21
46.3519997817
  0
LINE
  5
4C4
100
AcDbEntity
  8
IMPORT_IGES
100
AcDbLine
 62
7
  6
CONTINUOUS
 10
-149.0890443523
 20
45.9692652093
 11
-149.3406127808
 21
50.2775072121
  0
LINE
  5
4C5
100
AcDbEntity
  8
IMPORT_IGES
100
AcDbLine
 62
250
  6
CONTINUOUS
 10
-148.0053511645
 20
42.0
 11
-148.0053511645
 21
35.6
  0
LINE
  5
4C6
100
AcDbEntity
  8
IMPORT_IGES
100
AcDbLine
 62
7
  6
CONTINUOUS
 10
-147.9053511645
 20
35.7000267567
 11
-147.9053511645
 21
41.8999516182
  0
LINE
  5
4C7
100
AcDbEntity
  8
IMPORT_IGES
100
AcDbLine
 62
7
  6
CONTINUOUS
 10
-147.7053511645
 20
37.8403409141
 11
-147.7053511645
 21
38.8218471718
  0
LINE
  5
4C8
100
AcDbEntity
  8
IMPORT_IGES
100
AcDbLine
 62
7
  6
CONTINUOUS
 10
-147.7053511645
 20
41.108474483
 11
-147.7053511645
 21
41.3
  0
LINE
  5
4C9
100
AcDbEntity
  8
IMPORT_IGES
100
AcDbLine
 62
250
  6
CONTINUOUS
 10
-147.0053511645
 20
36.300095442
 11
-147.0053511645
 21
37.8403409141
  0
LINE
  5
4CA
100
AcDbEntity
  8
IMPORT_IGES
100
AcDbLine
 62
250
  6
CONTINUOUS
 10
-147.0053511645
 20
38.8218471718
 11
-147.0053511645
 21
41.108474483
  0
LINE
  5
4CB
100
AcDbEntity
  8
IMPORT_IGES
100
AcDbLine
 62
7
  6
CONTINUOUS
 10
-146.9053511645
 20
36.4003571345
 11
-146.9053511645
 21
38.7585980903
  0
LINE
  5
4CC
100
AcDbEntity
  8
IMPORT_IGES
100
AcDbLine
 62
7
  6
CONTINUOUS
 10
-146.9053511645
 20
38.8414019097
 11
-146.9053511645
 21
41.1996428655
  0
LINE
  5
4CD
100
AcDbEntity
  8
IMPORT_IGES
100
AcDbLine
 62
250
  6
CONTINUOUS
 10
-146.6273648656
 20
13.3778932914
 11
-146.6257662159
 21
13.8748315967
  0
LINE
  5
4CE
100
AcDbEntity
  8
0
100
AcDbLine
 62
250
  6
CONTINUOUS
 10
-109.5030906885
 20
-5.4208765385
 11
-109.6497082228
 21
-5.450262176
  0
LINE
  5
4CF
100
AcDbEntity
  8
0
100
AcDbLine
 62
7
  6
CONTINUOUS
 10
-107.0286828936
 20
-10.6266581338
 11
-108.5278982171
 21
-10.7666143932
  0
LINE
  5
4D0
100
AcDbEntity
  8
0
100
AcDbLine
 62
7
  6
CONTINUOUS
 10
-127.2053511645
 20
-12.32356
 11
-127.9115014016
 21
-12.32356
  0
LINE
  5
4D1
100
AcDbEntity
  8
IMPORT_IGES
100
AcDbLine
 62
7
  6
CONTINUOUS
 10
-157.6053511645
 20
-11.8000000004
 11
-160.3232961117
 21
-11.8000000004
  0
LINE
  5
4D2
100
AcDbEntity
  8
IMPORT_IGES
100
AcDbLine
 62
7
  6
CONTINUOUS
 10
-140.5053511645
 20
39.5450298172
 11
-140.5053511645
 21
39.4554455508
  0
LINE
  5
4D3
100
AcDbEntity
  8
IMPORT_IGES
100
AcDbLine
 62
250
  6
CONTINUOUS
 10
-140.9878540832
 20
39.457472531
 11
-140.987847416
 21
39.5428877818
  0
LINE
  5
4D4
100
AcDbEntity
  8
0
100
AcDbLine
 62
7
  6
CONTINUOUS
 10
-108.8499756878
 20
-0.6377172235
 11
-110.3021134643
 21
-1.0358838043
  0
LINE
  5
4D5
100
AcDbEntity
  8
0
100
AcDbLine
 62
7
  6
CONTINUOUS
 10
-110.3856254132
 20
-1.4141067157
 11
-110.2385283409
 21
-1.3846249674
  0
LINE
  5
4D6
100
AcDbEntity
  8
IMPORT_IGES
100
AcDbLine
 62
7
  6
CONTINUOUS
 10
-115.0120317318
 20
-5.2736550644
 11
-112.794206659
 21
-4.8692771845
  0
LINE
  5
4D7
100
AcDbEntity
  8
IMPORT_IGES
100
AcDbLine
 62
7
  6
CONTINUOUS
 10
-112.5622277329
 20
-4.6045458778
 11
-115.4544625814
 21
-5.1318894498
  0
LINE
  5
4D8
100
AcDbEntity
  8
0
100
AcDbLine
 62
7
  6
CONTINUOUS
 10
-108.849974607
 20
-0.6377169273
 11
-108.3580842505
 21
-0.5480303501
  0
LINE
  5
4D9
100
AcDbEntity
  8
IMPORT_IGES
100
AcDbLine
 62
7
  6
CONTINUOUS
 10
-108.3787682562
 20
-0.4345881744
 11
-110.4939051887
 21
-0.8202436934
  0
LINE
  5
4DA
100
AcDbEntity
  8
0
100
AcDbLine
 62
250
  6
CONTINUOUS
 10
-125.6498821224
 20
-5.2121320344
 11
-128.2553511645
 21
-5.2121320344
  0
LINE
  5
4DB
100
AcDbEntity
  8
0
100
AcDbLine
 62
250
  6
CONTINUOUS
 10
-125.6498821224
 20
-4.7878679656
 11
-128.2553511645
 21
-4.7878679656
  0
LWPOLYLINE
  5
4DC
100
AcDbEntity
  8
0
100
AcDbPolyline
 62
7
  6
CONTINUOUS
 90
13
 70
0
 43
0.3500000006
 10
-136.7603063965
 20
83.6337920837
 10
-136.7603063965
 20
84.9195080566
 10
-136.5460219116
 20
85.3480770264
 10
-136.1174529419
 20
85.7766550598
 10
-135.903168457
 20
85.7766550598
 10
-135.4745904236
 20
85.3480770264
 10
-135.2603059387
 20
84.9195080566
 10
-135.2603059387
 20
83.6337920837
 10
-135.4745904236
 20
83.205223114
 10
-135.903168457
 20
82.7766541443
 10
-136.1174529419
 20
82.7766541443
 10
-136.5460219116
 20
83.205223114
 10
-136.7603063965
 20
83.6337920837
  0
LINE
  5
4DD
100
AcDbEntity
  8
IMPORT_IGES
100
AcDbLine
 62
250
  6
CONTINUOUS
 10
-136.5709380709
 20
45.2316338631
 11
-136.5709380709
 21
45.7229076688
  0
LINE
  5
4DE
100
AcDbEntity
  8
IMPORT_IGES
100
AcDbLine
 62
7
  6
CONTINUOUS
 10
-136.2053511645
 20
40.0229076688
 11
-136.2053511645
 21
45.7229076688
  0
LWPOLYLINE
  5
4DF
100
AcDbEntity
  8
0
100
AcDbPolyline
 62
7
  6
CONTINUOUS
 90
4
 70
0
 43
0.3500000006
 10
-135.3674481812
 20
77.1519719238
 10
-135.3674481812
 20
77.7948253784
 10
-133.8674477234
 20
77.7948253784
 10
-134.7245947266
 20
74.7948244629
  0
LINE
  5
4E0
100
AcDbEntity
  8
IMPORT_IGES
100
AcDbLine
 62
7
  6
CONTINUOUS
 10
-137.5707948476
 20
45.231633904
 11
-137.6673261652
 21
39.7013584197
  0
LINE
  5
4E1
100
AcDbEntity
  8
IMPORT_IGES
100
AcDbLine
 62
250
  6
CONTINUOUS
 10
-136.6832435577
 20
38.7976751172
 11
-136.5709417338
 21
45.2316338522
  0
LINE
  5
4E2
100
AcDbEntity
  8
IMPORT_IGES
100
AcDbLine
 62
7
  6
CONTINUOUS
 10
-136.0867135022
 20
40.0229076688
 11
-136.0326028009
 21
43.1229076688
  0
LINE
  5
4E3
100
AcDbEntity
  8
0
100
AcDbLine
 62
250
  6
CONTINUOUS
 10
-131.3950155519
 20
54.9824375394
 11
-131.5068425295
 21
53.9887098467
  0
LINE
  5
4E4
100
AcDbEntity
  8
IMPORT_IGES
100
AcDbLine
 62
250
  6
CONTINUOUS
 10
-115.7226124895
 20
-5.968748176
 11
-115.2801816399
 21
-6.1105137906
  0
LINE
  5
4E5
100
AcDbEntity
  8
IMPORT_IGES
100
AcDbLine
 62
250
  6
CONTINUOUS
 10
-141.3919324516
 20
27.5983995719
 11
-141.0331929673
 21
25.6308799263
  0
LINE
  5
4E6
100
AcDbEntity
  8
0
100
AcDbLine
 62
250
  6
CONTINUOUS
 10
-131.3950155519
 20
-54.9824375394
 11
-131.5068425295
 21
-53.9887098467
  0
LINE
  5
4E7
100
AcDbEntity
  8
IMPORT_IGES
100
AcDbLine
 62
7
  6
CONTINUOUS
 10
-132.0280995281
 20
43.1229076688
 11
-131.9739888268
 21
40.0229076688
  0
LINE
  5
4E8
100
AcDbEntity
  8
IMPORT_IGES
100
AcDbLine
 62
7
  6
CONTINUOUS
 10
-130.3716370614
 20
33.0017253068
 11
-130.450554593
 21
37.5229076688
  0
LINE
  5
4E9
100
AcDbEntity
  8
IMPORT_IGES
100
AcDbLine
 62
7
  6
CONTINUOUS
 10
-131.8553511645
 20
45.7229076688
 11
-131.8553511645
 21
40.0229076688
  0
LINE
  5
4EA
100
AcDbEntity
  8
IMPORT_IGES
100
AcDbLine
 62
7
  6
CONTINUOUS
 10
-131.8553511645
 20
37.5229076688
 11
-131.8553511645
 21
34.3642203356
  0
LINE
  5
4EB
100
AcDbEntity
  8
IMPORT_IGES
100
AcDbLine
 62
7
  6
CONTINUOUS
 10
-130.3353511645
 20
37.5229076688
 11
-130.3353511645
 21
42.6229076688
  0
LINE
  5
4EC
100
AcDbEntity
  8
0
100
AcDbLine
 62
250
  6
CONTINUOUS
 10
-126.5053511645
 20
6.347370081
 11
-126.7553511645
 21
5.9938166904
  0
LINE
  5
4ED
100
AcDbEntity
  8
0
100
AcDbLine
 62
250
  6
CONTINUOUS
 10
-125.3998821224
 20
5.5656854249
 11
-125.6498821224
 21
5.2121320344
  0
LINE
  5
4EE
100
AcDbEntity
  8
0
100
AcDbLine
 62
250
  6
CONTINUOUS
 10
-125.6498821224
 20
4.7878679656
 11
-126.7553511645
 21
4.0061833096
  0
LINE
  5
4EF
100
AcDbEntity
  8
0
100
AcDbLine
 62
250
  6
CONTINUOUS
 10
-125.3998821224
 20
4.4343145751
 11
-126.5053511645
 21
3.652629919
  0
LINE
  5
4F0
100
AcDbEntity
  8
0
100
AcDbLine
 62
250
  6
CONTINUOUS
 10
-125.6498821224
 20
4.7878679656
 11
-128.2553511645
 21
4.7878679656
  0
LINE
  5
4F1
100
AcDbEntity
  8
0
100
AcDbLine
 62
250
  6
CONTINUOUS
 10
-125.6498821224
 20
5.2121320344
 11
-128.2553511645
 21
5.2121320344
  0
LINE
  5
4F2
100
AcDbEntity
  8
IMPORT_IGES
100
AcDbLine
 62
250
  6
CONTINUOUS
 10
-115.0120317318
 20
-5.2736550644
 11
-115.4544625814
 21
-5.1318894498
  0
LINE
  5
4F3
100
AcDbEntity
  8
0
100
AcDbLine
 62
250
  6
CONTINUOUS
 10
-126.7553511645
 20
-4.0061833096
 11
-125.6498821224
 21
-4.7878679656
  0
LINE
  5
4F4
100
AcDbEntity
  8
0
100
AcDbLine
 62
250
  6
CONTINUOUS
 10
-126.5053511645
 20
-3.652629919
 11
-125.3998821224
 21
-4.4343145751
  0
LINE
  5
4F5
100
AcDbEntity
  8
0
100
AcDbLine
 62
250
  6
CONTINUOUS
 10
-126.5053511645
 20
-6.347370081
 11
-126.7553511645
 21
-5.9938166904
  0
LINE
  5
4F6
100
AcDbEntity
  8
0
100
AcDbLine
 62
250
  6
CONTINUOUS
 10
-125.3998821224
 20
-5.5656854249
 11
-125.6498821224
 21
-5.2121320344
  0
LINE
  5
4F7
100
AcDbEntity
  8
IMPORT_IGES
100
AcDbLine
 62
7
  6
CONTINUOUS
 10
-148.4066169537
 20
34.2730790396
 11
-142.9596660168
 21
23.2130511034
  0
LINE
  5
4F8
100
AcDbEntity
  8
IMPORT_IGES
100
AcDbLine
 62
250
  6
CONTINUOUS
 10
-142.5942599405
 20
22.7575483097
 11
-148.275155966
 21
34.2926014933
  0
LINE
  5
4F9
100
AcDbEntity
  8
IMPORT_IGES
100
AcDbLine
 62
250
  6
CONTINUOUS
 10
-143.8842783251
 20
26.0549542007
 11
-147.9639744257
 21
34.3388131286
  0
LINE
  5
4FA
100
AcDbEntity
  8
0
100
AcDbLine
 62
7
  6
CONTINUOUS
 10
-128.5053511645
 20
26.0768379631
 11
-128.5053511645
 21
17.0
  0
LINE
  5
4FB
100
AcDbEntity
  8
0
100
AcDbLine
 62
7
  6
CONTINUOUS
 10
-128.5053511645
 20
-17.0
 11
-128.5053511645
 21
-26.0768379631
  0
LINE
  5
4FC
100
AcDbEntity
  8
0
100
AcDbLine
 62
7
  6
CONTINUOUS
 10
-128.5053511645
 20
-12.2722346783
 11
-128.5053511645
 21
12.2722346783
  0
LINE
  5
4FD
100
AcDbEntity
  8
0
100
AcDbLine
 62
250
  6
CONTINUOUS
 10
-128.2553511645
 20
-5.9938166904
 11
-128.2553511645
 21
-5.2121320344
  0
LINE
  5
4FE
100
AcDbEntity
  8
0
100
AcDbLine
 62
250
  6
CONTINUOUS
 10
-128.2553511645
 20
-4.7878679656
 11
-128.2553511645
 21
-4.0061833096
  0
LINE
  5
4FF
100
AcDbEntity
  8
0
100
AcDbLine
 62
250
  6
CONTINUOUS
 10
-128.2553511645
 20
4.0061833096
 11
-128.2553511645
 21
4.7878679656
  0
LINE
  5
500
100
AcDbEntity
  8
0
100
AcDbLine
 62
250
  6
CONTINUOUS
 10
-128.2553511645
 20
5.2121320344
 11
-128.2553511645
 21
5.9938166904
  0
LINE
  5
501
100
AcDbEntity
  8
0
100
AcDbLine
 62
250
  6
CONTINUOUS
 10
-126.5053511645
 20
3.652629919
 11
-126.5053511645
 21
-3.652629919
  0
LINE
  5
502
100
AcDbEntity
  8
0
100
AcDbLine
 62
250
  6
CONTINUOUS
 10
-126.5053511645
 20
-12.6094171571
 11
-126.5053511645
 21
-6.347370081
  0
LINE
  5
503
100
AcDbEntity
  8
0
100
AcDbLine
 62
250
  6
CONTINUOUS
 10
-126.5053511645
 20
6.347370081
 11
-126.5053511645
 21
12.6094171571
  0
LINE
  5
504
100
AcDbEntity
  8
0
100
AcDbLine
 62
7
  6
CONTINUOUS
 10
-126.2053511645
 20
15.0
 11
-126.2053511645
 21
13.32356
  0
LINE
  5
505
100
AcDbEntity
  8
0
100
AcDbLine
 62
7
  6
CONTINUOUS
 10
-126.2053511645
 20
-13.32356
 11
-126.2053511645
 21
-15.0
  0
LINE
  5
506
100
AcDbEntity
  8
0
100
AcDbLine
 62
7
  6
CONTINUOUS
 10
-126.0553511645
 20
31.832047062
 11
-126.0553511645
 21
33.5226165617
  0
LINE
  5
507
100
AcDbEntity
  8
0
100
AcDbLine
 62
250
  6
CONTINUOUS
 10
-126.5053511645
 20
-3.652629919
 11
-126.7553511645
 21
-4.0061833096
  0
LINE
  5
508
100
AcDbEntity
  8
0
100
AcDbLine
 62
250
  6
CONTINUOUS
 10
-125.6498821224
 20
-5.2121320344
 11
-126.7553511645
 21
-5.9938166904
  0
LINE
  5
509
100
AcDbEntity
  8
0
100
AcDbLine
 62
250
  6
CONTINUOUS
 10
-125.3998821224
 20
-5.5656854249
 11
-126.5053511645
 21
-6.347370081
  0
LINE
  5
50A
100
AcDbEntity
  8
0
100
AcDbLine
 62
250
  6
CONTINUOUS
 10
-126.7553511645
 20
5.9938166904
 11
-125.6498821224
 21
5.2121320344
  0
LINE
  5
50B
100
AcDbEntity
  8
0
100
AcDbLine
 62
250
  6
CONTINUOUS
 10
-126.5053511645
 20
6.347370081
 11
-125.3998821224
 21
5.5656854249
  0
LINE
  5
50C
100
AcDbEntity
  8
IMPORT_IGES
100
AcDbLine
 62
7
  6
CONTINUOUS
 10
-115.7226124895
 20
-5.968748176
 11
-112.9930766448
 21
-8.7821392742
  0
LINE
  5
50D
100
AcDbEntity
  8
IMPORT_IGES
100
AcDbLine
 62
7
  6
CONTINUOUS
 10
-113.1871175041
 20
-8.2678798567
 11
-115.2801816399
 21
-6.1105137906
  0
LINE
  5
50E
100
AcDbEntity
  8
0
100
AcDbLine
 62
7
  6
CONTINUOUS
 10
-109.3244192044
 20
-17.1332454151
 11
-109.7972091582
 21
-16.5639742499
  0
LINE
  5
50F
100
AcDbEntity
  8
0
100
AcDbLine
 62
7
  6
CONTINUOUS
 10
-109.0262706073
 20
-15.9236959009
 11
-108.9480358439
 21
-16.0178958613
  0
LINE
  5
510
100
AcDbEntity
  8
0
100
AcDbLine
 62
7
  6
CONTINUOUS
 10
-108.6317154169
 20
-16.3987671057
 11
-108.5534806535
 21
-16.4929670661
  0
LINE
  5
511
100
AcDbEntity
  8
0
100
AcDbLine
 62
7
  6
CONTINUOUS
 10
-107.7331637118
 20
-17.2805748327
 11
-108.4263675416
 21
-16.445910414
  0
LINE
  5
512
100
AcDbEntity
  8
0
100
AcDbLine
 62
7
  6
CONTINUOUS
 10
-108.9566759109
 20
-15.807383176
 11
-109.6498797406
 21
-14.9727187573
  0
LINE
  5
513
100
AcDbEntity
  8
0
100
AcDbLine
 62
250
  6
CONTINUOUS
 10
-126.5053511645
 20
3.652629919
 11
-126.7553511645
 21
4.0061833096
  0
LINE
  5
514
100
AcDbEntity
  8
IMPORT_IGES
100
AcDbLine
 62
7
  6
CONTINUOUS
 10
-133.8317345752
 20
26.943927791
 11
-134.1904740594
 21
28.9114474366
  0
LINE
  5
515
100
AcDbEntity
  8
0
100
AcDbLine
 62
7
  6
CONTINUOUS
 10
-123.967862501
 20
25.1229076688
 11
-124.0553511645
 21
26.1229076688
  0
LINE
  5
516
100
AcDbEntity
  8
0
100
AcDbLine
 62
250
  6
CONTINUOUS
 10
-121.586359848
 20
-50.5
 11
-121.586359848
 21
-51.5
  0
LINE
  5
517
100
AcDbEntity
  8
0
100
AcDbLine
 62
250
  6
CONTINUOUS
 10
-121.586359848
 20
50.5
 11
-121.586359848
 21
51.5
  0
LINE
  5
518
100
AcDbEntity
  8
IMPORT_IGES
100
AcDbLine
 62
7
  6
CONTINUOUS
 10
-120.3754017639
 20
42.6229076688
 11
-120.3754017639
 21
37.5229076688
  0
LINE
  5
519
100
AcDbEntity
  8
IMPORT_IGES
100
AcDbLine
 62
7
  6
CONTINUOUS
 10
-120.2601983354
 20
37.5229076688
 11
-120.3203497058
 21
34.0768379631
  0
LINE
  5
51A
100
AcDbEntity
  8
0
100
AcDbLine
 62
250
  6
CONTINUOUS
 10
-125.3998821224
 20
-4.4343145751
 11
-125.6498821224
 21
-4.7878679656
  0
LINE
  5
51B
100
AcDbEntity
  8
0
100
AcDbLine
 62
7
  6
CONTINUOUS
 10
-127.2053511645
 20
12.32356
 11
-127.9115014016
 21
12.32356
  0
LINE
  5
51C
100
AcDbEntity
  8
0
100
AcDbLine
 62
7
  6
CONTINUOUS
 10
-109.0806085754
 20
-14.4999288035
 11
-108.3874047456
 21
-15.3345932222
  0
LINE
  5
51D
100
AcDbEntity
  8
0
100
AcDbLine
 62
7
  6
CONTINUOUS
 10
-107.8570963763
 20
-15.9731204602
 11
-107.1638925465
 21
-16.8077848789
  0
LINE
  5
51E
100
AcDbEntity
  8
0
100
AcDbLine
 62
7
  6
CONTINUOUS
 10
-107.7875016799
 20
-15.8568077353
 11
-107.8657364433
 21
-15.7626077749
  0
LINE
  5
51F
100
AcDbEntity
  8
0
100
AcDbLine
 62
7
  6
CONTINUOUS
 10
-108.1820568702
 20
-15.3817365304
 11
-108.2602916336
 21
-15.28753657
  0
LINE
  5
520
100
AcDbEntity
  8
0
100
AcDbLine
 62
7
  6
CONTINUOUS
 10
-107.4893530828
 20
-14.647258221
 11
-107.016563129
 21
-15.2165293863
  0
LINE
  5
521
100
AcDbEntity
  8
0
100
AcDbLine
 62
250
  6
CONTINUOUS
 10
-125.3998821224
 20
4.4343145751
 11
-125.6498821224
 21
4.7878679656
  0
LINE
  5
522
100
AcDbEntity
  8
IMPORT_IGES
100
AcDbLine
 62
7
  6
CONTINUOUS
 10
-124.6263100918
 20
24.0061499701
 11
-124.9051531189
 21
25.5354746139
  0
LINE
  5
523
100
AcDbEntity
  8
0
100
AcDbLine
 62
7
  6
CONTINUOUS
 10
-119.6053511645
 20
-50.5
 11
-119.6053511645
 21
-51.5
  0
LINE
  5
524
100
AcDbEntity
  8
0
100
AcDbLine
 62
7
  6
CONTINUOUS
 10
-119.6053511645
 20
50.5
 11
-119.6053511645
 21
51.5
  0
LINE
  5
525
100
AcDbEntity
  8
IMPORT_IGES
100
AcDbLine
 62
250
  6
CONTINUOUS
 10
-119.3754041222
 20
40.0229076705
 11
-119.375408839
 21
37.5229076546
  0
LINE
  5
526
100
AcDbEntity
  8
0
100
AcDbLine
 62
250
  6
CONTINUOUS
 10
-119.0053511645
 20
34.0768379631
 11
-119.0053511645
 21
-34.0768379631
  0
LINE
  5
527
100
AcDbEntity
  8
IMPORT_IGES
100
AcDbLine
 62
7
  6
CONTINUOUS
 10
-118.8553511645
 20
34.0768379631
 11
-118.8553511645
 21
37.5229076688
  0
LINE
  5
528
100
AcDbEntity
  8
IMPORT_IGES
100
AcDbLine
 62
7
  6
CONTINUOUS
 10
-118.8553511645
 20
40.0229076688
 11
-118.8553511645
 21
45.7229076688
  0
LINE
  5
529
100
AcDbEntity
  8
ASSI
100
AcDbLine
 62
7
  6
CONTINUOUS
 10
-118.5053511645
 20
-64.0
 11
-118.5053511645
 21
-58.0
  0
LINE
  5
52A
100
AcDbEntity
  8
0
100
AcDbLine
 62
7
  6
CONTINUOUS
 10
-118.5053511645
 20
-58.0
 11
-118.5053511645
 21
58.0
  0
LINE
  5
52B
100
AcDbEntity
  8
ASSI
100
AcDbLine
 62
7
  6
CONTINUOUS
 10
-118.5053511645
 20
58.0
 11
-118.5053511645
 21
64.0
  0
LINE
  5
52C
100
AcDbEntity
  8
0
100
AcDbLine
 62
250
  6
CONTINUOUS
 10
-117.7553511645
 20
-40.5612494996
 11
-117.7553511645
 21
-31.438771117
  0
LINE
  5
52D
100
AcDbEntity
  8
0
100
AcDbLine
 62
250
  6
CONTINUOUS
 10
-117.7553511645
 20
31.4386704797
 11
-117.7553511645
 21
40.5612288822
  0
LINE
  5
52E
100
AcDbEntity
  8
ASSI
100
AcDbLine
 62
7
  6
CONTINUOUS
 10
-117.5053511645
 20
-64.0
 11
-117.5053511645
 21
-41.5980762114
  0
LINE
  5
52F
100
AcDbEntity
  8
0
100
AcDbLine
 62
7
  6
CONTINUOUS
 10
-117.5053511645
 20
-30.4019237886
 11
-117.5053511645
 21
30.4019237886
  0
LINE
  5
530
100
AcDbEntity
  8
ASSI
100
AcDbLine
 62
7
  6
CONTINUOUS
 10
-117.5053511645
 20
41.5980762114
 11
-117.5053511645
 21
64.0
  0
LINE
  5
531
100
AcDbEntity
  8
0
100
AcDbLine
 62
7
  6
CONTINUOUS
 10
-117.0053511645
 20
39.0
 11
-117.0053511645
 21
33.0
  0
LINE
  5
532
100
AcDbEntity
  8
0
100
AcDbLine
 62
7
  6
CONTINUOUS
 10
-117.0053511645
 20
-33.0
 11
-117.0053511645
 21
-39.0
  0
LINE
  5
533
100
AcDbEntity
  8
0
100
AcDbLine
 62
7
  6
CONTINUOUS
 10
-116.0053511645
 20
-64.0
 11
-116.0053511645
 21
64.0
  0
LINE
  5
534
100
AcDbEntity
  8
IMPORT_IGES
100
AcDbLine
 62
7
  6
CONTINUOUS
 10
-115.9053511645
 20
29.1229076688
 11
-115.9053511645
 21
26.1229076688
  0
LINE
  5
535
100
AcDbEntity
  8
IMPORT_IGES
100
AcDbLine
 62
7
  6
CONTINUOUS
 10
-118.7367135022
 20
40.0229076688
 11
-118.6826028009
 21
43.1229076688
  0
LINE
  5
536
100
AcDbEntity
  8
0
100
AcDbLine
 62
7
  6
CONTINUOUS
 10
-127.5053511645
 20
16.0
 11
-127.2053511645
 21
16.0
  0
LINE
  5
537
100
AcDbEntity
  8
IMPORT_IGES
100
AcDbLine
 62
7
  6
CONTINUOUS
 10
-143.8842750686
 20
26.0549387071
 11
-142.2832982219
 21
24.8583665658
  0
LINE
  5
538
100
AcDbEntity
  8
IMPORT_IGES
100
AcDbLine
 62
250
  6
CONTINUOUS
 10
-113.1871175041
 20
-8.2678798567
 11
-112.9930766448
 21
-8.7821392742
  0
LINE
  5
539
100
AcDbEntity
  8
IMPORT_IGES
100
AcDbLine
 62
250
  6
CONTINUOUS
 10
-112.1380735244
 20
-8.4595286723
 11
-112.3321143837
 21
-7.9452692548
  0
LINE
  5
53A
100
AcDbEntity
  8
IMPORT_IGES
100
AcDbLine
 62
7
  6
CONTINUOUS
 10
-114.6780995281
 20
43.1229076688
 11
-114.6239888268
 21
40.0229076688
  0
LINE
  5
53B
100
AcDbEntity
  8
IMPORT_IGES
100
AcDbLine
 62
250
  6
CONTINUOUS
 10
-114.1397779137
 20
45.2316338785
 11
-114.0052128226
 21
37.5229076688
  0
LINE
  5
53C
100
AcDbEntity
  8
IMPORT_IGES
100
AcDbLine
 62
7
  6
CONTINUOUS
 10
-113.0053511645
 20
37.5229076688
 11
-113.1399074819
 21
45.2316339305
  0
LINE
  5
53D
100
AcDbEntity
  8
IMPORT_IGES
100
AcDbLine
 62
7
  6
CONTINUOUS
 10
-114.5053511645
 20
45.7229076688
 11
-114.5053511645
 21
40.0229076688
  0
LINE
  5
53E
100
AcDbEntity
  8
IMPORT_IGES
100
AcDbLine
 62
7
  6
CONTINUOUS
 10
-114.5053511645
 20
37.5229076688
 11
-114.5053511645
 21
29.9229076688
  0
LINE
  5
53F
100
AcDbEntity
  8
IMPORT_IGES
100
AcDbLine
 62
250
  6
CONTINUOUS
 10
-114.1397942826
 20
45.2316338648
 11
-114.1397942826
 21
45.7229076688
  0
LINE
  5
540
100
AcDbEntity
  8
IMPORT_IGES
100
AcDbLine
 62
250
  6
CONTINUOUS
 10
-114.1292690987
 20
29.9229076688
 11
-114.1292833997
 21
30.4141814783
  0
LINE
  5
541
100
AcDbEntity
  8
IMPORT_IGES
100
AcDbLine
 62
7
  6
CONTINUOUS
 10
-111.9553511645
 20
31.3229076688
 11
-111.9553511645
 21
38.7229076687
  0
LINE
  5
542
100
AcDbEntity
  8
IMPORT_IGES
100
AcDbLine
 62
250
  6
CONTINUOUS
 10
-114.0052112703
 20
37.5229076688
 11
-114.1292806083
 21
30.414181491
  0
LINE
  5
543
100
AcDbEntity
  8
IMPORT_IGES
100
AcDbLine
 62
7
  6
CONTINUOUS
 10
-113.1294344417
 20
30.4141814818
 11
-113.0053511645
 21
37.5229076688
  0
LINE
  5
544
100
AcDbEntity
  8
IMPORT_IGES
100
AcDbLine
 62
7
  6
CONTINUOUS
 10
-112.2073534466
 20
-5.3835253089
 11
-112.3321143837
 21
-7.9452692548
  0
LINE
  5
545
100
AcDbEntity
  8
IMPORT_IGES
100
AcDbLine
 62
7
  6
CONTINUOUS
 10
-112.1380735244
 20
-8.4595286722
 11
-111.9753745206
 21
-5.1187940021
  0
LINE
  5
546
100
AcDbEntity
  8
IMPORT_IGES
100
AcDbLine
 62
250
  6
CONTINUOUS
 10
-112.5622277329
 20
-4.6045458778
 11
-112.794206659
 21
-4.8692771845
  0
LINE
  5
547
100
AcDbEntity
  8
IMPORT_IGES
100
AcDbLine
 62
250
  6
CONTINUOUS
 10
-112.2073534466
 20
-5.3835253089
 11
-111.9753745206
 21
-5.1187940021
  0
LINE
  5
548
100
AcDbEntity
  8
IMPORT_IGES
100
AcDbLine
 62
250
  6
CONTINUOUS
 10
-141.0901819558
 20
21.554543645
 11
-128.5053511645
 21
23.8491462296
  0
LINE
  5
549
100
AcDbEntity
  8
IMPORT_IGES
100
AcDbLine
 62
250
  6
CONTINUOUS
 10
-124.9196586024
 20
24.5029285138
 11
-124.7234122522
 21
24.5387102728
  0
LINE
  5
54A
100
AcDbEntity
  8
IMPORT_IGES
100
AcDbLine
 62
250
  6
CONTINUOUS
 10
-142.5942599405
 20
22.7575483097
 11
-142.0653679361
 21
22.8539816379
  0
LINE
  5
54B
100
AcDbEntity
  8
IMPORT_IGES
100
AcDbLine
 62
250
  6
CONTINUOUS
 10
-160.6053511645
 20
23.1999999996
 11
-161.1053511645
 21
23.1999999996
  0
LINE
  5
54C
100
AcDbEntity
  8
IMPORT_IGES
100
AcDbLine
 62
7
  6
CONTINUOUS
 10
-110.4939051887
 20
-0.8202436934
 11
-108.6339882376
 21
-11.021002767
  0
LINE
  5
54D
100
AcDbEntity
  8
0
100
AcDbLine
 62
7
  6
CONTINUOUS
 10
-110.3463383481
 20
-0.7933377093
 11
-108.4864206412
 21
-10.9940967046
  0
LINE
  5
54E
100
AcDbEntity
  8
0
100
AcDbLine
 62
7
  6
CONTINUOUS
 10
-109.6498797406
 20
-14.9727187573
 11
-109.0806085754
 21
-14.4999288035
  0
LINE
  5
54F
100
AcDbEntity
  8
0
100
AcDbLine
 62
7
  6
CONTINUOUS
 10
-108.4403302264
 20
-15.2708673544
 11
-108.5345301868
 21
-15.3491021178
  0
LINE
  5
550
100
AcDbEntity
  8
0
100
AcDbLine
 62
7
  6
CONTINUOUS
 10
-108.9154014312
 20
-15.6654225447
 11
-109.0096013916
 21
-15.7436573081
  0
LINE
  5
551
100
AcDbEntity
  8
0
100
AcDbLine
 62
7
  6
CONTINUOUS
 10
-109.7972091582
 20
-16.5639742499
 11
-108.9625447395
 21
-15.8707704201
  0
LINE
  5
552
100
AcDbEntity
  8
0
100
AcDbLine
 62
7
  6
CONTINUOUS
 10
-108.3240175015
 20
-15.3404620508
 11
-107.4893530828
 21
-14.647258221
  0
LINE
  5
553
100
AcDbEntity
  8
IMPORT_IGES
100
AcDbLine
 62
7
  6
CONTINUOUS
 10
-128.2780459224
 20
27.9565364363
 11
-141.0331929673
 21
25.6308799263
  0
LINE
  5
554
100
AcDbEntity
  8
IMPORT_IGES
100
AcDbLine
 62
250
  6
CONTINUOUS
 10
-134.1904817917
 20
28.9114898446
 11
-141.3912478052
 21
27.5984805863
  0
LINE
  5
555
100
AcDbEntity
  8
0
100
AcDbLine
 62
250
  6
CONTINUOUS
 10
-122.0529338271
 20
24.6304706535
 11
-123.7682171431
 21
24.6304706535
  0
LINE
  5
556
100
AcDbEntity
  8
0
100
AcDbLine
 62
250
  6
CONTINUOUS
 10
-122.0211981193
 20
24.7961207387
 11
-123.8894519214
 21
24.7961207387
  0
LINE
  5
557
100
AcDbEntity
  8
0
100
AcDbLine
 62
7
  6
CONTINUOUS
 10
-123.9678360717
 20
25.1229076688
 11
-123.918608881
 21
25.1229076688
  0
LINE
  5
558
100
AcDbEntity
  8
IMPORT_IGES
100
AcDbLine
 62
7
  6
CONTINUOUS
 10
-155.9053511645
 20
26.1229076688
 11
-144.3927406923
 21
26.1229076688
  0
LINE
  5
559
100
AcDbEntity
  8
IMPORT_IGES
100
AcDbLine
 62
7
  6
CONTINUOUS
 10
-124.4960540006
 20
26.1229076688
 11
-122.5146483284
 21
26.1229076688
  0
LINE
  5
55A
100
AcDbEntity
  8
IMPORT_IGES
100
AcDbLine
 62
7
  6
CONTINUOUS
 10
-116.0053511645
 20
26.1229076688
 11
-115.9053511645
 21
26.1229076688
  0
LINE
  5
55B
100
AcDbEntity
  8
IMPORT_IGES
100
AcDbLine
 62
250
  6
CONTINUOUS
 10
-128.0234642181
 20
28.7950497218
 11
-134.1904817917
 21
28.9114898446
  0
LINE
  5
55C
100
AcDbEntity
  8
IMPORT_IGES
100
AcDbLine
 62
7
  6
CONTINUOUS
 10
-146.3847932363
 20
30.1677681867
 11
-149.826618977
 21
31.0282246219
  0
LINE
  5
55D
100
AcDbEntity
  8
IMPORT_IGES
100
AcDbLine
 62
250
  6
CONTINUOUS
 10
-141.7756753433
 20
43.0667546581
 11
-128.4320209318
 21
30.8132735037
  0
LINE
  5
55E
100
AcDbEntity
  8
IMPORT_IGES
100
AcDbLine
 62
7
  6
CONTINUOUS
 10
-141.5727536582
 20
43.2877134548
 11
-127.7732251144
 21
30.6156029717
  0
LINE
  5
55F
100
AcDbEntity
  8
0
100
AcDbLine
 62
7
  6
CONTINUOUS
 10
-107.5998850035
 20
-10.6799815687
 11
-107.5729790023
 21
-10.8275485033
  0
LINE
  5
560
100
AcDbEntity
  8
0
100
AcDbLine
 62
7
  6
CONTINUOUS
 10
-109.4328924626
 20
-0.6267879377
 11
-109.4032399404
 21
-0.7894186251
  0
LINE
  5
561
100
AcDbEntity
  8
IMPORT_IGES
100
AcDbLine
 62
7
  6
CONTINUOUS
 10
-108.9720111717
 20
2.8190740013
 11
-108.3787682562
 21
-0.4345881744
  0
LINE
  5
562
100
AcDbEntity
  8
0
100
AcDbLine
 62
7
  6
CONTINUOUS
 10
-108.3787682562
 20
-0.4345881744
 11
-106.5188549844
 21
-10.6353496243
  0
LINE
  5
563
100
AcDbEntity
  8
IMPORT_IGES
100
AcDbLine
 62
7
  6
CONTINUOUS
 10
-106.5188549844
 20
-10.6353496243
 11
-104.5581202582
 21
-21.3890699783
  0
LINE
  5
564
100
AcDbEntity
  8
0
100
AcDbLine
 62
7
  6
CONTINUOUS
 10
-107.016563129
 20
-15.2165293863
 11
-107.8512275477
 21
-15.9097332161
  0
LINE
  5
565
100
AcDbEntity
  8
0
100
AcDbLine
 62
7
  6
CONTINUOUS
 10
-108.4897547857
 20
-16.4400415854
 11
-109.3244192044
 21
-17.1332454151
  0
LINE
  5
566
100
AcDbEntity
  8
0
100
AcDbLine
 62
7
  6
CONTINUOUS
 10
-108.3734420608
 20
-16.5096362818
 11
-108.2792421004
 21
-16.4314015184
  0
LINE
  5
567
100
AcDbEntity
  8
0
100
AcDbLine
 62
7
  6
CONTINUOUS
 10
-107.8983708559
 20
-16.1150810914
 11
-107.8041708955
 21
-16.036846328
  0
LINE
  5
568
100
AcDbEntity
  8
0
100
AcDbLine
 62
7
  6
CONTINUOUS
 10
-107.1638925465
 20
-16.8077848789
 11
-107.7331637118
 21
-17.2805748327
  0
LINE
  5
569
100
AcDbEntity
  8
IMPORT_IGES
100
AcDbLine
 62
7
  6
CONTINUOUS
 10
-155.9053511645
 20
31.5002376915
 11
-150.3879014162
 21
31.6929112824
  0
LINE
  5
56A
100
AcDbEntity
  8
IMPORT_IGES
100
AcDbLine
 62
250
  6
CONTINUOUS
 10
-150.3879014162
 20
32.6923021094
 11
-155.9053511645
 21
32.4996285186
  0
LINE
  5
56B
100
AcDbEntity
  8
IMPORT_IGES
100
AcDbLine
 62
7
  6
CONTINUOUS
 10
-115.9053511645
 20
29.1229076688
 11
-116.0053511645
 21
29.1229076688
  0
LINE
  5
56C
100
AcDbEntity
  8
IMPORT_IGES
100
AcDbLine
 62
7
  6
CONTINUOUS
 10
-145.8702100897
 20
29.1229076688
 11
-155.9053509481
 21
29.1229076688
  0
LINE
  5
56D
100
AcDbEntity
  8
IMPORT_IGES
100
AcDbLine
 62
7
  6
CONTINUOUS
 10
-113.6293582773
 20
29.9229076688
 11
-116.0053511645
 21
29.9229076688
  0
LINE
  5
56E
100
AcDbEntity
  8
IMPORT_IGES
100
AcDbLine
 62
250
  6
CONTINUOUS
 10
-114.5053511645
 20
30.4141814656
 11
-114.1292806083
 21
30.414181491
  0
LINE
  5
56F
100
AcDbEntity
  8
IMPORT_IGES
100
AcDbLine
 62
7
  6
CONTINUOUS
 10
-126.8645704273
 20
30.9229076688
 11
-128.1078702349
 21
30.9229076688
  0
LINE
  5
570
100
AcDbEntity
  8
IMPORT_IGES
100
AcDbLine
 62
7
  6
CONTINUOUS
 10
-161.1053511645
 20
31.1999999996
 11
-160.6053511645
 21
31.1999999996
  0
LINE
  5
571
100
AcDbEntity
  8
IMPORT_IGES
100
AcDbLine
 62
7
  6
CONTINUOUS
 10
-111.9553511645
 20
31.3229076688
 11
-113.1135725671
 21
31.3229076688
  0
LINE
  5
572
100
AcDbEntity
  8
IMPORT_IGES
100
AcDbLine
 62
250
  6
CONTINUOUS
 10
-113.0961174285
 20
32.3229118892
 11
-111.9553511645
 21
32.3229118893
  0
LINE
  5
573
100
AcDbEntity
  8
IMPORT_IGES
100
AcDbLine
 62
250
  6
CONTINUOUS
 10
-150.3879014162
 20
32.6923021094
 11
-149.9053511645
 21
32.6923021094
  0
LINE
  5
574
100
AcDbEntity
  8
0
100
AcDbLine
 62
250
  6
CONTINUOUS
 10
-117.0053511645
 20
33.0
 11
-116.0053511645
 21
33.0
  0
LINE
  5
575
100
AcDbEntity
  8
IMPORT_IGES
100
AcDbLine
 62
7
  6
CONTINUOUS
 10
-127.7105396393
 20
29.5527497882
 11
-145.0859486181
 21
34.7662108426
  0
LINE
  5
576
100
AcDbEntity
  8
IMPORT_IGES
100
AcDbLine
 62
7
  6
CONTINUOUS
 10
-127.2021932811
 20
30.4442658695
 11
-143.207332241
 21
35.246579803
  0
LINE
  5
577
100
AcDbEntity
  8
IMPORT_IGES
100
AcDbLine
 62
7
  6
CONTINUOUS
 10
-104.5581202582
 20
-21.3890699783
 11
-105.5234091618
 21
-22.784855544
  0
LINE
  5
578
100
AcDbEntity
  8
0
100
AcDbLine
 62
250
  6
CONTINUOUS
 10
-118.2337410471
 20
-30.8838152728
 11
-117.5053511645
 21
-30.4019237886
  0
LINE
  5
579
100
AcDbEntity
  8
IMPORT_IGES
100
AcDbLine
 62
7
  6
CONTINUOUS
 10
-148.8154763379
 20
34.0349384104
 11
-149.9053511645
 21
33.8427640729
  0
LINE
  5
57A
100
AcDbEntity
  8
IMPORT_IGES
100
AcDbLine
 62
250
  6
CONTINUOUS
 10
-144.5714314057
 20
35.3455622835
 11
-149.905351164
 21
34.5534031953
  0
LINE
  5
57B
100
AcDbEntity
  8
IMPORT_IGES
100
AcDbLine
 62
7
  6
CONTINUOUS
 10
-149.9053511645
 20
34.0505113427
 11
-144.5149233295
 21
34.851010257
  0
LINE
  5
57C
100
AcDbEntity
  8
0
100
AcDbLine
 62
7
  6
CONTINUOUS
 10
-118.5053511645
 20
34.0768379631
 11
-120.5053511645
 21
34.0768379631
  0
LINE
  5
57D
100
AcDbEntity
  8
IMPORT_IGES
100
AcDbLine
 62
7
  6
CONTINUOUS
 10
-155.9053511645
 20
35.4
 11
-161.1053511645
 21
35.4
  0
LINE
  5
57E
100
AcDbEntity
  8
IMPORT_IGES
100
AcDbLine
 62
7
  6
CONTINUOUS
 10
-148.0053511645
 20
35.6
 11
-148.8053511645
 21
35.6
  0
LINE
  5
57F
100
AcDbEntity
  8
IMPORT_IGES
100
AcDbLine
 62
7
  6
CONTINUOUS
 10
-149.6053511645
 20
36.15
 11
-149.2053511645
 21
36.15
  0
LINE
  5
580
100
AcDbEntity
  8
IMPORT_IGES
100
AcDbLine
 62
7
  6
CONTINUOUS
 10
-147.0053511645
 20
36.3000954616
 11
-147.9053511645
 21
36.3
  0
LINE
  5
581
100
AcDbEntity
  8
IMPORT_IGES
100
AcDbLine
 62
250
  6
CONTINUOUS
 10
-161.1053511645
 20
36.4
 11
-155.9053511645
 21
36.4
  0
LINE
  5
582
100
AcDbEntity
  8
IMPORT_IGES
100
AcDbLine
 62
7
  6
CONTINUOUS
 10
-113.0053511648
 20
37.5229076688
 11
-116.0053511646
 21
37.5229076635
  0
LINE
  5
583
100
AcDbEntity
  8
IMPORT_IGES
100
AcDbLine
 62
7
  6
CONTINUOUS
 10
-118.5053511645
 20
37.5229076569
 11
-120.3754017639
 21
37.5229076688
  0
LINE
  5
584
100
AcDbEntity
  8
IMPORT_IGES
100
AcDbLine
 62
7
  6
CONTINUOUS
 10
-130.3353511645
 20
37.5229076688
 11
-135.295062024
 21
37.5229076707
  0
LINE
  5
585
100
AcDbEntity
  8
IMPORT_IGES
100
AcDbLine
 62
250
  6
CONTINUOUS
 10
-111.9553511645
 20
37.7228938125
 11
-113.0088417739
 21
37.7228845748
  0
LINE
  5
586
100
AcDbEntity
  8
IMPORT_IGES
100
AcDbLine
 62
7
  6
CONTINUOUS
 10
-147.7053511645
 20
37.8403409141
 11
-147.0053511645
 21
37.8403409141
  0
LINE
  5
587
100
AcDbEntity
  8
IMPORT_IGES
100
AcDbLine
 62
250
  6
CONTINUOUS
 10
-146.9053511645
 20
38.1752458324
 11
-147.7053511645
 21
38.1752458324
  0
LINE
  5
588
100
AcDbEntity
  8
IMPORT_IGES
100
AcDbLine
 62
7
  6
CONTINUOUS
 10
-147.7053511645
 20
38.1789445809
 11
-146.9053511645
 21
38.1789445809
  0
LINE
  5
589
100
AcDbEntity
  8
IMPORT_IGES
100
AcDbLine
 62
250
  6
CONTINUOUS
 10
-146.9053511645
 20
38.2086606473
 11
-147.7053511645
 21
38.2086606473
  0
LINE
  5
58A
100
AcDbEntity
  8
IMPORT_IGES
100
AcDbLine
 62
250
  6
CONTINUOUS
 10
-149.9053511645
 20
45.7471038176
 11
-143.7178174173
 21
43.4347434881
  0
LINE
  5
58B
100
AcDbEntity
  8
IMPORT_IGES
100
AcDbLine
 62
7
  6
CONTINUOUS
 10
-143.5599904426
 20
43.9030543387
 11
-152.9053511645
 21
47.395475383
  0
LINE
  5
58C
100
AcDbEntity
  8
0
100
AcDbLine
 62
250
  6
CONTINUOUS
 10
-118.2337410471
 20
30.8838152728
 11
-117.5053511645
 21
30.4019237886
  0
LWPOLYLINE
  5
58D
100
AcDbEntity
  8
0
100
AcDbPolyline
 62
7
  6
CONTINUOUS
 90
10
 70
0
 43
0.3500000006
 10
-132.3674472656
 20
75.2948246155
 10
-132.2960251465
 20
75.1519713135
 10
-132.2960251465
 20
75.0805401306
 10
-132.4388784485
 20
74.9376868286
 10
-132.5103096313
 20
74.9376868286
 10
-132.5817317505
 20
75.0091180115
 10
-132.5817317505
 20
75.0805401306
 10
-132.5103096313
 20
75.2234024963
 10
-132.4388784485
 20
75.2948246155
 10
-132.3674472656
 20
75.2948246155
  0
LWPOLYLINE
  5
58E
100
AcDbEntity
  8
0
100
AcDbPolyline
 62
7
  6
CONTINUOUS
 90
10
 70
0
 43
0.3500000006
 10
-133.760305481
 20
83.2766542969
 10
-133.6888742981
 20
83.1337919312
 10
-133.6888742981
 20
83.062369812
 10
-133.8317366638
 20
82.9195074463
 10
-133.9031678467
 20
82.9195074463
 10
-133.9745899658
 20
82.9909386292
 10
-133.9745899658
 20
83.062369812
 10
-133.9031678467
 20
83.205223114
 10
-133.8317366638
 20
83.2766542969
 10
-133.760305481
 20
83.2766542969
  0
LINE
  5
58F
100
AcDbEntity
  8
IMPORT_IGES
100
AcDbLine
 62
250
  6
CONTINUOUS
 10
-147.7053511645
 20
38.4432479099
 11
-146.9053511645
 21
38.4432479099
  0
LINE
  5
590
100
AcDbEntity
  8
IMPORT_IGES
100
AcDbLine
 62
7
  6
CONTINUOUS
 10
-113.0262972352
 20
38.7229076688
 11
-111.9553511645
 21
38.7229076688
  0
LINE
  5
591
100
AcDbEntity
  8
IMPORT_IGES
100
AcDbLine
 62
7
  6
CONTINUOUS
 10
-147.0053511645
 20
38.7781528282
 11
-147.7053511645
 21
38.7781528282
  0
LINE
  5
592
100
AcDbEntity
  8
IMPORT_IGES
100
AcDbLine
 62
7
  6
CONTINUOUS
 10
-147.0053511645
 20
38.8218471718
 11
-147.7053511645
 21
38.8218471718
  0
LINE
  5
593
100
AcDbEntity
  8
0
100
AcDbLine
 62
250
  6
CONTINUOUS
 10
-117.0053511645
 20
39.0
 11
-116.0053511645
 21
39.0
  0
LINE
  5
594
100
AcDbEntity
  8
IMPORT_IGES
100
AcDbLine
 62
7
  6
CONTINUOUS
 10
-113.0489888266
 20
40.0229076688
 11
-116.0053511645
 21
40.0229076688
  0
LINE
  5
595
100
AcDbEntity
  8
IMPORT_IGES
100
AcDbLine
 62
7
  6
CONTINUOUS
 10
-118.5053511645
 20
40.0229076688
 11
-120.3754017639
 21
40.0229076688
  0
LINE
  5
596
100
AcDbEntity
  8
IMPORT_IGES
100
AcDbLine
 62
7
  6
CONTINUOUS
 10
-131.8553511645
 20
40.0229076688
 11
-136.2053511645
 21
40.0229076688
  0
LINE
  5
597
100
AcDbEntity
  8
IMPORT_IGES
100
AcDbLine
 62
7
  6
CONTINUOUS
 10
-136.0849679957
 20
40.1229076688
 11
-131.9757343333
 21
40.1229076688
  0
LINE
  5
598
100
AcDbEntity
  8
IMPORT_IGES
100
AcDbLine
 62
7
  6
CONTINUOUS
 10
-118.7349679957
 20
40.1229076688
 11
-118.5053511645
 21
40.1229076688
  0
LINE
  5
599
100
AcDbEntity
  8
IMPORT_IGES
100
AcDbLine
 62
7
  6
CONTINUOUS
 10
-116.0053511645
 20
40.1229076688
 11
-114.6257343333
 21
40.1229076688
  0
LINE
  5
59A
100
AcDbEntity
  8
IMPORT_IGES
100
AcDbLine
 62
7
  6
CONTINUOUS
 10
-136.0744949567
 20
40.7229076688
 11
-131.9862073723
 21
40.7229076688
  0
LINE
  5
59B
100
AcDbEntity
  8
IMPORT_IGES
100
AcDbLine
 62
7
  6
CONTINUOUS
 10
-118.7244949567
 20
40.7229076688
 11
-118.5053511645
 21
40.7229076688
  0
LINE
  5
59C
100
AcDbEntity
  8
IMPORT_IGES
100
AcDbLine
 62
7
  6
CONTINUOUS
 10
-116.0053511645
 20
40.7229076688
 11
-114.6362073723
 21
40.7229076688
  0
LINE
  5
59D
100
AcDbEntity
  8
IMPORT_IGES
100
AcDbLine
 62
7
  6
CONTINUOUS
 10
-147.7053511645
 20
41.108474483
 11
-147.0053511645
 21
41.108474483
  0
LINE
  5
59E
100
AcDbEntity
  8
IMPORT_IGES
100
AcDbLine
 62
7
  6
CONTINUOUS
 10
-147.0053511645
 20
41.2999045384
 11
-147.9053511645
 21
41.3
  0
LINE
  5
59F
100
AcDbEntity
  8
IMPORT_IGES
100
AcDbLine
 62
7
  6
CONTINUOUS
 10
-149.6053511645
 20
41.45
 11
-149.2053511645
 21
41.45
  0
LINE
  5
5A0
100
AcDbEntity
  8
IMPORT_IGES
100
AcDbLine
 62
250
  6
CONTINUOUS
 10
-155.9053511645
 20
41.6
 11
-161.1053511645
 21
41.6
  0
LINE
  5
5A1
100
AcDbEntity
  8
IMPORT_IGES
100
AcDbLine
 62
7
  6
CONTINUOUS
 10
-148.0053511645
 20
42.0
 11
-148.8053511645
 21
42.0
  0
LINE
  5
5A2
100
AcDbEntity
  8
IMPORT_IGES
100
AcDbLine
 62
7
  6
CONTINUOUS
 10
-161.1053511645
 20
42.6
 11
-155.9053511645
 21
42.6
  0
LINE
  5
5A3
100
AcDbEntity
  8
IMPORT_IGES
100
AcDbLine
 62
7
  6
CONTINUOUS
 10
-130.3353511645
 20
42.6229076688
 11
-120.3754017639
 21
42.6229076688
  0
LINE
  5
5A4
100
AcDbEntity
  8
IMPORT_IGES
100
AcDbLine
 62
7
  6
CONTINUOUS
 10
-152.9053511645
 20
47.3954753831
 11
-150.2053511645
 21
46.4925919858
  0
LINE
  5
5A5
100
AcDbEntity
  8
IMPORT_IGES
100
AcDbLine
 62
7
  6
CONTINUOUS
 10
-136.0326028009
 20
43.1229076688
 11
-132.0280995281
 21
43.1229076688
  0
LINE
  5
5A6
100
AcDbEntity
  8
IMPORT_IGES
100
AcDbLine
 62
7
  6
CONTINUOUS
 10
-114.6780995281
 20
43.1229076688
 11
-116.0053511645
 21
43.1229076688
  0
LINE
  5
5A7
100
AcDbEntity
  8
IMPORT_IGES
100
AcDbLine
 62
7
  6
CONTINUOUS
 10
-118.5053511645
 20
43.1229076688
 11
-118.6826028009
 21
43.1229076688
  0
LINE
  5
5A8
100
AcDbEntity
  8
IMPORT_IGES
100
AcDbLine
 62
7
  6
CONTINUOUS
 10
-114.5053511645
 20
43.2229076688
 11
-116.0053511645
 21
43.2229076688
  0
LINE
  5
5A9
100
AcDbEntity
  8
IMPORT_IGES
100
AcDbLine
 62
7
  6
CONTINUOUS
 10
-118.5053511645
 20
43.2229076688
 11
-118.8553511645
 21
43.2229076688
  0
LINE
  5
5AA
100
AcDbEntity
  8
IMPORT_IGES
100
AcDbLine
 62
7
  6
CONTINUOUS
 10
-131.8553511645
 20
43.2229076688
 11
-136.2053511645
 21
43.2229076688
  0
LINE
  5
5AB
100
AcDbEntity
  8
IMPORT_IGES
100
AcDbLine
 62
250
  6
CONTINUOUS
 10
-149.9053511645
 20
43.5002376915
 11
-155.9053511645
 21
43.5002376915
  0
LINE
  5
5AC
100
AcDbEntity
  8
IMPORT_IGES
100
AcDbLine
 62
250
  6
CONTINUOUS
 10
-114.1397779137
 20
45.2316338785
 11
-114.5053511645
 21
45.2316338511
  0
LINE
  5
5AD
100
AcDbEntity
  8
IMPORT_IGES
100
AcDbLine
 62
250
  6
CONTINUOUS
 10
-118.8553511645
 20
45.231633872
 11
-131.8553511645
 21
45.231633872
  0
LINE
  5
5AE
100
AcDbEntity
  8
IMPORT_IGES
100
AcDbLine
 62
250
  6
CONTINUOUS
 10
-136.2053511645
 20
45.2316338741
 11
-136.5709417338
 21
45.2316338522
  0
LINE
  5
5AF
100
AcDbEntity
  8
IMPORT_IGES
100
AcDbLine
 62
7
  6
CONTINUOUS
 10
-116.0053511645
 20
45.7229076688
 11
-113.6398313706
 21
45.7229076688
  0
LINE
  5
5B0
100
AcDbEntity
  8
IMPORT_IGES
100
AcDbLine
 62
7
  6
CONTINUOUS
 10
-118.5053511645
 20
45.7229076688
 11
-137.0708708856
 21
45.7229076688
  0
LINE
  5
5B1
100
AcDbEntity
  8
IMPORT_IGES
100
AcDbLine
 62
7
  6
CONTINUOUS
 10
-155.9053511645
 20
47.5002376915
 11
-152.9053511644
 21
47.3954753831
  0
LINE
  5
5B2
100
AcDbEntity
  8
0
100
AcDbLine
 62
7
  6
CONTINUOUS
 10
-125.8125424654
 20
-51.4369221296
 11
-130.9474182178
 21
-53.8313540167
  0
LINE
  5
5B3
100
AcDbEntity
  8
0
100
AcDbLine
 62
7
  6
CONTINUOUS
 10
-125.3899242037
 20
-52.3432299167
 11
-130.5247999561
 21
-54.7376618037
  0
LINE
  5
5B4
100
AcDbEntity
  8
IMPORT_IGES
100
AcDbLine
 62
7
  6
CONTINUOUS
 10
-149.3406157111
 20
50.277507041
 11
-150.3389301975
 21
50.2192130997
  0
LINE
  5
5B5
100
AcDbEntity
  8
0
100
AcDbLine
 62
250
  6
CONTINUOUS
 10
-117.5053511645
 20
48.0
 11
-116.0053511645
 21
48.0
  0
LINE
  5
5B6
100
AcDbEntity
  8
0
100
AcDbLine
 62
7
  6
CONTINUOUS
 10
-119.6053511645
 20
50.5
 11
-121.586359848
 21
50.5
  0
LINE
  5
5B7
100
AcDbEntity
  8
0
100
AcDbLine
 62
7
  6
CONTINUOUS
 10
-119.6053511645
 20
51.5
 11
-121.586359848
 21
51.5
  0
LINE
  5
5B8
100
AcDbEntity
  8
IMPORT_IGES
100
AcDbLine
 62
7
  6
CONTINUOUS
 10
-148.6347940279
 20
50.5224356846
 11
-149.6347943738
 21
50.5288426245
  0
LINE
  5
5B9
100
AcDbEntity
  8
0
100
AcDbLine
 62
7
  6
CONTINUOUS
 10
-134.5038067621
 20
52.3555555556
 11
-133.5053511645
 21
52.3
  0
LINE
  5
5BA
100
AcDbEntity
  8
0
100
AcDbLine
 62
7
  6
CONTINUOUS
 10
-125.8125424654
 20
51.4369221296
 11
-130.9474182178
 21
53.8313540167
  0
LINE
  5
5BB
100
AcDbEntity
  8
0
100
AcDbLine
 62
7
  6
CONTINUOUS
 10
-125.3899242037
 20
52.3432299167
 11
-130.5247999561
 21
54.7376618037
  0
LINE
  5
5BC
100
AcDbEntity
  8
IMPORT_IGES
100
AcDbLine
 62
250
  6
CONTINUOUS
 10
-161.1053511645
 20
55.0
 11
-165.1053511645
 21
55.0
  0
LINE
  5
5BD
100
AcDbEntity
  8
ASSI
100
AcDbLine
 62
250
  6
CONTINUOUS
 10
-118.5053511645
 20
58.0
 11
-117.5053511645
 21
58.0
  0
LINE
  5
5BE
100
AcDbEntity
  8
IMPORT_IGES
100
AcDbLine
 62
7
  6
CONTINUOUS
 10
-162.1053511645
 20
59.8
 11
-161.1053511645
 21
59.8
  0
LINE
  5
5BF
100
AcDbEntity
  8
IMPORT_IGES
100
AcDbLine
 62
7
  6
CONTINUOUS
 10
-164.1053511645
 20
60.0
 11
-162.1053511645
 21
60.0
  0
LINE
  5
5C0
100
AcDbEntity
  8
ASSI
100
AcDbLine
 62
7
  6
CONTINUOUS
 10
-118.5053511645
 20
64.0
 11
-117.5053511645
 21
64.0
  0
LINE
  5
5C1
100
AcDbEntity
  8
0
100
AcDbLine
 62
7
  6
CONTINUOUS
 10
-116.0053511645
 20
64.0
 11
-117.5053511645
 21
64.0
  0
LWPOLYLINE
  5
5C2
100
AcDbEntity
  8
0
100
AcDbPolyline
 62
7
  6
CONTINUOUS
 90
8
 70
0
 43
0.3500000006
 10
-137.5103111572
 20
74.7948244629
 10
-136.6531641541
 20
74.7948244629
 10
-136.2245951843
 20
75.2234024963
 10
-136.2245951843
 20
76.0805404358
 10
-136.6531641541
 20
76.5091184692
 10
-137.5103111572
 20
76.5091184692
 10
-137.5103111572
 20
77.7948253784
 10
-136.2245951843
 20
77.7948253784
  0
LWPOLYLINE
  5
5C3
100
AcDbEntity
  8
0
100
AcDbPolyline
 62
7
  6
CONTINUOUS
 90
8
 70
0
 43
0.3500000006
 10
-131.2960248413
 20
74.7948244629
 10
-130.4388778381
 20
74.7948244629
 10
-130.0103088684
 20
75.2234024963
 10
-130.0103088684
 20
76.0805404358
 10
-130.4388778381
 20
76.5091184692
 10
-131.2960248413
 20
76.5091184692
 10
-131.2960248413
 20
77.7948253784
 10
-130.0103088684
 20
77.7948253784
  0
LWPOLYLINE
  5
5C4
100
AcDbEntity
  8
0
100
AcDbPolyline
 62
7
  6
CONTINUOUS
 90
8
 70
0
 43
0.3500000006
 10
-132.6888830566
 20
82.7766541443
 10
-131.8317360535
 20
82.7766541443
 10
-131.4031670837
 20
83.205223114
 10
-131.4031670837
 20
84.0623701172
 10
-131.8317360535
 20
84.4909390869
 10
-132.6888830566
 20
84.4909390869
 10
-132.6888830566
 20
85.7766550598
 10
-131.4031670837
 20
85.7766550598
  0
ARC
  5
5C5
100
AcDbEntity
  8
0
100
AcDbCircle
 62
250
  6
CONTINUOUS
 10
48.0
 20
-48.0
 40
13.1224989992
100
AcDbArc
 50
336.1969043705
 51
360.0
  0
ARC
  5
5C6
100
AcDbEntity
  8
0
100
AcDbCircle
 62
250
  6
CONTINUOUS
 10
48.0
 20
-48.0
 40
13.1224989992
100
AcDbArc
 50
270.0
 51
293.8031218082
  0
ARC
  5
5C7
100
AcDbEntity
  8
0
100
AcDbCircle
 62
250
  6
CONTINUOUS
 10
-48.0
 20
-48.0
 40
13.1224989992
100
AcDbArc
 50
246.1969043702
 51
270.0
  0
ARC
  5
5C8
100
AcDbEntity
  8
0
100
AcDbCircle
 62
250
  6
CONTINUOUS
 10
-48.0
 20
-48.0
 40
13.1224989992
100
AcDbArc
 50
180.0
 51
203.8031218082
  0
ARC
  5
5C9
100
AcDbEntity
  8
ASSI
100
AcDbCircle
 62
7
  6
CONTINUOUS
 10
-58.0
 20
-58.0
 40
6.0
100
AcDbArc
 50
180.0
 51
270.0
  0
ARC
  5
5CA
100
AcDbEntity
  8
IMPORT_IGES
100
AcDbCircle
 62
7
  6
CONTINUOUS
 10
-43.1
 20
-31.8
 40
5.0
100
AcDbArc
 50
180.0
 51
270.0
  0
ARC
  5
5CB
100
AcDbEntity
  8
IMPORT_IGES
100
AcDbCircle
 62
7
  6
CONTINUOUS
 10
43.1
 20
-31.8
 40
5.0
100
AcDbArc
 50
270.0
 51
360.0
  0
ARC
  5
5CC
100
AcDbEntity
  8
IMPORT_IGES
100
AcDbCircle
 62
7
  6
CONTINUOUS
 10
-55.0
 20
-55.0
 40
5.0
100
AcDbArc
 50
180.0
 51
270.0
  0
ARC
  5
5CD
100
AcDbEntity
  8
IMPORT_IGES
100
AcDbCircle
 62
7
  6
CONTINUOUS
 10
43.0999999998
 20
-31.8000000002
 40
4.8
100
AcDbArc
 50
270.0
 51
360.0
  0
ARC
  5
5CE
100
AcDbEntity
  8
IMPORT_IGES
100
AcDbCircle
 62
7
  6
CONTINUOUS
 10
-43.1000000002
 20
-31.8000000002
 40
4.8
100
AcDbArc
 50
180.0
 51
270.0
  0
ARC
  5
5CF
100
AcDbEntity
  8
IMPORT_IGES
100
AcDbCircle
 62
250
  6
CONTINUOUS
 10
-55.0
 20
-55.0
 40
4.0
100
AcDbArc
 50
180.0
 51
270.0
  0
ARC
  5
5D0
100
AcDbEntity
  8
IMPORT_IGES
100
AcDbCircle
 62
7
  6
CONTINUOUS
 10
12.0
 20
-41.8
 40
3.0
100
AcDbArc
 50
0.0
 51
90.0
  0
ARC
  5
5D1
100
AcDbEntity
  8
IMPORT_IGES
100
AcDbCircle
 62
7
  6
CONTINUOUS
 10
-12.0
 20
-41.8
 40
3.0
100
AcDbArc
 50
90.0
 51
180.0
  0
ARC
  5
5D2
100
AcDbEntity
  8
IMPORT_IGES
100
AcDbCircle
 62
7
  6
CONTINUOUS
 10
-12.0
 20
-41.7
 40
2.8
100
AcDbArc
 50
90.0
 51
180.0
  0
ARC
  5
5D3
100
AcDbEntity
  8
IMPORT_IGES
100
AcDbCircle
 62
7
  6
CONTINUOUS
 10
12.0
 20
-41.7
 40
2.8
100
AcDbArc
 50
0.0
 51
90.0
  0
ARC
  5
5D4
100
AcDbEntity
  8
0
100
AcDbCircle
 62
7
  6
CONTINUOUS
 10
-59.0
 20
-59.0
 40
1.5
100
AcDbArc
 50
101.8962227794
 51
348.0756869298
  0
ARC
  5
5D5
100
AcDbEntity
  8
IMPORT_IGES
100
AcDbCircle
 62
7
  6
CONTINUOUS
 10
3.0
 20
-39.8
 40
1.0
100
AcDbArc
 50
64.1580672368
 51
90.0
  0
ARC
  5
5D6
100
AcDbEntity
  8
IMPORT_IGES
100
AcDbCircle
 62
7
  6
CONTINUOUS
 10
-3.0
 20
-39.8
 40
1.0
100
AcDbArc
 50
90.0
 51
115.8419327632
  0
ARC
  5
5D7
100
AcDbEntity
  8
0
100
AcDbCircle
 62
7
  6
CONTINUOUS
 10
-61.2
 20
-34.5
 40
1.0
100
AcDbArc
 50
90.0
 51
180.0
  0
ARC
  5
5D8
100
AcDbEntity
  8
0
100
AcDbCircle
 62
7
  6
CONTINUOUS
 10
-61.2
 20
-37.5
 40
1.0
100
AcDbArc
 50
180.0
 51
270.0
  0
ARC
  5
5D9
100
AcDbEntity
  8
0
100
AcDbCircle
 62
7
  6
CONTINUOUS
 10
37.5
 20
-61.2
 40
1.0
100
AcDbArc
 50
270.0
 51
360.0
  0
ARC
  5
5DA
100
AcDbEntity
  8
0
100
AcDbCircle
 62
7
  6
CONTINUOUS
 10
34.5
 20
-61.2
 40
1.0
100
AcDbArc
 50
180.0
 51
270.0
  0
ARC
  5
5DB
100
AcDbEntity
  8
0
100
AcDbCircle
 62
7
  6
CONTINUOUS
 10
-34.5
 20
-61.2
 40
1.0
100
AcDbArc
 50
270.0
 51
360.0
  0
ARC
  5
5DC
100
AcDbEntity
  8
0
100
AcDbCircle
 62
7
  6
CONTINUOUS
 10
-37.5
 20
-61.2
 40
1.0
100
AcDbArc
 50
180.0
 51
270.0
  0
ARC
  5
5DD
100
AcDbEntity
  8
0
100
AcDbCircle
 62
250
  6
CONTINUOUS
 10
-48.0
 20
48.0
 40
13.1224989992
100
AcDbArc
 50
156.1968783872
 51
180.0
  0
ARC
  5
5DE
100
AcDbEntity
  8
0
100
AcDbCircle
 62
250
  6
CONTINUOUS
 10
-48.0
 20
48.0
 40
13.1224989992
100
AcDbArc
 50
90.0
 51
113.8030958239
  0
ARC
  5
5DF
100
AcDbEntity
  8
0
100
AcDbCircle
 62
250
  6
CONTINUOUS
 10
48.0
 20
48.0
 40
13.1224989992
100
AcDbArc
 50
66.1968783872
 51
90.0
  0
ARC
  5
5E0
100
AcDbEntity
  8
0
100
AcDbCircle
 62
250
  6
CONTINUOUS
 10
48.0
 20
48.0
 40
13.1224989992
100
AcDbArc
 50
0.0
 51
23.8030958236
  0
ARC
  5
5E1
100
AcDbEntity
  8
ASSI
100
AcDbCircle
 62
7
  6
CONTINUOUS
 10
-58.0
 20
58.0
 40
6.0
100
AcDbArc
 50
90.0
 51
180.0
  0
ARC
  5
5E2
100
AcDbEntity
  8
IMPORT_IGES
100
AcDbCircle
 62
7
  6
CONTINUOUS
 10
43.1
 20
23.2
 40
5.0
100
AcDbArc
 50
0.0
 51
19.9484435886
  0
ARC
  5
5E3
100
AcDbEntity
  8
IMPORT_IGES
100
AcDbCircle
 62
7
  6
CONTINUOUS
 10
-55.0
 20
55.0
 40
5.0
100
AcDbArc
 50
90.0
 51
180.0
  0
ARC
  5
5E4
100
AcDbEntity
  8
IMPORT_IGES
100
AcDbCircle
 62
7
  6
CONTINUOUS
 10
43.1
 20
23.2
 40
5.0
100
AcDbArc
 50
19.9614718023
 51
90.0
  0
ARC
  5
5E5
100
AcDbEntity
  8
IMPORT_IGES
100
AcDbCircle
 62
7
  6
CONTINUOUS
 10
-43.1
 20
23.2
 40
5.0
100
AcDbArc
 50
90.0
 51
180.0
  0
ARC
  5
5E6
100
AcDbEntity
  8
IMPORT_IGES
100
AcDbCircle
 62
7
  6
CONTINUOUS
 10
-43.1000000002
 20
23.1999999998
 40
4.8
100
AcDbArc
 50
90.0
 51
179.9999999999
  0
ARC
  5
5E7
100
AcDbEntity
  8
IMPORT_IGES
100
AcDbCircle
 62
7
  6
CONTINUOUS
 10
43.0999999998
 20
23.1999999998
 40
4.8
100
AcDbArc
 50
0.0
 51
90.0
  0
ARC
  5
5E8
100
AcDbEntity
  8
IMPORT_IGES
100
AcDbCircle
 62
250
  6
CONTINUOUS
 10
-55.0
 20
55.0
 40
4.0
100
AcDbArc
 50
90.0
 51
180.0
  0
ARC
  5
5E9
100
AcDbEntity
  8
0
100
AcDbCircle
 62
7
  6
CONTINUOUS
 10
-59.0
 20
59.0
 40
1.5
100
AcDbArc
 50
11.9243130702
 51
258.1037772206
  0
ARC
  5
5EA
100
AcDbEntity
  8
0
100
AcDbCircle
 62
7
  6
CONTINUOUS
 10
-61.2
 20
37.5
 40
1.0
100
AcDbArc
 50
90.0
 51
180.0
  0
ARC
  5
5EB
100
AcDbEntity
  8
0
100
AcDbCircle
 62
7
  6
CONTINUOUS
 10
-61.2
 20
34.5
 40
1.0
100
AcDbArc
 50
180.0
 51
270.0
  0
ARC
  5
5EC
100
AcDbEntity
  8
0
100
AcDbCircle
 62
7
  6
CONTINUOUS
 10
-34.5
 20
61.2
 40
1.0
100
AcDbArc
 50
0.0
 51
90.0
  0
ARC
  5
5ED
100
AcDbEntity
  8
0
100
AcDbCircle
 62
7
  6
CONTINUOUS
 10
-37.5
 20
61.2
 40
1.0
100
AcDbArc
 50
90.0
 51
180.0
  0
ARC
  5
5EE
100
AcDbEntity
  8
0
100
AcDbCircle
 62
7
  6
CONTINUOUS
 10
34.5
 20
61.2
 40
1.0
100
AcDbArc
 50
90.0
 51
180.0
  0
ARC
  5
5EF
100
AcDbEntity
  8
0
100
AcDbCircle
 62
7
  6
CONTINUOUS
 10
37.5
 20
61.2
 40
1.0
100
AcDbArc
 50
0.0
 51
90.0
  0
ARC
  5
5F0
100
AcDbEntity
  8
ASSI
100
AcDbCircle
 62
7
  6
CONTINUOUS
 10
58.0
 20
-58.0
 40
6.0
100
AcDbArc
 50
270.0
 51
360.0
  0
ARC
  5
5F1
100
AcDbEntity
  8
IMPORT_IGES
100
AcDbCircle
 62
7
  6
CONTINUOUS
 10
55.0
 20
-55.0
 40
5.0
100
AcDbArc
 50
270.0
 51
360.0
  0
ARC
  5
5F2
100
AcDbEntity
  8
IMPORT_IGES
100
AcDbCircle
 62
250
  6
CONTINUOUS
 10
55.0
 20
-55.0
 40
4.0
100
AcDbArc
 50
270.0
 51
360.0
  0
ARC
  5
5F3
100
AcDbEntity
  8
0
100
AcDbCircle
 62
7
  6
CONTINUOUS
 10
59.0
 20
-59.0
 40
1.5
100
AcDbArc
 50
191.9243130707
 51
78.1037772198
  0
ARC
  5
5F4
100
AcDbEntity
  8
0
100
AcDbCircle
 62
7
  6
CONTINUOUS
 10
61.2
 20
-34.5
 40
1.0
100
AcDbArc
 50
0.0
 51
90.0
  0
ARC
  5
5F5
100
AcDbEntity
  8
0
100
AcDbCircle
 62
7
  6
CONTINUOUS
 10
61.2
 20
-37.5
 40
1.0
100
AcDbArc
 50
270.0
 51
360.0
  0
ARC
  5
5F6
100
AcDbEntity
  8
IMPORT_IGES
100
AcDbCircle
 62
7
  6
CONTINUOUS
 10
169.0207933757
 20
25.2380125775
 40
121.2208465344
100
AcDbArc
 50
179.8444672716
 51
180.0127406391
  0
ARC
  5
5F7
100
AcDbEntity
  8
ASSI
100
AcDbCircle
 62
7
  6
CONTINUOUS
 10
58.0
 20
58.0
 40
6.0
100
AcDbArc
 50
0.0
 51
90.0
  0
ARC
  5
5F8
100
AcDbEntity
  8
IMPORT_IGES
100
AcDbCircle
 62
7
  6
CONTINUOUS
 10
55.0
 20
55.0
 40
5.0
100
AcDbArc
 50
0.0
 51
90.0
  0
ARC
  5
5F9
100
AcDbEntity
  8
IMPORT_IGES
100
AcDbCircle
 62
250
  6
CONTINUOUS
 10
55.0
 20
55.0
 40
4.0
100
AcDbArc
 50
0.0
 51
90.0
  0
ARC
  5
5FA
100
AcDbEntity
  8
0
100
AcDbCircle
 62
7
  6
CONTINUOUS
 10
59.0
 20
59.0
 40
1.5
100
AcDbArc
 50
281.8962227803
 51
168.0756869293
  0
ARC
  5
5FB
100
AcDbEntity
  8
0
100
AcDbCircle
 62
7
  6
CONTINUOUS
 10
61.2
 20
37.5
 40
1.0
100
AcDbArc
 50
0.0
 51
90.0
  0
ARC
  5
5FC
100
AcDbEntity
  8
0
100
AcDbCircle
 62
7
  6
CONTINUOUS
 10
61.2
 20
34.5
 40
1.0
100
AcDbArc
 50
270.0
 51
360.0
  0
ARC
  5
5FD
100
AcDbEntity
  8
IMPORT_IGES
100
AcDbCircle
 62
250
  6
CONTINUOUS
 10
-213.89909334
 20
-12.476674904
 40
80.3857956095
100
AcDbArc
 50
25.389737394
 51
26.2752395693
  0
ARC
  5
5FE
100
AcDbEntity
  8
IMPORT_IGES
100
AcDbCircle
 62
250
  6
CONTINUOUS
 10
-201.6556247786
 20
-8.1860908506
 40
67.1899153721
100
AcDbArc
 50
26.5287892713
 51
27.5146311905
  0
ARC
  5
5FF
100
AcDbEntity
  8
IMPORT_IGES
100
AcDbCircle
 62
7
  6
CONTINUOUS
 10
-164.1053511645
 20
-59.0
 40
1.0
100
AcDbArc
 50
180.0
 51
270.0
  0
ARC
  5
600
100
AcDbEntity
  8
IMPORT_IGES
100
AcDbCircle
 62
7
  6
CONTINUOUS
 10
-164.1053511645
 20
59.0
 40
1.0
100
AcDbArc
 50
90.0
 51
180.0
  0
ARC
  5
601
100
AcDbEntity
  8
IMPORT_IGES
100
AcDbCircle
 62
7
  6
CONTINUOUS
 10
-154.6053511645
 20
-36.9207021581
 40
0.5
100
AcDbArc
 50
273.000000001
 51
360.0
  0
ARC
  5
602
100
AcDbEntity
  8
IMPORT_IGES
100
AcDbCircle
 62
7
  6
CONTINUOUS
 10
-159.3497343812
 20
-28.4749875593
 40
2.65
100
AcDbArc
 50
241.7091253343
 51
118.2907254388
  0
ARC
  5
603
100
AcDbEntity
  8
IMPORT_IGES
100
AcDbCircle
 62
7
  6
CONTINUOUS
 10
-159.3497343812
 20
-28.4749875593
 40
2.6000000001
100
AcDbArc
 50
241.1151169996
 51
118.8853744838
  0
ARC
  5
604
100
AcDbEntity
  8
IMPORT_IGES
100
AcDbCircle
 62
7
  6
CONTINUOUS
 10
-159.3497343812
 20
-28.4749875593
 40
1.4000000011
100
AcDbArc
 50
206.1967008599
 51
153.8032991401
  0
CIRCLE
  5
605
100
AcDbEntity
  8
IMPORT_IGES
100
AcDbCircle
 62
7
  6
CONTINUOUS
 10
-159.5713270002
 20
-28.4749875592
 40
1.0
  0
ARC
  5
606
100
AcDbEntity
  8
IMPORT_IGES
100
AcDbCircle
 62
7
  6
CONTINUOUS
 10
-158.5389440457
 20
-29.3001141355
 40
0.6
100
AcDbArc
 50
95.6767754496
 51
100.333276393
  0
ARC
  5
607
100
AcDbEntity
  8
IMPORT_IGES
100
AcDbCircle
 62
7
  6
CONTINUOUS
 10
-154.6053511645
 20
-35.279297842
 40
0.5
100
AcDbArc
 50
0.0000000009
 51
87.0000172837
  0
ARC
  5
608
100
AcDbEntity
  8
0
100
AcDbCircle
 62
7
  6
CONTINUOUS
 10
-121.586359848
 20
-60.5
 40
10.0
100
AcDbArc
 50
90.0
 51
115.0
  0
ARC
  5
609
100
AcDbEntity
  8
0
100
AcDbCircle
 62
7
  6
CONTINUOUS
 10
-121.586359848
 20
-60.5
 40
9.0
100
AcDbArc
 50
90.0
 51
115.0
  0
ARC
  5
60A
100
AcDbEntity
  8
0
100
AcDbCircle
 62
7
  6
CONTINUOUS
 10
-119.0053511645
 20
-58.0
 40
3.0
100
AcDbArc
 50
300.0
 51
360.0
  0
ARC
  5
60B
100
AcDbEntity
  8
0
100
AcDbCircle
 62
7
  6
CONTINUOUS
 10
-119.0053511645
 20
-39.0
 40
3.0
100
AcDbArc
 50
300.0
 51
360.0
  0
ARC
  5
60C
100
AcDbEntity
  8
0
100
AcDbCircle
 62
7
  6
CONTINUOUS
 10
-131.708131089
 20
-52.2
 40
2.8
100
AcDbArc
 50
183.1847385367
 51
295.0
  0
ARC
  5
60D
100
AcDbEntity
  8
0
100
AcDbCircle
 62
7
  6
CONTINUOUS
 10
-119.6053511645
 20
-52.6
 40
2.1
100
AcDbArc
 50
58.3745486262
 51
90.0
  0
ARC
  5
60E
100
AcDbEntity
  8
0
100
AcDbCircle
 62
7
  6
CONTINUOUS
 10
-116.5053511645
 20
-42.1224989992
 40
2.0
100
AcDbArc
 50
128.6821874535
 51
180.0
  0
ARC
  5
60F
100
AcDbEntity
  8
0
100
AcDbCircle
 62
7
  6
CONTINUOUS
 10
-119.0053511645
 20
-39.0
 40
2.0
100
AcDbArc
 50
308.6821874535
 51
360.0
  0
ARC
  5
610
100
AcDbEntity
  8
0
100
AcDbCircle
 62
7
  6
CONTINUOUS
 10
-131.708131089
 20
-52.2
 40
1.8
100
AcDbArc
 50
183.1847385367
 51
295.0
  0
ARC
  5
611
100
AcDbEntity
  8
0
100
AcDbCircle
 62
7
  6
CONTINUOUS
 10
-119.6053511645
 20
-52.6
 40
1.1
100
AcDbArc
 50
0.0
 51
90.0
  0
ARC
  5
612
100
AcDbEntity
  8
0
100
AcDbCircle
 62
7
  6
CONTINUOUS
 10
-120.5053511645
 20
-26.0768379631
 40
8.0
100
AcDbArc
 50
180.0
 51
270.0
  0
ARC
  5
613
100
AcDbEntity
  8
0
100
AcDbCircle
 62
7
  6
CONTINUOUS
 10
-119.0053511645
 20
-33.0
 40
3.0
100
AcDbArc
 50
0.0
 51
60.0
  0
CIRCLE
  5
614
100
AcDbEntity
  8
0
100
AcDbCircle
 62
7
  6
CONTINUOUS
 10
-108.4068861436
 20
-15.8902518181
 40
2.75
  0
CIRCLE
  5
615
100
AcDbEntity
  8
IMPORT_IGES
100
AcDbCircle
 62
7
  6
CONTINUOUS
 10
-108.4068861436
 20
-15.8902518181
 40
2.65
  0
ARC
  5
616
100
AcDbEntity
  8
0
100
AcDbCircle
 62
7
  6
CONTINUOUS
 10
-116.5053511645
 20
-29.8775010008
 40
2.0
100
AcDbArc
 50
180.0
 51
231.3178125465
  0
ARC
  5
617
100
AcDbEntity
  8
0
100
AcDbCircle
 62
7
  6
CONTINUOUS
 10
-119.0053511645
 20
-33.0
 40
2.0
100
AcDbArc
 50
0.0
 51
51.3178125465
  0
CIRCLE
  5
618
100
AcDbEntity
  8
0
100
AcDbCircle
 62
7
  6
CONTINUOUS
 10
-123.5053511645
 20
-25.0
 40
1.5
  0
ARC
  5
619
100
AcDbEntity
  8
0
100
AcDbCircle
 62
7
  6
CONTINUOUS
 10
-127.5053511645
 20
-17.0
 40
1.0
100
AcDbArc
 50
90.0
 51
180.0
  0
ARC
  5
61A
100
AcDbEntity
  8
0
100
AcDbCircle
 62
7
  6
CONTINUOUS
 10
-127.2053511645
 20
-15.0
 40
1.0
100
AcDbArc
 50
270.0
 51
360.0
  0
ARC
  5
61B
100
AcDbEntity
  8
0
100
AcDbCircle
 62
7
  6
CONTINUOUS
 10
-127.2053511645
 20
-13.32356
 40
1.0
100
AcDbArc
 50
0.0
 51
90.0
  0
ARC
  5
61C
100
AcDbEntity
  8
0
100
AcDbCircle
 62
7
  6
CONTINUOUS
 10
-108.4068861436
 20
-15.8902518181
 40
0.696552892
100
AcDbArc
 50
161.7959482269
 51
187.6245358281
  0
ARC
  5
61D
100
AcDbEntity
  8
0
100
AcDbCircle
 62
7
  6
CONTINUOUS
 10
-108.4068861436
 20
-15.8902518181
 40
0.696552892
100
AcDbArc
 50
251.7959482269
 51
277.6245358281
  0
ARC
  5
61E
100
AcDbEntity
  8
0
100
AcDbCircle
 62
7
  6
CONTINUOUS
 10
-108.4068861436
 20
-15.8902518181
 40
0.696552892
100
AcDbArc
 50
341.7959482269
 51
7.6245358281
  0
ARC
  5
61F
100
AcDbEntity
  8
0
100
AcDbCircle
 62
7
  6
CONTINUOUS
 10
-108.4068861436
 20
-15.8902518181
 40
0.696552892
100
AcDbArc
 50
71.7959482269
 51
97.6245358281
  0
CIRCLE
  5
620
100
AcDbEntity
  8
0
100
AcDbCircle
 62
7
  6
CONTINUOUS
 10
-108.4068861436
 20
-15.8902518181
 40
0.5559999999
  0
ARC
  5
621
100
AcDbEntity
  8
IMPORT_IGES
100
AcDbCircle
 62
250
  6
CONTINUOUS
 10
-147.0267226057
 20
19.2614629971
 40
6.3640193029
100
AcDbArc
 50
21.1198245175
 51
25.3939748045
  0
ARC
  5
622
100
AcDbEntity
  8
IMPORT_IGES
100
AcDbCircle
 62
250
  6
CONTINUOUS
 10
-146.6082229613
 20
19.3281306687
 40
5.9502681669
100
AcDbArc
 50
269.8156802031
 51
21.9730348532
  0
ARC
  5
623
100
AcDbEntity
  8
IMPORT_IGES
100
AcDbCircle
 62
7
  6
CONTINUOUS
 10
-147.2338362615
 20
19.0781845
 40
5.8842916163
100
AcDbArc
 50
2.4353674346
 51
6.1158098426
  0
ARC
  5
624
100
AcDbEntity
  8
IMPORT_IGES
100
AcDbCircle
 62
250
  6
CONTINUOUS
 10
-146.6082229613
 20
19.3281306687
 40
5.6506793065
100
AcDbArc
 50
269.8156802032
 51
21.9730345782
  0
ARC
  5
625
100
AcDbEntity
  8
IMPORT_IGES
100
AcDbCircle
 62
7
  6
CONTINUOUS
 10
-146.6082229613
 20
19.3281306687
 40
5.4533272902
100
AcDbArc
 50
269.8156802039
 51
339.6406780652
  0
ARC
  5
626
100
AcDbEntity
  8
IMPORT_IGES
100
AcDbCircle
 62
250
  6
CONTINUOUS
 10
-146.2049288596
 20
19.4907455341
 40
5.2158348655
100
AcDbArc
 50
21.9741121888
 51
26.5745805956
  0
CIRCLE
  5
627
100
AcDbEntity
  8
IMPORT_IGES
100
AcDbCircle
 62
7
  6
CONTINUOUS
 10
-156.9470488317
 20
10.3281597701
 40
2.65
  0
CIRCLE
  5
628
100
AcDbEntity
  8
IMPORT_IGES
100
AcDbCircle
 62
7
  6
CONTINUOUS
 10
-156.9470488317
 20
10.3281597701
 40
2.6
  0
ARC
  5
629
100
AcDbEntity
  8
IMPORT_IGES
100
AcDbCircle
 62
250
  6
CONTINUOUS
 10
-140.2214221055
 20
23.8080841617
 40
2.0761618078
100
AcDbArc
 50
182.0837616578
 51
207.3581472888
  0
CIRCLE
  5
62A
100
AcDbEntity
  8
IMPORT_IGES
100
AcDbCircle
 62
7
  6
CONTINUOUS
 10
-156.9470488317
 20
10.3281597701
 40
1.4000000011
  0
ARC
  5
62B
100
AcDbEntity
  8
IMPORT_IGES
100
AcDbCircle
 62
250
  6
CONTINUOUS
 10
-140.5670093991
 20
24.3510612192
 40
1.3426824059
100
AcDbArc
 50
100.3419520435
 51
110.0017438644
  0
CIRCLE
  5
62C
100
AcDbEntity
  8
IMPORT_IGES
100
AcDbCircle
 62
7
  6
CONTINUOUS
 10
-156.9845992267
 20
10.3281597698
 40
1.25
  0
ARC
  5
62D
100
AcDbEntity
  8
IMPORT_IGES
100
AcDbCircle
 62
250
  6
CONTINUOUS
 10
-146.5635069146
 20
33.2280587431
 40
19.8502681669
100
AcDbArc
 50
224.9760942287
 51
269.8156802031
  0
ARC
  5
62E
100
AcDbEntity
  8
IMPORT_IGES
100
AcDbCircle
 62
250
  6
CONTINUOUS
 10
-146.5635069146
 20
33.2280587431
 40
19.5506793065
100
AcDbArc
 50
224.0844135884
 51
269.8156802032
  0
ARC
  5
62F
100
AcDbEntity
  8
IMPORT_IGES
100
AcDbCircle
 62
7
  6
CONTINUOUS
 10
-146.5635069146
 20
33.2280587431
 40
19.3533272902
100
AcDbArc
 50
243.8054191448
 51
269.8156802034
  0
ARC
  5
630
100
AcDbEntity
  8
IMPORT_IGES
100
AcDbCircle
 62
7
  6
CONTINUOUS
 10
-146.5635069146
 20
33.2280587431
 40
18.9
100
AcDbArc
 50
222.0130083228
 51
243.127365393
  0
ARC
  5
631
100
AcDbEntity
  8
IMPORT_IGES
100
AcDbCircle
 62
7
  6
CONTINUOUS
 10
-150.4053511645
 20
32.1926066959
 40
0.5
100
AcDbArc
 50
272.000000001
 51
360.0
  0
ARC
  5
632
100
AcDbEntity
  8
IMPORT_IGES
100
AcDbCircle
 62
7
  6
CONTINUOUS
 10
-149.7053511645
 20
31.513295872
 40
0.5
100
AcDbArc
 50
180.0
 51
255.9637565329
  0
ARC
  5
633
100
AcDbEntity
  8
IMPORT_IGES
100
AcDbCircle
 62
7
  6
CONTINUOUS
 10
-149.6053511645
 20
36.45
 40
0.3
100
AcDbArc
 50
180.0
 51
270.0
  0
ARC
  5
634
100
AcDbEntity
  8
IMPORT_IGES
100
AcDbCircle
 62
7
  6
CONTINUOUS
 10
-149.2053511645
 20
36.45
 40
0.3
100
AcDbArc
 50
270.0
 51
360.0
  0
ARC
  5
635
100
AcDbEntity
  8
IMPORT_IGES
100
AcDbCircle
 62
7
  6
CONTINUOUS
 10
-148.8053511645
 20
35.7
 40
0.1
100
AcDbArc
 50
180.0
 51
270.0
  0
ARC
  5
636
100
AcDbEntity
  8
IMPORT_IGES
100
AcDbCircle
 62
7
  6
CONTINUOUS
 10
-148.0053511645
 20
35.7
 40
0.1
100
AcDbArc
 50
270.0
 51
360.0
  0
ARC
  5
637
100
AcDbEntity
  8
IMPORT_IGES
100
AcDbCircle
 62
7
  6
CONTINUOUS
 10
-145.2053511645
 20
39.5002376915
 40
6.55
100
AcDbArc
 50
10.6835714412
 51
113.6457906933
  0
ARC
  5
638
100
AcDbEntity
  8
IMPORT_IGES
100
AcDbCircle
 62
7
  6
CONTINUOUS
 10
-145.2053511645
 20
39.5002376915
 40
6.55
100
AcDbArc
 50
234.3108239094
 51
243.9274697883
  0
ARC
  5
639
100
AcDbEntity
  8
IMPORT_IGES
100
AcDbCircle
 62
7
  6
CONTINUOUS
 10
-145.1237391495
 20
39.4208022791
 40
5.25
100
AcDbArc
 50
47.438733861
 51
94.7913242391
  0
ARC
  5
63A
100
AcDbEntity
  8
IMPORT_IGES
100
AcDbCircle
 62
250
  6
CONTINUOUS
 10
-145.1237391495
 20
39.4208022791
 40
4.95
100
AcDbArc
 50
47.4388631717
 51
85.9787602951
  0
ARC
  5
63B
100
AcDbEntity
  8
IMPORT_IGES
100
AcDbCircle
 62
7
  6
CONTINUOUS
 10
-145.2053511645
 20
39.5002376915
 40
4.7002134349
100
AcDbArc
 50
0.5460259977
 51
69.5089625794
  0
ARC
  5
63C
100
AcDbEntity
  8
IMPORT_IGES
100
AcDbCircle
 62
7
  6
CONTINUOUS
 10
-145.2053511645
 20
39.5002376915
 40
4.7002134349
100
AcDbArc
 50
278.4469064492
 51
359.4539737963
  0
ARC
  5
63D
100
AcDbEntity
  8
IMPORT_IGES
100
AcDbCircle
 62
250
  6
CONTINUOUS
 10
-145.1874032887
 20
39.5006099427
 40
4.1997158706
100
AcDbArc
 50
0.5767895443
 51
69.5169499141
  0
ARC
  5
63E
100
AcDbEntity
  8
IMPORT_IGES
100
AcDbCircle
 62
7
  6
CONTINUOUS
 10
-145.2053511645
 20
39.5002376915
 40
2.15
100
AcDbArc
 50
217.8581088498
 51
142.2529726364
  0
ARC
  5
63F
100
AcDbEntity
  8
IMPORT_IGES
100
AcDbCircle
 62
7
  6
CONTINUOUS
 10
-145.2053511645
 20
39.5002376915
 40
2.15
100
AcDbArc
 50
198.399169197
 51
199.6280423801
  0
ARC
  5
640
100
AcDbEntity
  8
IMPORT_IGES
100
AcDbCircle
 62
7
  6
CONTINUOUS
 10
-145.2053511645
 20
39.5002376915
 40
2.1
100
AcDbArc
 50
215.9245239978
 51
144.0764383084
  0
ARC
  5
641
100
AcDbEntity
  8
IMPORT_IGES
100
AcDbCircle
 62
7
  6
CONTINUOUS
 10
-145.2053511645
 20
39.5002376915
 40
2.1
100
AcDbArc
 50
198.849342761
 51
200.1169397031
  0
ARC
  5
642
100
AcDbEntity
  8
IMPORT_IGES
100
AcDbCircle
 62
7
  6
CONTINUOUS
 10
-150.4053511645
 20
45.9274359314
 40
0.5
100
AcDbArc
 50
0.0
 51
69.5089627706
  0
ARC
  5
643
100
AcDbEntity
  8
IMPORT_IGES
100
AcDbCircle
 62
7
  6
CONTINUOUS
 10
-149.6053511645
 20
41.15
 40
0.3
100
AcDbArc
 50
90.0
 51
180.0
  0
ARC
  5
644
100
AcDbEntity
  8
IMPORT_IGES
100
AcDbCircle
 62
7
  6
CONTINUOUS
 10
-149.2053511645
 20
41.15
 40
0.3
100
AcDbArc
 50
0.0
 51
90.0
  0
ARC
  5
645
100
AcDbEntity
  8
IMPORT_IGES
100
AcDbCircle
 62
7
  6
CONTINUOUS
 10
-148.8053511645
 20
41.9
 40
0.1
100
AcDbArc
 50
90.0
 51
179.8072780933
  0
ARC
  5
646
100
AcDbEntity
  8
IMPORT_IGES
100
AcDbCircle
 62
7
  6
CONTINUOUS
 10
-148.0053511645
 20
41.9
 40
0.1
100
AcDbArc
 50
0.008293835
 51
90.0
  0
ARC
  5
647
100
AcDbEntity
  8
IMPORT_IGES
100
AcDbCircle
 62
7
  6
CONTINUOUS
 10
-137.0709200157
 20
45.2229089328
 40
0.4999448487
100
AcDbArc
 50
89.9999052312
 51
179.0000431263
  0
ARC
  5
648
100
AcDbEntity
  8
IMPORT_IGES
100
AcDbCircle
 62
7
  6
CONTINUOUS
 10
-113.0201164584
 20
16.1011236769
 40
10.0
100
AcDbArc
 50
252.6279347864
 51
270.4623867877
  0
ARC
  5
649
100
AcDbEntity
  8
0
100
AcDbCircle
 62
7
  6
CONTINUOUS
 10
-120.5053511645
 20
26.0768379631
 40
8.0
100
AcDbArc
 50
90.0
 51
180.0
  0
ARC
  5
64A
100
AcDbEntity
  8
0
100
AcDbCircle
 62
7
  6
CONTINUOUS
 10
-121.4053511645
 20
30.1229076688
 40
5.9791303716
100
AcDbArc
 50
246.7224525946
 51
262.0001509559
  0
ARC
  5
64B
100
AcDbEntity
  8
IMPORT_IGES
100
AcDbCircle
 62
7
  6
CONTINUOUS
 10
-112.9071352788
 20
2.1015795682
 40
4.0
100
AcDbArc
 50
10.333276394
 51
90.4623867859
  0
ARC
  5
64C
100
AcDbEntity
  8
0
100
AcDbCircle
 62
7
  6
CONTINUOUS
 10
-116.5053511645
 20
29.8775010008
 40
2.0
100
AcDbArc
 50
128.6821874535
 51
180.0
  0
CIRCLE
  5
64D
100
AcDbEntity
  8
0
100
AcDbCircle
 62
7
  6
CONTINUOUS
 10
-123.5053511645
 20
25.0
 40
1.5
  0
ARC
  5
64E
100
AcDbEntity
  8
0
100
AcDbCircle
 62
7
  6
CONTINUOUS
 10
-127.5053511645
 20
17.0
 40
1.0
100
AcDbArc
 50
180.0
 51
270.0
  0
ARC
  5
64F
100
AcDbEntity
  8
0
100
AcDbCircle
 62
7
  6
CONTINUOUS
 10
-127.2053511645
 20
13.32356
 40
1.0
100
AcDbArc
 50
270.0
 51
360.0
  0
ARC
  5
650
100
AcDbEntity
  8
0
100
AcDbCircle
 62
7
  6
CONTINUOUS
 10
-127.2053511645
 20
15.0
 40
1.0
100
AcDbArc
 50
0.0
 51
90.0
  0
ARC
  5
651
100
AcDbEntity
  8
IMPORT_IGES
100
AcDbCircle
 62
7
  6
CONTINUOUS
 10
-113.6293089098
 20
30.4229061252
 40
0.499945074
100
AcDbArc
 50
269.9943435127
 51
359.0000792272
  0
ARC
  5
652
100
AcDbEntity
  8
0
100
AcDbCircle
 62
7
  6
CONTINUOUS
 10
-121.586359848
 20
60.5
 40
10.0
100
AcDbArc
 50
245.0
 51
270.0
  0
ARC
  5
653
100
AcDbEntity
  8
0
100
AcDbCircle
 62
7
  6
CONTINUOUS
 10
-121.586359848
 20
60.5
 40
9.0
100
AcDbArc
 50
245.0
 51
270.0
  0
ARC
  5
654
100
AcDbEntity
  8
0
100
AcDbCircle
 62
7
  6
CONTINUOUS
 10
-119.0053511645
 20
58.0
 40
3.0
100
AcDbArc
 50
0.0
 51
60.0
  0
ARC
  5
655
100
AcDbEntity
  8
0
100
AcDbCircle
 62
7
  6
CONTINUOUS
 10
-119.0053511645
 20
39.0
 40
3.0
100
AcDbArc
 50
0.0
 51
60.0
  0
ARC
  5
656
100
AcDbEntity
  8
0
100
AcDbCircle
 62
7
  6
CONTINUOUS
 10
-119.0053511645
 20
33.0
 40
3.0
100
AcDbArc
 50
300.0
 51
360.0
  0
ARC
  5
657
100
AcDbEntity
  8
0
100
AcDbCircle
 62
7
  6
CONTINUOUS
 10
-131.708131089
 20
52.2
 40
2.8
100
AcDbArc
 50
65.0
 51
176.8152614633
  0
ARC
  5
658
100
AcDbEntity
  8
0
100
AcDbCircle
 62
7
  6
CONTINUOUS
 10
-119.6053511645
 20
52.6
 40
2.1
100
AcDbArc
 50
270.0
 51
301.6254513738
  0
ARC
  5
659
100
AcDbEntity
  8
0
100
AcDbCircle
 62
7
  6
CONTINUOUS
 10
-116.5053511645
 20
42.1224989992
 40
2.0
100
AcDbArc
 50
180.0
 51
231.3178125465
  0
ARC
  5
65A
100
AcDbEntity
  8
0
100
AcDbCircle
 62
7
  6
CONTINUOUS
 10
-119.0053511645
 20
39.0
 40
2.0
100
AcDbArc
 50
0.0
 51
51.3178125465
  0
ARC
  5
65B
100
AcDbEntity
  8
0
100
AcDbCircle
 62
7
  6
CONTINUOUS
 10
-119.0053511645
 20
33.0
 40
2.0
100
AcDbArc
 50
308.6821874535
 51
360.0
  0
ARC
  5
65C
100
AcDbEntity
  8
0
100
AcDbCircle
 62
7
  6
CONTINUOUS
 10
-131.708131089
 20
52.2
 40
1.8
100
AcDbArc
 50
65.0
 51
176.8152614633
  0
ARC
  5
65D
100
AcDbEntity
  8
0
100
AcDbCircle
 62
7
  6
CONTINUOUS
 10
-119.6053511645
 20
52.6
 40
1.1
100
AcDbArc
 50
270.0
 51
360.0
  0
ARC
  5
65E
100
AcDbEntity
  8
IMPORT_IGES
100
AcDbCircle
 62
7
  6
CONTINUOUS
 10
-113.6397768404
 20
45.2229131983
 40
0.4999397
100
AcDbArc
 50
0.9994827863
 51
90.0062733752
  0
SPLINE
  5
65F
100
AcDbEntity
  8
0
100
AcDbSpline
 62
250
  6
CONTINUOUS
 70
0
 71
3
 72
9
 73
5
 74
0
 42
0.0000001
 43
0.0000001
 44
0.0000000001
 40
0.0
 40
0.0
 40
0.0
 40
0.0
 40
0.2402874715
 40
1.0
 40
1.0
 40
1.0
 40
1.0
 10
61.1228081907
 20
31.4387065678
 30
0.0
 10
61.0178930475
 20
31.3977551397
 30
0.0
 10
60.5942413378
 20
31.1950882535
 30
0.0
 10
60.2261293518
 20
30.8818840498
 30
0.0
 10
59.9986970563
 20
30.6078971471
 30
0.0
  0
SPLINE
  5
660
100
AcDbEntity
  8
0
100
AcDbSpline
 62
250
  6
CONTINUOUS
 70
0
 71
3
 72
9
 73
5
 74
0
 42
0.0000001
 43
0.0000001
 44
0.0000000001
 40
0.0
 40
0.0
 40
0.0
 40
0.0
 40
0.2570602568
 40
1.0
 40
1.0
 40
1.0
 40
1.0
 10
59.998701189
 20
41.3923023799
 30
0.0
 10
60.0755967384
 20
41.2996126736
 30
0.0
 10
60.3959137196
 20
40.9577295865
 30
0.0
 10
60.798083761
 20
40.6878904423
 30
0.0
 10
61.1222647725
 20
40.5611635448
 30
0.0
  0
SPLINE
  5
661
100
AcDbEntity
  8
0
100
AcDbSpline
 62
250
  6
CONTINUOUS
 70
0
 71
3
 72
9
 73
5
 74
0
 42
0.0000001
 43
0.0000001
 44
0.0000000001
 40
0.0
 40
0.0
 40
0.0
 40
0.0
 40
0.2570602568
 40
1.0
 40
1.0
 40
1.0
 40
1.0
 10
59.998701189
 20
-30.6076976201
 30
0.0
 10
60.0755967384
 20
-30.7003873264
 30
0.0
 10
60.3959137196
 20
-31.0422704135
 30
0.0
 10
60.798083761
 20
-31.3121095577
 30
0.0
 10
61.1222647725
 20
-31.4388364552
 30
0.0
  0
SPLINE
  5
662
100
AcDbEntity
  8
0
100
AcDbSpline
 62
250
  6
CONTINUOUS
 70
0
 71
3
 72
9
 73
5
 74
0
 42
0.0000001
 43
0.0000001
 44
0.0000000001
 40
0.0
 40
0.0
 40
0.0
 40
0.0
 40
0.2402874715
 40
1.0
 40
1.0
 40
1.0
 40
1.0
 10
61.1228081907
 20
-40.5612934322
 30
0.0
 10
61.0178930475
 20
-40.6022448603
 30
0.0
 10
60.5942413378
 20
-40.8049117465
 30
0.0
 10
60.2261293518
 20
-41.1181159502
 30
0.0
 10
59.9986970563
 20
-41.3921028529
 30
0.0
  0
SPLINE
  5
663
100
AcDbEntity
  8
0
100
AcDbSpline
 62
250
  6
CONTINUOUS
 70
0
 71
3
 72
9
 73
5
 74
0
 42
0.0000001
 43
0.0000001
 44
0.0000000001
 40
0.0
 40
0.0
 40
0.0
 40
0.0
 40
0.2570601928
 40
1.0
 40
1.0
 40
1.0
 40
1.0
 10
41.3922889875
 20
-59.998701221
 30
0.0
 10
41.2996004178
 20
-60.0755959411
 30
0.0
 10
40.9577209489
 20
-60.3959089643
 30
0.0
 10
40.6878844476
 20
-60.7980738387
 30
0.0
 10
40.5611576466
 20
-61.1222506555
 30
0.0
  0
SPLINE
  5
664
100
AcDbEntity
  8
0
100
AcDbSpline
 62
250
  6
CONTINUOUS
 70
0
 71
3
 72
9
 73
5
 74
0
 42
0.0000001
 43
0.0000001
 44
0.0000000001
 40
0.0
 40
0.0
 40
0.0
 40
0.0
 40
0.240287897
 40
1.0
 40
1.0
 40
1.0
 40
1.0
 10
31.4386897437
 20
-61.122823224
 30
0.0
 10
31.3977416311
 20
-61.0179072733
 30
0.0
 10
31.1950817206
 20
-60.5942552746
 30
0.0
 10
30.8818938929
 20
-60.2261339025
 30
0.0
 10
30.6079137785
 20
-59.9986969726
 30
0.0
  0
SPLINE
  5
665
100
AcDbEntity
  8
0
100
AcDbSpline
 62
250
  6
CONTINUOUS
 70
0
 71
3
 72
9
 73
5
 74
0
 42
0.0000001
 43
0.0000001
 44
0.0000000001
 40
0.0
 40
0.0
 40
0.0
 40
0.0
 40
0.2570601928
 40
1.0
 40
1.0
 40
1.0
 40
1.0
 10
-30.6077110125
 20
-59.998701221
 30
0.0
 10
-30.7003995822
 20
-60.0755959411
 30
0.0
 10
-31.0422790511
 20
-60.3959089643
 30
0.0
 10
-31.3121155524
 20
-60.7980738387
 30
0.0
 10
-31.4388423534
 20
-61.1222506555
 30
0.0
  0
SPLINE
  5
666
100
AcDbEntity
  8
0
100
AcDbSpline
 62
250
  6
CONTINUOUS
 70
0
 71
3
 72
9
 73
5
 74
0
 42
0.0000001
 43
0.0000001
 44
0.0000000001
 40
0.0
 40
0.0
 40
0.0
 40
0.0
 40
0.240287897
 40
1.0
 40
1.0
 40
1.0
 40
1.0
 10
-40.5613102563
 20
-61.122823224
 30
0.0
 10
-40.6022583689
 20
-61.0179072733
 30
0.0
 10
-40.8049182794
 20
-60.5942552746
 30
0.0
 10
-41.1181061071
 20
-60.2261339025
 30
0.0
 10
-41.3920862215
 20
-59.9986969726
 30
0.0
  0
SPLINE
  5
667
100
AcDbEntity
  8
0
100
AcDbSpline
 62
250
  6
CONTINUOUS
 70
0
 71
3
 72
9
 73
5
 74
0
 42
0.0000001
 43
0.0000001
 44
0.0000000001
 40
0.0
 40
0.0
 40
0.0
 40
0.0
 40
0.2570601928
 40
1.0
 40
1.0
 40
1.0
 40
1.0
 10
-59.9987012211
 20
-41.3922889876
 30
0.0
 10
-60.0755959412
 20
-41.2996004179
 30
0.0
 10
-60.395908964
 20
-40.9577209485
 30
0.0
 10
-60.7980738391
 20
-40.6878844488
 30
0.0
 10
-61.1222506555
 20
-40.5611576466
 30
0.0
  0
SPLINE
  5
668
100
AcDbEntity
  8
0
100
AcDbSpline
 62
250
  6
CONTINUOUS
 70
0
 71
3
 72
9
 73
5
 74
0
 42
0.0000001
 43
0.0000001
 44
0.0000000001
 40
0.0
 40
0.0
 40
0.0
 40
0.0
 40
0.2402878993
 40
1.0
 40
1.0
 40
1.0
 40
1.0
 10
-61.122823224
 20
-31.4386897437
 30
0.0
 10
-61.0179072763
 20
-31.3977416208
 30
0.0
 10
-60.5942552754
 20
-31.1950817212
 30
0.0
 10
-60.2261339021
 20
-30.8818938914
 30
0.0
 10
-59.9986969733
 20
-30.6079137781
 30
0.0
  0
SPLINE
  5
669
100
AcDbEntity
  8
0
100
AcDbSpline
 62
250
  6
CONTINUOUS
 70
0
 71
3
 72
9
 73
5
 74
0
 42
0.0000001
 43
0.0000001
 44
0.0000000001
 40
0.0
 40
0.0
 40
0.0
 40
0.0
 40
0.2570601928
 40
1.0
 40
1.0
 40
1.0
 40
1.0
 10
-59.9987012211
 20
30.6077110124
 30
0.0
 10
-60.0755959412
 20
30.7003995821
 30
0.0
 10
-60.395908964
 20
31.0422790515
 30
0.0
 10
-60.7980738391
 20
31.3121155512
 30
0.0
 10
-61.1222506555
 20
31.4388423534
 30
0.0
  0
SPLINE
  5
66A
100
AcDbEntity
  8
0
100
AcDbSpline
 62
250
  6
CONTINUOUS
 70
0
 71
3
 72
9
 73
5
 74
0
 42
0.0000001
 43
0.0000001
 44
0.0000000001
 40
0.0
 40
0.0
 40
0.0
 40
0.0
 40
0.2402878993
 40
1.0
 40
1.0
 40
1.0
 40
1.0
 10
-61.122823224
 20
40.5613102563
 30
0.0
 10
-61.0179072763
 20
40.6022583792
 30
0.0
 10
-60.5942552754
 20
40.8049182788
 30
0.0
 10
-60.2261339021
 20
41.1181061086
 30
0.0
 10
-59.9986969733
 20
41.3920862219
 30
0.0
  0
SPLINE
  5
66B
100
AcDbEntity
  8
0
100
AcDbSpline
 62
250
  6
CONTINUOUS
 70
0
 71
3
 72
9
 73
5
 74
0
 42
0.0000001
 43
0.0000001
 44
0.0000000001
 40
0.0
 40
0.0
 40
0.0
 40
0.0
 40
0.2570602569
 40
1.0
 40
1.0
 40
1.0
 40
1.0
 10
-41.39230238
 20
59.998701189
 30
0.0
 10
-41.2996126737
 20
60.0755967384
 30
0.0
 10
-40.9577295856
 20
60.3959137191
 30
0.0
 10
-40.6878904465
 20
60.7980837626
 30
0.0
 10
-40.5611635448
 20
61.1222647725
 30
0.0
  0
SPLINE
  5
66C
100
AcDbEntity
  8
0
100
AcDbSpline
 62
250
  6
CONTINUOUS
 70
0
 71
3
 72
9
 73
5
 74
0
 42
0.0000001
 43
0.0000001
 44
0.0000000001
 40
0.0
 40
0.0
 40
0.0
 40
0.0
 40
0.2402874731
 40
1.0
 40
1.0
 40
1.0
 40
1.0
 10
-31.4387065678
 20
61.1228081907
 30
0.0
 10
-31.3977551324
 20
61.0178930496
 30
0.0
 10
-31.1950882539
 20
60.5942413383
 30
0.0
 10
-30.8818840486
 20
60.2261293515
 30
0.0
 10
-30.6078971469
 20
59.9986970565
 30
0.0
  0
SPLINE
  5
66D
100
AcDbEntity
  8
0
100
AcDbSpline
 62
250
  6
CONTINUOUS
 70
0
 71
3
 72
9
 73
5
 74
0
 42
0.0000001
 43
0.0000001
 44
0.0000000001
 40
0.0
 40
0.0
 40
0.0
 40
0.0
 40
0.2402874731
 40
1.0
 40
1.0
 40
1.0
 40
1.0
 10
40.5612934322
 20
61.1228081907
 30
0.0
 10
40.6022448676
 20
61.0178930496
 30
0.0
 10
40.8049117461
 20
60.5942413383
 30
0.0
 10
41.1181159514
 20
60.2261293515
 30
0.0
 10
41.3921028531
 20
59.9986970565
 30
0.0
  0
SPLINE
  5
66E
100
AcDbEntity
  8
0
100
AcDbSpline
 62
250
  6
CONTINUOUS
 70
0
 71
3
 72
9
 73
5
 74
0
 42
0.0000001
 43
0.0000001
 44
0.0000000001
 40
0.0
 40
0.0
 40
0.0
 40
0.0
 40
0.2570602569
 40
1.0
 40
1.0
 40
1.0
 40
1.0
 10
30.60769762
 20
59.998701189
 30
0.0
 10
30.7003873263
 20
60.0755967384
 30
0.0
 10
31.0422704144
 20
60.3959137191
 30
0.0
 10
31.3121095535
 20
60.7980837626
 30
0.0
 10
31.4388364552
 20
61.1222647725
 30
0.0
  0
LINE
  5
66F
100
AcDbEntity
  8
IMPORT_IGES
100
AcDbLine
 62
7
  6
CONTINUOUS
 10
-47.8
 20
24.9058722109
 11
-47.7999728793
 21
25.2110572022
  0
LINE
  5
670
100
AcDbEntity
  8
IMPORT_IGES
100
AcDbLine
 62
7
  6
CONTINUOUS
 10
-47.7999728793
 20
25.2110572022
 11
-47.8001416919
 21
25.5670746661
  0
LINE
  5
671
100
AcDbEntity
  8
IMPORT_IGES
100
AcDbLine
 62
7
  6
CONTINUOUS
 10
47.7999498382
 20
25.2110571708
 11
47.8
 21
24.9058722109
  0
SPLINE
  5
672
100
AcDbEntity
  8
IMPORT_IGES
100
AcDbSpline
 62
7
  6
CONTINUOUS
 70
0
 71
3
 72
20
 73
16
 74
0
 42
0.0000001
 43
0.0000001
 44
0.0000000001
 40
0.0
 40
0.0
 40
0.0
 40
0.0
 40
0.0313128368
 40
0.0469686034
 40
0.0626256924
 40
0.0939378265
 40
0.1252498603
 40
0.1878529245
 40
0.2504603119
 40
0.3755218837
 40
0.4381327596
 40
0.500744678
 40
0.6258309322
 40
0.7509124944
 40
1.0
 40
1.0
 40
1.0
 40
1.0
 10
-47.8001416919
 20
25.5670746661
 30
0.0
 10
-47.8002793011
 20
25.6428385197
 30
0.0
 10
-47.8004014355
 20
25.7565027999
 30
0.0
 10
-47.7949719727
 20
25.9079620033
 30
0.0
 10
-47.7841657945
 20
26.0591243232
 30
0.0
 10
-47.7628559222
 20
26.247439624
 30
0.0
 10
-47.7118653753
 20
26.5462444555
 30
0.0
 10
-47.6165553218
 20
26.9137114599
 30
0.0
 10
-47.4009148385
 20
27.4805226201
 30
0.0
 10
-47.0978942332
 20
28.0104921318
 30
0.0
 10
-46.7227380814
 20
28.4868592398
 30
0.0
 10
-46.3018951046
 20
28.9235522043
 30
0.0
 10
-45.7001806038
 20
29.3911941717
 30
0.0
 10
-44.6199283027
 20
29.9427765734
 30
0.0
 10
-43.7026876636
 20
30.1169160945
 30
0.0
 10
-43.1
 20
30.1169048105
 30
0.0
  0
SPLINE
  5
673
100
AcDbEntity
  8
IMPORT_IGES
100
AcDbSpline
 62
7
  6
CONTINUOUS
 70
0
 71
3
 72
19
 73
15
 74
0
 42
0.0000001
 43
0.0000001
 44
0.0000000001
 40
0.0
 40
0.0
 40
0.0
 40
0.0
 40
0.2490864255
 40
0.3741673418
 40
0.4992529209
 40
0.5618645099
 40
0.6244750559
 40
0.7495358171
 40
0.8121431964
 40
0.8747477481
 40
0.9060610996
 40
0.937375899
 40
0.9686864069
 40
1.0
 40
1.0
 40
1.0
 40
1.0
 10
43.1
 20
30.1169048105
 30
0.0
 10
43.7026822639
 20
30.1169160944
 30
0.0
 10
44.6199140285
 20
29.9427796277
 30
0.0
 10
45.7001589672
 20
29.3912076413
 30
0.0
 10
46.3018692631
 20
28.9235734065
 30
0.0
 10
46.7227135938
 20
28.4868894517
 30
0.0
 10
47.0978653724
 20
28.0105290792
 30
0.0
 10
47.4009090376
 20
27.4805708713
 30
0.0
 10
47.6165104488
 20
26.9137576181
 30
0.0
 10
47.7119272665
 20
26.5462961355
 30
0.0
 10
47.7627123165
 20
26.2474605921
 30
0.0
 10
47.7888941805
 20
26.0215344221
 30
0.0
 10
47.8001283415
 20
25.7943808246
 30
0.0
 10
47.8005601444
 20
25.6428384921
 30
0.0
 10
47.8003934687
 20
25.5670732171
 30
0.0
  0
SPLINE
  5
674
100
AcDbEntity
  8
SCRITTE
100
AcDbSpline
 62
250
  6
CONTINUOUS
 70
0
 71
3
 72
22
 73
18
 74
0
 42
0.0000001
 43
0.0000001
 44
0.0000000001
 40
0.0
 40
0.0
 40
0.0
 40
0.0
 40
0.0942513626
 40
0.1885027252
 40
0.2571266572
 40
0.3257505892
 40
0.4027201286
 40
0.479689668
 40
0.5094441443
 40
0.5391986206
 40
0.5940541424
 40
0.7180622871
 40
0.8237694521
 40
0.8757610404
 40
0.9116456617
 40
0.9816476969
 40
1.0
 40
1.0
 40
1.0
 40
1.0
 10
6.7641881929
 20
-4.1755280569
 30
0.0
 10
6.8633051931
 20
-4.1733142064
 30
0.0
 10
7.0613256425
 20
-4.1515412665
 30
0.0
 10
7.3173522103
 20
-4.0545603976
 30
0.0
 10
7.5105298945
 20
-3.9024512414
 30
0.0
 10
7.6440859647
 20
-3.7181444067
 30
0.0
 10
7.7220524601
 20
-3.4949386511
 30
0.0
 10
7.7415092505
 20
-3.3018186723
 30
0.0
 10
7.7361566939
 20
-3.1580752546
 30
0.0
 10
7.7191493791
 20
-3.0390501839
 30
0.0
 10
7.6523130326
 20
-2.8281181302
 30
0.0
 10
7.4620756239
 20
-2.5862101373
 30
0.0
 10
7.1916481062
 20
-2.450421915
 30
0.0
 10
6.9908417346
 20
-2.4138528969
 30
0.0
 10
6.8253572837
 20
-2.400056804
 30
0.0
 10
6.6945142206
 20
-2.3954484253
 30
0.0
 10
6.6016570654
 20
-2.398040824
 30
0.0
 10
6.5823799049
 20
-2.3988155112
 30
0.0
  0
SPLINE
  5
675
100
AcDbEntity
  8
SCRITTE
100
AcDbSpline
 62
250
  6
CONTINUOUS
 70
0
 71
3
 72
16
 73
12
 74
0
 42
0.0000001
 43
0.0000001
 44
0.0000000001
 40
0.0
 40
0.0
 40
0.0
 40
0.0
 40
0.2258806064
 40
0.4517612128
 40
0.5035711439
 40
0.555381075
 40
0.6138679625
 40
0.6723548501
 40
0.7752310591
 40
0.8794077334
 40
1.0
 40
1.0
 40
1.0
 40
1.0
 10
7.8792435592
 20
-6.1733285011
 30
0.0
 10
7.8317942422
 20
-6.0097383804
 30
0.0
 10
7.7366300372
 20
-5.6826395725
 30
0.0
 10
7.6271379043
 20
-5.3190116116
 30
0.0
 10
7.5529940892
 20
-5.0818770496
 30
0.0
 10
7.5149686807
 20
-4.9656466936
 30
0.0
 10
7.4627621186
 20
-4.8492748229
 30
0.0
 10
7.3768633494
 20
-4.7071418862
 30
0.0
 10
7.236542045
 20
-4.5608970834
 30
0.0
 10
7.0175393393
 20
-4.4409520596
 30
0.0
 10
6.8475147908
 20
-4.4124917984
 30
0.0
 10
6.7565783255
 20
-4.4124917984
 30
0.0
  0
SPLINE
  5
676
100
AcDbEntity
  8
SCRITTE
100
AcDbSpline
 62
250
  6
CONTINUOUS
 70
0
 71
3
 72
15
 73
11
 74
0
 42
0.0000001
 43
0.0000001
 44
0.0000000001
 40
0.0
 40
0.0
 40
0.0
 40
0.0
 40
0.0583492071
 40
0.1243380602
 40
0.179944858
 40
0.2647348965
 40
0.3893826569
 40
0.4662627951
 40
0.5401845746
 40
1.0
 40
1.0
 40
1.0
 40
1.0
 10
7.6396358805
 20
-4.5552436675
 30
0.0
 10
7.6717336714
 20
-4.5680426616
 30
0.0
 10
7.7356955312
 20
-4.6065521095
 30
0.0
 10
7.8064938103
 20
-4.6873156827
 30
0.0
 10
7.8708574479
 20
-4.7914313227
 30
0.0
 10
7.9350030304
 20
-4.9351065155
 30
0.0
 10
7.9849726133
 20
-5.097317158
 30
0.0
 10
8.0281543915
 20
-5.2545906392
 30
0.0
 10
8.1214954304
 20
-5.6039705837
 30
0.0
 10
8.2009501186
 20
-5.9099054797
 30
0.0
 10
8.2699557642
 20
-6.1733285011
 30
0.0
  0
SPLINE
  5
677
100
AcDbEntity
  8
SCRITTE
100
AcDbSpline
 62
250
  6
CONTINUOUS
 70
0
 71
3
 72
24
 73
20
 74
0
 42
0.0000001
 43
0.0000001
 44
0.0000000001
 40
0.0
 40
0.0
 40
0.0
 40
0.0
 40
0.1865223067
 40
0.2812496951
 40
0.3754887543
 40
0.4266482536
 40
0.4783285469
 40
0.4875385062
 40
0.5192701865
 40
0.5946079592
 40
0.6650771612
 40
0.718270266
 40
0.7646307973
 40
0.8180826494
 40
0.9141967173
 40
0.9521445761
 40
0.9853131804
 40
0.9926571855
 40
1.0
 40
1.0
 40
1.0
 40
1.0
 10
5.567565265
 20
-2.1943514272
 30
0.0
 10
5.825847279
 20
-2.1612589607
 30
0.0
 10
6.2172700466
 20
-2.124514062
 30
0.0
 10
6.7416309976
 20
-2.1209936051
 30
0.0
 10
7.0765958822
 20
-2.1456701543
 30
0.0
 10
7.3472832555
 20
-2.195364853
 30
0.0
 10
7.4984106351
 20
-2.2374169039
 30
0.0
 10
7.6180557492
 20
-2.2867210304
 30
0.0
 10
7.7579844646
 20
-2.3700531621
 30
0.0
 10
7.9379790477
 20
-2.5454584196
 30
0.0
 10
8.0663421191
 20
-2.7957577767
 30
0.0
 10
8.1152714723
 20
-3.0293108079
 30
0.0
 10
8.1233672541
 20
-3.2432822647
 30
0.0
 10
8.0895666736
 20
-3.5159944526
 30
0.0
 10
7.9789440907
 20
-3.7592404897
 30
0.0
 10
7.8249718711
 20
-3.9358379565
 30
0.0
 10
7.7414427616
 20
-4.0071162558
 30
0.0
 10
7.6855038759
 20
-4.0438120694
 30
0.0
 10
7.6679848305
 20
-4.0545112484
 30
0.0
 10
7.6585798596
 20
-4.0585889116
 30
0.0
  0
SPLINE
  5
678
100
AcDbEntity
  8
SCRITTE
100
AcDbSpline
 62
250
  6
CONTINUOUS
 70
0
 71
3
 72
10
 73
6
 74
0
 42
0.0000001
 43
0.0000001
 44
0.0000000001
 40
0.0
 40
0.0
 40
0.0
 40
0.0
 40
0.2929210355
 40
0.5275938042
 40
1.0
 40
1.0
 40
1.0
 40
1.0
 10
7.4881852807
 20
-3.2263775827
 30
0.0
 10
7.4898989128
 20
-3.3374338485
 30
0.0
 10
7.4659447602
 20
-3.5438040862
 30
0.0
 10
7.2305265891
 20
-3.8629824128
 30
0.0
 10
6.9376874658
 20
-3.9215904714
 30
0.0
 10
6.7586056532
 20
-3.9255903941
 30
0.0
  0
SPLINE
  5
679
100
AcDbEntity
  8
SCRITTE
100
AcDbSpline
 62
250
  6
CONTINUOUS
 70
0
 71
3
 72
9
 73
5
 74
0
 42
0.0000001
 43
0.0000001
 44
0.0000000001
 40
0.0
 40
0.0
 40
0.0
 40
0.0
 40
0.5013510385
 40
1.0
 40
1.0
 40
1.0
 40
1.0
 10
6.9576432623
 20
-2.6639166665
 30
0.0
 10
7.0952955451
 20
-2.6798980653
 30
0.0
 10
7.3737133669
 20
-2.8011209012
 30
0.0
 10
7.4860298154
 20
-3.0885644149
 30
0.0
 10
7.4881852807
 20
-3.2263775827
 30
0.0
  0
SPLINE
  5
67A
100
AcDbEntity
  8
SCRITTE
100
AcDbSpline
 62
250
  6
CONTINUOUS
 70
0
 71
3
 72
9
 73
5
 74
0
 42
0.0000001
 43
0.0000001
 44
0.0000000001
 40
0.0
 40
0.0
 40
0.0
 40
0.0
 40
0.2703953699
 40
1.0
 40
1.0
 40
1.0
 40
1.0
 10
6.2218553079
 20
-2.6904032783
 30
0.0
 10
6.2874082549
 20
-2.6792176879
 30
0.0
 10
6.5306004485
 20
-2.6424291723
 30
0.0
 10
6.7794026442
 20
-2.6432278093
 30
0.0
 10
6.9576432623
 20
-2.6639166665
 30
0.0
  0
SPLINE
  5
67B
100
AcDbEntity
  8
SCRITTE
100
AcDbSpline
 62
250
  6
CONTINUOUS
 70
0
 71
3
 72
9
 73
5
 74
0
 42
0.0000001
 43
0.0000001
 44
0.0000000001
 40
0.0
 40
0.0
 40
0.0
 40
0.0
 40
0.2957417834
 40
1.0
 40
1.0
 40
1.0
 40
1.0
 10
7.635396857
 20
-2.0238179238
 30
0.0
 10
7.4190328843
 20
-1.9456505684
 30
0.0
 10
6.6413353813
 20
-1.8182331202
 30
0.0
 10
5.8595584927
 20
-1.8967092578
 30
0.0
 10
5.317565265
 20
-1.9764456906
 30
0.0
  0
SPLINE
  5
67C
100
AcDbEntity
  8
SCRITTE
100
AcDbSpline
 62
250
  6
CONTINUOUS
 70
0
 71
3
 72
17
 73
13
 74
0
 42
0.0000001
 43
0.0000001
 44
0.0000000001
 40
0.0
 40
0.0
 40
0.0
 40
0.0
 40
0.0559780952
 40
0.1687540387
 40
0.321006234
 40
0.4122750837
 40
0.516613223
 40
0.6013931059
 40
0.6776022439
 40
0.8103422694
 40
0.9200404832
 40
1.0
 40
1.0
 40
1.0
 40
1.0
 10
7.7322332595
 20
-4.2964367007
 30
0.0
 10
7.7841093245
 20
-4.2897430149
 30
0.0
 10
7.9159715739
 20
-4.1858908932
 30
0.0
 10
8.1346497616
 20
-3.9879197775
 30
0.0
 10
8.295666664
 20
-3.6831739811
 30
0.0
 10
8.3673960041
 20
-3.3652551367
 30
0.0
 10
8.3741348319
 20
-3.1013891322
 30
0.0
 10
8.3386204593
 20
-2.8549404245
 30
0.0
 10
8.2525458138
 20
-2.593069447
 30
0.0
 10
8.0908800151
 20
-2.3364301803
 30
0.0
 10
7.8626204867
 20
-2.1357315319
 30
0.0
 10
7.7056778579
 20
-2.0491720431
 30
0.0
 10
7.635396857
 20
-2.0238179238
 30
0.0
  0
SPLINE
  5
67D
100
AcDbEntity
  8
SCRITTE
100
AcDbSpline
 62
250
  6
CONTINUOUS
 70
0
 71
3
 72
9
 73
5
 74
0
 42
0.0000001
 43
0.0000001
 44
0.0000000001
 40
0.0
 40
0.0
 40
0.0
 40
0.0
 40
0.4982934755
 40
1.0
 40
1.0
 40
1.0
 40
1.0
 10
8.273606109
 20
-5.2055179523
 30
0.0
 10
8.2272582601
 20
-5.0353904741
 30
0.0
 10
8.1445288189
 20
-4.6946798868
 30
0.0
 10
7.8971418383
 20
-4.388781831
 30
0.0
 10
7.7322332595
 20
-4.3230245352
 30
0.0
  0
SPLINE
  5
67E
100
AcDbEntity
  8
SCRITTE
100
AcDbSpline
 62
250
  6
CONTINUOUS
 70
0
 71
3
 72
9
 73
5
 74
0
 42
0.0000001
 43
0.0000001
 44
0.0000000001
 40
0.0
 40
0.0
 40
0.0
 40
0.0
 40
0.1980141723
 40
1.0
 40
1.0
 40
1.0
 40
1.0
 10
8.594684578
 20
-6.4233285011
 30
0.0
 10
8.5728965259
 20
-6.3431065597
 30
0.0
 10
8.4662537739
 20
-5.9370636071
 30
0.0
 10
8.3621072233
 20
-5.5303585935
 30
0.0
 10
8.273606109
 20
-5.2055179523
 30
0.0
  0
SPLINE
  5
67F
100
AcDbEntity
  8
SCRITTE
100
AcDbSpline
 62
250
  6
CONTINUOUS
 70
0
 71
3
 72
10
 73
6
 74
0
 42
0.0000001
 43
0.0000001
 44
0.0000000001
 40
0.0
 40
0.0
 40
0.0
 40
0.0
 40
0.2222335178
 40
0.5586349063
 40
1.0
 40
1.0
 40
1.0
 40
1.0
 10
7.2805774812
 20
-5.0589474532
 30
0.0
 10
7.3177002962
 20
-5.1577608249
 30
0.0
 10
7.3930217982
 20
-5.412499737
 30
0.0
 10
7.5306089333
 20
-5.8669327104
 30
0.0
 10
7.6333460336
 20
-6.2218503932
 30
0.0
 10
7.6912717987
 20
-6.4233285011
 30
0.0
  0
SPLINE
  5
680
100
AcDbEntity
  8
SCRITTE
100
AcDbSpline
 62
250
  6
CONTINUOUS
 70
0
 71
3
 72
9
 73
5
 74
0
 42
0.0000001
 43
0.0000001
 44
0.0000000001
 40
0.0
 40
0.0
 40
0.0
 40
0.0
 40
0.3559141631
 40
1.0
 40
1.0
 40
1.0
 40
1.0
 10
6.7565811987
 20
-4.6624917984
 30
0.0
 10
6.838426748
 20
-4.6624917984
 30
0.0
 10
7.0738744449
 20
-4.712051875
 30
0.0
 10
7.2285364958
 20
-4.9202779404
 30
0.0
 10
7.2805774812
 20
-5.0589474532
 30
0.0
  0
SPLINE
  5
681
100
AcDbEntity
  8
SCRITTE
100
AcDbSpline
 62
250
  6
CONTINUOUS
 70
0
 71
3
 72
8
 73
4
 74
0
 42
0.0000001
 43
0.0000001
 44
0.0000000001
 40
0.0
 40
0.0
 40
0.0
 40
0.0
 40
1.0
 40
1.0
 40
1.0
 40
1.0
 10
6.5823799049
 20
-2.3988155112
 30
0.0
 10
6.4474397813
 20
-2.404238321
 30
0.0
 10
6.3130109295
 20
-2.4212355891
 30
0.0
 10
6.1798044836
 20
-2.4439651965
 30
0.0
  0
SPLINE
  5
682
100
AcDbEntity
  8
0
100
AcDbSpline
 62
7
  6
CONTINUOUS
 70
0
 71
3
 72
11
 73
7
 74
0
 42
0.0000001
 43
0.0000001
 44
0.0000000001
 40
0.0
 40
0.0
 40
0.0
 40
0.0
 40
0.2499830398
 40
0.4999700911
 40
0.7499728509
 40
1.0
 40
1.0
 40
1.0
 40
1.0
 10
-123.8894519214
 20
24.7961207387
 30
0.0
 10
-123.8878602883
 20
24.778285978
 30
0.0
 10
-123.8797125188
 20
24.7428678857
 30
0.0
 10
-123.8536562203
 20
24.6951606198
 30
0.0
 10
-123.8158733917
 20
24.6560987645
 30
0.0
 10
-123.7846681909
 20
24.6375479528
 30
0.0
 10
-123.7682171431
 20
24.6304706535
 30
0.0
  0
LINE
  5
683
100
AcDbEntity
  8
0
100
AcDbLine
 62
7
  6
CONTINUOUS
 10
-123.918608881
 20
25.1229076688
 11
-123.8894519214
 21
24.7961207387
  0
SPLINE
  5
684
100
AcDbEntity
  8
0
100
AcDbSpline
 62
250
  6
CONTINUOUS
 70
0
 71
3
 72
9
 73
5
 74
0
 42
0.0000001
 43
0.0000001
 44
0.0000000001
 40
0.0
 40
0.0
 40
0.0
 40
0.0
 40
0.4762381682
 40
1.0
 40
1.0
 40
1.0
 40
1.0
 10
-128.5053511645
 20
-5.5656854249
 30
0.0
 10
-128.5053511645
 20
-5.494073209
 30
0.0
 10
-128.452371905
 20
-5.3413479145
 30
0.0
 10
-128.3265907943
 20
-5.2457147258
 30
0.0
 10
-128.2553511645
 20
-5.2121320344
 30
0.0
  0
SPLINE
  5
685
100
AcDbEntity
  8
0
100
AcDbSpline
 62
250
  6
CONTINUOUS
 70
0
 71
3
 72
9
 73
5
 74
0
 42
0.0000001
 43
0.0000001
 44
0.0000000001
 40
0.0
 40
0.0
 40
0.0
 40
0.0
 40
0.4762381988
 40
1.0
 40
1.0
 40
1.0
 40
1.0
 10
-128.5053511645
 20
-6.347370081
 30
0.0
 10
-128.5053511645
 20
-6.2757578599
 30
0.0
 10
-128.4523719115
 20
-6.1230325608
 30
0.0
 10
-128.3265907938
 20
-6.0273993737
 30
0.0
 10
-128.2553511645
 20
-5.9938166904
 30
0.0
  0
SPLINE
  5
686
100
AcDbEntity
  8
0
100
AcDbSpline
 62
250
  6
CONTINUOUS
 70
0
 71
3
 72
9
 73
5
 74
0
 42
0.0000001
 43
0.0000001
 44
0.0000000001
 40
0.0
 40
0.0
 40
0.0
 40
0.0
 40
0.476239769
 40
1.0
 40
1.0
 40
1.0
 40
1.0
 10
-128.5053511645
 20
-3.652629919
 30
0.0
 10
-128.5053511645
 20
-3.7242424264
 30
0.0
 10
-128.4523725296
 20
-3.8769680692
 30
0.0
 10
-128.3265908708
 20
-3.972601214
 30
0.0
 10
-128.2553511645
 20
-4.0061833096
 30
0.0
  0
SPLINE
  5
687
100
AcDbEntity
  8
0
100
AcDbSpline
 62
250
  6
CONTINUOUS
 70
0
 71
3
 72
9
 73
5
 74
0
 42
0.0000001
 43
0.0000001
 44
0.0000000001
 40
0.0
 40
0.0
 40
0.0
 40
0.0
 40
0.4762381988
 40
1.0
 40
1.0
 40
1.0
 40
1.0
 10
-128.5053511645
 20
5.5656854249
 30
0.0
 10
-128.5053511645
 20
5.4940732038
 30
0.0
 10
-128.4523719115
 20
5.3413479048
 30
0.0
 10
-128.3265907938
 20
5.2457147177
 30
0.0
 10
-128.2553511645
 20
5.2121320344
 30
0.0
  0
SPLINE
  5
688
100
AcDbEntity
  8
0
100
AcDbSpline
 62
250
  6
CONTINUOUS
 70
0
 71
3
 72
9
 73
5
 74
0
 42
0.0000001
 43
0.0000001
 44
0.0000000001
 40
0.0
 40
0.0
 40
0.0
 40
0.0
 40
0.4762381682
 40
1.0
 40
1.0
 40
1.0
 40
1.0
 10
-128.5053511645
 20
4.4343145751
 30
0.0
 10
-128.5053511645
 20
4.505926791
 30
0.0
 10
-128.452371905
 20
4.6586520855
 30
0.0
 10
-128.3265907943
 20
4.7542852742
 30
0.0
 10
-128.2553511645
 20
4.7878679656
 30
0.0
  0
SPLINE
  5
689
100
AcDbEntity
  8
0
100
AcDbSpline
 62
250
  6
CONTINUOUS
 70
0
 71
3
 72
9
 73
5
 74
0
 42
0.0000001
 43
0.0000001
 44
0.0000000001
 40
0.0
 40
0.0
 40
0.0
 40
0.0
 40
0.4762381988
 40
1.0
 40
1.0
 40
1.0
 40
1.0
 10
-128.5053511645
 20
3.652629919
 30
0.0
 10
-128.5053511645
 20
3.7242421401
 30
0.0
 10
-128.4523719115
 20
3.8769674392
 30
0.0
 10
-128.3265907938
 20
3.9726006263
 30
0.0
 10
-128.2553511645
 20
4.0061833096
 30
0.0
  0
SPLINE
  5
68A
100
AcDbEntity
  8
0
100
AcDbSpline
 62
250
  6
CONTINUOUS
 70
0
 71
3
 72
9
 73
5
 74
0
 42
0.0000001
 43
0.0000001
 44
0.0000000001
 40
0.0
 40
0.0
 40
0.0
 40
0.0
 40
0.476239769
 40
1.0
 40
1.0
 40
1.0
 40
1.0
 10
-128.5053511645
 20
6.347370081
 30
0.0
 10
-128.5053511645
 20
6.2757575736
 30
0.0
 10
-128.4523725296
 20
6.1230319308
 30
0.0
 10
-128.3265908708
 20
6.027398786
 30
0.0
 10
-128.2553511645
 20
5.9938166904
 30
0.0
  0
SPLINE
  5
68B
100
AcDbEntity
  8
0
100
AcDbSpline
 62
250
  6
CONTINUOUS
 70
0
 71
3
 72
9
 73
5
 74
0
 42
0.0000001
 43
0.0000001
 44
0.0000000001
 40
0.0
 40
0.0
 40
0.0
 40
0.0
 40
0.4762381988
 40
1.0
 40
1.0
 40
1.0
 40
1.0
 10
-128.5053511645
 20
-4.4343145751
 30
0.0
 10
-128.5053511645
 20
-4.5059267962
 30
0.0
 10
-128.4523719115
 20
-4.6586520952
 30
0.0
 10
-128.3265907938
 20
-4.7542852823
 30
0.0
 10
-128.2553511645
 20
-4.7878679656
 30
0.0
  0
SPLINE
  5
68C
100
AcDbEntity
  8
IMPORT_IGES
100
AcDbSpline
 62
7
  6
CONTINUOUS
 70
0
 71
3
 72
9
 73
5
 74
0
 42
0.0000001
 43
0.0000001
 44
0.0000000001
 40
0.0
 40
0.0
 40
0.0
 40
0.0
 40
0.2605447639
 40
1.0
 40
1.0
 40
1.0
 40
1.0
 10
-147.0053511645
 20
38.7781528282
 30
0.0
 10
-147.001016964
 20
38.7781528282
 30
0.0
 10
-146.9843838239
 20
38.7779353319
 30
0.0
 10
-146.9677510794
 20
38.7769270965
 30
0.0
 10
-146.955527008
 20
38.7755540103
 30
0.0
  0
SPLINE
  5
68D
100
AcDbEntity
  8
IMPORT_IGES
100
AcDbSpline
 62
7
  6
CONTINUOUS
 70
0
 71
3
 72
9
 73
5
 74
0
 42
0.0000001
 43
0.0000001
 44
0.0000000001
 40
0.0
 40
0.0
 40
0.0
 40
0.0
 40
0.2633113774
 40
1.0
 40
1.0
 40
1.0
 40
1.0
 10
-146.955527008
 20
38.7755540103
 30
0.0
 10
-146.9540538596
 20
38.7753885368
 30
0.0
 10
-146.9484634538
 20
38.7747234209
 30
0.0
 10
-146.9428900969
 20
38.7739077515
 30
0.0
 10
-146.9388042986
 20
38.7731951655
 30
0.0
  0
SPLINE
  5
68E
100
AcDbEntity
  8
IMPORT_IGES
100
AcDbSpline
 62
7
  6
CONTINUOUS
 70
0
 71
3
 72
10
 73
6
 74
0
 42
0.0000001
 43
0.0000001
 44
0.0000000001
 40
0.0
 40
0.0
 40
0.0
 40
0.0
 40
0.6774637223
 40
0.8777829915
 40
1.0
 40
1.0
 40
1.0
 40
1.0
 10
-146.9388042986
 20
38.7731951655
 30
0.0
 10
-146.9303869472
 20
38.7717271326
 30
0.0
 10
-146.9193828869
 20
38.7692992809
 30
0.0
 10
-146.9080698462
 20
38.7638460469
 30
0.0
 10
-146.9053511645
 20
38.7601395339
 30
0.0
 10
-146.9053511645
 20
38.7585980904
 30
0.0
  0
SPLINE
  5
68F
100
AcDbEntity
  8
IMPORT_IGES
100
AcDbSpline
 62
7
  6
CONTINUOUS
 70
0
 71
3
 72
11
 73
7
 74
0
 42
0.0000001
 43
0.0000001
 44
0.0000000001
 40
0.0
 40
0.0
 40
0.0
 40
0.0
 40
0.2521459264
 40
0.5029417793
 40
0.7520097266
 40
1.0
 40
1.0
 40
1.0
 40
1.0
 10
-147.0053511645
 20
41.2999045384
 30
0.0
 10
-146.9922158835
 20
41.2999045384
 30
0.0
 10
-146.9657192884
 20
41.2945993265
 30
0.0
 10
-146.932480776
 20
41.2720404049
 30
0.0
 10
-146.9104545282
 20
41.2387349298
 30
0.0
 10
-146.9053511645
 20
41.2125616621
 30
0.0
 10
-146.9053511645
 20
41.1996428655
 30
0.0
  0
SPLINE
  5
690
100
AcDbEntity
  8
IMPORT_IGES
100
AcDbSpline
 62
7
  6
CONTINUOUS
 70
0
 71
3
 72
11
 73
7
 74
0
 42
0.0000001
 43
0.0000001
 44
0.0000000001
 40
0.0
 40
0.0
 40
0.0
 40
0.0
 40
0.3707148025
 40
0.6846791881
 40
0.8990832023
 40
1.0
 40
1.0
 40
1.0
 40
1.0
 10
-147.0053511645
 20
38.8218471718
 30
0.0
 10
-146.9924643819
 20
38.8218471718
 30
0.0
 10
-146.9688796982
 20
38.8225698702
 30
0.0
 10
-146.936994635
 20
38.8268085584
 30
0.0
 10
-146.9173633334
 20
38.8310254861
 30
0.0
 10
-146.9053511645
 20
38.8378938414
 30
0.0
 10
-146.9053511645
 20
38.8414019097
 30
0.0
  0
SPLINE
  5
691
100
AcDbEntity
  8
IMPORT_IGES
100
AcDbSpline
 62
7
  6
CONTINUOUS
 70
0
 71
3
 72
11
 73
7
 74
0
 42
0.0000001
 43
0.0000001
 44
0.0000000001
 40
0.0
 40
0.0
 40
0.0
 40
0.0
 40
0.2479904155
 40
0.4970672882
 40
0.7478727397
 40
1.0
 40
1.0
 40
1.0
 40
1.0
 10
-146.9053511645
 20
41.0082128101
 30
0.0
 10
-146.9053511645
 20
41.0211315482
 30
0.0
 10
-146.9104544471
 20
41.0473047318
 30
0.0
 10
-146.9324797738
 20
41.0806131462
 30
0.0
 10
-146.9657227119
 20
41.1031641891
 30
0.0
 10
-146.9922169229
 20
41.108474483
 30
0.0
 10
-147.0053511645
 20
41.108474483
 30
0.0
  0
SPLINE
  5
692
100
AcDbEntity
  8
IMPORT_IGES
100
AcDbSpline
 62
7
  6
CONTINUOUS
 70
0
 71
3
 72
11
 73
7
 74
0
 42
0.0000001
 43
0.0000001
 44
0.0000000001
 40
0.0
 40
0.0
 40
0.0
 40
0.0
 40
0.2521459264
 40
0.5029417793
 40
0.7520097266
 40
1.0
 40
1.0
 40
1.0
 40
1.0
 10
-147.0053511645
 20
36.3000954616
 30
0.0
 10
-146.9922158835
 20
36.3000954616
 30
0.0
 10
-146.9657192884
 20
36.3054006736
 30
0.0
 10
-146.932480776
 20
36.3279595951
 30
0.0
 10
-146.9104545282
 20
36.3612650702
 30
0.0
 10
-146.9053511645
 20
36.3874383379
 30
0.0
 10
-146.9053511645
 20
36.4003571345
 30
0.0
  0
SPLINE
  5
693
100
AcDbEntity
  8
IMPORT_IGES
100
AcDbSpline
 62
7
  6
CONTINUOUS
 70
0
 71
3
 72
21
 73
17
 74
0
 42
0.0000001
 43
0.0000001
 44
0.0000000001
 40
0.0
 40
0.0
 40
0.0
 40
0.0
 40
0.0202595789
 40
0.0301307943
 40
0.0421292293
 40
0.0562673781
 40
0.0725376513
 40
0.1113927408
 40
0.158431237
 40
0.2132911409
 40
0.2755933874
 40
0.3449554918
 40
0.4210062258
 40
0.5917754438
 40
0.7854799722
 40
1.0
 40
1.0
 40
1.0
 40
1.0
 10
-141.495569239
 20
17.4308825431
 30
0.0
 10
-141.508473258
 20
17.43139692
 30
0.0
 10
-141.5140624715
 20
17.4602807474
 30
0.0
 10
-141.514524264
 20
17.4849818007
 30
0.0
 10
-141.5138072787
 20
17.5084779023
 30
0.0
 10
-141.5116452975
 20
17.5352452371
 30
0.0
 10
-141.5068342532
 20
17.5792164885
 30
0.0
 10
-141.497546566
 20
17.6436398813
 30
0.0
 10
-141.4831260762
 20
17.7322135738
 30
0.0
 10
-141.4657418837
 20
17.8354220011
 30
0.0
 10
-141.4463834505
 20
17.9527360582
 30
0.0
 10
-141.4261155902
 20
18.0835849463
 30
0.0
 10
-141.3981880648
 20
18.2831939683
 30
0.0
 10
-141.3677197505
 20
18.5624524813
 30
0.0
 10
-141.3471397305
 20
18.9311453284
 30
0.0
 10
-141.3490745338
 20
19.191600831
 30
0.0
 10
-141.3548593914
 20
19.3282220697
 30
0.0
  0
SPLINE
  5
694
100
AcDbEntity
  8
IMPORT_IGES
100
AcDbSpline
 62
7
  6
CONTINUOUS
 70
0
 71
3
 72
16
 73
12
 74
0
 42
0.0000001
 43
0.0000001
 44
0.0000000001
 40
0.0
 40
0.0
 40
0.0
 40
0.0
 40
0.1981253268
 40
0.3784453637
 40
0.5392024544
 40
0.6789113679
 40
0.7961504582
 40
0.8895293248
 40
0.9577496233
 40
0.9821331435
 40
1.0
 40
1.0
 40
1.0
 40
1.0
 10
-141.3830345941
 20
19.7050877418
 30
0.0
 10
-141.395667444
 20
19.8226642315
 30
0.0
 10
-141.4283437992
 20
20.0464376079
 30
0.0
 10
-141.49853049
 20
20.3607919871
 30
0.0
 10
-141.5806599718
 20
20.6359917307
 30
0.0
 10
-141.6677534259
 20
20.8697733255
 30
0.0
 10
-141.7531984927
 20
21.0608009729
 30
0.0
 10
-141.8310726106
 20
21.2079601048
 30
0.0
 10
-141.8900851494
 20
21.3022774995
 30
0.0
 10
-141.9305339144
 20
21.3543717778
 30
0.0
 10
-141.9479326015
 20
21.3727896391
 30
0.0
 10
-141.9560871859
 20
21.379661621
 30
0.0
  0
SPLINE
  5
695
100
AcDbEntity
  8
IMPORT_IGES
100
AcDbSpline
 62
7
  6
CONTINUOUS
 70
0
 71
3
 72
11
 73
7
 74
0
 42
0.0000001
 43
0.0000001
 44
0.0000000001
 40
0.0
 40
0.0
 40
0.0
 40
0.0
 40
0.3619284141
 40
0.650447815
 40
0.8631911208
 40
1.0
 40
1.0
 40
1.0
 40
1.0
 10
-142.0799078704
 20
21.5582796584
 30
0.0
 10
-142.066036621
 20
21.5359759771
 30
0.0
 10
-142.0409470005
 20
21.4960090258
 30
0.0
 10
-142.0067543276
 20
21.4434547095
 30
0.0
 10
-141.9799717
 20
21.405794121
 30
0.0
 10
-141.9636791581
 20
21.3860594838
 30
0.0
 10
-141.9560871859
 20
21.379661621
 30
0.0
  0
SPLINE
  5
696
100
AcDbEntity
  8
IMPORT_IGES
100
AcDbSpline
 62
7
  6
CONTINUOUS
 70
0
 71
3
 72
13
 73
9
 74
0
 42
0.0000001
 43
0.0000001
 44
0.0000000001
 40
0.0
 40
0.0
 40
0.0
 40
0.0
 40
0.2122071482
 40
0.3084591844
 40
0.4116292399
 40
0.5297980541
 40
0.6675030431
 40
1.0
 40
1.0
 40
1.0
 40
1.0
 10
-160.6053511645
 20
-16.9500000004
 30
0.0
 10
-160.6053511645
 20
-16.9241266603
 30
0.0
 10
-160.6002524907
 20
-16.8843812202
 30
0.0
 10
-160.5681328819
 20
-16.8443274942
 30
0.0
 10
-160.5345254582
 20
-16.8239458408
 30
0.0
 10
-160.4924811667
 20
-16.8108410062
 30
0.0
 10
-160.4213231233
 20
-16.8005152549
 30
0.0
 10
-160.3638357774
 20
-16.8000000004
 30
0.0
 10
-160.3232961117
 20
-16.8000000004
 30
0.0
  0
SPLINE
  5
697
100
AcDbEntity
  8
IMPORT_IGES
100
AcDbSpline
 62
7
  6
CONTINUOUS
 70
0
 71
3
 72
13
 73
9
 74
0
 42
0.0000001
 43
0.0000001
 44
0.0000000001
 40
0.0
 40
0.0
 40
0.0
 40
0.0
 40
0.3327506917
 40
0.4704780274
 40
0.5884621442
 40
0.6914558904
 40
0.7877113908
 40
1.0
 40
1.0
 40
1.0
 40
1.0
 10
-160.3232961117
 20
-11.8000000004
 30
0.0
 10
-160.3638592969
 20
-11.8000000004
 30
0.0
 10
-160.4213690334
 20
-11.7994883984
 30
0.0
 10
-160.4925283644
 20
-11.7891868325
 30
0.0
 10
-160.5345231391
 20
-11.7760696021
 30
0.0
 10
-160.5680396118
 20
-11.7556372632
 30
0.0
 10
-160.600117873
 20
-11.7156034342
 30
0.0
 10
-160.6053511645
 20
-11.6758785407
 30
0.0
 10
-160.6053511645
 20
-11.6500000004
 30
0.0
  0
SPLINE
  5
698
100
AcDbEntity
  8
IMPORT_IGES
100
AcDbSpline
 62
250
  6
CONTINUOUS
 70
0
 71
3
 72
24
 73
20
 74
0
 42
0.0000001
 43
0.0000001
 44
0.0000000001
 40
0.0
 40
0.0
 40
0.0
 40
0.0
 40
0.1950534471
 40
0.382608245
 40
0.5554593065
 40
0.6342652196
 40
0.7069667028
 40
0.7728561535
 40
0.8313107767
 40
0.8817550571
 40
0.9237171838
 40
0.9413818085
 40
0.9567804742
 40
0.9698792194
 40
0.9806443334
 40
0.9890463596
 40
0.9950717191
 40
0.998714244
 40
1.0
 40
1.0
 40
1.0
 40
1.0
 10
-136.5709397326
 20
45.2316337509
 30
0.0
 10
-136.6359552242
 20
45.2322009574
 30
0.0
 10
-136.7634869204
 20
45.2333009072
 30
0.0
 10
-136.9486368432
 20
45.2344787515
 30
0.0
 10
-137.0950398149
 20
45.2351256197
 30
0.0
 10
-137.2031592547
 20
45.2353878308
 30
0.0
 10
-137.2756250707
 20
45.2354550111
 30
0.0
 10
-137.3413069871
 20
45.2353998042
 30
0.0
 10
-137.3995700274
 20
45.2352236315
 30
0.0
 10
-137.4498553861
 20
45.2349260141
 30
0.0
 10
-137.4865466329
 20
45.2345708653
 30
0.0
 10
-137.5115487255
 20
45.234212713
 30
0.0
 10
-137.5269429205
 20
45.2339375784
 30
0.0
 10
-137.5399995654
 20
45.2336197366
 30
0.0
 10
-137.5508261096
 20
45.2333190152
 30
0.0
 10
-137.5590198125
 20
45.2328781848
 30
0.0
 10
-137.5654791282
 20
45.2326965781
 30
0.0
 10
-137.5683204262
 20
45.2320083559
 30
0.0
 10
-137.5707879903
 20
45.2320623997
 30
0.0
 10
-137.5707948482
 20
45.2316338683
 30
0.0
  0
SPLINE
  5
699
100
AcDbEntity
  8
IMPORT_IGES
100
AcDbSpline
 62
250
  6
CONTINUOUS
 70
0
 71
3
 72
19
 73
15
 74
0
 42
0.0000001
 43
0.0000001
 44
0.0000000001
 40
0.0
 40
0.0
 40
0.0
 40
0.0
 40
0.0051360605
 40
0.0181815524
 40
0.0401977263
 40
0.0718375791
 40
0.113512913
 40
0.1648424819
 40
0.2252348461
 40
0.2940954185
 40
0.4536099208
 40
0.6322625958
 40
0.8179339962
 40
1.0
 40
1.0
 40
1.0
 40
1.0
 10
-144.5149233124
 20
34.8510102595
 30
0.0
 10
-144.5140789697
 20
34.8511356501
 30
0.0
 10
-144.5133106978
 20
34.855072014
 30
0.0
 10
-144.5128976936
 20
34.8608835501
 30
0.0
 10
-144.5130146039
 20
34.8724664378
 30
0.0
 10
-144.5138136645
 20
34.8880673214
 30
0.0
 10
-144.5153464249
 20
34.9088178167
 30
0.0
 10
-144.517621452
 20
34.934178004
 30
0.0
 10
-144.5206317902
 20
34.9640508278
 30
0.0
 10
-144.5258673699
 20
35.0117527483
 30
0.0
 10
-144.5339963354
 20
35.0789142949
 30
0.0
 10
-144.5452507541
 20
35.1652445137
 30
0.0
 10
-144.5577077496
 20
35.2551960762
 30
0.0
 10
-144.5664842943
 20
35.3156802021
 30
0.0
 10
-144.5709237568
 20
35.3456117536
 30
0.0
  0
SPLINE
  5
69A
100
AcDbEntity
  8
IMPORT_IGES
100
AcDbSpline
 62
250
  6
CONTINUOUS
 70
0
 71
3
 72
22
 73
18
 74
0
 42
0.0000001
 43
0.0000001
 44
0.0000000001
 40
0.0
 40
0.0
 40
0.0
 40
0.0
 40
0.1969002161
 40
0.3852812464
 40
0.5581409702
 40
0.7091827914
 40
0.7747435007
 40
0.8328280517
 40
0.8829181858
 40
0.9245415889
 40
0.9573178593
 40
0.9702958415
 40
0.9809522321
 40
0.9892626952
 40
0.995214669
 40
0.9987964934
 40
1.0
 40
1.0
 40
1.0
 40
1.0
 10
-140.9878540832
 20
39.457472531
 30
0.0
 10
-140.9561850174
 20
39.457439931
 30
0.0
 10
-140.8942171141
 20
39.4573521299
 30
0.0
 10
-140.8044466636
 20
39.4573741002
 30
0.0
 10
-140.7220522182
 20
39.4571148288
 30
0.0
 10
-140.6594129796
 20
39.4567541235
 30
0.0
 10
-140.6152332812
 20
39.4564954862
 30
0.0
 10
-140.5872911586
 20
39.4563269822
 30
0.0
 10
-140.5631963813
 20
39.4561754607
 30
0.0
 10
-140.5431798592
 20
39.4560236108
 30
0.0
 10
-140.5291135947
 20
39.4559065785
 30
0.0
 10
-140.5200614743
 20
39.4557869367
 30
0.0
 10
-140.5148811512
 20
39.4557507893
 30
0.0
 10
-140.5109848246
 20
39.4555958811
 30
0.0
 10
-140.5078634534
 20
39.455729856
 30
0.0
 10
-140.5065811218
 20
39.4553231488
 30
0.0
 10
-140.5053510201
 20
39.4556391215
 30
0.0
 10
-140.5053511645
 20
39.4554455517
 30
0.0
  0
SPLINE
  5
69B
100
AcDbEntity
  8
IMPORT_IGES
100
AcDbSpline
 62
250
  6
CONTINUOUS
 70
0
 71
3
 72
19
 73
15
 74
0
 42
0.0000001
 43
0.0000001
 44
0.0000000001
 40
0.0
 40
0.0
 40
0.0
 40
0.0
 40
0.1825752163
 40
0.3684833421
 40
0.5471097954
 40
0.7064748598
 40
0.7752462086
 40
0.8355423935
 40
0.8867824157
 40
0.9283881116
 40
0.9599793671
 40
0.9819553687
 40
0.9949564137
 40
1.0
 40
1.0
 40
1.0
 40
1.0
 10
-143.7175754972
 20
43.4346791193
 30
0.0
 10
-143.7070427947
 20
43.4628978597
 30
0.0
 10
-143.6859546609
 20
43.5199138124
 30
0.0
 10
-143.6551627926
 20
43.6047596465
 30
0.0
 10
-143.6262924589
 20
43.6862253012
 30
0.0
 10
-143.6044275036
 20
43.7496737197
 30
0.0
 10
-143.5894014027
 20
43.7948184017
 30
0.0
 10
-143.5802417412
 20
43.8231321403
 30
0.0
 10
-143.5727281908
 20
43.8472178748
 30
0.0
 10
-143.5668764325
 20
43.866995303
 30
0.0
 10
-143.5628196488
 20
43.8819204975
 30
0.0
 10
-143.5602081906
 20
43.8931239927
 30
0.0
 10
-143.5594002919
 20
43.898776714
 30
0.0
 10
-143.5592110199
 20
43.9027630626
 30
0.0
 10
-143.5599904379
 20
43.9030543369
 30
0.0
  0
SPLINE
  5
69C
100
AcDbEntity
  8
IMPORT_IGES
100
AcDbSpline
 62
250
  6
CONTINUOUS
 70
0
 71
3
 72
22
 73
18
 74
0
 42
0.0000001
 43
0.0000001
 44
0.0000000001
 40
0.0
 40
0.0
 40
0.0
 40
0.0
 40
0.1969071315
 40
0.3852921873
 40
0.5581466051
 40
0.70918224
 40
0.7747404062
 40
0.8328238299
 40
0.8829145187
 40
0.9245384476
 40
0.9573173369
 40
0.9702963485
 40
0.9809531056
 40
0.9892641509
 40
0.9952167154
 40
0.9987986127
 40
1.0
 40
1.0
 40
1.0
 40
1.0
 10
-140.9878673376
 20
39.542842651
 30
0.0
 10
-140.9561965186
 20
39.5429179249
 30
0.0
 10
-140.8942255982
 20
39.5430739086
 30
0.0
 10
-140.8044526758
 20
39.5433413001
 30
0.0
 10
-140.7220578305
 20
39.5436276632
 30
0.0
 10
-140.659418929
 20
39.5438828818
 30
0.0
 10
-140.6152395531
 20
39.5440918682
 30
0.0
 10
-140.5872971877
 20
39.5442396816
 30
0.0
 10
-140.563201803
 20
39.5443814987
 30
0.0
 10
-140.5431842062
 20
39.5445247258
 30
0.0
 10
-140.5291167859
 20
39.5446304132
 30
0.0
 10
-140.5200638214
 20
39.5447400037
 30
0.0
 10
-140.514882704
 20
39.5447661678
 30
0.0
 10
-140.510986572
 20
39.5449167406
 30
0.0
 10
-140.5078632285
 20
39.5447632337
 30
0.0
 10
-140.5065834047
 20
39.5451788836
 30
0.0
 10
-140.5053509883
 20
39.5448365848
 30
0.0
 10
-140.5053511645
 20
39.545029818
 30
0.0
  0
SPLINE
  5
69D
100
AcDbEntity
  8
IMPORT_IGES
100
AcDbSpline
 62
250
  6
CONTINUOUS
 70
0
 71
3
 72
15
 73
11
 74
0
 42
0.0000001
 43
0.0000001
 44
0.0000000001
 40
0.0
 40
0.0
 40
0.0
 40
0.0
 40
0.1250408371
 40
0.2500644245
 40
0.3750841333
 40
0.5000895382
 40
0.6250818778
 40
0.7500632087
 40
0.8750295855
 40
1.0
 40
1.0
 40
1.0
 40
1.0
 10
-140.9878540832
 20
39.457472531
 30
0.0
 10
-140.9903916423
 20
39.210379032
 30
0.0
 10
-141.0393889942
 20
38.7155786909
 30
0.0
 10
-141.2417576897
 20
37.9986796036
 30
0.0
 10
-141.5670421316
 20
37.3283318553
 30
0.0
 10
-142.0051807548
 20
36.7258374127
 30
0.0
 10
-142.5421052248
 20
36.2095286635
 30
0.0
 10
-143.161610439
 20
35.7959246585
 30
0.0
 10
-143.8438867033
 20
35.4977265389
 30
0.0
 10
-144.3271430326
 20
35.3818399222
 30
0.0
 10
-144.5714314057
 20
35.3455622835
 30
0.0
  0
SPLINE
  5
69E
100
AcDbEntity
  8
IMPORT_IGES
100
AcDbSpline
 62
250
  6
CONTINUOUS
 70
0
 71
3
 72
17
 73
13
 74
0
 42
0.0000001
 43
0.0000001
 44
0.0000000001
 40
0.0
 40
0.0
 40
0.0
 40
0.0
 40
0.0861228783
 40
0.1685120681
 40
0.2478271645
 40
0.3228663117
 40
0.4616257381
 40
0.5865300799
 40
0.700534793
 40
0.8059743919
 40
0.9046820437
 40
1.0
 40
1.0
 40
1.0
 40
1.0
 10
-141.8189335669
 20
23.1088089932
 30
0.0
 10
-141.856418298
 20
23.1846311882
 30
0.0
 10
-141.9208589422
 20
23.3376110764
 30
0.0
 10
-141.9874853591
 20
23.5722646712
 30
0.0
 10
-142.0250641228
 20
23.8022292028
 30
0.0
 10
-142.0403973801
 20
24.0901601048
 30
0.0
 10
-142.0050358987
 20
24.4235341065
 30
0.0
 10
-141.8923505434
 20
24.7795116465
 30
0.0
 10
-141.7257252009
 20
25.0764048927
 30
0.0
 10
-141.521111107
 20
25.315339346
 30
0.0
 10
-141.286839334
 20
25.4963360507
 30
0.0
 10
-141.1142334853
 20
25.5807228197
 30
0.0
 10
-141.0262722294
 20
25.6127559904
 30
0.0
  0
SPLINE
  5
69F
100
AcDbEntity
  8
IMPORT_IGES
100
AcDbSpline
 62
250
  6
CONTINUOUS
 70
0
 71
3
 72
14
 73
10
 74
0
 42
0.0000001
 43
0.0000001
 44
0.0000000001
 40
0.0
 40
0.0
 40
0.0
 40
0.0
 40
0.350387641
 40
0.5229324641
 40
0.6793010004
 40
0.8091201896
 40
0.9065763554
 40
0.9687541027
 40
1.0
 40
1.0
 40
1.0
 40
1.0
 10
-141.2775925803
 20
21.9906097908
 30
0.0
 10
-141.3103909973
 20
21.974364397
 30
0.0
 10
-141.3588914379
 20
21.9491664038
 30
0.0
 10
-141.4206377652
 20
21.9142289081
 30
0.0
 10
-141.4617129172
 20
21.8894340029
 30
0.0
 10
-141.4950461665
 20
21.8674199193
 30
0.0
 10
-141.5196067754
 20
21.8491557754
 30
0.0
 10
-141.5337961003
 20
21.8360422997
 30
0.0
 10
-141.54019869
 20
21.8273768435
 30
0.0
 10
-141.5401323496
 20
21.824113596
 30
0.0
  0
SPLINE
  5
6A0
100
AcDbEntity
  8
IMPORT_IGES
100
AcDbSpline
 62
250
  6
CONTINUOUS
 70
0
 71
3
 72
15
 73
11
 74
0
 42
0.0000001
 43
0.0000001
 44
0.0000000001
 40
0.0
 40
0.0
 40
0.0
 40
0.0
 40
0.1492625509
 40
0.2887743613
 40
0.4199006463
 40
0.5439495254
 40
0.6624360952
 40
0.7771816332
 40
0.8895376229
 40
1.0
 40
1.0
 40
1.0
 40
1.0
 10
-142.2962110283
 20
23.7325939113
 30
0.0
 10
-142.3008776872
 20
23.8649446649
 30
0.0
 10
-142.285109441
 20
24.1226319416
 30
0.0
 10
-142.1912246933
 20
24.4853186537
 30
0.0
 10
-142.0419406209
 20
24.8042460467
 30
0.0
 10
-141.8491552073
 20
25.0760713587
 30
0.0
 10
-141.6224610527
 20
25.299918078
 30
0.0
 10
-141.3691874501
 20
25.4754420621
 30
0.0
 10
-141.0963379403
 20
25.6022768711
 30
0.0
 10
-140.9044692093
 20
25.6543502355
 30
0.0
 10
-140.808051194
 20
25.671930212
 30
0.0
  0
SPLINE
  5
6A1
100
AcDbEntity
  8
IMPORT_IGES
100
AcDbSpline
 62
250
  6
CONTINUOUS
 70
0
 71
3
 72
13
 73
9
 74
0
 42
0.0000001
 43
0.0000001
 44
0.0000000001
 40
0.0
 40
0.0
 40
0.0
 40
0.0
 40
0.3116008708
 40
0.4710391666
 40
0.6201548673
 40
0.7499767593
 40
0.8561766021
 40
1.0
 40
1.0
 40
1.0
 40
1.0
 10
-141.8189335695
 20
23.1088089983
 30
0.0
 10
-141.8541783939
 20
23.0925968348
 30
0.0
 10
-141.905754339
 20
23.0640031346
 30
0.0
 10
-141.9679986734
 20
23.0181589421
 30
0.0
 10
-142.0087103097
 20
22.9817067292
 30
0.0
 10
-142.0399523896
 20
22.944848192
 30
0.0
 10
-142.0644428507
 20
22.904905013
 30
0.0
 10
-142.0713057935
 20
22.870874672
 30
0.0
 10
-142.0653678789
 20
22.853981667
 30
0.0
  0
SPLINE
  5
6A2
100
AcDbEntity
  8
IMPORT_IGES
100
AcDbSpline
 62
250
  6
CONTINUOUS
 70
0
 71
3
 72
9
 73
5
 74
0
 42
0.0000001
 43
0.0000001
 44
0.0000000001
 40
0.0
 40
0.0
 40
0.0
 40
0.0
 40
0.4813758556
 40
1.0
 40
1.0
 40
1.0
 40
1.0
 10
-142.5942599426
 20
22.7575483151
 30
0.0
 10
-142.6479911983
 20
22.8934753921
 30
0.0
 10
-142.7282002434
 20
23.1891478725
 30
0.0
 10
-142.7411560718
 20
23.4953901697
 30
0.0
 10
-142.7308251765
 20
23.6525223533
 30
0.0
  0
SPLINE
  5
6A3
100
AcDbEntity
  8
IMPORT_IGES
100
AcDbSpline
 62
250
  6
CONTINUOUS
 70
0
 71
3
 72
10
 73
6
 74
0
 42
0.0000001
 43
0.0000001
 44
0.0000000001
 40
0.0
 40
0.0
 40
0.0
 40
0.0
 40
0.4371502945
 40
0.6991282238
 40
1.0
 40
1.0
 40
1.0
 40
1.0
 10
-142.7308251765
 20
23.6525223533
 30
0.0
 10
-142.7185019263
 20
23.8418152765
 30
0.0
 10
-142.6587135811
 20
24.1435949343
 30
0.0
 10
-142.4913529907
 20
24.5451303963
 30
0.0
 10
-142.3614955114
 20
24.7538171993
 30
0.0
 10
-142.2832982218
 20
24.8583665658
 30
0.0
  0
SPLINE
  5
6A4
100
AcDbEntity
  8
IMPORT_IGES
100
AcDbSpline
 62
250
  6
CONTINUOUS
 70
0
 71
3
 72
9
 73
5
 74
0
 42
0.0000001
 43
0.0000001
 44
0.0000000001
 40
0.0
 40
0.0
 40
0.0
 40
0.0
 40
0.4997244333
 40
1.0
 40
1.0
 40
1.0
 40
1.0
 10
-142.2832982218
 20
24.8583665657
 30
0.0
 10
-142.133900599
 20
25.0576464393
 30
0.0
 10
-141.7555369283
 20
25.401835257
 30
0.0
 10
-141.2784861368
 20
25.5861554198
 30
0.0
 10
-141.0331929673
 20
25.6308799263
 30
0.0
  0
SPLINE
  5
6A5
100
AcDbEntity
  8
IMPORT_IGES
100
AcDbSpline
 62
250
  6
CONTINUOUS
 70
0
 71
3
 72
13
 73
9
 74
0
 42
0.0000001
 43
0.0000001
 44
0.0000000001
 40
0.0
 40
0.0
 40
0.0
 40
0.0
 40
0.0930037616
 40
0.2025693618
 40
0.3232321226
 40
0.4516109108
 40
0.7209237315
 40
1.0
 40
1.0
 40
1.0
 40
1.0
 10
-143.8842417226
 20
26.0550300077
 30
0.0
 10
-143.8616391026
 20
25.9474144447
 30
0.0
 10
-143.8013840391
 20
25.7153708491
 30
0.0
 10
-143.6872393616
 20
25.3505682208
 30
0.0
 10
-143.545684879
 20
24.9508025138
 30
0.0
 10
-143.3252913565
 20
24.3788682911
 30
0.0
 10
-143.0127233257
 20
23.6420103175
 30
0.0
 10
-142.7384931443
 20
23.054323263
 30
0.0
 10
-142.5942599405
 20
22.7575483097
 30
0.0
  0
SPLINE
  5
6A6
100
AcDbEntity
  8
IMPORT_IGES
100
AcDbSpline
 62
250
  6
CONTINUOUS
 70
0
 71
3
 72
24
 73
20
 74
0
 42
0.0000001
 43
0.0000001
 44
0.0000000001
 40
0.0
 40
0.0
 40
0.0
 40
0.0
 40
0.1950546247
 40
0.3826104027
 40
0.5554621567
 40
0.6342682829
 40
0.7069698786
 40
0.7728593343
 40
0.8313138486
 40
0.881757902
 40
0.9237196863
 40
0.9413840978
 40
0.9567825202
 40
0.9698809899
 40
0.9806457941
 40
0.9890474764
 40
0.995072467
 40
0.9987146103
 40
1.0
 40
1.0
 40
1.0
 40
1.0
 10
-114.1292875753
 20
30.4141816313
 30
0.0
 10
-114.0642718171
 20
30.4136144454
 30
0.0
 10
-113.9367396506
 20
30.4125143369
 30
0.0
 10
-113.7515891373
 20
30.4113364491
 30
0.0
 10
-113.6051858214
 20
30.4106895331
 30
0.0
 10
-113.4970662521
 20
30.4104273053
 30
0.0
 10
-113.4246004665
 20
30.4103601225
 30
0.0
 10
-113.3589186747
 20
30.4104153335
 30
0.0
 10
-113.3006558575
 20
30.4105915187
 30
0.0
 10
-113.2503708237
 20
30.4108891585
 30
0.0
 10
-113.2136799067
 20
30.4112443323
 30
0.0
 10
-113.1886781334
 20
30.4116025038
 30
0.0
 10
-113.173284203
 20
30.4118776563
 30
0.0
 10
-113.1602278881
 20
30.4121955111
 30
0.0
 10
-113.1494015988
 20
30.4124962775
 30
0.0
 10
-113.1412084488
 20
30.4129370898
 30
0.0
 10
-113.1347490839
 20
30.4131188528
 30
0.0
 10
-113.1319088815
 20
30.4138068537
 30
0.0
 10
-113.1294409059
 20
30.413753111
 30
0.0
 10
-113.1294344409
 20
30.4141815256
 30
0.0
  0
SPLINE
  5
6A7
100
AcDbEntity
  8
IMPORT_IGES
100
AcDbSpline
 62
250
  6
CONTINUOUS
 70
0
 71
3
 72
11
 73
7
 74
0
 42
0.0000001
 43
0.0000001
 44
0.0000000001
 40
0.0
 40
0.0
 40
0.0
 40
0.0
 40
0.2500110945
 40
0.5000010576
 40
0.7499897092
 40
1.0
 40
1.0
 40
1.0
 40
1.0
 10
-141.3912478052
 20
27.5984805863
 30
0.0
 10
-141.6368443339
 20
27.5529448624
 30
0.0
 10
-142.1213831601
 20
27.4181616304
 30
0.0
 10
-142.7957439495
 20
27.0818607564
 30
0.0
 10
-143.3974594179
 20
26.6282216712
 30
0.0
 10
-143.7341414996
 20
26.2545780708
 30
0.0
 10
-143.8842783251
 20
26.0549542007
 30
0.0
  0
SPLINE
  5
6A8
100
AcDbEntity
  8
IMPORT_IGES
100
AcDbSpline
 62
250
  6
CONTINUOUS
 70
0
 71
3
 72
11
 73
7
 74
0
 42
0.0000001
 43
0.0000001
 44
0.0000000001
 40
0.0
 40
0.0
 40
0.0
 40
0.0
 40
0.2033579143
 40
0.4441060393
 40
0.7140061677
 40
1.0
 40
1.0
 40
1.0
 40
1.0
 10
-146.2299061769
 20
29.8534903693
 30
0.0
 10
-146.8847176431
 20
29.89633853
 30
0.0
 10
-148.3158611205
 20
29.972869327
 30
0.0
 10
-150.6184630396
 20
30.056034225
 30
0.0
 10
-153.1886640926
 20
30.1095210436
 30
0.0
 10
-154.9824849839
 20
30.1225367066
 30
0.0
 10
-155.9053530927
 20
30.1228979204
 30
0.0
  0
SPLINE
  5
6A9
100
AcDbEntity
  8
IMPORT_IGES
100
AcDbSpline
 62
250
  6
CONTINUOUS
 70
0
 71
3
 72
18
 73
14
 74
0
 42
0.0000001
 43
0.0000001
 44
0.0000000001
 40
0.0
 40
0.0
 40
0.0
 40
0.0
 40
0.0069991108
 40
0.0221800117
 40
0.0464080448
 40
0.0796348633
 40
0.1216161131
 40
0.1719879752
 40
0.2959385527
 40
0.4468414182
 40
0.6189369585
 40
0.8057294328
 40
1.0
 40
1.0
 40
1.0
 40
1.0
 10
-154.5791831864
 20
-37.4200169255
 30
0.0
 10
-154.5780157765
 20
-37.4199557441
 30
0.0
 10
-154.5757845202
 20
-37.4159322739
 30
0.0
 10
-154.5742664138
 20
-37.408934096
 30
0.0
 10
-154.5723872185
 20
-37.3966231499
 30
0.0
 10
-154.5710128591
 20
-37.3801983147
 30
0.0
 10
-154.5698254286
 20
-37.3592063998
 30
0.0
 10
-154.568640535
 20
-37.3231181126
 30
0.0
 10
-154.5681775859
 20
-37.2687795498
 30
0.0
 10
-154.5689714396
 20
-37.1941362322
 30
0.0
 10
-154.5710975659
 20
-37.10901155
 30
0.0
 10
-154.5744882892
 20
-37.0166825089
 30
0.0
 10
-154.5774896468
 20
-36.953105573
 30
0.0
 10
-154.5791831864
 20
-36.9207021581
 30
0.0
  0
SPLINE
  5
6AA
100
AcDbEntity
  8
IMPORT_IGES
100
AcDbSpline
 62
250
  6
CONTINUOUS
 70
0
 71
3
 72
9
 73
5
 74
0
 42
0.0000001
 43
0.0000001
 44
0.0000000001
 40
0.0
 40
0.0
 40
0.0
 40
0.0
 40
0.5411678909
 40
1.0
 40
1.0
 40
1.0
 40
1.0
 10
-154.5791831864
 20
-35.279297842
 30
0.0
 10
-154.5758633997
 20
-35.2157785565
 30
0.0
 10
-154.5708789806
 20
-35.0983438978
 30
0.0
 10
-154.5683974054
 20
-34.9808139138
 30
0.0
 10
-154.5683946377
 20
-34.926885242
 30
0.0
  0
SPLINE
  5
6AB
100
AcDbEntity
  8
IMPORT_IGES
100
AcDbSpline
 62
250
  6
CONTINUOUS
 70
0
 71
3
 72
14
 73
10
 74
0
 42
0.0000001
 43
0.0000001
 44
0.0000000001
 40
0.0
 40
0.0
 40
0.0
 40
0.0
 40
0.2766390252
 40
0.4175398904
 40
0.5534478688
 40
0.6804350852
 40
0.7969084422
 40
0.9026978975
 40
1.0
 40
1.0
 40
1.0
 40
1.0
 10
-150.3806885282
 20
31.9858041617
 30
0.0
 10
-150.3208593521
 20
31.9878934409
 30
0.0
 10
-150.2302057775
 20
32.0024227204
 30
0.0
 10
-150.1185590405
 20
32.0467481405
 30
0.0
 10
-150.0430818604
 20
32.0917528812
 30
0.0
 10
-149.9817204417
 20
32.1471222676
 30
0.0
 10
-149.9369855073
 20
32.2088777106
 30
0.0
 10
-149.9110677843
 20
32.2737530606
 30
0.0
 10
-149.9053511459
 20
32.3178709046
 30
0.0
 10
-149.9053511645
 20
32.3389274171
 30
0.0
  0
SPLINE
  5
6AC
100
AcDbEntity
  8
IMPORT_IGES
100
AcDbSpline
 62
250
  6
CONTINUOUS
 70
0
 71
3
 72
14
 73
10
 74
0
 42
0.0000001
 43
0.0000001
 44
0.0000000001
 40
0.0
 40
0.0
 40
0.0
 40
0.0
 40
0.4190222003
 40
0.5892053274
 40
0.7310241824
 40
0.8432525659
 40
0.9250591319
 40
0.9763521915
 40
1.0
 40
1.0
 40
1.0
 40
1.0
 10
-154.5683946377
 20
-34.926885242
 30
0.0
 10
-154.5683935736
 20
-34.9061493592
 30
0.0
 10
-154.5686374207
 20
-34.8769783561
 30
0.0
 10
-154.5698228184
 20
-34.8408425284
 30
0.0
 10
-154.5710110523
 20
-34.8198318254
 30
0.0
 10
-154.5723845978
 20
-34.8033943778
 30
0.0
 10
-154.5742662019
 20
-34.7910761011
 30
0.0
 10
-154.5757780546
 20
-34.7840696444
 30
0.0
 10
-154.578014834
 20
-34.7800440465
 30
0.0
 10
-154.5791834877
 20
-34.7799830588
 30
0.0
  0
SPLINE
  5
6AD
100
AcDbEntity
  8
IMPORT_IGES
100
AcDbSpline
 62
250
  6
CONTINUOUS
 70
0
 71
3
 72
18
 73
14
 74
0
 42
0.0000001
 43
0.0000001
 44
0.0000000001
 40
0.0
 40
0.0
 40
0.0
 40
0.0
 40
0.2249954408
 40
0.423529224
 40
0.5945250835
 40
0.7369091936
 40
0.8496130267
 40
0.8945049023
 40
0.9315839274
 40
0.9607265809
 40
0.9818229468
 40
0.9948116562
 40
1.0
 40
1.0
 40
1.0
 40
1.0
 10
-150.3806885282
 20
31.9858041617
 30
0.0
 10
-150.3806885282
 20
31.963802596
 30
0.0
 10
-150.3807565038
 20
31.9223867983
 30
0.0
 10
-150.3810985819
 20
31.864251729
 30
0.0
 10
-150.3816625775
 20
31.8141939167
 30
0.0
 10
-150.3824393888
 20
31.7725418242
 30
0.0
 10
-150.3832941031
 20
31.7432042313
 30
0.0
 10
-150.3841298393
 20
31.7242084858
 30
0.0
 10
-150.3847550823
 20
31.7133117123
 30
0.0
 10
-150.3854136257
 20
31.7049258826
 30
0.0
 10
-150.3861087048
 20
31.6984844303
 30
0.0
 10
-150.3867715932
 20
31.6952406952
 30
0.0
 10
-150.3873943941
 20
31.692928988
 30
0.0
 10
-150.3879014361
 20
31.6929112817
 30
0.0
  0
SPLINE
  5
6AE
100
AcDbEntity
  8
IMPORT_IGES
100
AcDbSpline
 62
250
  6
CONTINUOUS
 70
0
 71
3
 72
9
 73
5
 74
0
 42
0.0000001
 43
0.0000001
 44
0.0000000001
 40
0.0
 40
0.0
 40
0.0
 40
0.0
 40
0.2763714715
 40
1.0
 40
1.0
 40
1.0
 40
1.0
 10
-150.3879014361
 20
32.692302109
 30
0.0
 10
-150.3867672034
 20
32.6272229357
 30
0.0
 10
-150.3831084963
 20
32.3917393993
 30
0.0
 10
-150.3806885281
 20
32.1562280407
 30
0.0
 10
-150.3806885282
 20
31.9858041617
 30
0.0
  0
SPLINE
  5
6AF
100
AcDbEntity
  8
IMPORT_IGES
100
AcDbSpline
 62
7
  6
CONTINUOUS
 70
0
 71
3
 72
11
 73
7
 74
0
 42
0.0000001
 43
0.0000001
 44
0.0000000001
 40
0.0
 40
0.0
 40
0.0
 40
0.0
 40
0.1009138068
 40
0.3153222675
 40
0.6293193444
 40
1.0
 40
1.0
 40
1.0
 40
1.0
 10
-146.9053511645
 20
37.859895652
 30
0.0
 10
-146.9053511645
 20
37.8563876855
 30
0.0
 10
-146.9173629989
 20
37.8495189716
 30
0.0
 10
-146.9369955959
 20
37.8453016963
 30
0.0
 10
-146.9688809656
 20
37.8410648554
 30
0.0
 10
-146.9924655609
 20
37.8403409141
 30
0.0
 10
-147.0053511645
 20
37.8403409141
 30
0.0
  0
SPLINE
  5
6B0
100
AcDbEntity
  8
IMPORT_IGES
100
AcDbSpline
 62
250
  6
CONTINUOUS
 70
0
 71
3
 72
24
 73
20
 74
0
 42
0.0000001
 43
0.0000001
 44
0.0000000001
 40
0.0
 40
0.0
 40
0.0
 40
0.0
 40
0.0012856239
 40
0.0049281593
 40
0.0109536142
 40
0.0193557499
 40
0.0301209296
 40
0.0432196998
 40
0.0586183705
 40
0.0762830006
 40
0.1182451794
 40
0.1686895408
 40
0.227144237
 40
0.2930337493
 40
0.3657352865
 40
0.444541238
 40
0.6173922981
 40
0.8049469432
 40
1.0
 40
1.0
 40
1.0
 40
1.0
 10
-113.1399074818
 20
45.2316339218
 30
0.0
 10
-113.1399140742
 20
45.2320624163
 30
0.0
 10
-113.1423821236
 20
45.2320085929
 30
0.0
 10
-113.1452228944
 20
45.2326967513
 30
0.0
 10
-113.1516826294
 20
45.2328785331
 30
0.0
 10
-113.1598763399
 20
45.2333194305
 30
0.0
 10
-113.1707030751
 20
45.2336202515
 30
0.0
 10
-113.1837598221
 20
45.2339381636
 30
0.0
 10
-113.1991541405
 20
45.2342133656
 30
0.0
 10
-113.224156423
 20
45.2345716019
 30
0.0
 10
-113.2608479706
 20
45.2349268432
 30
0.0
 10
-113.3111337446
 20
45.2352245437
 30
0.0
 10
-113.3693972598
 20
45.2354007704
 30
0.0
 10
-113.4350796933
 20
45.2354560018
 30
0.0
 10
-113.5075460619
 20
45.2353888154
 30
0.0
 10
-113.6156662797
 20
45.2351265645
 30
0.0
 10
-113.7620702251
 20
45.2344795931
 30
0.0
 10
-113.9472212443
 20
45.2333013755
 30
0.0
 10
-114.0747536423
 20
45.2322015145
 30
0.0
 10
-114.1397694506
 20
45.2316339635
 30
0.0
  0
SPLINE
  5
6B1
100
AcDbEntity
  8
IMPORT_IGES
100
AcDbSpline
 62
7
  6
CONTINUOUS
 70
0
 71
3
 72
13
 73
9
 74
0
 42
0.0000001
 43
0.0000001
 44
0.0000000001
 40
0.0
 40
0.0
 40
0.0
 40
0.0
 40
0.2497561324
 40
0.4994393705
 40
0.7490624853
 40
0.8744419842
 40
0.9372374056
 40
1.0
 40
1.0
 40
1.0
 40
1.0
 10
-112.1380735244
 20
-8.4595286722
 30
0.0
 10
-112.1411277397
 20
-8.5222415517
 30
0.0
 10
-112.1706082213
 20
-8.647782482
 30
0.0
 10
-112.2802931027
 20
-8.8061324435
 30
0.0
 10
-112.4151868254
 20
-8.8946811678
 30
0.0
 10
-112.5213358995
 20
-8.9261118579
 30
0.0
 10
-112.5838105883
 20
-8.9352235414
 30
0.0
 10
-112.6153662386
 20
-8.9374381176
 30
0.0
 10
-112.631144382
 20
-8.9374379854
 30
0.0
  0
SPLINE
  5
6B2
100
AcDbEntity
  8
IMPORT_IGES
100
AcDbSpline
 62
7
  6
CONTINUOUS
 70
0
 71
3
 72
11
 73
7
 74
0
 42
0.0000001
 43
0.0000001
 44
0.0000000001
 40
0.0
 40
0.0
 40
0.0
 40
0.0
 40
0.125409599
 40
0.2508597522
 40
0.5013639626
 40
1.0
 40
1.0
 40
1.0
 40
1.0
 10
-112.631144382
 20
-8.9374379854
 30
0.0
 10
-112.6479831934
 20
-8.9374378442
 30
0.0
 10
-112.6816505542
 20
-8.9349230837
 30
0.0
 10
-112.7482753916
 20
-8.9247893132
 30
0.0
 10
-112.8609348913
 20
-8.8893699987
 30
0.0
 10
-112.9464558935
 20
-8.8301922818
 30
0.0
 10
-112.9930766448
 20
-8.7821392742
 30
0.0
  0
SPLINE
  5
6B3
100
AcDbEntity
  8
IMPORT_IGES
100
AcDbSpline
 62
7
  6
CONTINUOUS
 70
0
 71
3
 72
21
 73
17
 74
0
 42
0.0000001
 43
0.0000001
 44
0.0000000001
 40
0.0
 40
0.0
 40
0.0
 40
0.0
 40
0.0014824853
 40
0.0051982875
 40
0.0112659942
 40
0.0196940516
 40
0.0435897069
 40
0.0766653809
 40
0.118616568
 40
0.1690524118
 40
0.2274771409
 40
0.2933469531
 40
0.4447943525
 40
0.6175530061
 40
0.805051221
 40
1.0
 40
1.0
 40
1.0
 40
1.0
 10
-156.1053510056
 20
-34.7000002368
 30
0.0
 10
-156.1051042728
 20
-34.7000097817
 30
0.0
 10
-156.1047991868
 20
-34.7011331122
 30
0.0
 10
-156.1044910173
 20
-34.7027237523
 30
0.0
 10
-156.1041603695
 20
-34.705882361
 30
0.0
 10
-156.1036816242
 20
-34.712173907
 30
0.0
 10
-156.1031394702
 20
-34.7231171453
 30
0.0
 10
-156.102587347
 20
-34.7395544992
 30
0.0
 10
-156.1021787202
 20
-34.76045918
 30
0.0
 10
-156.1019299404
 20
-34.7855727266
 30
0.0
 10
-156.101796087
 20
-34.8146763047
 30
0.0
 10
-156.1017383473
 20
-34.860602333
 30
0.0
 10
-156.1019041704
 20
-34.9255723752
 30
0.0
 10
-156.1026128899
 20
-35.010797465
 30
0.0
 10
-156.1038951722
 20
-35.1032617359
 30
0.0
 10
-156.1047838202
 20
-35.1669546557
 30
0.0
 10
-156.1053495317
 20
-35.1994196848
 30
0.0
  0
SPLINE
  5
6B4
100
AcDbEntity
  8
0
100
AcDbSpline
 62
7
  6
CONTINUOUS
 70
0
 71
3
 72
13
 73
9
 74
0
 42
0.0000001
 43
0.0000001
 44
0.0000000001
 40
0.0
 40
0.0
 40
0.0
 40
0.0
 40
0.0257339385
 40
0.0771363022
 40
0.1584470393
 40
0.2700810692
 40
0.5815682002
 40
1.0
 40
1.0
 40
1.0
 40
1.0
 10
-128.5053511645
 20
-12.2722346783
 30
0.0
 10
-128.5053511645
 20
-12.277405668
 30
0.0
 10
-128.4905928583
 20
-12.289032619
 30
0.0
 10
-128.4610906212
 20
-12.2961952853
 30
0.0
 10
-128.4120069476
 20
-12.3052446012
 30
0.0
 10
-128.3114664412
 20
-12.3148121186
 30
0.0
 10
-128.1421528292
 20
-12.3222151094
 30
0.0
 10
-127.9955812831
 20
-12.32356
 30
0.0
 10
-127.9115014016
 20
-12.32356
 30
0.0
  0
SPLINE
  5
6B5
100
AcDbEntity
  8
0
100
AcDbSpline
 62
7
  6
CONTINUOUS
 70
0
 71
3
 72
13
 73
9
 74
0
 42
0.0000001
 43
0.0000001
 44
0.0000000001
 40
0.0
 40
0.0
 40
0.0
 40
0.0
 40
0.4184317998
 40
0.7299189308
 40
0.8415529607
 40
0.9228636978
 40
0.9742660615
 40
1.0
 40
1.0
 40
1.0
 40
1.0
 10
-127.9115014016
 20
12.32356
 30
0.0
 10
-127.9955812831
 20
12.32356
 30
0.0
 10
-128.1421528292
 20
12.3222151094
 30
0.0
 10
-128.3114664412
 20
12.3148121186
 30
0.0
 10
-128.4120069476
 20
12.3052446012
 30
0.0
 10
-128.4610906212
 20
12.2961952853
 30
0.0
 10
-128.4905928583
 20
12.289032619
 30
0.0
 10
-128.5053511645
 20
12.277405668
 30
0.0
 10
-128.5053511645
 20
12.2722346783
 30
0.0
  0
SPLINE
  5
6B6
100
AcDbEntity
  8
0
100
AcDbSpline
 62
250
  6
CONTINUOUS
 70
0
 71
3
 72
15
 73
11
 74
0
 42
0.0000001
 43
0.0000001
 44
0.0000000001
 40
0.0
 40
0.0
 40
0.0
 40
0.0
 40
0.170453744
 40
0.3363314398
 40
0.4901986521
 40
0.6235088684
 40
0.7316983601
 40
0.8212847324
 40
0.906998816
 40
1.0
 40
1.0
 40
1.0
 40
1.0
 10
-126.7553511645
 20
4.0061833096
 30
0.0
 10
-126.8419124401
 20
3.9449844408
 30
0.0
 10
-127.0176999744
 20
3.831028297
 30
0.0
 10
-127.289189952
 20
3.6910024328
 30
0.0
 10
-127.5554503858
 20
3.5953226524
 30
0.0
 10
-127.8001258499
 20
3.5561759073
 30
0.0
 10
-128.0091277079
 20
3.5828021516
 30
0.0
 10
-128.1629612022
 20
3.6832034579
 30
0.0
 10
-128.2429932178
 20
3.8360737038
 30
0.0
 10
-128.2553500641
 20
3.948343153
 30
0.0
 10
-128.2553511645
 20
4.0061833096
 30
0.0
  0
SPLINE
  5
6B7
100
AcDbEntity
  8
0
100
AcDbSpline
 62
250
  6
CONTINUOUS
 70
0
 71
3
 72
15
 73
11
 74
0
 42
0.0000001
 43
0.0000001
 44
0.0000000001
 40
0.0
 40
0.0
 40
0.0
 40
0.0
 40
0.0931410095
 40
0.1790356368
 40
0.2687875317
 40
0.3771093289
 40
0.5104806563
 40
0.6642726312
 40
0.8298073014
 40
1.0
 40
1.0
 40
1.0
 40
1.0
 10
-128.2553511645
 20
5.9938166904
 30
0.0
 10
-128.2553392966
 20
6.0517429006
 30
0.0
 10
-128.2429537837
 20
6.1642071089
 30
0.0
 10
-128.1626156416
 20
6.3173349984
 30
0.0
 10
-128.0081856852
 20
6.4174045835
 30
0.0
 10
-127.7989871291
 20
6.4437919922
 30
0.0
 10
-127.5542587192
 20
6.4044287581
 30
0.0
 10
-127.288319972
 20
6.3085529935
 30
0.0
 10
-127.0172381222
 20
6.1686871647
 30
0.0
 10
-126.8417746072
 20
6.0549264132
 30
0.0
 10
-126.7553511645
 20
5.9938166904
 30
0.0
  0
SPLINE
  5
6B8
100
AcDbEntity
  8
0
100
AcDbSpline
 62
250
  6
CONTINUOUS
 70
0
 71
3
 72
11
 73
7
 74
0
 42
0.0000001
 43
0.0000001
 44
0.0000000001
 40
0.0
 40
0.0
 40
0.0
 40
0.0
 40
0.2042004429
 40
0.5000120907
 40
0.7957479009
 40
1.0
 40
1.0
 40
1.0
 40
1.0
 10
-128.2553511645
 20
4.7878679656
 30
0.0
 10
-128.2804243472
 20
4.8091278487
 30
0.0
 10
-128.3345465602
 20
4.8705756072
 30
0.0
 10
-128.373292076
 20
4.9999961233
 30
0.0
 10
-128.3345374505
 20
5.1294076132
 30
0.0
 10
-128.2804364704
 20
5.1908735925
 30
0.0
 10
-128.2553511645
 20
5.2121320344
 30
0.0
  0
SPLINE
  5
6B9
100
AcDbEntity
  8
0
100
AcDbSpline
 62
250
  6
CONTINUOUS
 70
0
 71
3
 72
15
 73
11
 74
0
 42
0.0000001
 43
0.0000001
 44
0.0000000001
 40
0.0
 40
0.0
 40
0.0
 40
0.0
 40
0.1220530587
 40
0.2452595258
 40
0.3707700245
 40
0.4998700573
 40
0.6290547243
 40
0.7546590609
 40
0.8779190572
 40
1.0
 40
1.0
 40
1.0
 40
1.0
 10
-125.6498821224
 20
5.2121320344
 30
0.0
 10
-125.6250626889
 20
5.2025621636
 30
0.0
 10
-125.5759747397
 20
5.1811232377
 30
0.0
 10
-125.5065055844
 20
5.1392203155
 30
0.0
 10
-125.4448731808
 20
5.0835438094
 30
0.0
 10
-125.4105277484
 20
5.0000797389
 30
0.0
 10
-125.4447783268
 20
4.9165300958
 30
0.0
 10
-125.5064616517
 20
4.8608233119
 30
0.0
 10
-125.5759520436
 20
4.8188873255
 30
0.0
 10
-125.6250559386
 20
4.797437221
 30
0.0
 10
-125.6498821224
 20
4.7878679656
 30
0.0
  0
SPLINE
  5
6BA
100
AcDbEntity
  8
0
100
AcDbSpline
 62
250
  6
CONTINUOUS
 70
0
 71
3
 72
15
 73
11
 74
0
 42
0.0000001
 43
0.0000001
 44
0.0000000001
 40
0.0
 40
0.0
 40
0.0
 40
0.0
 40
0.170453744
 40
0.3363314398
 40
0.4901986521
 40
0.6235088684
 40
0.7316983601
 40
0.8212847324
 40
0.906998816
 40
1.0
 40
1.0
 40
1.0
 40
1.0
 10
-126.7553511645
 20
-5.9938166904
 30
0.0
 10
-126.8419124401
 20
-6.0550155592
 30
0.0
 10
-127.0176999744
 20
-6.168971703
 30
0.0
 10
-127.289189952
 20
-6.3089975672
 30
0.0
 10
-127.5554503858
 20
-6.4046773476
 30
0.0
 10
-127.8001258499
 20
-6.4438240927
 30
0.0
 10
-128.0091277079
 20
-6.4171978484
 30
0.0
 10
-128.1629612022
 20
-6.3167965421
 30
0.0
 10
-128.2429932178
 20
-6.1639262962
 30
0.0
 10
-128.2553500641
 20
-6.051656847
 30
0.0
 10
-128.2553511645
 20
-5.9938166904
 30
0.0
  0
SPLINE
  5
6BB
100
AcDbEntity
  8
0
100
AcDbSpline
 62
250
  6
CONTINUOUS
 70
0
 71
3
 72
15
 73
11
 74
0
 42
0.0000001
 43
0.0000001
 44
0.0000000001
 40
0.0
 40
0.0
 40
0.0
 40
0.0
 40
0.0931410095
 40
0.1790356368
 40
0.2687875317
 40
0.3771093289
 40
0.5104806563
 40
0.6642726312
 40
0.8298073014
 40
1.0
 40
1.0
 40
1.0
 40
1.0
 10
-128.2553511645
 20
-4.0061833096
 30
0.0
 10
-128.2553392966
 20
-3.9482570994
 30
0.0
 10
-128.2429537837
 20
-3.8357928911
 30
0.0
 10
-128.1626156416
 20
-3.6826650016
 30
0.0
 10
-128.0081856852
 20
-3.5825954165
 30
0.0
 10
-127.7989871291
 20
-3.5562080078
 30
0.0
 10
-127.5542587192
 20
-3.5955712419
 30
0.0
 10
-127.288319972
 20
-3.6914470065
 30
0.0
 10
-127.0172381222
 20
-3.8313128353
 30
0.0
 10
-126.8417746072
 20
-3.9450735868
 30
0.0
 10
-126.7553511645
 20
-4.0061833096
 30
0.0
  0
SPLINE
  5
6BC
100
AcDbEntity
  8
0
100
AcDbSpline
 62
250
  6
CONTINUOUS
 70
0
 71
3
 72
11
 73
7
 74
0
 42
0.0000001
 43
0.0000001
 44
0.0000000001
 40
0.0
 40
0.0
 40
0.0
 40
0.0
 40
0.2042004429
 40
0.5000120907
 40
0.7957479009
 40
1.0
 40
1.0
 40
1.0
 40
1.0
 10
-128.2553511645
 20
-5.2121320344
 30
0.0
 10
-128.2804243472
 20
-5.1908721513
 30
0.0
 10
-128.3345465602
 20
-5.1294243928
 30
0.0
 10
-128.373292076
 20
-5.0000038767
 30
0.0
 10
-128.3345374505
 20
-4.8705923868
 30
0.0
 10
-128.2804364704
 20
-4.8091264075
 30
0.0
 10
-128.2553511645
 20
-4.7878679656
 30
0.0
  0
SPLINE
  5
6BD
100
AcDbEntity
  8
0
100
AcDbSpline
 62
250
  6
CONTINUOUS
 70
0
 71
3
 72
15
 73
11
 74
0
 42
0.0000001
 43
0.0000001
 44
0.0000000001
 40
0.0
 40
0.0
 40
0.0
 40
0.0
 40
0.1220530587
 40
0.2452595258
 40
0.3707700245
 40
0.4998700573
 40
0.6290547243
 40
0.7546590609
 40
0.8779190572
 40
1.0
 40
1.0
 40
1.0
 40
1.0
 10
-125.6498821224
 20
-4.7878679656
 30
0.0
 10
-125.6250626889
 20
-4.7974378364
 30
0.0
 10
-125.5759747397
 20
-4.8188767623
 30
0.0
 10
-125.5065055844
 20
-4.8607796845
 30
0.0
 10
-125.4448731808
 20
-4.9164561906
 30
0.0
 10
-125.4105277484
 20
-4.9999202611
 30
0.0
 10
-125.4447783268
 20
-5.0834699042
 30
0.0
 10
-125.5064616517
 20
-5.1391766881
 30
0.0
 10
-125.5759520436
 20
-5.1811126745
 30
0.0
 10
-125.6250559386
 20
-5.202562779
 30
0.0
 10
-125.6498821224
 20
-5.2121320344
 30
0.0
  0
SPLINE
  5
6BE
100
AcDbEntity
  8
0
100
AcDbSpline
 62
250
  6
CONTINUOUS
 70
0
 71
3
 72
9
 73
5
 74
0
 42
0.0000001
 43
0.0000001
 44
0.0000000001
 40
0.0
 40
0.0
 40
0.0
 40
0.0
 40
0.5253121947
 40
1.0
 40
1.0
 40
1.0
 40
1.0
 10
-126.5053511645
 20
-6.3473627661
 30
0.0
 10
-126.7013356421
 20
-6.4513441164
 30
0.0
 10
-127.0864376585
 20
-6.6270598229
 30
0.0
 10
-127.4964362293
 20
-6.7427539044
 30
0.0
 10
-127.6950281172
 20
-6.7702014561
 30
0.0
  0
SPLINE
  5
6BF
100
AcDbEntity
  8
0
100
AcDbSpline
 62
250
  6
CONTINUOUS
 70
0
 71
3
 72
13
 73
9
 74
0
 42
0.0000001
 43
0.0000001
 44
0.0000000001
 40
0.0
 40
0.0
 40
0.0
 40
0.0
 40
0.3352828533
 40
0.4734052645
 40
0.5933999326
 40
0.699699934
 40
0.7987607483
 40
1.0
 40
1.0
 40
1.0
 40
1.0
 10
-127.6950281172
 20
-6.7702014561
 30
0.0
 10
-127.8112883882
 20
-6.7862698858
 30
0.0
 10
-127.9791460605
 20
-6.7958580622
 30
0.0
 10
-128.1843910436
 20
-6.7581440941
 30
0.0
 10
-128.3038036563
 20
-6.7102716192
 30
0.0
 10
-128.3967488312
 20
-6.6419707673
 30
0.0
 10
-128.4836972702
 20
-6.5268124438
 30
0.0
 10
-128.5053506977
 20
-6.4178136835
 30
0.0
 10
-128.5053511645
 20
-6.347370081
 30
0.0
  0
SPLINE
  5
6C0
100
AcDbEntity
  8
0
100
AcDbSpline
 62
250
  6
CONTINUOUS
 70
0
 71
3
 72
14
 73
10
 74
0
 42
0.0000001
 43
0.0000001
 44
0.0000000001
 40
0.0
 40
0.0
 40
0.0
 40
0.0
 40
0.09388171
 40
0.1831208844
 40
0.2756953614
 40
0.380613463
 40
0.5045032749
 40
0.6501849396
 40
1.0
 40
1.0
 40
1.0
 40
1.0
 10
-128.5053511645
 20
-3.6526369352
 30
0.0
 10
-128.5053468099
 20
-3.6091086331
 30
0.0
 10
-128.4954449073
 20
-3.5234879819
 30
0.0
 10
-128.4404503539
 20
-3.4052745282
 30
0.0
 10
-128.3429467772
 20
-3.3107919619
 30
0.0
 10
-128.2062928888
 20
-3.246376059
 30
0.0
 10
-128.0345976135
 20
-3.2128840936
 30
0.0
 10
-127.746344807
 20
-3.2105675806
 30
0.0
 10
-127.5187325963
 20
-3.256869666
 30
0.0
 10
-127.362495111
 20
-3.3004135546
 30
0.0
  0
SPLINE
  5
6C1
100
AcDbEntity
  8
0
100
AcDbSpline
 62
250
  6
CONTINUOUS
 70
0
 71
3
 72
9
 73
5
 74
0
 42
0.0000001
 43
0.0000001
 44
0.0000000001
 40
0.0
 40
0.0
 40
0.0
 40
0.0
 40
0.2400978088
 40
1.0
 40
1.0
 40
1.0
 40
1.0
 10
-127.362495111
 20
-3.3004135546
 30
0.0
 10
-127.2909716929
 20
-3.3203473608
 30
0.0
 10
-126.9960778606
 20
-3.4140663784
 30
0.0
 10
-126.7129536586
 20
-3.5425179167
 30
0.0
 10
-126.5053511645
 20
-3.652629919
 30
0.0
  0
SPLINE
  5
6C2
100
AcDbEntity
  8
0
100
AcDbSpline
 62
250
  6
CONTINUOUS
 70
0
 71
3
 72
9
 73
5
 74
0
 42
0.0000001
 43
0.0000001
 44
0.0000000001
 40
0.0
 40
0.0
 40
0.0
 40
0.0
 40
0.5253121947
 40
1.0
 40
1.0
 40
1.0
 40
1.0
 10
-126.5053511645
 20
3.6526372339
 30
0.0
 10
-126.7013356421
 20
3.5486558836
 30
0.0
 10
-127.0864376585
 20
3.3729401771
 30
0.0
 10
-127.4964362293
 20
3.2572460956
 30
0.0
 10
-127.6950281172
 20
3.2297985439
 30
0.0
  0
SPLINE
  5
6C3
100
AcDbEntity
  8
0
100
AcDbSpline
 62
250
  6
CONTINUOUS
 70
0
 71
3
 72
13
 73
9
 74
0
 42
0.0000001
 43
0.0000001
 44
0.0000000001
 40
0.0
 40
0.0
 40
0.0
 40
0.0
 40
0.3352828533
 40
0.4734052645
 40
0.5933999326
 40
0.699699934
 40
0.7987607483
 40
1.0
 40
1.0
 40
1.0
 40
1.0
 10
-127.6950281172
 20
3.2297985439
 30
0.0
 10
-127.8112883882
 20
3.2137301142
 30
0.0
 10
-127.9791460605
 20
3.2041419378
 30
0.0
 10
-128.1843910436
 20
3.2418559059
 30
0.0
 10
-128.3038036563
 20
3.2897283808
 30
0.0
 10
-128.3967488312
 20
3.3580292327
 30
0.0
 10
-128.4836972702
 20
3.4731875562
 30
0.0
 10
-128.5053506977
 20
3.5821863165
 30
0.0
 10
-128.5053511645
 20
3.652629919
 30
0.0
  0
SPLINE
  5
6C4
100
AcDbEntity
  8
0
100
AcDbSpline
 62
250
  6
CONTINUOUS
 70
0
 71
3
 72
14
 73
10
 74
0
 42
0.0000001
 43
0.0000001
 44
0.0000000001
 40
0.0
 40
0.0
 40
0.0
 40
0.0
 40
0.09388171
 40
0.1831208844
 40
0.2756953614
 40
0.380613463
 40
0.5045032749
 40
0.6501849396
 40
1.0
 40
1.0
 40
1.0
 40
1.0
 10
-128.5053511645
 20
6.3473630648
 30
0.0
 10
-128.5053468099
 20
6.3908913669
 30
0.0
 10
-128.4954449073
 20
6.4765120181
 30
0.0
 10
-128.4404503539
 20
6.5947254718
 30
0.0
 10
-128.3429467772
 20
6.6892080381
 30
0.0
 10
-128.2062928888
 20
6.753623941
 30
0.0
 10
-128.0345976135
 20
6.7871159064
 30
0.0
 10
-127.746344807
 20
6.7894324194
 30
0.0
 10
-127.5187325963
 20
6.743130334
 30
0.0
 10
-127.362495111
 20
6.6995864454
 30
0.0
  0
SPLINE
  5
6C5
100
AcDbEntity
  8
0
100
AcDbSpline
 62
250
  6
CONTINUOUS
 70
0
 71
3
 72
9
 73
5
 74
0
 42
0.0000001
 43
0.0000001
 44
0.0000000001
 40
0.0
 40
0.0
 40
0.0
 40
0.0
 40
0.2400978088
 40
1.0
 40
1.0
 40
1.0
 40
1.0
 10
-127.362495111
 20
6.6995864454
 30
0.0
 10
-127.2909716929
 20
6.6796526392
 30
0.0
 10
-126.9960778606
 20
6.5859336216
 30
0.0
 10
-126.7129536586
 20
6.4574820833
 30
0.0
 10
-126.5053511645
 20
6.347370081
 30
0.0
  0
SPLINE
  5
6C6
100
AcDbEntity
  8
0
100
AcDbSpline
 62
250
  6
CONTINUOUS
 70
0
 71
3
 72
13
 73
9
 74
0
 42
0.0000001
 43
0.0000001
 44
0.0000000001
 40
0.0
 40
0.0
 40
0.0
 40
0.0
 40
0.2493971998
 40
0.3746495251
 40
0.4999063143
 40
0.6251796647
 40
0.7504753415
 40
1.0
 40
1.0
 40
1.0
 40
1.0
 10
-125.3998821224
 20
5.5656854249
 30
0.0
 10
-125.3078061285
 20
5.5005770754
 30
0.0
 10
-125.1826811651
 20
5.3775859273
 30
0.0
 10
-125.0860689168
 20
5.1706428436
 30
0.0
 10
-125.0597510189
 20
5.0001246109
 30
0.0
 10
-125.0859986123
 20
4.8295741739
 30
0.0
 10
-125.1825829057
 20
4.6225203683
 30
0.0
 10
-125.3077600773
 20
4.4994576217
 30
0.0
 10
-125.3998821224
 20
4.4343145751
 30
0.0
  0
SPLINE
  5
6C7
100
AcDbEntity
  8
0
100
AcDbSpline
 62
250
  6
CONTINUOUS
 70
0
 71
3
 72
13
 73
9
 74
0
 42
0.0000001
 43
0.0000001
 44
0.0000000001
 40
0.0
 40
0.0
 40
0.0
 40
0.0
 40
0.2493971998
 40
0.3746495251
 40
0.4999063143
 40
0.6251796647
 40
0.7504753415
 40
1.0
 40
1.0
 40
1.0
 40
1.0
 10
-125.3998821224
 20
-4.4343145751
 30
0.0
 10
-125.3078061285
 20
-4.4994229246
 30
0.0
 10
-125.1826811651
 20
-4.6224140727
 30
0.0
 10
-125.0860689168
 20
-4.8293571564
 30
0.0
 10
-125.0597510189
 20
-4.9998753891
 30
0.0
 10
-125.0859986123
 20
-5.1704258261
 30
0.0
 10
-125.1825829057
 20
-5.3774796317
 30
0.0
 10
-125.3077600773
 20
-5.5005423783
 30
0.0
 10
-125.3998821224
 20
-5.5656854249
 30
0.0
  0
ELLIPSE
  5
6C8
100
AcDbEntity
  8
0
100
AcDbEllipse
 62
7
  6
CONTINUOUS
 10
-108.4513252315
 20
-15.8367441428
 30
0.0
 11
-0.3168528715
 21
0.3815123438
 31
0.0
 40
0.9901159119
 41
-0.5283890933
 42
0.5283890933
  0
ELLIPSE
  5
6C9
100
AcDbEntity
  8
0
100
AcDbEllipse
 62
7
  6
CONTINUOUS
 10
-108.3533784683
 20
-15.8458127302
 30
0.0
 11
0.3815123438
 21
0.3168528715
 31
0.0
 40
0.9901159119
 41
-0.5283890933
 42
0.5283890933
  0
ELLIPSE
  5
6CA
100
AcDbEntity
  8
0
100
AcDbEllipse
 62
7
  6
CONTINUOUS
 10
-108.3624470557
 20
-15.9437594934
 30
0.0
 11
-0.3168528715
 21
0.3815123438
 31
0.0
 40
0.9901159119
 41
-3.6699817469
 42
-2.6132035603
  0
ELLIPSE
  5
6CB
100
AcDbEntity
  8
0
100
AcDbEllipse
 62
7
  6
CONTINUOUS
 10
-108.4603938189
 20
-15.934690906
 30
0.0
 11
0.3815123437
 21
0.3168528715
 31
0.0
 40
0.9901159119
 41
2.6132035603
 42
3.6699817469
  0
ELLIPSE
  5
6CC
100
AcDbEntity
  8
IMPORT_IGES
100
AcDbEllipse
 62
7
  6
CONTINUOUS
 10
-142.8528827815
 20
23.232520979
 30
0.0
 11
-0.9165015684
 21
1.8575573592
 31
0.0
 40
0.0503957101
 41
1.5564150663
 42
2.6680862567
  0
ELLIPSE
  5
6CD
100
AcDbEntity
  8
IMPORT_IGES
100
AcDbEllipse
 62
7
  6
CONTINUOUS
 10
-112.4769239315
 20
-5.0991769541
 30
0.0
 11
0.3327720146
 21
0.379755057
 31
0.0
 40
0.9902424613
 41
-0.8951246008
 42
0.8951246008
  0
ELLIPSE
  5
6CE
100
AcDbEntity
  8
IMPORT_IGES
100
AcDbEllipse
 62
7
  6
CONTINUOUS
 10
-112.7089028576
 20
-5.3639082608
 30
0.0
 11
-0.3327720146
 21
-0.379755057
 31
0.0
 40
0.9902424613
 41
2.2464680528
 42
4.0367172544
  0
ELLIPSE
  5
6CF
100
AcDbEntity
  8
IMPORT_IGES
100
AcDbEllipse
 62
7
  6
CONTINUOUS
 10
-114.9149778386
 20
-5.7661437367
 30
0.0
 11
0.4842977726
 21
-0.1551807959
 31
0.0
 40
0.983183104
 41
2.0683136663
 42
4.2148716409
  0
ELLIPSE
  5
6D0
100
AcDbEntity
  8
IMPORT_IGES
100
AcDbEllipse
 62
7
  6
CONTINUOUS
 10
-115.3574086881
 20
-5.6243781221
 30
0.0
 11
0.4842977726
 21
-0.1551807959
 31
0.0
 40
0.983183104
 41
2.0683136663
 42
4.2148716408
  0
ELLIPSE
  5
6D1
100
AcDbEntity
  8
IMPORT_IGES
100
AcDbEllipse
 62
7
  6
CONTINUOUS
 10
-112.8330028081
 20
-7.9120800242
 30
0.0
 11
-0.1807250919
 21
0.4789691243
 31
0.0
 40
0.9766948103
 41
1.9889446813
 42
4.2942406259
  0
ENDSEC
  0
SECTION
  2
OBJECTS
  0
DICTIONARY
  5
C
100
AcDbDictionary
280
0
281
1
  3
ACAD_GROUP
350
D
  3
ACAD_MLINESTYLE
350
17
  3
ACAD_LAYOUT
350
1A
  3
ACAD_PLOTSETTINGS
350
19
  3
ACAD_PLOTSTYLENAME
350
E
  0
DICTIONARY
  5
D
102
{ACAD_REACTORS
330
C
102
}
100
AcDbDictionary
280
0
281
1
  0
ACDBDICTIONARYWDFLT
  5
E
102
{ACAD_REACTORS
330
C
102
}
100
AcDbDictionary
281
1
  3
Normal
350
F
100
AcDbDictionaryWithDefault
340
F
  0
DICTIONARY
  5
17
102
{ACAD_REACTORS
330
C
102
}
100
AcDbDictionary
280
0
281
1
  3
Standard
350
18
  0
DICTIONARY
  5
19
102
{ACAD_REACTORS
330
C
102
}
100
AcDbDictionary
281
1
  0
DICTIONARY
  5
1A
102
{ACAD_REACTORS
330
C
102
}
100
AcDbDictionary
281
1
  3
Model
350
6D2
  3
Layout1
350
6D3
  0
ACDBPLACEHOLDER
  5
F
102
{ACAD_REACTORS
330
E
102
}
  0
MLINESTYLE
  5
18
102
{ACAD_REACTORS
330
17
102
}
100
AcDbMlineStyle
  2
STANDARD
 70
0
  3

 62
256
 51
90.0
 52
90.0
 71
2
 49
0.5
 62
256
  6
BYLAYER
 49
-0.5
 62
256
  6
BYLAYER
  0
LAYOUT
  5
6D2
102
{ACAD_REACTORS
330
1A
102
}
100
AcDbPlotSettings
  1

  2
none_device
  4
ISO_A4_(297.00_x_210.00_MM)
  6

 40
0.0
 41
0.0
 42
0.0
 43
0.0
 44
297.0
 45
210.0
 46
0.0
 47
0.0
 48
0.0
 49
0.0
140
0.0
141
0.0
142
1.0
143
1.0
 70
1024
 72
1
 73
0
 74
0
  7

 75
0
147
1.0
148
0.0
149
0.0
100
AcDbLayout
  1
Model
 70
0
 71
0
 10
0.0
 20
0.0
 11
297.0
 21
210.0
 12
0.0
 22
0.0
 32
0.0
 14
0.0
 24
0.0
 34
0.0
 15
0.0
 25
0.0
 35
0.0
146
0.0
 13
0.0
 23
0.0
 33
0.0
 16
1.0
 26
0.0
 36
0.0
 17
0.0
 27
1.0
 37
0.0
 76
0
330
21F
345
0
346
0
  0
LAYOUT
  5
6D3
102
{ACAD_REACTORS
330
1A
102
}
100
AcDbPlotSettings
  1

  2
none_device
  4
ISO_A4_(297.00_x_210.00_MM)
  6

 40
0.0
 41
0.0
 42
0.0
 43
0.0
 44
297.0
 45
210.0
 46
0.0
 47
0.0
 48
0.0
 49
0.0
140
0.0
141
0.0
142
1.0
143
1.0
 70
0
 72
1
 73
0
 74
0
  7

 75
0
147
1.0
148
0.0
149
0.0
100
AcDbLayout
  1
Layout1
 70
0
 71
1
 10
0.0
 20
0.0
 11
297.0
 21
210.0
 12
0.0
 22
0.0
 32
0.0
 14
0.0
 24
0.0
 34
0.0
 15
0.0
 25
0.0
 35
0.0
146
0.0
 13
0.0
 23
0.0
 33
0.0
 16
1.0
 26
0.0
 36
0.0
 17
0.0
 27
1.0
 37
0.0
 76
0
330
220
345
0
346
0
  0
ENDSEC
  0
EOF
