  0
SECTION
  2
HEADER
  9
$ACADVER
  1
AC1021
  9
$DWGCODEPAGE
  3
ANSI_1252
  9
$EXTMAX
 10
297.0
 20
210.0
 30
0.0
  9
$EXTMIN
 10
0.0
 20
0.0
 30
0.0
  9
$LIMMIN
 10
0.0
 20
0.0
  9
$LIMMAX
 10
297.0
 20
210.0
  9
$VIEWCTR
 10
148.5
 20
105.0
  9
$VIEWSIZE
 40
210.0
  9
$CLAYER
  8
0
  9
$LTSCALE
 40
16.335
  9
$CELTYPE
  6
BYLAYER
  9
$DIMSCALE
 40
1.0
  9
$DIMASZ
 40
3.0
  9
$DIMEXO
 40
0.5
  9
$DIMDLI
 40
11.286
  9
$DIMEXE
 40
1.5
  9
$DIMCEN
 40
2.673
  9
$DIMLFAC
 40
1.0
  9
$DIMBLK
  1
_FILLED
  9
$DIMALT
 70
0
  9
$DIMALTF
 40
25.4
  9
$DIMTXT
 40
3.0
  9
$DIMTOL
 70
1
  9
$DIMLIM
 70
0
  9
$DIMTFAC
 40
1.0
  9
$DIMTP
 40
0.01
  9
$DIMTM
 40
0.01
  9
$DIMGAP
 40
0.625
  9
$DIMDSEP
 70
44
  9
$AUNITS
 70
0
  9
$PDMODE
 70
3
  9
$PDSIZE
 40
3.0
  9
$HANDSEED
  5
692
  9
$TILEMODE
 70
1
  9
$MEASUREMENT
 70
1
  9
$INSUNITS
 70
4
  0
ENDSEC
  0
SECTION
  2
CLASSES
  0
CLASS
  1
ACDBDICTIONARYWDFLT
  2
AcDbDictionaryWithDefault
  3
AutoCAD 2000
 90
0
 91
1
280
0
281
0
  0
CLASS
  1
ACDBPLACEHOLDER
  2
AcDbPlaceHolder
  3
AutoCAD 2000
 90
0
 91
1
280
0
281
0
  0
CLASS
  1
LAYOUT
  2
AcDbLayout
  3
AutoCAD 2000
 90
0
 91
0
280
0
281
0
  0
ENDSEC
  0
SECTION
  2
TABLES
  0
TABLE
  2
VPORT
  5
8
100
AcDbSymbolTable
 70
2
  0
VPORT
  5
1F4
100
AcDbSymbolTableRecord
100
AcDbViewportTableRecord
  2
*ACTIVE
 70
0
 10
0.0
 20
0.0
 11
1.0
 21
1.0
 12
148.5
 22
105.0
 13
0.0
 23
0.0
 14
1.0
 24
1.0
 15
0.0
 25
0.0
 16
0.0
 26
0.0
 36
1.0
 17
0.0
 27
0.0
 37
0.0
 40
210.0
 41
1.4142857143
 42
50.0
 43
0.0
 44
0.0
 50
0.0
 51
0.0
 71
0
 72
100
 73
1
 74
1
 75
0
 76
0
 77
0
 78
0
  0
ENDTAB
  0
TABLE
  2
LTYPE
  5
5
100
AcDbSymbolTable
 70
6
  0
LTYPE
  5
14
100
AcDbSymbolTableRecord
100
AcDbLinetypeTableRecord
  2
BYBLOCK
 70
0
  3

 72
65
 73
0
 40
0.0
  0
LTYPE
  5
15
100
AcDbSymbolTableRecord
100
AcDbLinetypeTableRecord
  2
BYLAYER
 70
0
  3

 72
65
 73
0
 40
0.0
  0
LTYPE
  5
16
100
AcDbSymbolTableRecord
100
AcDbLinetypeTableRecord
  2
CONTINUOUS
 70
64
  3
Solid line
 72
65
 73
0
 40
0.0
  0
LTYPE
  5
1F5
100
AcDbSymbolTableRecord
100
AcDbLinetypeTableRecord
  2
CENTER
 70
64
  3
____ _ ____ _ ____ _ ____ _ ____ _ ____ _ ____
 72
65
 73
4
 40
0.6
 49
0.375
 74
0
 49
-0.075
 74
0
 49
0.075
 74
0
 49
-0.075
 74
0
  0
LTYPE
  5
1F6
100
AcDbSymbolTableRecord
100
AcDbLinetypeTableRecord
  2
HIDDEN
 70
64
  3
- - - - - - - - - - - - - - - - - - - -
 72
65
 73
2
 40
0.2
 49
0.1
 74
0
 49
-0.1
 74
0
  0
LTYPE
  5
1F7
100
AcDbSymbolTableRecord
100
AcDbLinetypeTableRecord
  2
PHANTOM
 70
64
  3
_____ _ _ _____ _ _ _____ _ _ _____
 72
65
 73
6
 40
0.8
 49
0.45
 74
0
 49
-0.05
 74
0
 49
0.1
 74
0
 49
-0.05
 74
0
 49
0.1
 74
0
 49
-0.05
 74
0
  0
LTYPE
  5
1F8
100
AcDbSymbolTableRecord
100
AcDbLinetypeTableRecord
  2
DOT
 70
64
  3
. . . . . . . . . . . . . . . . . . . .
 72
65
 73
2
 40
0.2
 49
0.1
 74
0
 49
-0.1
 74
0
  0
LTYPE
  5
1F9
100
AcDbSymbolTableRecord
100
AcDbLinetypeTableRecord
  2
DASHED
 70
64
  3
- - - - - - - - - - - - - - - - - - - -
 72
65
 73
2
 40
0.2
 49
0.1
 74
0
 49
-0.1
 74
0
  0
ENDTAB
  0
TABLE
  2
LAYER
  5
2
100
AcDbSymbolTable
 70
36
  0
LAYER
  5
10
100
AcDbSymbolTableRecord
100
AcDbLayerTableRecord
  2
0
 70
0
 62
7
  6
CONTINUOUS
370
-3
390
F
  0
LAYER
  5
1FA
100
AcDbSymbolTableRecord
100
AcDbLayerTableRecord
  2
DEFAULT_1
 70
0
 62
7
  6
CENTER
370
-3
390
F
  0
LAYER
  5
1FB
100
AcDbSymbolTableRecord
100
AcDbLayerTableRecord
  2
DEFAULT_2
 70
0
 62
7
  6
HIDDEN
370
-3
390
F
  0
LAYER
  5
1FC
100
AcDbSymbolTableRecord
100
AcDbLayerTableRecord
  2
DEFAULT_3
 70
0
 62
7
  6
PHANTOM
370
-3
390
F
  0
LAYER
  5
1FD
100
AcDbSymbolTableRecord
100
AcDbLayerTableRecord
  2
ASSI
 70
0
 62
7
  6
CONTINUOUS
370
-3
390
F
  0
LAYER
  5
1FE
100
AcDbSymbolTableRecord
100
AcDbLayerTableRecord
  2
COORDINATE
 70
0
 62
7
  6
CONTINUOUS
370
-3
390
F
  0
LAYER
  5
1FF
100
AcDbSymbolTableRecord
100
AcDbLayerTableRecord
  2
COORD_ORIGINE
 70
0
 62
7
  6
CONTINUOUS
370
-3
390
F
  0
LAYER
  5
200
100
AcDbSymbolTableRecord
100
AcDbLayerTableRecord
  2
COPY_PUBLISH
 70
0
 62
7
  6
CONTINUOUS
370
-3
390
F
  0
LAYER
  5
201
100
AcDbSymbolTableRecord
100
AcDbLayerTableRecord
  2
COSMETICHE
 70
0
 62
7
  6
CONTINUOUS
370
-3
390
F
  0
LAYER
  5
202
100
AcDbSymbolTableRecord
100
AcDbLayerTableRecord
  2
COSMETICI
 70
0
 62
7
  6
CONTINUOUS
370
-3
390
F
  0
LAYER
  5
203
100
AcDbSymbolTableRecord
100
AcDbLayerTableRecord
  2
CURVE
 70
0
 62
7
  6
CONTINUOUS
370
-3
390
F
  0
LAYER
  5
204
100
AcDbSymbolTableRecord
100
AcDbLayerTableRecord
  2
DRAFT
 70
0
 62
7
  6
CONTINUOUS
370
-3
390
F
  0
LAYER
  5
205
100
AcDbSymbolTableRecord
100
AcDbLayerTableRecord
  2
IMPORT
 70
0
 62
7
  6
CONTINUOUS
370
-3
390
F
  0
LAYER
  5
206
100
AcDbSymbolTableRecord
100
AcDbLayerTableRecord
  2
IMPORT_IGES
 70
0
 62
7
  6
CONTINUOUS
370
-3
390
F
  0
LAYER
  5
207
100
AcDbSymbolTableRecord
100
AcDbLayerTableRecord
  2
INCISIONI
 70
0
 62
7
  6
CONTINUOUS
370
-3
390
F
  0
LAYER
  5
208
100
AcDbSymbolTableRecord
100
AcDbLayerTableRecord
  2
INTF_1
 70
0
 62
7
  6
CONTINUOUS
370
-3
390
F
  0
LAYER
  5
209
100
AcDbSymbolTableRecord
100
AcDbLayerTableRecord
  2
INTF_2
 70
0
 62
7
  6
CONTINUOUS
370
-3
390
F
  0
LAYER
  5
20A
100
AcDbSymbolTableRecord
100
AcDbLayerTableRecord
  2
NONE
 70
0
 62
7
  6
CONTINUOUS
370
-3
390
F
  0
LAYER
  5
20B
100
AcDbSymbolTableRecord
100
AcDbLayerTableRecord
  2
NOTE
 70
0
 62
7
  6
CONTINUOUS
370
-3
390
F
  0
LAYER
  5
20C
100
AcDbSymbolTableRecord
100
AcDbLayerTableRecord
  2
PIANI
 70
0
 62
7
  6
CONTINUOUS
370
-3
390
F
  0
LAYER
  5
20D
100
AcDbSymbolTableRecord
100
AcDbLayerTableRecord
  2
PIANI_ORIGINE
 70
0
 62
7
  6
CONTINUOUS
370
-3
390
F
  0
LAYER
  5
20E
100
AcDbSymbolTableRecord
100
AcDbLayerTableRecord
  2
PIANI_RIFERIMENTO
 70
0
 62
7
  6
CONTINUOUS
370
-3
390
F
  0
LAYER
  5
20F
100
AcDbSymbolTableRecord
100
AcDbLayerTableRecord
  2
PIANI_SFORMO
 70
0
 62
7
  6
CONTINUOUS
370
-3
390
F
  0
LAYER
  5
210
100
AcDbSymbolTableRecord
100
AcDbLayerTableRecord
  2
PUNTI
 70
0
 62
7
  6
CONTINUOUS
370
-3
390
F
  0
LAYER
  5
211
100
AcDbSymbolTableRecord
100
AcDbLayerTableRecord
  2
RACCORDO
 70
0
 62
7
  6
CONTINUOUS
370
-3
390
F
  0
LAYER
  5
212
100
AcDbSymbolTableRecord
100
AcDbLayerTableRecord
  2
RGB__255__255__255__
 70
0
 62
7
  6
CONTINUOUS
370
-3
390
F
  0
LAYER
  5
213
100
AcDbSymbolTableRecord
100
AcDbLayerTableRecord
  2
RGB____0____0____0__
 70
0
 62
7
  6
CONTINUOUS
370
-3
390
F
  0
LAYER
  5
214
100
AcDbSymbolTableRecord
100
AcDbLayerTableRecord
  2
SIMBOLI
 70
0
 62
7
  6
CONTINUOUS
370
-3
390
F
  0
LAYER
  5
215
100
AcDbSymbolTableRecord
100
AcDbLayerTableRecord
  2
SMUSSO
 70
0
 62
7
  6
CONTINUOUS
370
-3
390
F
  0
LAYER
  5
216
100
AcDbSymbolTableRecord
100
AcDbLayerTableRecord
  2
SNAPLINE
 70
0
 62
7
  6
CONTINUOUS
370
-3
390
F
  0
LAYER
  5
217
100
AcDbSymbolTableRecord
100
AcDbLayerTableRecord
  2
SUPERFICI
 70
0
 62
7
  6
CONTINUOUS
370
-3
390
F
  0
LAYER
  5
218
100
AcDbSymbolTableRecord
100
AcDbLayerTableRecord
  2
TRASH
 70
0
 62
7
  6
CONTINUOUS
370
-3
390
F
  0
LAYER
  5
219
100
AcDbSymbolTableRecord
100
AcDbLayerTableRecord
  2
XSEC_DATUMS
 70
0
 62
7
  6
CONTINUOUS
370
-3
390
F
  0
ENDTAB
  0
TABLE
  2
STYLE
  5
3
100
AcDbSymbolTable
 70
1
  0
STYLE
  5
11
100
AcDbSymbolTableRecord
100
AcDbTextStyleTableRecord
  2
STANDARD
 70
0
 40
0.0
 41
0.8
 50
0.0
 71
0
 42
0.2
  3
txt
  4

  0
STYLE
  5
21A
100
AcDbSymbolTableRecord
100
AcDbTextStyleTableRecord
  2
TEXTSTYLE_1
 70
0
 40
0.0
 41
0.8
 50
0.0
 71
0
 42
0.2
  3
gdt
  4

  0
ENDTAB
  0
TABLE
  2
VIEW
  5
6
100
AcDbSymbolTable
 70
0
  0
ENDTAB
  0
TABLE
  2
UCS
  5
7
100
AcDbSymbolTable
 70
0
  0
ENDTAB
  0
TABLE
  2
APPID
  5
9
100
AcDbSymbolTable
 70
1
  0
APPID
  5
21B
100
AcDbSymbolTableRecord
100
AcDbRegAppTableRecord
  2
ACAD
 70
0
  0
ENDTAB
  0
TABLE
  2
BLOCK_RECORD
  5
1
100
AcDbSymbolTable
 70
0
  0
BLOCK_RECORD
  5
21C
100
AcDbSymbolTableRecord
100
AcDbBlockTableRecord
  2
*Model_Space
  0
BLOCK_RECORD
  5
21D
100
AcDbSymbolTableRecord
100
AcDbBlockTableRecord
  2
*Paper_Space
  0
BLOCK_RECORD
  5
21E
100
AcDbSymbolTableRecord
100
AcDbBlockTableRecord
  2
_FILLED
  0
BLOCK_RECORD
  5
21F
100
AcDbSymbolTableRecord
100
AcDbBlockTableRecord
  2
*D0
  0
BLOCK_RECORD
  5
220
100
AcDbSymbolTableRecord
100
AcDbBlockTableRecord
  2
*D1
  0
BLOCK_RECORD
  5
221
100
AcDbSymbolTableRecord
100
AcDbBlockTableRecord
  2
*D2
  0
BLOCK_RECORD
  5
222
100
AcDbSymbolTableRecord
100
AcDbBlockTableRecord
  2
*D3
  0
ENDTAB
  0
TABLE
  2
DIMSTYLE
  5
A
100
AcDbSymbolTable
 70
1
100
AcDbDimStyleTable
 71
0
  0
DIMSTYLE
105
223
100
AcDbSymbolTableRecord
100
AcDbDimStyleTableRecord
  2
STANDARD
 70
0
  3

  4

 40
1.0
 41
3.0
 42
0.5
 43
0.38
 44
1.5
 45
0.0
 46
0.0
 47
0.01
 48
0.01
140
3.0
141
0.09
142
0.0
143
25.4
144
1.0
145
0.0
146
1.0
147
0.625
 71
1.0
 72
0.0
 73
0
 74
0
 75
0
 76
0
 77
1
 78
8
170
0
171
1
172
0
173
0
174
0
175
0
176
0
177
0
178
0
270
2
271
2
272
2
273
2
274
2
275
0
280
0
281
0
282
0
283
1
284
8
285
0
286
0
287
3
288
0
340
11
278
44
341
21E
342
21E
343
21E
344
21E
  0
DIMSTYLE
105
224
100
AcDbSymbolTableRecord
100
AcDbDimStyleTableRecord
  2
DIMSTYLE_1
 70
0
  3

  4

 40
1.0
 41
3.0
 42
0.5
 43
0.38
 44
1.5
 45
0.0
 46
0.0
 47
0.0
 48
0.0
140
3.0
141
0.09
142
0.0
143
25.4
144
1.0
145
0.0
146
1.0
147
0.75
 71
0.0
 72
0.0
 73
0
 74
0
 75
0
 76
0
 77
1
 78
8
170
0
171
1
172
0
173
0
174
0
175
0
176
0
177
0
178
0
270
2
271
2
272
2
273
2
274
2
275
0
280
0
281
0
282
0
283
1
284
8
285
0
286
0
287
3
288
0
340
11
278
44
341
21E
342
21E
343
21E
344
21E
  0
DIMSTYLE
105
225
100
AcDbSymbolTableRecord
100
AcDbDimStyleTableRecord
  2
DIMSTYLE_2
 70
0
  3

  4

 40
1.0
 41
3.0
 42
0.5
 43
0.38
 44
1.5
 45
0.0
 46
0.0
 47
0.0
 48
0.0
140
3.0
141
0.09
142
0.0
143
25.4
144
1.0
145
0.0
146
1.0
147
0.75
 71
0.0
 72
0.0
 73
0
 74
0
 75
0
 76
0
 77
1
 78
8
170
0
171
1
172
0
173
0
174
0
175
0
176
0
177
0
178
0
270
2
271
1
272
1
273
2
274
2
275
0
280
0
281
0
282
0
283
1
284
8
285
0
286
0
287
3
288
0
340
11
278
44
341
21E
342
21E
343
21E
344
21E
  0
ENDTAB
  0
ENDSEC
  0
SECTION
  2
BLOCKS
  0
BLOCK
  5
20
100
AcDbEntity
  8
0
100
AcDbBlockBegin
  2
*Model_Space
 70
0
 10
0.0
 20
0.0
 30
0.0
  3
*Model_Space
  1

  0
ENDBLK
  5
21
100
AcDbEntity
  8
0
100
AcDbBlockEnd
  0
BLOCK
  5
1C
100
AcDbEntity
  8
0
100
AcDbBlockBegin
  2
*Paper_Space
 70
0
 10
0.0
 20
0.0
 30
0.0
  3
*Paper_Space
  1

  0
ENDBLK
  5
1D
100
AcDbEntity
  8
0
100
AcDbBlockEnd
  0
BLOCK
  5
226
100
AcDbEntity
  8
0
100
AcDbBlockBegin
  2
_FILLED
 70
64
 10
0.0
 20
0.0
  3
_FILLED
  1

  0
SOLID
  5
227
100
AcDbEntity
  8
0
  6
BYBLOCK
 62
0
100
AcDbTrace
 10
0.0
 20
0.0
 11
-1.0
 21
0.3166666667
 12
-1.0
 22
-0.3166666667
 13
-1.0
 23
-0.3166666667
  0
ENDBLK
  5
228
100
AcDbEntity
  8
0
  6
BYBLOCK
 62
0
100
AcDbBlockEnd
  0
BLOCK
  5
229
100
AcDbEntity
  8
0
100
AcDbBlockBegin
 62
7
  6
CONTINUOUS
  2
*D0
 70
65
 10
0.0
 20
0.0
  3
*D0
  1

  0
MTEXT
  5
22A
100
AcDbEntity
  8
0
100
AcDbMText
 62
7
  6
CONTINUOUS
  7
STANDARD
 71
2
 72
1
 10
0.2982788086
 20
88.3319702148
 30
0.0
 11
1.0
 21
0.0
 31
0.0
 44
0.9
  1
120
 40
3.0
 41
9.6428571429
  0
LINE
  5
22B
100
AcDbEntity
  8
0
100
AcDbLine
 62
7
  6
CONTINUOUS
 10
-59.7017211914
 20
59.9569702148
 11
-59.7017211914
 21
86.0819702148
  0
LINE
  5
22C
100
AcDbEntity
  8
0
100
AcDbLine
 62
7
  6
CONTINUOUS
 10
60.2982788086
 20
59.9569702148
 11
60.2982788086
 21
86.0819702148
  0
LINE
  5
22D
100
AcDbEntity
  8
0
100
AcDbLine
 62
7
  6
CONTINUOUS
 10
-59.7017211914
 20
84.5819702148
 11
0.2982788086
 21
84.5819702148
  0
LINE
  5
22E
100
AcDbEntity
  8
0
100
AcDbLine
 62
7
  6
CONTINUOUS
 10
60.2982788086
 20
84.5819702148
 11
0.2982788086
 21
84.5819702148
  0
INSERT
  5
22F
100
AcDbEntity
  8
0
100
AcDbBlockReference
 62
7
  6
CONTINUOUS
  2
_FILLED
 10
-59.7017211914
 20
84.5819702148
 41
3.0
 42
3.0
 43
3.0
 50
180.0
  0
INSERT
  5
230
100
AcDbEntity
  8
0
100
AcDbBlockReference
 62
7
  6
CONTINUOUS
  2
_FILLED
 10
60.2982788086
 20
84.5819702148
 41
3.0
 42
3.0
 43
3.0
  0
ENDBLK
  5
231
100
AcDbEntity
  8
0
  6
BYBLOCK
 62
0
100
AcDbBlockEnd
  0
BLOCK
  5
232
100
AcDbEntity
  8
0
100
AcDbBlockBegin
 62
7
  6
CONTINUOUS
  2
*D1
 70
65
 10
0.0
 20
0.0
  3
*D1
  1

  0
MTEXT
  5
233
100
AcDbEntity
  8
0
100
AcDbMText
 62
7
  6
CONTINUOUS
  7
STANDARD
 71
2
 72
1
 10
66.5482788086
 20
4.4569702148
 30
0.0
 11
0.0
 21
1.0
 31
0.0
 44
0.9
  1
120
 40
3.0
 41
9.6428571429
  0
LINE
  5
234
100
AcDbEntity
  8
0
100
AcDbLine
 62
7
  6
CONTINUOUS
 10
55.7982788086
 20
64.4569702148
 11
71.7982788086
 21
64.4569702148
  0
LINE
  5
235
100
AcDbEntity
  8
0
100
AcDbLine
 62
7
  6
CONTINUOUS
 10
55.7982788086
 20
-55.5430297852
 11
71.7982788086
 21
-55.5430297852
  0
LINE
  5
236
100
AcDbEntity
  8
0
100
AcDbLine
 62
7
  6
CONTINUOUS
 10
70.2982788086
 20
64.4569702148
 11
70.2982788086
 21
4.4569702148
  0
LINE
  5
237
100
AcDbEntity
  8
0
100
AcDbLine
 62
7
  6
CONTINUOUS
 10
70.2982788086
 20
-55.5430297852
 11
70.2982788086
 21
4.4569702148
  0
INSERT
  5
238
100
AcDbEntity
  8
0
100
AcDbBlockReference
 62
7
  6
CONTINUOUS
  2
_FILLED
 10
70.2982788086
 20
64.4569702148
 41
3.0
 42
3.0
 43
3.0
 50
90.0
  0
INSERT
  5
239
100
AcDbEntity
  8
0
100
AcDbBlockReference
 62
7
  6
CONTINUOUS
  2
_FILLED
 10
70.2982788086
 20
-55.5430297852
 41
3.0
 42
3.0
 43
3.0
 50
270.0
  0
ENDBLK
  5
23A
100
AcDbEntity
  8
0
  6
BYBLOCK
 62
0
100
AcDbBlockEnd
  0
BLOCK
  5
23B
100
AcDbEntity
  8
0
100
AcDbBlockBegin
 62
7
  6
CONTINUOUS
  2
*D2
 70
65
 10
0.0
 20
0.0
  3
*D2
  1

  0
MTEXT
  5
23C
100
AcDbEntity
  8
0
100
AcDbMText
 62
7
  6
CONTINUOUS
  7
STANDARD
 71
2
 72
1
 10
-146.519165039
 20
86.2069702148
 30
0.0
 11
1.0
 21
0.0
 31
0.0
 44
0.9
  1
60,5
 40
3.0
 41
12.8571428571
  0
LINE
  5
23D
100
AcDbEntity
  8
0
100
AcDbLine
 62
7
  6
CONTINUOUS
 10
-176.7927804921
 20
59.9569702148
 11
-176.7927804921
 21
83.9569702148
  0
LINE
  5
23E
100
AcDbEntity
  8
0
100
AcDbLine
 62
7
  6
CONTINUOUS
 10
-116.2455495858
 20
-16.4320997635
 11
-116.2455495858
 21
83.9569702148
  0
LINE
  5
23F
100
AcDbEntity
  8
0
100
AcDbLine
 62
7
  6
CONTINUOUS
 10
-176.7927804921
 20
82.4569702148
 11
-146.519165039
 21
82.4569702148
  0
LINE
  5
240
100
AcDbEntity
  8
0
100
AcDbLine
 62
7
  6
CONTINUOUS
 10
-116.2455495858
 20
82.4569702148
 11
-146.519165039
 21
82.4569702148
  0
INSERT
  5
241
100
AcDbEntity
  8
0
100
AcDbBlockReference
 62
7
  6
CONTINUOUS
  2
_FILLED
 10
-176.7927804921
 20
82.4569702148
 41
3.0
 42
3.0
 43
3.0
 50
180.0
  0
INSERT
  5
242
100
AcDbEntity
  8
0
100
AcDbBlockReference
 62
7
  6
CONTINUOUS
  2
_FILLED
 10
-116.2455495858
 20
82.4569702148
 41
3.0
 42
3.0
 43
3.0
  0
ENDBLK
  5
243
100
AcDbEntity
  8
0
  6
BYBLOCK
 62
0
100
AcDbBlockEnd
  0
BLOCK
  5
244
100
AcDbEntity
  8
0
100
AcDbBlockBegin
 62
7
  6
CONTINUOUS
  2
*D3
 70
65
 10
0.0
 20
0.0
  3
*D3
  1

  0
MTEXT
  5
245
100
AcDbEntity
  8
0
100
AcDbMText
 62
7
  6
CONTINUOUS
  7
STANDARD
 71
2
 72
1
 10
-145.019165039
 20
78.2069702148
 30
0.0
 11
1.0
 21
0.0
 31
0.0
 44
0.9
  1
57,5
 40
3.0
 41
12.5357142857
  0
LINE
  5
246
100
AcDbEntity
  8
0
100
AcDbLine
 62
7
  6
CONTINUOUS
 10
-173.7927804921
 20
64.9569702148
 11
-173.7927804921
 21
75.9569702148
  0
LINE
  5
247
100
AcDbEntity
  8
0
100
AcDbLine
 62
7
  6
CONTINUOUS
 10
-116.2455495858
 20
-16.4320997635
 11
-116.2455495858
 21
75.9569702148
  0
LINE
  5
248
100
AcDbEntity
  8
0
100
AcDbLine
 62
7
  6
CONTINUOUS
 10
-173.7927804921
 20
74.4569702148
 11
-145.019165039
 21
74.4569702148
  0
LINE
  5
249
100
AcDbEntity
  8
0
100
AcDbLine
 62
7
  6
CONTINUOUS
 10
-116.2455495858
 20
74.4569702148
 11
-145.019165039
 21
74.4569702148
  0
INSERT
  5
24A
100
AcDbEntity
  8
0
100
AcDbBlockReference
 62
7
  6
CONTINUOUS
  2
_FILLED
 10
-173.7927804921
 20
74.4569702148
 41
3.0
 42
3.0
 43
3.0
 50
180.0
  0
INSERT
  5
24B
100
AcDbEntity
  8
0
100
AcDbBlockReference
 62
7
  6
CONTINUOUS
  2
_FILLED
 10
-116.2455495858
 20
74.4569702148
 41
3.0
 42
3.0
 43
3.0
  0
ENDBLK
  5
24C
100
AcDbEntity
  8
0
  6
BYBLOCK
 62
0
100
AcDbBlockEnd
  0
ENDSEC
  0
SECTION
  2
ENTITIES
  0
DIMENSION
  5
24D
100
AcDbEntity
  8
0
100
AcDbDimension
 62
7
  6
CONTINUOUS
  2
*D0
 10
60.2982788086
 20
84.5819702148
 11
-0.1302925429
 21
84.5819702148
 70
160
 71
2
 42
120.0
  3
DIMSTYLE_1
100
AcDbAlignedDimension
 13
-59.7017211914
 23
59.4569702148
 14
60.2982788086
 24
59.4569702148
100
AcDbRotatedDimension
  0
DIMENSION
  5
24E
100
AcDbEntity
  8
0
100
AcDbDimension
 62
7
  6
CONTINUOUS
  2
*D1
 10
70.2982788086
 20
-55.5430297852
 11
70.2982788086
 21
4.0284008473
 70
160
 71
2
 42
120.0
  3
DIMSTYLE_1
100
AcDbAlignedDimension
 13
55.2982788086
 23
64.4569702148
 14
55.2982788086
 24
-55.5430297852
 50
270.0
100
AcDbRotatedDimension
  0
DIMENSION
  5
24F
100
AcDbEntity
  8
0
100
AcDbDimension
 62
7
  6
CONTINUOUS
  2
*D2
 10
-116.2455495858
 20
82.4569702148
 11
-146.9477335968
 21
82.4569702148
 70
160
 71
2
 42
60.5472309063
  3
DIMSTYLE_2
100
AcDbAlignedDimension
 13
-176.7927804921
 23
59.4569702148
 14
-116.2455495858
 24
-16.9320997635
100
AcDbRotatedDimension
  0
DIMENSION
  5
250
100
AcDbEntity
  8
0
100
AcDbDimension
 62
7
  6
CONTINUOUS
  2
*D3
 10
-116.2455495858
 20
74.4569702148
 11
-145.447733139
 21
74.4569702148
 70
160
 71
2
 42
57.5472309063
  3
DIMSTYLE_2
100
AcDbAlignedDimension
 13
-173.7927804921
 23
64.4569702148
 14
-116.2455495858
 24
-16.9320997635
100
AcDbRotatedDimension
  0
LINE
  5
251
100
AcDbEntity
  8
0
100
AcDbLine
 62
7
  6
CONTINUOUS
 10
-59.7017211914
 20
59.4569702148
 11
-59.7017211914
 21
-50.5430297852
  0
LINE
  5
252
100
AcDbEntity
  8
0
100
AcDbLine
 62
253
  6
CONTINUOUS
 10
-58.7017211914
 20
-50.5430297852
 11
-58.7017211914
 21
59.4569702148
  0
LINE
  5
253
100
AcDbEntity
  8
0
100
AcDbLine
 62
7
  6
CONTINUOUS
 10
-54.7017211914
 20
-55.5430297852
 11
55.2982788086
 21
-55.5430297852
  0
LINE
  5
254
100
AcDbEntity
  8
0
100
AcDbLine
 62
253
  6
CONTINUOUS
 10
55.2982788086
 20
-54.5430297852
 11
15.2982788086
 21
-54.5430297852
  0
LINE
  5
255
100
AcDbEntity
  8
0
100
AcDbLine
 62
253
  6
CONTINUOUS
 10
15.0982788086
 20
-54.5430297852
 11
-14.5017211914
 21
-54.5430297852
  0
LINE
  5
256
100
AcDbEntity
  8
0
100
AcDbLine
 62
253
  6
CONTINUOUS
 10
-14.7017211914
 20
-54.5430297852
 11
-54.7017211914
 21
-54.5430297852
  0
LINE
  5
257
100
AcDbEntity
  8
0
100
AcDbLine
 62
253
  6
CONTINUOUS
 10
-54.7017211914
 20
-55.5430297852
 11
-54.7017211914
 21
-54.5430297852
  0
LINE
  5
258
100
AcDbEntity
  8
0
100
AcDbLine
 62
253
  6
CONTINUOUS
 10
-54.7017211914
 20
63.4569702148
 11
-54.7017211914
 21
64.4569702148
  0
LINE
  5
259
100
AcDbEntity
  8
0
100
AcDbLine
 62
253
  6
CONTINUOUS
 10
60.2982788086
 20
-50.5430297852
 11
59.2982788086
 21
-50.5430297852
  0
LINE
  5
25A
100
AcDbEntity
  8
0
100
AcDbLine
 62
253
  6
CONTINUOUS
 10
-58.7017211914
 20
-50.5430297852
 11
-59.7017211914
 21
-50.5430297852
  0
LINE
  5
25B
100
AcDbEntity
  8
0
100
AcDbLine
 62
7
  6
CONTINUOUS
 10
-14.5017211914
 20
-48.2725162205
 11
-2.9517211914
 21
-48.2725162205
  0
LINE
  5
25C
100
AcDbEntity
  8
0
100
AcDbLine
 62
7
  6
CONTINUOUS
 10
3.5482788086
 20
-48.2725162205
 11
15.0982788086
 21
-48.2725162205
  0
LINE
  5
25D
100
AcDbEntity
  8
0
100
AcDbLine
 62
7
  6
CONTINUOUS
 10
15.0982788086
 20
-46.7725162205
 11
3.0276152504
 21
-46.7725162205
  0
LINE
  5
25E
100
AcDbEntity
  8
0
100
AcDbLine
 62
7
  6
CONTINUOUS
 10
-2.4310576332
 20
-46.7725162205
 11
-14.5017211914
 21
-46.7725162205
  0
LINE
  5
25F
100
AcDbEntity
  8
0
100
AcDbLine
 62
7
  6
CONTINUOUS
 10
-47.8017211914
 20
27.6569702148
 11
-47.8017211914
 21
-27.3430297852
  0
LINE
  5
260
100
AcDbEntity
  8
IMPORT_IGES
100
AcDbLine
 62
7
  6
CONTINUOUS
 10
-47.6017211916
 20
-27.3430297854
 11
-47.6017211916
 21
27.6569702146
  0
LINE
  5
261
100
AcDbEntity
  8
0
100
AcDbLine
 62
7
  6
CONTINUOUS
 10
-14.5017211914
 20
-44.2725162205
 11
-2.9517211914
 21
-44.2725162205
  0
LINE
  5
262
100
AcDbEntity
  8
0
100
AcDbLine
 62
7
  6
CONTINUOUS
 10
3.5482788086
 20
-44.2725162205
 11
15.0982788086
 21
-44.2725162205
  0
LINE
  5
263
100
AcDbEntity
  8
0
100
AcDbLine
 62
7
  6
CONTINUOUS
 10
15.0982788086
 20
-42.7725162205
 11
3.0276152504
 21
-42.7725162205
  0
LINE
  5
264
100
AcDbEntity
  8
0
100
AcDbLine
 62
7
  6
CONTINUOUS
 10
-2.4310576332
 20
-42.7725162205
 11
-14.5017211914
 21
-42.7725162205
  0
LINE
  5
265
100
AcDbEntity
  8
0
100
AcDbLine
 62
7
  6
CONTINUOUS
 10
-14.5017211914
 20
-40.2725162205
 11
-2.9517211914
 21
-40.2725162205
  0
LINE
  5
266
100
AcDbEntity
  8
0
100
AcDbLine
 62
7
  6
CONTINUOUS
 10
3.5482788086
 20
-40.2725162205
 11
15.0982788086
 21
-40.2725162205
  0
LINE
  5
267
100
AcDbEntity
  8
0
100
AcDbLine
 62
253
  6
CONTINUOUS
 10
-42.8017211914
 20
32.6569702148
 11
-42.8017211914
 21
34.5738750254
  0
LINE
  5
268
100
AcDbEntity
  8
0
100
AcDbLine
 62
7
  6
CONTINUOUS
 10
15.0982788086
 20
-38.7725162205
 11
3.0276152504
 21
-38.7725162205
  0
LINE
  5
269
100
AcDbEntity
  8
0
100
AcDbLine
 62
7
  6
CONTINUOUS
 10
-2.4310576332
 20
-38.7725162205
 11
-14.5017211914
 21
-38.7725162205
  0
LINE
  5
26A
100
AcDbEntity
  8
0
100
AcDbLine
 62
7
  6
CONTINUOUS
 10
-11.7017211914
 20
-34.4430297852
 11
12.2982788086
 21
-34.4430297852
  0
LINE
  5
26B
100
AcDbEntity
  8
0
100
AcDbLine
 62
7
  6
CONTINUOUS
 10
0.2982788086
 20
-50.8378027066
 11
-2.9517211914
 21
-48.2725162205
  0
LINE
  5
26C
100
AcDbEntity
  8
0
100
AcDbLine
 62
7
  6
CONTINUOUS
 10
-2.4310576332
 20
-46.7725162205
 11
0.2982788086
 21
-48.9268331098
  0
LINE
  5
26D
100
AcDbEntity
  8
0
100
AcDbLine
 62
7
  6
CONTINUOUS
 10
0.2982788086
 20
-46.8378027066
 11
-2.9517211914
 21
-44.2725162205
  0
LINE
  5
26E
100
AcDbEntity
  8
0
100
AcDbLine
 62
7
  6
CONTINUOUS
 10
12.2982788086
 20
-34.3430297852
 11
-11.7017211914
 21
-34.3430297852
  0
LINE
  5
26F
100
AcDbEntity
  8
0
100
AcDbLine
 62
7
  6
CONTINUOUS
 10
-42.8017211914
 20
-32.3430297852
 11
43.3982788086
 21
-32.3430297852
  0
LINE
  5
270
100
AcDbEntity
  8
IMPORT_IGES
100
AcDbLine
 62
7
  6
CONTINUOUS
 10
43.3982788084
 20
-32.1430297854
 11
-42.8017211916
 21
-32.1430297854
  0
LINE
  5
271
100
AcDbEntity
  8
0
100
AcDbLine
 62
7
  6
CONTINUOUS
 10
-2.4310576332
 20
-42.7725162205
 11
0.2982788086
 21
-44.9268331098
  0
LINE
  5
272
100
AcDbEntity
  8
0
100
AcDbLine
 62
7
  6
CONTINUOUS
 10
0.2982788086
 20
-42.8378027066
 11
-2.9517211914
 21
-40.2725162205
  0
LINE
  5
273
100
AcDbEntity
  8
0
100
AcDbLine
 62
7
  6
CONTINUOUS
 10
-2.4310576332
 20
-38.7725162205
 11
0.2982788086
 21
-40.9268331098
  0
LINE
  5
274
100
AcDbEntity
  8
0
100
AcDbLine
 62
7
  6
CONTINUOUS
 10
-14.7017211914
 20
-37.3430297852
 11
-14.7017211914
 21
-55.5430297852
  0
LINE
  5
275
100
AcDbEntity
  8
0
100
AcDbLine
 62
7
  6
CONTINUOUS
 10
-14.5017211914
 20
-37.2430297852
 11
-14.5017211914
 21
-55.5430297852
  0
LINE
  5
276
100
AcDbEntity
  8
INCISIONI
100
AcDbLine
 62
253
  6
CONTINUOUS
 10
-6.7212677528
 20
-0.5834887703
 11
-5.8373907528
 21
2.5136232297
  0
LINE
  5
277
100
AcDbEntity
  8
INCISIONI
100
AcDbLine
 62
253
  6
CONTINUOUS
 10
-6.7248884108
 20
-1.5071527877
 11
-5.6487561321
 21
2.2636232297
  0
LWPOLYLINE
  5
278
100
AcDbEntity
  8
INCISIONI
100
AcDbPolyline
 62
253
  6
CONTINUOUS
 90
73
 70
0
 10
7.9961445069
 20
0.1410635292
 10
8.0114695371
 20
0.1438765697
 10
8.0263440915
 20
0.1481885552
 10
8.0408058239
 20
0.1538330992
 10
8.0548923883
 20
0.1606438149
 10
8.0686414386
 20
0.1684543157
 10
8.0820906286
 20
0.177098215
 10
8.0952776124
 20
0.1864091262
 10
8.1082400438
 20
0.1962206626
 10
8.1210155768
 20
0.2063664376
 10
8.1336418653
 20
0.2166800646
 10
8.1649218046
 20
0.2427514214
 10
8.1954535565
 20
0.2689650873
 10
8.2251966256
 20
0.2954540785
 10
8.2541105167
 20
0.3223514114
 10
8.2821547344
 20
0.3497901021
 10
8.3092887833
 20
0.377903167
 10
8.3354721681
 20
0.4068236222
 10
8.3606643934
 20
0.4366844841
 10
8.3867179793
 20
0.4701016967
 10
8.4115481711
 20
0.5046792926
 10
8.4351349708
 20
0.5403255378
 10
8.4574583801
 20
0.5769486983
 10
8.4784984012
 20
0.6144570401
 10
8.4982350358
 20
0.6527588293
 10
8.5166482859
 20
0.6917623318
 10
8.5337181533
 20
0.7313758137
 10
8.5494246401
 20
0.7715075409
 10
8.5637477482
 20
0.8120657794
 10
8.5766627759
 20
0.8529330731
 10
8.5881949417
 20
0.8941109594
 10
8.5983622276
 20
0.9355758574
 10
8.6071826159
 20
0.9773041865
 10
8.6146740888
 20
1.0192723661
 10
8.6208546283
 20
1.0614568153
 10
8.6263377039
 20
1.1099121797
 10
8.6301601924
 20
1.1585578421
 10
8.6323512594
 20
1.207332276
 10
8.6329400704
 20
1.2561739549
 10
8.6319557909
 20
1.3050213525
 10
8.6294275864
 20
1.353812942
 10
8.6254902827
 20
1.4012750389
 10
8.6200597144
 20
1.4485679371
 10
8.6130827599
 20
1.4956339925
 10
8.6045062976
 20
1.5424155609
 10
8.594277206
 20
1.5888549983
 10
8.5836326571
 20
1.6302587376
 10
8.57159954
 20
1.6712891295
 10
8.5581675879
 20
1.7118958576
 10
8.5433265337
 20
1.7520286057
 10
8.5270661105
 20
1.7916370574
 10
8.5077481407
 20
1.8340995733
 10
8.4867768125
 20
1.8758104839
 10
8.4641930085
 20
1.9166991489
 10
8.4400376113
 20
1.9566949282
 10
8.4143515036
 20
1.9957271817
 10
8.3871755681
 20
2.0337252693
 10
8.3585506875
 20
2.0706185508
 10
8.3285177445
 20
2.1063363862
 10
8.2988975186
 20
2.1389335569
 10
8.2680993195
 20
2.1703935965
 10
8.2361647388
 20
2.2006909193
 10
8.2031353679
 20
2.22979994
 10
8.1690527982
 20
2.257695073
 10
8.1339586214
 20
2.2843507328
 10
8.0978944289
 20
2.309741334
 10
8.0710167727
 20
2.3274223763
 10
8.0436443433
 20
2.3443208013
 10
8.0157756409
 20
2.3603397129
 10
7.9874091656
 20
2.3753822151
 10
7.9585434177
 20
2.3893514121
 10
7.9291768972
 20
2.4021504077
 10
7.8993081044
 20
2.4136823061
  0
LINE
  5
279
100
AcDbEntity
  8
INCISIONI
100
AcDbLine
 62
253
  6
CONTINUOUS
 10
-4.5502767528
 20
-1.9858287703
 11
-3.6110647528
 21
-1.9858287703
  0
LINE
  5
27A
100
AcDbEntity
  8
INCISIONI
100
AcDbLine
 62
253
  6
CONTINUOUS
 10
5.3056782472
 20
-1.9858287703
 11
4.3157872472
 21
-1.9858287703
  0
LINE
  5
27B
100
AcDbEntity
  8
INCISIONI
100
AcDbLine
 62
253
  6
CONTINUOUS
 10
2.5342682472
 20
-1.9858287703
 11
1.6052452472
 21
-1.9858287703
  0
LINE
  5
27C
100
AcDbEntity
  8
INCISIONI
100
AcDbLine
 62
253
  6
CONTINUOUS
 10
1.4577642472
 20
-1.9858287703
 11
0.5389652472
 21
-1.9858287703
  0
LINE
  5
27D
100
AcDbEntity
  8
INCISIONI
100
AcDbLine
 62
253
  6
CONTINUOUS
 10
-0.7707217528
 20
-1.9858287703
 11
-0.9024457528
 21
-1.9858287703
  0
LINE
  5
27E
100
AcDbEntity
  8
INCISIONI
100
AcDbLine
 62
253
  6
CONTINUOUS
 10
-2.2069367528
 20
-1.9858287703
 11
-3.1054577528
 21
-1.9858287703
  0
LINE
  5
27F
100
AcDbEntity
  8
INCISIONI
100
AcDbLine
 62
253
  6
CONTINUOUS
 10
-6.3451247528
 20
-1.9858287703
 11
-7.1728057528
 21
-1.9858287703
  0
LINE
  5
280
100
AcDbEntity
  8
INCISIONI
100
AcDbLine
 62
253
  6
CONTINUOUS
 10
5.5814765124
 20
-1.9858282712
 11
6.5169094123
 21
-1.9858282712
  0
LINE
  5
281
100
AcDbEntity
  8
INCISIONI
100
AcDbLine
 62
253
  6
CONTINUOUS
 10
7.955183046
 20
-1.9858282712
 11
8.8585958254
 21
-1.9858282712
  0
LINE
  5
282
100
AcDbEntity
  8
INCISIONI
100
AcDbLine
 62
253
  6
CONTINUOUS
 10
4.967469038
 20
-1.7358287703
 11
4.507079616
 21
-1.7358287703
  0
LINE
  5
283
100
AcDbEntity
  8
INCISIONI
100
AcDbLine
 62
253
  6
CONTINUOUS
 10
-4.3002767528
 20
-1.7358287703
 11
-3.8610647528
 21
-1.7358287703
  0
LINE
  5
284
100
AcDbEntity
  8
INCISIONI
100
AcDbLine
 62
253
  6
CONTINUOUS
 10
2.3462006751
 20
-1.7358287703
 11
1.9456708405
 21
-1.7358287703
  0
LINE
  5
285
100
AcDbEntity
  8
INCISIONI
100
AcDbLine
 62
253
  6
CONTINUOUS
 10
1.1832957927
 20
-1.7358287703
 11
0.7730202874
 21
-1.7358287703
  0
LINE
  5
286
100
AcDbEntity
  8
INCISIONI
100
AcDbLine
 62
253
  6
CONTINUOUS
 10
-2.4402847314
 20
-1.7358287703
 11
-2.8318671061
 21
-1.7358287703
  0
LINE
  5
287
100
AcDbEntity
  8
INCISIONI
100
AcDbLine
 62
253
  6
CONTINUOUS
 10
-6.5273627852
 20
-1.7358287703
 11
-6.9897986678
 21
-1.7358287703
  0
LINE
  5
288
100
AcDbEntity
  8
INCISIONI
100
AcDbLine
 62
253
  6
CONTINUOUS
 10
5.8314765124
 20
-1.7358282712
 11
6.2669094123
 21
-1.7358282712
  0
LINE
  5
289
100
AcDbEntity
  8
INCISIONI
100
AcDbLine
 62
253
  6
CONTINUOUS
 10
8.1431548066
 20
-1.7358282712
 11
8.5338670116
 21
-1.7358282712
  0
LINE
  5
28A
100
AcDbEntity
  8
INCISIONI
100
AcDbLine
 62
253
  6
CONTINUOUS
 10
4.0724822472
 20
-1.0875777703
 11
2.7934312472
 21
-1.0875777703
  0
LINE
  5
28B
100
AcDbEntity
  8
INCISIONI
100
AcDbLine
 62
253
  6
CONTINUOUS
 10
4.263774616
 20
-0.8375777703
 11
2.6053636751
 21
-0.8375777703
  0
LINE
  5
28C
100
AcDbEntity
  8
INCISIONI
100
AcDbLine
 62
253
  6
CONTINUOUS
 10
4.2076119725
 20
-0.6425147703
 11
2.6559173476
 21
-0.6425147703
  0
LINE
  5
28D
100
AcDbEntity
  8
INCISIONI
100
AcDbLine
 62
253
  6
CONTINUOUS
 10
-7.1728057528
 20
-1.9858287703
 11
-8.5992197528
 21
2.5136232297
  0
LINE
  5
28E
100
AcDbEntity
  8
INCISIONI
100
AcDbLine
 62
253
  6
CONTINUOUS
 10
-6.9897986678
 20
-1.7358287703
 11
-8.2577029204
 21
2.2636232297
  0
LINE
  5
28F
100
AcDbEntity
  8
INCISIONI
100
AcDbLine
 62
253
  6
CONTINUOUS
 10
-7.7691218329
 20
2.2636232297
 11
-6.7248884108
 21
-1.5071527877
  0
LINE
  5
290
100
AcDbEntity
  8
INCISIONI
100
AcDbLine
 62
253
  6
CONTINUOUS
 10
-7.5789447528
 20
2.5136232297
 11
-6.7212677528
 21
-0.5834887703
  0
LINE
  5
291
100
AcDbEntity
  8
INCISIONI
100
AcDbLine
 62
253
  6
CONTINUOUS
 10
0.8093023753
 20
2.2636232297
 11
1.1832957927
 21
-1.7358287703
  0
LINE
  5
292
100
AcDbEntity
  8
INCISIONI
100
AcDbLine
 62
253
  6
CONTINUOUS
 10
1.0370152472
 20
2.5136232297
 11
1.4577642472
 21
-1.9858287703
  0
LINE
  5
293
100
AcDbEntity
  8
INCISIONI
100
AcDbLine
 62
253
  6
CONTINUOUS
 10
0.5389652472
 20
-1.9858287703
 11
0.3460012472
 21
0.9399812297
  0
LINE
  5
294
100
AcDbEntity
  8
INCISIONI
100
AcDbLine
 62
253
  6
CONTINUOUS
 10
0.7730202874
 20
-1.7358287703
 11
0.5257351746
 21
2.0136232297
  0
LINE
  5
295
100
AcDbEntity
  8
INCISIONI
100
AcDbLine
 62
253
  6
CONTINUOUS
 10
-4.5502767528
 20
2.5138932297
 11
-4.5502767528
 21
-1.9858287703
  0
LINE
  5
296
100
AcDbEntity
  8
INCISIONI
100
AcDbLine
 62
253
  6
CONTINUOUS
 10
-4.3002767528
 20
2.2638932297
 11
-4.3002767528
 21
-1.7358287703
  0
LINE
  5
297
100
AcDbEntity
  8
INCISIONI
100
AcDbLine
 62
253
  6
CONTINUOUS
 10
-3.8610647528
 20
-1.7358287703
 11
-3.8610647528
 21
2.2638932297
  0
LINE
  5
298
100
AcDbEntity
  8
INCISIONI
100
AcDbLine
 62
253
  6
CONTINUOUS
 10
-3.6110647528
 20
-1.9858287703
 11
-3.6110647528
 21
2.5138932297
  0
LINE
  5
299
100
AcDbEntity
  8
INCISIONI
100
AcDbLine
 62
253
  6
CONTINUOUS
 10
-2.1816298854
 20
2.0136232297
 11
-2.4402847314
 21
-1.7358287703
  0
LINE
  5
29A
100
AcDbEntity
  8
INCISIONI
100
AcDbLine
 62
253
  6
CONTINUOUS
 10
-2.0042557528
 20
0.9522282297
 11
-2.2069367528
 21
-1.9858287703
  0
LINE
  5
29B
100
AcDbEntity
  8
INCISIONI
100
AcDbLine
 62
253
  6
CONTINUOUS
 10
-3.1054577528
 20
-1.9858287703
 11
-2.6991827528
 21
2.5136232297
  0
LINE
  5
29C
100
AcDbEntity
  8
INCISIONI
100
AcDbLine
 62
253
  6
CONTINUOUS
 10
-2.8318671061
 20
-1.7358287703
 11
-2.4707392707
 21
2.2636232297
  0
LINE
  5
29D
100
AcDbEntity
  8
INCISIONI
100
AcDbLine
 62
253
  6
CONTINUOUS
 10
-5.2417788017
 20
2.2636232297
 11
-6.5273627852
 21
-1.7358287703
  0
LINE
  5
29E
100
AcDbEntity
  8
INCISIONI
100
AcDbLine
 62
253
  6
CONTINUOUS
 10
-4.8988207528
 20
2.5136232297
 11
-6.3451247528
 21
-1.9858287703
  0
LINE
  5
29F
100
AcDbEntity
  8
INCISIONI
100
AcDbLine
 62
253
  6
CONTINUOUS
 10
-0.8314547528
 20
0.0155132297
 11
0.1077562472
 21
2.5136232297
  0
LINE
  5
2A0
100
AcDbEntity
  8
INCISIONI
100
AcDbLine
 62
253
  6
CONTINUOUS
 10
-0.8326976765
 20
-0.6981850454
 11
0.2808493298
 21
2.2636232297
  0
LINE
  5
2A1
100
AcDbEntity
  8
INCISIONI
100
AcDbLine
 62
7
  6
CONTINUOUS
 10
-8.5486681165
 20
2.3541641516
 11
-8.3892090384
 21
2.5136232297
  0
LINE
  5
2A2
100
AcDbEntity
  8
INCISIONI
100
AcDbLine
 62
7
  6
CONTINUOUS
 10
-8.4981164802
 20
2.1947050739
 11
-8.1791983244
 21
2.5136232297
  0
LINE
  5
2A3
100
AcDbEntity
  8
INCISIONI
100
AcDbLine
 62
7
  6
CONTINUOUS
 10
-8.4475648439
 20
2.0352459962
 11
-8.2484319079
 21
2.2343789321
  0
LINE
  5
2A4
100
AcDbEntity
  8
INCISIONI
100
AcDbLine
 62
7
  6
CONTINUOUS
 10
-8.2191876104
 20
2.2636232297
 11
-7.9691876104
 21
2.5136232297
  0
LINE
  5
2A5
100
AcDbEntity
  8
INCISIONI
100
AcDbLine
 62
7
  6
CONTINUOUS
 10
-8.3970132076
 20
1.8757869184
 11
-8.1978802717
 21
2.0749198544
  0
LINE
  5
2A6
100
AcDbEntity
  8
INCISIONI
100
AcDbLine
 62
7
  6
CONTINUOUS
 10
-8.0091768964
 20
2.2636232297
 11
-7.7591768964
 21
2.5136232297
  0
LINE
  5
2A7
100
AcDbEntity
  8
INCISIONI
100
AcDbLine
 62
7
  6
CONTINUOUS
 10
-8.3464615714
 20
1.7163278407
 11
-8.1473286354
 21
1.9154607767
  0
LINE
  5
2A8
100
AcDbEntity
  8
INCISIONI
100
AcDbLine
 62
7
  6
CONTINUOUS
 10
-7.7991661823
 20
2.2636232297
 11
-7.5724866599
 21
2.4903027522
  0
LINE
  5
2A9
100
AcDbEntity
  8
INCISIONI
100
AcDbLine
 62
7
  6
CONTINUOUS
 10
-8.2959099351
 20
1.5568687629
 11
-8.0967769991
 21
1.7560016989
  0
LINE
  5
2AA
100
AcDbEntity
  8
INCISIONI
100
AcDbLine
 62
7
  6
CONTINUOUS
 10
-7.7300924405
 20
2.1226862576
 11
-7.5269415349
 21
2.3258371631
  0
LINE
  5
2AB
100
AcDbEntity
  8
INCISIONI
100
AcDbLine
 62
7
  6
CONTINUOUS
 10
-8.2453582988
 20
1.3974096852
 11
-8.0462253629
 21
1.5965426212
  0
LINE
  5
2AC
100
AcDbEntity
  8
INCISIONI
100
AcDbLine
 62
7
  6
CONTINUOUS
 10
-7.6845473155
 20
1.9582206685
 11
-7.48139641
 21
2.1613715741
  0
LINE
  5
2AD
100
AcDbEntity
  8
INCISIONI
100
AcDbLine
 62
7
  6
CONTINUOUS
 10
-8.1948066626
 20
1.2379506075
 11
-7.9956737266
 21
1.4370835434
  0
LINE
  5
2AE
100
AcDbEntity
  8
INCISIONI
100
AcDbLine
 62
7
  6
CONTINUOUS
 10
-7.6390021906
 20
1.7937550794
 11
-7.435851285
 21
1.996905985
  0
LINE
  5
2AF
100
AcDbEntity
  8
INCISIONI
100
AcDbLine
 62
7
  6
CONTINUOUS
 10
-8.1442550263
 20
1.0784915297
 11
-7.9451220903
 21
1.2776244657
  0
LINE
  5
2B0
100
AcDbEntity
  8
INCISIONI
100
AcDbLine
 62
7
  6
CONTINUOUS
 10
-7.5934570656
 20
1.6292894904
 11
-7.3903061601
 21
1.8324403959
  0
LINE
  5
2B1
100
AcDbEntity
  8
INCISIONI
100
AcDbLine
 62
7
  6
CONTINUOUS
 10
-8.09370339
 20
0.919032452
 11
-7.894570454
 21
1.1181653879
  0
LINE
  5
2B2
100
AcDbEntity
  8
INCISIONI
100
AcDbLine
 62
7
  6
CONTINUOUS
 10
-7.5479119407
 20
1.4648239013
 11
-7.3447610351
 21
1.6679748069
  0
LINE
  5
2B3
100
AcDbEntity
  8
INCISIONI
100
AcDbLine
 62
7
  6
CONTINUOUS
 10
-8.0431517538
 20
0.7595733742
 11
-7.8440188178
 21
0.9587063102
  0
LINE
  5
2B4
100
AcDbEntity
  8
INCISIONI
100
AcDbLine
 62
7
  6
CONTINUOUS
 10
-7.5023668157
 20
1.3003583122
 11
-7.2992159102
 21
1.5035092178
  0
LINE
  5
2B5
100
AcDbEntity
  8
INCISIONI
100
AcDbLine
 62
7
  6
CONTINUOUS
 10
-7.9926001175
 20
0.6001142965
 11
-7.7934671815
 21
0.7992472325
  0
LINE
  5
2B6
100
AcDbEntity
  8
INCISIONI
100
AcDbLine
 62
7
  6
CONTINUOUS
 10
-7.4568216908
 20
1.1358927232
 11
-7.2536707852
 21
1.3390436288
  0
LINE
  5
2B7
100
AcDbEntity
  8
INCISIONI
100
AcDbLine
 62
7
  6
CONTINUOUS
 10
-7.9420484812
 20
0.4406552187
 11
-7.7429155452
 21
0.6397881547
  0
LINE
  5
2B8
100
AcDbEntity
  8
INCISIONI
100
AcDbLine
 62
7
  6
CONTINUOUS
 10
-7.4112765658
 20
0.9714271341
 11
-7.2081256603
 21
1.1745780397
  0
LINE
  5
2B9
100
AcDbEntity
  8
INCISIONI
100
AcDbLine
 62
7
  6
CONTINUOUS
 10
-7.8914968449
 20
0.281196141
 11
-7.692363909
 21
0.480329077
  0
LINE
  5
2BA
100
AcDbEntity
  8
INCISIONI
100
AcDbLine
 62
7
  6
CONTINUOUS
 10
-7.3657314409
 20
0.8069615451
 11
-7.1625805353
 21
1.0101124506
  0
LINE
  5
2BB
100
AcDbEntity
  8
INCISIONI
100
AcDbLine
 62
7
  6
CONTINUOUS
 10
-5.9086049834
 20
2.2640880026
 11
-5.6590697562
 21
2.5136232297
  0
LINE
  5
2BC
100
AcDbEntity
  8
INCISIONI
100
AcDbLine
 62
7
  6
CONTINUOUS
 10
-7.8409452087
 20
0.1217370633
 11
-7.6418122727
 21
0.3208699992
  0
LINE
  5
2BD
100
AcDbEntity
  8
INCISIONI
100
AcDbLine
 62
7
  6
CONTINUOUS
 10
-7.3201863159
 20
0.642495956
 11
-7.1170354104
 21
0.8456468616
  0
LINE
  5
2BE
100
AcDbEntity
  8
INCISIONI
100
AcDbLine
 62
7
  6
CONTINUOUS
 10
-5.9924748119
 20
1.9702074601
 11
-5.4490590422
 21
2.5136232297
  0
LINE
  5
2BF
100
AcDbEntity
  8
INCISIONI
100
AcDbLine
 62
7
  6
CONTINUOUS
 10
-7.7903935724
 20
-0.0377220145
 11
-7.5912606364
 21
0.1614109215
  0
LINE
  5
2C0
100
AcDbEntity
  8
INCISIONI
100
AcDbLine
 62
7
  6
CONTINUOUS
 10
-7.274641191
 20
0.4780303669
 11
-7.0714902854
 21
0.6811812725
  0
LINE
  5
2C1
100
AcDbEntity
  8
INCISIONI
100
AcDbLine
 62
7
  6
CONTINUOUS
 10
-6.0763446404
 20
1.6763269176
 11
-5.7125370024
 21
2.0401345555
  0
LINE
  5
2C2
100
AcDbEntity
  8
INCISIONI
100
AcDbLine
 62
7
  6
CONTINUOUS
 10
-5.4890483282
 20
2.2636232297
 11
-5.2390483282
 21
2.5136232297
  0
LINE
  5
2C3
100
AcDbEntity
  8
INCISIONI
100
AcDbLine
 62
7
  6
CONTINUOUS
 10
-7.7398419361
 20
-0.1971810922
 11
-7.5407090002
 21
0.0019518438
  0
LINE
  5
2C4
100
AcDbEntity
  8
INCISIONI
100
AcDbLine
 62
7
  6
CONTINUOUS
 10
-7.229096066
 20
0.3135647779
 11
-7.0259451605
 21
0.5167156835
  0
LINE
  5
2C5
100
AcDbEntity
  8
INCISIONI
100
AcDbLine
 62
7
  6
CONTINUOUS
 10
-6.1602144688
 20
1.3824463751
 11
-5.7964068309
 21
1.746254013
  0
LINE
  5
2C6
100
AcDbEntity
  8
INCISIONI
100
AcDbLine
 62
7
  6
CONTINUOUS
 10
-5.2790376142
 20
2.2636232297
 11
-5.0290376142
 21
2.5136232297
  0
LINE
  5
2C7
100
AcDbEntity
  8
INCISIONI
100
AcDbLine
 62
7
  6
CONTINUOUS
 10
-7.6892902999
 20
-0.35664017
 11
-7.4901573639
 21
-0.157507234
  0
LINE
  5
2C8
100
AcDbEntity
  8
INCISIONI
100
AcDbLine
 62
7
  6
CONTINUOUS
 10
-7.1835509411
 20
0.1490991888
 11
-6.9804000355
 21
0.3522500944
  0
LINE
  5
2C9
100
AcDbEntity
  8
INCISIONI
100
AcDbLine
 62
7
  6
CONTINUOUS
 10
-6.2440842973
 20
1.0885658326
 11
-5.8802766594
 21
1.4523734705
  0
LINE
  5
2CA
100
AcDbEntity
  8
INCISIONI
100
AcDbLine
 62
7
  6
CONTINUOUS
 10
-5.32361295
 20
2.0090371799
 11
-4.9366198272
 21
2.3960303027
  0
LINE
  5
2CB
100
AcDbEntity
  8
INCISIONI
100
AcDbLine
 62
7
  6
CONTINUOUS
 10
-7.6387386636
 20
-0.5160992477
 11
-7.4396057276
 21
-0.3169663117
  0
LINE
  5
2CC
100
AcDbEntity
  8
INCISIONI
100
AcDbLine
 62
7
  6
CONTINUOUS
 10
-7.1380058161
 20
-0.0153664002
 11
-6.9348549106
 21
0.1877845053
  0
LINE
  5
2CD
100
AcDbEntity
  8
INCISIONI
100
AcDbLine
 62
7
  6
CONTINUOUS
 10
-6.3279541258
 20
0.79468529
 11
-5.9641464879
 21
1.158492928
  0
LINE
  5
2CE
100
AcDbEntity
  8
INCISIONI
100
AcDbLine
 62
7
  6
CONTINUOUS
 10
-5.4230969369
 20
1.6995424789
 11
-5.0361038141
 21
2.0865356018
  0
LINE
  5
2CF
100
AcDbEntity
  8
INCISIONI
100
AcDbLine
 62
7
  6
CONTINUOUS
 10
-7.5881870273
 20
-0.6755583255
 11
-7.3890540913
 21
-0.4764253895
  0
LINE
  5
2D0
100
AcDbEntity
  8
INCISIONI
100
AcDbLine
 62
7
  6
CONTINUOUS
 10
-7.0924606912
 20
-0.1798319893
 11
-6.8893097856
 21
0.0233189163
  0
LINE
  5
2D1
100
AcDbEntity
  8
INCISIONI
100
AcDbLine
 62
7
  6
CONTINUOUS
 10
-6.4118239543
 20
0.5008047475
 11
-6.0480163164
 21
0.8646123854
  0
LINE
  5
2D2
100
AcDbEntity
  8
INCISIONI
100
AcDbLine
 62
7
  6
CONTINUOUS
 10
-5.5225809239
 20
1.390047778
 11
-5.135587801
 21
1.7770409008
  0
LINE
  5
2D3
100
AcDbEntity
  8
INCISIONI
100
AcDbLine
 62
7
  6
CONTINUOUS
 10
-4.5502767528
 20
2.362351949
 11
-4.3987354722
 21
2.5138932297
  0
LINE
  5
2D4
100
AcDbEntity
  8
INCISIONI
100
AcDbLine
 62
7
  6
CONTINUOUS
 10
-7.5376353911
 20
-0.8350174032
 11
-7.3385024551
 21
-0.6358844672
  0
LINE
  5
2D5
100
AcDbEntity
  8
INCISIONI
100
AcDbLine
 62
7
  6
CONTINUOUS
 10
-7.0469155662
 20
-0.3442975784
 11
-6.8437646606
 21
-0.1411466728
  0
LINE
  5
2D6
100
AcDbEntity
  8
INCISIONI
100
AcDbLine
 62
7
  6
CONTINUOUS
 10
-6.4956937828
 20
0.206924205
 11
-6.1318861449
 21
0.5707318429
  0
LINE
  5
2D7
100
AcDbEntity
  8
INCISIONI
100
AcDbLine
 62
7
  6
CONTINUOUS
 10
-5.6220649108
 20
1.0805530771
 11
-5.235071788
 21
1.4675461999
  0
LINE
  5
2D8
100
AcDbEntity
  8
INCISIONI
100
AcDbLine
 62
7
  6
CONTINUOUS
 10
-4.5502767528
 20
2.152341235
 11
-4.1887247582
 21
2.5138932297
  0
LINE
  5
2D9
100
AcDbEntity
  8
INCISIONI
100
AcDbLine
 62
7
  6
CONTINUOUS
 10
-7.4870837548
 20
-0.9944764809
 11
-7.2879508188
 21
-0.795343545
  0
LINE
  5
2DA
100
AcDbEntity
  8
INCISIONI
100
AcDbLine
 62
7
  6
CONTINUOUS
 10
-7.0013704413
 20
-0.5087631674
 11
-6.7982195357
 21
-0.3056122618
  0
LINE
  5
2DB
100
AcDbEntity
  8
INCISIONI
100
AcDbLine
 62
7
  6
CONTINUOUS
 10
-6.5795636113
 20
-0.0869563375
 11
-6.2157559734
 21
0.2768513004
  0
LINE
  5
2DC
100
AcDbEntity
  8
INCISIONI
100
AcDbLine
 62
7
  6
CONTINUOUS
 10
-5.7215488977
 20
0.7710583761
 11
-5.3345557749
 21
1.158051499
  0
LINE
  5
2DD
100
AcDbEntity
  8
INCISIONI
100
AcDbLine
 62
7
  6
CONTINUOUS
 10
-4.5502767528
 20
1.942330521
 11
-4.3002767528
 21
2.192330521
  0
LINE
  5
2DE
100
AcDbEntity
  8
INCISIONI
100
AcDbLine
 62
7
  6
CONTINUOUS
 10
-4.2287140441
 20
2.2638932297
 11
-3.9787140441
 21
2.5138932297
  0
LINE
  5
2DF
100
AcDbEntity
  8
INCISIONI
100
AcDbLine
 62
7
  6
CONTINUOUS
 10
-7.4365321185
 20
-1.1539355587
 11
-7.2373991825
 21
-0.9548026227
  0
LINE
  5
2E0
100
AcDbEntity
  8
INCISIONI
100
AcDbLine
 62
7
  6
CONTINUOUS
 10
-6.9558253163
 20
-0.6732287565
 11
-6.7526744107
 21
-0.4700778509
  0
LINE
  5
2E1
100
AcDbEntity
  8
INCISIONI
100
AcDbLine
 62
7
  6
CONTINUOUS
 10
-6.6634334398
 20
-0.38083688
 11
-6.2996258019
 21
-0.0170292421
  0
LINE
  5
2E2
100
AcDbEntity
  8
INCISIONI
100
AcDbLine
 62
7
  6
CONTINUOUS
 10
-5.8210328847
 20
0.4615636752
 11
-5.4340397618
 21
0.848556798
  0
LINE
  5
2E3
100
AcDbEntity
  8
INCISIONI
100
AcDbLine
 62
7
  6
CONTINUOUS
 10
-4.5502767528
 20
1.732319807
 11
-4.3002767528
 21
1.982319807
  0
LINE
  5
2E4
100
AcDbEntity
  8
INCISIONI
100
AcDbLine
 62
7
  6
CONTINUOUS
 10
-4.0187033301
 20
2.2638932297
 11
-3.7687033301
 21
2.5138932297
  0
LINE
  5
2E5
100
AcDbEntity
  8
INCISIONI
100
AcDbLine
 62
7
  6
CONTINUOUS
 10
-7.3859804822
 20
-1.3133946364
 11
-7.1868475463
 21
-1.1142617004
  0
LINE
  5
2E6
100
AcDbEntity
  8
INCISIONI
100
AcDbLine
 62
7
  6
CONTINUOUS
 10
-6.9102801914
 20
-0.8376943455
 11
-6.3834956304
 21
-0.3109097846
  0
LINE
  5
2E7
100
AcDbEntity
  8
INCISIONI
100
AcDbLine
 62
7
  6
CONTINUOUS
 10
-5.9205168716
 20
0.1520689742
 11
-5.5335237487
 21
0.5390620971
  0
LINE
  5
2E8
100
AcDbEntity
  8
INCISIONI
100
AcDbLine
 62
7
  6
CONTINUOUS
 10
-4.5502767528
 20
1.522309093
 11
-4.3002767528
 21
1.772309093
  0
LINE
  5
2E9
100
AcDbEntity
  8
INCISIONI
100
AcDbLine
 62
7
  6
CONTINUOUS
 10
-3.8610647528
 20
2.211521093
 11
-3.6110647528
 21
2.461521093
  0
LINE
  5
2EA
100
AcDbEntity
  8
INCISIONI
100
AcDbLine
 62
7
  6
CONTINUOUS
 10
-7.335428846
 20
-1.4728537142
 11
-7.13629591
 21
-1.2737207782
  0
LINE
  5
2EB
100
AcDbEntity
  8
INCISIONI
100
AcDbLine
 62
7
  6
CONTINUOUS
 10
-6.8647350664
 20
-1.0021599346
 11
-6.4673654589
 21
-0.6047903271
  0
LINE
  5
2EC
100
AcDbEntity
  8
INCISIONI
100
AcDbLine
 62
7
  6
CONTINUOUS
 10
-6.0200008585
 20
-0.1574257267
 11
-5.6330077357
 21
0.2295673961
  0
LINE
  5
2ED
100
AcDbEntity
  8
INCISIONI
100
AcDbLine
 62
7
  6
CONTINUOUS
 10
-4.5502767528
 20
1.312298379
 11
-4.3002767528
 21
1.562298379
  0
LINE
  5
2EE
100
AcDbEntity
  8
INCISIONI
100
AcDbLine
 62
7
  6
CONTINUOUS
 10
-3.8610647528
 20
2.001510379
 11
-3.6110647528
 21
2.251510379
  0
LINE
  5
2EF
100
AcDbEntity
  8
INCISIONI
100
AcDbLine
 62
7
  6
CONTINUOUS
 10
-7.2848772097
 20
-1.6323127919
 11
-7.0857442737
 21
-1.4331798559
  0
LINE
  5
2F0
100
AcDbEntity
  8
INCISIONI
100
AcDbLine
 62
7
  6
CONTINUOUS
 10
-6.8191899415
 20
-1.1666255237
 11
-6.5512352874
 21
-0.8986708696
  0
LINE
  5
2F1
100
AcDbEntity
  8
INCISIONI
100
AcDbLine
 62
7
  6
CONTINUOUS
 10
-6.1194848454
 20
-0.4669204276
 11
-5.7324917226
 21
-0.0799273048
  0
LINE
  5
2F2
100
AcDbEntity
  8
INCISIONI
100
AcDbLine
 62
7
  6
CONTINUOUS
 10
-4.5502767528
 20
1.102287665
 11
-4.3002767528
 21
1.352287665
  0
LINE
  5
2F3
100
AcDbEntity
  8
INCISIONI
100
AcDbLine
 62
7
  6
CONTINUOUS
 10
-3.8610647528
 20
1.791499665
 11
-3.6110647528
 21
2.041499665
  0
LINE
  5
2F4
100
AcDbEntity
  8
INCISIONI
100
AcDbLine
 62
7
  6
CONTINUOUS
 10
-7.2343255734
 20
-1.7917718697
 11
-7.0351926375
 21
-1.5926389337
  0
LINE
  5
2F5
100
AcDbEntity
  8
INCISIONI
100
AcDbLine
 62
7
  6
CONTINUOUS
 10
-6.7736448165
 20
-1.3310911127
 11
-6.6351051159
 21
-1.1925514121
  0
LINE
  5
2F6
100
AcDbEntity
  8
INCISIONI
100
AcDbLine
 62
7
  6
CONTINUOUS
 10
-6.2189688324
 20
-0.7764151286
 11
-5.8319757095
 21
-0.3894220057
  0
LINE
  5
2F7
100
AcDbEntity
  8
INCISIONI
100
AcDbLine
 62
7
  6
CONTINUOUS
 10
-4.5502767528
 20
0.892276951
 11
-4.3002767528
 21
1.142276951
  0
LINE
  5
2F8
100
AcDbEntity
  8
INCISIONI
100
AcDbLine
 62
7
  6
CONTINUOUS
 10
-3.8610647528
 20
1.581488951
 11
-3.6110647528
 21
1.831488951
  0
LINE
  5
2F9
100
AcDbEntity
  8
INCISIONI
100
AcDbLine
 62
7
  6
CONTINUOUS
 10
-7.1837739372
 20
-1.9512309474
 11
-6.9683717601
 21
-1.7358287703
  0
LINE
  5
2FA
100
AcDbEntity
  8
INCISIONI
100
AcDbLine
 62
7
  6
CONTINUOUS
 10
-6.7280996916
 20
-1.4955567018
 11
-6.7189749444
 21
-1.4864319546
  0
LINE
  5
2FB
100
AcDbEntity
  8
INCISIONI
100
AcDbLine
 62
7
  6
CONTINUOUS
 10
-6.3184528193
 20
-1.0859098295
 11
-5.9314596965
 21
-0.6989167067
  0
LINE
  5
2FC
100
AcDbEntity
  8
INCISIONI
100
AcDbLine
 62
7
  6
CONTINUOUS
 10
-4.5502767528
 20
0.6822662369
 11
-4.3002767528
 21
0.9322662369
  0
LINE
  5
2FD
100
AcDbEntity
  8
INCISIONI
100
AcDbLine
 62
7
  6
CONTINUOUS
 10
-3.8610647528
 20
1.3714782369
 11
-3.6110647528
 21
1.6214782369
  0
LINE
  5
2FE
100
AcDbEntity
  8
INCISIONI
100
AcDbLine
 62
7
  6
CONTINUOUS
 10
-7.0083610461
 20
-1.9858287703
 11
-6.7583610461
 21
-1.7358287703
  0
LINE
  5
2FF
100
AcDbEntity
  8
INCISIONI
100
AcDbLine
 62
7
  6
CONTINUOUS
 10
-6.4179368062
 20
-1.3954045305
 11
-6.0309436834
 21
-1.0084114076
  0
LINE
  5
300
100
AcDbEntity
  8
INCISIONI
100
AcDbLine
 62
7
  6
CONTINUOUS
 10
-4.5502767528
 20
0.4722555229
 11
-4.3002767528
 21
0.7222555229
  0
LINE
  5
301
100
AcDbEntity
  8
INCISIONI
100
AcDbLine
 62
7
  6
CONTINUOUS
 10
-3.8610647528
 20
1.1614675229
 11
-3.6110647528
 21
1.4114675229
  0
LINE
  5
302
100
AcDbEntity
  8
INCISIONI
100
AcDbLine
 62
7
  6
CONTINUOUS
 10
-2.7180686818
 20
2.3044635939
 11
-2.5089090461
 21
2.5136232297
  0
LINE
  5
303
100
AcDbEntity
  8
INCISIONI
100
AcDbLine
 62
7
  6
CONTINUOUS
 10
-6.798350332
 20
-1.9858287703
 11
-6.548350332
 21
-1.7358287703
  0
LINE
  5
304
100
AcDbEntity
  8
INCISIONI
100
AcDbLine
 62
7
  6
CONTINUOUS
 10
-6.5174207931
 20
-1.7048992314
 11
-6.1304276703
 21
-1.3179061086
  0
LINE
  5
305
100
AcDbEntity
  8
INCISIONI
100
AcDbLine
 62
7
  6
CONTINUOUS
 10
-4.5502767528
 20
0.2622448089
 11
-4.3002767528
 21
0.5122448089
  0
LINE
  5
306
100
AcDbEntity
  8
INCISIONI
100
AcDbLine
 62
7
  6
CONTINUOUS
 10
-3.8610647528
 20
0.9514568089
 11
-3.6110647528
 21
1.2014568089
  0
LINE
  5
307
100
AcDbEntity
  8
INCISIONI
100
AcDbLine
 62
7
  6
CONTINUOUS
 10
-2.7389136399
 20
2.0736079219
 11
-2.298898332
 21
2.5136232297
  0
LINE
  5
308
100
AcDbEntity
  8
INCISIONI
100
AcDbLine
 62
7
  6
CONTINUOUS
 10
-6.588339618
 20
-1.9858287703
 11
-6.2299116572
 21
-1.6274008095
  0
LINE
  5
309
100
AcDbEntity
  8
INCISIONI
100
AcDbLine
 62
7
  6
CONTINUOUS
 10
-4.5502767528
 20
0.0522340949
 11
-4.3002767528
 21
0.3022340949
  0
LINE
  5
30A
100
AcDbEntity
  8
INCISIONI
100
AcDbLine
 62
7
  6
CONTINUOUS
 10
-3.8610647528
 20
0.7414460949
 11
-3.6110647528
 21
0.9914460949
  0
LINE
  5
30B
100
AcDbEntity
  8
INCISIONI
100
AcDbLine
 62
7
  6
CONTINUOUS
 10
-2.7597585979
 20
1.8427522498
 11
-2.4838264229
 21
2.1186844248
  0
LINE
  5
30C
100
AcDbEntity
  8
INCISIONI
100
AcDbLine
 62
7
  6
CONTINUOUS
 10
-2.338887618
 20
2.2636232297
 11
-2.088887618
 21
2.5136232297
  0
LINE
  5
30D
100
AcDbEntity
  8
INCISIONI
100
AcDbLine
 62
7
  6
CONTINUOUS
 10
-6.378328904
 20
-1.9858287703
 11
-6.3293956442
 21
-1.9368955104
  0
LINE
  5
30E
100
AcDbEntity
  8
INCISIONI
100
AcDbLine
 62
7
  6
CONTINUOUS
 10
-4.5502767528
 20
-0.1577766191
 11
-4.3002767528
 21
0.0922233809
  0
LINE
  5
30F
100
AcDbEntity
  8
INCISIONI
100
AcDbLine
 62
7
  6
CONTINUOUS
 10
-3.8610647528
 20
0.5314353809
 11
-3.6110647528
 21
0.7814353809
  0
LINE
  5
310
100
AcDbEntity
  8
INCISIONI
100
AcDbLine
 62
7
  6
CONTINUOUS
 10
-2.780603556
 20
1.6118965778
 11
-2.5046713809
 21
1.8878287528
  0
LINE
  5
311
100
AcDbEntity
  8
INCISIONI
100
AcDbLine
 62
7
  6
CONTINUOUS
 10
-2.128876904
 20
2.2636232297
 11
-1.878876904
 21
2.5136232297
  0
LINE
  5
312
100
AcDbEntity
  8
INCISIONI
100
AcDbLine
 62
7
  6
CONTINUOUS
 10
-4.5502767528
 20
-0.3677873331
 11
-4.3002767528
 21
-0.1177873331
  0
LINE
  5
313
100
AcDbEntity
  8
INCISIONI
100
AcDbLine
 62
7
  6
CONTINUOUS
 10
-3.8610647528
 20
0.3214246669
 11
-3.6110647528
 21
0.5714246669
  0
LINE
  5
314
100
AcDbEntity
  8
INCISIONI
100
AcDbLine
 62
7
  6
CONTINUOUS
 10
-2.801448514
 20
1.3810409057
 11
-2.525516339
 21
1.6569730807
  0
LINE
  5
315
100
AcDbEntity
  8
INCISIONI
100
AcDbLine
 62
7
  6
CONTINUOUS
 10
-2.1825756269
 20
1.9999137928
 11
-2.16886619
 21
2.0136232297
  0
LINE
  5
316
100
AcDbEntity
  8
INCISIONI
100
AcDbLine
 62
7
  6
CONTINUOUS
 10
-1.9302506908
 20
2.2522387289
 11
-1.7358353357
 21
2.446654084
  0
LINE
  5
317
100
AcDbEntity
  8
INCISIONI
100
AcDbLine
 62
7
  6
CONTINUOUS
 10
-4.5502767528
 20
-0.5777980471
 11
-4.3002767528
 21
-0.3277980471
  0
LINE
  5
318
100
AcDbEntity
  8
INCISIONI
100
AcDbLine
 62
7
  6
CONTINUOUS
 10
-3.8610647528
 20
0.1114139529
 11
-3.6110647528
 21
0.3614139529
  0
LINE
  5
319
100
AcDbEntity
  8
INCISIONI
100
AcDbLine
 62
7
  6
CONTINUOUS
 10
-2.8222934721
 20
1.1501852336
 11
-2.546361297
 21
1.4261174087
  0
LINE
  5
31A
100
AcDbEntity
  8
INCISIONI
100
AcDbLine
 62
7
  6
CONTINUOUS
 10
-2.1981366253
 20
1.7743420804
 11
-2.0871714014
 21
1.8853073043
  0
LINE
  5
31B
100
AcDbEntity
  8
INCISIONI
100
AcDbLine
 62
7
  6
CONTINUOUS
 10
-1.8733091854
 20
2.0991695203
 11
-1.6788938303
 21
2.2935848754
  0
LINE
  5
31C
100
AcDbEntity
  8
INCISIONI
100
AcDbLine
 62
7
  6
CONTINUOUS
 10
-4.5502767528
 20
-0.7878087611
 11
-4.3002767528
 21
-0.5378087611
  0
LINE
  5
31D
100
AcDbEntity
  8
INCISIONI
100
AcDbLine
 62
7
  6
CONTINUOUS
 10
-3.8610647528
 20
-0.0985967611
 11
-3.6110647528
 21
0.1514032389
  0
LINE
  5
31E
100
AcDbEntity
  8
INCISIONI
100
AcDbLine
 62
7
  6
CONTINUOUS
 10
-2.8431384301
 20
0.9193295616
 11
-2.5672062551
 21
1.1952617366
  0
LINE
  5
31F
100
AcDbEntity
  8
INCISIONI
100
AcDbLine
 62
7
  6
CONTINUOUS
 10
-2.2136976236
 20
1.548770368
 11
-2.0298942918
 21
1.7325736999
  0
LINE
  5
320
100
AcDbEntity
  8
INCISIONI
100
AcDbLine
 62
7
  6
CONTINUOUS
 10
-1.81636768
 20
1.9461003117
 11
-1.6219523249
 21
2.1405156668
  0
LINE
  5
321
100
AcDbEntity
  8
INCISIONI
100
AcDbLine
 62
7
  6
CONTINUOUS
 10
-4.5502767528
 20
-0.9978194752
 11
-4.3002767528
 21
-0.7478194752
  0
LINE
  5
322
100
AcDbEntity
  8
INCISIONI
100
AcDbLine
 62
7
  6
CONTINUOUS
 10
-3.8610647528
 20
-0.3086074752
 11
-3.6110647528
 21
-0.0586074752
  0
LINE
  5
323
100
AcDbEntity
  8
INCISIONI
100
AcDbLine
 62
7
  6
CONTINUOUS
 10
-2.8639833881
 20
0.6884738895
 11
-2.5880512131
 21
0.9644060646
  0
LINE
  5
324
100
AcDbEntity
  8
INCISIONI
100
AcDbLine
 62
7
  6
CONTINUOUS
 10
-2.229258622
 20
1.3231986556
 11
-1.9726171823
 21
1.5798400954
  0
LINE
  5
325
100
AcDbEntity
  8
INCISIONI
100
AcDbLine
 62
7
  6
CONTINUOUS
 10
-1.7594261746
 20
1.7930311031
 11
-1.5650108195
 21
1.9874464582
  0
LINE
  5
326
100
AcDbEntity
  8
INCISIONI
100
AcDbLine
 62
7
  6
CONTINUOUS
 10
-4.5502767528
 20
-1.2078301892
 11
-4.3002767528
 21
-0.9578301892
  0
LINE
  5
327
100
AcDbEntity
  8
INCISIONI
100
AcDbLine
 62
7
  6
CONTINUOUS
 10
-3.8610647528
 20
-0.5186181892
 11
-3.6110647528
 21
-0.2686181892
  0
LINE
  5
328
100
AcDbEntity
  8
INCISIONI
100
AcDbLine
 62
7
  6
CONTINUOUS
 10
-2.8848283462
 20
0.4576182175
 11
-2.6088961712
 21
0.7335503925
  0
LINE
  5
329
100
AcDbEntity
  8
INCISIONI
100
AcDbLine
 62
7
  6
CONTINUOUS
 10
-2.2448196204
 20
1.0976269432
 11
-1.9153400727
 21
1.427106491
  0
LINE
  5
32A
100
AcDbEntity
  8
INCISIONI
100
AcDbLine
 62
7
  6
CONTINUOUS
 10
-1.7024846692
 20
1.6399618945
 11
-1.5080693141
 21
1.8343772496
  0
LINE
  5
32B
100
AcDbEntity
  8
INCISIONI
100
AcDbLine
 62
7
  6
CONTINUOUS
 10
-4.5502767528
 20
-1.4178409032
 11
-4.3002767528
 21
-1.1678409032
  0
LINE
  5
32C
100
AcDbEntity
  8
INCISIONI
100
AcDbLine
 62
7
  6
CONTINUOUS
 10
-3.8610647528
 20
-0.7286289032
 11
-3.6110647528
 21
-0.4786289032
  0
LINE
  5
32D
100
AcDbEntity
  8
INCISIONI
100
AcDbLine
 62
7
  6
CONTINUOUS
 10
-2.9056733042
 20
0.2267625454
 11
-2.6297411292
 21
0.5026947204
  0
LINE
  5
32E
100
AcDbEntity
  8
INCISIONI
100
AcDbLine
 62
7
  6
CONTINUOUS
 10
-2.2603806188
 20
0.8720552308
 11
-1.8580629631
 21
1.2743728865
  0
LINE
  5
32F
100
AcDbEntity
  8
INCISIONI
100
AcDbLine
 62
7
  6
CONTINUOUS
 10
-1.6455431638
 20
1.4868926859
 11
-1.4511278087
 21
1.681308041
  0
LWPOLYLINE
  5
330
100
AcDbEntity
  8
INCISIONI
100
AcDbPolyline
 62
253
  6
CONTINUOUS
 90
22
 70
0
 10
6.4857665553
 20
1.7470969516
 10
6.5185610695
 20
1.7525795773
 10
6.5513954629
 20
1.7578139012
 10
6.5842754318
 20
1.7627579791
 10
6.6172066728
 20
1.7673698671
 10
6.6501948821
 20
1.7716076209
 10
6.6832457563
 20
1.7754292965
 10
6.7189918957
 20
1.7790476502
 10
6.7548065187
 20
1.7821322702
 10
6.7906784734
 20
1.7846829829
 10
6.826596608
 20
1.7866996146
 10
6.8625497704
 20
1.7881819918
 10
6.8985268089
 20
1.7891299407
 10
6.9345165714
 20
1.7895432878
 10
6.9705079061
 20
1.7894218595
 10
7.0064896611
 20
1.788765482
 10
7.0424506844
 20
1.7875739819
 10
7.0783798242
 20
1.7858471854
 10
7.1142659285
 20
1.7835849189
 10
7.1500978455
 20
1.7807870088
 10
7.1858644232
 20
1.7774532816
 10
7.2215545097
 20
1.7735835634
  0
LWPOLYLINE
  5
331
100
AcDbEntity
  8
INCISIONI
100
AcDbPolyline
 62
253
  6
CONTINUOUS
 90
77
 70
0
 10
5.8314765124
 20
2.2431488027
 10
5.9607230338
 20
2.258939007
 10
6.0901672754
 20
2.2731008964
 10
6.2197892744
 20
2.285460085
 10
6.3495690679
 20
2.2958421871
 10
6.4794866931
 20
2.3040728168
 10
6.6095221871
 20
2.3099775883
 10
6.708646843
 20
2.3127973742
 10
6.8078073415
 20
2.3140297121
 10
6.9069827081
 20
2.3135381111
 10
7.0061519679
 20
2.31118608
 10
7.0850519093
 20
2.3078743298
 10
7.1638752182
 20
2.3031126757
 10
7.2425624161
 20
2.2967161006
 10
7.3210540244
 20
2.2884995874
 10
7.3992905646
 20
2.278278119
 10
7.4698065035
 20
2.2671542273
 10
7.5400108275
 20
2.2541387095
 10
7.6098494191
 20
2.2391327188
 10
7.6519653921
 20
2.229000991
 10
7.6938379753
 20
2.2179246338
 10
7.7353780176
 20
2.2057265645
 10
7.7764963681
 20
2.1922297002
 10
7.8171038757
 20
2.1772569582
 10
7.8526912901
 20
2.1623859552
 10
7.8825589914
 20
2.1479115515
 10
7.9116482971
 20
2.1319228772
 10
7.939995852
 20
2.114605736
 10
7.9676383012
 20
2.0961459311
 10
8.0040511412
 20
2.0695412508
 10
8.0391582463
 20
2.0412432429
 10
8.0728842617
 20
2.0113197922
 10
8.1051538328
 20
1.9798387837
 10
8.135891605
 20
1.9468681022
 10
8.1650222237
 20
1.9124756325
 10
8.1924703342
 20
1.8767292597
 10
8.2165600641
 20
1.8421315306
 10
8.2390805442
 20
1.8064879708
 10
8.2600005313
 20
1.7698779248
 10
8.2792887821
 20
1.7323807376
 10
8.2969140531
 20
1.6940757539
 10
8.3128451012
 20
1.6550423186
 10
8.3270506828
 20
1.6153597763
 10
8.3401711759
 20
1.5728065039
 10
8.3514017597
 20
1.5297103594
 10
8.3608143852
 20
1.4861647703
 10
8.3684810032
 20
1.4422631639
 10
8.3744735647
 20
1.3980989678
 10
8.3791689642
 20
1.3497858227
 10
8.3819831508
 20
1.3013353092
 10
8.3829364157
 20
1.2528108339
 10
8.3820490504
 20
1.2042758035
 10
8.3796014345
 20
1.1595587142
 10
8.3755321271
 20
1.1149644238
 10
8.3697681141
 20
1.0705707668
 10
8.3622363815
 20
1.026455578
 10
8.3528639151
 20
0.9826966921
 10
8.3416065884
 20
0.9394182367
 10
8.3284640644
 20
0.8966616829
 10
8.3134609471
 20
0.8545156901
 10
8.29662184
 20
0.8130689179
 10
8.2779713471
 20
0.7724100255
 10
8.2575340721
 20
0.7326276725
 10
8.2353346187
 20
0.6938105184
 10
8.2113975908
 20
0.6560472225
 10
8.1857475922
 20
0.6194264444
 10
8.161551708
 20
0.5879202003
 10
8.1360833891
 20
0.5574227567
 10
8.109402594
 20
0.5279713171
 10
8.0815692817
 20
0.4996030849
 10
8.0563283301
 20
0.4757442796
 10
8.0301957951
 20
0.4528880858
 10
8.0031147818
 20
0.4311811476
 10
7.9750283957
 20
0.4107701092
 10
7.9493258641
 20
0.39382796
 10
7.9361837345
 20
0.3858400794
 10
7.922491107
 20
0.3789113184
  0
LWPOLYLINE
  5
332
100
AcDbEntity
  8
INCISIONI
100
AcDbPolyline
 62
253
  6
CONTINUOUS
 90
16
 70
0
 10
6.8462911522
 20
2.0386847188
 10
6.8193101552
 20
2.0374475617
 10
6.7923440563
 20
2.0359121384
 10
6.7653941198
 20
2.0340888348
 10
6.7384616099
 20
2.031988037
 10
6.7115477909
 20
2.0296201309
 10
6.684653927
 20
2.0269955026
 10
6.6577812824
 20
2.024124538
 10
6.6309311215
 20
2.0210176231
 10
6.6041047083
 20
2.0176851438
 10
6.5773033072
 20
2.0141374863
 10
6.5505281824
 20
2.0103850364
 10
6.5237805981
 20
2.0064381802
 10
6.4970618186
 20
2.0023073036
 10
6.4703731082
 20
1.9980027927
 10
6.2357630817
 20
1.9580476256
  0
LWPOLYLINE
  5
333
100
AcDbEntity
  8
INCISIONI
100
AcDbPolyline
 62
253
  6
CONTINUOUS
 90
85
 70
0
 10
7.0280994403
 20
0.2619721731
 10
7.0705644038
 20
0.2634626093
 10
7.1129730108
 20
0.266078998
 10
7.1552819797
 20
0.2698853383
 10
7.1974480286
 20
0.2749456292
 10
7.2394278755
 20
0.2813238698
 10
7.2811782388
 20
0.2890840592
 10
7.3226558366
 20
0.2982901963
 10
7.3586836521
 20
0.3075805922
 10
7.394396673
 20
0.3180614253
 10
7.4297220781
 20
0.3297670799
 10
7.4645870466
 20
0.3427319403
 10
7.4989187574
 20
0.3569903905
 10
7.5326443895
 20
0.3725768149
 10
7.5656911221
 20
0.3895255976
 10
7.5979861341
 20
0.4078711229
 10
7.62854899
 20
0.4270391398
 10
7.6582631696
 20
0.4475248935
 10
7.6870570769
 20
0.4692973707
 10
7.7148591162
 20
0.4923255582
 10
7.7415976914
 20
0.5165784427
 10
7.7672012067
 20
0.5420250109
 10
7.7916026141
 20
0.568628463
 10
7.8147530574
 20
0.5963288537
 10
7.8366082286
 20
0.6250604508
 10
7.8571238195
 20
0.6547575227
 10
7.8762555219
 20
0.6853543372
 10
7.8939590277
 20
0.7167851625
 10
7.9096026549
 20
0.7477256359
 10
7.9239152077
 20
0.7793073578
 10
7.9369265855
 20
0.8114614889
 10
7.9486666874
 20
0.8441191901
 10
7.9591654127
 20
0.8772116223
 10
7.9684526608
 20
0.9106699464
 10
7.9765583308
 20
0.9444253233
 10
7.9845597817
 20
0.9841002821
 10
7.991031132
 20
1.0240370475
 10
7.9960098438
 20
1.0641868022
 10
7.999533379
 20
1.1045007286
 10
8.0016392
 20
1.1449300095
 10
8.0023647687
 20
1.1854258272
 10
8.0019847539
 20
1.216746116
 10
8.0007076404
 20
1.2480322094
 10
7.9984389957
 20
1.27923932
 10
7.9950939299
 20
1.3103255063
 10
7.9906257236
 20
1.3412602109
 10
7.9849972001
 20
1.3720157222
 10
7.9773850373
 20
1.4057872018
 10
7.9683195479
 20
1.4392261249
 10
7.957812656
 20
1.4722531031
 10
7.9458762857
 20
1.5047887482
 10
7.9325223611
 20
1.5367536716
 10
7.9173419163
 20
1.5689277997
 10
7.9007242667
 20
1.600366822
 10
7.8827163838
 20
1.6310220701
 10
7.863365239
 20
1.6608448761
 10
7.8427178037
 20
1.6897865717
 10
7.8208210493
 20
1.7177984888
 10
7.7977219473
 20
1.7448319593
 10
7.773467469
 20
1.770838315
 10
7.7481045859
 20
1.7957688877
 10
7.7216802695
 20
1.8195750093
 10
7.6942414911
 20
1.8422080117
 10
7.6646291566
 20
1.8644931302
 10
7.6340382365
 20
1.8854284779
 10
7.6025403051
 20
1.9049904703
 10
7.570206937
 20
1.9231555225
 10
7.5371097065
 20
1.9399000497
 10
7.5033201882
 20
1.9552004674
 10
7.4689099564
 20
1.9690331906
 10
7.4339505855
 20
1.9813746347
 10
7.39851365
 20
1.9922012149
 10
7.3667991078
 20
2.0005209889
 10
7.3348139521
 20
2.0077262034
 10
7.3026057824
 20
2.0139081266
 10
7.270222198
 20
2.0191580269
 10
7.2377107984
 20
2.0235671727
 10
7.2002071411
 20
2.0277271464
 10
7.1626192641
 20
2.0310900269
 10
7.1249690945
 20
2.0338504928
 10
7.06981188
 20
2.0370858939
 10
7.0146012665
 20
2.0393212829
 10
6.959370259
 20
2.0404294305
 10
6.9041518628
 20
2.0402831074
 10
6.8462911522
 20
2.0386847188
  0
LINE
  5
334
100
AcDbEntity
  8
INCISIONI
100
AcDbLine
 62
253
  6
CONTINUOUS
 10
7.0280994403
 20
0.2619721731
 11
7.0225159182
 21
0.2619098358
  0
LINE
  5
335
100
AcDbEntity
  8
INCISIONI
100
AcDbLine
 62
253
  6
CONTINUOUS
 10
2.9855522472
 20
-0.3925147703
 11
3.8847812472
 21
-0.3925147703
  0
LINE
  5
336
100
AcDbEntity
  8
INCISIONI
100
AcDbLine
 62
253
  6
CONTINUOUS
 10
6.5169094123
 20
-0.2249915685
 11
7.0204924461
 21
-0.2249915685
  0
LINE
  5
337
100
AcDbEntity
  8
INCISIONI
100
AcDbLine
 62
253
  6
CONTINUOUS
 10
6.2669046192
 20
0.0250036386
 11
7.0204895728
 21
0.0250084315
  0
LINE
  5
338
100
AcDbEntity
  8
INCISIONI
100
AcDbLine
 62
253
  6
CONTINUOUS
 10
7.0225159182
 20
0.2619098358
 11
6.2357663732
 21
0.2619100178
  0
LINE
  5
339
100
AcDbEntity
  8
INCISIONI
100
AcDbLine
 62
253
  6
CONTINUOUS
 10
7.0225169005
 20
0.5119098358
 11
6.4857665553
 21
0.5119098358
  0
LINE
  5
33A
100
AcDbEntity
  8
INCISIONI
100
AcDbLine
 62
253
  6
CONTINUOUS
 10
0.5257351746
 20
2.0136232297
 11
0.4881978097
 21
2.0136232297
  0
LINE
  5
33B
100
AcDbEntity
  8
INCISIONI
100
AcDbLine
 62
253
  6
CONTINUOUS
 10
-2.1352915603
 20
2.0136232297
 11
-2.1816298854
 21
2.0136232297
  0
LINE
  5
33C
100
AcDbEntity
  8
INCISIONI
100
AcDbLine
 62
253
  6
CONTINUOUS
 10
3.3998016738
 20
2.0136232297
 11
3.5211022238
 21
2.0136232297
  0
LINE
  5
33D
100
AcDbEntity
  8
INCISIONI
100
AcDbLine
 62
253
  6
CONTINUOUS
 10
-8.2577029204
 20
2.2636232297
 11
-7.7691218329
 21
2.2636232297
  0
LINE
  5
33E
100
AcDbEntity
  8
INCISIONI
100
AcDbLine
 62
253
  6
CONTINUOUS
 10
-5.6487561321
 20
2.2636232297
 11
-5.2417788017
 21
2.2636232297
  0
LINE
  5
33F
100
AcDbEntity
  8
INCISIONI
100
AcDbLine
 62
253
  6
CONTINUOUS
 10
-2.4707392707
 20
2.2636232297
 11
-1.9344857072
 21
2.2636232297
  0
LINE
  5
340
100
AcDbEntity
  8
INCISIONI
100
AcDbLine
 62
253
  6
CONTINUOUS
 10
0.2808493298
 20
2.2636232297
 11
0.8093023753
 21
2.2636232297
  0
LINE
  5
341
100
AcDbEntity
  8
INCISIONI
100
AcDbLine
 62
253
  6
CONTINUOUS
 10
3.2001539641
 20
2.2636232297
 11
3.7403383868
 21
2.2636232297
  0
LINE
  5
342
100
AcDbEntity
  8
INCISIONI
100
AcDbLine
 62
253
  6
CONTINUOUS
 10
-3.8610647528
 20
2.2638932297
 11
-4.3002767528
 21
2.2638932297
  0
LINE
  5
343
100
AcDbEntity
  8
INCISIONI
100
AcDbLine
 62
253
  6
CONTINUOUS
 10
-8.5992197528
 20
2.5136232297
 11
-7.5789447528
 21
2.5136232297
  0
LINE
  5
344
100
AcDbEntity
  8
INCISIONI
100
AcDbLine
 62
253
  6
CONTINUOUS
 10
-5.8373907528
 20
2.5136232297
 11
-4.8988207528
 21
2.5136232297
  0
LINE
  5
345
100
AcDbEntity
  8
INCISIONI
100
AcDbLine
 62
253
  6
CONTINUOUS
 10
-2.6991827528
 20
2.5136232297
 11
-1.7607477528
 21
2.5136232297
  0
LINE
  5
346
100
AcDbEntity
  8
INCISIONI
100
AcDbLine
 62
253
  6
CONTINUOUS
 10
0.1077562472
 20
2.5136232297
 11
1.0370152472
 21
2.5136232297
  0
LINE
  5
347
100
AcDbEntity
  8
INCISIONI
100
AcDbLine
 62
253
  6
CONTINUOUS
 10
3.0165602472
 20
2.5136232297
 11
3.9251352472
 21
2.5136232297
  0
LINE
  5
348
100
AcDbEntity
  8
INCISIONI
100
AcDbLine
 62
253
  6
CONTINUOUS
 10
-3.6110647528
 20
2.5138932297
 11
-4.5502767528
 21
2.5138932297
  0
LWPOLYLINE
  5
349
100
AcDbEntity
  8
INCISIONI
100
AcDbPolyline
 62
253
  6
CONTINUOUS
 90
48
 70
0
 10
7.0204924461
 20
-0.2249915685
 10
7.0349535776
 20
-0.2251751744
 10
7.0494403851
 20
-0.2257279948
 10
7.0639379851
 20
-0.2266530337
 10
7.0784314941
 20
-0.2279532954
 10
7.0929060286
 20
-0.2296317838
 10
7.107346705
 20
-0.2316915032
 10
7.1217386399
 20
-0.2341354576
 10
7.1360669495
 20
-0.2369666512
 10
7.1503167506
 20
-0.2401880879
 10
7.1644731594
 20
-0.2438027721
 10
7.1785212924
 20
-0.2478137076
 10
7.1924462662
 20
-0.2522238988
 10
7.2062331972
 20
-0.2570363496
 10
7.2198672019
 20
-0.2622540642
 10
7.2333333966
 20
-0.2678800467
 10
7.246616898
 20
-0.2739173012
 10
7.2597028224
 20
-0.2803688318
 10
7.2729035179
 20
-0.2874153113
 10
7.2858776644
 20
-0.2948869894
 10
7.2986221373
 20
-0.3027702508
 10
7.3111338118
 20
-0.3110514804
 10
7.3234095633
 20
-0.3197170633
 10
7.3354462672
 20
-0.3287533842
 10
7.3472407988
 20
-0.3381468281
 10
7.3587900333
 20
-0.3478837798
 10
7.3700908463
 20
-0.3579506243
 10
7.3811401128
 20
-0.3683337464
 10
7.3919347084
 20
-0.379019531
 10
7.4024715084
 20
-0.389994363
 10
7.412747388
 20
-0.4012446273
 10
7.4227592226
 20
-0.4127567088
 10
7.4325038876
 20
-0.4245169924
 10
7.4419782582
 20
-0.436511863
 10
7.4511792098
 20
-0.4487277055
 10
7.4601036178
 20
-0.4611509047
 10
7.4687483574
 20
-0.4737678456
 10
7.477110304
 20
-0.486564913
 10
7.485186333
 20
-0.4995284918
 10
7.4929733196
 20
-0.512644967
 10
7.5004681393
 20
-0.5259007234
 10
7.5076676672
 20
-0.5392821459
 10
7.5145687788
 20
-0.5527756194
 10
7.5211683495
 20
-0.5663675289
 10
7.5274632544
 20
-0.5800442591
 10
7.533450369
 20
-0.5937921949
 10
7.5391265686
 20
-0.6075977214
 10
7.5444887286
 20
-0.6214472233
  0
LWPOLYLINE
  5
34A
100
AcDbEntity
  8
INCISIONI
100
AcDbPolyline
 62
253
  6
CONTINUOUS
 90
49
 70
0
 10
7.2215545097
 20
1.7735835634
 10
7.2387679517
 20
1.7713528056
 10
7.2559825672
 20
1.7686567537
 10
7.2731793968
 20
1.7654967159
 10
7.2903394808
 20
1.7618740002
 10
7.3074438597
 20
1.7577899147
 10
7.3244735739
 20
1.7532457675
 10
7.3414096639
 20
1.7482428665
 10
7.35823317
 20
1.7427825198
 10
7.3749251328
 20
1.7368660355
 10
7.3914665926
 20
1.7304947216
 10
7.4078385899
 20
1.7236698862
 10
7.4240221652
 20
1.7163928374
 10
7.4399983588
 20
1.7086648831
 10
7.4557482112
 20
1.7004873315
 10
7.4712527628
 20
1.6918614905
 10
7.4864930541
 20
1.6827886683
 10
7.5014501255
 20
1.673270173
 10
7.5161050175
 20
1.6633073124
 10
7.5304387704
 20
1.6529013948
 10
7.5444324247
 20
1.6420537281
 10
7.5580670209
 20
1.6307656204
 10
7.5713235993
 20
1.6190383798
 10
7.5841832005
 20
1.6068733142
 10
7.5966268648
 20
1.5942717319
 10
7.6085743111
 20
1.5813095425
 10
7.6200860891
 20
1.5679371575
 10
7.6311567521
 20
1.5541749118
 10
7.641780853
 20
1.5400431398
 10
7.6519529448
 20
1.5255621765
 10
7.6616675807
 20
1.5107523564
 10
7.6709193137
 20
1.4956340142
 10
7.6797026967
 20
1.4802274847
 10
7.6880122829
 20
1.4645531026
 10
7.6958426253
 20
1.4486312025
 10
7.703188277
 20
1.4324821192
 10
7.710043791
 20
1.4161261873
 10
7.7164037204
 20
1.3995837415
 10
7.7222626181
 20
1.3828751166
 10
7.7276150373
 20
1.3660206472
 10
7.732455531
 20
1.3490406681
 10
7.7367786522
 20
1.3319555139
 10
7.740578954
 20
1.3147855193
 10
7.7438509895
 20
1.297551019
 10
7.7465893116
 20
1.2802723478
 10
7.7487884735
 20
1.2629698403
 10
7.7504430282
 20
1.2456638313
 10
7.7515475287
 20
1.2283746553
 10
7.7520965281
 20
1.2111226472
  0
LWPOLYLINE
  5
34B
100
AcDbEntity
  8
INCISIONI
100
AcDbPolyline
 62
253
  6
CONTINUOUS
 90
32
 70
0
 10
7.8993081044
 20
2.4136823061
 10
7.8449407597
 20
2.4323937212
 10
7.7900514456
 20
2.4494963177
 10
7.7346862622
 20
2.4650681395
 10
7.6788913099
 20
2.4791872301
 10
7.622712689
 20
2.4919316333
 10
7.5661964997
 20
2.5033793927
 10
7.5093888422
 20
2.513608552
 10
7.4523358169
 20
2.5226971549
 10
7.395083524
 20
2.530723245
 10
7.3376780638
 20
2.5377648661
 10
7.2801655366
 20
2.5439000618
 10
7.2225920426
 20
2.5492068759
 10
7.1359636946
 20
2.5557671771
 10
7.0493109935
 20
2.5606981346
 10
6.9626432142
 20
2.5640676738
 10
6.8759696318
 20
2.5659437201
 10
6.7892995212
 20
2.5663941989
 10
6.7026421575
 20
2.5654870355
 10
6.6160068156
 20
2.5632901555
 10
6.5294027705
 20
2.5598714841
 10
6.4428392972
 20
2.5552989469
 10
6.3563256707
 20
2.5496404692
 10
6.269871166
 20
2.5429639764
 10
6.1834850582
 20
2.5353373939
 10
6.0971766221
 20
2.5268286471
 10
6.0109551327
 20
2.5175056615
 10
5.9248298652
 20
2.5074363624
 10
5.8388100943
 20
2.4966886752
 10
5.7529050953
 20
2.4853305253
 10
5.667124143
 20
2.4734298382
 10
5.5814765124
 20
2.4610545393
  0
LINE
  5
34C
100
AcDbEntity
  8
INCISIONI
100
AcDbLine
 62
253
  6
CONTINUOUS
 10
7.9035471279
 20
-0.1177434376
 11
7.7461444956
 21
-0.0549791258
  0
LWPOLYLINE
  5
34D
100
AcDbEntity
  8
INCISIONI
100
AcDbPolyline
 62
253
  6
CONTINUOUS
 90
30
 70
0
 10
7.9035471279
 20
-0.1177434376
 10
7.9225461349
 20
-0.1260438457
 10
7.9409864249
 20
-0.135539442
 10
7.9588089252
 20
-0.1461599736
 10
7.975954563
 20
-0.1578351876
 10
7.9923642654
 20
-0.1704948313
 10
8.0071171305
 20
-0.1832602734
 10
8.0212004035
 20
-0.1967577115
 10
8.0346506152
 20
-0.2109071734
 10
8.0475042966
 20
-0.2256286871
 10
8.0597979786
 20
-0.2408422804
 10
8.0715681919
 20
-0.2564679812
 10
8.0857497404
 20
-0.2767018516
 10
8.0992035923
 20
-0.297411365
 10
8.1119800346
 20
-0.3185415095
 10
8.1241293545
 20
-0.3400372728
 10
8.1381685698
 20
-0.3666819499
 10
8.1514098949
 20
-0.3937366867
 10
8.1639137924
 20
-0.4211493486
 10
8.1757407246
 20
-0.4488678007
 10
8.1869511541
 20
-0.4768399082
 10
8.2024360759
 20
-0.5183278879
 10
8.2168939508
 20
-0.5601806686
 10
8.2304994027
 20
-0.6023275405
 10
8.2434270558
 20
-0.644697794
 10
8.255851534
 20
-0.6872207195
 10
8.2743666345
 20
-0.7529573166
 10
8.2923763661
 20
-0.818826773
 10
8.326376728
 20
-0.9456821101
 10
8.3959622735
 20
-1.2089562603
  0
LINE
  5
34E
100
AcDbEntity
  8
INCISIONI
100
AcDbLine
 62
253
  6
CONTINUOUS
 10
-0.9024457528
 20
-1.9858287703
 11
-2.0042557528
 21
0.9522282297
  0
LINE
  5
34F
100
AcDbEntity
  8
INCISIONI
100
AcDbLine
 62
253
  6
CONTINUOUS
 10
-0.8351039223
 20
-1.4534222602
 11
-2.1352915603
 21
2.0136232297
  0
LINE
  5
350
100
AcDbEntity
  8
INCISIONI
100
AcDbLine
 62
253
  6
CONTINUOUS
 10
-1.9344857072
 20
2.2636232297
 11
-0.8326976765
 21
-0.6981850454
  0
LINE
  5
351
100
AcDbEntity
  8
INCISIONI
100
AcDbLine
 62
253
  6
CONTINUOUS
 10
-1.7607477528
 20
2.5136232297
 11
-0.8314547528
 21
0.0155132297
  0
LINE
  5
352
100
AcDbEntity
  8
INCISIONI
100
AcDbLine
 62
253
  6
CONTINUOUS
 10
5.5814765124
 20
2.4610545393
 11
5.5814765124
 21
-1.9858282712
  0
LINE
  5
353
100
AcDbEntity
  8
INCISIONI
100
AcDbLine
 62
253
  6
CONTINUOUS
 10
5.8314765124
 20
2.2431488027
 11
5.8314765124
 21
-1.7358282712
  0
LINE
  5
354
100
AcDbEntity
  8
INCISIONI
100
AcDbLine
 62
253
  6
CONTINUOUS
 10
6.2357663732
 20
0.2619100178
 11
6.2357630817
 21
1.9580476256
  0
LINE
  5
355
100
AcDbEntity
  8
INCISIONI
100
AcDbLine
 62
253
  6
CONTINUOUS
 10
6.2669094123
 20
-1.7358282712
 11
6.2669046192
 21
0.0250036386
  0
LINE
  5
356
100
AcDbEntity
  8
INCISIONI
100
AcDbLine
 62
253
  6
CONTINUOUS
 10
6.4857665553
 20
0.5119098358
 11
6.4857665553
 21
1.7470969516
  0
LINE
  5
357
100
AcDbEntity
  8
INCISIONI
100
AcDbLine
 62
253
  6
CONTINUOUS
 10
6.5169094123
 20
-1.9858282712
 11
6.5169094123
 21
-0.2249915685
  0
LINE
  5
358
100
AcDbEntity
  8
INCISIONI
100
AcDbLine
 62
253
  6
CONTINUOUS
 10
2.6559173476
 20
-0.6425147703
 11
3.3998016738
 21
2.0136232297
  0
LINE
  5
359
100
AcDbEntity
  8
INCISIONI
100
AcDbLine
 62
253
  6
CONTINUOUS
 10
3.4532012472
 20
1.2772882297
 11
2.9855522472
 21
-0.3925147703
  0
LINE
  5
35A
100
AcDbEntity
  8
INCISIONI
100
AcDbLine
 62
253
  6
CONTINUOUS
 10
2.6053636751
 20
-0.8375777703
 11
2.3462006751
 21
-1.7358287703
  0
LINE
  5
35B
100
AcDbEntity
  8
INCISIONI
100
AcDbLine
 62
253
  6
CONTINUOUS
 10
2.7934312472
 20
-1.0875777703
 11
2.5342682472
 21
-1.9858287703
  0
LINE
  5
35C
100
AcDbEntity
  8
INCISIONI
100
AcDbLine
 62
253
  6
CONTINUOUS
 10
1.6052452472
 20
-1.9858287703
 11
3.0165602472
 21
2.5136232297
  0
LINE
  5
35D
100
AcDbEntity
  8
INCISIONI
100
AcDbLine
 62
253
  6
CONTINUOUS
 10
1.9456708405
 20
-1.7358287703
 11
3.2001539641
 21
2.2636232297
  0
LINE
  5
35E
100
AcDbEntity
  8
INCISIONI
100
AcDbLine
 62
253
  6
CONTINUOUS
 10
0.4881978097
 20
2.0136232297
 11
-0.8351039223
 21
-1.4534222602
  0
LINE
  5
35F
100
AcDbEntity
  8
INCISIONI
100
AcDbLine
 62
253
  6
CONTINUOUS
 10
0.3460012472
 20
0.9399812297
 11
-0.7707217528
 21
-1.9858287703
  0
LINE
  5
360
100
AcDbEntity
  8
INCISIONI
100
AcDbLine
 62
7
  6
CONTINUOUS
 10
-4.5502767528
 20
-1.6278516172
 11
-4.3002767528
 21
-1.3778516172
  0
LINE
  5
361
100
AcDbEntity
  8
INCISIONI
100
AcDbLine
 62
7
  6
CONTINUOUS
 10
-3.8610647528
 20
-0.9386396172
 11
-3.6110647528
 21
-0.6886396172
  0
LINE
  5
362
100
AcDbEntity
  8
INCISIONI
100
AcDbLine
 62
7
  6
CONTINUOUS
 10
-2.9265182623
 20
-0.0040931266
 11
-2.6505860872
 21
0.2718390484
  0
LINE
  5
363
100
AcDbEntity
  8
INCISIONI
100
AcDbLine
 62
7
  6
CONTINUOUS
 10
-2.2759416172
 20
0.6464835184
 11
-2.0067793844
 21
0.9156457513
  0
LINE
  5
364
100
AcDbEntity
  8
INCISIONI
100
AcDbLine
 62
7
  6
CONTINUOUS
 10
-1.9949667396
 20
0.9274583961
 11
-1.8007858536
 21
1.1216392821
  0
LINE
  5
365
100
AcDbEntity
  8
INCISIONI
100
AcDbLine
 62
7
  6
CONTINUOUS
 10
-1.5886016584
 20
1.3338234773
 11
-1.3941863033
 21
1.5282388324
  0
LINE
  5
366
100
AcDbEntity
  8
INCISIONI
100
AcDbLine
 62
7
  6
CONTINUOUS
 10
-4.5502767528
 20
-1.8378623312
 11
-4.3002767528
 21
-1.5878623312
  0
LINE
  5
367
100
AcDbEntity
  8
INCISIONI
100
AcDbLine
 62
7
  6
CONTINUOUS
 10
-3.8610647528
 20
-1.1486503312
 11
-3.6110647528
 21
-0.8986503312
  0
LINE
  5
368
100
AcDbEntity
  8
INCISIONI
100
AcDbLine
 62
7
  6
CONTINUOUS
 10
-2.9473632203
 20
-0.2349487987
 11
-2.6714310453
 21
0.0409833763
  0
LINE
  5
369
100
AcDbEntity
  8
INCISIONI
100
AcDbLine
 62
7
  6
CONTINUOUS
 10
-2.2915026156
 20
0.420911806
 11
-2.0223403828
 21
0.6900740389
  0
LINE
  5
36A
100
AcDbEntity
  8
INCISIONI
100
AcDbLine
 62
7
  6
CONTINUOUS
 10
-1.93768963
 20
0.7747247916
 11
-1.743508744
 21
0.9689056776
  0
LINE
  5
36B
100
AcDbEntity
  8
INCISIONI
100
AcDbLine
 62
7
  6
CONTINUOUS
 10
-1.5316601529
 20
1.1807542687
 11
-1.3372447979
 21
1.3751696238
  0
LINE
  5
36C
100
AcDbEntity
  8
INCISIONI
100
AcDbLine
 62
7
  6
CONTINUOUS
 10
-4.4882324779
 20
-1.9858287703
 11
-4.2382324779
 21
-1.7358287703
  0
LINE
  5
36D
100
AcDbEntity
  8
INCISIONI
100
AcDbLine
 62
7
  6
CONTINUOUS
 10
-3.8610647528
 20
-1.3586610452
 11
-3.6110647528
 21
-1.1086610452
  0
LINE
  5
36E
100
AcDbEntity
  8
INCISIONI
100
AcDbLine
 62
7
  6
CONTINUOUS
 10
-2.9682081784
 20
-0.4658044708
 11
-2.6922760033
 21
-0.1898722957
  0
LINE
  5
36F
100
AcDbEntity
  8
INCISIONI
100
AcDbLine
 62
7
  6
CONTINUOUS
 10
-2.307063614
 20
0.1953400936
 11
-2.0379013811
 21
0.4645023265
  0
LINE
  5
370
100
AcDbEntity
  8
INCISIONI
100
AcDbLine
 62
7
  6
CONTINUOUS
 10
-1.8804125204
 20
0.6219911872
 11
-1.6862316344
 21
0.8161720732
  0
LINE
  5
371
100
AcDbEntity
  8
INCISIONI
100
AcDbLine
 62
7
  6
CONTINUOUS
 10
-1.4747186475
 20
1.0276850601
 11
-1.2803032925
 21
1.2221004152
  0
LINE
  5
372
100
AcDbEntity
  8
INCISIONI
100
AcDbLine
 62
7
  6
CONTINUOUS
 10
-4.2782217639
 20
-1.9858287703
 11
-4.0282217639
 21
-1.7358287703
  0
LINE
  5
373
100
AcDbEntity
  8
INCISIONI
100
AcDbLine
 62
7
  6
CONTINUOUS
 10
-3.8610647528
 20
-1.5686717592
 11
-3.6110647528
 21
-1.3186717592
  0
LINE
  5
374
100
AcDbEntity
  8
INCISIONI
100
AcDbLine
 62
7
  6
CONTINUOUS
 10
-2.9890531364
 20
-0.6966601428
 11
-2.7131209614
 21
-0.4207279678
  0
LINE
  5
375
100
AcDbEntity
  8
INCISIONI
100
AcDbLine
 62
7
  6
CONTINUOUS
 10
-2.3226246124
 20
-0.0302316188
 11
-2.0534623795
 21
0.2389306141
  0
LINE
  5
376
100
AcDbEntity
  8
INCISIONI
100
AcDbLine
 62
7
  6
CONTINUOUS
 10
-1.8231354109
 20
0.4692575827
 11
-1.6289545248
 21
0.6634384688
  0
LINE
  5
377
100
AcDbEntity
  8
INCISIONI
100
AcDbLine
 62
7
  6
CONTINUOUS
 10
-1.4177771421
 20
0.8746158515
 11
-1.223361787
 21
1.0690312066
  0
LINE
  5
378
100
AcDbEntity
  8
INCISIONI
100
AcDbLine
 62
7
  6
CONTINUOUS
 10
0.0393900357
 20
2.3317830293
 11
0.2212302361
 21
2.5136232297
  0
LINE
  5
379
100
AcDbEntity
  8
INCISIONI
100
AcDbLine
 62
7
  6
CONTINUOUS
 10
-4.0682110499
 20
-1.9858287703
 11
-3.6110647528
 21
-1.5286824732
  0
LINE
  5
37A
100
AcDbEntity
  8
INCISIONI
100
AcDbLine
 62
7
  6
CONTINUOUS
 10
-3.0098980945
 20
-0.9275158149
 11
-2.7339659194
 21
-0.6515836398
  0
LINE
  5
37B
100
AcDbEntity
  8
INCISIONI
100
AcDbLine
 62
7
  6
CONTINUOUS
 10
-2.3381856107
 20
-0.2558033312
 11
-2.0690233779
 21
0.0133589017
  0
LINE
  5
37C
100
AcDbEntity
  8
INCISIONI
100
AcDbLine
 62
7
  6
CONTINUOUS
 10
-1.7658583013
 20
0.3165239783
 11
-1.5716774153
 21
0.5107048643
  0
LINE
  5
37D
100
AcDbEntity
  8
INCISIONI
100
AcDbLine
 62
7
  6
CONTINUOUS
 10
-1.3608356367
 20
0.7215466429
 11
-1.1664202816
 21
0.9159619979
  0
LINE
  5
37E
100
AcDbEntity
  8
INCISIONI
100
AcDbLine
 62
7
  6
CONTINUOUS
 10
-0.0871379643
 20
1.9952443153
 11
0.4312409501
 21
2.5136232297
  0
LINE
  5
37F
100
AcDbEntity
  8
INCISIONI
100
AcDbLine
 62
7
  6
CONTINUOUS
 10
-3.8582003359
 20
-1.9858287703
 11
-3.6110647528
 21
-1.7386931873
  0
LINE
  5
380
100
AcDbEntity
  8
INCISIONI
100
AcDbLine
 62
7
  6
CONTINUOUS
 10
-3.0307430525
 20
-1.1583714869
 11
-2.7548108775
 21
-0.8824393119
  0
LINE
  5
381
100
AcDbEntity
  8
INCISIONI
100
AcDbLine
 62
7
  6
CONTINUOUS
 10
-2.3537466091
 20
-0.4813750436
 11
-2.0845843763
 21
-0.2122128107
  0
LINE
  5
382
100
AcDbEntity
  8
INCISIONI
100
AcDbLine
 62
7
  6
CONTINUOUS
 10
-1.7085811917
 20
0.1637903738
 11
-1.5144003057
 21
0.3579712599
  0
LINE
  5
383
100
AcDbEntity
  8
INCISIONI
100
AcDbLine
 62
7
  6
CONTINUOUS
 10
-1.3038941313
 20
0.5684774343
 11
-1.1094787762
 21
0.7628927893
  0
LINE
  5
384
100
AcDbEntity
  8
INCISIONI
100
AcDbLine
 62
7
  6
CONTINUOUS
 10
-0.2136659643
 20
1.6587056013
 11
0.2143337397
 21
2.0867053052
  0
LINE
  5
385
100
AcDbEntity
  8
INCISIONI
100
AcDbLine
 62
7
  6
CONTINUOUS
 10
0.3912516641
 20
2.2636232297
 11
0.6412516641
 21
2.5136232297
  0
LINE
  5
386
100
AcDbEntity
  8
INCISIONI
100
AcDbLine
 62
7
  6
CONTINUOUS
 10
-3.6481896219
 20
-1.9858287703
 11
-3.6110647528
 21
-1.9487039013
  0
LINE
  5
387
100
AcDbEntity
  8
INCISIONI
100
AcDbLine
 62
7
  6
CONTINUOUS
 10
-3.0515880106
 20
-1.389227159
 11
-2.7756558355
 21
-1.113294984
  0
LINE
  5
388
100
AcDbEntity
  8
INCISIONI
100
AcDbLine
 62
7
  6
CONTINUOUS
 10
-2.3693076075
 20
-0.706946756
 11
-2.1001453747
 21
-0.4377845231
  0
LINE
  5
389
100
AcDbEntity
  8
INCISIONI
100
AcDbLine
 62
7
  6
CONTINUOUS
 10
-1.6513040822
 20
0.0110567694
 11
-1.4571231961
 21
0.2052376554
  0
LINE
  5
38A
100
AcDbEntity
  8
INCISIONI
100
AcDbLine
 62
7
  6
CONTINUOUS
 10
-1.2469526259
 20
0.4154082257
 11
-1.0525372708
 21
0.6098235807
  0
LINE
  5
38B
100
AcDbEntity
  8
INCISIONI
100
AcDbLine
 62
7
  6
CONTINUOUS
 10
-0.3401939643
 20
1.3221668872
 11
0.0878057396
 21
1.7501665912
  0
LINE
  5
38C
100
AcDbEntity
  8
INCISIONI
100
AcDbLine
 62
7
  6
CONTINUOUS
 10
0.6012623781
 20
2.2636232297
 11
0.8512623781
 21
2.5136232297
  0
LINE
  5
38D
100
AcDbEntity
  8
INCISIONI
100
AcDbLine
 62
7
  6
CONTINUOUS
 10
-3.0724329686
 20
-1.620082831
 11
-2.7965007936
 21
-1.344150656
  0
LINE
  5
38E
100
AcDbEntity
  8
INCISIONI
100
AcDbLine
 62
7
  6
CONTINUOUS
 10
-2.3848686059
 20
-0.9325184684
 11
-2.1157063731
 21
-0.6633562355
  0
LINE
  5
38F
100
AcDbEntity
  8
INCISIONI
100
AcDbLine
 62
7
  6
CONTINUOUS
 10
-1.5940269726
 20
-0.141676835
 11
-1.3998460866
 21
0.052504051
  0
LINE
  5
390
100
AcDbEntity
  8
INCISIONI
100
AcDbLine
 62
7
  6
CONTINUOUS
 10
-1.1900111205
 20
0.262339017
 11
-0.9955957654
 21
0.4567543721
  0
LINE
  5
391
100
AcDbEntity
  8
INCISIONI
100
AcDbLine
 62
7
  6
CONTINUOUS
 10
-0.4667219644
 20
0.9856281732
 11
-0.0387222604
 21
1.4136278772
  0
LINE
  5
392
100
AcDbEntity
  8
INCISIONI
100
AcDbLine
 62
7
  6
CONTINUOUS
 10
0.4430895045
 20
1.895439642
 11
0.5279339677
 21
1.9802841053
  0
LINE
  5
393
100
AcDbEntity
  8
INCISIONI
100
AcDbLine
 62
7
  6
CONTINUOUS
 10
0.8094709004
 20
2.2618210379
 11
1.039089647
 21
2.4914397845
  0
LINE
  5
394
100
AcDbEntity
  8
INCISIONI
100
AcDbLine
 62
7
  6
CONTINUOUS
 10
-3.0932779266
 20
-1.8509385031
 11
-2.8173457516
 21
-1.5750063281
  0
LINE
  5
395
100
AcDbEntity
  8
INCISIONI
100
AcDbLine
 62
7
  6
CONTINUOUS
 10
-2.4004296043
 20
-1.1580901808
 11
-2.1312673715
 21
-0.8889279479
  0
LINE
  5
396
100
AcDbEntity
  8
INCISIONI
100
AcDbLine
 62
7
  6
CONTINUOUS
 10
-1.536749863
 20
-0.2944104395
 11
-1.342568977
 21
-0.1002295535
  0
LINE
  5
397
100
AcDbEntity
  8
INCISIONI
100
AcDbLine
 62
7
  6
CONTINUOUS
 10
-1.1330696151
 20
0.1092698084
 11
-0.93865426
 21
0.3036851635
  0
LINE
  5
398
100
AcDbEntity
  8
INCISIONI
100
AcDbLine
 62
7
  6
CONTINUOUS
 10
-0.5932499644
 20
0.6490894591
 11
-0.1652502604
 21
1.0770891631
  0
LINE
  5
399
100
AcDbEntity
  8
INCISIONI
100
AcDbLine
 62
7
  6
CONTINUOUS
 10
0.313452956
 20
1.5557923795
 11
0.5409276977
 21
1.7832671213
  0
LINE
  5
39A
100
AcDbEntity
  8
INCISIONI
100
AcDbLine
 62
7
  6
CONTINUOUS
 10
0.8274298817
 20
2.0697693053
 11
1.0570486283
 21
2.2993880518
  0
LINE
  5
39B
100
AcDbEntity
  8
INCISIONI
100
AcDbLine
 62
7
  6
CONTINUOUS
 10
-3.0181574798
 20
-1.9858287703
 11
-2.7681574798
 21
-1.7358287703
  0
LINE
  5
39C
100
AcDbEntity
  8
INCISIONI
100
AcDbLine
 62
7
  6
CONTINUOUS
 10
-2.4159906027
 20
-1.3836618932
 11
-2.1468283699
 21
-1.1144996603
  0
LINE
  5
39D
100
AcDbEntity
  8
INCISIONI
100
AcDbLine
 62
7
  6
CONTINUOUS
 10
-1.4794727535
 20
-0.4471440439
 11
-1.2852918674
 21
-0.2529631579
  0
LINE
  5
39E
100
AcDbEntity
  8
INCISIONI
100
AcDbLine
 62
7
  6
CONTINUOUS
 10
-1.0761281097
 20
-0.0437994002
 11
-0.8817127546
 21
0.1506159549
  0
LINE
  5
39F
100
AcDbEntity
  8
INCISIONI
100
AcDbLine
 62
7
  6
CONTINUOUS
 10
-0.7197779644
 20
0.3125507451
 11
-0.2917782604
 21
0.7405504491
  0
LINE
  5
3A0
100
AcDbEntity
  8
INCISIONI
100
AcDbLine
 62
7
  6
CONTINUOUS
 10
0.1838164075
 20
1.2161451171
 11
0.5539214278
 21
1.5862501373
  0
LINE
  5
3A1
100
AcDbEntity
  8
INCISIONI
100
AcDbLine
 62
7
  6
CONTINUOUS
 10
0.8453888631
 20
1.8777175726
 11
1.0750076096
 21
2.1073363192
  0
LINE
  5
3A2
100
AcDbEntity
  8
INCISIONI
100
AcDbLine
 62
7
  6
CONTINUOUS
 10
-2.8081467658
 20
-1.9858287703
 11
-2.5581467658
 21
-1.7358287703
  0
LINE
  5
3A3
100
AcDbEntity
  8
INCISIONI
100
AcDbLine
 62
7
  6
CONTINUOUS
 10
-2.4315516011
 20
-1.6092336056
 11
-2.1623893683
 21
-1.3400713727
  0
LINE
  5
3A4
100
AcDbEntity
  8
INCISIONI
100
AcDbLine
 62
7
  6
CONTINUOUS
 10
-1.4221956439
 20
-0.5998776484
 11
-1.2280147579
 21
-0.4056967623
  0
LINE
  5
3A5
100
AcDbEntity
  8
INCISIONI
100
AcDbLine
 62
7
  6
CONTINUOUS
 10
-1.0191866043
 20
-0.1968686088
 11
-0.4183062605
 21
0.404011735
  0
LINE
  5
3A6
100
AcDbEntity
  8
INCISIONI
100
AcDbLine
 62
7
  6
CONTINUOUS
 10
0.054179859
 20
0.8764978546
 11
0.5669151578
 21
1.3892331533
  0
LINE
  5
3A7
100
AcDbEntity
  8
INCISIONI
100
AcDbLine
 62
7
  6
CONTINUOUS
 10
0.8633478444
 20
1.6856658399
 11
1.092966591
 21
1.9152845865
  0
LINE
  5
3A8
100
AcDbEntity
  8
INCISIONI
100
AcDbLine
 62
7
  6
CONTINUOUS
 10
-2.5981360518
 20
-1.9858287703
 11
-2.1779503666
 21
-1.5656430851
  0
LINE
  5
3A9
100
AcDbEntity
  8
INCISIONI
100
AcDbLine
 62
7
  6
CONTINUOUS
 10
-1.3649185343
 20
-0.7526112528
 11
-1.1707376483
 21
-0.5584303668
  0
LINE
  5
3AA
100
AcDbEntity
  8
INCISIONI
100
AcDbLine
 62
7
  6
CONTINUOUS
 10
-0.9622450989
 20
-0.3499378174
 11
-0.5448342605
 21
0.067473021
  0
LINE
  5
3AB
100
AcDbEntity
  8
INCISIONI
100
AcDbLine
 62
7
  6
CONTINUOUS
 10
-0.0754566894
 20
0.5368505921
 11
0.5799088879
 21
1.1922161694
  0
LINE
  5
3AC
100
AcDbEntity
  8
INCISIONI
100
AcDbLine
 62
7
  6
CONTINUOUS
 10
0.8813068257
 20
1.4936141072
 11
1.1109255723
 21
1.7232328538
  0
LINE
  5
3AD
100
AcDbEntity
  8
INCISIONI
100
AcDbLine
 62
7
  6
CONTINUOUS
 10
-2.3881253378
 20
-1.9858287703
 11
-2.193511365
 21
-1.7912147975
  0
LINE
  5
3AE
100
AcDbEntity
  8
INCISIONI
100
AcDbLine
 62
7
  6
CONTINUOUS
 10
-1.3076414247
 20
-0.9053448573
 11
-1.1134605387
 21
-0.7111639712
  0
LINE
  5
3AF
100
AcDbEntity
  8
INCISIONI
100
AcDbLine
 62
7
  6
CONTINUOUS
 10
-0.9053035935
 20
-0.503007026
 11
-0.6713622605
 21
-0.269065693
  0
LINE
  5
3B0
100
AcDbEntity
  8
INCISIONI
100
AcDbLine
 62
7
  6
CONTINUOUS
 10
-0.2050932379
 20
0.1972033296
 11
0.2276778728
 21
0.6299744403
  0
LINE
  5
3B1
100
AcDbEntity
  8
INCISIONI
100
AcDbLine
 62
7
  6
CONTINUOUS
 10
0.3578610352
 20
0.7601576027
 11
0.5929026179
 21
0.9951991854
  0
LINE
  5
3B2
100
AcDbEntity
  8
INCISIONI
100
AcDbLine
 62
7
  6
CONTINUOUS
 10
0.8992658071
 20
1.3015623745
 11
1.1288845536
 21
1.5311811211
  0
LINE
  5
3B3
100
AcDbEntity
  8
INCISIONI
100
AcDbLine
 62
7
  6
CONTINUOUS
 10
-1.2503643152
 20
-1.0580784617
 11
-1.0561834292
 21
-0.8638975757
  0
LINE
  5
3B4
100
AcDbEntity
  8
INCISIONI
100
AcDbLine
 62
7
  6
CONTINUOUS
 10
-0.8483620881
 20
-0.6560762346
 11
-0.7978902606
 21
-0.6056044071
  0
LINE
  5
3B5
100
AcDbEntity
  8
INCISIONI
100
AcDbLine
 62
7
  6
CONTINUOUS
 10
-0.3347297864
 20
-0.1424439329
 11
0.0980413244
 21
0.2903271778
  0
LINE
  5
3B6
100
AcDbEntity
  8
INCISIONI
100
AcDbLine
 62
7
  6
CONTINUOUS
 10
0.3708547652
 20
0.5631406187
 11
0.605896348
 21
0.7981822014
  0
LINE
  5
3B7
100
AcDbEntity
  8
INCISIONI
100
AcDbLine
 62
7
  6
CONTINUOUS
 10
0.9172247884
 20
1.1095106419
 11
1.146843535
 21
1.3391293884
  0
LINE
  5
3B8
100
AcDbEntity
  8
INCISIONI
100
AcDbLine
 62
7
  6
CONTINUOUS
 10
-1.1930872056
 20
-1.2108120661
 11
-0.9989063196
 21
-1.0166311801
  0
LINE
  5
3B9
100
AcDbEntity
  8
INCISIONI
100
AcDbLine
 62
7
  6
CONTINUOUS
 10
-0.4643663349
 20
-0.4820911954
 11
-0.0315952241
 21
-0.0493200847
  0
LINE
  5
3BA
100
AcDbEntity
  8
INCISIONI
100
AcDbLine
 62
7
  6
CONTINUOUS
 10
0.3838484953
 20
0.3661236347
 11
0.618890078
 21
0.6011652175
  0
LINE
  5
3BB
100
AcDbEntity
  8
INCISIONI
100
AcDbLine
 62
7
  6
CONTINUOUS
 10
0.9351837697
 20
0.9174589092
 11
1.1648025163
 21
1.1470776558
  0
LINE
  5
3BC
100
AcDbEntity
  8
INCISIONI
100
AcDbLine
 62
7
  6
CONTINUOUS
 10
-1.135810096
 20
-1.3635456706
 11
-0.94162921
 21
-1.1693647846
  0
LINE
  5
3BD
100
AcDbEntity
  8
INCISIONI
100
AcDbLine
 62
7
  6
CONTINUOUS
 10
-0.5940028834
 20
-0.8217384579
 11
-0.1612317726
 21
-0.3889673472
  0
LINE
  5
3BE
100
AcDbEntity
  8
INCISIONI
100
AcDbLine
 62
7
  6
CONTINUOUS
 10
0.3968422253
 20
0.1691066508
 11
0.631883808
 21
0.4041482335
  0
LINE
  5
3BF
100
AcDbEntity
  8
INCISIONI
100
AcDbLine
 62
7
  6
CONTINUOUS
 10
0.9531427511
 20
0.7254071765
 11
1.1827614976
 21
0.9550259231
  0
LINE
  5
3C0
100
AcDbEntity
  8
INCISIONI
100
AcDbLine
 62
7
  6
CONTINUOUS
 10
-1.0785329865
 20
-1.516279275
 11
-0.8843521004
 21
-1.322098389
  0
LINE
  5
3C1
100
AcDbEntity
  8
INCISIONI
100
AcDbLine
 62
7
  6
CONTINUOUS
 10
-0.7236394318
 20
-1.1613857204
 11
-0.2908683211
 21
-0.7286146097
  0
LINE
  5
3C2
100
AcDbEntity
  8
INCISIONI
100
AcDbLine
 62
7
  6
CONTINUOUS
 10
0.4098359554
 20
-0.0279103332
 11
0.6448775381
 21
0.2071312495
  0
LINE
  5
3C3
100
AcDbEntity
  8
INCISIONI
100
AcDbLine
 62
7
  6
CONTINUOUS
 10
0.9711017324
 20
0.5333554438
 11
1.200720479
 21
0.7629741904
  0
LINE
  5
3C4
100
AcDbEntity
  8
INCISIONI
100
AcDbLine
 62
7
  6
CONTINUOUS
 10
-1.0212558769
 20
-1.6690128795
 11
-0.4205048696
 21
-1.0682618722
  0
LINE
  5
3C5
100
AcDbEntity
  8
INCISIONI
100
AcDbLine
 62
7
  6
CONTINUOUS
 10
0.4228296854
 20
-0.2249273172
 11
0.6578712681
 21
0.0101142656
  0
LINE
  5
3C6
100
AcDbEntity
  8
INCISIONI
100
AcDbLine
 62
7
  6
CONTINUOUS
 10
0.9890607137
 20
0.3413037111
 11
1.2186794603
 21
0.5709224577
  0
LINE
  5
3C7
100
AcDbEntity
  8
INCISIONI
100
AcDbLine
 62
7
  6
CONTINUOUS
 10
2.9503758074
 20
2.3026188048
 11
3.1613802323
 21
2.5136232297
  0
LINE
  5
3C8
100
AcDbEntity
  8
INCISIONI
100
AcDbLine
 62
7
  6
CONTINUOUS
 10
-0.9639787673
 20
-1.8217464839
 11
-0.5501414181
 21
-1.4079091346
  0
LINE
  5
3C9
100
AcDbEntity
  8
INCISIONI
100
AcDbLine
 62
7
  6
CONTINUOUS
 10
0.4358234154
 20
-0.4219443012
 11
0.6708649982
 21
-0.1869027184
  0
LINE
  5
3CA
100
AcDbEntity
  8
INCISIONI
100
AcDbLine
 62
7
  6
CONTINUOUS
 10
1.0070196951
 20
0.1492519785
 11
1.2366384416
 21
0.378870725
  0
LINE
  5
3CB
100
AcDbEntity
  8
INCISIONI
100
AcDbLine
 62
7
  6
CONTINUOUS
 10
2.8543984363
 20
1.9966307197
 11
3.3713909463
 21
2.5136232297
  0
LINE
  5
3CC
100
AcDbEntity
  8
INCISIONI
100
AcDbLine
 62
7
  6
CONTINUOUS
 10
-0.9067016578
 20
-1.9744800884
 11
-0.6797779665
 21
-1.7475563971
  0
LINE
  5
3CD
100
AcDbEntity
  8
INCISIONI
100
AcDbLine
 62
7
  6
CONTINUOUS
 10
0.4488171455
 20
-0.6189612851
 11
0.6838587282
 21
-0.3839197024
  0
LINE
  5
3CE
100
AcDbEntity
  8
INCISIONI
100
AcDbLine
 62
7
  6
CONTINUOUS
 10
1.0249786764
 20
-0.0427997542
 11
1.254597423
 21
0.1868189924
  0
LINE
  5
3CF
100
AcDbEntity
  8
INCISIONI
100
AcDbLine
 62
7
  6
CONTINUOUS
 10
2.7584210652
 20
1.6906426346
 11
3.1401722202
 21
2.0723937896
  0
LINE
  5
3D0
100
AcDbEntity
  8
INCISIONI
100
AcDbLine
 62
7
  6
CONTINUOUS
 10
3.3314016603
 20
2.2636232297
 11
3.5814016603
 21
2.5136232297
  0
LINE
  5
3D1
100
AcDbEntity
  8
INCISIONI
100
AcDbLine
 62
7
  6
CONTINUOUS
 10
0.4618108755
 20
-0.8159782691
 11
0.6968524583
 21
-0.5809366864
  0
LINE
  5
3D2
100
AcDbEntity
  8
INCISIONI
100
AcDbLine
 62
7
  6
CONTINUOUS
 10
1.0429376577
 20
-0.2348514869
 11
1.2725564043
 21
-0.0052327403
  0
LINE
  5
3D3
100
AcDbEntity
  8
INCISIONI
100
AcDbLine
 62
7
  6
CONTINUOUS
 10
2.6624436941
 20
1.3846545495
 11
3.0441948491
 21
1.7664057045
  0
LINE
  5
3D4
100
AcDbEntity
  8
INCISIONI
100
AcDbLine
 62
7
  6
CONTINUOUS
 10
3.5414123743
 20
2.2636232297
 11
3.7914123743
 21
2.5136232297
  0
LINE
  5
3D5
100
AcDbEntity
  8
INCISIONI
100
AcDbLine
 62
7
  6
CONTINUOUS
 10
0.4748046056
 20
-1.0129952531
 11
0.7098461883
 21
-0.7779536703
  0
LINE
  5
3D6
100
AcDbEntity
  8
INCISIONI
100
AcDbLine
 62
7
  6
CONTINUOUS
 10
1.060896639
 20
-0.4269032196
 11
1.2905153856
 21
-0.197284473
  0
LINE
  5
3D7
100
AcDbEntity
  8
INCISIONI
100
AcDbLine
 62
7
  6
CONTINUOUS
 10
2.566466323
 20
1.0786664644
 11
2.948217478
 21
1.4604176194
  0
LINE
  5
3D8
100
AcDbEntity
  8
INCISIONI
100
AcDbLine
 62
7
  6
CONTINUOUS
 10
3.3602700057
 20
1.8724701471
 11
3.5014230883
 21
2.0136232297
  0
LINE
  5
3D9
100
AcDbEntity
  8
INCISIONI
100
AcDbLine
 62
7
  6
CONTINUOUS
 10
3.7429409243
 20
2.2551410656
 11
3.9430465966
 21
2.455246738
  0
LINE
  5
3DA
100
AcDbEntity
  8
INCISIONI
100
AcDbLine
 62
7
  6
CONTINUOUS
 10
0.4877983356
 20
-1.210012237
 11
0.7228399183
 21
-0.9749706543
  0
LINE
  5
3DB
100
AcDbEntity
  8
INCISIONI
100
AcDbLine
 62
7
  6
CONTINUOUS
 10
1.0788556204
 20
-0.6189549523
 11
1.308474367
 21
-0.3893362057
  0
LINE
  5
3DC
100
AcDbEntity
  8
INCISIONI
100
AcDbLine
 62
7
  6
CONTINUOUS
 10
2.4704889519
 20
0.7726783793
 11
2.8522401069
 21
1.1544295343
  0
LINE
  5
3DD
100
AcDbEntity
  8
INCISIONI
100
AcDbLine
 62
7
  6
CONTINUOUS
 10
3.2785738999
 20
1.5807633273
 11
3.5601923386
 21
1.8623817659
  0
LINE
  5
3DE
100
AcDbEntity
  8
INCISIONI
100
AcDbLine
 62
7
  6
CONTINUOUS
 10
3.7922485888
 20
2.0944380162
 11
3.9923542612
 21
2.2945436885
  0
LINE
  5
3DF
100
AcDbEntity
  8
INCISIONI
100
AcDbLine
 62
7
  6
CONTINUOUS
 10
0.5007920656
 20
-1.407029221
 11
0.7358336484
 21
-1.1719876383
  0
LINE
  5
3E0
100
AcDbEntity
  8
INCISIONI
100
AcDbLine
 62
7
  6
CONTINUOUS
 10
1.0968146017
 20
-0.8110066849
 11
1.3264333483
 21
-0.5813879384
  0
LINE
  5
3E1
100
AcDbEntity
  8
INCISIONI
100
AcDbLine
 62
7
  6
CONTINUOUS
 10
2.3745115808
 20
0.4666902942
 11
2.7562627358
 21
0.8484414492
  0
LINE
  5
3E2
100
AcDbEntity
  8
INCISIONI
100
AcDbLine
 62
7
  6
CONTINUOUS
 10
3.1968777941
 20
1.2890565074
 11
3.6033241351
 21
1.6955028484
  0
LINE
  5
3E3
100
AcDbEntity
  8
INCISIONI
100
AcDbLine
 62
7
  6
CONTINUOUS
 10
3.8415562534
 20
1.9337349668
 11
4.0416619257
 21
2.1338406391
  0
LINE
  5
3E4
100
AcDbEntity
  8
INCISIONI
100
AcDbLine
 62
7
  6
CONTINUOUS
 10
0.5137857957
 20
-1.604046205
 11
0.7488273784
 21
-1.3690046222
  0
LINE
  5
3E5
100
AcDbEntity
  8
INCISIONI
100
AcDbLine
 62
7
  6
CONTINUOUS
 10
1.114773583
 20
-1.0030584176
 11
1.3443923296
 21
-0.773439671
  0
LINE
  5
3E6
100
AcDbEntity
  8
INCISIONI
100
AcDbLine
 62
7
  6
CONTINUOUS
 10
2.2785342097
 20
0.1607022091
 11
2.6602853648
 21
0.5424533641
  0
LINE
  5
3E7
100
AcDbEntity
  8
INCISIONI
100
AcDbLine
 62
7
  6
CONTINUOUS
 10
3.1151816883
 20
0.9973496876
 11
3.6464559316
 21
1.5286239309
  0
LINE
  5
3E8
100
AcDbEntity
  8
INCISIONI
100
AcDbLine
 62
7
  6
CONTINUOUS
 10
3.890863918
 20
1.7730319173
 11
4.0909695903
 21
1.9731375897
  0
LINE
  5
3E9
100
AcDbEntity
  8
INCISIONI
100
AcDbLine
 62
7
  6
CONTINUOUS
 10
0.5267795257
 20
-1.8010631889
 11
0.7618211085
 21
-1.5660216062
  0
LINE
  5
3EA
100
AcDbEntity
  8
INCISIONI
100
AcDbLine
 62
7
  6
CONTINUOUS
 10
1.1327325644
 20
-1.1951101503
 11
1.362351311
 21
-0.9654914037
  0
LINE
  5
3EB
100
AcDbEntity
  8
INCISIONI
100
AcDbLine
 62
7
  6
CONTINUOUS
 10
2.1825568386
 20
-0.1452858761
 11
2.5643079937
 21
0.236465279
  0
LINE
  5
3EC
100
AcDbEntity
  8
INCISIONI
100
AcDbLine
 62
7
  6
CONTINUOUS
 10
3.0334855824
 20
0.7056428678
 11
3.3940991929
 21
1.0662564782
  0
LINE
  5
3ED
100
AcDbEntity
  8
INCISIONI
100
AcDbLine
 62
7
  6
CONTINUOUS
 10
3.4844044209
 20
1.1565617062
 11
3.6895877281
 21
1.3617450134
  0
LINE
  5
3EE
100
AcDbEntity
  8
INCISIONI
100
AcDbLine
 62
7
  6
CONTINUOUS
 10
3.9401715826
 20
1.6123288679
 11
4.1402772549
 21
1.8124345402
  0
LINE
  5
3EF
100
AcDbEntity
  8
INCISIONI
100
AcDbLine
 62
7
  6
CONTINUOUS
 10
0.5520246584
 20
-1.9858287703
 11
0.8020246584
 21
-1.7358287703
  0
LINE
  5
3F0
100
AcDbEntity
  8
INCISIONI
100
AcDbLine
 62
7
  6
CONTINUOUS
 10
1.1506915457
 20
-1.387161883
 11
1.3803102923
 21
-1.1575431364
  0
LINE
  5
3F1
100
AcDbEntity
  8
INCISIONI
100
AcDbLine
 62
7
  6
CONTINUOUS
 10
2.0865794675
 20
-0.4512739612
 11
2.4683306226
 21
-0.0695228061
  0
LINE
  5
3F2
100
AcDbEntity
  8
INCISIONI
100
AcDbLine
 62
7
  6
CONTINUOUS
 10
2.9517894766
 20
0.4139360479
 11
3.3124030871
 21
0.7745496584
  0
LINE
  5
3F3
100
AcDbEntity
  8
INCISIONI
100
AcDbLine
 62
7
  6
CONTINUOUS
 10
3.5275362174
 20
0.9896827887
 11
3.7327195246
 21
1.1948660959
  0
LINE
  5
3F4
100
AcDbEntity
  8
INCISIONI
100
AcDbLine
 62
7
  6
CONTINUOUS
 10
3.9894792471
 20
1.4516258184
 11
4.1895849195
 21
1.6517314908
  0
LINE
  5
3F5
100
AcDbEntity
  8
INCISIONI
100
AcDbLine
 62
7
  6
CONTINUOUS
 10
0.7620353724
 20
-1.9858287703
 11
1.0120353724
 21
-1.7358287703
  0
LINE
  5
3F6
100
AcDbEntity
  8
INCISIONI
100
AcDbLine
 62
7
  6
CONTINUOUS
 10
1.168650527
 20
-1.5792136157
 11
1.3982692736
 21
-1.3495948691
  0
LINE
  5
3F7
100
AcDbEntity
  8
INCISIONI
100
AcDbLine
 62
7
  6
CONTINUOUS
 10
1.9906020964
 20
-0.7572620463
 11
2.3723532515
 21
-0.3755108912
  0
LINE
  5
3F8
100
AcDbEntity
  8
INCISIONI
100
AcDbLine
 62
7
  6
CONTINUOUS
 10
2.8700933708
 20
0.1222292281
 11
3.2307069812
 21
0.4828428385
  0
LINE
  5
3F9
100
AcDbEntity
  8
INCISIONI
100
AcDbLine
 62
7
  6
CONTINUOUS
 10
3.5706680139
 20
0.8228038712
 11
3.7758513211
 21
1.0279871784
  0
LINE
  5
3FA
100
AcDbEntity
  8
INCISIONI
100
AcDbLine
 62
7
  6
CONTINUOUS
 10
4.0387869117
 20
1.290922769
 11
4.238892584
 21
1.4910284413
  0
LINE
  5
3FB
100
AcDbEntity
  8
INCISIONI
100
AcDbLine
 62
7
  6
CONTINUOUS
 10
0.9720460864
 20
-1.9858287703
 11
1.416228255
 21
-1.5416466018
  0
LINE
  5
3FC
100
AcDbEntity
  8
INCISIONI
100
AcDbLine
 62
7
  6
CONTINUOUS
 10
1.8946247253
 20
-1.0632501314
 11
2.2763758804
 21
-0.6814989763
  0
LINE
  5
3FD
100
AcDbEntity
  8
INCISIONI
100
AcDbLine
 62
7
  6
CONTINUOUS
 10
2.788397265
 20
-0.1694775917
 11
3.1490108754
 21
0.1911360187
  0
LINE
  5
3FE
100
AcDbEntity
  8
INCISIONI
100
AcDbLine
 62
7
  6
CONTINUOUS
 10
3.6137998104
 20
0.6559249537
 11
3.8189831176
 21
0.8611082609
  0
LINE
  5
3FF
100
AcDbEntity
  8
INCISIONI
100
AcDbLine
 62
7
  6
CONTINUOUS
 10
4.0880945763
 20
1.1302197196
 11
4.2882002486
 21
1.3303253919
  0
LINE
  5
400
100
AcDbEntity
  8
INCISIONI
100
AcDbLine
 62
7
  6
CONTINUOUS
 10
1.1820568004
 20
-1.9858287703
 11
1.4341872363
 21
-1.7336983344
  0
LINE
  5
401
100
AcDbEntity
  8
INCISIONI
100
AcDbLine
 62
7
  6
CONTINUOUS
 10
1.7986473542
 20
-1.3692382165
 11
2.1803985093
 21
-0.9874870615
  0
LINE
  5
402
100
AcDbEntity
  8
INCISIONI
100
AcDbLine
 62
7
  6
CONTINUOUS
 10
2.7067011592
 20
-0.4611844116
 11
3.0673147696
 21
-0.1005708011
  0
LINE
  5
403
100
AcDbEntity
  8
INCISIONI
100
AcDbLine
 62
7
  6
CONTINUOUS
 10
3.6569316069
 20
0.4890460362
 11
3.8621149142
 21
0.6942293434
  0
LINE
  5
404
100
AcDbEntity
  8
INCISIONI
100
AcDbLine
 62
7
  6
CONTINUOUS
 10
4.1374022409
 20
0.9695166701
 11
4.3375079132
 21
1.1696223425
  0
LINE
  5
405
100
AcDbEntity
  8
INCISIONI
100
AcDbLine
 62
7
  6
CONTINUOUS
 10
5.5814765124
 20
2.4135909417
 11
5.6365340403
 21
2.4686484695
  0
LINE
  5
406
100
AcDbEntity
  8
INCISIONI
100
AcDbLine
 62
7
  6
CONTINUOUS
 10
1.3920675144
 20
-1.9858287703
 11
1.4521462176
 21
-1.9257500671
  0
LINE
  5
407
100
AcDbEntity
  8
INCISIONI
100
AcDbLine
 62
7
  6
CONTINUOUS
 10
1.7026699831
 20
-1.6752263016
 11
2.0844211382
 21
-1.2934751466
  0
LINE
  5
408
100
AcDbEntity
  8
INCISIONI
100
AcDbLine
 62
7
  6
CONTINUOUS
 10
2.7353815144
 20
-0.6425147703
 11
2.9856186638
 21
-0.392277621
  0
LINE
  5
409
100
AcDbEntity
  8
INCISIONI
100
AcDbLine
 62
7
  6
CONTINUOUS
 10
3.7000634034
 20
0.3221671187
 11
3.9052467107
 21
0.5273504259
  0
LINE
  5
40A
100
AcDbEntity
  8
INCISIONI
100
AcDbLine
 62
7
  6
CONTINUOUS
 10
4.1867099054
 20
0.8088136207
 11
4.3868155778
 21
1.008919293
  0
LINE
  5
40B
100
AcDbEntity
  8
INCISIONI
100
AcDbLine
 62
7
  6
CONTINUOUS
 10
5.5814765124
 20
2.2035802277
 11
5.8794308004
 21
2.5015345156
  0
LINE
  5
40C
100
AcDbEntity
  8
INCISIONI
100
AcDbLine
 62
7
  6
CONTINUOUS
 10
1.606692612
 20
-1.9812143867
 11
1.9884437671
 21
-1.5994632317
  0
LINE
  5
40D
100
AcDbEntity
  8
INCISIONI
100
AcDbLine
 62
7
  6
CONTINUOUS
 10
2.5465772361
 20
-1.0413297627
 11
2.7503292285
 21
-0.8375777703
  0
LINE
  5
40E
100
AcDbEntity
  8
INCISIONI
100
AcDbLine
 62
7
  6
CONTINUOUS
 10
2.9453922285
 20
-0.6425147703
 11
3.1953922285
 21
-0.3925147703
  0
LINE
  5
40F
100
AcDbEntity
  8
INCISIONI
100
AcDbLine
 62
7
  6
CONTINUOUS
 10
3.7431951999
 20
0.1552882012
 11
3.9483785072
 21
0.3604715084
  0
LINE
  5
410
100
AcDbEntity
  8
INCISIONI
100
AcDbLine
 62
7
  6
CONTINUOUS
 10
4.23601757
 20
0.6481105713
 11
4.4361232423
 21
0.8482162436
  0
LINE
  5
411
100
AcDbEntity
  8
INCISIONI
100
AcDbLine
 62
7
  6
CONTINUOUS
 10
5.5814765124
 20
1.9935695136
 11
6.1165962433
 21
2.5286892445
  0
LINE
  5
412
100
AcDbEntity
  8
INCISIONI
100
AcDbLine
 62
7
  6
CONTINUOUS
 10
1.8120889425
 20
-1.9858287703
 11
2.0620889425
 21
-1.7358287703
  0
LINE
  5
413
100
AcDbEntity
  8
INCISIONI
100
AcDbLine
 62
7
  6
CONTINUOUS
 10
2.4614136801
 20
-1.3365040327
 11
2.9603399425
 21
-0.8375777703
  0
LINE
  5
414
100
AcDbEntity
  8
INCISIONI
100
AcDbLine
 62
7
  6
CONTINUOUS
 10
3.1554029425
 20
-0.6425147703
 11
3.4054029425
 21
-0.3925147703
  0
LINE
  5
415
100
AcDbEntity
  8
INCISIONI
100
AcDbLine
 62
7
  6
CONTINUOUS
 10
3.7863269964
 20
-0.0115907163
 11
3.9915103037
 21
0.1935925909
  0
LINE
  5
416
100
AcDbEntity
  8
INCISIONI
100
AcDbLine
 62
7
  6
CONTINUOUS
 10
4.2853252346
 20
0.4874075218
 11
4.4854309069
 21
0.6875131942
  0
LINE
  5
417
100
AcDbEntity
  8
INCISIONI
100
AcDbLine
 62
7
  6
CONTINUOUS
 10
5.5814765124
 20
1.7835587996
 11
5.8314765124
 21
2.0335587996
  0
LINE
  5
418
100
AcDbEntity
  8
INCISIONI
100
AcDbLine
 62
7
  6
CONTINUOUS
 10
6.0666965266
 20
2.2687788139
 11
6.346050837
 21
2.5481331243
  0
LINE
  5
419
100
AcDbEntity
  8
INCISIONI
100
AcDbLine
 62
7
  6
CONTINUOUS
 10
2.0220996565
 20
-1.9858287703
 11
2.2720996565
 21
-1.7358287703
  0
LINE
  5
41A
100
AcDbEntity
  8
INCISIONI
100
AcDbLine
 62
7
  6
CONTINUOUS
 10
2.3762501241
 20
-1.6316783027
 11
2.7419628815
 21
-1.2659655453
  0
LINE
  5
41B
100
AcDbEntity
  8
INCISIONI
100
AcDbLine
 62
7
  6
CONTINUOUS
 10
2.9203506565
 20
-1.0875777703
 11
3.1703506565
 21
-0.8375777703
  0
LINE
  5
41C
100
AcDbEntity
  8
INCISIONI
100
AcDbLine
 62
7
  6
CONTINUOUS
 10
3.3654136565
 20
-0.6425147703
 11
3.6154136565
 21
-0.3925147703
  0
LINE
  5
41D
100
AcDbEntity
  8
INCISIONI
100
AcDbLine
 62
7
  6
CONTINUOUS
 10
3.829458793
 20
-0.1784696338
 11
4.0346421002
 21
0.0267136734
  0
LINE
  5
41E
100
AcDbEntity
  8
INCISIONI
100
AcDbLine
 62
7
  6
CONTINUOUS
 10
4.3346328991
 20
0.3267044724
 11
4.5347385715
 21
0.5268101447
  0
LINE
  5
41F
100
AcDbEntity
  8
INCISIONI
100
AcDbLine
 62
7
  6
CONTINUOUS
 10
5.5814765124
 20
1.5735480856
 11
5.8314765124
 21
1.8235480856
  0
LINE
  5
420
100
AcDbEntity
  8
INCISIONI
100
AcDbLine
 62
7
  6
CONTINUOUS
 10
6.2983293481
 20
2.2904009213
 11
6.5680849894
 21
2.5601565626
  0
LINE
  5
421
100
AcDbEntity
  8
INCISIONI
100
AcDbLine
 62
7
  6
CONTINUOUS
 10
2.2321103705
 20
-1.9858287703
 11
2.6567993255
 21
-1.5611398153
  0
LINE
  5
422
100
AcDbEntity
  8
INCISIONI
100
AcDbLine
 62
7
  6
CONTINUOUS
 10
3.1303613705
 20
-1.0875777703
 11
3.3803613705
 21
-0.8375777703
  0
LINE
  5
423
100
AcDbEntity
  8
INCISIONI
100
AcDbLine
 62
7
  6
CONTINUOUS
 10
3.5754243705
 20
-0.6425147703
 11
3.8254243705
 21
-0.3925147703
  0
LINE
  5
424
100
AcDbEntity
  8
INCISIONI
100
AcDbLine
 62
7
  6
CONTINUOUS
 10
3.8725905895
 20
-0.3453485513
 11
4.0777738967
 21
-0.1401652441
  0
LINE
  5
425
100
AcDbEntity
  8
INCISIONI
100
AcDbLine
 62
7
  6
CONTINUOUS
 10
4.3839405637
 20
0.1660014229
 11
4.5840462361
 21
0.3661070953
  0
LINE
  5
426
100
AcDbEntity
  8
INCISIONI
100
AcDbLine
 62
7
  6
CONTINUOUS
 10
5.5814765124
 20
1.3635373716
 11
5.8314765124
 21
1.6135373716
  0
LINE
  5
427
100
AcDbEntity
  8
INCISIONI
100
AcDbLine
 62
7
  6
CONTINUOUS
 10
6.5224384222
 20
2.3044992814
 11
6.7826701467
 21
2.5647310059
  0
LINE
  5
428
100
AcDbEntity
  8
INCISIONI
100
AcDbLine
 62
7
  6
CONTINUOUS
 10
2.4421210845
 20
-1.9858287703
 11
2.5716357695
 21
-1.8563140853
  0
LINE
  5
429
100
AcDbEntity
  8
INCISIONI
100
AcDbLine
 62
7
  6
CONTINUOUS
 10
3.3403720845
 20
-1.0875777703
 11
3.5903720845
 21
-0.8375777703
  0
LINE
  5
42A
100
AcDbEntity
  8
INCISIONI
100
AcDbLine
 62
7
  6
CONTINUOUS
 10
3.7854350845
 20
-0.6425147703
 11
4.1209056932
 21
-0.3070441616
  0
LINE
  5
42B
100
AcDbEntity
  8
INCISIONI
100
AcDbLine
 62
7
  6
CONTINUOUS
 10
4.4332482283
 20
0.0052983735
 11
4.6333539006
 21
0.2054040458
  0
LINE
  5
42C
100
AcDbEntity
  8
INCISIONI
100
AcDbLine
 62
7
  6
CONTINUOUS
 10
5.5814765124
 20
1.1535266576
 11
5.8314765124
 21
1.4035266576
  0
LINE
  5
42D
100
AcDbEntity
  8
INCISIONI
100
AcDbLine
 62
7
  6
CONTINUOUS
 10
6.2357655553
 20
1.8078157005
 11
6.4169105463
 21
1.9889606915
  0
LINE
  5
42E
100
AcDbEntity
  8
INCISIONI
100
AcDbLine
 62
7
  6
CONTINUOUS
 10
6.7406062563
 20
2.3126564015
 11
6.9900994441
 21
2.5621495893
  0
LINE
  5
42F
100
AcDbEntity
  8
INCISIONI
100
AcDbLine
 62
7
  6
CONTINUOUS
 10
3.5503827985
 20
-1.0875777703
 11
3.8003827985
 21
-0.8375777703
  0
LINE
  5
430
100
AcDbEntity
  8
INCISIONI
100
AcDbLine
 62
7
  6
CONTINUOUS
 10
3.9954457985
 20
-0.6425147703
 11
4.1640374897
 21
-0.4739230791
  0
LINE
  5
431
100
AcDbEntity
  8
INCISIONI
100
AcDbLine
 62
7
  6
CONTINUOUS
 10
4.4825558929
 20
-0.1554046759
 11
4.6826615652
 21
0.0447009964
  0
LINE
  5
432
100
AcDbEntity
  8
INCISIONI
100
AcDbLine
 62
7
  6
CONTINUOUS
 10
5.5814765124
 20
0.9435159436
 11
5.8314765124
 21
1.1935159436
  0
LINE
  5
433
100
AcDbEntity
  8
INCISIONI
100
AcDbLine
 62
7
  6
CONTINUOUS
 10
6.2357665553
 20
1.5978059865
 11
6.6615323866
 21
2.0235718178
  0
LINE
  5
434
100
AcDbEntity
  8
INCISIONI
100
AcDbLine
 62
7
  6
CONTINUOUS
 10
6.9499523726
 20
2.3119918038
 11
7.189035515
 21
2.5510749462
  0
LINE
  5
435
100
AcDbEntity
  8
INCISIONI
100
AcDbLine
 62
7
  6
CONTINUOUS
 10
3.7603935125
 20
-1.0875777703
 11
4.0103935125
 21
-0.8375777703
  0
LINE
  5
436
100
AcDbEntity
  8
INCISIONI
100
AcDbLine
 62
7
  6
CONTINUOUS
 10
4.2054565125
 20
-0.6425147703
 11
4.2071692863
 21
-0.6408019966
  0
LINE
  5
437
100
AcDbEntity
  8
INCISIONI
100
AcDbLine
 62
7
  6
CONTINUOUS
 10
4.5318635574
 20
-0.3161077254
 11
4.7319692298
 21
-0.116002053
  0
LINE
  5
438
100
AcDbEntity
  8
INCISIONI
100
AcDbLine
 62
7
  6
CONTINUOUS
 10
5.5814765124
 20
0.7335052296
 11
5.8314765124
 21
0.9835052296
  0
LINE
  5
439
100
AcDbEntity
  8
INCISIONI
100
AcDbLine
 62
7
  6
CONTINUOUS
 10
6.2357665553
 20
1.3877952725
 11
6.4857665553
 21
1.6377952725
  0
LINE
  5
43A
100
AcDbEntity
  8
INCISIONI
100
AcDbLine
 62
7
  6
CONTINUOUS
 10
6.6146134883
 20
1.7666422055
 11
6.8874571352
 21
2.0394858524
  0
LINE
  5
43B
100
AcDbEntity
  8
INCISIONI
100
AcDbLine
 62
7
  6
CONTINUOUS
 10
7.1510303126
 20
2.3030590298
 11
7.3802807458
 21
2.532309463
  0
LWPOLYLINE
  5
43C
100
AcDbEntity
  8
INCISIONI
100
AcDbPolyline
 62
253
  6
CONTINUOUS
 90
6
 70
0
 10
7.5444887286
 20
-0.6214472233
 10
7.5599817958
 20
-0.6639426759
 10
7.5747277672
 20
-0.7067007858
 10
7.5888561309
 20
-0.749674945
 10
7.6024963749
 20
-0.7928185455
 10
7.6157779872
 20
-0.8360849794
  0
LINE
  5
43D
100
AcDbEntity
  8
INCISIONI
100
AcDbLine
 62
253
  6
CONTINUOUS
 10
3.7403383868
 20
2.2636232297
 11
4.967469038
 21
-1.7358287703
  0
LINE
  5
43E
100
AcDbEntity
  8
INCISIONI
100
AcDbLine
 62
253
  6
CONTINUOUS
 10
3.9251352472
 20
2.5136232297
 11
5.3056782472
 21
-1.9858287703
  0
LINE
  5
43F
100
AcDbEntity
  8
INCISIONI
100
AcDbLine
 62
253
  6
CONTINUOUS
 10
7.6157779872
 20
-0.8360849794
 11
7.7335778153
 21
-1.2289316088
  0
LWPOLYLINE
  5
440
100
AcDbEntity
  8
INCISIONI
100
AcDbPolyline
 62
253
  6
CONTINUOUS
 90
5
 70
0
 10
7.7335778153
 20
-1.2289316088
 10
7.7792790461
 20
-1.3820094385
 10
7.8385346065
 20
-1.5830856481
 10
7.8970951268
 20
-1.7843885718
 10
7.955183046
 20
-1.9858282712
  0
LWPOLYLINE
  5
441
100
AcDbEntity
  8
INCISIONI
100
AcDbPolyline
 62
253
  6
CONTINUOUS
 90
40
 70
0
 10
8.1431548066
 20
-1.7358282712
 10
8.0718021268
 20
-1.4904961231
 10
7.9997755779
 20
-1.2453600225
 10
7.9511492589
 20
-1.0821131501
 10
7.9018728231
 20
-0.9190631471
 10
7.8518066251
 20
-0.7562597631
 10
7.8166579098
 20
-0.6444462479
 10
7.8046115924
 20
-0.6072745395
 10
7.7920510992
 20
-0.5702825507
 10
7.7786272059
 20
-0.5336037157
 10
7.766362135
 20
-0.502885961
 10
7.7532219563
 20
-0.4725261162
 10
7.7392008022
 20
-0.4425619653
 10
7.7242928053
 20
-0.4130312927
 10
7.7084846541
 20
-0.3839776661
 10
7.691733261
 20
-0.3554677877
 10
7.6739880944
 20
-0.3275741436
 10
7.6551986227
 20
-0.3003692195
 10
7.6352236075
 20
-0.2737891056
 10
7.614175366
 20
-0.2480332686
 10
7.5920867513
 20
-0.2231569632
 10
7.5689906159
 20
-0.1992154438
 10
7.5449198128
 20
-0.1762639652
 10
7.5199071947
 20
-0.1543577817
 10
7.4939856144
 20
-0.1335521482
 10
7.4668470199
 20
-0.1136574861
 10
7.4388640194
 20
-0.0949809732
 10
7.4100906058
 20
-0.0775555483
 10
7.3805807725
 20
-0.0614141504
 10
7.3503885126
 20
-0.0465897182
 10
7.3195678192
 20
-0.0331151906
 10
7.2881726857
 20
-0.0210235065
 10
7.2558452753
 20
-0.0102133593
 10
7.2230540036
 20
-0.0008530715
 10
7.1898689473
 20
0.0070599788
 10
7.1563601828
 20
0.0135284133
 10
7.1225977866
 20
0.018554854
 10
7.0886518352
 20
0.0221419227
 10
7.0545924051
 20
0.0242922413
 10
7.0204895728
 20
0.0250084315
  0
LINE
  5
442
100
AcDbEntity
  8
INCISIONI
100
AcDbLine
 62
253
  6
CONTINUOUS
 10
4.3157872472
 20
-1.9858287703
 11
4.0724822472
 21
-1.0875777703
  0
LINE
  5
443
100
AcDbEntity
  8
INCISIONI
100
AcDbLine
 62
253
  6
CONTINUOUS
 10
4.507079616
 20
-1.7358287703
 11
4.263774616
 21
-0.8375777703
  0
LINE
  5
444
100
AcDbEntity
  8
INCISIONI
100
AcDbLine
 62
253
  6
CONTINUOUS
 10
8.3959622735
 20
-1.2089562603
 11
8.5338670116
 21
-1.7358282712
  0
LINE
  5
445
100
AcDbEntity
  8
INCISIONI
100
AcDbLine
 62
253
  6
CONTINUOUS
 10
3.8847812472
 20
-0.3925147703
 11
3.4532012472
 21
1.2772882297
  0
LINE
  5
446
100
AcDbEntity
  8
INCISIONI
100
AcDbLine
 62
253
  6
CONTINUOUS
 10
3.5211022238
 20
2.0136232297
 11
4.2076119725
 21
-0.6425147703
  0
LWPOLYLINE
  5
447
100
AcDbEntity
  8
INCISIONI
100
AcDbPolyline
 62
253
  6
CONTINUOUS
 90
58
 70
0
 10
7.7520965281
 20
1.2111226472
 10
7.752238021
 20
1.1902620546
 10
7.752004371
 20
1.1693412458
 10
7.7513723028
 20
1.1483825248
 10
7.750318541
 20
1.1274081957
 10
7.7488198104
 20
1.1064405626
 10
7.7468528358
 20
1.0855019295
 10
7.7443943417
 20
1.0646146004
 10
7.741421053
 20
1.0438008794
 10
7.7379096944
 20
1.0230830705
 10
7.7338369905
 20
1.0024834778
 10
7.7291796662
 20
0.9820244054
 10
7.723914446
 20
0.9617281572
 10
7.7180180548
 20
0.9416170373
 10
7.7114672172
 20
0.9217133499
 10
7.704238658
 20
0.9020393988
 10
7.6963091019
 20
0.8826174883
 10
7.6884193802
 20
0.8650760102
 10
7.679935419
 20
0.8477883333
 10
7.6708701481
 20
0.8307782711
 10
7.6612364975
 20
0.8140696371
 10
7.6510473972
 20
0.7976862451
 10
7.6403157771
 20
0.7816519084
 10
7.6290545671
 20
0.7659904406
 10
7.6172766973
 20
0.7507256553
 10
7.6049950976
 20
0.7358813661
 10
7.5922226979
 20
0.7214813864
 10
7.5789724282
 20
0.7075495299
 10
7.5652572184
 20
0.6941096101
 10
7.5510899985
 20
0.6811854405
 10
7.5364836984
 20
0.6688008347
 10
7.5207845486
 20
0.656468573
 10
7.5046433469
 20
0.6447381041
 10
7.4880823396
 20
0.6335974112
 10
7.471123773
 20
0.6230344774
 10
7.4537898935
 20
0.613037286
 10
7.4361029472
 20
0.6035938201
 10
7.4180851807
 20
0.5946920629
 10
7.3997588401
 20
0.5863199976
 10
7.3811461718
 20
0.5784656073
 10
7.3622694221
 20
0.5711168753
 10
7.3431508373
 20
0.5642617846
 10
7.3238126638
 20
0.5578883185
 10
7.3042771478
 20
0.5519844602
 10
7.2845665356
 20
0.5465381928
 10
7.2647030736
 20
0.5415374995
 10
7.2447090081
 20
0.5369703634
 10
7.2246065853
 20
0.5328247679
 10
7.2044180517
 20
0.5290886959
 10
7.1841656535
 20
0.5257501308
 10
7.163871637
 20
0.5227970556
 10
7.1435582486
 20
0.5202174536
 10
7.1232477345
 20
0.517999308
 10
7.1029623411
 20
0.5161306018
 10
7.0827243147
 20
0.5145993183
 10
7.0625559016
 20
0.5133934407
 10
7.0424793481
 20
0.5125009521
 10
7.0225169005
 20
0.5119098358
  0
LINE
  5
448
100
AcDbEntity
  8
INCISIONI
100
AcDbLine
 62
253
  6
CONTINUOUS
 10
7.7461444956
 20
-0.0549791258
 11
7.7461445069
 21
0.1410632258
  0
LINE
  5
449
100
AcDbEntity
  8
INCISIONI
100
AcDbLine
 62
253
  6
CONTINUOUS
 10
7.9961445069
 20
0.1144756947
 11
7.9961445069
 21
0.1410635292
  0
LINE
  5
44A
100
AcDbEntity
  8
INCISIONI
100
AcDbLine
 62
253
  6
CONTINUOUS
 10
7.7461445069
 20
0.1410632258
 11
7.753080506
 21
0.3133097715
  0
LINE
  5
44B
100
AcDbEntity
  8
INCISIONI
100
AcDbLine
 62
7
  6
CONTINUOUS
 10
3.9704042265
 20
-1.0875777703
 11
4.2204042265
 21
-0.8375777703
  0
LINE
  5
44C
100
AcDbEntity
  8
INCISIONI
100
AcDbLine
 62
7
  6
CONTINUOUS
 10
4.581171222
 20
-0.4768107748
 11
4.7812768944
 21
-0.2767051025
  0
LINE
  5
44D
100
AcDbEntity
  8
INCISIONI
100
AcDbLine
 62
7
  6
CONTINUOUS
 10
5.5814765124
 20
0.5234945156
 11
5.8314765124
 21
0.7734945156
  0
LINE
  5
44E
100
AcDbEntity
  8
INCISIONI
100
AcDbLine
 62
7
  6
CONTINUOUS
 10
6.2357665553
 20
1.1777845585
 11
6.4857665553
 21
1.4277845585
  0
LINE
  5
44F
100
AcDbEntity
  8
INCISIONI
100
AcDbLine
 62
7
  6
CONTINUOUS
 10
6.8449007507
 20
1.7869187539
 11
7.0933974549
 21
2.0354154581
  0
LINE
  5
450
100
AcDbEntity
  8
INCISIONI
100
AcDbLine
 62
7
  6
CONTINUOUS
 10
7.342581059
 20
2.2845990622
 11
7.5620275824
 21
2.5040455856
  0
LINE
  5
451
100
AcDbEntity
  8
INCISIONI
100
AcDbLine
 62
7
  6
CONTINUOUS
 10
4.0954864309
 20
-1.1725062799
 11
4.2992914231
 21
-0.9687012878
  0
LINE
  5
452
100
AcDbEntity
  8
INCISIONI
100
AcDbLine
 62
7
  6
CONTINUOUS
 10
4.6304788866
 20
-0.6375138243
 11
4.8305845589
 21
-0.4374081519
  0
LINE
  5
453
100
AcDbEntity
  8
INCISIONI
100
AcDbLine
 62
7
  6
CONTINUOUS
 10
5.5814765124
 20
0.3134838015
 11
5.8314765124
 21
0.5634838015
  0
LINE
  5
454
100
AcDbEntity
  8
INCISIONI
100
AcDbLine
 62
7
  6
CONTINUOUS
 10
6.2357665553
 20
0.9677738444
 11
6.4857665553
 21
1.2177738444
  0
LINE
  5
455
100
AcDbEntity
  8
INCISIONI
100
AcDbLine
 62
7
  6
CONTINUOUS
 10
7.0544527165
 20
1.7864600057
 11
7.2842989904
 21
2.0163062795
  0
LINE
  5
456
100
AcDbEntity
  8
INCISIONI
100
AcDbLine
 62
7
  6
CONTINUOUS
 10
7.5232291668
 20
2.2552364559
 11
7.7333619686
 21
2.4653692578
  0
LINE
  5
457
100
AcDbEntity
  8
INCISIONI
100
AcDbLine
 62
7
  6
CONTINUOUS
 10
4.1402469654
 20
-1.3377564594
 11
4.3440519576
 21
-1.1339514672
  0
LINE
  5
458
100
AcDbEntity
  8
INCISIONI
100
AcDbLine
 62
7
  6
CONTINUOUS
 10
4.6797865512
 20
-0.7982168737
 11
4.8798922235
 21
-0.5981112014
  0
LINE
  5
459
100
AcDbEntity
  8
INCISIONI
100
AcDbLine
 62
7
  6
CONTINUOUS
 10
5.5814765124
 20
0.1034730875
 11
5.8314765124
 21
0.3534730875
  0
LINE
  5
45A
100
AcDbEntity
  8
INCISIONI
100
AcDbLine
 62
7
  6
CONTINUOUS
 10
6.2357665553
 20
0.7577631304
 11
6.4857665553
 21
1.0077631304
  0
LINE
  5
45B
100
AcDbEntity
  8
INCISIONI
100
AcDbLine
 62
7
  6
CONTINUOUS
 10
7.2475196458
 20
1.7695162209
 11
7.4514988293
 21
1.9734954044
  0
LINE
  5
45C
100
AcDbEntity
  8
INCISIONI
100
AcDbLine
 62
7
  6
CONTINUOUS
 10
7.6950580399
 20
2.217054615
 11
7.8934990092
 21
2.4154955843
  0
LINE
  5
45D
100
AcDbEntity
  8
INCISIONI
100
AcDbLine
 62
7
  6
CONTINUOUS
 10
4.1850075
 20
-1.5030066389
 11
4.3888124922
 21
-1.2992016467
  0
LINE
  5
45E
100
AcDbEntity
  8
INCISIONI
100
AcDbLine
 62
7
  6
CONTINUOUS
 10
4.7290942157
 20
-0.9589199231
 11
4.9291998881
 21
-0.7588142508
  0
LINE
  5
45F
100
AcDbEntity
  8
INCISIONI
100
AcDbLine
 62
7
  6
CONTINUOUS
 10
5.5814765124
 20
-0.1065376265
 11
5.8314765124
 21
0.1434623735
  0
LINE
  5
460
100
AcDbEntity
  8
INCISIONI
100
AcDbLine
 62
7
  6
CONTINUOUS
 10
6.2357665553
 20
0.5477524164
 11
6.4857665553
 21
0.7977524164
  0
LINE
  5
461
100
AcDbEntity
  8
INCISIONI
100
AcDbLine
 62
7
  6
CONTINUOUS
 10
7.410179354
 20
1.7221652151
 11
7.5962086974
 21
1.9081945585
  0
LINE
  5
462
100
AcDbEntity
  8
INCISIONI
100
AcDbLine
 62
7
  6
CONTINUOUS
 10
7.8510753507
 20
2.1630612119
 11
8.0355117287
 21
2.3474975898
  0
LINE
  5
463
100
AcDbEntity
  8
INCISIONI
100
AcDbLine
 62
7
  6
CONTINUOUS
 10
4.2297680345
 20
-1.6682568183
 11
4.4335730267
 21
-1.4644518262
  0
LINE
  5
464
100
AcDbEntity
  8
INCISIONI
100
AcDbLine
 62
7
  6
CONTINUOUS
 10
4.7784018803
 20
-1.1196229726
 11
4.9785075526
 21
-0.9195173002
  0
LINE
  5
465
100
AcDbEntity
  8
INCISIONI
100
AcDbLine
 62
7
  6
CONTINUOUS
 10
5.5814765124
 20
-0.3165483405
 11
5.8314765124
 21
-0.0665483405
  0
LINE
  5
466
100
AcDbEntity
  8
INCISIONI
100
AcDbLine
 62
7
  6
CONTINUOUS
 10
6.2357664285
 20
0.3377415756
 11
6.4857665553
 21
0.5877417024
  0
LINE
  5
467
100
AcDbEntity
  8
INCISIONI
100
AcDbLine
 62
7
  6
CONTINUOUS
 10
7.5415778711
 20
1.6435530183
 11
7.7185622278
 21
1.8205373749
  0
LINE
  5
468
100
AcDbEntity
  8
INCISIONI
100
AcDbLine
 62
7
  6
CONTINUOUS
 10
7.9825418678
 20
2.084517015
 11
8.1610131033
 21
2.2629882505
  0
LINE
  5
469
100
AcDbEntity
  8
INCISIONI
100
AcDbLine
 62
7
  6
CONTINUOUS
 10
4.2745285691
 20
-1.8335069978
 11
4.4783335612
 21
-1.6297020057
  0
LINE
  5
46A
100
AcDbEntity
  8
INCISIONI
100
AcDbLine
 62
7
  6
CONTINUOUS
 10
4.8277095449
 20
-1.280326022
 11
5.0278152172
 21
-1.0802203497
  0
LINE
  5
46B
100
AcDbEntity
  8
INCISIONI
100
AcDbLine
 62
7
  6
CONTINUOUS
 10
5.5814765124
 20
-0.5265590545
 11
5.8314765124
 21
-0.2765590545
  0
LINE
  5
46C
100
AcDbEntity
  8
INCISIONI
100
AcDbLine
 62
7
  6
CONTINUOUS
 10
6.369945487
 20
0.2619099201
 11
6.6199454027
 21
0.5119098358
  0
LINE
  5
46D
100
AcDbEntity
  8
INCISIONI
100
AcDbLine
 62
7
  6
CONTINUOUS
 10
7.6439720039
 20
1.535936437
 11
7.8225553165
 21
1.7145197496
  0
LINE
  5
46E
100
AcDbEntity
  8
INCISIONI
100
AcDbLine
 62
7
  6
CONTINUOUS
 10
8.0955687401
 20
1.9875331732
 11
8.2727604741
 21
2.1647249072
  0
LINE
  5
46F
100
AcDbEntity
  8
INCISIONI
100
AcDbLine
 62
7
  6
CONTINUOUS
 10
4.3322175106
 20
-1.9858287703
 11
4.5822175106
 21
-1.7358287703
  0
LINE
  5
470
100
AcDbEntity
  8
INCISIONI
100
AcDbLine
 62
7
  6
CONTINUOUS
 10
4.8770172095
 20
-1.4410290715
 11
5.0771228818
 21
-1.2409233991
  0
LINE
  5
471
100
AcDbEntity
  8
INCISIONI
100
AcDbLine
 62
7
  6
CONTINUOUS
 10
5.5814765124
 20
-0.7365697685
 11
5.8314765124
 21
-0.4865697685
  0
LINE
  5
472
100
AcDbEntity
  8
INCISIONI
100
AcDbLine
 62
7
  6
CONTINUOUS
 10
6.266906079
 20
-0.051140202
 11
6.3430513793
 21
0.0250050984
  0
LINE
  5
473
100
AcDbEntity
  8
INCISIONI
100
AcDbLine
 62
7
  6
CONTINUOUS
 10
6.5799561167
 20
0.2619098358
 11
6.8299561167
 21
0.5119098358
  0
LINE
  5
474
100
AcDbEntity
  8
INCISIONI
100
AcDbLine
 62
7
  6
CONTINUOUS
 10
7.7163084343
 20
1.3982621534
 11
7.9058934592
 21
1.5878471783
  0
LINE
  5
475
100
AcDbEntity
  8
INCISIONI
100
AcDbLine
 62
7
  6
CONTINUOUS
 10
8.1933495855
 20
1.8753033046
 11
8.3707217499
 21
2.052675469
  0
LINE
  5
476
100
AcDbEntity
  8
INCISIONI
100
AcDbLine
 62
7
  6
CONTINUOUS
 10
4.5422282246
 20
-1.9858287703
 11
4.7922282246
 21
-1.7358287703
  0
LINE
  5
477
100
AcDbEntity
  8
INCISIONI
100
AcDbLine
 62
7
  6
CONTINUOUS
 10
4.926324874
 20
-1.6017321209
 11
5.1264305464
 21
-1.4016264486
  0
LINE
  5
478
100
AcDbEntity
  8
INCISIONI
100
AcDbLine
 62
7
  6
CONTINUOUS
 10
5.5814765124
 20
-0.9465804825
 11
5.8314765124
 21
-0.6965804825
  0
LINE
  5
479
100
AcDbEntity
  8
INCISIONI
100
AcDbLine
 62
7
  6
CONTINUOUS
 10
6.2669094123
 20
-0.2611475827
 11
6.5530654264
 21
0.0250084315
  0
LINE
  5
47A
100
AcDbEntity
  8
INCISIONI
100
AcDbLine
 62
7
  6
CONTINUOUS
 10
6.7899668307
 20
0.2619098358
 11
7.0407827725
 21
0.5127257775
  0
LINE
  5
47B
100
AcDbEntity
  8
INCISIONI
100
AcDbLine
 62
7
  6
CONTINUOUS
 10
7.7513218101
 20
1.2232648151
 11
7.9674930411
 21
1.4394360462
  0
LINE
  5
47C
100
AcDbEntity
  8
INCISIONI
100
AcDbLine
 62
7
  6
CONTINUOUS
 10
8.2726477466
 20
1.7445907517
 11
8.456165855
 21
1.9281088601
  0
LINE
  5
47D
100
AcDbEntity
  8
INCISIONI
100
AcDbLine
 62
7
  6
CONTINUOUS
 10
4.7522389386
 20
-1.9858287703
 11
5.1757382109
 21
-1.562329498
  0
LINE
  5
47E
100
AcDbEntity
  8
INCISIONI
100
AcDbLine
 62
7
  6
CONTINUOUS
 10
5.5814765124
 20
-1.1565911965
 11
5.8314765124
 21
-0.9065911965
  0
LINE
  5
47F
100
AcDbEntity
  8
INCISIONI
100
AcDbLine
 62
7
  6
CONTINUOUS
 10
6.2669094123
 20
-0.4711582967
 11
6.7630761404
 21
0.0250084315
  0
LINE
  5
480
100
AcDbEntity
  8
INCISIONI
100
AcDbLine
 62
7
  6
CONTINUOUS
 10
6.9999775447
 20
0.2619098358
 11
7.2853037377
 21
0.5472360288
  0
LINE
  5
481
100
AcDbEntity
  8
INCISIONI
100
AcDbLine
 62
7
  6
CONTINUOUS
 10
7.7311160373
 20
0.9930483284
 11
7.9991968448
 21
1.2611291359
  0
LINE
  5
482
100
AcDbEntity
  8
INCISIONI
100
AcDbLine
 62
7
  6
CONTINUOUS
 10
8.3327023846
 20
1.5946346757
 11
8.5277926599
 21
1.789724951
  0
LINE
  5
483
100
AcDbEntity
  8
INCISIONI
100
AcDbLine
 62
7
  6
CONTINUOUS
 10
4.9622496527
 20
-1.9858287703
 11
5.2250458755
 21
-1.7230325474
  0
LINE
  5
484
100
AcDbEntity
  8
INCISIONI
100
AcDbLine
 62
7
  6
CONTINUOUS
 10
5.5814765124
 20
-1.3666019106
 11
5.8314765124
 21
-1.1166019106
  0
LINE
  5
485
100
AcDbEntity
  8
INCISIONI
100
AcDbLine
 62
7
  6
CONTINUOUS
 10
6.2669094123
 20
-0.6811690107
 11
6.5169094123
 21
-0.4311690107
  0
LINE
  5
486
100
AcDbEntity
  8
INCISIONI
100
AcDbLine
 62
7
  6
CONTINUOUS
 10
6.7230868544
 20
-0.2249915685
 11
6.9730868544
 21
0.0250084315
  0
LINE
  5
487
100
AcDbEntity
  8
INCISIONI
100
AcDbLine
 62
7
  6
CONTINUOUS
 10
7.2298495049
 20
0.2817710819
 11
7.9928576967
 21
1.0447792738
  0
LINE
  5
488
100
AcDbEntity
  8
INCISIONI
100
AcDbLine
 62
7
  6
CONTINUOUS
 10
8.3704638521
 20
1.4223854292
 11
8.5815853119
 21
1.633506889
  0
LINE
  5
489
100
AcDbEntity
  8
INCISIONI
100
AcDbLine
 62
7
  6
CONTINUOUS
 10
5.1722603667
 20
-1.9858287703
 11
5.2743535401
 21
-1.8837355969
  0
LINE
  5
48A
100
AcDbEntity
  8
INCISIONI
100
AcDbLine
 62
7
  6
CONTINUOUS
 10
5.5814765124
 20
-1.5766126246
 11
5.8314765124
 21
-1.3266126246
  0
LINE
  5
48B
100
AcDbEntity
  8
INCISIONI
100
AcDbLine
 62
7
  6
CONTINUOUS
 10
6.2669094123
 20
-0.8911797247
 11
6.5169094123
 21
-0.6411797247
  0
LINE
  5
48C
100
AcDbEntity
  8
INCISIONI
100
AcDbLine
 62
7
  6
CONTINUOUS
 10
6.9330975684
 20
-0.2249915685
 11
7.1682627378
 21
0.0101736009
  0
LINE
  5
48D
100
AcDbEntity
  8
INCISIONI
100
AcDbLine
 62
7
  6
CONTINUOUS
 10
7.5309438395
 20
0.3728547025
 11
7.9090521857
 21
0.7509630487
  0
LINE
  5
48E
100
AcDbEntity
  8
INCISIONI
100
AcDbLine
 62
7
  6
CONTINUOUS
 10
8.3820356948
 20
1.2239465578
 11
8.61806826
 21
1.459979123
  0
LINE
  5
48F
100
AcDbEntity
  8
INCISIONI
100
AcDbLine
 62
7
  6
CONTINUOUS
 10
5.5814765124
 20
-1.7866233386
 11
5.8314765124
 21
-1.5366233386
  0
LINE
  5
490
100
AcDbEntity
  8
INCISIONI
100
AcDbLine
 62
7
  6
CONTINUOUS
 10
6.2669094123
 20
-1.1011904387
 11
6.5169094123
 21
-0.8511904387
  0
LINE
  5
491
100
AcDbEntity
  8
INCISIONI
100
AcDbLine
 62
7
  6
CONTINUOUS
 10
7.1317097821
 20
-0.2363900688
 11
7.32966572
 21
-0.038434131
  0
LINE
  5
492
100
AcDbEntity
  8
INCISIONI
100
AcDbLine
 62
7
  6
CONTINUOUS
 10
8.3533231953
 20
0.9852233443
 11
8.6312374167
 21
1.2631375658
  0
LINE
  5
493
100
AcDbEntity
  8
INCISIONI
100
AcDbLine
 62
7
  6
CONTINUOUS
 10
5.5922822938
 20
-1.9858282712
 11
5.8422822938
 21
-1.7358282712
  0
LINE
  5
494
100
AcDbEntity
  8
INCISIONI
100
AcDbLine
 62
7
  6
CONTINUOUS
 10
6.2669094123
 20
-1.3112011527
 11
6.5169094123
 21
-1.0612011527
  0
LINE
  5
495
100
AcDbEntity
  8
INCISIONI
100
AcDbLine
 62
7
  6
CONTINUOUS
 10
7.2838455267
 20
-0.2942650383
 11
7.4647192606
 21
-0.1133913044
  0
LINE
  5
496
100
AcDbEntity
  8
INCISIONI
100
AcDbLine
 62
7
  6
CONTINUOUS
 10
7.7472761277
 20
0.1691655628
 11
8.0390496335
 21
0.4609390686
  0
LINE
  5
497
100
AcDbEntity
  8
INCISIONI
100
AcDbLine
 62
7
  6
CONTINUOUS
 10
8.1382973111
 20
0.5601867461
 11
8.6167836293
 21
1.0386730643
  0
LINE
  5
498
100
AcDbEntity
  8
INCISIONI
100
AcDbLine
 62
7
  6
CONTINUOUS
 10
5.8022930078
 20
-1.9858282712
 11
6.0522930078
 21
-1.7358282712
  0
LINE
  5
499
100
AcDbEntity
  8
INCISIONI
100
AcDbLine
 62
7
  6
CONTINUOUS
 10
6.2669094123
 20
-1.5212118667
 11
6.5169094123
 21
-1.2712118667
  0
LINE
  5
49A
100
AcDbEntity
  8
INCISIONI
100
AcDbLine
 62
7
  6
CONTINUOUS
 10
7.4002878516
 20
-0.3878334274
 11
7.5782263312
 21
-0.2098949478
  0
LINE
  5
49B
100
AcDbEntity
  8
INCISIONI
100
AcDbLine
 62
7
  6
CONTINUOUS
 10
7.7461444965
 20
-0.0419767825
 11
8.5412439953
 21
0.7531227163
  0
LINE
  5
49C
100
AcDbEntity
  8
INCISIONI
100
AcDbLine
 62
7
  6
CONTINUOUS
 10
6.0123037218
 20
-1.9858282712
 11
6.2623037218
 21
-1.7358282712
  0
LINE
  5
49D
100
AcDbEntity
  8
INCISIONI
100
AcDbLine
 62
7
  6
CONTINUOUS
 10
6.2669094123
 20
-1.7312225807
 11
6.5169094123
 21
-1.4812225807
  0
LINE
  5
49E
100
AcDbEntity
  8
INCISIONI
100
AcDbLine
 62
7
  6
CONTINUOUS
 10
7.4900330575
 20
-0.5080989355
 11
7.6721691721
 21
-0.3259628209
  0
LINE
  5
49F
100
AcDbEntity
  8
INCISIONI
100
AcDbLine
 62
7
  6
CONTINUOUS
 10
7.8869905086
 20
-0.1111414844
 11
8.0731294035
 21
0.0749974105
  0
LINE
  5
4A0
100
AcDbEntity
  8
INCISIONI
100
AcDbLine
 62
7
  6
CONTINUOUS
 10
6.2223144358
 20
-1.9858282712
 11
6.5169094123
 21
-1.6912332948
  0
LINE
  5
4A1
100
AcDbEntity
  8
INCISIONI
100
AcDbLine
 62
7
  6
CONTINUOUS
 10
7.5552472335
 20
-0.6528954735
 11
7.7462924425
 21
-0.4618502645
  0
LINE
  5
4A2
100
AcDbEntity
  8
INCISIONI
100
AcDbLine
 62
7
  6
CONTINUOUS
 10
8.015519149
 20
-0.192623558
 11
8.1908018469
 21
-0.0173408601
  0
LINE
  5
4A3
100
AcDbEntity
  8
INCISIONI
100
AcDbLine
 62
7
  6
CONTINUOUS
 10
6.4323251498
 20
-1.9858282712
 11
6.5169094123
 21
-1.9012440088
  0
LINE
  5
4A4
100
AcDbEntity
  8
INCISIONI
100
AcDbLine
 62
7
  6
CONTINUOUS
 10
7.6076596918
 20
-0.8104937293
 11
7.8056858453
 21
-0.6124675758
  0
LINE
  5
4A5
100
AcDbEntity
  8
INCISIONI
100
AcDbLine
 62
7
  6
CONTINUOUS
 10
8.107151029
 20
-0.311002392
 11
8.2862587395
 21
-0.1318946815
  0
LINE
  5
4A6
100
AcDbEntity
  8
INCISIONI
100
AcDbLine
 62
7
  6
CONTINUOUS
 10
7.6564339055
 20
-0.9717302296
 11
7.8564746305
 21
-0.7716895045
  0
LINE
  5
4A7
100
AcDbEntity
  8
INCISIONI
100
AcDbLine
 62
7
  6
CONTINUOUS
 10
8.1764042534
 20
-0.4517598816
 11
8.3654965622
 21
-0.2626675728
  0
LINE
  5
4A8
100
AcDbEntity
  8
INCISIONI
100
AcDbLine
 62
7
  6
CONTINUOUS
 10
7.7048256094
 20
-1.1333492396
 11
7.9052527928
 21
-0.9329220562
  0
LINE
  5
4A9
100
AcDbEntity
  8
INCISIONI
100
AcDbLine
 62
7
  6
CONTINUOUS
 10
8.2314927534
 20
-0.6066820956
 11
8.4294222052
 21
-0.4087526439
  0
LINE
  5
4AA
100
AcDbEntity
  8
INCISIONI
100
AcDbLine
 62
7
  6
CONTINUOUS
 10
7.7532173134
 20
-1.2949682497
 11
7.9540309551
 21
-1.0941546079
  0
LINE
  5
4AB
100
AcDbEntity
  8
INCISIONI
100
AcDbLine
 62
7
  6
CONTINUOUS
 10
8.2786863985
 20
-0.7694991646
 11
8.4816916223
 21
-0.5664939408
  0
LINE
  5
4AC
100
AcDbEntity
  8
INCISIONI
100
AcDbLine
 62
7
  6
CONTINUOUS
 10
7.8011412612
 20
-1.4570550158
 11
8.0027299633
 21
-1.2554663138
  0
LINE
  5
4AD
100
AcDbEntity
  8
INCISIONI
100
AcDbLine
 62
7
  6
CONTINUOUS
 10
8.3234465733
 20
-0.9347497038
 11
8.5274494005
 21
-0.7307468766
  0
LINE
  5
4AE
100
AcDbEntity
  8
INCISIONI
100
AcDbLine
 62
7
  6
CONTINUOUS
 10
7.8485192821
 20
-1.619687709
 11
8.0502353574
 21
-1.4179716337
  0
LINE
  5
4AF
100
AcDbEntity
  8
INCISIONI
100
AcDbLine
 62
7
  6
CONTINUOUS
 10
8.3671719857
 20
-1.1010350054
 11
8.5717012635
 21
-0.8965057276
  0
LINE
  5
4B0
100
AcDbEntity
  8
INCISIONI
100
AcDbLine
 62
7
  6
CONTINUOUS
 10
7.8958973029
 20
-1.7823204022
 11
8.0977407514
 21
-1.5804769537
  0
LINE
  5
4B1
100
AcDbEntity
  8
INCISIONI
100
AcDbLine
 62
7
  6
CONTINUOUS
 10
8.4108504047
 20
-1.2673673004
 11
8.6158329556
 21
-1.0623847495
  0
LINE
  5
4B2
100
AcDbEntity
  8
INCISIONI
100
AcDbLine
 62
7
  6
CONTINUOUS
 10
7.9432753238
 20
-1.9449530953
 11
8.1524001479
 21
-1.7358282712
  0
LINE
  5
4B3
100
AcDbEntity
  8
INCISIONI
100
AcDbLine
 62
7
  6
CONTINUOUS
 10
8.4545288237
 20
-1.4336995954
 11
8.6599646476
 21
-1.2282637715
  0
LINE
  5
4B4
100
AcDbEntity
  8
INCISIONI
100
AcDbLine
 62
7
  6
CONTINUOUS
 10
8.1124108619
 20
-1.9858282712
 11
8.3624108619
 21
-1.7358282712
  0
LINE
  5
4B5
100
AcDbEntity
  8
INCISIONI
100
AcDbLine
 62
7
  6
CONTINUOUS
 10
8.4982072426
 20
-1.6000318905
 11
8.7034890464
 21
-1.3947500867
  0
LINE
  5
4B6
100
AcDbEntity
  8
INCISIONI
100
AcDbLine
 62
7
  6
CONTINUOUS
 10
8.3224215759
 20
-1.9858282712
 11
8.7468912103
 21
-1.5613586368
  0
LINE
  5
4B7
100
AcDbEntity
  8
INCISIONI
100
AcDbLine
 62
7
  6
CONTINUOUS
 10
8.5324322899
 20
-1.9858282712
 11
8.7902933743
 21
-1.7279671869
  0
LINE
  5
4B8
100
AcDbEntity
  8
INCISIONI
100
AcDbLine
 62
7
  6
CONTINUOUS
 10
8.7424430039
 20
-1.9858282712
 11
8.8342499164
 21
-1.8940213587
  0
LINE
  5
4B9
100
AcDbEntity
  8
INCISIONI
100
AcDbLine
 62
253
  6
CONTINUOUS
 10
7.753080506
 20
0.3133097715
 11
7.922491107
 21
0.3789113184
  0
LWPOLYLINE
  5
4BA
100
AcDbEntity
  8
INCISIONI
100
AcDbPolyline
 62
253
  6
CONTINUOUS
 90
41
 70
0
 10
8.4990942164
 20
-0.6265043673
 10
8.4911736035
 20
-0.5983151608
 10
8.4830638841
 20
-0.570183677
 10
8.4747177246
 20
-0.5421184447
 10
8.4660877916
 20
-0.514127993
 10
8.4571267515
 20
-0.486220851
 10
8.4477872708
 20
-0.4584055476
 10
8.438022016
 20
-0.4306906119
 10
8.4277836535
 20
-0.403084573
 10
8.41702485
 20
-0.3755959598
 10
8.4056982717
 20
-0.3482333013
 10
8.3937565852
 20
-0.3210051266
 10
8.3811524571
 20
-0.2939199647
 10
8.3678385537
 20
-0.2669863446
 10
8.3584824938
 20
-0.2490004501
 10
8.3487855148
 20
-0.2311107429
 10
8.3387478157
 20
-0.2133412898
 10
8.3283695956
 20
-0.1957161576
 10
8.3176510534
 20
-0.1782594131
 10
8.3065923883
 20
-0.160995123
 10
8.2951937992
 20
-0.1439473543
 10
8.2834554853
 20
-0.1271401735
 10
8.2713776454
 20
-0.1105976477
 10
8.2589604787
 20
-0.0943438435
 10
8.2462041843
 20
-0.0784028277
 10
8.2331089611
 20
-0.0627986671
 10
8.2196750081
 20
-0.0475554286
 10
8.2059025245
 20
-0.0326971789
 10
8.1917917092
 20
-0.0182479848
 10
8.1773427613
 20
-0.0042319131
 10
8.1625558799
 20
0.0093269694
 10
8.1474312639
 20
0.0224045959
 10
8.1319691124
 20
0.0349768997
 10
8.1161696244
 20
0.0470198139
 10
8.1000329991
 20
0.0585092717
 10
8.0835594353
 20
0.0694212064
 10
8.0667491322
 20
0.0797315511
 10
8.0496022887
 20
0.0894162391
 10
8.032119104
 20
0.0984512035
 10
8.0142997771
 20
0.1068123777
 10
7.9961445069
 20
0.1144756947
  0
LINE
  5
4BB
100
AcDbEntity
  8
INCISIONI
100
AcDbLine
 62
253
  6
CONTINUOUS
 10
8.5145574568
 20
-0.6830218319
 11
8.4990942164
 21
-0.6265043673
  0
LINE
  5
4BC
100
AcDbEntity
  8
INCISIONI
100
AcDbLine
 62
253
  6
CONTINUOUS
 10
8.5813836336
 20
-0.9305408275
 11
8.5145574568
 21
-0.6830218319
  0
LINE
  5
4BD
100
AcDbEntity
  8
INCISIONI
100
AcDbLine
 62
253
  6
CONTINUOUS
 10
8.8585958254
 20
-1.9858282712
 11
8.8370102948
 21
-1.9055519409
  0
LWPOLYLINE
  5
4BE
100
AcDbEntity
  8
INCISIONI
100
AcDbPolyline
 62
253
  6
CONTINUOUS
 90
3
 70
0
 10
8.6673590561
 20
-1.2560573409
 10
8.6246032505
 20
-1.0932369673
 10
8.5813836336
 20
-0.9305408275
  0
LINE
  5
4BF
100
AcDbEntity
  8
INCISIONI
100
AcDbLine
 62
253
  6
CONTINUOUS
 10
8.8370102948
 20
-1.9055519409
 11
8.7946720958
 21
-1.7447758523
  0
LINE
  5
4C0
100
AcDbEntity
  8
INCISIONI
100
AcDbLine
 62
253
  6
CONTINUOUS
 10
8.7946720958
 20
-1.7447758523
 11
8.6673590561
 21
-1.2560573409
  0
LINE
  5
4C1
100
AcDbEntity
  8
0
100
AcDbLine
 62
7
  6
CONTINUOUS
 10
15.0982788086
 20
-37.2430297852
 11
15.0982788086
 21
-55.5430297852
  0
LINE
  5
4C2
100
AcDbEntity
  8
0
100
AcDbLine
 62
7
  6
CONTINUOUS
 10
15.2982788086
 20
-55.5430297852
 11
15.2982788086
 21
-37.3430297852
  0
LINE
  5
4C3
100
AcDbEntity
  8
IMPORT_IGES
100
AcDbLine
 62
7
  6
CONTINUOUS
 10
-42.8017211916
 20
32.4569702146
 11
43.3982788084
 21
32.4569702146
  0
LINE
  5
4C4
100
AcDbEntity
  8
0
100
AcDbLine
 62
7
  6
CONTINUOUS
 10
43.3982788086
 20
32.6569702148
 11
-42.8017211914
 21
32.6569702148
  0
LWPOLYLINE
  5
4C5
100
AcDbEntity
  8
0
100
AcDbPolyline
 62
7
  6
CONTINUOUS
 90
43
 70
0
 10
-42.8017211914
 20
34.5738750254
 10
-42.9872857323
 20
34.5705513891
 10
-43.1741392127
 20
34.5595506259
 10
-43.3622816326
 20
34.5408727358
 10
-43.5523682426
 20
34.5145882154
 10
-43.743743792
 20
34.4806265682
 10
-43.9344425294
 20
34.4387763037
 10
-44.1244757274
 20
34.3889030752
 10
-44.3138321133
 20
34.3311412295
 10
-44.5005121181
 20
34.2656823165
 10
-44.6843502092
 20
34.1923803407
 10
-44.865511919
 20
34.1113812976
 10
-45.0424942755
 20
34.0233147243
 10
-45.2150147045
 20
33.9281537458
 10
-45.3833557801
 20
33.825925237
 10
-45.5468622529
 20
33.7173393597
 10
-45.7055364201
 20
33.6024578863
 10
-45.8593759845
 20
33.4812190444
 10
-46.0077188047
 20
33.3541476775
 10
-46.1507902964
 20
33.2209865972
 10
-46.2883650438
 20
33.081992992
 10
-46.4191046593
 20
32.9384632711
 10
-46.5427330382
 20
32.7903684078
 10
-46.6595262851
 20
32.637737429
 10
-46.7689743252
 20
32.4819538236
 10
-46.871053907
 20
32.3229284079
 10
-46.9657882821
 20
32.1607503657
 10
-47.0527371299
 20
31.9970707374
 10
-47.1317101151
 20
31.832306273
 10
-47.2028975731
 20
31.6660402224
 10
-47.2664301895
 20
31.4986733757
 10
-47.3222911576
 20
31.3304122627
 10
-47.370497284
 20
31.1610503536
 10
-47.4112296738
 20
30.9903688491
 10
-47.4444493086
 20
30.8184707481
 10
-47.4701952067
 20
30.6452530516
 10
-47.4887655281
 20
30.4701879632
 10
-47.4983476398
 20
30.2937330391
 10
-47.5007541747
 20
30.1154307232
 10
-47.5017211914
 20
29.9333805503
 10
-47.5031607096
 20
29.7469490323
 10
-47.5031607096
 20
29.5567696575
 10
-47.5017211914
 20
29.3628424258
  0
LINE
  5
4C6
100
AcDbEntity
  8
0
100
AcDbLine
 62
7
  6
CONTINUOUS
 10
43.3982788086
 20
34.5738750254
 11
-42.8017211914
 21
34.5738750254
  0
LINE
  5
4C7
100
AcDbEntity
  8
0
100
AcDbLine
 62
7
  6
CONTINUOUS
 10
0.2982788086
 20
-40.9268331098
 11
3.0276152504
 21
-38.7725162205
  0
LINE
  5
4C8
100
AcDbEntity
  8
0
100
AcDbLine
 62
7
  6
CONTINUOUS
 10
3.5482788086
 20
-40.2725162205
 11
0.2982788086
 21
-42.8378027066
  0
LINE
  5
4C9
100
AcDbEntity
  8
0
100
AcDbLine
 62
7
  6
CONTINUOUS
 10
0.2982788086
 20
-44.9268331098
 11
3.0276152504
 21
-42.7725162205
  0
LINE
  5
4CA
100
AcDbEntity
  8
0
100
AcDbLine
 62
7
  6
CONTINUOUS
 10
3.5482788086
 20
-44.2725162205
 11
0.2982788086
 21
-46.8378027066
  0
LINE
  5
4CB
100
AcDbEntity
  8
0
100
AcDbLine
 62
253
  6
CONTINUOUS
 10
43.3982788086
 20
34.5738750254
 11
43.3982788086
 21
32.6569702148
  0
LINE
  5
4CC
100
AcDbEntity
  8
0
100
AcDbLine
 62
7
  6
CONTINUOUS
 10
0.2982788086
 20
-48.9268331098
 11
3.0276152504
 21
-46.7725162205
  0
LINE
  5
4CD
100
AcDbEntity
  8
0
100
AcDbLine
 62
7
  6
CONTINUOUS
 10
3.5482788086
 20
-48.2725162205
 11
0.2982788086
 21
-50.8378027066
  0
LINE
  5
4CE
100
AcDbEntity
  8
IMPORT_IGES
100
AcDbLine
 62
7
  6
CONTINUOUS
 10
48.1982788084
 20
27.6569702146
 11
48.1982788084
 21
-27.3430297854
  0
LINE
  5
4CF
100
AcDbEntity
  8
0
100
AcDbLine
 62
7
  6
CONTINUOUS
 10
48.3982788086
 20
-27.3430297852
 11
48.3982788086
 21
27.6569702148
  0
LWPOLYLINE
  5
4D0
100
AcDbEntity
  8
0
100
AcDbPolyline
 62
7
  6
CONTINUOUS
 90
43
 70
0
 10
48.0982788086
 20
29.3628424258
 10
48.099652334
 20
29.5553380934
 10
48.099652334
 20
29.7441705205
 10
48.0982788086
 20
29.9293397071
 10
48.0974280647
 20
30.1102277227
 10
48.0952037955
 20
30.2874524979
 10
48.0859170803
 20
30.4628678238
 10
48.0677822672
 20
30.6369140298
 10
48.0425850081
 20
30.8091507865
 10
48.0099933383
 20
30.9801108975
 10
47.9699601486
 20
31.1498966316
 10
47.9225325481
 20
31.31840572
 10
47.8675198996
 20
31.4858641591
 10
47.8049044304
 20
31.6524780185
 10
47.734703913
 20
31.8180412286
 10
47.6567810289
 20
31.9821615767
 10
47.570944104
 20
32.1452533562
 10
47.4773848122
 20
32.3069022737
 10
47.3765408565
 20
32.4654732356
 10
47.2684041924
 20
32.6208699914
 10
47.1529828644
 20
32.7731887917
 10
47.0307387087
 20
32.921083295
 10
46.9013893388
 20
33.0645403866
 10
46.7652171412
 20
33.2035731811
 10
46.6235311116
 20
33.3368746807
 10
46.4765129911
 20
33.4642038633
 10
46.3239810387
 20
33.585801751
 10
46.1666990264
 20
33.7010844123
 10
46.0046683109
 20
33.8100936827
 10
45.8378875355
 20
33.9127877267
 10
45.6671164023
 20
34.0084571072
 10
45.4923230463
 20
34.097005624
 10
45.3135393325
 20
34.1785294773
 10
45.131620558
 20
34.2526078299
 10
44.9464467101
 20
34.3191890155
 10
44.7581378014
 20
34.3783247004
 10
44.5679091666
 20
34.4297490464
 10
44.3758094348
 20
34.4734456738
 10
44.1817899768
 20
34.5094309623
 10
43.9869202405
 20
34.5374882116
 10
43.7915567082
 20
34.5575451886
 10
43.5953428976
 20
34.5696741265
 10
43.3982788086
 20
34.5738750254
  0
LINE
  5
4D1
100
AcDbEntity
  8
0
100
AcDbLine
 62
253
  6
CONTINUOUS
 10
55.2982788086
 20
64.4569702148
 11
55.2982788086
 21
63.4569702148
  0
LINE
  5
4D2
100
AcDbEntity
  8
0
100
AcDbLine
 62
253
  6
CONTINUOUS
 10
55.2982788086
 20
-54.5430297852
 11
55.2982788086
 21
-55.5430297852
  0
LINE
  5
4D3
100
AcDbEntity
  8
0
100
AcDbLine
 62
253
  6
CONTINUOUS
 10
-59.7017211914
 20
59.4569702148
 11
-58.7017211914
 21
59.4569702148
  0
LINE
  5
4D4
100
AcDbEntity
  8
0
100
AcDbLine
 62
253
  6
CONTINUOUS
 10
59.2982788086
 20
59.4569702148
 11
60.2982788086
 21
59.4569702148
  0
LINE
  5
4D5
100
AcDbEntity
  8
0
100
AcDbLine
 62
253
  6
CONTINUOUS
 10
59.2982788086
 20
59.4569702148
 11
59.2982788086
 21
-50.5430297852
  0
LINE
  5
4D6
100
AcDbEntity
  8
0
100
AcDbLine
 62
7
  6
CONTINUOUS
 10
60.2982788086
 20
-50.5430297852
 11
60.2982788086
 21
59.4569702148
  0
LINE
  5
4D7
100
AcDbEntity
  8
0
100
AcDbLine
 62
253
  6
CONTINUOUS
 10
-54.7017211914
 20
63.4569702148
 11
55.2982788086
 21
63.4569702148
  0
LINE
  5
4D8
100
AcDbEntity
  8
0
100
AcDbLine
 62
7
  6
CONTINUOUS
 10
55.2982788086
 20
64.4569702148
 11
-54.7017211914
 21
64.4569702148
  0
LINE
  5
4D9
100
AcDbEntity
  8
0
100
AcDbLine
 62
7
  6
CONTINUOUS
 10
-175.7927804921
 20
-55.5430297852
 11
-173.7927804921
 21
-55.5430297852
  0
LINE
  5
4DA
100
AcDbEntity
  8
0
100
AcDbLine
 62
7
  6
CONTINUOUS
 10
-173.7927804921
 20
-55.3430297852
 11
-172.7927804921
 21
-55.3430297852
  0
LINE
  5
4DB
100
AcDbEntity
  8
0
100
AcDbLine
 62
253
  6
CONTINUOUS
 10
-172.7927804921
 20
-50.5430297852
 11
-176.7927804921
 21
-50.5430297852
  0
LINE
  5
4DC
100
AcDbEntity
  8
0
100
AcDbLine
 62
7
  6
CONTINUOUS
 10
-172.7927804921
 20
-42.0430297856
 11
-172.2927804921
 21
-42.0430297856
  0
LINE
  5
4DD
100
AcDbEntity
  8
0
100
AcDbLine
 62
253
  6
CONTINUOUS
 10
-172.2927804921
 20
-40.0430297856
 11
-172.7927804921
 21
-40.0430297856
  0
LINE
  5
4DE
100
AcDbEntity
  8
0
100
AcDbLine
 62
7
  6
CONTINUOUS
 10
-167.7927804921
 20
-41.7430297852
 11
-172.2927804921
 21
-41.664481993
  0
LINE
  5
4DF
100
AcDbEntity
  8
0
100
AcDbLine
 62
253
  6
CONTINUOUS
 10
-172.2927804921
 20
-41.1645581454
 11
-167.7927804921
 21
-41.2431059376
  0
LINE
  5
4E0
100
AcDbEntity
  8
0
100
AcDbLine
 62
253
  6
CONTINUOUS
 10
-172.7927804921
 20
-37.3430297856
 11
-172.2927804921
 21
-37.3430297856
  0
LINE
  5
4E1
100
AcDbEntity
  8
0
100
AcDbLine
 62
7
  6
CONTINUOUS
 10
-172.7927804921
 20
-35.3430297856
 11
-172.2927804921
 21
-35.3430297856
  0
LINE
  5
4E2
100
AcDbEntity
  8
0
100
AcDbLine
 62
7
  6
CONTINUOUS
 10
-166.266612514
 20
-32.9630467106
 11
-167.7927804921
 21
-33.0430297852
  0
LINE
  5
4E3
100
AcDbEntity
  8
0
100
AcDbLine
 62
253
  6
CONTINUOUS
 10
-167.7927804921
 20
-32.5437150178
 11
-166.266612514
 21
-32.4637319433
  0
LINE
  5
4E4
100
AcDbEntity
  8
0
100
AcDbLine
 62
253
  6
CONTINUOUS
 10
-165.7927804921
 20
-32.4637319433
 11
-166.266612514
 21
-32.4637319433
  0
LINE
  5
4E5
100
AcDbEntity
  8
0
100
AcDbLine
 62
253
  6
CONTINUOUS
 10
-166.266612514
 20
-30.8223276271
 11
-165.7927804921
 21
-30.8223276271
  0
LINE
  5
4E6
100
AcDbEntity
  8
0
100
AcDbLine
 62
253
  6
CONTINUOUS
 10
-166.266612514
 20
-30.8223276271
 11
-167.7927804921
 21
-30.742390407
  0
LINE
  5
4E7
100
AcDbEntity
  8
0
100
AcDbLine
 62
7
  6
CONTINUOUS
 10
-167.7927795971
 20
-30.2430298321
 11
-166.266612514
 21
-30.3230128597
  0
LWPOLYLINE
  5
4E8
100
AcDbEntity
  8
0
100
AcDbPolyline
 62
253
  6
CONTINUOUS
 90
68
 70
0
 10
-166.2666137191
 20
-30.3230127971
 10
-166.2665472343
 20
-30.3230178514
 10
-166.2664805697
 20
-30.323026207
 10
-166.2664137284
 20
-30.3230379158
 10
-166.2663465822
 20
-30.3230530629
 10
-166.2662792665
 20
-30.3230716808
 10
-166.2662121767
 20
-30.3230936833
 10
-166.2661454408
 20
-30.3231190116
 10
-166.2660789302
 20
-30.3231476975
 10
-166.2660126526
 20
-30.3231797301
 10
-166.2659466683
 20
-30.3232150672
 10
-166.2658809167
 20
-30.3232537283
 10
-166.2658152253
 20
-30.3232958204
 10
-166.265749488
 20
-30.323341439
 10
-166.2656838143
 20
-30.3233905361
 10
-166.2656183546
 20
-30.3234430066
 10
-166.2655534127
 20
-30.3234985775
 10
-166.2654886835
 20
-30.3235574803
 10
-166.2654234091
 20
-30.3236204622
 10
-166.2653575846
 20
-30.3236876503
 10
-166.2652912286
 20
-30.3237591494
 10
-166.2652236314
 20
-30.3238359115
 10
-166.2651547136
 20
-30.3239182895
 10
-166.2650845831
 20
-30.3240064242
 10
-166.2650128212
 20
-30.3241011503
 10
-166.2649390972
 20
-30.3242032979
 10
-166.2648637836
 20
-30.3243127573
 10
-166.2647875148
 20
-30.3244289234
 10
-166.2647101129
 20
-30.3245523477
 10
-166.264631786
 20
-30.3246829844
 10
-166.2645537284
 20
-30.3248189795
 10
-166.2644759895
 20
-30.3249602487
 10
-166.2643985218
 20
-30.3251068795
 10
-166.2643223494
 20
-30.325256824
 10
-166.2642476806
 20
-30.3254094221
 10
-166.2641742839
 20
-30.3255648996
 10
-166.2641025069
 20
-30.3257222601
 10
-166.2640323468
 20
-30.3258812121
 10
-166.2639637775
 20
-30.3260415214
 10
-166.2638971046
 20
-30.326202152
 10
-166.2638325026
 20
-30.326362314
 10
-166.2637697615
 20
-30.3265221668
 10
-166.2637086098
 20
-30.3266820943
 10
-166.263648663
 20
-30.326842863
 10
-166.2635902811
 20
-30.3270032725
 10
-166.2635343038
 20
-30.3271606667
 10
-166.2634819526
 20
-30.327311077
 10
-166.2634319576
 20
-30.3274576422
 10
-166.2633814389
 20
-30.3276086709
 10
-166.2633294305
 20
-30.3277672555
 10
-166.2632769168
 20
-30.3279306035
 10
-166.2632239682
 20
-30.3280986139
 10
-166.2631707581
 20
-30.3282708337
 10
-166.263117124
 20
-30.3284478873
 10
-166.2630626363
 20
-30.3286313529
 10
-166.2630072706
 20
-30.3288215225
 10
-166.2629510731
 20
-30.3290184524
 10
-166.262893728
 20
-30.3292235004
 10
-166.262835141
 20
-30.3294373087
 10
-166.2627754377
 20
-30.3296597333
 10
-166.2627146356
 20
-30.3298910178
 10
-166.2626525796
 20
-30.3301320916
 10
-166.2625894591
 20
-30.3303825656
 10
-166.2625258035
 20
-30.3306406083
 10
-166.2624615998
 20
-30.3309064833
 10
-166.2623968829
 20
-30.33118026
 10
-166.2623322404
 20
-30.3314595886
 10
-166.2622679455
 20
-30.3317433099
  0
LINE
  5
4E9
100
AcDbEntity
  8
0
100
AcDbLine
 62
253
  6
CONTINUOUS
 10
-153.4630964424
 20
47.5237173167
 11
-153.2601829858
 21
47.7446836696
  0
LINE
  5
4EA
100
AcDbEntity
  8
0
100
AcDbLine
 62
253
  6
CONTINUOUS
 10
-167.7927804921
 20
-30.7423905646
 11
-172.2927804921
 21
-30.8215718183
  0
LINE
  5
4EB
100
AcDbEntity
  8
0
100
AcDbLine
 62
7
  6
CONTINUOUS
 10
-172.2927804866
 20
-30.3215775773
 11
-167.7927795939
 21
-30.2430297695
  0
LINE
  5
4EC
100
AcDbEntity
  8
0
100
AcDbLine
 62
253
  6
CONTINUOUS
 10
-172.2927804921
 20
-27.3430297856
 11
-172.7927804921
 21
-27.3430297856
  0
LWPOLYLINE
  5
4ED
100
AcDbEntity
  8
0
100
AcDbPolyline
 62
7
  6
CONTINUOUS
 90
10
 70
0
 10
-172.2927804921
 20
-7.1930297856
 10
-172.2900418913
 20
-7.2312186301
 10
-172.2800849634
 20
-7.2628555283
 10
-172.2629097082
 20
-7.2883764888
 10
-172.2384253062
 20
-7.3085055853
 10
-172.206722577
 20
-7.323441444
 10
-172.1680739798
 20
-7.3333885935
 10
-172.1225703343
 20
-7.3392828903
 10
-172.0701208208
 20
-7.3422192552
 10
-172.0107254393
 20
-7.3430297856
  0
LINE
  5
4EE
100
AcDbEntity
  8
0
100
AcDbLine
 62
7
  6
CONTINUOUS
 10
-176.7927804921
 20
-54.5430297852
 11
-176.7927804921
 21
63.4569702148
  0
LINE
  5
4EF
100
AcDbEntity
  8
0
100
AcDbLine
 62
253
  6
CONTINUOUS
 10
-175.7927804921
 20
-55.5430297852
 11
-175.7927804921
 21
64.4569702148
  0
LINE
  5
4F0
100
AcDbEntity
  8
0
100
AcDbLine
 62
7
  6
CONTINUOUS
 10
-173.7927804921
 20
-55.5430297852
 11
-173.7927804921
 21
64.4569702148
  0
LINE
  5
4F1
100
AcDbEntity
  8
0
100
AcDbLine
 62
7
  6
CONTINUOUS
 10
-172.2927804921
 20
-28.3710213716
 11
-117.2108384912
 21
-18.3278853302
  0
LINE
  5
4F2
100
AcDbEntity
  8
0
100
AcDbLine
 62
253
  6
CONTINUOUS
 10
-166.2622679455
 20
-30.3317433099
 11
-166.2621393626
 21
-30.3323286763
  0
LWPOLYLINE
  5
4F3
100
AcDbEntity
  8
0
100
AcDbPolyline
 62
253
  6
CONTINUOUS
 90
3
 70
0
 10
-166.2621393626
 20
-30.3323286763
 10
-166.2620101395
 20
-30.3329416361
 10
-166.2619451962
 20
-30.3332592514
  0
LINE
  5
4F4
100
AcDbEntity
  8
0
100
AcDbLine
 62
253
  6
CONTINUOUS
 10
-170.3339975383
 20
-24.2528753046
 11
-170.3162923304
 21
-24.3499801559
  0
LINE
  5
4F5
100
AcDbEntity
  8
0
100
AcDbLine
 62
253
  6
CONTINUOUS
 10
-166.2598768434
 20
-30.3474322917
 11
-166.259642375
 21
-30.3496591175
  0
LINE
  5
4F6
100
AcDbEntity
  8
0
100
AcDbLine
 62
253
  6
CONTINUOUS
 10
-166.259642375
 20
-30.3496591175
 11
-166.259400387
 21
-30.3521297374
  0
LINE
  5
4F7
100
AcDbEntity
  8
0
100
AcDbLine
 62
253
  6
CONTINUOUS
 10
-166.259400387
 20
-30.3521297374
 11
-166.2591518233
 21
-30.3548676057
  0
LINE
  5
4F8
100
AcDbEntity
  8
0
100
AcDbLine
 62
253
  6
CONTINUOUS
 10
-166.2591518233
 20
-30.3548676057
 11
-166.258897477
 21
-30.3579018737
  0
LINE
  5
4F9
100
AcDbEntity
  8
0
100
AcDbLine
 62
253
  6
CONTINUOUS
 10
-166.258897477
 20
-30.3579018737
 11
-166.2586382257
 21
-30.3612661949
  0
LINE
  5
4FA
100
AcDbEntity
  8
0
100
AcDbLine
 62
253
  6
CONTINUOUS
 10
-166.2586382257
 20
-30.3612661949
 11
-166.258375426
 21
-30.3649942474
  0
LINE
  5
4FB
100
AcDbEntity
  8
0
100
AcDbLine
 62
253
  6
CONTINUOUS
 10
-166.258375426
 20
-30.3649942474
 11
-166.2581103175
 21
-30.3691285634
  0
LINE
  5
4FC
100
AcDbEntity
  8
0
100
AcDbLine
 62
7
  6
CONTINUOUS
 10
-172.7927804921
 20
-55.3430297852
 11
-172.7927804921
 21
64.2569702148
  0
LINE
  5
4FD
100
AcDbEntity
  8
0
100
AcDbLine
 62
7
  6
CONTINUOUS
 10
-172.2927804921
 20
-42.0430297856
 11
-172.2927804921
 21
35.6569702144
  0
LINE
  5
4FE
100
AcDbEntity
  8
0
100
AcDbLine
 62
7
  6
CONTINUOUS
 10
-172.1427804921
 20
-30.3189593176
 11
-172.1427804921
 21
-28.3436717476
  0
LINE
  5
4FF
100
AcDbEntity
  8
0
100
AcDbLine
 62
253
  6
CONTINUOUS
 10
-171.7927804921
 20
-12.3430297856
 11
-171.7927804921
 21
-7.3430297856
  0
LINE
  5
500
100
AcDbEntity
  8
0
100
AcDbLine
 62
253
  6
CONTINUOUS
 10
-169.8427804921
 20
-27.9243108453
 11
-169.8427804921
 21
-30.2788126683
  0
LINE
  5
501
100
AcDbEntity
  8
0
100
AcDbLine
 62
7
  6
CONTINUOUS
 10
-169.6427804921
 20
-27.8878446799
 11
-169.6427804921
 21
-30.2753216553
  0
LINE
  5
502
100
AcDbEntity
  8
0
100
AcDbLine
 62
7
  6
CONTINUOUS
 10
-169.2927804921
 20
-12.3430297856
 11
-169.2927804921
 21
-7.3430297856
  0
LWPOLYLINE
  5
503
100
AcDbEntity
  8
0
100
AcDbPolyline
 62
7
  6
CONTINUOUS
 90
16
 70
0
 10
-158.5927804921
 20
43.2983721245
 10
-158.593409416
 20
43.2962646084
 10
-158.5950738199
 20
43.2942299003
 10
-158.5977737038
 20
43.2922680001
 10
-158.601565646
 20
43.2903604851
 10
-158.6063930683
 20
43.2885257779
 10
-158.6120862351
 20
43.2868191468
 10
-158.6186667013
 20
43.2852446288
 10
-158.6261129121
 20
43.2837981867
 10
-158.6341904676
 20
43.2825229778
 10
-158.6429199288
 20
43.28142363
 10
-158.6522807347
 20
43.2804955152
 10
-158.6619768023
 20
43.2797679062
 10
-158.6719094372
 20
43.2792505606
 10
-158.6821773338
 20
43.2789337207
 10
-158.6927804921
 20
43.2788173866
  0
LWPOLYLINE
  5
504
100
AcDbEntity
  8
0
100
AcDbPolyline
 62
253
  6
CONTINUOUS
 90
9
 70
0
 10
-162.0753307438
 20
36.1498814972
 10
-162.0738822025
 20
36.1537342419
 10
-162.0725623384
 20
36.1651577359
 10
-162.07139102
 20
36.1840645497
 10
-162.0703919948
 20
36.2103103091
 10
-162.069574115
 20
36.2436952146
 10
-162.0689312126
 20
36.2839653491
 10
-162.0684668639
 20
36.3308141737
 10
-162.068117836
 20
36.4427743772
  0
LWPOLYLINE
  5
505
100
AcDbEntity
  8
0
100
AcDbPolyline
 62
253
  6
CONTINUOUS
 90
10
 70
0
 10
-155.5717407703
 20
30.5120525629
 10
-155.3583027531
 20
30.772895379
 10
-155.1275220941
 20
31.0123015069
 10
-154.8793987934
 20
31.2302709467
 10
-154.6120485822
 20
31.4279938716
 10
-154.3273557293
 20
31.6042801084
 10
-154.0309730409
 20
31.7555591377
 10
-153.7247847858
 20
31.8806407864
 10
-153.4069066952
 20
31.9807152277
 10
-153.0773387692
 20
32.0557824616
  0
LINE
  5
506
100
AcDbEntity
  8
0
100
AcDbLine
 62
253
  6
CONTINUOUS
 10
-153.2275616771
 20
26.2810838106
 11
-153.7673371978
 21
26.0152498728
  0
LINE
  5
507
100
AcDbEntity
  8
0
100
AcDbLine
 62
253
  6
CONTINUOUS
 10
-138.0777784964
 20
33.4271263442
 11
-137.1593198241
 21
33.8226433061
  0
LWPOLYLINE
  5
508
100
AcDbEntity
  8
0
100
AcDbPolyline
 62
253
  6
CONTINUOUS
 90
18
 70
0
 10
-152.6802256004
 20
30.0817596951
 10
-152.8496274485
 20
30.0121516431
 10
-153.0041299056
 20
29.9225105264
 10
-153.1449451564
 20
29.8153217781
 10
-153.2717672408
 20
29.6930701864
 10
-153.3827008796
 20
29.5578495319
 10
-153.4777529018
 20
29.411642953
 10
-153.5576407764
 20
29.2564397498
 10
-153.6214322423
 20
29.0937783588
 10
-153.6691595651
 20
28.9250294412
 10
-153.7013773087
 20
28.7520408229
 10
-153.7179018877
 20
28.5768759794
 10
-153.7186425169
 20
28.4009509405
 10
-153.7042113971
 20
28.2257093985
 10
-153.6754856177
 20
28.0532903047
 10
-153.6329102427
 20
27.8852441367
 10
-153.5764759028
 20
27.7224100004
 10
-153.5063633109
 20
27.565779022
  0
LINE
  5
509
100
AcDbEntity
  8
0
100
AcDbLine
 62
253
  6
CONTINUOUS
 10
-152.7776112745
 20
26.0115138328
 11
-153.0554380166
 21
25.8994166131
  0
LINE
  5
50A
100
AcDbEntity
  8
0
100
AcDbLine
 62
7
  6
CONTINUOUS
 10
-170.3339975383
 20
-24.2528753046
 11
-172.0901025769
 21
-24.5730673887
  0
LINE
  5
50B
100
AcDbEntity
  8
0
100
AcDbLine
 62
253
  6
CONTINUOUS
 10
-166.2619451962
 20
-30.3332592514
 11
-166.26181455
 21
-30.3339180433
  0
LINE
  5
50C
100
AcDbEntity
  8
0
100
AcDbLine
 62
253
  6
CONTINUOUS
 10
-166.26181455
 20
-30.3339180433
 11
-166.2616830939
 21
-30.3346083498
  0
LINE
  5
50D
100
AcDbEntity
  8
0
100
AcDbLine
 62
253
  6
CONTINUOUS
 10
-166.2616830939
 20
-30.3346083498
 11
-166.2615491524
 21
-30.3353408849
  0
LINE
  5
50E
100
AcDbEntity
  8
0
100
AcDbLine
 62
253
  6
CONTINUOUS
 10
-166.2615491524
 20
-30.3353408849
 11
-166.2614072359
 21
-30.3361502204
  0
LINE
  5
50F
100
AcDbEntity
  8
0
100
AcDbLine
 62
253
  6
CONTINUOUS
 10
-166.2614072359
 20
-30.3361502204
 11
-166.2612543289
 21
-30.3370618007
  0
LINE
  5
510
100
AcDbEntity
  8
0
100
AcDbLine
 62
253
  6
CONTINUOUS
 10
-166.2612543289
 20
-30.3370618007
 11
-166.2610895168
 21
-30.3380921172
  0
LINE
  5
511
100
AcDbEntity
  8
0
100
AcDbLine
 62
253
  6
CONTINUOUS
 10
-166.2610895168
 20
-30.3380921172
 11
-166.2609124198
 21
-30.3392568732
  0
LINE
  5
512
100
AcDbEntity
  8
0
100
AcDbLine
 62
253
  6
CONTINUOUS
 10
-166.2609124198
 20
-30.3392568732
 11
-166.260725086
 21
-30.3405570986
  0
LINE
  5
513
100
AcDbEntity
  8
0
100
AcDbLine
 62
253
  6
CONTINUOUS
 10
-166.260725086
 20
-30.3405570986
 11
-166.2605280545
 21
-30.3420042772
  0
LINE
  5
514
100
AcDbEntity
  8
0
100
AcDbLine
 62
253
  6
CONTINUOUS
 10
-166.2605280545
 20
-30.3420042772
 11
-166.2603204868
 21
-30.3436223903
  0
LINE
  5
515
100
AcDbEntity
  8
0
100
AcDbLine
 62
253
  6
CONTINUOUS
 10
-166.2603204868
 20
-30.3436223903
 11
-166.2601031531
 21
-30.3454262187
  0
LINE
  5
516
100
AcDbEntity
  8
0
100
AcDbLine
 62
253
  6
CONTINUOUS
 10
-166.2601031531
 20
-30.3454262187
 11
-166.2598768434
 21
-30.3474322917
  0
LINE
  5
517
100
AcDbEntity
  8
0
100
AcDbLine
 62
253
  6
CONTINUOUS
 10
-166.2581103175
 20
-30.3691285634
 11
-166.2578443235
 21
-30.3737189637
  0
LINE
  5
518
100
AcDbEntity
  8
0
100
AcDbLine
 62
253
  6
CONTINUOUS
 10
-166.2578443235
 20
-30.3737189637
 11
-166.2575796105
 21
-30.3788141474
  0
LWPOLYLINE
  5
519
100
AcDbEntity
  8
0
100
AcDbPolyline
 62
253
  6
CONTINUOUS
 90
19
 70
0
 10
-166.266612514
 20
-32.4637319433
 10
-166.2644376543
 20
-32.507249953
 10
-166.2624794211
 20
-32.5504153088
 10
-166.2607523683
 20
-32.5929005711
 10
-166.2592693837
 20
-32.634380507
 10
-166.2580411744
 20
-32.6745460994
 10
-166.2570764301
 20
-32.7131055534
 10
-166.2563822695
 20
-32.7497686032
 10
-166.255963786
 20
-32.7842582569
 10
-166.2558239609
 20
-32.8163218223
 10
-166.25596385
 20
-32.8457166401
 10
-166.2563823923
 20
-32.8722202528
 10
-166.2570766012
 20
-32.8956369158
 10
-166.2580413786
 20
-32.9157868922
 10
-166.2592696012
 20
-32.9325158204
 10
-166.2607525751
 20
-32.9456977886
 10
-166.2624795899
 20
-32.9552281586
 10
-166.2644377549
 20
-32.9610276859
 10
-166.266612514
 20
-32.9630467106
  0
LINE
  5
51A
100
AcDbEntity
  8
0
100
AcDbLine
 62
253
  6
CONTINUOUS
 10
-166.2575796105
 20
-30.3788141474
 11
-166.2573183581
 21
-30.3844760276
  0
LINE
  5
51B
100
AcDbEntity
  8
0
100
AcDbLine
 62
253
  6
CONTINUOUS
 10
-166.2573183581
 20
-30.3844760276
 11
-166.2570631582
 21
-30.3907770652
  0
LINE
  5
51C
100
AcDbEntity
  8
0
100
AcDbLine
 62
253
  6
CONTINUOUS
 10
-166.2570631582
 20
-30.3907770652
 11
-166.2568176457
 21
-30.3977869139
  0
LINE
  5
51D
100
AcDbEntity
  8
0
100
AcDbLine
 62
253
  6
CONTINUOUS
 10
-166.2568176457
 20
-30.3977869139
 11
-166.2565857569
 21
-30.4055935186
  0
LINE
  5
51E
100
AcDbEntity
  8
0
100
AcDbLine
 62
253
  6
CONTINUOUS
 10
-166.2565857569
 20
-30.4055935186
 11
-166.2563721471
 21
-30.4143016079
  0
LINE
  5
51F
100
AcDbEntity
  8
0
100
AcDbLine
 62
253
  6
CONTINUOUS
 10
-166.2563721471
 20
-30.4143016079
 11
-166.2561828791
 21
-30.4240108913
  0
LINE
  5
520
100
AcDbEntity
  8
0
100
AcDbLine
 62
253
  6
CONTINUOUS
 10
-166.2561828791
 20
-30.4240108913
 11
-166.256024792
 21
-30.434848778
  0
LWPOLYLINE
  5
521
100
AcDbEntity
  8
0
100
AcDbPolyline
 62
7
  6
CONTINUOUS
 90
8
 70
0
 10
-167.7893640606
 20
-30.3334429061
 10
-167.7895934478
 20
-30.3100416822
 10
-167.7899161367
 20
-30.2899302302
 10
-167.7903308255
 20
-30.2732543351
 10
-167.7908228278
 20
-30.2601307268
 10
-167.7913897326
 20
-30.2506665622
 10
-167.7920416304
 20
-30.2449483365
 10
-167.7927833179
 20
-30.2430298952
  0
LINE
  5
522
100
AcDbEntity
  8
0
100
AcDbLine
 62
253
  6
CONTINUOUS
 10
-166.256024792
 20
-30.434848778
 11
-166.2559061016
 21
-30.4469656973
  0
LINE
  5
523
100
AcDbEntity
  8
0
100
AcDbLine
 62
253
  6
CONTINUOUS
 10
-166.2559061016
 20
-30.4469656973
 11
-166.2558369178
 21
-30.4605036234
  0
LINE
  5
524
100
AcDbEntity
  8
0
100
AcDbLine
 62
7
  6
CONTINUOUS
 10
-167.7891737807
 20
-30.3893654176
 11
-167.7893640606
 21
-30.3334429061
  0
LINE
  5
525
100
AcDbEntity
  8
0
100
AcDbLine
 62
7
  6
CONTINUOUS
 10
-167.7927804921
 20
-30.742390407
 11
-167.7927804921
 21
-41.7430297852
  0
LINE
  5
526
100
AcDbEntity
  8
0
100
AcDbLine
 62
7
  6
CONTINUOUS
 10
-167.5927804921
 20
30.5798778836
 11
-167.5927804921
 21
51.9572079064
  0
LINE
  5
527
100
AcDbEntity
  8
0
100
AcDbLine
 62
7
  6
CONTINUOUS
 10
-166.7939010647
 20
20.3192859781
 11
-166.7939010647
 21
20.8259734672
  0
LINE
  5
528
100
AcDbEntity
  8
0
100
AcDbLine
 62
253
  6
CONTINUOUS
 10
-166.266612514
 20
-30.8223276271
 11
-166.266612514
 21
-32.4637319433
  0
LINE
  5
529
100
AcDbEntity
  8
0
100
AcDbLine
 62
7
  6
CONTINUOUS
 10
-165.7927804921
 20
-32.4637319433
 11
-165.7927804921
 21
-30.8223276271
  0
LINE
  5
52A
100
AcDbEntity
  8
0
100
AcDbLine
 62
253
  6
CONTINUOUS
 10
-166.2558369178
 20
-30.4605036234
 11
-166.2558290325
 21
-30.4756467724
  0
LINE
  5
52B
100
AcDbEntity
  8
0
100
AcDbLine
 62
7
  6
CONTINUOUS
 10
-167.7893630321
 20
-30.4560015127
 11
-167.7891737807
 21
-30.3893654176
  0
LINE
  5
52C
100
AcDbEntity
  8
0
100
AcDbLine
 62
253
  6
CONTINUOUS
 10
-166.2558290325
 20
-30.4756467724
 11
-166.2558967357
 21
-30.4926125418
  0
LINE
  5
52D
100
AcDbEntity
  8
0
100
AcDbLine
 62
253
  6
CONTINUOUS
 10
-166.2558967357
 20
-30.4926125418
 11
-166.2560569301
 21
-30.5115998256
  0
LINE
  5
52E
100
AcDbEntity
  8
0
100
AcDbLine
 62
7
  6
CONTINUOUS
 10
-167.7903283104
 20
-30.5715403412
 11
-167.7893630321
 21
-30.4560015127
  0
LINE
  5
52F
100
AcDbEntity
  8
0
100
AcDbLine
 62
253
  6
CONTINUOUS
 10
-166.2560569301
 20
-30.5115998256
 11
-166.2563298471
 21
-30.5328665423
  0
LWPOLYLINE
  5
530
100
AcDbEntity
  8
0
100
AcDbPolyline
 62
7
  6
CONTINUOUS
 90
3
 70
0
 10
-167.7927792735
 20
-30.7426720773
 10
-167.7920379224
 20
-30.6989921863
 10
-167.7903283104
 20
-30.5715403412
  0
LINE
  5
531
100
AcDbEntity
  8
0
100
AcDbLine
 62
253
  6
CONTINUOUS
 10
-166.2563298471
 20
-30.5328665423
 11
-166.2570055601
 21
-30.5697014634
  0
LINE
  5
532
100
AcDbEntity
  8
0
100
AcDbLine
 62
253
  6
CONTINUOUS
 10
-166.2570055601
 20
-30.5697014634
 11
-166.2576778927
 21
-30.5980034296
  0
LINE
  5
533
100
AcDbEntity
  8
0
100
AcDbLine
 62
253
  6
CONTINUOUS
 10
-166.2576778927
 20
-30.5980034296
 11
-166.2585698366
 21
-30.6296732391
  0
LINE
  5
534
100
AcDbEntity
  8
0
100
AcDbLine
 62
253
  6
CONTINUOUS
 10
-166.2585698366
 20
-30.6296732391
 11
-166.2597298813
 21
-30.6652024443
  0
LINE
  5
535
100
AcDbEntity
  8
0
100
AcDbLine
 62
253
  6
CONTINUOUS
 10
-166.2597298813
 20
-30.6652024443
 11
-166.2612121112
 21
-30.7049737391
  0
LINE
  5
536
100
AcDbEntity
  8
0
100
AcDbLine
 62
253
  6
CONTINUOUS
 10
-166.2612121112
 20
-30.7049737391
 11
-166.2630645799
 21
-30.7490171261
  0
LWPOLYLINE
  5
537
100
AcDbEntity
  8
0
100
AcDbPolyline
 62
253
  6
CONTINUOUS
 90
3
 70
0
 10
-166.2630645799
 20
-30.7490171261
 10
-166.2653212415
 20
-30.7969752006
 10
-166.266612514
 20
-30.8223276271
  0
LWPOLYLINE
  5
538
100
AcDbEntity
  8
0
100
AcDbPolyline
 62
253
  6
CONTINUOUS
 90
13
 70
0
 10
-161.5927804921
 20
36.7958974106
 10
-161.5966117489
 20
36.7522134418
 10
-161.608261233
 20
36.7086016845
 10
-161.6276619504
 20
36.6661577825
 10
-161.6539420381
 20
36.6264559586
 10
-161.6864737759
 20
36.5898454119
 10
-161.7258823467
 20
36.555703998
 10
-161.7718106451
 20
36.5248085347
 10
-161.8230624419
 20
36.4981960725
 10
-161.8796465413
 20
36.4760740851
 10
-161.9406555075
 20
36.4591051979
 10
-162.0040585326
 20
36.4479545892
 10
-162.068117836
 20
36.4427743772
  0
LWPOLYLINE
  5
539
100
AcDbEntity
  8
0
100
AcDbPolyline
 62
253
  6
CONTINUOUS
 90
16
 70
0
 10
-153.9707275494
 20
29.3153367806
 10
-154.0201303334
 20
29.2468028857
 10
-154.067553374
 20
29.1754456723
 10
-154.1128198436
 20
29.1013326993
 10
-154.1562567154
 20
29.0236544174
 10
-154.1971048234
 20
28.9433513269
 10
-154.2339096811
 20
28.8633021136
 10
-154.2660776518
 20
28.7857428978
 10
-154.2947396588
 20
28.7089795605
 10
-154.3210118932
 20
28.6300069784
 10
-154.3449865057
 20
28.5478163997
 10
-154.3661161222
 20
28.4635876762
 10
-154.3841843892
 20
28.37749296
 10
-154.3990057928
 20
28.2896846251
 10
-154.4104199714
 20
28.2002942427
 10
-154.4182591006
 20
28.1094847381
  0
LINE
  5
53A
100
AcDbEntity
  8
0
100
AcDbLine
 62
7
  6
CONTINUOUS
 10
-136.0814007725
 20
31.3195291635
 11
-136.7797206123
 21
31.0188108516
  0
LINE
  5
53B
100
AcDbEntity
  8
0
100
AcDbLine
 62
253
  6
CONTINUOUS
 10
-162.0713910884
 20
36.8906594432
 11
-162.0753307438
 21
37.1492723242
  0
LINE
  5
53C
100
AcDbEntity
  8
0
100
AcDbLine
 62
253
  6
CONTINUOUS
 10
-162.0695741911
 20
36.7270049418
 11
-162.0713910884
 21
36.8906594432
  0
LINE
  5
53D
100
AcDbEntity
  8
0
100
AcDbLine
 62
253
  6
CONTINUOUS
 10
-162.0684669171
 20
36.576185402
 11
-162.0695741911
 21
36.7270049418
  0
LINE
  5
53E
100
AcDbEntity
  8
0
100
AcDbLine
 62
253
  6
CONTINUOUS
 10
-162.068117836
 20
36.4427743772
 11
-162.0684669171
 21
36.576185402
  0
LINE
  5
53F
100
AcDbEntity
  8
0
100
AcDbLine
 62
253
  6
CONTINUOUS
 10
-162.0753307438
 20
50.9116585336
 11
-162.0753307438
 21
37.1492723242
  0
LINE
  5
540
100
AcDbEntity
  8
0
100
AcDbLine
 62
7
  6
CONTINUOUS
 10
-161.8927804921
 20
50.9495622006
 11
-161.8927804921
 21
50.8527696266
  0
LINE
  5
541
100
AcDbEntity
  8
0
100
AcDbLine
 62
7
  6
CONTINUOUS
 10
-161.8927804921
 20
36.1914043561
 11
-161.8927804921
 21
35.9702660868
  0
LINE
  5
542
100
AcDbEntity
  8
0
100
AcDbLine
 62
7
  6
CONTINUOUS
 10
-161.5927804921
 20
36.6495769107
 11
-161.5927804921
 21
50.3844061463
  0
LINE
  5
543
100
AcDbEntity
  8
0
100
AcDbLine
 62
253
  6
CONTINUOUS
 10
-161.2927804921
 20
40.6069702148
 11
-161.2927804921
 21
45.9069702148
  0
LINE
  5
544
100
AcDbEntity
  8
0
100
AcDbLine
 62
253
  6
CONTINUOUS
 10
-160.8927804921
 20
45.9069702148
 11
-160.8927804921
 21
40.6069702148
  0
LINE
  5
545
100
AcDbEntity
  8
0
100
AcDbLine
 62
7
  6
CONTINUOUS
 10
-160.5927804921
 20
40.1567812681
 11
-160.5927804921
 21
46.3574171591
  0
LINE
  5
546
100
AcDbEntity
  8
0
100
AcDbLine
 62
253
  6
CONTINUOUS
 10
-160.4927804921
 20
40.0569702148
 11
-160.4927804921
 21
46.4569702148
  0
LINE
  5
547
100
AcDbEntity
  8
0
100
AcDbLine
 62
253
  6
CONTINUOUS
 10
-159.6927804921
 20
46.4569702148
 11
-159.6927804921
 21
40.0569702148
  0
LINE
  5
548
100
AcDbEntity
  8
0
100
AcDbLine
 62
7
  6
CONTINUOUS
 10
-159.5927804921
 20
46.3573313494
 11
-159.5927804921
 21
40.1567795305
  0
LINE
  5
549
100
AcDbEntity
  8
0
100
AcDbLine
 62
7
  6
CONTINUOUS
 10
-159.3927804921
 20
45.756955441
 11
-159.3927804921
 21
45.5654446979
  0
LINE
  5
54A
100
AcDbEntity
  8
0
100
AcDbLine
 62
7
  6
CONTINUOUS
 10
-159.3927804921
 20
43.2788173866
 11
-159.3927804921
 21
42.2973111289
  0
LINE
  5
54B
100
AcDbEntity
  8
0
100
AcDbLine
 62
7
  6
CONTINUOUS
 10
-161.3222237016
 20
54.9858128393
 11
-161.3239446939
 21
54.7171989759
  0
LINE
  5
54C
100
AcDbEntity
  8
0
100
AcDbLine
 62
7
  6
CONTINUOUS
 10
-160.3524103717
 20
50.2677921762
 11
-160.3222233562
 21
54.9794058994
  0
LWPOLYLINE
  5
54D
100
AcDbEntity
  8
0
100
AcDbPolyline
 62
7
  6
CONTINUOUS
 90
16
 70
0
 10
-158.5927804921
 20
40.8573273494
 10
-158.593409416
 20
40.8465216261
 10
-158.5950738199
 20
40.836089206
 10
-158.5977737038
 20
40.8260300888
 10
-158.601565646
 20
40.8162498172
 10
-158.6063930683
 20
40.8068428487
 10
-158.6120862351
 20
40.7980925556
 10
-158.6186667013
 20
40.7900196366
 10
-158.6261129121
 20
40.782603393
 10
-158.6341904676
 20
40.7760651011
 10
-158.6429199288
 20
40.77042849
 10
-158.6522807347
 20
40.7656698306
 10
-158.6619768023
 20
40.7619392107
 10
-158.6719094372
 20
40.7592866597
 10
-158.6821773338
 20
40.7576621483
 10
-158.6927804921
 20
40.7570656765
  0
LWPOLYLINE
  5
54E
100
AcDbEntity
  8
0
100
AcDbPolyline
 62
253
  6
CONTINUOUS
 90
13
 70
0
 10
-153.2275616773
 20
26.2810838109
 10
-153.2255354857
 20
26.2867456754
 10
-153.2191710172
 20
26.2945411293
 10
-153.2084900169
 20
26.3043384484
 10
-153.1939699212
 20
26.3157295336
 10
-153.1759613533
 20
26.3285008536
 10
-153.1541214768
 20
26.3428845299
 10
-153.1286704257
 20
26.358683989
 10
-153.1002878611
 20
26.3754520239
 10
-153.0689642955
 20
26.3931703185
 10
-153.0352249651
 20
26.4115068119
 10
-153.0002446232
 20
26.4298116936
 10
-152.9650217593
 20
26.4475800793
  0
LINE
  5
54F
100
AcDbEntity
  8
0
100
AcDbLine
 62
7
  6
CONTINUOUS
 10
-138.8404451946
 20
32.7918998817
 11
-138.6602126081
 21
32.9414501954
  0
LINE
  5
550
100
AcDbEntity
  8
0
100
AcDbLine
 62
7
  6
CONTINUOUS
 10
-138.6602126081
 20
32.9414501954
 11
-138.6109545722
 21
32.9818659178
  0
LWPOLYLINE
  5
551
100
AcDbEntity
  8
0
100
AcDbPolyline
 62
7
  6
CONTINUOUS
 90
6
 70
0
 10
-138.6109545722
 20
32.9818659178
 10
-138.509123029
 20
33.0644413462
 10
-138.4571549672
 20
33.1056040857
 10
-138.4049282522
 20
33.1460170507
 10
-138.352541929
 20
33.1859550366
 10
-138.3001819465
 20
33.2253841391
  0
LINE
  5
552
100
AcDbEntity
  8
0
100
AcDbLine
 62
7
  6
CONTINUOUS
 10
-118.206284312
 20
-6.1783794095
 11
-120.3214175652
 21
-6.5640325522
  0
LINE
  5
553
100
AcDbEntity
  8
0
100
AcDbLine
 62
7
  6
CONTINUOUS
 10
-118.224221673
 20
-6.0800013072
 11
-118.7161122214
 21
-6.1696879194
  0
LINE
  5
554
100
AcDbEntity
  8
0
100
AcDbLine
 62
7
  6
CONTINUOUS
 10
-118.7161122214
 20
-6.1696879194
 11
-120.2153275449
 21
-6.3096441788
  0
LWPOLYLINE
  5
555
100
AcDbEntity
  8
0
100
AcDbPolyline
 62
7
  6
CONTINUOUS
 90
10
 70
0
 10
-172.0107254393
 20
-12.3430297856
 10
-172.0705017347
 20
-12.3438628525
 10
-172.1232178663
 20
-12.3468627694
 10
-172.168873834
 20
-12.35285204
 10
-172.2075350344
 20
-12.3629170832
 10
-172.239136071
 20
-12.3779721478
 10
-172.263480754
 20
-12.3981728448
 10
-172.2805036869
 20
-12.4236697995
 10
-172.2902702663
 20
-12.4551559148
 10
-172.2927804921
 20
-12.4930297856
  0
LINE
  5
556
100
AcDbEntity
  8
0
100
AcDbLine
 62
7
  6
CONTINUOUS
 10
-169.2927804921
 20
-12.3430297856
 11
-172.0107254393
 21
-12.3430297856
  0
LINE
  5
557
100
AcDbEntity
  8
0
100
AcDbLine
 62
7
  6
CONTINUOUS
 10
-161.800546745
 20
50.8089699965
 11
-162.0263624567
 21
54.6761831433
  0
LINE
  5
558
100
AcDbEntity
  8
0
100
AcDbLine
 62
7
  6
CONTINUOUS
 10
-161.0280421084
 20
54.7344774269
 11
-160.7764755854
 21
50.4262680575
  0
LWPOLYLINE
  5
559
100
AcDbEntity
  8
0
100
AcDbPolyline
 62
7
  6
CONTINUOUS
 90
16
 70
0
 10
-158.5927804921
 20
45.6566130803
 10
-158.593409416
 20
45.6674188035
 10
-158.5950738199
 20
45.6778512237
 10
-158.5977737038
 20
45.6879103409
 10
-158.601565646
 20
45.6976906125
 10
-158.6063930683
 20
45.707097581
 10
-158.6120862351
 20
45.7158478741
 10
-158.6186667013
 20
45.7239207931
 10
-158.6261129121
 20
45.7313370367
 10
-158.6341904676
 20
45.7378753286
 10
-158.6429199288
 20
45.7435119397
 10
-158.6522807347
 20
45.7482705991
 10
-158.6619768023
 20
45.752001219
 10
-158.6719094372
 20
45.75465377
 10
-158.6821773338
 20
45.7562782814
 10
-158.6927804921
 20
45.7568747532
  0
LINE
  5
55A
100
AcDbEntity
  8
0
100
AcDbLine
 62
253
  6
CONTINUOUS
 10
-158.6927804921
 20
45.5654446979
 11
-158.6927804921
 21
43.2788173866
  0
LINE
  5
55B
100
AcDbEntity
  8
0
100
AcDbLine
 62
253
  6
CONTINUOUS
 10
-158.6927804921
 20
42.2973111289
 11
-158.6927804921
 21
40.7570656765
  0
LINE
  5
55C
100
AcDbEntity
  8
0
100
AcDbLine
 62
7
  6
CONTINUOUS
 10
-158.5927804921
 20
45.6566130803
 11
-158.5927804921
 21
43.2983721245
  0
LINE
  5
55D
100
AcDbEntity
  8
0
100
AcDbLine
 62
7
  6
CONTINUOUS
 10
-158.5927804921
 20
43.2155683052
 11
-158.5927804921
 21
40.8573273494
  0
LINE
  5
55E
100
AcDbEntity
  8
0
100
AcDbLine
 62
253
  6
CONTINUOUS
 10
-158.3131955435
 20
18.3318018116
 11
-158.3147941932
 21
17.8348635063
  0
LWPOLYLINE
  5
55F
100
AcDbEntity
  8
0
100
AcDbPolyline
 62
253
  6
CONTINUOUS
 90
10
 70
0
 10
-154.4182524568
 20
28.1094859495
 10
-154.4225280798
 20
28.0089741118
 10
-154.4220725804
 20
27.9083347473
 10
-154.4168548444
 20
27.807818207
 10
-154.4069233536
 20
27.707969266
 10
-154.3922348623
 20
27.6087477809
 10
-154.372508947
 20
27.5095613975
 10
-154.3475266725
 20
27.4104347414
 10
-154.3172778885
 20
27.3119755387
 10
-154.2816892681
 20
27.2145185245
  0
LWPOLYLINE
  5
560
100
AcDbEntity
  8
0
100
AcDbPolyline
 62
7
  6
CONTINUOUS
 90
9
 70
0
 10
-153.082240696
 20
22.768650625
 10
-153.1106578385
 20
22.5678023511
 10
-153.1370521811
 20
22.3912766028
 10
-153.1607612114
 20
22.2397548401
 10
-153.1827000246
 20
22.113940902
 10
-153.1965223006
 20
22.0156336807
 10
-153.2001111083
 20
21.9454246293
 10
-153.195610188
 20
21.9028693306
 10
-153.1829985666
 20
21.8878527579
  0
LINE
  5
561
100
AcDbEntity
  8
0
100
AcDbLine
 62
253
  6
CONTINUOUS
 10
-121.1905200164
 20
-0.963906324
 11
-121.3371375503
 21
-0.9932919615
  0
LINE
  5
562
100
AcDbEntity
  8
0
100
AcDbLine
 62
7
  6
CONTINUOUS
 10
-124.4816359866
 20
-0.4123069697
 11
-126.6994610594
 21
-0.8166848495
  0
LINE
  5
563
100
AcDbEntity
  8
0
100
AcDbLine
 62
7
  6
CONTINUOUS
 10
-127.141891909
 20
-0.6749192349
 11
-124.2496570605
 21
-0.147575663
  0
LINE
  5
564
100
AcDbEntity
  8
0
100
AcDbLine
 62
7
  6
CONTINUOUS
 10
-169.2927804921
 20
-7.3430297856
 11
-172.0107254393
 21
-7.3430297856
  0
LWPOLYLINE
  5
565
100
AcDbEntity
  8
0
100
AcDbPolyline
 62
7
  6
CONTINUOUS
 90
10
 70
0
 10
-153.0704639218
 20
24.1620579567
 10
-153.0660662436
 20
24.1195615362
 10
-153.0619882923
 20
24.0772085724
 10
-153.0582312646
 20
24.0350056302
 10
-153.0548058382
 20
23.9929637572
 10
-153.0517037326
 20
23.9510850524
 10
-153.0488977924
 20
23.9093631225
 10
-153.0463798691
 20
23.8678007884
 10
-153.0441607364
 20
23.8264096272
 10
-153.0422417114
 20
23.785196861
  0
LWPOLYLINE
  5
566
100
AcDbEntity
  8
0
100
AcDbPolyline
 62
253
  6
CONTINUOUS
 90
13
 70
0
 10
-153.9836162718
 20
28.1887335245
 10
-153.9803468082
 20
28.125131554
 10
-153.9749526144
 20
28.060059612
 10
-153.9672866305
 20
27.9935953901
 10
-153.9572865598
 20
27.9264104258
 10
-153.9447605719
 20
27.8580133933
 10
-153.9291844533
 20
27.7867813361
 10
-153.910028711
 20
27.7121841644
 10
-153.8870879506
 20
27.6351201462
 10
-153.8601756722
 20
27.5561694928
 10
-153.8290468807
 20
27.4756938751
 10
-153.7933518785
 20
27.3938512471
 10
-153.7527972599
 20
27.3109518418
  0
LWPOLYLINE
  5
567
100
AcDbEntity
  8
0
100
AcDbPolyline
 62
253
  6
CONTINUOUS
 90
19
 70
0
 10
-152.6753307438
 20
44.0004718568
 10
-152.6880116742
 20
44.2832180759
 10
-152.7189742681
 20
44.5619690358
 10
-152.7682185256
 20
44.8367247364
 10
-152.8361480825
 20
45.1086733754
 10
-152.922359303
 20
45.3766267552
 10
-153.0256412793
 20
45.6370202829
 10
-153.14619223
 20
45.8897186652
 10
-153.2838139365
 20
46.1348571955
 10
-153.4367008353
 20
46.3692771603
 10
-153.6050357706
 20
46.5928502442
 10
-153.7886358982
 20
46.8057047628
 10
-153.985147122
 20
47.0050669487
 10
-154.1947083976
 20
47.1907689095
 10
-154.4171807694
 20
47.3629785377
 10
-154.6497932747
 20
47.5194257434
 10
-154.8916222592
 20
47.6593538298
 10
-155.1435913773
 20
47.7835194937
 10
-155.405700629
 20
47.891922735
  0
LWPOLYLINE
  5
568
100
AcDbEntity
  8
0
100
AcDbPolyline
 62
7
  6
CONTINUOUS
 90
4
 70
0
 10
-153.0422417114
 20
23.785196861
 10
-153.0421427793
 20
23.5010039156
 10
-153.0481506998
 20
23.2361702499
 10
-153.0604751485
 20
22.9918458373
  0
LINE
  5
569
100
AcDbEntity
  8
0
100
AcDbLine
 62
253
  6
CONTINUOUS
 10
-152.6753307438
 20
44.0004718568
 11
-152.6753307438
 21
43.9135982596
  0
LINE
  5
56A
100
AcDbEntity
  8
0
100
AcDbLine
 62
7
  6
CONTINUOUS
 10
-152.1927804921
 20
43.9124157926
 11
-152.1927804921
 21
44.0020000202
  0
LWPOLYLINE
  5
56B
100
AcDbEntity
  8
0
100
AcDbPolyline
 62
7
  6
CONTINUOUS
 90
4
 70
0
 10
-153.0422417114
 20
23.785196861
 10
-153.0424685917
 20
23.4969612235
 10
-153.0487887028
 20
23.2293409413
 10
-153.0613917748
 20
22.9833765965
  0
LWPOLYLINE
  5
56C
100
AcDbEntity
  8
0
100
AcDbPolyline
 62
253
  6
CONTINUOUS
 90
16
 70
0
 10
-153.983604955
 20
28.1887355879
 10
-153.9828912584
 20
28.353304805
 10
-153.9686723708
 20
28.5189734377
 10
-153.9405034775
 20
28.68448633
 10
-153.8980727429
 20
28.848428828
 10
-153.8411586583
 20
29.0094644089
 10
-153.7695780879
 20
29.1663188006
 10
-153.683566372
 20
29.3171034131
 10
-153.5831446959
 20
29.4605607587
 10
-153.4676903594
 20
29.5960318371
 10
-153.3369807027
 20
29.7220065914
 10
-153.191948944
 20
29.8359089134
 10
-153.0339053118
 20
29.9353524503
 10
-152.8642195859
 20
30.0184179672
 10
-152.6841773968
 20
30.0834830014
 10
-152.4954805216
 20
30.1289004269
  0
LINE
  5
56D
100
AcDbEntity
  8
0
100
AcDbLine
 62
7
  6
CONTINUOUS
 10
-153.0604751485
 20
22.9918458373
 11
-153.0830374057
 21
22.763019596
  0
LINE
  5
56E
100
AcDbEntity
  8
0
100
AcDbLine
 62
7
  6
CONTINUOUS
 10
-120.5374050156
 20
3.8192529909
 11
-121.9895427921
 21
3.4210864101
  0
LINE
  5
56F
100
AcDbEntity
  8
0
100
AcDbLine
 62
7
  6
CONTINUOUS
 10
-122.0730547408
 20
3.0428634988
 11
-121.9259576687
 21
3.072345247
  0
LINE
  5
570
100
AcDbEntity
  8
0
100
AcDbLine
 62
7
  6
CONTINUOUS
 10
-120.5374039348
 20
3.8192532872
 11
-120.0455135783
 21
3.9089398644
  0
LINE
  5
571
100
AcDbEntity
  8
0
100
AcDbLine
 62
7
  6
CONTINUOUS
 10
-122.1813345163
 20
3.6367265215
 11
-120.0661975838
 21
4.0223820404
  0
LWPOLYLINE
  5
572
100
AcDbEntity
  8
0
100
AcDbPolyline
 62
253
  6
CONTINUOUS
 90
13
 70
0
 10
-156.2583492971
 20
39.8025564698
 10
-156.2491652432
 20
39.7396826359
 10
-156.2404124099
 20
39.6778221631
 10
-156.2322330274
 20
39.6179795751
 10
-156.2247878216
 20
39.5613428002
 10
-156.2181637488
 20
39.5085864582
 10
-156.2124065999
 20
39.4600272292
 10
-156.2076240236
 20
39.4164354521
 10
-156.2039705137
 20
39.3790485094
 10
-156.2015595999
 20
39.3488789502
 10
-156.2004612229
 20
39.3266476944
 10
-156.2007178775
 20
39.3128721903
 10
-156.2023526401
 20
39.3079804743
  0
LINE
  5
573
100
AcDbEntity
  8
0
100
AcDbLine
 62
253
  6
CONTINUOUS
 10
-148.2583750209
 20
50.1798778812
 11
-148.2583713441
 21
49.6886040894
  0
LINE
  5
574
100
AcDbEntity
  8
0
100
AcDbLine
 62
7
  6
CONTINUOUS
 10
-147.8927804921
 20
50.1798778836
 11
-147.8927804921
 21
44.4798778836
  0
LINE
  5
575
100
AcDbEntity
  8
0
100
AcDbLine
 62
7
  6
CONTINUOUS
 10
-149.3547554928
 20
44.1583286345
 11
-149.2582241753
 21
49.68860411
  0
LINE
  5
576
100
AcDbEntity
  8
0
100
AcDbLine
 62
253
  6
CONTINUOUS
 10
-148.2583723738
 20
49.6886040894
 11
-148.3706722251
 21
43.2546447258
  0
LINE
  5
577
100
AcDbEntity
  8
0
100
AcDbLine
 62
7
  6
CONTINUOUS
 10
-147.7200321285
 20
47.5798778836
 11
-147.7741428298
 21
44.4798778836
  0
LINE
  5
578
100
AcDbEntity
  8
0
100
AcDbLine
 62
253
  6
CONTINUOUS
 10
-138.105922407
 20
34.6660882104
 11
-138.3933126907
 21
33.7082746456
  0
LINE
  5
579
100
AcDbEntity
  8
0
100
AcDbLine
 62
253
  6
CONTINUOUS
 10
-126.9676109675
 20
-1.6535435758
 11
-127.4100418171
 21
-1.5117779612
  0
LWPOLYLINE
  5
57A
100
AcDbEntity
  8
0
100
AcDbPolyline
 62
7
  6
CONTINUOUS
 90
16
 70
0
 10
-158.5927804921
 20
43.2155683052
 10
-158.593409416
 20
43.2176758212
 10
-158.5950738199
 20
43.2197105294
 10
-158.5977737038
 20
43.2216724296
 10
-158.601565646
 20
43.2235799446
 10
-158.6063930683
 20
43.2254146517
 10
-158.6120862351
 20
43.2271212828
 10
-158.6186667013
 20
43.2286958009
 10
-158.6261129121
 20
43.2301422429
 10
-158.6341904676
 20
43.2314174519
 10
-158.6429199288
 20
43.2325167997
 10
-158.6522807347
 20
43.2334449145
 10
-158.6619768023
 20
43.2341725235
 10
-158.6719094372
 20
43.2346898691
 10
-158.6821773338
 20
43.235006709
 10
-158.6927804921
 20
43.2351230431
  0
LWPOLYLINE
  5
57B
100
AcDbEntity
  8
0
100
AcDbPolyline
 62
7
  6
CONTINUOUS
 90
4
 70
0
 10
-153.1870171652
 20
24.8070375478
 10
-153.1426179488
 20
24.6072079689
 10
-153.1034940463
 20
24.390905693
 10
-153.0704639218
 20
24.1620579567
  0
LINE
  5
57C
100
AcDbEntity
  8
0
100
AcDbLine
 62
253
  6
CONTINUOUS
 10
-152.7206222949
 20
30.0878501411
 11
-153.0793695115
 21
32.0554121947
  0
LWPOLYLINE
  5
57D
100
AcDbEntity
  8
0
100
AcDbPolyline
 62
253
  6
CONTINUOUS
 90
13
 70
0
 10
-153.7527972176
 20
27.3109519138
 10
-153.7557204015
 20
27.3271245269
 10
-153.7538766444
 20
27.3456289352
 10
-153.7470859506
 20
27.366040058
 10
-153.7356351983
 20
27.3875397448
 10
-153.7200697662
 20
27.4096875746
 10
-153.7000479262
 20
27.4328781502
 10
-153.6755750378
 20
27.4566912859
 10
-153.6474035093
 20
27.4803747565
 10
-153.6155585189
 20
27.5038437393
 10
-153.5805964392
 20
27.5264275746
 10
-153.5437956339
 20
27.54726277
 10
-153.5063633109
 20
27.565779022
  0
LWPOLYLINE
  5
57E
100
AcDbEntity
  8
0
100
AcDbPolyline
 62
253
  6
CONTINUOUS
 90
13
 70
0
 10
-155.2474197656
 20
48.3600245518
 10
-155.2469024406
 20
48.355413028
 10
-155.2492751619
 20
48.343191716
 10
-155.2544628603
 20
48.3236560433
 10
-155.2622972598
 20
48.2973726972
 10
-155.2726397128
 20
48.2647631368
 10
-155.2855167937
 20
48.2257611516
 10
-155.3009103824
 20
48.1804804118
 10
-155.3185561039
 20
48.1297493511
 10
-155.3381257042
 20
48.074539803
 10
-155.3592793369
 20
48.015827802
 10
-155.3816981368
 20
47.9545145139
 10
-155.405000444
 20
47.8916610714
  0
LINE
  5
57F
100
AcDbEntity
  8
0
100
AcDbLine
 62
7
  6
CONTINUOUS
 10
-143.6614181544
 20
44.4798778836
 11
-143.7155288557
 21
47.5798778836
  0
LINE
  5
580
100
AcDbEntity
  8
0
100
AcDbLine
 62
7
  6
CONTINUOUS
 10
-142.1379839206
 20
41.9798778836
 11
-142.059066389
 21
37.4586955216
  0
LINE
  5
581
100
AcDbEntity
  8
0
100
AcDbLine
 62
7
  6
CONTINUOUS
 10
-143.5427804921
 20
38.8211905504
 11
-143.5427804921
 21
41.9798778836
  0
LINE
  5
582
100
AcDbEntity
  8
0
100
AcDbLine
 62
7
  6
CONTINUOUS
 10
-143.5427804921
 20
44.4798778836
 11
-143.5427804921
 21
50.1798778836
  0
LINE
  5
583
100
AcDbEntity
  8
0
100
AcDbLine
 62
7
  6
CONTINUOUS
 10
-142.0227804921
 20
47.0798778836
 11
-142.0227804921
 21
41.9798778836
  0
LINE
  5
584
100
AcDbEntity
  8
0
100
AcDbLine
 62
253
  6
CONTINUOUS
 10
-127.141891909
 20
-0.6749192349
 11
-126.6994610594
 21
-0.8166848495
  0
LINE
  5
585
100
AcDbEntity
  8
0
100
AcDbLine
 62
253
  6
CONTINUOUS
 10
-153.6385039431
 20
27.090545009
 11
-153.7527972599
 21
27.3109518418
  0
LINE
  5
586
100
AcDbEntity
  8
0
100
AcDbLine
 62
253
  6
CONTINUOUS
 10
-153.5225362821
 20
26.8647428932
 11
-153.6385039431
 21
27.090545009
  0
LINE
  5
587
100
AcDbEntity
  8
0
100
AcDbLine
 62
253
  6
CONTINUOUS
 10
-153.4050895288
 20
26.6339283392
 11
-153.5225362821
 21
26.8647428932
  0
LWPOLYLINE
  5
588
100
AcDbEntity
  8
0
100
AcDbPolyline
 62
253
  6
CONTINUOUS
 90
3
 70
0
 10
-153.2275616771
 20
26.2810838106
 10
-153.2869446908
 20
26.3996327257
 10
-153.4050895288
 20
26.6339283392
  0
LWPOLYLINE
  5
589
100
AcDbEntity
  8
0
100
AcDbPolyline
 62
253
  6
CONTINUOUS
 90
3
 70
0
 10
-153.5063633109
 20
27.565779022
 10
-153.4478514656
 20
27.4472971476
 10
-153.3888353643
 20
27.3270272608
  0
LINE
  5
58A
100
AcDbEntity
  8
0
100
AcDbLine
 62
7
  6
CONTINUOUS
 10
-154.6470953444
 20
27.6700213183
 11
-160.0940462813
 21
38.7300492545
  0
LINE
  5
58B
100
AcDbEntity
  8
0
100
AcDbLine
 62
253
  6
CONTINUOUS
 10
-159.9625852936
 20
38.7495717082
 11
-154.2816892681
 21
27.2145185245
  0
LINE
  5
58C
100
AcDbEntity
  8
0
100
AcDbLine
 62
253
  6
CONTINUOUS
 10
-159.6513943652
 20
38.7957847376
 11
-155.5717407703
 21
30.5120525629
  0
LWPOLYLINE
  5
58D
100
AcDbEntity
  8
0
100
AcDbPolyline
 62
253
  6
CONTINUOUS
 90
4
 70
0
 10
-153.3888353643
 20
27.3270272608
 10
-153.2693625187
 20
27.0817502845
 10
-153.2089622653
 20
26.9570530208
 10
-153.1482874478
 20
26.8311337084
  0
LWPOLYLINE
  5
58E
100
AcDbEntity
  8
0
100
AcDbPolyline
 62
253
  6
CONTINUOUS
 90
25
 70
0
 10
-154.2816892681
 20
27.2145185245
 10
-154.3555150752
 20
27.3675091934
 10
-154.4281863005
 20
27.5203236579
 10
-154.4997034005
 20
27.6729616932
 10
-154.5705053286
 20
27.8263506402
 10
-154.6401556588
 20
27.9795619133
 10
-154.7073773598
 20
28.1297938746
 10
-154.7714731219
 20
28.2753311702
 10
-154.833242739
 20
28.4178386816
 10
-154.8936380682
 20
28.5595933812
 10
-154.9531531842
 20
28.7017781852
 10
-155.0112809207
 20
28.8432166249
 10
-155.0674294608
 20
28.9826671862
 10
-155.1214661256
 20
29.1197322329
 10
-155.1735556204
 20
29.2547936286
 10
-155.223542757
 20
29.3877837623
 10
-155.2711340225
 20
29.517609073
 10
-155.3166627227
 20
29.645343524
 10
-155.3608223593
 20
29.7742158732
 10
-155.4047727268
 20
29.9077768686
 10
-155.4472683516
 20
30.0425179582
 10
-155.485395602
 20
30.1710785701
 10
-155.5182665398
 20
30.2909641696
 10
-155.5469690724
 20
30.4045708087
 10
-155.5716333276
 20
30.5118344007
  0
LWPOLYLINE
  5
58F
100
AcDbEntity
  8
0
100
AcDbPolyline
 62
253
  6
CONTINUOUS
 90
3
 70
0
 10
-153.1482874478
 20
26.8311337084
 10
-153.0263076479
 20
26.5762278177
 10
-152.9650222369
 20
26.4475798427
  0
LWPOLYLINE
  5
590
100
AcDbEntity
  8
0
100
AcDbPolyline
 62
253
  6
CONTINUOUS
 90
10
 70
0
 10
-152.9650222369
 20
26.4475798427
 10
-152.9424349708
 20
26.3994888042
 10
-152.9202850448
 20
26.3512848519
 10
-152.8985740193
 20
26.3029765441
 10
-152.8773034612
 20
26.2545686159
 10
-152.8564749093
 20
26.206073365
 10
-152.8360898784
 20
26.157510678
 10
-152.8161499016
 20
26.1088928218
 10
-152.7966565246
 20
26.0602244149
 10
-152.7776112745
 20
26.0115138328
  0
LWPOLYLINE
  5
591
100
AcDbEntity
  8
0
100
AcDbPolyline
 62
253
  6
CONTINUOUS
 90
10
 70
0
 10
-153.0554380173
 20
25.8994166128
 10
-153.0730581116
 20
25.9425280262
 10
-153.0910608392
 20
25.9854770209
 10
-153.1094445884
 20
26.0282599893
 10
-153.1282108382
 20
26.0708804242
 10
-153.1473548969
 20
26.1133276163
 10
-153.1668653207
 20
26.1555769166
 10
-153.1867365387
 20
26.1976180269
 10
-153.2069694344
 20
26.2394547378
 10
-153.2275616777
 20
26.2810838103
  0
LINE
  5
592
100
AcDbEntity
  8
0
100
AcDbLine
 62
7
  6
CONTINUOUS
 10
-124.6805059724
 20
-4.3251690593
 11
-127.4100418171
 21
-1.5117779612
  0
LWPOLYLINE
  5
593
100
AcDbEntity
  8
0
100
AcDbPolyline
 62
7
  6
CONTINUOUS
 90
9
 70
0
 10
-153.651562564
 20
25.8444870151
 10
-153.6610180008
 20
25.8554349179
 10
-153.6718737834
 20
25.8694259825
 10
-153.684067641
 20
25.8863810043
 10
-153.6976392486
 20
25.9062552605
 10
-153.7127396155
 20
25.9290900046
 10
-153.7294196809
 20
25.9549022924
 10
-153.747620955
 20
25.9836336558
 10
-153.767337198
 20
26.0152498732
  0
LINE
  5
594
100
AcDbEntity
  8
0
100
AcDbLine
 62
7
  6
CONTINUOUS
 10
-121.011848532
 20
-12.6762752003
 11
-121.4846384858
 21
-12.107004035
  0
LINE
  5
595
100
AcDbEntity
  8
0
100
AcDbLine
 62
7
  6
CONTINUOUS
 10
-145.8779111193
 20
33.3684600594
 11
-145.5191639028
 21
31.4008980058
  0
LINE
  5
596
100
AcDbEntity
  8
0
100
AcDbLine
 62
7
  6
CONTINUOUS
 10
-132.0628310915
 20
35.3798778836
 11
-131.947627663
 21
41.9798778836
  0
LWPOLYLINE
  5
597
100
AcDbEntity
  8
0
100
AcDbPolyline
 62
7
  6
CONTINUOUS
 90
13
 70
0
 10
-153.651562564
 20
25.8444870151
 10
-153.608099863
 20
25.8017804303
 10
-153.5671209423
 20
25.7443329843
 10
-153.5207805609
 20
25.665390878
 10
-153.4677288392
 20
25.5665171146
 10
-153.409772931
 20
25.4486566289
 10
-153.3518504122
 20
25.311990339
 10
-153.2941887935
 20
25.1576944906
 10
-153.2370373001
 20
24.9872075137
 10
-153.1853590788
 20
24.8010652056
 10
-153.1409821065
 20
24.6003982511
 10
-153.1025966404
 20
24.3869182389
 10
-153.0704639218
 20
24.1620579567
  0
LINE
  5
598
100
AcDbEntity
  8
0
100
AcDbLine
 62
7
  6
CONTINUOUS
 10
-126.9676109675
 20
-1.6535435758
 11
-124.8745468318
 21
-3.8109096419
  0
LINE
  5
599
100
AcDbEntity
  8
0
100
AcDbLine
 62
7
  6
CONTINUOUS
 10
-120.7136999349
 20
-11.466725686
 11
-120.6354651715
 21
-11.5609256464
  0
LINE
  5
59A
100
AcDbEntity
  8
0
100
AcDbLine
 62
7
  6
CONTINUOUS
 10
-120.3191447445
 20
-11.9417968909
 11
-120.2409099811
 21
-12.0359968513
  0
LINE
  5
59B
100
AcDbEntity
  8
0
100
AcDbLine
 62
7
  6
CONTINUOUS
 10
-119.4205930394
 20
-12.8236046178
 11
-120.1137968692
 21
-11.9889401992
  0
LINE
  5
59C
100
AcDbEntity
  8
0
100
AcDbLine
 62
7
  6
CONTINUOUS
 10
-120.6441052385
 20
-11.3504129611
 11
-121.3373090682
 21
-10.5157485424
  0
LINE
  5
59D
100
AcDbEntity
  8
0
100
AcDbLine
 62
7
  6
CONTINUOUS
 10
-120.768037903
 20
-10.0429585887
 11
-120.0748340732
 21
-10.8776230074
  0
LINE
  5
59E
100
AcDbEntity
  8
0
100
AcDbLine
 62
7
  6
CONTINUOUS
 10
-119.5445257039
 20
-11.5161502454
 11
-118.8513218741
 21
-12.3508146641
  0
LINE
  5
59F
100
AcDbEntity
  8
0
100
AcDbLine
 62
7
  6
CONTINUOUS
 10
-119.4749310075
 20
-11.3998375205
 11
-119.5531657709
 21
-11.3056375601
  0
LINE
  5
5A0
100
AcDbEntity
  8
0
100
AcDbLine
 62
7
  6
CONTINUOUS
 10
-119.8694861979
 20
-10.9247663156
 11
-119.9477209612
 21
-10.8305663552
  0
LINE
  5
5A1
100
AcDbEntity
  8
0
100
AcDbLine
 62
7
  6
CONTINUOUS
 10
-119.1767824104
 20
-10.1902880062
 11
-118.7039924566
 21
-10.7595591715
  0
LINE
  5
5A2
100
AcDbEntity
  8
0
100
AcDbLine
 62
253
  6
CONTINUOUS
 10
-138.3001819465
 20
33.2253841391
 11
-138.2104951423
 21
32.7334936257
  0
LINE
  5
5A3
100
AcDbEntity
  8
0
100
AcDbLine
 62
7
  6
CONTINUOUS
 10
-132.0628310915
 20
41.9798778836
 11
-132.0628310915
 21
47.0798778836
  0
LINE
  5
5A4
100
AcDbEntity
  8
0
100
AcDbLine
 62
253
  6
CONTINUOUS
 10
-131.5229708664
 20
33.5798778836
 11
-131.5229708664
 21
30.5798778836
  0
LINE
  5
5A5
100
AcDbEntity
  8
0
100
AcDbLine
 62
253
  6
CONTINUOUS
 10
-131.0628381663
 20
41.9798778836
 11
-131.0628381663
 21
44.479877887
  0
LINE
  5
5A6
100
AcDbEntity
  8
0
100
AcDbLine
 62
7
  6
CONTINUOUS
 10
-130.5427804921
 20
50.1798778836
 11
-130.5427804921
 21
44.4798778836
  0
LINE
  5
5A7
100
AcDbEntity
  8
0
100
AcDbLine
 62
7
  6
CONTINUOUS
 10
-130.5427804921
 20
41.9798778836
 11
-130.5427804921
 21
33.5798778836
  0
LINE
  5
5A8
100
AcDbEntity
  8
0
100
AcDbLine
 62
7
  6
CONTINUOUS
 10
-128.7246327614
 20
47.5798778836
 11
-128.7246327614
 21
47.6798778836
  0
LINE
  5
5A9
100
AcDbEntity
  8
0
100
AcDbLine
 62
7
  6
CONTINUOUS
 10
-130.3700321285
 20
47.5798778836
 11
-130.4241428298
 21
44.4798778836
  0
LINE
  5
5AA
100
AcDbEntity
  8
0
100
AcDbLine
 62
7
  6
CONTINUOUS
 10
-153.9707275495
 20
29.3153367807
 11
-155.571638512
 21
30.5118382754
  0
LINE
  5
5AB
100
AcDbEntity
  8
0
100
AcDbLine
 62
253
  6
CONTINUOUS
 10
-124.6805059724
 20
-4.3251690593
 11
-124.8745468318
 21
-3.8109096419
  0
LINE
  5
5AC
100
AcDbEntity
  8
0
100
AcDbLine
 62
253
  6
CONTINUOUS
 10
-124.0195437113
 20
-3.4882990399
 11
-123.825502852
 21
-4.0025584574
  0
LINE
  5
5AD
100
AcDbEntity
  8
0
100
AcDbLine
 62
7
  6
CONTINUOUS
 10
-134.5453560539
 20
18.7643578091
 11
-137.1283360129
 21
32.9308045948
  0
LINE
  5
5AE
100
AcDbEntity
  8
0
100
AcDbLine
 62
7
  6
CONTINUOUS
 10
-126.3114181544
 20
44.4798778836
 11
-126.3655288557
 21
47.5798778836
  0
LINE
  5
5AF
100
AcDbEntity
  8
0
100
AcDbLine
 62
253
  6
CONTINUOUS
 10
-125.6926421503
 20
41.9798778836
 11
-125.8272101988
 21
49.6886040617
  0
LINE
  5
5B0
100
AcDbEntity
  8
0
100
AcDbLine
 62
7
  6
CONTINUOUS
 10
-124.8273368085
 20
49.6886040881
 11
-124.6927804921
 21
41.9798778836
  0
LINE
  5
5B1
100
AcDbEntity
  8
0
100
AcDbLine
 62
7
  6
CONTINUOUS
 10
-127.5927804921
 20
30.5798778836
 11
-127.5927804921
 21
33.5798778836
  0
LINE
  5
5B2
100
AcDbEntity
  8
0
100
AcDbLine
 62
7
  6
CONTINUOUS
 10
-126.1927804921
 20
34.3798778836
 11
-126.1927804921
 21
41.9798778836
  0
LINE
  5
5B3
100
AcDbEntity
  8
0
100
AcDbLine
 62
7
  6
CONTINUOUS
 10
-126.1927804921
 20
44.4798778836
 11
-126.1927804921
 21
50.1798778836
  0
LINE
  5
5B4
100
AcDbEntity
  8
0
100
AcDbLine
 62
253
  6
CONTINUOUS
 10
-125.8272102994
 20
49.6886040617
 11
-125.8272101985
 21
50.1798778836
  0
LINE
  5
5B5
100
AcDbEntity
  8
0
100
AcDbLine
 62
253
  6
CONTINUOUS
 10
-125.8167074765
 20
34.8711516804
 11
-125.8167074765
 21
34.3798778836
  0
LINE
  5
5B6
100
AcDbEntity
  8
0
100
AcDbLine
 62
7
  6
CONTINUOUS
 10
-123.6427804921
 20
43.1798778836
 11
-123.6427804921
 21
35.7798778836
  0
LINE
  5
5B7
100
AcDbEntity
  8
0
100
AcDbLine
 62
253
  6
CONTINUOUS
 10
-125.8167074765
 20
34.8711516804
 11
-125.6926438776
 21
41.9798778836
  0
LINE
  5
5B8
100
AcDbEntity
  8
0
100
AcDbLine
 62
7
  6
CONTINUOUS
 10
-124.6927804921
 20
41.9798778836
 11
-124.8168637696
 21
34.8711516787
  0
LINE
  5
5B9
100
AcDbEntity
  8
0
100
AcDbLine
 62
7
  6
CONTINUOUS
 10
-124.0195437113
 20
-3.4882990399
 11
-123.8947827742
 21
-0.926555094
  0
LINE
  5
5BA
100
AcDbEntity
  8
0
100
AcDbLine
 62
253
  6
CONTINUOUS
 10
-124.4816359866
 20
-0.4123069697
 11
-124.2496570605
 21
-0.147575663
  0
LINE
  5
5BB
100
AcDbEntity
  8
0
100
AcDbLine
 62
253
  6
CONTINUOUS
 10
-123.6628038482
 20
-0.6618237873
 11
-123.8947827742
 21
-0.926555094
  0
LINE
  5
5BC
100
AcDbEntity
  8
0
100
AcDbLine
 62
253
  6
CONTINUOUS
 10
-136.4108415798
 20
28.9956804876
 11
-152.7776112745
 21
26.0115138328
  0
LWPOLYLINE
  5
5BD
100
AcDbEntity
  8
0
100
AcDbPolyline
 62
7
  6
CONTINUOUS
 90
10
 70
0
 10
-138.0777784964
 20
33.4271263442
 10
-138.0987360414
 20
33.4700291127
 10
-138.123977657
 20
33.511158697
 10
-138.1532513547
 20
33.5498845799
 10
-138.185992436
 20
33.5854411581
 10
-138.2218789072
 20
33.6175608054
 10
-138.2610278204
 20
33.6463031494
 10
-138.3031669259
 20
33.6713163109
 10
-138.347483202
 20
33.6920561108
 10
-138.3933126907
 20
33.7082746456
  0
LWPOLYLINE
  5
5BE
100
AcDbEntity
  8
0
100
AcDbPolyline
 62
7
  6
CONTINUOUS
 90
13
 70
0
 10
-137.1593198241
 20
33.8226433061
 10
-137.2057311298
 20
33.9205280043
 10
-137.2593137786
 20
34.0151782121
 10
-137.3196936083
 20
34.1058072959
 10
-137.3860799047
 20
34.1913267526
 10
-137.4581365109
 20
34.2714986953
 10
-137.536265654
 20
34.3467375836
 10
-137.6201146105
 20
34.4165101544
 10
-137.7088974219
 20
34.4800609302
 10
-137.8025533806
 20
34.5372580184
 10
-137.9005885121
 20
34.5876647559
 10
-138.0019956934
 20
34.6307107945
 10
-138.105922407
 20
34.6660882104
  0
LINE
  5
5BF
100
AcDbEntity
  8
0
100
AcDbLine
 62
7
  6
CONTINUOUS
 10
-138.0777784964
 20
33.4271263442
 11
-137.8104862414
 21
32.8064275794
  0
LINE
  5
5C0
100
AcDbEntity
  8
0
100
AcDbLine
 62
7
  6
CONTINUOUS
 10
-137.1593198241
 20
33.8226433061
 11
-136.0814007725
 21
31.3195291635
  0
LINE
  5
5C1
100
AcDbEntity
  8
0
100
AcDbLine
 62
7
  6
CONTINUOUS
 10
-123.6628038482
 20
-0.6618237873
 11
-123.825502852
 21
-4.0025584574
  0
LINE
  5
5C2
100
AcDbEntity
  8
0
100
AcDbLine
 62
253
  6
CONTINUOUS
 10
-152.4954805216
 20
30.1289004269
 11
-152.6802256004
 21
30.0817596951
  0
LWPOLYLINE
  5
5C3
100
AcDbEntity
  8
0
100
AcDbPolyline
 62
7
  6
CONTINUOUS
 90
14
 70
0
 10
-139.184342873
 20
32.5559311635
 10
-139.1698897498
 20
32.5594594585
 10
-139.1537454656
 20
32.5653695168
 10
-139.1357957705
 20
32.5736821695
 10
-139.1159033654
 20
32.5844146965
 10
-139.0939867411
 20
32.5975897136
 10
-139.0700421583
 20
32.613231165
 10
-139.0440472183
 20
32.6313653785
 10
-139.0158965825
 20
32.6519893168
 10
-138.985487224
 20
32.675078296
 10
-138.9527465417
 20
32.7007097129
 10
-138.91766292
 20
32.728821526
 10
-138.8802473854
 20
32.7591757771
 10
-138.8404451946
 20
32.7918998817
  0
LWPOLYLINE
  5
5C4
100
AcDbEntity
  8
0
100
AcDbPolyline
 62
253
  6
CONTINUOUS
 90
10
 70
0
 10
-152.7206222949
 20
30.0878501411
 10
-152.8842202457
 20
30.0509375029
 10
-153.043974834
 20
30.0006416468
 10
-153.1987972487
 20
29.9373589592
 10
-153.3475513014
 20
29.8616254363
 10
-153.4893338111
 20
29.7739722593
 10
-153.6234340778
 20
29.6748452148
 10
-153.7489865367
 20
29.5648299119
 10
-153.8650245885
 20
29.4447235619
 10
-153.9707275494
 20
29.3153367806
  0
LWPOLYLINE
  5
5C5
100
AcDbEntity
  8
0
100
AcDbPolyline
 62
253
  6
CONTINUOUS
 90
6
 70
0
 10
-124.8168637683
 20
34.8711517552
 10
-124.8206942308
 20
34.870392459
 10
-124.8321224158
 20
34.8697010956
 10
-124.8510495568
 20
34.8690874394
 10
-124.8773171153
 20
34.8685629494
 10
-124.9107155726
 20
34.8681320101
  0
LINE
  5
5C6
100
AcDbEntity
  8
0
100
AcDbLine
 62
253
  6
CONTINUOUS
 10
-153.7527972599
 20
27.3109518418
 11
-154.2816892681
 21
27.2145185245
  0
LINE
  5
5C7
100
AcDbEntity
  8
0
100
AcDbLine
 62
7
  6
CONTINUOUS
 10
-137.1283360129
 20
32.9308045948
 11
-152.7206222949
 21
30.0878501411
  0
LINE
  5
5C8
100
AcDbEntity
  8
0
100
AcDbLine
 62
253
  6
CONTINUOUS
 10
-172.7927804921
 20
27.6569702144
 11
-172.2927804921
 21
27.6569702144
  0
LINE
  5
5C9
100
AcDbEntity
  8
0
100
AcDbLine
 62
7
  6
CONTINUOUS
 10
-127.5927804921
 20
30.5798778836
 11
-136.6996896013
 21
30.5798778836
  0
LINE
  5
5CA
100
AcDbEntity
  8
0
100
AcDbLine
 62
7
  6
CONTINUOUS
 10
-156.0801700199
 20
30.5798778836
 11
-167.5927804921
 21
30.5798778836
  0
LINE
  5
5CB
100
AcDbEntity
  8
0
100
AcDbLine
 62
7
  6
CONTINUOUS
 10
-161.5140483046
 20
35.4851948368
 11
-158.0722225639
 21
34.6247384016
  0
LINE
  5
5CC
100
AcDbEntity
  8
0
100
AcDbLine
 62
253
  6
CONTINUOUS
 10
-138.0551622589
 20
33.3746075358
 11
-138.4307464305
 21
33.7195065737
  0
LINE
  5
5CD
100
AcDbEntity
  8
0
100
AcDbLine
 62
253
  6
CONTINUOUS
 10
-140.1194502594
 20
35.2702437185
 11
-153.4630964424
 21
47.5237173167
  0
LINE
  5
5CE
100
AcDbEntity
  8
0
100
AcDbLine
 62
7
  6
CONTINUOUS
 10
-139.460654442
 20
35.0725731865
 11
-153.2601829858
 21
47.7446836696
  0
LINE
  5
5CF
100
AcDbEntity
  8
0
100
AcDbLine
 62
7
  6
CONTINUOUS
 10
-120.3214175652
 20
-6.5640325522
 11
-122.1813345163
 21
3.6367265215
  0
LINE
  5
5D0
100
AcDbEntity
  8
0
100
AcDbLine
 62
7
  6
CONTINUOUS
 10
-122.033767676
 20
3.6636325055
 11
-120.1738499691
 21
-6.5371264898
  0
LINE
  5
5D1
100
AcDbEntity
  8
0
100
AcDbLine
 62
7
  6
CONTINUOUS
 10
-119.2873143313
 20
-6.2230113542
 11
-119.2604083302
 21
-6.3705782886
  0
LINE
  5
5D2
100
AcDbEntity
  8
0
100
AcDbLine
 62
7
  6
CONTINUOUS
 10
-121.1203217905
 20
3.8301822771
 11
-121.0906692682
 21
3.6675515894
  0
LINE
  5
5D3
100
AcDbEntity
  8
0
100
AcDbLine
 62
7
  6
CONTINUOUS
 10
-116.2455495858
 20
-16.9320997635
 11
-120.6594404993
 21
7.2760442161
  0
LINE
  5
5D4
100
AcDbEntity
  8
0
100
AcDbLine
 62
7
  6
CONTINUOUS
 10
-121.3373090682
 20
-10.5157485424
 11
-120.768037903
 21
-10.0429585887
  0
LINE
  5
5D5
100
AcDbEntity
  8
0
100
AcDbLine
 62
7
  6
CONTINUOUS
 10
-120.127759554
 20
-10.8138971395
 11
-120.2219595144
 21
-10.8921319029
  0
LINE
  5
5D6
100
AcDbEntity
  8
0
100
AcDbLine
 62
7
  6
CONTINUOUS
 10
-120.6028307589
 20
-11.2084523299
 11
-120.6970307193
 21
-11.2866870933
  0
LINE
  5
5D7
100
AcDbEntity
  8
0
100
AcDbLine
 62
7
  6
CONTINUOUS
 10
-121.4846384858
 20
-12.107004035
 11
-120.6499740671
 21
-11.4138002053
  0
LINE
  5
5D8
100
AcDbEntity
  8
0
100
AcDbLine
 62
7
  6
CONTINUOUS
 10
-120.0114468291
 20
-10.883491836
 11
-119.1767824104
 21
-10.1902880062
  0
LINE
  5
5D9
100
AcDbEntity
  8
0
100
AcDbLine
 62
7
  6
CONTINUOUS
 10
-118.7039924566
 20
-10.7595591715
 11
-119.5386568753
 21
-11.4527630012
  0
LINE
  5
5DA
100
AcDbEntity
  8
0
100
AcDbLine
 62
7
  6
CONTINUOUS
 10
-120.1771841133
 20
-11.9830713705
 11
-121.011848532
 21
-12.6762752003
  0
LINE
  5
5DB
100
AcDbEntity
  8
0
100
AcDbLine
 62
7
  6
CONTINUOUS
 10
-120.0608713884
 20
-12.052666067
 11
-119.966671428
 21
-11.9744313036
  0
LINE
  5
5DC
100
AcDbEntity
  8
0
100
AcDbLine
 62
7
  6
CONTINUOUS
 10
-119.5858001835
 20
-11.6581108766
 11
-119.4916002231
 21
-11.5798761132
  0
LINE
  5
5DD
100
AcDbEntity
  8
0
100
AcDbLine
 62
7
  6
CONTINUOUS
 10
-118.8513218741
 20
-12.3508146641
 11
-119.4205930394
 21
-12.8236046178
  0
LINE
  5
5DE
100
AcDbEntity
  8
0
100
AcDbLine
 62
253
  6
CONTINUOUS
 10
-153.0773387692
 20
32.0557824616
 11
-145.8779111193
 21
33.3684600594
  0
LINE
  5
5DF
100
AcDbEntity
  8
0
100
AcDbLine
 62
253
  6
CONTINUOUS
 10
-124.9107155726
 20
34.8681320101
 11
-124.9978399428
 21
34.8675459991
  0
LINE
  5
5E0
100
AcDbEntity
  8
0
100
AcDbLine
 62
253
  6
CONTINUOUS
 10
-124.9978399428
 20
34.8675459991
 11
-125.109766252
 21
34.8673505939
  0
LINE
  5
5E1
100
AcDbEntity
  8
0
100
AcDbLine
 62
7
  6
CONTINUOUS
 10
-167.5927804921
 20
33.5798778836
 11
-157.5576394173
 21
33.5798778836
  0
LINE
  5
5E2
100
AcDbEntity
  8
0
100
AcDbLine
 62
7
  6
CONTINUOUS
 10
-137.0547774584
 20
33.5798778836
 11
-127.5927804921
 21
33.5798778836
  0
LINE
  5
5E3
100
AcDbEntity
  8
0
100
AcDbLine
 62
253
  6
CONTINUOUS
 10
-130.5427804921
 20
34.0711516804
 11
-137.2966049917
 21
34.0711516804
  0
LINE
  5
5E4
100
AcDbEntity
  8
0
100
AcDbLine
 62
7
  6
CONTINUOUS
 10
-130.5427804921
 20
34.3798778836
 11
-125.3167876108
 21
34.3798778836
  0
LINE
  5
5E5
100
AcDbEntity
  8
0
100
AcDbLine
 62
253
  6
CONTINUOUS
 10
-125.8167074765
 20
34.8711516804
 11
-126.1927804921
 21
34.8711516804
  0
LINE
  5
5E6
100
AcDbEntity
  8
0
100
AcDbLine
 62
7
  6
CONTINUOUS
 10
-139.7952995625
 20
35.3798778836
 11
-132.0628310915
 21
35.3798778836
  0
LINE
  5
5E7
100
AcDbEntity
  8
0
100
AcDbLine
 62
7
  6
CONTINUOUS
 10
-172.2927804921
 20
35.6569702144
 11
-172.7927804921
 21
35.6569702144
  0
LINE
  5
5E8
100
AcDbEntity
  8
0
100
AcDbLine
 62
7
  6
CONTINUOUS
 10
-124.8010018947
 20
35.7798778836
 11
-123.6427804921
 21
35.7798778836
  0
LWPOLYLINE
  5
5E9
100
AcDbEntity
  8
0
100
AcDbPolyline
 62
253
  6
CONTINUOUS
 90
22
 70
0
 10
-167.5927804921
 20
34.5798631731
 10
-166.9100943001
 20
34.5780730953
 10
-166.2518309214
 20
34.57458042
 10
-165.6179903559
 20
34.5693851473
 10
-165.0086499291
 20
34.5623096126
 10
-164.4237323156
 20
34.5535314805
 10
-163.8630055391
 20
34.543583744
 10
-163.3270793777
 20
34.5325214831
 10
-162.8153440532
 20
34.5202896179
 10
-162.3257382552
 20
34.507255902
 10
-161.8585457028
 20
34.4934513491
 10
-161.4134826768
 20
34.4788449455
 10
-160.9876367088
 20
34.4637114036
 10
-160.5814718515
 20
34.448112583
 10
-160.1945240521
 20
34.4319866241
 10
-159.8224886836
 20
34.4154226611
 10
-159.4644740015
 20
34.39841339
 10
-159.1213717504
 20
34.3809661148
 10
-158.7915525367
 20
34.3631918811
 10
-158.4751763436
 20
34.345122266
 10
-158.172083188
 20
34.3267256925
 10
-157.9174169603
 20
34.3104057922
  0
LINE
  5
5EA
100
AcDbEntity
  8
0
100
AcDbLine
 62
253
  6
CONTINUOUS
 10
-125.109766252
 20
34.8673505939
 11
-125.3166166175
 21
34.8677921118
  0
LINE
  5
5EB
100
AcDbEntity
  8
0
100
AcDbLine
 62
253
  6
CONTINUOUS
 10
-125.3166166175
 20
34.8677921118
 11
-125.5576442733
 21
34.8690875194
  0
LINE
  5
5EC
100
AcDbEntity
  8
0
100
AcDbLine
 62
253
  6
CONTINUOUS
 10
-125.5576442733
 20
34.8690875194
 11
-125.816717314
 21
34.8711517822
  0
LINE
  5
5ED
100
AcDbEntity
  8
0
100
AcDbLine
 62
253
  6
CONTINUOUS
 10
-145.8779111193
 20
33.3684600594
 11
-138.3001819465
 21
33.2253841391
  0
LINE
  5
5EE
100
AcDbEntity
  8
0
100
AcDbLine
 62
7
  6
CONTINUOUS
 10
-156.7733779457
 20
39.2231810575
 11
-138.3933126907
 21
33.7082746456
  0
LINE
  5
5EF
100
AcDbEntity
  8
0
100
AcDbLine
 62
7
  6
CONTINUOUS
 10
-154.8971558858
 20
39.7042684285
 11
-138.105922407
 21
34.6660882104
  0
LINE
  5
5F0
100
AcDbEntity
  8
0
100
AcDbLine
 62
7
  6
CONTINUOUS
 10
-161.5927804921
 20
38.2997342877
 11
-160.5014729996
 21
38.4921612429
  0
LINE
  5
5F1
100
AcDbEntity
  8
0
100
AcDbLine
 62
7
  6
CONTINUOUS
 10
-156.2023526401
 20
39.3079804743
 11
-161.5927804921
 21
38.5074815576
  0
LINE
  5
5F2
100
AcDbEntity
  8
0
100
AcDbLine
 62
253
  6
CONTINUOUS
 10
-161.5927804921
 20
39.0103734809
 11
-156.2598609447
 21
39.802331772
  0
LINE
  5
5F3
100
AcDbEntity
  8
0
100
AcDbLine
 62
7
  6
CONTINUOUS
 10
-162.0753307438
 20
36.1498814972
 11
-167.5927804921
 21
35.9572079064
  0
LINE
  5
5F4
100
AcDbEntity
  8
0
100
AcDbLine
 62
253
  6
CONTINUOUS
 10
-167.5927804921
 20
36.9565987334
 11
-162.0753307438
 21
37.1492723242
  0
LINE
  5
5F5
100
AcDbEntity
  8
0
100
AcDbLine
 62
253
  6
CONTINUOUS
 10
-124.7835466087
 20
36.7798905451
 11
-123.6427804921
 21
36.7798905451
  0
LINE
  5
5F6
100
AcDbEntity
  8
0
100
AcDbLine
 62
253
  6
CONTINUOUS
 10
-161.5927804921
 20
37.1492723242
 11
-162.0753307438
 21
37.1492723242
  0
LINE
  5
5F7
100
AcDbEntity
  8
0
100
AcDbLine
 62
7
  6
CONTINUOUS
 10
-172.7927804921
 20
39.8569702148
 11
-167.5927804921
 21
39.8569702148
  0
LINE
  5
5F8
100
AcDbEntity
  8
0
100
AcDbLine
 62
7
  6
CONTINUOUS
 10
-160.4927804921
 20
40.0569702148
 11
-159.6927804921
 21
40.0569702148
  0
LINE
  5
5F9
100
AcDbEntity
  8
0
100
AcDbLine
 62
7
  6
CONTINUOUS
 10
-161.2927804921
 20
40.6069702148
 11
-160.8927804921
 21
40.6069702148
  0
LINE
  5
5FA
100
AcDbEntity
  8
0
100
AcDbLine
 62
7
  6
CONTINUOUS
 10
-159.5927804921
 20
40.7569702148
 11
-158.6927804921
 21
40.7570656765
  0
LINE
  5
5FB
100
AcDbEntity
  8
0
100
AcDbLine
 62
253
  6
CONTINUOUS
 10
-167.5927804921
 20
40.8569702148
 11
-172.7927804921
 21
40.8569702148
  0
LINE
  5
5FC
100
AcDbEntity
  8
0
100
AcDbLine
 62
7
  6
CONTINUOUS
 10
-117.2108384912
 20
-18.3278853302
 11
-116.2455495858
 21
-16.9320997635
  0
LWPOLYLINE
  5
5FD
100
AcDbEntity
  8
0
100
AcDbPolyline
 62
253
  6
CONTINUOUS
 90
22
 70
0
 10
-156.2598609447
 20
39.802331772
 10
-155.9777894483
 20
39.8543744471
 10
-155.7027496815
 20
39.9241422217
 10
-155.4347416442
 20
40.0116350956
 10
-155.1727425583
 20
40.1174275542
 10
-154.9177752019
 20
40.2409451123
 10
-154.6729079093
 20
40.3804643136
 10
-154.4382145038
 20
40.5361737274
 10
-154.2136211621
 20
40.7078847844
 10
-154.0019747483
 20
40.8933083213
 10
-153.80342647
 20
41.0925967989
 10
-153.6178251196
 20
41.3055977564
 10
-153.4475639383
 20
41.5295646475
 10
-153.2928144731
 20
41.7646265912
 10
-153.153405177
 20
42.0106544687
 10
-153.0312146501
 20
42.2645143772
 10
-152.9264280589
 20
42.5263572534
 10
-152.838860237
 20
42.7960321606
 10
-152.7698342845
 20
43.0699523861
 10
-152.7197912348
 20
43.346922359
 10
-152.6882900546
 20
43.6281376502
 10
-152.6753307438
 20
43.9135982596
  0
LWPOLYLINE
  5
5FE
100
AcDbEntity
  8
0
100
AcDbPolyline
 62
253
  6
CONTINUOUS
 90
3
 70
0
 10
-152.1927804921
 20
44.0020000162
 10
-152.1952055001
 20
44.001875356
 10
-152.2024660063
 20
44.0017505958
  0
LWPOLYLINE
  5
5FF
100
AcDbEntity
  8
0
100
AcDbPolyline
 62
7
  6
CONTINUOUS
 90
16
 70
0
 10
-158.6927804921
 20
42.2973111289
 10
-158.6822492171
 20
42.297424686
 10
-158.6720352484
 20
42.2977383409
 10
-158.6621385861
 20
42.2982520935
 10
-158.6524563109
 20
42.2989753789
 10
-158.6430913421
 20
42.2998987621
 10
-158.6343524375
 20
42.3009939381
 10
-158.6262634127
 20
42.3022655939
 10
-158.618800452
 20
42.3037090426
 10
-158.6122008669
 20
42.3052819186
 10
-158.6064855528
 20
42.3069881207
 10
-158.6016336142
 20
42.3088237502
 10
-158.5978196763
 20
42.3107347457
 10
-158.5951019475
 20
42.3127030867
 10
-158.5934222194
 20
42.3147467937
 10
-158.5927804921
 20
42.3168658668
  0
LINE
  5
600
100
AcDbEntity
  8
0
100
AcDbLine
 62
253
  6
CONTINUOUS
 10
-152.2024660063
 20
44.0017505958
 11
-152.2311745662
 21
44.0015052973
  0
LINE
  5
601
100
AcDbEntity
  8
0
100
AcDbLine
 62
253
  6
CONTINUOUS
 10
-152.2311745662
 20
44.0015052973
 11
-152.6753307438
 21
43.9995505374
  0
LINE
  5
602
100
AcDbEntity
  8
0
100
AcDbLine
 62
7
  6
CONTINUOUS
 10
-123.6427804921
 20
41.9798778836
 11
-146.9824913496
 21
41.9798778836
  0
LINE
  5
603
100
AcDbEntity
  8
0
100
AcDbLine
 62
253
  6
CONTINUOUS
 10
-124.6962711423
 20
42.1798570992
 11
-123.6427804921
 21
42.1798570992
  0
LINE
  5
604
100
AcDbEntity
  8
0
100
AcDbLine
 62
7
  6
CONTINUOUS
 10
-158.6927804921
 20
42.2973111289
 11
-159.3927804921
 21
42.2973111289
  0
LINE
  5
605
100
AcDbEntity
  8
0
100
AcDbLine
 62
253
  6
CONTINUOUS
 10
-159.3927804921
 20
42.6322160472
 11
-158.5927804921
 21
42.6322160472
  0
LINE
  5
606
100
AcDbEntity
  8
0
100
AcDbLine
 62
7
  6
CONTINUOUS
 10
-158.5927804921
 20
42.6359147957
 11
-159.3927804921
 21
42.6359147957
  0
LINE
  5
607
100
AcDbEntity
  8
0
100
AcDbLine
 62
253
  6
CONTINUOUS
 10
-159.3927804921
 20
42.6656308621
 11
-158.5927804921
 21
42.6656308621
  0
LINE
  5
608
100
AcDbEntity
  8
0
100
AcDbLine
 62
253
  6
CONTINUOUS
 10
-158.5927804921
 20
42.9002181247
 11
-159.3927804921
 21
42.9002181247
  0
LINE
  5
609
100
AcDbEntity
  8
0
100
AcDbLine
 62
7
  6
CONTINUOUS
 10
-123.6427804921
 20
43.1798778836
 11
-124.7137265556
 21
43.1798778836
  0
LINE
  5
60A
100
AcDbEntity
  8
0
100
AcDbLine
 62
7
  6
CONTINUOUS
 10
-159.3927804921
 20
43.2351230431
 11
-158.6927804921
 21
43.2351230431
  0
LINE
  5
60B
100
AcDbEntity
  8
0
100
AcDbLine
 62
7
  6
CONTINUOUS
 10
-159.3927804921
 20
43.2788173866
 11
-158.6927804921
 21
43.2788173866
  0
LINE
  5
60C
100
AcDbEntity
  8
0
100
AcDbLine
 62
7
  6
CONTINUOUS
 10
-147.8927804921
 20
44.4798778836
 11
-143.5427804921
 21
44.4798778836
  0
LINE
  5
60D
100
AcDbEntity
  8
0
100
AcDbLine
 62
7
  6
CONTINUOUS
 10
-132.0628310915
 20
44.4798778836
 11
-124.7364181537
 21
44.4798778836
  0
LINE
  5
60E
100
AcDbEntity
  8
0
100
AcDbLine
 62
7
  6
CONTINUOUS
 10
-126.3131636609
 20
44.5798778836
 11
-130.4223973233
 21
44.5798778836
  0
LINE
  5
60F
100
AcDbEntity
  8
0
100
AcDbLine
 62
7
  6
CONTINUOUS
 10
-143.6631636609
 20
44.5798778836
 11
-147.7723973233
 21
44.5798778836
  0
LINE
  5
610
100
AcDbEntity
  8
0
100
AcDbLine
 62
7
  6
CONTINUOUS
 10
-126.3236366999
 20
45.1798778836
 11
-130.4119242843
 21
45.1798778836
  0
LINE
  5
611
100
AcDbEntity
  8
0
100
AcDbLine
 62
7
  6
CONTINUOUS
 10
-143.6736366999
 20
45.1798778836
 11
-147.7619242843
 21
45.1798778836
  0
LINE
  5
612
100
AcDbEntity
  8
0
100
AcDbLine
 62
253
  6
CONTINUOUS
 10
-152.2570840072
 20
43.913194369
 11
-152.6753307438
 21
43.9148652733
  0
LWPOLYLINE
  5
613
100
AcDbEntity
  8
0
100
AcDbPolyline
 62
253
  6
CONTINUOUS
 90
4
 70
0
 10
-152.1927804921
 20
43.9124158011
 10
-152.196905349
 20
43.9125940858
 10
-152.2091839429
 20
43.9127827002
 10
-152.2570840072
 20
43.913194369
  0
LWPOLYLINE
  5
614
100
AcDbEntity
  8
0
100
AcDbPolyline
 62
7
  6
CONTINUOUS
 90
16
 70
0
 10
-158.6927804921
 20
45.5654446979
 10
-158.6822492171
 20
45.5648624644
 10
-158.6720352484
 20
45.5632542832
 10
-158.6621385861
 20
45.5606201543
 10
-158.6524563109
 20
45.5569117025
 10
-158.6430913421
 20
45.5521773031
 10
-158.6343524375
 20
45.5465620817
 10
-158.6262634126
 20
45.5400420077
 10
-158.618800452
 20
45.5326411118
 10
-158.6122008669
 20
45.5245766117
 10
-158.6064855528
 20
45.5158285183
 10
-158.6016336142
 20
45.5064168206
 10
-158.5978196763
 20
45.4966187039
 10
-158.5951019475
 20
45.4865265632
 10
-158.5934222194
 20
45.4760480036
 10
-158.5927804921
 20
45.465183025
  0
LINE
  5
615
100
AcDbEntity
  8
0
100
AcDbLine
 62
7
  6
CONTINUOUS
 10
-161.8927804921
 20
50.9495622006
 11
-164.5927804921
 21
51.8524455979
  0
LINE
  5
616
100
AcDbEntity
  8
0
100
AcDbLine
 62
253
  6
CONTINUOUS
 10
-155.405700629
 20
47.891922735
 11
-161.5927804921
 21
50.2040740324
  0
LINE
  5
617
100
AcDbEntity
  8
0
100
AcDbLine
 62
7
  6
CONTINUOUS
 10
-155.2474197656
 20
48.3600245518
 11
-164.592780492
 21
51.8524455978
  0
LWPOLYLINE
  5
618
100
AcDbEntity
  8
0
100
AcDbPolyline
 62
253
  6
CONTINUOUS
 90
6
 70
0
 10
-149.2582241753
 20
49.6886041093
 10
-149.2543931641
 20
49.6893633362
 10
-149.2429646214
 20
49.6900546441
 10
-149.2240371919
 20
49.6906682567
 10
-149.1977692384
 20
49.6911927131
 10
-149.1643701933
 20
49.6916236252
  0
LINE
  5
619
100
AcDbEntity
  8
0
100
AcDbLine
 62
253
  6
CONTINUOUS
 10
-125.8271982686
 20
49.6886041867
 11
-125.5681302091
 21
49.6906687203
  0
LINE
  5
61A
100
AcDbEntity
  8
0
100
AcDbLine
 62
253
  6
CONTINUOUS
 10
-149.1643701933
 20
49.6916236252
 11
-149.0772445913
 21
49.6922095945
  0
LINE
  5
61B
100
AcDbEntity
  8
0
100
AcDbLine
 62
253
  6
CONTINUOUS
 10
-125.5681302091
 20
49.6906687203
 11
-125.3270907947
 21
49.6919643903
  0
LINE
  5
61C
100
AcDbEntity
  8
0
100
AcDbLine
 62
253
  6
CONTINUOUS
 10
-125.3270907947
 20
49.6919643903
 11
-125.120234968
 21
49.6924059543
  0
LINE
  5
61D
100
AcDbEntity
  8
0
100
AcDbLine
 62
253
  6
CONTINUOUS
 10
-149.0772445913
 20
49.6922095945
 11
-148.9653170841
 21
49.6924049782
  0
LINE
  5
61E
100
AcDbEntity
  8
0
100
AcDbLine
 62
7
  6
CONTINUOUS
 10
-158.6927804921
 20
45.5654446979
 11
-159.3927804921
 21
45.5654446979
  0
LINE
  5
61F
100
AcDbEntity
  8
0
100
AcDbLine
 62
7
  6
CONTINUOUS
 10
-159.5927804921
 20
45.7569702148
 11
-158.6927804921
 21
45.7568747532
  0
LINE
  5
620
100
AcDbEntity
  8
0
100
AcDbLine
 62
7
  6
CONTINUOUS
 10
-161.2927804921
 20
45.9069702148
 11
-160.8927804921
 21
45.9069702148
  0
LINE
  5
621
100
AcDbEntity
  8
0
100
AcDbLine
 62
253
  6
CONTINUOUS
 10
-172.7927804921
 20
46.0569702148
 11
-167.5927804921
 21
46.0569702148
  0
LINE
  5
622
100
AcDbEntity
  8
0
100
AcDbLine
 62
7
  6
CONTINUOUS
 10
-160.4927804921
 20
46.4569702148
 11
-159.6927804921
 21
46.4569702148
  0
LINE
  5
623
100
AcDbEntity
  8
0
100
AcDbLine
 62
7
  6
CONTINUOUS
 10
-167.5927804921
 20
47.0569702148
 11
-172.7927804921
 21
47.0569702148
  0
LINE
  5
624
100
AcDbEntity
  8
0
100
AcDbLine
 62
7
  6
CONTINUOUS
 10
-132.0628310915
 20
47.0798778836
 11
-142.0227804921
 21
47.0798778836
  0
LINE
  5
625
100
AcDbEntity
  8
0
100
AcDbLine
 62
7
  6
CONTINUOUS
 10
-130.3700321285
 20
47.5798778836
 11
-126.3655288557
 21
47.5798778836
  0
LINE
  5
626
100
AcDbEntity
  8
0
100
AcDbLine
 62
7
  6
CONTINUOUS
 10
-143.7155288557
 20
47.5798778836
 11
-147.7200321285
 21
47.5798778836
  0
LINE
  5
627
100
AcDbEntity
  8
0
100
AcDbLine
 62
7
  6
CONTINUOUS
 10
-147.8927804921
 20
47.6798778836
 11
-143.5427804921
 21
47.6798778836
  0
LINE
  5
628
100
AcDbEntity
  8
0
100
AcDbLine
 62
7
  6
CONTINUOUS
 10
-130.5427804921
 20
47.6798778836
 11
-126.1927804921
 21
47.6798778836
  0
LINE
  5
629
100
AcDbEntity
  8
0
100
AcDbLine
 62
253
  6
CONTINUOUS
 10
-167.5927804921
 20
47.9572079064
 11
-161.5927804921
 21
47.9572079064
  0
LINE
  5
62A
100
AcDbEntity
  8
0
100
AcDbLine
 62
253
  6
CONTINUOUS
 10
-148.2583723738
 20
49.6886040894
 11
-147.8927804921
 21
49.6886040894
  0
LINE
  5
62B
100
AcDbEntity
  8
0
100
AcDbLine
 62
253
  6
CONTINUOUS
 10
-143.5427804921
 20
49.6886040869
 11
-130.5427804921
 21
49.6886040869
  0
LINE
  5
62C
100
AcDbEntity
  8
0
100
AcDbLine
 62
253
  6
CONTINUOUS
 10
-126.1927804921
 20
49.6886040617
 11
-125.8272101988
 21
49.6886040617
  0
LWPOLYLINE
  5
62D
100
AcDbEntity
  8
0
100
AcDbPolyline
 62
253
  6
CONTINUOUS
 90
9
 70
0
 10
-125.120234968
 20
49.6924059543
 10
-125.0083079259
 20
49.6922104798
 10
-124.9614612536
 20
49.6919643722
 10
-124.9211842526
 20
49.6916243327
 10
-124.8877864993
 20
49.6911933039
 10
-124.8615202154
 20
49.6906687238
 10
-124.8425945239
 20
49.6900549915
 10
-124.8311673006
 20
49.6893635728
 10
-124.8273368114
 20
49.6886042496
  0
LINE
  5
62E
100
AcDbEntity
  8
0
100
AcDbLine
 62
253
  6
CONTINUOUS
 10
-148.9653170841
 20
49.6924049782
 11
-148.7584649465
 21
49.6919634677
  0
LINE
  5
62F
100
AcDbEntity
  8
0
100
AcDbLine
 62
253
  6
CONTINUOUS
 10
-148.7584649465
 20
49.6919634677
 11
-148.517435695
 21
49.6906681153
  0
LINE
  5
630
100
AcDbEntity
  8
0
100
AcDbLine
 62
253
  6
CONTINUOUS
 10
-148.517435695
 20
49.6906681153
 11
-148.2583691835
 21
49.6886040334
  0
LINE
  5
631
100
AcDbEntity
  8
0
100
AcDbLine
 62
7
  6
CONTINUOUS
 10
-125.3272609253
 20
50.1798778836
 11
-148.7583485161
 21
50.1798239963
  0
LINE
  5
632
100
AcDbEntity
  8
0
100
AcDbLine
 62
7
  6
CONTINUOUS
 10
-164.592780492
 20
51.8524455979
 11
-167.5927804921
 21
51.9572079064
  0
LINE
  5
633
100
AcDbEntity
  8
0
100
AcDbLine
 62
7
  6
CONTINUOUS
 10
-162.0263146985
 20
54.676185932
 11
-161.0280898665
 21
54.7344746382
  0
LINE
  5
634
100
AcDbEntity
  8
0
100
AcDbLine
 62
7
  6
CONTINUOUS
 10
-161.3221758635
 20
54.9858125328
 11
-160.3222711943
 21
54.9794062059
  0
LINE
  5
635
100
AcDbEntity
  8
0
100
AcDbLine
 62
253
  6
CONTINUOUS
 10
-176.7927804921
 20
59.4569702148
 11
-172.7927804921
 21
59.4569702148
  0
LINE
  5
636
100
AcDbEntity
  8
0
100
AcDbLine
 62
7
  6
CONTINUOUS
 10
-172.7927804921
 20
64.2569702148
 11
-173.7927804921
 21
64.2569702148
  0
LINE
  5
637
100
AcDbEntity
  8
0
100
AcDbLine
 62
7
  6
CONTINUOUS
 10
-173.7927804921
 20
64.4569702148
 11
-175.7927804921
 21
64.4569702148
  0
ARC
  5
638
100
AcDbEntity
  8
0
100
AcDbCircle
 62
7
  6
CONTINUOUS
 10
-42.8017211914
 20
-27.3430297852
 40
5.0
100
AcDbArc
 50
180.0
 51
270.0
  0
ARC
  5
639
100
AcDbEntity
  8
0
100
AcDbCircle
 62
7
  6
CONTINUOUS
 10
43.3982788086
 20
-27.3430297852
 40
5.0
100
AcDbArc
 50
270.0
 51
360.0
  0
ARC
  5
63A
100
AcDbEntity
  8
0
100
AcDbCircle
 62
7
  6
CONTINUOUS
 10
-42.8017211914
 20
27.6569702148
 40
5.0
100
AcDbArc
 50
90.0
 51
180.0
  0
ARC
  5
63B
100
AcDbEntity
  8
0
100
AcDbCircle
 62
7
  6
CONTINUOUS
 10
55.2982788086
 20
-50.5430297852
 40
5.0
100
AcDbArc
 50
270.0
 51
360.0
  0
ARC
  5
63C
100
AcDbEntity
  8
0
100
AcDbCircle
 62
7
  6
CONTINUOUS
 10
55.2982788086
 20
59.4569702148
 40
5.0
100
AcDbArc
 50
0.0
 51
90.0
  0
ARC
  5
63D
100
AcDbEntity
  8
0
100
AcDbCircle
 62
7
  6
CONTINUOUS
 10
-54.7017211914
 20
59.4569702148
 40
5.0
100
AcDbArc
 50
90.0
 51
180.0
  0
ARC
  5
63E
100
AcDbEntity
  8
0
100
AcDbCircle
 62
7
  6
CONTINUOUS
 10
-54.7017211914
 20
-50.5430297852
 40
5.0
100
AcDbArc
 50
180.0
 51
270.0
  0
ARC
  5
63F
100
AcDbEntity
  8
0
100
AcDbCircle
 62
7
  6
CONTINUOUS
 10
43.3982788086
 20
27.6569702148
 40
5.0
100
AcDbArc
 50
0.0
 51
90.0
  0
ARC
  5
640
100
AcDbEntity
  8
IMPORT_IGES
100
AcDbCircle
 62
7
  6
CONTINUOUS
 10
-42.8017211916
 20
27.6569702146
 40
4.8
100
AcDbArc
 50
90.0
 51
180.0
  0
ARC
  5
641
100
AcDbEntity
  8
IMPORT_IGES
100
AcDbCircle
 62
7
  6
CONTINUOUS
 10
43.3982788084
 20
27.6569702146
 40
4.8
100
AcDbArc
 50
0.0
 51
90.0
  0
ARC
  5
642
100
AcDbEntity
  8
IMPORT_IGES
100
AcDbCircle
 62
7
  6
CONTINUOUS
 10
43.3982788084
 20
-27.3430297854
 40
4.8
100
AcDbArc
 50
270.0
 51
360.0
  0
ARC
  5
643
100
AcDbEntity
  8
IMPORT_IGES
100
AcDbCircle
 62
7
  6
CONTINUOUS
 10
-42.8017211916
 20
-27.3430297854
 40
4.8
100
AcDbArc
 50
180.0
 51
270.0
  0
ARC
  5
644
100
AcDbEntity
  8
0
100
AcDbCircle
 62
253
  6
CONTINUOUS
 10
-54.7017211914
 20
-50.5430297852
 40
4.0
100
AcDbArc
 50
180.0
 51
270.0
  0
ARC
  5
645
100
AcDbEntity
  8
0
100
AcDbCircle
 62
253
  6
CONTINUOUS
 10
-54.7017211914
 20
59.4569702148
 40
4.0
100
AcDbArc
 50
90.0
 51
180.0
  0
ARC
  5
646
100
AcDbEntity
  8
0
100
AcDbCircle
 62
253
  6
CONTINUOUS
 10
55.2982788086
 20
59.4569702148
 40
4.0
100
AcDbArc
 50
0.0
 51
90.0
  0
ARC
  5
647
100
AcDbEntity
  8
0
100
AcDbCircle
 62
253
  6
CONTINUOUS
 10
55.2982788086
 20
-50.5430297852
 40
4.0
100
AcDbArc
 50
270.0
 51
360.0
  0
ARC
  5
648
100
AcDbEntity
  8
0
100
AcDbCircle
 62
7
  6
CONTINUOUS
 10
12.2982788086
 20
-37.3430297852
 40
3.0
100
AcDbArc
 50
0.0
 51
90.0
  0
ARC
  5
649
100
AcDbEntity
  8
0
100
AcDbCircle
 62
7
  6
CONTINUOUS
 10
-11.7017211914
 20
-37.3430297852
 40
3.0
100
AcDbArc
 50
90.0
 51
180.0
  0
ARC
  5
64A
100
AcDbEntity
  8
0
100
AcDbCircle
 62
7
  6
CONTINUOUS
 10
12.2982788086
 20
-37.2430297852
 40
2.8
100
AcDbArc
 50
0.0
 51
90.0
  0
ARC
  5
64B
100
AcDbEntity
  8
0
100
AcDbCircle
 62
7
  6
CONTINUOUS
 10
-11.7017211914
 20
-37.2430297852
 40
2.8
100
AcDbArc
 50
90.0
 51
180.0
  0
ARC
  5
64C
100
AcDbEntity
  8
0
100
AcDbCircle
 62
7
  6
CONTINUOUS
 10
-2.7017211914
 20
-35.3430297852
 40
1.0
100
AcDbArc
 50
90.0
 51
115.693080689
  0
ARC
  5
64D
100
AcDbEntity
  8
0
100
AcDbCircle
 62
7
  6
CONTINUOUS
 10
3.2982788086
 20
-35.3430297852
 40
1.0
100
AcDbArc
 50
64.3067865155
 51
90.0
  0
ARC
  5
64E
100
AcDbEntity
  8
0
100
AcDbCircle
 62
7
  6
CONTINUOUS
 10
-171.0371637088
 20
-24.0180173445
 40
2.65
100
AcDbArc
 50
241.6871424979
 51
118.3202585893
  0
ARC
  5
64F
100
AcDbEntity
  8
0
100
AcDbCircle
 62
7
  6
CONTINUOUS
 10
-171.0371637088
 20
-24.0180173445
 40
2.6000000001
100
AcDbArc
 50
241.1030482974
 51
118.9073067511
  0
ARC
  5
650
100
AcDbEntity
  8
0
100
AcDbCircle
 62
7
  6
CONTINUOUS
 10
-171.0371637088
 20
-24.0180173445
 40
1.4000000011
100
AcDbArc
 50
206.1055944202
 51
153.8944055798
  0
CIRCLE
  5
651
100
AcDbEntity
  8
IMPORT_IGES
100
AcDbCircle
 62
7
  6
CONTINUOUS
 10
-171.2587563278
 20
-24.0180173444
 40
1.0
  0
ARC
  5
652
100
AcDbEntity
  8
0
100
AcDbCircle
 62
7
  6
CONTINUOUS
 10
-175.7927804921
 20
-54.5430297852
 40
1.0
100
AcDbArc
 50
180.0
 51
270.0
  0
ARC
  5
653
100
AcDbEntity
  8
0
100
AcDbCircle
 62
7
  6
CONTINUOUS
 10
-170.2263733733
 20
-24.8431439207
 40
0.6
100
AcDbArc
 50
95.6716718754
 51
100.333276393
  0
ARC
  5
654
100
AcDbEntity
  8
0
100
AcDbCircle
 62
7
  6
CONTINUOUS
 10
-166.2927804921
 20
-32.4637319433
 40
0.5
100
AcDbArc
 50
273.0
 51
360.0
  0
ARC
  5
655
100
AcDbEntity
  8
0
100
AcDbCircle
 62
7
  6
CONTINUOUS
 10
-166.2927804921
 20
-30.8223276271
 40
0.5
100
AcDbArc
 50
0.0000000007
 51
87.0
  0
CIRCLE
  5
656
100
AcDbEntity
  8
0
100
AcDbCircle
 62
7
  6
CONTINUOUS
 10
-168.6344781594
 20
14.7851299849
 40
2.65
  0
CIRCLE
  5
657
100
AcDbEntity
  8
0
100
AcDbCircle
 62
7
  6
CONTINUOUS
 10
-168.6344781594
 20
14.7851299849
 40
2.6
  0
CIRCLE
  5
658
100
AcDbEntity
  8
0
100
AcDbCircle
 62
7
  6
CONTINUOUS
 10
-168.6344781594
 20
14.7851299849
 40
1.4000000011
  0
CIRCLE
  5
659
100
AcDbEntity
  8
IMPORT_IGES
100
AcDbCircle
 62
7
  6
CONTINUOUS
 10
-168.6720285544
 20
14.7851299846
 40
1.25
  0
ARC
  5
65A
100
AcDbEntity
  8
0
100
AcDbCircle
 62
7
  6
CONTINUOUS
 10
-175.7927804921
 20
63.4569702148
 40
1.0
100
AcDbArc
 50
90.0
 51
180.0
  0
ARC
  5
65B
100
AcDbEntity
  8
0
100
AcDbCircle
 62
253
  6
CONTINUOUS
 10
-158.2509362422
 20
37.685028958
 40
19.8502681669
100
AcDbArc
 50
224.9633020908
 51
269.8156802032
  0
ARC
  5
65C
100
AcDbEntity
  8
0
100
AcDbCircle
 62
253
  6
CONTINUOUS
 10
-158.2509362422
 20
37.685028958
 40
19.5506793065
100
AcDbArc
 50
224.0793439645
 51
269.8156802032
  0
ARC
  5
65D
100
AcDbEntity
  8
0
100
AcDbCircle
 62
7
  6
CONTINUOUS
 10
-158.2509362422
 20
37.685028958
 40
19.3533272902
100
AcDbArc
 50
243.8054191448
 51
269.8156802032
  0
ARC
  5
65E
100
AcDbEntity
  8
0
100
AcDbCircle
 62
7
  6
CONTINUOUS
 10
-158.2509362422
 20
37.685028958
 40
18.9
100
AcDbArc
 50
222.003066583
 51
243.127365393
  0
ARC
  5
65F
100
AcDbEntity
  8
0
100
AcDbCircle
 62
253
  6
CONTINUOUS
 10
-158.295652289
 20
23.7851008835
 40
5.9502681669
100
AcDbArc
 50
269.8156802032
 51
21.9730345796
  0
ARC
  5
660
100
AcDbEntity
  8
0
100
AcDbCircle
 62
253
  6
CONTINUOUS
 10
-158.295652289
 20
23.7851008835
 40
5.6506793065
100
AcDbArc
 50
269.8156802032
 51
21.9730345796
  0
ARC
  5
661
100
AcDbEntity
  8
0
100
AcDbCircle
 62
7
  6
CONTINUOUS
 10
-158.295652289
 20
23.7851008835
 40
5.4533272902
100
AcDbArc
 50
269.8156802035
 51
339.6406780654
  0
ARC
  5
662
100
AcDbEntity
  8
0
100
AcDbCircle
 62
7
  6
CONTINUOUS
 10
-161.3927804921
 20
35.9702660868
 40
0.5
100
AcDbArc
 50
180.0
 51
255.9637565321
  0
ARC
  5
663
100
AcDbEntity
  8
0
100
AcDbCircle
 62
7
  6
CONTINUOUS
 10
-162.0927804921
 20
36.6495769107
 40
0.5
100
AcDbArc
 50
272.0
 51
360.0
  0
ARC
  5
664
100
AcDbEntity
  8
0
100
AcDbCircle
 62
7
  6
CONTINUOUS
 10
-156.8927804921
 20
43.9572079064
 40
6.55
100
AcDbArc
 50
234.320096521
 51
243.9257546086
  0
ARC
  5
665
100
AcDbEntity
  8
0
100
AcDbCircle
 62
7
  6
CONTINUOUS
 10
-156.8927804921
 20
43.9572079064
 40
6.55
100
AcDbArc
 50
10.6760626526
 51
113.6398703859
  0
ARC
  5
666
100
AcDbEntity
  8
0
100
AcDbCircle
 62
7
  6
CONTINUOUS
 10
-156.8111684771
 20
43.877772494
 40
5.25
100
AcDbArc
 50
47.438733861
 51
94.770887524
  0
ARC
  5
667
100
AcDbEntity
  8
0
100
AcDbCircle
 62
253
  6
CONTINUOUS
 10
-156.8111684771
 20
43.877772494
 40
4.9500007392
100
AcDbArc
 50
47.438733861
 51
85.9571258508
  0
ARC
  5
668
100
AcDbEntity
  8
0
100
AcDbCircle
 62
7
  6
CONTINUOUS
 10
-156.8927804921
 20
43.9572079064
 40
4.7002134349
100
AcDbArc
 50
278.4469066384
 51
359.4539741749
  0
ARC
  5
669
100
AcDbEntity
  8
0
100
AcDbCircle
 62
7
  6
CONTINUOUS
 10
-156.8927804921
 20
43.9572079064
 40
4.7002134349
100
AcDbArc
 50
0.5460258259
 51
69.5089627709
  0
ARC
  5
66A
100
AcDbEntity
  8
0
100
AcDbCircle
 62
7
  6
CONTINUOUS
 10
-156.8927804921
 20
43.9572079064
 40
2.25
100
AcDbArc
 50
356.8101717388
 51
3.1666975093
  0
ARC
  5
66B
100
AcDbEntity
  8
0
100
AcDbCircle
 62
7
  6
CONTINUOUS
 10
-156.8927804921
 20
43.9572079064
 40
2.15
100
AcDbArc
 50
198.4014120472
 51
199.6286713529
  0
ARC
  5
66C
100
AcDbEntity
  8
0
100
AcDbCircle
 62
7
  6
CONTINUOUS
 10
-156.8927804921
 20
43.9572079064
 40
2.15
100
AcDbArc
 50
217.6719148992
 51
142.3280823408
  0
ARC
  5
66D
100
AcDbEntity
  8
0
100
AcDbCircle
 62
7
  6
CONTINUOUS
 10
-156.8927804921
 20
43.9572079064
 40
2.1
100
AcDbArc
 50
198.8525488807
 51
200.1288789061
  0
ARC
  5
66E
100
AcDbEntity
  8
0
100
AcDbCircle
 62
7
  6
CONTINUOUS
 10
-156.8927804921
 20
43.9572079064
 40
2.1
100
AcDbArc
 50
215.8960586013
 51
144.1130991014
  0
ARC
  5
66F
100
AcDbEntity
  8
0
100
AcDbCircle
 62
7
  6
CONTINUOUS
 10
-161.2927804921
 20
40.9069702148
 40
0.3
100
AcDbArc
 50
180.0
 51
270.0
  0
ARC
  5
670
100
AcDbEntity
  8
0
100
AcDbCircle
 62
7
  6
CONTINUOUS
 10
-160.8927804921
 20
40.9069702148
 40
0.3
100
AcDbArc
 50
270.0
 51
360.0
  0
ARC
  5
671
100
AcDbEntity
  8
0
100
AcDbCircle
 62
7
  6
CONTINUOUS
 10
-160.4927804921
 20
40.1569702148
 40
0.1
100
AcDbArc
 50
180.0
 51
270.0
  0
ARC
  5
672
100
AcDbEntity
  8
0
100
AcDbCircle
 62
7
  6
CONTINUOUS
 10
-159.6927804921
 20
40.1569702148
 40
0.1
100
AcDbArc
 50
270.0
 51
360.0
  0
ARC
  5
673
100
AcDbEntity
  8
0
100
AcDbCircle
 62
7
  6
CONTINUOUS
 10
-162.0927804921
 20
50.3844061463
 40
0.5
100
AcDbArc
 50
0.0
 51
69.5089627709
  0
ARC
  5
674
100
AcDbEntity
  8
0
100
AcDbCircle
 62
7
  6
CONTINUOUS
 10
-161.2927804921
 20
45.6069702148
 40
0.3
100
AcDbArc
 50
90.0
 51
180.0
  0
ARC
  5
675
100
AcDbEntity
  8
0
100
AcDbCircle
 62
7
  6
CONTINUOUS
 10
-160.8927804921
 20
45.6069702148
 40
0.3
100
AcDbArc
 50
0.0
 51
90.0
  0
ARC
  5
676
100
AcDbEntity
  8
0
100
AcDbCircle
 62
7
  6
CONTINUOUS
 10
-160.4927804921
 20
46.3569702148
 40
0.1
100
AcDbArc
 50
90.0
 51
179.8556539801
  0
ARC
  5
677
100
AcDbEntity
  8
0
100
AcDbCircle
 62
7
  6
CONTINUOUS
 10
-159.6927804921
 20
46.3569702148
 40
0.1
100
AcDbArc
 50
0.1443379432
 51
90.0
  0
ARC
  5
678
100
AcDbEntity
  8
0
100
AcDbCircle
 62
7
  6
CONTINUOUS
 10
-148.7583493433
 20
49.6798791477
 40
0.4999448487
100
AcDbArc
 50
89.9999052317
 51
179.0000399861
  0
CIRCLE
  5
679
100
AcDbEntity
  8
0
100
AcDbCircle
 62
7
  6
CONTINUOUS
 10
-120.0943154712
 20
-11.4332816033
 40
2.75
  0
CIRCLE
  5
67A
100
AcDbEntity
  8
0
100
AcDbCircle
 62
7
  6
CONTINUOUS
 10
-120.0943154712
 20
-11.4332816033
 40
2.65
  0
ARC
  5
67B
100
AcDbEntity
  8
0
100
AcDbCircle
 62
7
  6
CONTINUOUS
 10
-120.0943154712
 20
-11.4332816033
 40
0.696552892
100
AcDbArc
 50
161.7959482269
 51
187.6245358281
  0
ARC
  5
67C
100
AcDbEntity
  8
0
100
AcDbCircle
 62
7
  6
CONTINUOUS
 10
-120.0943154712
 20
-11.4332816033
 40
0.696552892
100
AcDbArc
 50
251.7959482269
 51
277.6245358281
  0
ARC
  5
67D
100
AcDbEntity
  8
0
100
AcDbCircle
 62
7
  6
CONTINUOUS
 10
-120.0943154712
 20
-11.4332816033
 40
0.696552892
100
AcDbArc
 50
341.7959482269
 51
7.6245358281
  0
ARC
  5
67E
100
AcDbEntity
  8
0
100
AcDbCircle
 62
7
  6
CONTINUOUS
 10
-120.0943154712
 20
-11.4332816033
 40
0.696552892
100
AcDbArc
 50
71.7959482269
 51
97.6245358281
  0
CIRCLE
  5
67F
100
AcDbEntity
  8
0
100
AcDbCircle
 62
7
  6
CONTINUOUS
 10
-120.0943154712
 20
-11.4332816033
 40
0.5559999999
  0
ARC
  5
680
100
AcDbEntity
  8
0
100
AcDbCircle
 62
7
  6
CONTINUOUS
 10
-124.707545786
 20
20.5580938918
 40
10.0
100
AcDbArc
 50
190.3332763933
 51
270.4623867872
  0
ARC
  5
681
100
AcDbEntity
  8
0
100
AcDbCircle
 62
7
  6
CONTINUOUS
 10
-124.5945646064
 20
6.558549783
 40
4.0
100
AcDbArc
 50
10.3332763933
 51
90.4623867872
  0
ARC
  5
682
100
AcDbEntity
  8
0
100
AcDbCircle
 62
7
  6
CONTINUOUS
 10
-125.3167382374
 20
34.87987634
 40
0.499945074
100
AcDbArc
 50
269.9943422385
 51
359.0000779169
  0
ARC
  5
683
100
AcDbEntity
  8
0
100
AcDbCircle
 62
7
  6
CONTINUOUS
 10
-125.327206168
 20
49.6798834132
 40
0.4999397
100
AcDbArc
 50
0.9994755098
 51
90.0062747354
  0
ARC
  5
684
100
AcDbEntity
  8
0
100
AcDbCircle
 62
7
  6
CONTINUOUS
 10
-136.5395142573
 20
30.3798778836
 40
0.2
100
AcDbArc
 50
89.9597178397
 51
137.8561376706
  0
ELLIPSE
  5
685
100
AcDbEntity
  8
0
100
AcDbEllipse
 62
7
  6
CONTINUOUS
 10
-120.1387545591
 20
-11.3797739279
 30
0.0
 11
-0.3168528715
 21
0.3815123438
 31
0.0
 40
0.9901159119
 41
-0.5283890933
 42
0.5283890933
  0
ELLIPSE
  5
686
100
AcDbEntity
  8
0
100
AcDbEllipse
 62
7
  6
CONTINUOUS
 10
-120.0408077959
 20
-11.3888425154
 30
0.0
 11
0.3815123438
 21
0.3168528715
 31
0.0
 40
0.9901159119
 41
-0.5283890933
 42
0.5283890933
  0
ELLIPSE
  5
687
100
AcDbEntity
  8
0
100
AcDbEllipse
 62
7
  6
CONTINUOUS
 10
-120.0498763833
 20
-11.4867892786
 30
0.0
 11
-0.3168528715
 21
0.3815123438
 31
0.0
 40
0.9901159119
 41
-3.6699817469
 42
-2.6132035603
  0
ELLIPSE
  5
688
100
AcDbEntity
  8
0
100
AcDbEllipse
 62
7
  6
CONTINUOUS
 10
-120.1478231465
 20
-11.4777206912
 30
0.0
 11
0.3815123437
 21
0.3168528715
 31
0.0
 40
0.9901159119
 41
2.6132035603
 42
3.6699817469
  0
ELLIPSE
  5
689
100
AcDbEntity
  8
0
100
AcDbEllipse
 62
7
  6
CONTINUOUS
 10
-154.5403121091
 20
27.6894911939
 30
0.0
 11
-0.9165015684
 21
1.8575573592
 31
0.0
 40
0.0503957101
 41
1.5564150662
 42
2.6680862568
  0
ELLIPSE
  5
68A
100
AcDbEntity
  8
0
100
AcDbEllipse
 62
7
  6
CONTINUOUS
 10
-124.3263912764
 20
-3.9693692269
 30
0.0
 11
0.1807250919
 21
-0.4789691243
 31
0.0
 40
0.9766948103
 41
-1.1526479723
 42
1.1526479723
  0
ELLIPSE
  5
68B
100
AcDbEntity
  8
0
100
AcDbEllipse
 62
7
  6
CONTINUOUS
 10
-124.5204321357
 20
-3.4551098094
 30
0.0
 11
-0.1807250919
 21
0.4789691243
 31
0.0
 40
0.9766948103
 41
1.9889446813
 42
4.2942406259
  0
ELLIPSE
  5
68C
100
AcDbEntity
  8
0
100
AcDbEllipse
 62
7
  6
CONTINUOUS
 10
-124.3963321852
 20
-0.906938046
 30
0.0
 11
0.3327720146
 21
0.379755057
 31
0.0
 40
0.9902424613
 41
-0.8951246008
 42
0.8951246008
  0
ELLIPSE
  5
68D
100
AcDbEntity
  8
0
100
AcDbEllipse
 62
7
  6
CONTINUOUS
 10
-126.6024071662
 20
-1.3091735218
 30
0.0
 11
0.4842977726
 21
-0.1551807959
 31
0.0
 40
0.983183104
 41
2.0683136663
 42
4.2148716409
  0
ELLIPSE
  5
68E
100
AcDbEntity
  8
0
100
AcDbEllipse
 62
7
  6
CONTINUOUS
 10
-127.0448380157
 20
-1.1674079073
 30
0.0
 11
-0.4842977726
 21
0.1551807959
 31
0.0
 40
0.983183104
 41
-1.0732789873
 42
1.0732789873
  0
ELLIPSE
  5
68F
100
AcDbEntity
  8
0
100
AcDbEllipse
 62
7
  6
CONTINUOUS
 10
-124.1643532591
 20
-0.6422067392
 30
0.0
 11
0.3327720146
 21
0.379755057
 31
0.0
 40
0.9902424613
 41
-0.8951246008
 42
0.8951246008
  0
ENDSEC
  0
SECTION
  2
OBJECTS
  0
DICTIONARY
  5
C
100
AcDbDictionary
280
0
281
1
  3
ACAD_GROUP
350
D
  3
ACAD_MLINESTYLE
350
17
  3
ACAD_LAYOUT
350
1A
  3
ACAD_PLOTSETTINGS
350
19
  3
ACAD_PLOTSTYLENAME
350
E
  0
DICTIONARY
  5
D
102
{ACAD_REACTORS
330
C
102
}
100
AcDbDictionary
280
0
281
1
  0
ACDBDICTIONARYWDFLT
  5
E
102
{ACAD_REACTORS
330
C
102
}
100
AcDbDictionary
281
1
  3
Normal
350
F
100
AcDbDictionaryWithDefault
340
F
  0
DICTIONARY
  5
17
102
{ACAD_REACTORS
330
C
102
}
100
AcDbDictionary
280
0
281
1
  3
Standard
350
18
  0
DICTIONARY
  5
19
102
{ACAD_REACTORS
330
C
102
}
100
AcDbDictionary
281
1
  0
DICTIONARY
  5
1A
102
{ACAD_REACTORS
330
C
102
}
100
AcDbDictionary
281
1
  3
Model
350
690
  3
Layout1
350
691
  0
ACDBPLACEHOLDER
  5
F
102
{ACAD_REACTORS
330
E
102
}
  0
MLINESTYLE
  5
18
102
{ACAD_REACTORS
330
17
102
}
100
AcDbMlineStyle
  2
STANDARD
 70
0
  3

 62
256
 51
90.0
 52
90.0
 71
2
 49
0.5
 62
256
  6
BYLAYER
 49
-0.5
 62
256
  6
BYLAYER
  0
LAYOUT
  5
690
102
{ACAD_REACTORS
330
1A
102
}
100
AcDbPlotSettings
  1

  2
none_device
  4
ISO_A4_(297.00_x_210.00_MM)
  6

 40
0.0
 41
0.0
 42
0.0
 43
0.0
 44
297.0
 45
210.0
 46
0.0
 47
0.0
 48
0.0
 49
0.0
140
0.0
141
0.0
142
1.0
143
1.0
 70
1024
 72
1
 73
0
 74
0
  7

 75
0
147
1.0
148
0.0
149
0.0
100
AcDbLayout
  1
Model
 70
0
 71
0
 10
0.0
 20
0.0
 11
297.0
 21
210.0
 12
0.0
 22
0.0
 32
0.0
 14
0.0
 24
0.0
 34
0.0
 15
0.0
 25
0.0
 35
0.0
146
0.0
 13
0.0
 23
0.0
 33
0.0
 16
1.0
 26
0.0
 36
0.0
 17
0.0
 27
1.0
 37
0.0
 76
0
330
21C
345
0
346
0
  0
LAYOUT
  5
691
102
{ACAD_REACTORS
330
1A
102
}
100
AcDbPlotSettings
  1

  2
none_device
  4
ISO_A4_(297.00_x_210.00_MM)
  6

 40
0.0
 41
0.0
 42
0.0
 43
0.0
 44
297.0
 45
210.0
 46
0.0
 47
0.0
 48
0.0
 49
0.0
140
0.0
141
0.0
142
1.0
143
1.0
 70
0
 72
1
 73
0
 74
0
  7

 75
0
147
1.0
148
0.0
149
0.0
100
AcDbLayout
  1
Layout1
 70
0
 71
1
 10
0.0
 20
0.0
 11
297.0
 21
210.0
 12
0.0
 22
0.0
 32
0.0
 14
0.0
 24
0.0
 34
0.0
 15
0.0
 25
0.0
 35
0.0
146
0.0
 13
0.0
 23
0.0
 33
0.0
 16
1.0
 26
0.0
 36
0.0
 17
0.0
 27
1.0
 37
0.0
 76
0
330
21D
345
0
346
0
  0
ENDSEC
  0
EOF
