  0
SECTION
  2
HEADER
  9
$ACADVER
  1
AC1024
  9
$DWGCODEPAGE
  3
ANSI_1252
  9
$EXTMAX
 10
841.0
 20
594.0
 30
0.0
  9
$EXTMIN
 10
0.0
 20
0.0
 30
0.0
  9
$LIMMIN
 10
0.0
 20
0.0
  9
$LIMMAX
 10
841.0
 20
594.0
  9
$VIEWCTR
 10
420.5
 20
297.0
  9
$VIEWSIZE
 40
594.0
  9
$CLAYER
  8
0
  9
$LTSCALE
 40
46.255
  9
$CELTYPE
  6
BYLAYER
  9
$DIMSCALE
 40
1.0
  9
$DIMASZ
 40
3.0
  9
$DIMEXO
 40
0.5
  9
$DIMDLI
 40
31.958
  9
$DIMEXE
 40
1.5
  9
$DIMCEN
 40
7.569
  9
$DIMLFAC
 40
1.0
  9
$DIMBLK
  1
_FILLED
  9
$DIMALT
 70
0
  9
$DIMALTF
 40
0.0393700787
  9
$DIMTXT
 40
3.0
  9
$DIMTOL
 70
1
  9
$DIMLIM
 70
0
  9
$DIMTFAC
 40
1.0
  9
$DIMTP
 40
0.01
  9
$DIMTM
 40
0.01
  9
$DIMGAP
 40
0.625
  9
$DIMDSEP
 70
44
  9
$AUNITS
 70
0
  9
$PDMODE
 70
3
  9
$PDSIZE
 40
3.0
  9
$HANDSEED
  5
343
  9
$TILEMODE
 70
1
  9
$MEASUREMENT
 70
1
  9
$INSUNITS
 70
4
  0
ENDSEC
  0
SECTION
  2
CLASSES
  0
CLASS
  1
ACDBDICTIONARYWDFLT
  2
AcDbDictionaryWithDefault
  3
AutoCAD 2000
 90
0
 91
1
280
0
281
0
  0
CLASS
  1
ACDBPLACEHOLDER
  2
AcDbPlaceHolder
  3
AutoCAD 2000
 90
0
 91
1
280
0
281
0
  0
CLASS
  1
LAYOUT
  2
AcDbLayout
  3
AutoCAD 2000
 90
0
 91
0
280
0
281
0
  0
ENDSEC
  0
SECTION
  2
TABLES
  0
TABLE
  2
VPORT
  5
8
100
AcDbSymbolTable
 70
2
  0
VPORT
  5
1F4
100
AcDbSymbolTableRecord
100
AcDbViewportTableRecord
  2
*ACTIVE
 70
0
 10
0.0
 20
0.0
 11
1.0
 21
1.0
 12
420.5
 22
297.0
 13
0.0
 23
0.0
 14
1.0
 24
1.0
 15
0.0
 25
0.0
 16
0.0
 26
0.0
 36
1.0
 17
0.0
 27
0.0
 37
0.0
 40
594.0
 41
1.4158249158
 42
50.0
 43
0.0
 44
0.0
 50
0.0
 51
0.0
 71
0
 72
100
 73
1
 74
1
 75
0
 76
0
 77
0
 78
0
  0
ENDTAB
  0
TABLE
  2
LTYPE
  5
5
100
AcDbSymbolTable
 70
6
  0
LTYPE
  5
14
100
AcDbSymbolTableRecord
100
AcDbLinetypeTableRecord
  2
BYBLOCK
 70
0
  3

 72
65
 73
0
 40
0.0
  0
LTYPE
  5
15
100
AcDbSymbolTableRecord
100
AcDbLinetypeTableRecord
  2
BYLAYER
 70
0
  3

 72
65
 73
0
 40
0.0
  0
LTYPE
  5
16
100
AcDbSymbolTableRecord
100
AcDbLinetypeTableRecord
  2
CONTINUOUS
 70
64
  3
Solid line
 72
65
 73
0
 40
0.0
  0
LTYPE
  5
1F5
100
AcDbSymbolTableRecord
100
AcDbLinetypeTableRecord
  2
CENTER
 70
64
  3
____ _ ____ _ ____ _ ____ _ ____ _ ____ _ ____
 72
65
 73
4
 40
0.6
 49
0.375
 74
0
 49
-0.075
 74
0
 49
0.075
 74
0
 49
-0.075
 74
0
  0
LTYPE
  5
1F6
100
AcDbSymbolTableRecord
100
AcDbLinetypeTableRecord
  2
HIDDEN
 70
64
  3
- - - - - - - - - - - - - - - - - - - -
 72
65
 73
2
 40
0.2
 49
0.1
 74
0
 49
-0.1
 74
0
  0
LTYPE
  5
1F7
100
AcDbSymbolTableRecord
100
AcDbLinetypeTableRecord
  2
PHANTOM
 70
64
  3
_____ _ _ _____ _ _ _____ _ _ _____
 72
65
 73
6
 40
0.8
 49
0.45
 74
0
 49
-0.05
 74
0
 49
0.1
 74
0
 49
-0.05
 74
0
 49
0.1
 74
0
 49
-0.05
 74
0
  0
LTYPE
  5
1F8
100
AcDbSymbolTableRecord
100
AcDbLinetypeTableRecord
  2
DOT
 70
64
  3
. . . . . . . . . . . . . . . . . . . .
 72
65
 73
2
 40
0.2
 49
0.1
 74
0
 49
-0.1
 74
0
  0
LTYPE
  5
1F9
100
AcDbSymbolTableRecord
100
AcDbLinetypeTableRecord
  2
DASHED
 70
64
  3
- - - - - - - - - - - - - - - - - - - -
 72
65
 73
2
 40
0.2
 49
0.1
 74
0
 49
-0.1
 74
0
  0
ENDTAB
  0
TABLE
  2
LAYER
  5
2
100
AcDbSymbolTable
 70
36
  0
LAYER
  5
10
100
AcDbSymbolTableRecord
100
AcDbLayerTableRecord
  2
0
 70
0
 62
7
  6
CONTINUOUS
370
-3
390
F
  0
LAYER
  5
1FA
100
AcDbSymbolTableRecord
100
AcDbLayerTableRecord
  2
DEFAULT_1
 70
0
 62
7
  6
CENTER
370
-3
390
F
  0
LAYER
  5
1FB
100
AcDbSymbolTableRecord
100
AcDbLayerTableRecord
  2
DEFAULT_2
 70
0
 62
7
  6
HIDDEN
370
-3
390
F
  0
LAYER
  5
1FC
100
AcDbSymbolTableRecord
100
AcDbLayerTableRecord
  2
DEFAULT_3
 70
0
 62
7
  6
PHANTOM
370
-3
390
F
  0
LAYER
  5
1FD
100
AcDbSymbolTableRecord
100
AcDbLayerTableRecord
  2
ASSI
 70
0
 62
7
  6
CONTINUOUS
370
-3
390
F
  0
LAYER
  5
1FE
100
AcDbSymbolTableRecord
100
AcDbLayerTableRecord
  2
CLOSED_SHELL
 70
0
 62
7
  6
CONTINUOUS
370
-3
390
F
  0
LAYER
  5
1FF
100
AcDbSymbolTableRecord
100
AcDbLayerTableRecord
  2
COORDINATE
 70
0
 62
7
  6
CONTINUOUS
370
-3
390
F
  0
LAYER
  5
200
100
AcDbSymbolTableRecord
100
AcDbLayerTableRecord
  2
COPY_PUBLISH
 70
0
 62
7
  6
CONTINUOUS
370
-3
390
F
  0
LAYER
  5
201
100
AcDbSymbolTableRecord
100
AcDbLayerTableRecord
  2
COSMETICI
 70
0
 62
7
  6
CONTINUOUS
370
-3
390
F
  0
LAYER
  5
202
100
AcDbSymbolTableRecord
100
AcDbLayerTableRecord
  2
CURVE
 70
0
 62
7
  6
CONTINUOUS
370
-3
390
F
  0
LAYER
  5
203
100
AcDbSymbolTableRecord
100
AcDbLayerTableRecord
  2
DRAFT
 70
0
 62
7
  6
CONTINUOUS
370
-3
390
F
  0
LAYER
  5
204
100
AcDbSymbolTableRecord
100
AcDbLayerTableRecord
  2
GENERAL
 70
0
 62
7
  6
CONTINUOUS
370
-3
390
F
  0
LAYER
  5
205
100
AcDbSymbolTableRecord
100
AcDbLayerTableRecord
  2
IMPORT_IGES
 70
0
 62
7
  6
CONTINUOUS
370
-3
390
F
  0
LAYER
  5
206
100
AcDbSymbolTableRecord
100
AcDbLayerTableRecord
  2
NOTE
 70
0
 62
7
  6
CONTINUOUS
370
-3
390
F
  0
LAYER
  5
207
100
AcDbSymbolTableRecord
100
AcDbLayerTableRecord
  2
PIANI
 70
0
 62
7
  6
CONTINUOUS
370
-3
390
F
  0
LAYER
  5
208
100
AcDbSymbolTableRecord
100
AcDbLayerTableRecord
  2
PUNTI
 70
0
 62
7
  6
CONTINUOUS
370
-3
390
F
  0
LAYER
  5
209
100
AcDbSymbolTableRecord
100
AcDbLayerTableRecord
  2
RACCORDO
 70
0
 62
7
  6
CONTINUOUS
370
-3
390
F
  0
LAYER
  5
20A
100
AcDbSymbolTableRecord
100
AcDbLayerTableRecord
  2
SIMBOLI
 70
0
 62
7
  6
CONTINUOUS
370
-3
390
F
  0
LAYER
  5
20B
100
AcDbSymbolTableRecord
100
AcDbLayerTableRecord
  2
SMUSSO
 70
0
 62
7
  6
CONTINUOUS
370
-3
390
F
  0
LAYER
  5
20C
100
AcDbSymbolTableRecord
100
AcDbLayerTableRecord
  2
SUPERFICI
 70
0
 62
7
  6
CONTINUOUS
370
-3
390
F
  0
LAYER
  5
20D
100
AcDbSymbolTableRecord
100
AcDbLayerTableRecord
  2
TRASH
 70
0
 62
7
  6
CONTINUOUS
370
-3
390
F
  0
ENDTAB
  0
TABLE
  2
STYLE
  5
3
100
AcDbSymbolTable
 70
1
  0
STYLE
  5
11
100
AcDbSymbolTableRecord
100
AcDbTextStyleTableRecord
  2
STANDARD
 70
0
 40
0.0
 41
0.8
 50
0.0
 71
0
 42
0.2
  3
txt
  4

  0
STYLE
  5
20E
100
AcDbSymbolTableRecord
100
AcDbTextStyleTableRecord
  2
TEXTSTYLE_1
 70
0
 40
0.0
 41
0.8
 50
0.0
 71
0
 42
0.2
  3
gdt
  4

  0
ENDTAB
  0
TABLE
  2
VIEW
  5
6
100
AcDbSymbolTable
 70
0
  0
ENDTAB
  0
TABLE
  2
UCS
  5
7
100
AcDbSymbolTable
 70
0
  0
ENDTAB
  0
TABLE
  2
APPID
  5
9
100
AcDbSymbolTable
 70
1
  0
APPID
  5
20F
100
AcDbSymbolTableRecord
100
AcDbRegAppTableRecord
  2
ACAD
 70
0
  0
ENDTAB
  0
TABLE
  2
BLOCK_RECORD
  5
1
100
AcDbSymbolTable
 70
0
  0
BLOCK_RECORD
  5
210
100
AcDbSymbolTableRecord
100
AcDbBlockTableRecord
  2
*Model_Space
  0
BLOCK_RECORD
  5
211
100
AcDbSymbolTableRecord
100
AcDbBlockTableRecord
  2
*Paper_Space
  0
BLOCK_RECORD
  5
212
100
AcDbSymbolTableRecord
100
AcDbBlockTableRecord
  2
_FILLED
  0
BLOCK_RECORD
  5
213
100
AcDbSymbolTableRecord
100
AcDbBlockTableRecord
  2
*D0
  0
BLOCK_RECORD
  5
214
100
AcDbSymbolTableRecord
100
AcDbBlockTableRecord
  2
*D1
  0
BLOCK_RECORD
  5
215
100
AcDbSymbolTableRecord
100
AcDbBlockTableRecord
  2
*D2
  0
BLOCK_RECORD
  5
216
100
AcDbSymbolTableRecord
100
AcDbBlockTableRecord
  2
*D3
  0
ENDTAB
  0
TABLE
  2
DIMSTYLE
  5
A
100
AcDbSymbolTable
 70
1
100
AcDbDimStyleTable
 71
0
  0
DIMSTYLE
105
217
100
AcDbSymbolTableRecord
100
AcDbDimStyleTableRecord
  2
STANDARD
 70
0
  3

  4

 40
1.0
 41
3.0
 42
0.5
 43
0.38
 44
1.5
 45
0.0
 46
0.0
 47
0.01
 48
0.01
140
3.0
141
0.09
142
0.0
143
25.4
144
1.0
145
0.0
146
1.0
147
0.625
 71
1
 72
0
 73
0
 74
0
 75
0
 76
0
 77
1
 78
8
 79
2
170
0
171
1
172
0
173
0
174
0
175
0
176
0
177
0
178
0
270
2
179
2
271
2
272
2
273
2
274
2
275
0
280
0
281
0
282
0
283
1
284
8
285
0
286
0
287
3
288
0
340
11
278
44
341
212
342
212
343
212
344
212
  0
DIMSTYLE
105
218
100
AcDbSymbolTableRecord
100
AcDbDimStyleTableRecord
  2
DIMSTYLE_1
 70
0
  3

  4

 40
1.0
 41
3.0
 42
0.5
 43
0.38
 44
1.5
 45
0.0
 46
0.0
 47
0.0
 48
0.0
140
3.0
141
0.09
142
0.0
143
25.4
144
1.0
145
0.0
146
1.0
147
0.75
 71
0
 72
0
 73
0
 74
0
 75
0
 76
0
 77
1
 78
8
 79
2
170
0
171
1
172
0
173
0
174
0
175
0
176
0
177
0
178
0
270
2
179
2
271
2
272
2
273
2
274
2
275
0
280
0
281
0
282
0
283
1
284
8
285
0
286
0
287
3
288
0
340
11
278
44
341
212
342
212
343
212
344
212
  0
ENDTAB
  0
ENDSEC
  0
SECTION
  2
BLOCKS
  0
BLOCK
  5
20
100
AcDbEntity
  8
0
100
AcDbBlockBegin
  2
*Model_Space
 70
0
 10
0.0
 20
0.0
 30
0.0
  3
*Model_Space
  1

  0
ENDBLK
  5
21
100
AcDbEntity
  8
0
100
AcDbBlockEnd
  0
BLOCK
  5
1C
100
AcDbEntity
  8
0
100
AcDbBlockBegin
  2
*Paper_Space
 70
0
 10
0.0
 20
0.0
 30
0.0
  3
*Paper_Space
  1

  0
ENDBLK
  5
1D
100
AcDbEntity
  8
0
100
AcDbBlockEnd
  0
BLOCK
  5
219
100
AcDbEntity
  8
0
100
AcDbBlockBegin
  2
_FILLED
 70
64
 10
0.0
 20
0.0
  3
_FILLED
  1

  0
SOLID
  5
21A
100
AcDbEntity
  8
0
  6
BYBLOCK
 62
0
100
AcDbTrace
 10
0.0
 20
0.0
 11
-1.0
 21
0.3166666667
 12
-1.0
 22
-0.3166666667
 13
-1.0
 23
-0.3166666667
  0
ENDBLK
  5
21B
100
AcDbEntity
  8
0
  6
BYBLOCK
 62
0
100
AcDbBlockEnd
  0
BLOCK
  5
21C
100
AcDbEntity
  8
0
100
AcDbBlockBegin
 62
7
  6
CONTINUOUS
  2
*D0
 70
65
 10
0.0
 20
0.0
  3
*D0
  1

  0
LINE
  5
21D
100
AcDbEntity
  8
0
100
AcDbLine
 62
7
  6
CONTINUOUS
 10
286.9647505238
 20
348.6086263815
 11
286.9647505238
 21
358.3872275814
  0
LINE
  5
21E
100
AcDbEntity
  8
0
100
AcDbLine
 62
7
  6
CONTINUOUS
 10
337.1647505238
 20
334.6586263815
 11
337.1647505238
 21
358.3872275814
  0
LINE
  5
21F
100
AcDbEntity
  8
0
100
AcDbLine
 62
7
  6
CONTINUOUS
 10
286.9647505238
 20
356.8872275814
 11
312.0647505238
 21
356.8872275814
  0
LINE
  5
220
100
AcDbEntity
  8
0
100
AcDbLine
 62
7
  6
CONTINUOUS
 10
337.1647505238
 20
356.8872275814
 11
312.0647505238
 21
356.8872275814
  0
INSERT
  5
221
100
AcDbEntity
  8
0
100
AcDbBlockReference
 62
7
  6
CONTINUOUS
  2
_FILLED
 10
286.9647505238
 20
356.8872275814
 41
3.0
 42
3.0
 43
3.0
 50
180.0
  0
INSERT
  5
222
100
AcDbEntity
  8
0
100
AcDbBlockReference
 62
7
  6
CONTINUOUS
  2
_FILLED
 10
337.1647505238
 20
356.8872275814
 41
3.0
 42
3.0
 43
3.0
  0
ENDBLK
  5
223
100
AcDbEntity
  8
0
  6
BYBLOCK
 62
0
100
AcDbBlockEnd
  0
BLOCK
  5
224
100
AcDbEntity
  8
0
100
AcDbBlockBegin
 62
7
  6
CONTINUOUS
  2
*D1
 70
65
 10
0.0
 20
0.0
  3
*D1
  1

  0
LINE
  5
225
100
AcDbEntity
  8
0
100
AcDbLine
 62
7
  6
CONTINUOUS
 10
284.9647505238
 20
339.6410208815
 11
284.9647505238
 21
366.5846774729
  0
LINE
  5
226
100
AcDbEntity
  8
0
100
AcDbLine
 62
7
  6
CONTINUOUS
 10
337.1647505238
 20
334.6586263815
 11
337.1647505238
 21
366.5846774729
  0
LINE
  5
227
100
AcDbEntity
  8
0
100
AcDbLine
 62
7
  6
CONTINUOUS
 10
284.9647505238
 20
365.0846774729
 11
311.0647505238
 21
365.0846774729
  0
LINE
  5
228
100
AcDbEntity
  8
0
100
AcDbLine
 62
7
  6
CONTINUOUS
 10
337.1647505238
 20
365.0846774729
 11
311.0647505238
 21
365.0846774729
  0
INSERT
  5
229
100
AcDbEntity
  8
0
100
AcDbBlockReference
 62
7
  6
CONTINUOUS
  2
_FILLED
 10
284.9647505238
 20
365.0846774729
 41
3.0
 42
3.0
 43
3.0
 50
180.0
  0
INSERT
  5
22A
100
AcDbEntity
  8
0
100
AcDbBlockReference
 62
7
  6
CONTINUOUS
  2
_FILLED
 10
337.1647505238
 20
365.0846774729
 41
3.0
 42
3.0
 43
3.0
  0
ENDBLK
  5
22B
100
AcDbEntity
  8
0
  6
BYBLOCK
 62
0
100
AcDbBlockEnd
  0
BLOCK
  5
22C
100
AcDbEntity
  8
0
100
AcDbBlockBegin
 62
7
  6
CONTINUOUS
  2
*D2
 70
65
 10
0.0
 20
0.0
  3
*D2
  1

  0
LINE
  5
22D
100
AcDbEntity
  8
0
100
AcDbLine
 62
7
  6
CONTINUOUS
 10
412.9340065238
 20
344.6086263815
 11
412.9340065238
 21
357.9108894293
  0
LINE
  5
22E
100
AcDbEntity
  8
0
100
AcDbLine
 62
7
  6
CONTINUOUS
 10
563.0840065238
 20
344.6086263815
 11
563.0840065238
 21
357.9108894293
  0
LINE
  5
22F
100
AcDbEntity
  8
0
100
AcDbLine
 62
7
  6
CONTINUOUS
 10
412.9340065238
 20
356.4108894293
 11
488.0090065238
 21
356.4108894293
  0
LINE
  5
230
100
AcDbEntity
  8
0
100
AcDbLine
 62
7
  6
CONTINUOUS
 10
563.0840065238
 20
356.4108894293
 11
488.0090065238
 21
356.4108894293
  0
INSERT
  5
231
100
AcDbEntity
  8
0
100
AcDbBlockReference
 62
7
  6
CONTINUOUS
  2
_FILLED
 10
412.9340065238
 20
356.4108894293
 41
3.0
 42
3.0
 43
3.0
 50
180.0
  0
INSERT
  5
232
100
AcDbEntity
  8
0
100
AcDbBlockReference
 62
7
  6
CONTINUOUS
  2
_FILLED
 10
563.0840065238
 20
356.4108894293
 41
3.0
 42
3.0
 43
3.0
  0
ENDBLK
  5
233
100
AcDbEntity
  8
0
  6
BYBLOCK
 62
0
100
AcDbBlockEnd
  0
BLOCK
  5
234
100
AcDbEntity
  8
0
100
AcDbBlockBegin
 62
7
  6
CONTINUOUS
  2
*D3
 70
65
 10
0.0
 20
0.0
  3
*D3
  1

  0
LINE
  5
235
100
AcDbEntity
  8
0
100
AcDbLine
 62
7
  6
CONTINUOUS
 10
559.5840065238
 20
348.1086263815
 11
579.2083133015
 21
348.1086263815
  0
LINE
  5
236
100
AcDbEntity
  8
0
100
AcDbLine
 62
7
  6
CONTINUOUS
 10
559.5840065238
 20
231.1086263815
 11
579.2083133015
 21
231.1086263815
  0
LINE
  5
237
100
AcDbEntity
  8
0
100
AcDbLine
 62
7
  6
CONTINUOUS
 10
577.7083133015
 20
348.1086263815
 11
577.7083133015
 21
289.6086263815
  0
LINE
  5
238
100
AcDbEntity
  8
0
100
AcDbLine
 62
7
  6
CONTINUOUS
 10
577.7083133015
 20
231.1086263815
 11
577.7083133015
 21
289.6086263815
  0
INSERT
  5
239
100
AcDbEntity
  8
0
100
AcDbBlockReference
 62
7
  6
CONTINUOUS
  2
_FILLED
 10
577.7083133015
 20
348.1086263815
 41
3.0
 42
3.0
 43
3.0
 50
90.0
  0
INSERT
  5
23A
100
AcDbEntity
  8
0
100
AcDbBlockReference
 62
7
  6
CONTINUOUS
  2
_FILLED
 10
577.7083133015
 20
231.1086263815
 41
3.0
 42
3.0
 43
3.0
 50
270.0
  0
ENDBLK
  5
23B
100
AcDbEntity
  8
0
  6
BYBLOCK
 62
0
100
AcDbBlockEnd
  0
ENDSEC
  0
SECTION
  2
ENTITIES
  0
DIMENSION
  5
23C
100
AcDbEntity
  8
0
100
AcDbDimension
 62
7
  6
CONTINUOUS
  2
*D0
 10
337.1647505238
 20
356.8872275814
 11
306.9218933809
 21
356.8872275814
 70
160
 71
2
 72
2
 41
0.9
 42
50.2
  3
DIMSTYLE_1
100
AcDbAlignedDimension
 13
286.9647505238
 23
348.1086263815
 14
337.1647505238
 24
334.1586263815
100
AcDbRotatedDimension
  0
DIMENSION
  5
23D
100
AcDbEntity
  8
0
100
AcDbDimension
 62
7
  6
CONTINUOUS
  2
*D1
 10
337.1647505238
 20
365.0846774729
 11
305.9218933809
 21
365.0846774729
 70
160
 71
2
 72
2
 41
0.9
 42
52.2
  3
DIMSTYLE_1
100
AcDbAlignedDimension
 13
284.9647505238
 23
339.1410208815
 14
337.1647505238
 24
334.1586263815
100
AcDbRotatedDimension
  0
DIMENSION
  5
23E
100
AcDbEntity
  8
0
100
AcDbDimension
 62
7
  6
CONTINUOUS
  2
*D2
 10
563.0840065238
 20
356.4108894293
 11
482.6518636667
 21
356.4108894293
 70
160
 71
2
 72
2
 41
0.9
 42
150.15
  3
DIMSTYLE_1
100
AcDbAlignedDimension
 13
412.9340065238
 23
344.1086263815
 14
563.0840065238
 24
344.1086263815
100
AcDbRotatedDimension
  0
DIMENSION
  5
23F
100
AcDbEntity
  8
0
100
AcDbDimension
 62
7
  6
CONTINUOUS
  2
*D3
 10
577.7083133015
 20
231.1086263815
 11
577.7083133015
 21
286.1800549529
 70
160
 71
2
 72
2
 41
0.9
 42
117.0
  3
DIMSTYLE_1
100
AcDbAlignedDimension
 13
559.0840065238
 23
348.1086263815
 14
559.0840065238
 24
231.1086263815
 50
270.0
100
AcDbRotatedDimension
  0
LINE
  5
240
100
AcDbEntity
  8
0
100
AcDbLine
 62
7
  6
CONTINUOUS
 10
286.5647505238
 20
348.1086263815
 11
286.5642740238
 21
348.1071193815
  0
LINE
  5
241
100
AcDbEntity
  8
0
100
AcDbLine
 62
7
  6
CONTINUOUS
 10
286.5647505238
 20
231.1086263815
 11
286.5642740238
 21
231.1101333815
  0
LWPOLYLINE
  5
242
100
AcDbEntity
  8
0
100
AcDbPolyline
 62
7
  6
CONTINUOUS
 90
17
 70
0
 10
286.5642749049
 20
231.1101338245
 10
286.561305634
 20
231.1249508977
 10
286.5539778425
 20
231.1814817416
 10
286.5471134206
 20
231.2511717037
 10
286.5375099438
 20
231.3779791127
 10
286.5287785624
 20
231.5369624915
 10
286.5216814334
 20
231.7268559911
 10
286.5168130165
 20
231.9455474955
 10
286.5145082156
 20
232.1937634575
 10
286.5150366598
 20
232.4747674562
 10
286.5177337698
 20
232.7313962117
 10
286.5242562003
 20
233.1019835432
 10
286.5353424723
 20
233.5791300441
 10
286.5393174695
 20
233.7373916925
 10
286.5519299497
 20
234.2552423099
 10
286.5599002596
 20
234.6575746151
 10
286.5642749051
 20
234.9988317094
  0
LWPOLYLINE
  5
243
100
AcDbEntity
  8
0
100
AcDbPolyline
 62
7
  6
CONTINUOUS
 90
17
 70
0
 10
286.5642749051
 20
344.2184210535
 10
286.5598862511
 20
344.5601863795
 10
286.5518765717
 20
344.9635789622
 10
286.541341309
 20
345.3990396208
 10
286.5285823533
 20
345.9176229686
 10
286.5222788257
 20
346.2128362179
 10
286.5166656187
 20
346.5671505626
 10
286.5144210595
 20
346.8696829836
 10
286.5151616168
 20
347.1350375023
 10
286.5186196958
 20
347.3696152349
 10
286.5245500385
 20
347.5766308514
 10
286.5324494849
 20
347.7531866146
 10
286.5416940095
 20
347.8989058673
 10
286.5513583015
 20
348.0109060048
 10
286.5570857568
 20
348.0621795374
 10
286.5613049068
 20
348.0922935263
 10
286.5642749049
 20
348.1071189384
  0
LINE
  5
244
100
AcDbEntity
  8
0
100
AcDbLine
 62
7
  6
CONTINUOUS
 10
286.5647505238
 20
344.1086263815
 11
286.5642740238
 21
344.2184208815
  0
LINE
  5
245
100
AcDbEntity
  8
0
100
AcDbLine
 62
7
  6
CONTINUOUS
 10
284.9647505238
 20
237.6086263815
 11
284.9647505238
 21
240.0657788815
  0
LINE
  5
246
100
AcDbEntity
  8
0
100
AcDbLine
 62
7
  6
CONTINUOUS
 10
284.9647505238
 20
240.0762318815
 11
284.9647505238
 21
339.1410208815
  0
LINE
  5
247
100
AcDbEntity
  8
0
100
AcDbLine
 62
7
  6
CONTINUOUS
 10
284.9647505238
 20
339.1515618815
 11
284.9647505238
 21
340.3586263815
  0
LINE
  5
248
100
AcDbEntity
  8
0
100
AcDbLine
 62
7
  6
CONTINUOUS
 10
286.5647505238
 20
344.1086263815
 11
286.5647505238
 21
235.1086263815
  0
LINE
  5
249
100
AcDbEntity
  8
0
100
AcDbLine
 62
7
  6
CONTINUOUS
 10
286.9647505238
 20
348.1086263815
 11
286.9647505238
 21
231.1086263815
  0
LINE
  5
24A
100
AcDbEntity
  8
0
100
AcDbLine
 62
7
  6
CONTINUOUS
 10
286.9897505238
 20
337.4086263815
 11
286.9897505238
 21
335.9086263815
  0
LINE
  5
24B
100
AcDbEntity
  8
0
100
AcDbLine
 62
7
  6
CONTINUOUS
 10
288.4988710238
 20
334.5401818815
 11
288.4988710238
 21
336.8615783815
  0
LINE
  5
24C
100
AcDbEntity
  8
0
100
AcDbLine
 62
7
  6
CONTINUOUS
 10
289.7397505238
 20
335.9086263815
 11
289.7397505238
 21
337.4086263815
  0
LINE
  5
24D
100
AcDbEntity
  8
0
100
AcDbLine
 62
7
  6
CONTINUOUS
 10
298.9647505238
 20
237.1586263815
 11
298.9647505238
 21
342.0586263815
  0
LINE
  5
24E
100
AcDbEntity
  8
0
100
AcDbLine
 62
7
  6
CONTINUOUS
 10
286.5647505238
 20
235.1086263815
 11
286.5642740238
 21
234.9988318815
  0
LWPOLYLINE
  5
24F
100
AcDbEntity
  8
0
100
AcDbPolyline
 62
7
  6
CONTINUOUS
 90
3
 70
0
 43
0.3499999985
 10
313.0647395325
 20
366.1203804626
 10
312.9933130493
 20
365.9061010132
 10
312.850460083
 20
365.6203950806
  0
LWPOLYLINE
  5
250
100
AcDbEntity
  8
0
100
AcDbPolyline
 62
7
  6
CONTINUOUS
 90
3
 70
0
 43
0.3499999985
 10
314.0647616272
 20
357.9229403381
 10
313.9933094788
 20
357.7086608887
 10
313.8504565125
 20
357.4229292908
  0
LWPOLYLINE
  5
251
100
AcDbEntity
  8
0
100
AcDbPolyline
 62
7
  6
CONTINUOUS
 90
3
 70
0
 43
0.3499999985
 10
305.9218858948
 20
367.9775460205
 10
306.7790293579
 20
368.8346894836
 10
306.7790293579
 20
365.83467453
  0
LWPOLYLINE
  5
252
100
AcDbEntity
  8
0
100
AcDbPolyline
 62
7
  6
CONTINUOUS
 90
3
 70
0
 43
0.3499999985
 10
306.9218823242
 20
359.7800802307
 10
307.7790257874
 20
360.6372236938
 10
307.7790257874
 20
357.6372344055
  0
LWPOLYLINE
  5
253
100
AcDbEntity
  8
0
100
AcDbPolyline
 62
7
  6
CONTINUOUS
 90
13
 70
0
 43
0.3499999985
 10
307.636172821
 20
366.6918179932
 10
307.636172821
 20
367.9775460205
 10
307.8504522705
 20
368.4061049194
 10
308.2790368347
 20
368.8346894836
 10
308.4933162842
 20
368.8346894836
 10
308.9219008484
 20
368.4061049194
 10
309.1361802979
 20
367.9775460205
 10
309.1361802979
 20
366.6918179932
 10
308.9219008484
 20
366.2632590942
 10
308.4933162842
 20
365.83467453
 10
308.2790368347
 20
365.83467453
 10
307.8504522705
 20
366.2632590942
 10
307.636172821
 20
366.6918179932
  0
LWPOLYLINE
  5
254
100
AcDbEntity
  8
0
100
AcDbPolyline
 62
7
  6
CONTINUOUS
 90
13
 70
0
 43
0.3499999985
 10
308.6361692505
 20
358.4943778687
 10
308.6361692505
 20
359.7800802307
 10
308.8504743652
 20
360.2086647949
 10
309.2790332642
 20
360.6372236938
 10
309.4933127136
 20
360.6372236938
 10
309.9218972778
 20
360.2086647949
 10
310.1361767273
 20
359.7800802307
 10
310.1361767273
 20
358.4943778687
 10
309.9218972778
 20
358.0657933044
 10
309.4933127136
 20
357.6372344055
 10
309.2790332642
 20
357.6372344055
 10
308.8504743652
 20
358.0657933044
 10
308.6361692505
 20
358.4943778687
  0
LWPOLYLINE
  5
255
100
AcDbEntity
  8
0
100
AcDbPolyline
 62
7
  6
CONTINUOUS
 90
13
 70
0
 43
0.3499999985
 10
310.9933201904
 20
358.4943778687
 10
310.9933201904
 20
359.7800802307
 10
311.2075996399
 20
360.2086647949
 10
311.6361842041
 20
360.6372236938
 10
311.8504636536
 20
360.6372236938
 10
312.2790482178
 20
360.2086647949
 10
312.4933276672
 20
359.7800802307
 10
312.4933276672
 20
358.4943778687
 10
312.2790482178
 20
358.0657933044
 10
311.8504636536
 20
357.6372344055
 10
311.6361842041
 20
357.6372344055
 10
311.2075996399
 20
358.0657933044
 10
310.9933201904
 20
358.4943778687
  0
LWPOLYLINE
  5
256
100
AcDbEntity
  8
0
100
AcDbPolyline
 62
7
  6
CONTINUOUS
 90
2
 70
0
 43
0.3499999985
 10
310.9933201904
 20
365.83467453
 10
310.9933201904
 20
367.3346820068
  0
LINE
  5
257
100
AcDbEntity
  8
0
100
AcDbLine
 62
7
  6
CONTINUOUS
 10
315.4647505238
 20
334.3479993815
 11
315.4647505238
 21
325.0086263815
  0
LINE
  5
258
100
AcDbEntity
  8
0
100
AcDbLine
 62
7
  6
CONTINUOUS
 10
315.4647505238
 20
254.2086263815
 11
315.4647505238
 21
244.8692533815
  0
LINE
  5
259
100
AcDbEntity
  8
0
100
AcDbLine
 62
7
  6
CONTINUOUS
 10
337.1647505238
 20
245.0586263815
 11
337.1647505238
 21
334.1586263815
  0
LINE
  5
25A
100
AcDbEntity
  8
0
100
AcDbLine
 62
7
  6
CONTINUOUS
 10
559.0840065238
 20
231.1086263815
 11
559.1938010238
 21
231.1101333815
  0
LINE
  5
25B
100
AcDbEntity
  8
0
100
AcDbLine
 62
7
  6
CONTINUOUS
 10
554.1164010238
 20
238.6044513815
 11
555.5863160238
 21
238.6063168815
  0
LINE
  5
25C
100
AcDbEntity
  8
0
100
AcDbLine
 62
7
  6
CONTINUOUS
 10
559.0840065238
 20
231.1086263815
 11
416.9340065238
 21
231.1086263815
  0
LINE
  5
25D
100
AcDbEntity
  8
0
100
AcDbLine
 62
7
  6
CONTINUOUS
 10
286.5647505238
 20
231.1086263815
 11
286.9647505238
 21
231.1086263815
  0
LINE
  5
25E
100
AcDbEntity
  8
DEFAULT_1
100
AcDbLine
 62
7
  6
CENTER
 10
287.0102785238
 20
235.1086263815
 11
286.9647505238
 21
235.1086263815
  0
LINE
  5
25F
100
AcDbEntity
  8
0
100
AcDbLine
 62
7
  6
CONTINUOUS
 10
286.9647505238
 20
235.1086263815
 11
286.5647505238
 21
235.1086263815
  0
LINE
  5
260
100
AcDbEntity
  8
DEFAULT_1
100
AcDbLine
 62
7
  6
CENTER
 10
286.5647505238
 20
235.1086263815
 11
286.4639260238
 21
235.1086263815
  0
LINE
  5
261
100
AcDbEntity
  8
0
100
AcDbLine
 62
7
  6
CONTINUOUS
 10
298.9647505238
 20
237.1586263815
 11
286.9647505238
 21
237.1586263815
  0
LINE
  5
262
100
AcDbEntity
  8
0
100
AcDbLine
 62
7
  6
CONTINUOUS
 10
505.6090065238
 20
237.6086263815
 11
470.4090065238
 21
237.6086263815
  0
LINE
  5
263
100
AcDbEntity
  8
0
100
AcDbLine
 62
7
  6
CONTINUOUS
 10
285.0917930238
 20
237.6086263815
 11
284.9647505238
 21
237.6086263815
  0
LINE
  5
264
100
AcDbEntity
  8
0
100
AcDbLine
 62
7
  6
CONTINUOUS
 10
554.1164010238
 20
238.6044513815
 11
421.9016120238
 21
238.6044513815
  0
LINE
  5
265
100
AcDbEntity
  8
DEFAULT_1
100
AcDbLine
 62
7
  6
CENTER
 10
285.1045205238
 20
238.6086263815
 11
285.0148035238
 21
238.6086263815
  0
LINE
  5
266
100
AcDbEntity
  8
DEFAULT_1
100
AcDbLine
 62
7
  6
CENTER
 10
284.9647505238
 20
238.6086263815
 11
284.9517725238
 21
238.6086263815
  0
LINE
  5
267
100
AcDbEntity
  8
0
100
AcDbLine
 62
7
  6
CONTINUOUS
 10
284.9647505238
 20
238.6086263815
 11
285.0148035238
 21
238.6086263815
  0
LINE
  5
268
100
AcDbEntity
  8
0
100
AcDbLine
 62
7
  6
CONTINUOUS
 10
555.3840065238
 20
238.8086263815
 11
506.6090025238
 21
238.8086263815
  0
LINE
  5
269
100
AcDbEntity
  8
0
100
AcDbLine
 62
7
  6
CONTINUOUS
 10
469.4090025238
 20
238.8086263815
 11
420.6340065238
 21
238.8086263815
  0
LINE
  5
26A
100
AcDbEntity
  8
0
100
AcDbLine
 62
7
  6
CONTINUOUS
 10
555.0128045238
 20
238.8586263815
 11
506.8582870238
 21
238.8586263815
  0
LINE
  5
26B
100
AcDbEntity
  8
0
100
AcDbLine
 62
7
  6
CONTINUOUS
 10
469.1597260238
 20
238.8586263815
 11
421.0052085238
 21
238.8586263815
  0
LINE
  5
26C
100
AcDbEntity
  8
0
100
AcDbLine
 62
7
  6
CONTINUOUS
 10
532.0580050238
 20
240.3893603815
 11
529.8129105238
 21
240.3893603815
  0
LINE
  5
26D
100
AcDbEntity
  8
0
100
AcDbLine
 62
7
  6
CONTINUOUS
 10
532.0509015238
 20
240.4137973815
 11
529.8200140238
 21
240.4137973815
  0
LINE
  5
26E
100
AcDbEntity
  8
0
100
AcDbLine
 62
7
  6
CONTINUOUS
 10
532.3410545238
 20
240.6424788815
 11
529.5298610238
 21
240.6424788815
  0
LINE
  5
26F
100
AcDbEntity
  8
0
100
AcDbLine
 62
7
  6
CONTINUOUS
 10
529.5382270238
 20
240.6637973815
 11
532.3326885238
 21
240.6637973815
  0
LINE
  5
270
100
AcDbEntity
  8
0
100
AcDbLine
 62
7
  6
CONTINUOUS
 10
529.4803620238
 20
240.7198588815
 11
532.3905475238
 21
240.7198588815
  0
LINE
  5
271
100
AcDbEntity
  8
0
100
AcDbLine
 62
7
  6
CONTINUOUS
 10
532.4328675238
 20
240.7637973815
 11
529.4378715238
 21
240.7637973815
  0
LINE
  5
272
100
AcDbEntity
  8
0
100
AcDbLine
 62
7
  6
CONTINUOUS
 10
516.6854575238
 20
241.3586263815
 11
528.6070695238
 21
241.3586263815
  0
LINE
  5
273
100
AcDbEntity
  8
0
100
AcDbLine
 62
7
  6
CONTINUOUS
 10
533.2638455238
 20
241.3586263815
 11
545.1854575238
 21
241.3586263815
  0
LINE
  5
274
100
AcDbEntity
  8
0
100
AcDbLine
 62
7
  6
CONTINUOUS
 10
545.6175415238
 20
241.4955983815
 11
543.9030965238
 21
241.4955983815
  0
LINE
  5
275
100
AcDbEntity
  8
0
100
AcDbLine
 62
7
  6
CONTINUOUS
 10
543.9025530238
 20
241.4955983815
 11
518.0025530238
 21
241.4955983815
  0
LINE
  5
276
100
AcDbEntity
  8
0
100
AcDbLine
 62
7
  6
CONTINUOUS
 10
518.0020105238
 20
241.4955983815
 11
516.2533740238
 21
241.4955983815
  0
LINE
  5
277
100
AcDbEntity
  8
0
100
AcDbLine
 62
7
  6
CONTINUOUS
 10
284.9645365238
 20
241.4955983815
 11
283.3627975238
 21
241.4955983815
  0
LINE
  5
278
100
AcDbEntity
  8
0
100
AcDbLine
 62
7
  6
CONTINUOUS
 10
421.9016120238
 20
238.6044513815
 11
420.4316970238
 21
238.6063168815
  0
LINE
  5
279
100
AcDbEntity
  8
0
100
AcDbLine
 62
7
  6
CONTINUOUS
 10
416.9340065238
 20
231.1086263815
 11
416.8242120238
 21
231.1101333815
  0
LWPOLYLINE
  5
27A
100
AcDbEntity
  8
0
100
AcDbPolyline
 62
7
  6
CONTINUOUS
 90
10
 70
0
 43
0.3499999985
 10
313.9933094788
 20
358.1372197876
 10
314.0647616272
 20
357.9943668213
 10
314.0647616272
 20
357.9229403381
 10
313.9218829956
 20
357.7800873718
 10
313.8504565125
 20
357.7800873718
 10
313.7790300293
 20
357.851513855
 10
313.7790300293
 20
357.9229403381
 10
313.8504565125
 20
358.0657933044
 10
313.9218829956
 20
358.1372197876
 10
313.9933094788
 20
358.1372197876
  0
LWPOLYLINE
  5
27B
100
AcDbEntity
  8
0
100
AcDbPolyline
 62
7
  6
CONTINUOUS
 90
10
 70
0
 43
0.3499999985
 10
312.9933130493
 20
366.3346855774
 10
313.0647395325
 20
366.1918326111
 10
313.0647395325
 20
366.1203804626
 10
312.9218865662
 20
365.9775274963
 10
312.850460083
 20
365.9775274963
 10
312.7790335999
 20
366.0489539795
 10
312.7790335999
 20
366.1203804626
 10
312.850460083
 20
366.2632590942
 10
312.9218865662
 20
366.3346855774
 10
312.9933130493
 20
366.3346855774
  0
LINE
  5
27C
100
AcDbEntity
  8
0
100
AcDbLine
 62
7
  6
CONTINUOUS
 10
284.9647505238
 20
238.8586263815
 11
284.9988300238
 21
238.8646353815
  0
LINE
  5
27D
100
AcDbEntity
  8
0
100
AcDbLine
 62
7
  6
CONTINUOUS
 10
284.9863685238
 20
239.1086403815
 11
284.9647505238
 21
239.1048283815
  0
LINE
  5
27E
100
AcDbEntity
  8
0
100
AcDbLine
 62
7
  6
CONTINUOUS
 10
284.9647505238
 20
238.6044513815
 11
285.0150010238
 21
238.6063168815
  0
LINE
  5
27F
100
AcDbEntity
  8
0
100
AcDbLine
 62
7
  6
CONTINUOUS
 10
298.9647450238
 20
244.7252598815
 11
337.1647505238
 21
245.0586263815
  0
LINE
  5
280
100
AcDbEntity
  8
0
100
AcDbLine
 62
7
  6
CONTINUOUS
 10
545.5813955238
 20
242.7455983815
 11
516.2895200238
 21
242.7455983815
  0
LINE
  5
281
100
AcDbEntity
  8
0
100
AcDbLine
 62
7
  6
CONTINUOUS
 10
284.9645165238
 20
242.7455983815
 11
283.3627975238
 21
242.7455983815
  0
LINE
  5
282
100
AcDbEntity
  8
0
100
AcDbLine
 62
7
  6
CONTINUOUS
 10
545.1854575238
 20
242.8586263815
 11
538.3684920238
 21
242.8586263815
  0
LINE
  5
283
100
AcDbEntity
  8
0
100
AcDbLine
 62
7
  6
CONTINUOUS
 10
523.5024235238
 20
242.8586263815
 11
516.6854575238
 21
242.8586263815
  0
LINE
  5
284
100
AcDbEntity
  8
0
100
AcDbLine
 62
7
  6
CONTINUOUS
 10
529.4378715238
 20
243.5637973815
 11
532.4328675238
 21
243.5637973815
  0
LINE
  5
285
100
AcDbEntity
  8
0
100
AcDbLine
 62
7
  6
CONTINUOUS
 10
532.3905415238
 20
243.6077353815
 11
529.4803680238
 21
243.6077353815
  0
LINE
  5
286
100
AcDbEntity
  8
0
100
AcDbLine
 62
7
  6
CONTINUOUS
 10
529.5382270238
 20
243.6637973815
 11
532.3326885238
 21
243.6637973815
  0
LINE
  5
287
100
AcDbEntity
  8
0
100
AcDbLine
 62
7
  6
CONTINUOUS
 10
529.5298610238
 20
243.6851153815
 11
532.3410545238
 21
243.6851153815
  0
LINE
  5
288
100
AcDbEntity
  8
0
100
AcDbLine
 62
7
  6
CONTINUOUS
 10
532.0509015238
 20
243.9137973815
 11
529.8200140238
 21
243.9137973815
  0
LINE
  5
289
100
AcDbEntity
  8
0
100
AcDbLine
 62
7
  6
CONTINUOUS
 10
529.8129105238
 20
243.9382343815
 11
532.0580050238
 21
243.9382343815
  0
LINE
  5
28A
100
AcDbEntity
  8
0
100
AcDbLine
 62
7
  6
CONTINUOUS
 10
506.6090065238
 20
247.2283208815
 11
469.4090065238
 21
247.2283208815
  0
LINE
  5
28B
100
AcDbEntity
  8
0
100
AcDbLine
 62
7
  6
CONTINUOUS
 10
506.5590065238
 20
247.2836263815
 11
469.4590065238
 21
247.2836263815
  0
LINE
  5
28C
100
AcDbEntity
  8
0
100
AcDbLine
 62
7
  6
CONTINUOUS
 10
337.1647505238
 20
252.3586263815
 11
315.4647505238
 21
252.3586263815
  0
LINE
  5
28D
100
AcDbEntity
  8
0
100
AcDbLine
 62
7
  6
CONTINUOUS
 10
554.2633120238
 20
252.4691273815
 11
506.6090065238
 21
252.4691273815
  0
LINE
  5
28E
100
AcDbEntity
  8
0
100
AcDbLine
 62
7
  6
CONTINUOUS
 10
469.4090065238
 20
252.4691273815
 11
421.7547010238
 21
252.4691273815
  0
LINE
  5
28F
100
AcDbEntity
  8
0
100
AcDbLine
 62
7
  6
CONTINUOUS
 10
554.2590065238
 20
252.5336263815
 11
506.5590065238
 21
252.5336263815
  0
LINE
  5
290
100
AcDbEntity
  8
0
100
AcDbLine
 62
7
  6
CONTINUOUS
 10
469.4590065238
 20
252.5336263815
 11
421.8590065238
 21
252.5336263815
  0
LINE
  5
291
100
AcDbEntity
  8
0
100
AcDbLine
 62
7
  6
CONTINUOUS
 10
421.8090065238
 20
252.5514918815
 11
421.8590045238
 21
252.5514918815
  0
LINE
  5
292
100
AcDbEntity
  8
0
100
AcDbLine
 62
7
  6
CONTINUOUS
 10
337.1647505238
 20
254.2086263815
 11
315.4647505238
 21
254.2086263815
  0
LINE
  5
293
100
AcDbEntity
  8
0
100
AcDbLine
 62
7
  6
CONTINUOUS
 10
412.9340065238
 20
235.1086263815
 11
412.9355135238
 21
234.9988318815
  0
LINE
  5
294
100
AcDbEntity
  8
0
100
AcDbLine
 62
7
  6
CONTINUOUS
 10
420.4298315238
 20
240.0762318815
 11
420.4316970238
 21
238.6063168815
  0
LINE
  5
295
100
AcDbEntity
  8
0
100
AcDbLine
 62
7
  6
CONTINUOUS
 10
412.9340065238
 20
235.1086263815
 11
412.9340065238
 21
344.1086263815
  0
LINE
  5
296
100
AcDbEntity
  8
0
100
AcDbLine
 62
7
  6
CONTINUOUS
 10
420.4298315238
 20
339.1410208815
 11
420.4298315238
 21
240.0762318815
  0
LINE
  5
297
100
AcDbEntity
  8
0
100
AcDbLine
 62
7
  6
CONTINUOUS
 10
420.5050050238
 20
337.4086263815
 11
420.5050050238
 21
335.9086263815
  0
LINE
  5
298
100
AcDbEntity
  8
0
100
AcDbLine
 62
7
  6
CONTINUOUS
 10
420.6070925238
 20
336.8586253815
 11
420.6070925238
 21
335.9086263815
  0
LINE
  5
299
100
AcDbEntity
  8
0
100
AcDbLine
 62
7
  6
CONTINUOUS
 10
420.6340065238
 20
340.4086263815
 11
420.6340065238
 21
339.2586248815
  0
LINE
  5
29A
100
AcDbEntity
  8
0
100
AcDbLine
 62
7
  6
CONTINUOUS
 10
420.6340065238
 20
336.8586248815
 11
420.6340065238
 21
238.8086263815
  0
LINE
  5
29B
100
AcDbEntity
  8
0
100
AcDbLine
 62
7
  6
CONTINUOUS
 10
420.7590065238
 20
340.1124243815
 11
420.7590065238
 21
239.1048283815
  0
LINE
  5
29C
100
AcDbEntity
  8
0
100
AcDbLine
 62
7
  6
CONTINUOUS
 10
421.7547010238
 20
252.4691273815
 11
421.7547010238
 21
339.3409908815
  0
LINE
  5
29D
100
AcDbEntity
  8
0
100
AcDbLine
 62
7
  6
CONTINUOUS
 10
421.8090065238
 20
339.2586263815
 11
421.8090065238
 21
252.5514918815
  0
LINE
  5
29E
100
AcDbEntity
  8
0
100
AcDbLine
 62
7
  6
CONTINUOUS
 10
421.8590065238
 20
339.2086263815
 11
421.8590065238
 21
252.5336263815
  0
LINE
  5
29F
100
AcDbEntity
  8
0
100
AcDbLine
 62
7
  6
CONTINUOUS
 10
420.4298315238
 20
339.1410208815
 11
420.4316970238
 21
340.6109358815
  0
LINE
  5
2A0
100
AcDbEntity
  8
0
100
AcDbLine
 62
7
  6
CONTINUOUS
 10
412.9340065238
 20
344.1086263815
 11
412.9355135238
 21
344.2184208815
  0
LWPOLYLINE
  5
2A1
100
AcDbEntity
  8
0
100
AcDbPolyline
 62
7
  6
CONTINUOUS
 90
5
 70
0
 43
0.3499999985
 10
483.5089888916
 20
358.8751736755
 10
483.8661469727
 20
359.089453125
 10
483.8661469727
 20
359.7323171387
 10
483.5089888916
 20
360.1609017029
 10
482.6518710937
 20
360.1609017029
  0
LWPOLYLINE
  5
2A2
100
AcDbEntity
  8
0
100
AcDbPolyline
 62
7
  6
CONTINUOUS
 90
5
 70
0
 43
0.3499999985
 10
492.0804235229
 20
358.8751736755
 10
492.437581604
 20
359.089453125
 10
492.437581604
 20
359.7323171387
 10
492.0804235229
 20
360.1609017029
 10
491.2233057251
 20
360.1609017029
  0
LWPOLYLINE
  5
2A3
100
AcDbEntity
  8
0
100
AcDbPolyline
 62
7
  6
CONTINUOUS
 90
2
 70
0
 43
0.3499999985
 10
576.9583382568
 20
291.6800487671
 10
575.4583051147
 20
291.6800487671
  0
LINE
  5
2A4
100
AcDbEntity
  8
0
100
AcDbLine
 62
7
  6
CONTINUOUS
 10
421.7547010238
 20
252.4691273815
 11
421.8090065238
 21
252.5514918815
  0
LINE
  5
2A5
100
AcDbEntity
  8
0
100
AcDbLine
 62
7
  6
CONTINUOUS
 10
337.1647505238
 20
325.0086263815
 11
315.4647505238
 21
325.0086263815
  0
LINE
  5
2A6
100
AcDbEntity
  8
0
100
AcDbLine
 62
7
  6
CONTINUOUS
 10
315.4647505238
 20
326.8586263815
 11
337.1647505238
 21
326.8586263815
  0
LINE
  5
2A7
100
AcDbEntity
  8
0
100
AcDbLine
 62
7
  6
CONTINUOUS
 10
284.9863670238
 20
340.1086128815
 11
284.9647505238
 21
340.1124243815
  0
LINE
  5
2A8
100
AcDbEntity
  8
0
100
AcDbLine
 62
7
  6
CONTINUOUS
 10
284.9988295238
 20
340.3526173815
 11
284.9647505238
 21
340.3586263815
  0
LINE
  5
2A9
100
AcDbEntity
  8
0
100
AcDbLine
 62
7
  6
CONTINUOUS
 10
563.0824990238
 20
234.9988318815
 11
555.5881815238
 21
240.0762318815
  0
LINE
  5
2AA
100
AcDbEntity
  8
0
100
AcDbLine
 62
7
  6
CONTINUOUS
 10
420.6340065238
 20
340.4086263815
 11
420.4316970238
 21
340.6109358815
  0
LINE
  5
2AB
100
AcDbEntity
  8
0
100
AcDbLine
 62
7
  6
CONTINUOUS
 10
416.8242120238
 20
348.1071193815
 11
421.9016120238
 21
340.6128013815
  0
LINE
  5
2AC
100
AcDbEntity
  8
0
100
AcDbLine
 62
7
  6
CONTINUOUS
 10
421.8090065238
 20
339.2586263815
 11
421.7547010238
 21
339.3409908815
  0
LINE
  5
2AD
100
AcDbEntity
  8
0
100
AcDbLine
 62
7
  6
CONTINUOUS
 10
469.4090065238
 20
238.6086263815
 11
469.4090065238
 21
252.4691273815
  0
LINE
  5
2AE
100
AcDbEntity
  8
0
100
AcDbLine
 62
7
  6
CONTINUOUS
 10
469.4590065238
 20
252.5336263815
 11
469.4590065238
 21
247.2836263815
  0
LWPOLYLINE
  5
2AF
100
AcDbEntity
  8
0
100
AcDbPolyline
 62
7
  6
CONTINUOUS
 90
3
 70
0
 43
0.3499999985
 10
490.2232836304
 20
357.4465926819
 10
490.1518828125
 20
357.2323132324
 10
490.0090298462
 20
356.9466072998
  0
LINE
  5
2B0
100
AcDbEntity
  8
0
100
AcDbLine
 62
7
  6
CONTINUOUS
 10
416.8242120238
 20
231.1101333815
 11
421.9016120238
 21
238.6044513815
  0
LINE
  5
2B1
100
AcDbEntity
  8
0
100
AcDbLine
 62
7
  6
CONTINUOUS
 10
420.6340065238
 20
238.8086263815
 11
420.4316970238
 21
238.6063168815
  0
LINE
  5
2B2
100
AcDbEntity
  8
0
100
AcDbLine
 62
7
  6
CONTINUOUS
 10
563.0824995238
 20
344.2184208815
 11
555.5881815238
 21
339.1410208815
  0
LINE
  5
2B3
100
AcDbEntity
  8
0
100
AcDbLine
 62
7
  6
CONTINUOUS
 10
412.9355140238
 20
234.9988318815
 11
420.4298315238
 21
240.0762318815
  0
LINE
  5
2B4
100
AcDbEntity
  8
0
100
AcDbLine
 62
7
  6
CONTINUOUS
 10
416.9340065238
 20
348.1086263815
 11
416.8242120238
 21
348.1071193815
  0
LINE
  5
2B5
100
AcDbEntity
  8
0
100
AcDbLine
 62
7
  6
CONTINUOUS
 10
421.9016120238
 20
340.6128013815
 11
420.4316970238
 21
340.6109358815
  0
LINE
  5
2B6
100
AcDbEntity
  8
DEFAULT_1
100
AcDbLine
 62
7
  6
CENTER
 10
555.5232430238
 20
335.9086253815
 11
555.5130060238
 21
335.9086263815
  0
LINE
  5
2B7
100
AcDbEntity
  8
DEFAULT_1
100
AcDbLine
 62
7
  6
CENTER
 10
555.4109205238
 20
335.9086263815
 11
555.4004400238
 21
335.9086253815
  0
LINE
  5
2B8
100
AcDbEntity
  8
DEFAULT_1
100
AcDbLine
 62
7
  6
CENTER
 10
420.6172980238
 20
335.9086253815
 11
420.6070925238
 21
335.9086263815
  0
LINE
  5
2B9
100
AcDbEntity
  8
DEFAULT_1
100
AcDbLine
 62
7
  6
CENTER
 10
420.5050030238
 20
335.9086263815
 11
420.4947930238
 21
335.9086253815
  0
LINE
  5
2BA
100
AcDbEntity
  8
0
100
AcDbLine
 62
7
  6
CONTINUOUS
 10
555.5130060238
 20
335.9086263815
 11
555.4109205238
 21
335.9086263815
  0
LINE
  5
2BB
100
AcDbEntity
  8
0
100
AcDbLine
 62
7
  6
CONTINUOUS
 10
420.5050030238
 20
335.9086263815
 11
420.6070925238
 21
335.9086263815
  0
LINE
  5
2BC
100
AcDbEntity
  8
0
100
AcDbLine
 62
7
  6
CONTINUOUS
 10
555.5130070238
 20
336.8586263815
 11
555.2590040238
 21
336.8586263815
  0
LINE
  5
2BD
100
AcDbEntity
  8
0
100
AcDbLine
 62
7
  6
CONTINUOUS
 10
420.7590040238
 20
336.8586263815
 11
420.5050040238
 21
336.8586263815
  0
LINE
  5
2BE
100
AcDbEntity
  8
DEFAULT_1
100
AcDbLine
 62
7
  6
CENTER
 10
555.5384330238
 20
338.0586268815
 11
555.2333260238
 21
338.0586268815
  0
LINE
  5
2BF
100
AcDbEntity
  8
DEFAULT_1
100
AcDbLine
 62
7
  6
CENTER
 10
420.7844275238
 20
338.0586268815
 11
420.4793280238
 21
338.0586268815
  0
LINE
  5
2C0
100
AcDbEntity
  8
0
100
AcDbLine
 62
7
  6
CONTINUOUS
 10
421.8590065238
 20
339.2086263815
 11
554.2590065238
 21
339.2086263815
  0
LINE
  5
2C1
100
AcDbEntity
  8
0
100
AcDbLine
 62
7
  6
CONTINUOUS
 10
421.8090065238
 20
339.2586263815
 11
554.2090065238
 21
339.2586263815
  0
LINE
  5
2C2
100
AcDbEntity
  8
0
100
AcDbLine
 62
7
  6
CONTINUOUS
 10
554.2633120238
 20
339.3409908815
 11
421.7547010238
 21
339.3409908815
  0
LINE
  5
2C3
100
AcDbEntity
  8
0
100
AcDbLine
 62
7
  6
CONTINUOUS
 10
421.0052085238
 20
340.3586263815
 11
555.0128045238
 21
340.3586263815
  0
LINE
  5
2C4
100
AcDbEntity
  8
0
100
AcDbLine
 62
7
  6
CONTINUOUS
 10
420.6340065238
 20
340.4086263815
 11
555.3840065238
 21
340.4086263815
  0
LINE
  5
2C5
100
AcDbEntity
  8
0
100
AcDbLine
 62
7
  6
CONTINUOUS
 10
421.9016120238
 20
340.6128013815
 11
554.1164010238
 21
340.6128013815
  0
LINE
  5
2C6
100
AcDbEntity
  8
0
100
AcDbLine
 62
7
  6
CONTINUOUS
 10
298.9647505238
 20
342.0586263815
 11
286.9647505238
 21
342.0586263815
  0
LINE
  5
2C7
100
AcDbEntity
  8
DEFAULT_1
100
AcDbLine
 62
7
  6
CENTER
 10
287.0102400238
 20
344.1086263815
 11
286.9647505238
 21
344.1086263815
  0
LINE
  5
2C8
100
AcDbEntity
  8
DEFAULT_1
100
AcDbLine
 62
7
  6
CENTER
 10
286.5647505238
 20
344.1086263815
 11
286.4643570238
 21
344.1086263815
  0
LINE
  5
2C9
100
AcDbEntity
  8
0
100
AcDbLine
 62
7
  6
CONTINUOUS
 10
286.5647505238
 20
344.1086263815
 11
286.9647505238
 21
344.1086263815
  0
LINE
  5
2CA
100
AcDbEntity
  8
0
100
AcDbLine
 62
7
  6
CONTINUOUS
 10
286.9647505238
 20
348.1086263815
 11
286.5647505238
 21
348.1086263815
  0
LINE
  5
2CB
100
AcDbEntity
  8
0
100
AcDbLine
 62
7
  6
CONTINUOUS
 10
416.9340065238
 20
348.1086263815
 11
559.0840065238
 21
348.1086263815
  0
LWPOLYLINE
  5
2CC
100
AcDbEntity
  8
0
100
AcDbPolyline
 62
7
  6
CONTINUOUS
 90
6
 70
0
 43
0.3499999985
 10
482.6518710937
 20
357.1608867493
 10
483.7232940063
 20
357.1608867493
 10
483.9375991211
 20
357.3751661987
 10
483.9375991211
 20
358.4466147766
 10
483.5089888916
 20
358.8751736755
 10
483.0804299927
 20
358.8751736755
  0
LWPOLYLINE
  5
2CD
100
AcDbEntity
  8
0
100
AcDbPolyline
 62
7
  6
CONTINUOUS
 90
6
 70
0
 43
0.3499999985
 10
491.2233057251
 20
357.1608867493
 10
492.2947286377
 20
357.1608867493
 10
492.5089824219
 20
357.3751661987
 10
492.5089824219
 20
358.4466147766
 10
492.0804235229
 20
358.8751736755
 10
491.651864624
 20
358.8751736755
  0
LWPOLYLINE
  5
2CE
100
AcDbEntity
  8
0
100
AcDbPolyline
 62
7
  6
CONTINUOUS
 90
8
 70
0
 43
0.3499999985
 10
315.0647580566
 20
357.6372344055
 10
315.9219015198
 20
357.6372344055
 10
316.3504604187
 20
358.0657933044
 10
316.3504604187
 20
358.9229367676
 10
315.9219015198
 20
359.3515213318
 10
315.0647580566
 20
359.3515213318
 10
315.0647580566
 20
360.6372236938
 10
316.3504604187
 20
360.6372236938
  0
LINE
  5
2CF
100
AcDbEntity
  8
0
100
AcDbLine
 62
7
  6
CONTINUOUS
 10
554.1164010238
 20
340.6128013815
 11
555.5863160238
 21
340.6109358815
  0
LINE
  5
2D0
100
AcDbEntity
  8
0
100
AcDbLine
 62
7
  6
CONTINUOUS
 10
298.9647450238
 20
334.4919928815
 11
337.1647505238
 21
334.1586263815
  0
LINE
  5
2D1
100
AcDbEntity
  8
0
100
AcDbLine
 62
7
  6
CONTINUOUS
 10
559.0840065238
 20
348.1086263815
 11
559.1938010238
 21
348.1071193815
  0
LINE
  5
2D2
100
AcDbEntity
  8
0
100
AcDbLine
 62
7
  6
CONTINUOUS
 10
284.9647505238
 20
340.6128013815
 11
285.0150010238
 21
340.6109358815
  0
LINE
  5
2D3
100
AcDbEntity
  8
0
100
AcDbLine
 62
7
  6
CONTINUOUS
 10
412.9355140238
 20
344.2184208815
 11
420.4298315238
 21
339.1410208815
  0
LINE
  5
2D4
100
AcDbEntity
  8
0
100
AcDbLine
 62
7
  6
CONTINUOUS
 10
555.3840065238
 20
238.8086263815
 11
555.5863160238
 21
238.6063168815
  0
LINE
  5
2D5
100
AcDbEntity
  8
0
100
AcDbLine
 62
7
  6
CONTINUOUS
 10
506.6090065238
 20
252.4691273815
 11
506.5741515238
 21
252.5336248815
  0
LWPOLYLINE
  5
2D6
100
AcDbEntity
  8
0
100
AcDbPolyline
 62
7
  6
CONTINUOUS
 90
13
 70
0
 43
0.3499999985
 10
484.7947169189
 20
358.0180302124
 10
484.7947169189
 20
359.3037582397
 10
485.0090220337
 20
359.7323171387
 10
485.4375809326
 20
360.1609017029
 10
485.6518860474
 20
360.1609017029
 10
486.0804449463
 20
359.7323171387
 10
486.2946987305
 20
359.3037582397
 10
486.2946987305
 20
358.0180302124
 10
486.0804449463
 20
357.5894713135
 10
485.6518860474
 20
357.1608867493
 10
485.4375809326
 20
357.1608867493
 10
485.0090220337
 20
357.5894713135
 10
484.7947169189
 20
358.0180302124
  0
LWPOLYLINE
  5
2D7
100
AcDbEntity
  8
0
100
AcDbPolyline
 62
7
  6
CONTINUOUS
 90
13
 70
0
 43
0.3499999985
 10
487.1518678589
 20
358.0180302124
 10
487.1518678589
 20
359.3037582397
 10
487.3661729736
 20
359.7323171387
 10
487.7947318726
 20
360.1609017029
 10
488.0089856567
 20
360.1609017029
 10
488.4375958862
 20
359.7323171387
 10
488.6518496704
 20
359.3037582397
 10
488.6518496704
 20
358.0180302124
 10
488.4375958862
 20
357.5894713135
 10
488.0089856567
 20
357.1608867493
 10
487.7947318726
 20
357.1608867493
 10
487.3661729736
 20
357.5894713135
 10
487.1518678589
 20
358.0180302124
  0
LINE
  5
2D8
100
AcDbEntity
  8
0
100
AcDbLine
 62
7
  6
CONTINUOUS
 10
506.5590065238
 20
247.2836263815
 11
506.5590065238
 21
252.5336263815
  0
LINE
  5
2D9
100
AcDbEntity
  8
0
100
AcDbLine
 62
7
  6
CONTINUOUS
 10
506.6090065238
 20
238.6086263815
 11
506.6090065238
 21
252.4691273815
  0
LINE
  5
2DA
100
AcDbEntity
  8
0
100
AcDbLine
 62
7
  6
CONTINUOUS
 10
469.4090065238
 20
252.4691273815
 11
469.4438615238
 21
252.5336248815
  0
LINE
  5
2DB
100
AcDbEntity
  8
0
100
AcDbLine
 62
7
  6
CONTINUOUS
 10
554.2090065238
 20
339.2586263815
 11
554.2633120238
 21
339.3409908815
  0
LINE
  5
2DC
100
AcDbEntity
  8
0
100
AcDbLine
 62
7
  6
CONTINUOUS
 10
559.1938010238
 20
348.1071188815
 11
554.1164010238
 21
340.6128013815
  0
LINE
  5
2DD
100
AcDbEntity
  8
0
100
AcDbLine
 62
7
  6
CONTINUOUS
 10
555.3840065238
 20
340.4086263815
 11
555.5863160238
 21
340.6109358815
  0
LWPOLYLINE
  5
2DE
100
AcDbEntity
  8
0
100
AcDbPolyline
 62
7
  6
CONTINUOUS
 90
8
 70
0
 43
0.3499999985
 10
314.0647616272
 20
365.83467453
 10
314.9219050903
 20
365.83467453
 10
315.3504639893
 20
366.2632590942
 10
315.3504639893
 20
367.1204025574
 10
314.9219050903
 20
367.5489614563
 10
314.0647616272
 20
367.5489614563
 10
314.0647616272
 20
368.8346894836
 10
315.3504639893
 20
368.8346894836
  0
LWPOLYLINE
  5
2DF
100
AcDbEntity
  8
0
100
AcDbPolyline
 62
7
  6
CONTINUOUS
 90
3
 70
0
 43
0.3499999985
 10
311.4933312378
 20
366.4775385437
 10
309.993323761
 20
366.4775385437
 10
310.6361877747
 20
368.8346894836
  0
LINE
  5
2E0
100
AcDbEntity
  8
0
100
AcDbLine
 62
7
  6
CONTINUOUS
 10
559.1938010238
 20
231.1101333815
 11
554.1164010238
 21
238.6044513815
  0
LINE
  5
2E1
100
AcDbEntity
  8
0
100
AcDbLine
 62
7
  6
CONTINUOUS
 10
554.2633120238
 20
252.4691273815
 11
554.2207870238
 21
252.5336248815
  0
LWPOLYLINE
  5
2E2
100
AcDbEntity
  8
0
100
AcDbPolyline
 62
7
  6
CONTINUOUS
 90
10
 70
0
 43
0.3499999985
 10
490.1518828125
 20
357.6608977966
 10
490.2232836304
 20
357.5180448303
 10
490.2232836304
 20
357.4465926819
 10
490.0804306641
 20
357.3037397156
 10
490.0090298462
 20
357.3037397156
 10
489.9375776978
 20
357.3751661987
 10
489.9375776978
 20
357.4465926819
 10
490.0090298462
 20
357.5894713135
 10
490.0804306641
 20
357.6608977966
 10
490.1518828125
 20
357.6608977966
  0
LINE
  5
2E3
100
AcDbEntity
  8
0
100
AcDbLine
 62
7
  6
CONTINUOUS
 10
529.5298610238
 20
243.6851153815
 11
529.5382270238
 21
243.6637973815
  0
LINE
  5
2E4
100
AcDbEntity
  8
0
100
AcDbLine
 62
7
  6
CONTINUOUS
 10
532.3326885238
 20
240.6637973815
 11
532.3410545238
 21
240.6424788815
  0
LINE
  5
2E5
100
AcDbEntity
  8
0
100
AcDbLine
 62
7
  6
CONTINUOUS
 10
529.8200140238
 20
243.9137973815
 11
529.8129105238
 21
243.9382343815
  0
LINE
  5
2E6
100
AcDbEntity
  8
0
100
AcDbLine
 62
7
  6
CONTINUOUS
 10
532.0509015238
 20
240.4137973815
 11
532.0580050238
 21
240.3893603815
  0
LINE
  5
2E7
100
AcDbEntity
  8
DEFAULT_1
100
AcDbLine
 62
7
  6
CENTER
 10
516.0025540238
 20
242.8705968815
 11
516.0025530238
 21
242.4186918815
  0
LINE
  5
2E8
100
AcDbEntity
  8
DEFAULT_1
100
AcDbLine
 62
7
  6
CENTER
 10
516.0025530238
 20
241.7985603815
 11
516.0025540238
 21
241.3705968815
  0
LINE
  5
2E9
100
AcDbEntity
  8
0
100
AcDbLine
 62
7
  6
CONTINUOUS
 10
516.0025530238
 20
242.4186918815
 11
516.0025530238
 21
241.7985603815
  0
LINE
  5
2EA
100
AcDbEntity
  8
DEFAULT_1
100
AcDbLine
 62
7
  6
CENTER
 10
520.0025540238
 20
242.8706233815
 11
520.0025530238
 21
242.7455983815
  0
LINE
  5
2EB
100
AcDbEntity
  8
DEFAULT_1
100
AcDbLine
 62
7
  6
CENTER
 10
520.0025530238
 20
241.4955983815
 11
520.0025540238
 21
241.3703218815
  0
LINE
  5
2EC
100
AcDbEntity
  8
0
100
AcDbLine
 62
7
  6
CONTINUOUS
 10
520.0025530238
 20
242.7455983815
 11
520.0025530238
 21
241.4955983815
  0
LINE
  5
2ED
100
AcDbEntity
  8
0
100
AcDbLine
 62
7
  6
CONTINUOUS
 10
529.8200140238
 20
240.4137973815
 11
529.8129105238
 21
240.3893603815
  0
LINE
  5
2EE
100
AcDbEntity
  8
0
100
AcDbLine
 62
7
  6
CONTINUOUS
 10
563.0840065238
 20
344.1086263815
 11
563.0824995238
 21
344.2184208815
  0
LINE
  5
2EF
100
AcDbEntity
  8
0
100
AcDbLine
 62
7
  6
CONTINUOUS
 10
555.5881815238
 20
339.1410208815
 11
555.5863160238
 21
340.6109358815
  0
LINE
  5
2F0
100
AcDbEntity
  8
DEFAULT_1
100
AcDbLine
 62
7
  6
CENTER
 10
541.9025535238
 20
242.8706233815
 11
541.9025530238
 21
242.7455983815
  0
LINE
  5
2F1
100
AcDbEntity
  8
DEFAULT_1
100
AcDbLine
 62
7
  6
CENTER
 10
541.9025530238
 20
241.4955983815
 11
541.9025535238
 21
241.3703218815
  0
LINE
  5
2F2
100
AcDbEntity
  8
0
100
AcDbLine
 62
7
  6
CONTINUOUS
 10
541.9025530238
 20
242.7455983815
 11
541.9025530238
 21
241.4955983815
  0
LINE
  5
2F3
100
AcDbEntity
  8
DEFAULT_1
100
AcDbLine
 62
7
  6
CENTER
 10
545.9025535238
 20
242.8313128815
 11
545.9025530238
 21
242.3283393815
  0
LINE
  5
2F4
100
AcDbEntity
  8
DEFAULT_1
100
AcDbLine
 62
7
  6
CENTER
 10
545.9025530238
 20
241.8887013815
 11
545.9025535238
 21
241.8027368815
  0
LINE
  5
2F5
100
AcDbEntity
  8
0
100
AcDbLine
 62
7
  6
CONTINUOUS
 10
545.9025530238
 20
241.8887013815
 11
545.9025530238
 21
242.3283393815
  0
LINE
  5
2F6
100
AcDbEntity
  8
0
100
AcDbLine
 62
7
  6
CONTINUOUS
 10
554.2090065238
 20
339.2586263815
 11
554.2090065238
 21
339.2086243815
  0
LINE
  5
2F7
100
AcDbEntity
  8
0
100
AcDbLine
 62
7
  6
CONTINUOUS
 10
554.2590065238
 20
252.5336263815
 11
554.2590065238
 21
339.2086263815
  0
LINE
  5
2F8
100
AcDbEntity
  8
0
100
AcDbLine
 62
7
  6
CONTINUOUS
 10
554.2633120238
 20
252.4691273815
 11
554.2633120238
 21
339.3409908815
  0
LINE
  5
2F9
100
AcDbEntity
  8
0
100
AcDbLine
 62
7
  6
CONTINUOUS
 10
555.2590065238
 20
340.1124243815
 11
555.2590065238
 21
239.1048283815
  0
LINE
  5
2FA
100
AcDbEntity
  8
0
100
AcDbLine
 62
7
  6
CONTINUOUS
 10
555.3840065238
 20
238.8086263815
 11
555.3840065238
 21
336.8586248815
  0
LINE
  5
2FB
100
AcDbEntity
  8
0
100
AcDbLine
 62
7
  6
CONTINUOUS
 10
555.3840065238
 20
339.2586248815
 11
555.3840065238
 21
340.4086263815
  0
LINE
  5
2FC
100
AcDbEntity
  8
0
100
AcDbLine
 62
7
  6
CONTINUOUS
 10
555.4109205238
 20
335.9086263815
 11
555.4109205238
 21
336.8586253815
  0
LINE
  5
2FD
100
AcDbEntity
  8
0
100
AcDbLine
 62
7
  6
CONTINUOUS
 10
555.5130080238
 20
335.9086263815
 11
555.5130080238
 21
337.4086263815
  0
LINE
  5
2FE
100
AcDbEntity
  8
0
100
AcDbLine
 62
7
  6
CONTINUOUS
 10
555.5881815238
 20
240.0762318815
 11
555.5881815238
 21
339.1410208815
  0
LINE
  5
2FF
100
AcDbEntity
  8
0
100
AcDbLine
 62
7
  6
CONTINUOUS
 10
563.0840065238
 20
344.1086263815
 11
563.0840065238
 21
235.1086263815
  0
LINE
  5
300
100
AcDbEntity
  8
0
100
AcDbLine
 62
7
  6
CONTINUOUS
 10
555.5881815238
 20
240.0762318815
 11
555.5863160238
 21
238.6063168815
  0
LINE
  5
301
100
AcDbEntity
  8
0
100
AcDbLine
 62
7
  6
CONTINUOUS
 10
563.0840065238
 20
235.1086263815
 11
563.0824995238
 21
234.9988318815
  0
LINE
  5
302
100
AcDbEntity
  8
0
100
AcDbLine
 62
7
  6
CONTINUOUS
 10
532.0509015238
 20
243.9137973815
 11
532.0580050238
 21
243.9382343815
  0
LINE
  5
303
100
AcDbEntity
  8
0
100
AcDbLine
 62
7
  6
CONTINUOUS
 10
529.5382270238
 20
240.6637973815
 11
529.5298610238
 21
240.6424788815
  0
LINE
  5
304
100
AcDbEntity
  8
0
100
AcDbLine
 62
7
  6
CONTINUOUS
 10
532.3410545238
 20
243.6851153815
 11
532.3326885238
 21
243.6637973815
  0
LWPOLYLINE
  5
305
100
AcDbEntity
  8
0
100
AcDbPolyline
 62
7
  6
CONTINUOUS
 90
5
 70
0
 43
0.3499999985
 10
575.2440513306
 20
289.3943499756
 10
575.0297462158
 20
289.7514823914
 10
574.3868822021
 20
289.7514823914
 10
573.9583233032
 20
289.3943499756
 10
573.9583233032
 20
288.5372065125
  0
LWPOLYLINE
  5
306
100
AcDbEntity
  8
0
100
AcDbPolyline
 62
7
  6
CONTINUOUS
 90
3
 70
0
 43
0.3499999985
 10
576.3154742432
 20
292.1800598145
 10
576.3154742432
 20
290.6800523376
 10
573.9583233032
 20
291.3229163513
  0
LWPOLYLINE
  5
307
100
AcDbEntity
  8
0
100
AcDbPolyline
 62
7
  6
CONTINUOUS
 90
7
 70
0
 43
0.3499999985
 10
576.9583382568
 20
287.6800630493
 10
576.9583382568
 20
286.1800555725
 10
574.8154411011
 20
287.6800630493
 10
574.3868822021
 20
287.6800630493
 10
573.9583233032
 20
287.2514784851
 10
573.9583233032
 20
286.6086144714
 10
574.6011873169
 20
286.1800555725
  0
LWPOLYLINE
  5
308
100
AcDbEntity
  8
0
100
AcDbPolyline
 62
7
  6
CONTINUOUS
 90
6
 70
0
 43
0.3499999985
 10
576.9583382568
 20
288.5372065125
 10
576.9583382568
 20
289.608629425
 10
576.7440331421
 20
289.8229088745
 10
575.6726102295
 20
289.8229088745
 10
575.2440513306
 20
289.3943499756
 10
575.2440513306
 20
288.9657654114
  0
ARC
  5
309
100
AcDbEntity
  8
0
100
AcDbCircle
 62
7
  6
CONTINUOUS
 10
324.7035605238
 20
243.1681118815
 40
40.0
100
AcDbArc
 50
186.551228
 51
197.544682
  0
ARC
  5
30A
100
AcDbEntity
  8
0
100
AcDbCircle
 62
7
  6
CONTINUOUS
 10
306.1789400238
 20
240.0659353815
 40
21.214186
100
AcDbArc
 50
179.972191
 51
183.945285
  0
ARC
  5
30B
100
AcDbEntity
  8
0
100
AcDbCircle
 62
7
  6
CONTINUOUS
 10
416.9340065238
 20
235.1086263815
 40
4.0
100
AcDbArc
 50
181.57289
 51
268.42711
  0
ARC
  5
30C
100
AcDbEntity
  8
0
100
AcDbCircle
 62
7
  6
CONTINUOUS
 10
283.3627975238
 20
242.1205983815
 40
0.625
100
AcDbArc
 50
90.0
 51
270.0
  0
ARC
  5
30D
100
AcDbEntity
  8
0
100
AcDbCircle
 62
7
  6
CONTINUOUS
 10
421.0035680238
 20
239.1031873815
 40
0.244446
100
AcDbArc
 50
179.615611
 51
270.384361
  0
ARC
  5
30E
100
AcDbEntity
  8
0
100
AcDbCircle
 62
7
  6
CONTINUOUS
 10
324.7035605238
 20
336.0491408815
 40
40.0
100
AcDbArc
 50
162.455318
 51
173.448772
  0
ARC
  5
30F
100
AcDbEntity
  8
0
100
AcDbCircle
 62
7
  6
CONTINUOUS
 10
306.1763500238
 20
339.1514043815
 40
21.2115965
100
AcDbArc
 50
176.054468
 51
180.028047
  0
ARC
  5
310
100
AcDbEntity
  8
0
100
AcDbCircle
 62
7
  6
CONTINUOUS
 10
416.9340065238
 20
344.1086263815
 40
4.0
100
AcDbArc
 50
91.57289
 51
178.427109
  0
ARC
  5
311
100
AcDbEntity
  8
0
100
AcDbCircle
 62
7
  6
CONTINUOUS
 10
288.3647505238
 20
335.9086263815
 40
1.375
100
AcDbArc
 50
180.0
 51
360.0
  0
ARC
  5
312
100
AcDbEntity
  8
0
100
AcDbCircle
 62
7
  6
CONTINUOUS
 10
288.3647505238
 20
337.4086263815
 40
1.375
100
AcDbArc
 50
0.0
 51
180.0
  0
ARC
  5
313
100
AcDbEntity
  8
0
100
AcDbCircle
 62
7
  6
CONTINUOUS
 10
288.4147505238
 20
338.0586263815
 40
1.2
100
AcDbArc
 50
174.662847
 51
356.539635
  0
ARC
  5
314
100
AcDbEntity
  8
0
100
AcDbCircle
 62
7
  6
CONTINUOUS
 10
288.4147505238
 20
338.0586263815
 40
1.05
100
AcDbArc
 50
160.219958
 51
10.982542
  0
ARC
  5
315
100
AcDbEntity
  8
0
100
AcDbCircle
 62
7
  6
CONTINUOUS
 10
421.0035610238
 20
340.1140703815
 40
0.2444395
100
AcDbArc
 50
89.614017
 51
180.385624
  0
ARC
  5
316
100
AcDbEntity
  8
0
100
AcDbCircle
 62
7
  6
CONTINUOUS
 10
530.9354575238
 20
243.8586263815
 40
7.5
100
AcDbArc
 50
198.365083
 51
199.471221
  0
ARC
  5
317
100
AcDbEntity
  8
0
100
AcDbCircle
 62
7
  6
CONTINUOUS
 10
530.9354575238
 20
243.8586263815
 40
7.5
100
AcDbArc
 50
340.528779
 51
341.634917
  0
ARC
  5
318
100
AcDbEntity
  8
0
100
AcDbCircle
 62
7
  6
CONTINUOUS
 10
530.9354575238
 20
243.8586263815
 40
7.5
100
AcDbArc
 50
351.46555
 51
188.53445
  0
ARC
  5
319
100
AcDbEntity
  8
0
100
AcDbCircle
 62
7
  6
CONTINUOUS
 10
559.0840065238
 20
235.1086263815
 40
4.0
100
AcDbArc
 50
271.57289
 51
358.427109
  0
ARC
  5
31A
100
AcDbEntity
  8
0
100
AcDbCircle
 62
7
  6
CONTINUOUS
 10
530.9353695238
 20
242.1637973815
 40
2.529214
100
AcDbArc
 50
198.561795
 51
341.432856
  0
ARC
  5
31B
100
AcDbEntity
  8
0
100
AcDbCircle
 62
7
  6
CONTINUOUS
 10
530.9353695238
 20
242.1637973815
 40
2.4637575
100
AcDbArc
 50
13.658962
 51
16.35211
  0
ARC
  5
31C
100
AcDbEntity
  8
0
100
AcDbCircle
 62
7
  6
CONTINUOUS
 10
530.9353695238
 20
242.1637973815
 40
2.4637575
100
AcDbArc
 50
340.924968
 51
344.263545
  0
ARC
  5
31D
100
AcDbEntity
  8
0
100
AcDbCircle
 62
7
  6
CONTINUOUS
 10
530.9355455238
 20
242.1637973815
 40
2.4637575
100
AcDbArc
 50
16.35211
 51
166.336942
  0
ARC
  5
31E
100
AcDbEntity
  8
0
100
AcDbCircle
 62
7
  6
CONTINUOUS
 10
530.9355455238
 20
242.1637973815
 40
2.4637575
100
AcDbArc
 50
195.736455
 51
199.075032
  0
ARC
  5
31F
100
AcDbEntity
  8
0
100
AcDbCircle
 62
7
  6
CONTINUOUS
 10
530.9353695238
 20
242.1637973815
 40
2.45
100
AcDbArc
 50
13.737147
 51
163.643771
  0
ARC
  5
320
100
AcDbEntity
  8
0
100
AcDbCircle
 62
7
  6
CONTINUOUS
 10
530.9353695238
 20
242.1637973815
 40
2.45
100
AcDbArc
 50
195.827145
 51
344.168736
  0
ARC
  5
321
100
AcDbEntity
  8
0
100
AcDbCircle
 62
7
  6
CONTINUOUS
 10
530.9355455238
 20
242.1637973815
 40
2.45
100
AcDbArc
 50
163.64789
 51
166.262853
  0
ARC
  5
322
100
AcDbEntity
  8
0
100
AcDbCircle
 62
7
  6
CONTINUOUS
 10
530.9355455238
 20
242.1637973815
 40
2.099747
100
AcDbArc
 50
122.320362
 51
163.91403
  0
ARC
  5
323
100
AcDbEntity
  8
0
100
AcDbCircle
 62
7
  6
CONTINUOUS
 10
530.9353695238
 20
242.1637973815
 40
2.099747
100
AcDbArc
 50
16.08597
 51
57.679638
  0
ARC
  5
324
100
AcDbEntity
  8
0
100
AcDbCircle
 62
7
  6
CONTINUOUS
 10
530.9353695238
 20
242.1637973815
 40
2.099747
100
AcDbArc
 50
302.320362
 51
341.444056
  0
ARC
  5
325
100
AcDbEntity
  8
0
100
AcDbCircle
 62
7
  6
CONTINUOUS
 10
530.9355455238
 20
242.1637973815
 40
2.099747
100
AcDbArc
 50
198.555944
 51
237.679638
  0
ARC
  5
326
100
AcDbEntity
  8
0
100
AcDbCircle
 62
7
  6
CONTINUOUS
 10
530.9355455238
 20
242.1637973815
 40
2.05
100
AcDbArc
 50
199.023374
 51
227.029716
  0
ARC
  5
327
100
AcDbEntity
  8
0
100
AcDbCircle
 62
7
  6
CONTINUOUS
 10
530.9355455238
 20
242.1637973815
 40
2.05
100
AcDbArc
 50
132.970284
 51
163.64789
  0
ARC
  5
328
100
AcDbEntity
  8
0
100
AcDbCircle
 62
7
  6
CONTINUOUS
 10
530.9353695238
 20
242.1637973815
 40
2.05
100
AcDbArc
 50
16.35211
 51
47.029716
  0
ARC
  5
329
100
AcDbEntity
  8
0
100
AcDbCircle
 62
7
  6
CONTINUOUS
 10
530.9353695238
 20
242.1637973815
 40
2.05
100
AcDbArc
 50
312.970284
 51
340.976626
  0
ARC
  5
32A
100
AcDbEntity
  8
0
100
AcDbCircle
 62
7
  6
CONTINUOUS
 10
530.9357055238
 20
242.1278093815
 40
2.045142
100
AcDbArc
 50
226.574813
 51
236.93894
  0
ARC
  5
32B
100
AcDbEntity
  8
0
100
AcDbCircle
 62
7
  6
CONTINUOUS
 10
530.9357055238
 20
242.1997853815
 40
2.045142
100
AcDbArc
 50
123.06106
 51
133.425187
  0
ARC
  5
32C
100
AcDbEntity
  8
0
100
AcDbCircle
 62
7
  6
CONTINUOUS
 10
530.9352100238
 20
242.1997853815
 40
2.045142
100
AcDbArc
 50
46.574813
 51
56.93894
  0
ARC
  5
32D
100
AcDbEntity
  8
0
100
AcDbCircle
 62
7
  6
CONTINUOUS
 10
530.9352100238
 20
242.1278093815
 40
2.045142
100
AcDbArc
 50
303.06106
 51
313.425187
  0
ARC
  5
32E
100
AcDbEntity
  8
0
100
AcDbCircle
 62
7
  6
CONTINUOUS
 10
505.6090065238
 20
238.6086263815
 40
1.0
100
AcDbArc
 50
270.0
 51
360.0
  0
ARC
  5
32F
100
AcDbEntity
  8
0
100
AcDbCircle
 62
7
  6
CONTINUOUS
 10
470.4090065238
 20
238.6086263815
 40
1.0
100
AcDbArc
 50
180.0
 51
270.0
  0
ARC
  5
330
100
AcDbEntity
  8
0
100
AcDbCircle
 62
7
  6
CONTINUOUS
 10
545.1854575238
 20
242.1086263815
 40
0.75
100
AcDbArc
 50
270.0
 51
90.0
  0
ARC
  5
331
100
AcDbEntity
  8
0
100
AcDbCircle
 62
7
  6
CONTINUOUS
 10
516.6854575238
 20
242.1086263815
 40
0.75
100
AcDbArc
 50
90.0
 51
270.0
  0
ARC
  5
332
100
AcDbEntity
  8
0
100
AcDbCircle
 62
7
  6
CONTINUOUS
 10
519.4354575238
 20
242.1086263815
 40
0.75
100
AcDbArc
 50
58.135168
 51
90.0
  0
ARC
  5
333
100
AcDbEntity
  8
0
100
AcDbCircle
 62
7
  6
CONTINUOUS
 10
519.4354575238
 20
242.1086263815
 40
0.75
100
AcDbArc
 50
270.0
 51
305.177524
  0
ARC
  5
334
100
AcDbEntity
  8
0
100
AcDbCircle
 62
7
  6
CONTINUOUS
 10
542.4354575238
 20
242.1086263815
 40
0.75
100
AcDbArc
 50
90.0
 51
121.864835
  0
ARC
  5
335
100
AcDbEntity
  8
0
100
AcDbCircle
 62
7
  6
CONTINUOUS
 10
542.4354575238
 20
242.1086263815
 40
0.75
100
AcDbArc
 50
234.822474
 51
270.0
  0
ARC
  5
336
100
AcDbEntity
  8
0
100
AcDbCircle
 62
7
  6
CONTINUOUS
 10
518.0025530238
 20
242.1205983815
 40
0.625
100
AcDbArc
 50
90.0
 51
270.0
  0
ARC
  5
337
100
AcDbEntity
  8
0
100
AcDbCircle
 62
7
  6
CONTINUOUS
 10
543.9025530238
 20
242.1205983815
 40
0.625
100
AcDbArc
 50
270.0
 51
90.0
  0
ARC
  5
338
100
AcDbEntity
  8
0
100
AcDbCircle
 62
7
  6
CONTINUOUS
 10
469.1576840238
 20
239.1093628815
 40
0.2510265
100
AcDbArc
 50
270.466701
 51
0.53594
  0
ARC
  5
339
100
AcDbEntity
  8
0
100
AcDbCircle
 62
7
  6
CONTINUOUS
 10
506.8603290238
 20
239.1093628815
 40
0.2510265
100
AcDbArc
 50
179.46406
 51
269.533299
  0
ARC
  5
33A
100
AcDbEntity
  8
0
100
AcDbCircle
 62
7
  6
CONTINUOUS
 10
555.0144505238
 20
239.1031808815
 40
0.2444395
100
AcDbArc
 50
269.614376
 51
0.385983
  0
ARC
  5
33B
100
AcDbEntity
  8
0
100
AcDbCircle
 62
7
  6
CONTINUOUS
 10
559.0840065238
 20
344.1086263815
 40
4.0
100
AcDbArc
 50
1.57289
 51
88.42711
  0
ARC
  5
33C
100
AcDbEntity
  8
0
100
AcDbCircle
 62
7
  6
CONTINUOUS
 10
555.0144520238
 20
340.1140703815
 40
0.2444395
100
AcDbArc
 50
359.614376
 51
90.385983
  0
ELLIPSE
  5
33D
100
AcDbEntity
  8
0
100
AcDbEllipse
 62
7
  6
CONTINUOUS
 10
555.4619635238
 20
335.9086253815
 30
0.0
 11
-0.0
 21
-1.375
 31
0.0
 40
0.037123
 41
4.7123889805
 42
7.8539816338
  0
ELLIPSE
  5
33E
100
AcDbEntity
  8
0
100
AcDbEllipse
 62
7
  6
CONTINUOUS
 10
420.5560495238
 20
335.9086253815
 30
0.0
 11
-0.0
 21
-1.375
 31
0.0
 40
0.037123
 41
4.7123889805
 42
7.8539816338
  0
ELLIPSE
  5
33F
100
AcDbEntity
  8
0
100
AcDbEllipse
 62
7
  6
CONTINUOUS
 10
324.3506445238
 20
243.1145198815
 30
0.0
 11
39.6469650269
 21
-0.0978671834
 31
0.0
 40
0.6803
 41
3.2581066526
 42
3.4508499909
  0
ELLIPSE
  5
340
100
AcDbEntity
  8
0
100
AcDbEllipse
 62
7
  6
CONTINUOUS
 10
324.8079275238
 20
336.0326833815
 30
0.0
 11
40.104385376
 21
-0.0297271553
 31
0.0
 40
0.676683
 41
2.8362817772
 42
3.0278977371
  0
ENDSEC
  0
SECTION
  2
OBJECTS
  0
DICTIONARY
  5
C
100
AcDbDictionary
280
0
281
1
  3
ACAD_GROUP
350
D
  3
ACAD_MLINESTYLE
350
17
  3
ACAD_LAYOUT
350
1A
  3
ACAD_PLOTSETTINGS
350
19
  3
ACAD_PLOTSTYLENAME
350
E
  0
DICTIONARY
  5
D
102
{ACAD_REACTORS
330
C
102
}
100
AcDbDictionary
280
0
281
1
  0
ACDBDICTIONARYWDFLT
  5
E
102
{ACAD_REACTORS
330
C
102
}
100
AcDbDictionary
281
1
  3
Normal
350
F
100
AcDbDictionaryWithDefault
340
F
  0
DICTIONARY
  5
17
102
{ACAD_REACTORS
330
C
102
}
100
AcDbDictionary
280
0
281
1
  3
Standard
350
18
  0
DICTIONARY
  5
19
102
{ACAD_REACTORS
330
C
102
}
100
AcDbDictionary
281
1
  0
DICTIONARY
  5
1A
102
{ACAD_REACTORS
330
C
102
}
100
AcDbDictionary
281
1
  3
Model
350
341
  3
Layout1
350
342
  0
ACDBPLACEHOLDER
  5
F
102
{ACAD_REACTORS
330
E
102
}
  0
MLINESTYLE
  5
18
102
{ACAD_REACTORS
330
17
102
}
100
AcDbMlineStyle
  2
STANDARD
 70
0
  3

 62
256
 51
90.0
 52
90.0
 71
2
 49
0.5
 62
256
  6
BYLAYER
 49
-0.5
 62
256
  6
BYLAYER
  0
LAYOUT
  5
341
102
{ACAD_REACTORS
330
1A
102
}
100
AcDbPlotSettings
  1

  2
none_device
  4
ISO_A1_(594.00_x_841.00_MM)
  6

 40
0.0
 41
0.0
 42
0.0
 43
0.0
 44
841.0
 45
594.0
 46
0.0
 47
0.0
 48
0.0
 49
0.0
140
0.0
141
0.0
142
1.0
143
1.0
 70
1024
 72
1
 73
0
 74
0
  7

 75
0
147
1.0
148
0.0
149
0.0
100
AcDbLayout
  1
Model
 70
0
 71
0
 10
0.0
 20
0.0
 11
841.0
 21
594.0
 12
0.0
 22
0.0
 32
0.0
 14
0.0
 24
0.0
 34
0.0
 15
0.0
 25
0.0
 35
0.0
146
0.0
 13
0.0
 23
0.0
 33
0.0
 16
1.0
 26
0.0
 36
0.0
 17
0.0
 27
1.0
 37
0.0
 76
0
330
210
345
0
346
0
  0
LAYOUT
  5
342
102
{ACAD_REACTORS
330
1A
102
}
100
AcDbPlotSettings
  1

  2
none_device
  4
ISO_A1_(594.00_x_841.00_MM)
  6

 40
0.0
 41
0.0
 42
0.0
 43
0.0
 44
841.0
 45
594.0
 46
0.0
 47
0.0
 48
0.0
 49
0.0
140
0.0
141
0.0
142
1.0
143
1.0
 70
0
 72
1
 73
0
 74
0
  7

 75
0
147
1.0
148
0.0
149
0.0
100
AcDbLayout
  1
Layout1
 70
0
 71
1
 10
0.0
 20
0.0
 11
841.0
 21
594.0
 12
0.0
 22
0.0
 32
0.0
 14
0.0
 24
0.0
 34
0.0
 15
0.0
 25
0.0
 35
0.0
146
0.0
 13
0.0
 23
0.0
 33
0.0
 16
1.0
 26
0.0
 36
0.0
 17
0.0
 27
1.0
 37
0.0
 76
0
330
211
345
0
346
0
  0
ENDSEC
  0
EOF
