  0
SECTION
  2
HEADER
  9
$ACADVER
  1
AC1024
  9
$DWGCODEPAGE
  3
ANSI_1252
  9
$EXTMAX
 10
841.0
 20
594.0
 30
0.0
  9
$EXTMIN
 10
0.0
 20
0.0
 30
0.0
  9
$LIMMIN
 10
0.0
 20
0.0
  9
$LIMMAX
 10
841.0
 20
594.0
  9
$VIEWCTR
 10
420.5
 20
297.0
  9
$VIEWSIZE
 40
594.0
  9
$CLAYER
  8
0
  9
$LTSCALE
 40
46.255
  9
$CELTYPE
  6
BYLAYER
  9
$DIMSCALE
 40
1.0
  9
$DIMASZ
 40
3.0
  9
$DIMEXO
 40
0.5
  9
$DIMDLI
 40
31.958
  9
$DIMEXE
 40
1.5
  9
$DIMCEN
 40
7.569
  9
$DIMLFAC
 40
1.0
  9
$DIMBLK
  1
_FILLED
  9
$DIMALT
 70
0
  9
$DIMALTF
 40
0.0393700787
  9
$DIMTXT
 40
3.0
  9
$DIMTOL
 70
1
  9
$DIMLIM
 70
0
  9
$DIMTFAC
 40
1.0
  9
$DIMTP
 40
0.01
  9
$DIMTM
 40
0.01
  9
$DIMGAP
 40
0.625
  9
$DIMDSEP
 70
44
  9
$AUNITS
 70
0
  9
$PDMODE
 70
3
  9
$PDSIZE
 40
3.0
  9
$HANDSEED
  5
3B1
  9
$TILEMODE
 70
1
  9
$MEASUREMENT
 70
1
  9
$INSUNITS
 70
4
  0
ENDSEC
  0
SECTION
  2
CLASSES
  0
CLASS
  1
ACDBDICTIONARYWDFLT
  2
AcDbDictionaryWithDefault
  3
AutoCAD 2000
 90
0
 91
1
280
0
281
0
  0
CLASS
  1
ACDBPLACEHOLDER
  2
AcDbPlaceHolder
  3
AutoCAD 2000
 90
0
 91
1
280
0
281
0
  0
CLASS
  1
LAYOUT
  2
AcDbLayout
  3
AutoCAD 2000
 90
0
 91
0
280
0
281
0
  0
ENDSEC
  0
SECTION
  2
TABLES
  0
TABLE
  2
VPORT
  5
8
100
AcDbSymbolTable
 70
2
  0
VPORT
  5
1F4
100
AcDbSymbolTableRecord
100
AcDbViewportTableRecord
  2
*ACTIVE
 70
0
 10
0.0
 20
0.0
 11
1.0
 21
1.0
 12
420.5
 22
297.0
 13
0.0
 23
0.0
 14
1.0
 24
1.0
 15
0.0
 25
0.0
 16
0.0
 26
0.0
 36
1.0
 17
0.0
 27
0.0
 37
0.0
 40
594.0
 41
1.4158249158
 42
50.0
 43
0.0
 44
0.0
 50
0.0
 51
0.0
 71
0
 72
100
 73
1
 74
1
 75
0
 76
0
 77
0
 78
0
  0
ENDTAB
  0
TABLE
  2
LTYPE
  5
5
100
AcDbSymbolTable
 70
6
  0
LTYPE
  5
14
100
AcDbSymbolTableRecord
100
AcDbLinetypeTableRecord
  2
BYBLOCK
 70
0
  3

 72
65
 73
0
 40
0.0
  0
LTYPE
  5
15
100
AcDbSymbolTableRecord
100
AcDbLinetypeTableRecord
  2
BYLAYER
 70
0
  3

 72
65
 73
0
 40
0.0
  0
LTYPE
  5
16
100
AcDbSymbolTableRecord
100
AcDbLinetypeTableRecord
  2
CONTINUOUS
 70
64
  3
Solid line
 72
65
 73
0
 40
0.0
  0
LTYPE
  5
1F5
100
AcDbSymbolTableRecord
100
AcDbLinetypeTableRecord
  2
CENTER
 70
64
  3
____ _ ____ _ ____ _ ____ _ ____ _ ____ _ ____
 72
65
 73
4
 40
0.6
 49
0.375
 74
0
 49
-0.075
 74
0
 49
0.075
 74
0
 49
-0.075
 74
0
  0
LTYPE
  5
1F6
100
AcDbSymbolTableRecord
100
AcDbLinetypeTableRecord
  2
HIDDEN
 70
64
  3
- - - - - - - - - - - - - - - - - - - -
 72
65
 73
2
 40
0.2
 49
0.1
 74
0
 49
-0.1
 74
0
  0
LTYPE
  5
1F7
100
AcDbSymbolTableRecord
100
AcDbLinetypeTableRecord
  2
PHANTOM
 70
64
  3
_____ _ _ _____ _ _ _____ _ _ _____
 72
65
 73
6
 40
0.8
 49
0.45
 74
0
 49
-0.05
 74
0
 49
0.1
 74
0
 49
-0.05
 74
0
 49
0.1
 74
0
 49
-0.05
 74
0
  0
LTYPE
  5
1F8
100
AcDbSymbolTableRecord
100
AcDbLinetypeTableRecord
  2
DOT
 70
64
  3
. . . . . . . . . . . . . . . . . . . .
 72
65
 73
2
 40
0.2
 49
0.1
 74
0
 49
-0.1
 74
0
  0
LTYPE
  5
1F9
100
AcDbSymbolTableRecord
100
AcDbLinetypeTableRecord
  2
DASHED
 70
64
  3
- - - - - - - - - - - - - - - - - - - -
 72
65
 73
2
 40
0.2
 49
0.1
 74
0
 49
-0.1
 74
0
  0
ENDTAB
  0
TABLE
  2
LAYER
  5
2
100
AcDbSymbolTable
 70
36
  0
LAYER
  5
10
100
AcDbSymbolTableRecord
100
AcDbLayerTableRecord
  2
0
 70
0
 62
7
  6
CONTINUOUS
370
-3
390
F
  0
LAYER
  5
1FA
100
AcDbSymbolTableRecord
100
AcDbLayerTableRecord
  2
DEFAULT_1
 70
0
 62
7
  6
CENTER
370
-3
390
F
  0
LAYER
  5
1FB
100
AcDbSymbolTableRecord
100
AcDbLayerTableRecord
  2
DEFAULT_2
 70
0
 62
7
  6
HIDDEN
370
-3
390
F
  0
LAYER
  5
1FC
100
AcDbSymbolTableRecord
100
AcDbLayerTableRecord
  2
DEFAULT_3
 70
0
 62
7
  6
PHANTOM
370
-3
390
F
  0
LAYER
  5
1FD
100
AcDbSymbolTableRecord
100
AcDbLayerTableRecord
  2
ASSI
 70
0
 62
7
  6
CONTINUOUS
370
-3
390
F
  0
LAYER
  5
1FE
100
AcDbSymbolTableRecord
100
AcDbLayerTableRecord
  2
CLOSED_SHELL
 70
0
 62
7
  6
CONTINUOUS
370
-3
390
F
  0
LAYER
  5
1FF
100
AcDbSymbolTableRecord
100
AcDbLayerTableRecord
  2
COORDINATE
 70
0
 62
7
  6
CONTINUOUS
370
-3
390
F
  0
LAYER
  5
200
100
AcDbSymbolTableRecord
100
AcDbLayerTableRecord
  2
COPY_PUBLISH
 70
0
 62
7
  6
CONTINUOUS
370
-3
390
F
  0
LAYER
  5
201
100
AcDbSymbolTableRecord
100
AcDbLayerTableRecord
  2
COSMETICI
 70
0
 62
7
  6
CONTINUOUS
370
-3
390
F
  0
LAYER
  5
202
100
AcDbSymbolTableRecord
100
AcDbLayerTableRecord
  2
CURVE
 70
0
 62
7
  6
CONTINUOUS
370
-3
390
F
  0
LAYER
  5
203
100
AcDbSymbolTableRecord
100
AcDbLayerTableRecord
  2
DRAFT
 70
0
 62
7
  6
CONTINUOUS
370
-3
390
F
  0
LAYER
  5
204
100
AcDbSymbolTableRecord
100
AcDbLayerTableRecord
  2
GENERAL
 70
0
 62
7
  6
CONTINUOUS
370
-3
390
F
  0
LAYER
  5
205
100
AcDbSymbolTableRecord
100
AcDbLayerTableRecord
  2
IMPORT_IGES
 70
0
 62
7
  6
CONTINUOUS
370
-3
390
F
  0
LAYER
  5
206
100
AcDbSymbolTableRecord
100
AcDbLayerTableRecord
  2
NOTE
 70
0
 62
7
  6
CONTINUOUS
370
-3
390
F
  0
LAYER
  5
207
100
AcDbSymbolTableRecord
100
AcDbLayerTableRecord
  2
PIANI
 70
0
 62
7
  6
CONTINUOUS
370
-3
390
F
  0
LAYER
  5
208
100
AcDbSymbolTableRecord
100
AcDbLayerTableRecord
  2
PUNTI
 70
0
 62
7
  6
CONTINUOUS
370
-3
390
F
  0
LAYER
  5
209
100
AcDbSymbolTableRecord
100
AcDbLayerTableRecord
  2
RACCORDO
 70
0
 62
7
  6
CONTINUOUS
370
-3
390
F
  0
LAYER
  5
20A
100
AcDbSymbolTableRecord
100
AcDbLayerTableRecord
  2
SIMBOLI
 70
0
 62
7
  6
CONTINUOUS
370
-3
390
F
  0
LAYER
  5
20B
100
AcDbSymbolTableRecord
100
AcDbLayerTableRecord
  2
SMUSSO
 70
0
 62
7
  6
CONTINUOUS
370
-3
390
F
  0
LAYER
  5
20C
100
AcDbSymbolTableRecord
100
AcDbLayerTableRecord
  2
SUPERFICI
 70
0
 62
7
  6
CONTINUOUS
370
-3
390
F
  0
LAYER
  5
20D
100
AcDbSymbolTableRecord
100
AcDbLayerTableRecord
  2
TRASH
 70
0
 62
7
  6
CONTINUOUS
370
-3
390
F
  0
ENDTAB
  0
TABLE
  2
STYLE
  5
3
100
AcDbSymbolTable
 70
1
  0
STYLE
  5
11
100
AcDbSymbolTableRecord
100
AcDbTextStyleTableRecord
  2
STANDARD
 70
0
 40
0.0
 41
0.8
 50
0.0
 71
0
 42
0.2
  3
txt
  4

  0
STYLE
  5
20E
100
AcDbSymbolTableRecord
100
AcDbTextStyleTableRecord
  2
TEXTSTYLE_1
 70
0
 40
0.0
 41
0.8
 50
0.0
 71
0
 42
0.2
  3
gdt
  4

  0
ENDTAB
  0
TABLE
  2
VIEW
  5
6
100
AcDbSymbolTable
 70
0
  0
ENDTAB
  0
TABLE
  2
UCS
  5
7
100
AcDbSymbolTable
 70
0
  0
ENDTAB
  0
TABLE
  2
APPID
  5
9
100
AcDbSymbolTable
 70
1
  0
APPID
  5
20F
100
AcDbSymbolTableRecord
100
AcDbRegAppTableRecord
  2
ACAD
 70
0
  0
ENDTAB
  0
TABLE
  2
BLOCK_RECORD
  5
1
100
AcDbSymbolTable
 70
0
  0
BLOCK_RECORD
  5
210
100
AcDbSymbolTableRecord
100
AcDbBlockTableRecord
  2
*Model_Space
  0
BLOCK_RECORD
  5
211
100
AcDbSymbolTableRecord
100
AcDbBlockTableRecord
  2
*Paper_Space
  0
BLOCK_RECORD
  5
212
100
AcDbSymbolTableRecord
100
AcDbBlockTableRecord
  2
_FILLED
  0
BLOCK_RECORD
  5
213
100
AcDbSymbolTableRecord
100
AcDbBlockTableRecord
  2
*D0
  0
BLOCK_RECORD
  5
214
100
AcDbSymbolTableRecord
100
AcDbBlockTableRecord
  2
*D1
  0
BLOCK_RECORD
  5
215
100
AcDbSymbolTableRecord
100
AcDbBlockTableRecord
  2
*D2
  0
BLOCK_RECORD
  5
216
100
AcDbSymbolTableRecord
100
AcDbBlockTableRecord
  2
*D3
  0
ENDTAB
  0
TABLE
  2
DIMSTYLE
  5
A
100
AcDbSymbolTable
 70
1
100
AcDbDimStyleTable
 71
0
  0
DIMSTYLE
105
217
100
AcDbSymbolTableRecord
100
AcDbDimStyleTableRecord
  2
STANDARD
 70
0
  3

  4

 40
1.0
 41
3.0
 42
0.5
 43
0.38
 44
1.5
 45
0.0
 46
0.0
 47
0.01
 48
0.01
140
3.0
141
0.09
142
0.0
143
25.4
144
1.0
145
0.0
146
1.0
147
0.625
 71
1
 72
0
 73
0
 74
0
 75
0
 76
0
 77
1
 78
8
 79
2
170
0
171
1
172
0
173
0
174
0
175
0
176
0
177
0
178
0
270
2
179
2
271
2
272
2
273
2
274
2
275
0
280
0
281
0
282
0
283
1
284
8
285
0
286
0
287
3
288
0
340
11
278
44
341
212
342
212
343
212
344
212
  0
DIMSTYLE
105
218
100
AcDbSymbolTableRecord
100
AcDbDimStyleTableRecord
  2
DIMSTYLE_1
 70
0
  3

  4

 40
1.0
 41
3.0
 42
0.5
 43
0.38
 44
1.5
 45
0.0
 46
0.0
 47
0.0
 48
0.0
140
3.0
141
0.09
142
0.0
143
25.4
144
1.0
145
0.0
146
1.0
147
0.75
 71
0
 72
0
 73
0
 74
0
 75
0
 76
0
 77
1
 78
8
 79
2
170
0
171
1
172
0
173
0
174
0
175
0
176
0
177
0
178
0
270
2
179
2
271
2
272
2
273
2
274
2
275
0
280
0
281
0
282
0
283
1
284
8
285
0
286
0
287
3
288
0
340
11
278
44
341
212
342
212
343
212
344
212
  0
ENDTAB
  0
ENDSEC
  0
SECTION
  2
BLOCKS
  0
BLOCK
  5
20
100
AcDbEntity
  8
0
100
AcDbBlockBegin
  2
*Model_Space
 70
0
 10
0.0
 20
0.0
 30
0.0
  3
*Model_Space
  1

  0
ENDBLK
  5
21
100
AcDbEntity
  8
0
100
AcDbBlockEnd
  0
BLOCK
  5
1C
100
AcDbEntity
  8
0
100
AcDbBlockBegin
  2
*Paper_Space
 70
0
 10
0.0
 20
0.0
 30
0.0
  3
*Paper_Space
  1

  0
ENDBLK
  5
1D
100
AcDbEntity
  8
0
100
AcDbBlockEnd
  0
BLOCK
  5
219
100
AcDbEntity
  8
0
100
AcDbBlockBegin
  2
_FILLED
 70
64
 10
0.0
 20
0.0
  3
_FILLED
  1

  0
SOLID
  5
21A
100
AcDbEntity
  8
0
  6
BYBLOCK
 62
0
100
AcDbTrace
 10
0.0
 20
0.0
 11
-1.0
 21
0.3166666667
 12
-1.0
 22
-0.3166666667
 13
-1.0
 23
-0.3166666667
  0
ENDBLK
  5
21B
100
AcDbEntity
  8
0
  6
BYBLOCK
 62
0
100
AcDbBlockEnd
  0
BLOCK
  5
21C
100
AcDbEntity
  8
0
100
AcDbBlockBegin
 62
7
  6
CONTINUOUS
  2
*D0
 70
65
 10
0.0
 20
0.0
  3
*D0
  1

  0
LINE
  5
21D
100
AcDbEntity
  8
0
100
AcDbLine
 62
7
  6
CONTINUOUS
 10
287.0245546895
 20
358.4240966151
 11
287.0245546895
 21
369.3452413276
  0
LINE
  5
21E
100
AcDbEntity
  8
0
100
AcDbLine
 62
7
  6
CONTINUOUS
 10
337.5245546895
 20
343.5558821151
 11
337.5245546895
 21
369.3452413276
  0
LINE
  5
21F
100
AcDbEntity
  8
0
100
AcDbLine
 62
7
  6
CONTINUOUS
 10
287.0245546895
 20
367.8452413276
 11
312.2745546895
 21
367.8452413276
  0
LINE
  5
220
100
AcDbEntity
  8
0
100
AcDbLine
 62
7
  6
CONTINUOUS
 10
337.5245546895
 20
367.8452413276
 11
312.2745546895
 21
367.8452413276
  0
INSERT
  5
221
100
AcDbEntity
  8
0
100
AcDbBlockReference
 62
7
  6
CONTINUOUS
  2
_FILLED
 10
287.0245546895
 20
367.8452413276
 41
3.0
 42
3.0
 43
3.0
 50
180.0
  0
INSERT
  5
222
100
AcDbEntity
  8
0
100
AcDbBlockReference
 62
7
  6
CONTINUOUS
  2
_FILLED
 10
337.5245546895
 20
367.8452413276
 41
3.0
 42
3.0
 43
3.0
  0
ENDBLK
  5
223
100
AcDbEntity
  8
0
  6
BYBLOCK
 62
0
100
AcDbBlockEnd
  0
BLOCK
  5
224
100
AcDbEntity
  8
0
100
AcDbBlockBegin
 62
7
  6
CONTINUOUS
  2
*D1
 70
65
 10
0.0
 20
0.0
  3
*D1
  1

  0
LINE
  5
225
100
AcDbEntity
  8
0
100
AcDbLine
 62
7
  6
CONTINUOUS
 10
285.2769516895
 20
349.3546421151
 11
285.2769516895
 21
378.1670191364
  0
LINE
  5
226
100
AcDbEntity
  8
0
100
AcDbLine
 62
7
  6
CONTINUOUS
 10
337.5245546895
 20
343.5558821151
 11
337.5245546895
 21
378.1670191364
  0
LINE
  5
227
100
AcDbEntity
  8
0
100
AcDbLine
 62
7
  6
CONTINUOUS
 10
285.2769516895
 20
376.6670191364
 11
311.4007531895
 21
376.6670191364
  0
LINE
  5
228
100
AcDbEntity
  8
0
100
AcDbLine
 62
7
  6
CONTINUOUS
 10
337.5245546895
 20
376.6670191364
 11
311.4007531895
 21
376.6670191364
  0
INSERT
  5
229
100
AcDbEntity
  8
0
100
AcDbBlockReference
 62
7
  6
CONTINUOUS
  2
_FILLED
 10
285.2769516895
 20
376.6670191364
 41
3.0
 42
3.0
 43
3.0
 50
180.0
  0
INSERT
  5
22A
100
AcDbEntity
  8
0
100
AcDbBlockReference
 62
7
  6
CONTINUOUS
  2
_FILLED
 10
337.5245546895
 20
376.6670191364
 41
3.0
 42
3.0
 43
3.0
  0
ENDBLK
  5
22B
100
AcDbEntity
  8
0
  6
BYBLOCK
 62
0
100
AcDbBlockEnd
  0
BLOCK
  5
22C
100
AcDbEntity
  8
0
100
AcDbBlockBegin
 62
7
  6
CONTINUOUS
  2
*D2
 70
65
 10
0.0
 20
0.0
  3
*D2
  1

  0
LINE
  5
22D
100
AcDbEntity
  8
0
100
AcDbLine
 62
7
  6
CONTINUOUS
 10
415.5072366895
 20
354.4240966151
 11
415.5072366895
 21
370.4503028511
  0
LINE
  5
22E
100
AcDbEntity
  8
0
100
AcDbLine
 62
7
  6
CONTINUOUS
 10
570.7084366895
 20
354.4240966151
 11
570.7084366895
 21
370.4503028511
  0
LINE
  5
22F
100
AcDbEntity
  8
0
100
AcDbLine
 62
7
  6
CONTINUOUS
 10
415.5072366895
 20
368.9503028511
 11
493.1078366895
 21
368.9503028511
  0
LINE
  5
230
100
AcDbEntity
  8
0
100
AcDbLine
 62
7
  6
CONTINUOUS
 10
570.7084366895
 20
368.9503028511
 11
493.1078366895
 21
368.9503028511
  0
INSERT
  5
231
100
AcDbEntity
  8
0
100
AcDbBlockReference
 62
7
  6
CONTINUOUS
  2
_FILLED
 10
415.5072366895
 20
368.9503028511
 41
3.0
 42
3.0
 43
3.0
 50
180.0
  0
INSERT
  5
232
100
AcDbEntity
  8
0
100
AcDbBlockReference
 62
7
  6
CONTINUOUS
  2
_FILLED
 10
570.7084366895
 20
368.9503028511
 41
3.0
 42
3.0
 43
3.0
  0
ENDBLK
  5
233
100
AcDbEntity
  8
0
  6
BYBLOCK
 62
0
100
AcDbBlockEnd
  0
BLOCK
  5
234
100
AcDbEntity
  8
0
100
AcDbBlockBegin
 62
7
  6
CONTINUOUS
  2
*D3
 70
65
 10
0.0
 20
0.0
  3
*D3
  1

  0
LINE
  5
235
100
AcDbEntity
  8
0
100
AcDbLine
 62
7
  6
CONTINUOUS
 10
567.2084366895
 20
357.9240966151
 11
587.8386233581
 21
357.9240966151
  0
LINE
  5
236
100
AcDbEntity
  8
0
100
AcDbLine
 62
7
  6
CONTINUOUS
 10
567.2084366895
 20
205.2240966151
 11
587.8386233581
 21
205.2240966151
  0
LINE
  5
237
100
AcDbEntity
  8
0
100
AcDbLine
 62
7
  6
CONTINUOUS
 10
586.3386233581
 20
357.9240966151
 11
586.3386233581
 21
281.5740966151
  0
LINE
  5
238
100
AcDbEntity
  8
0
100
AcDbLine
 62
7
  6
CONTINUOUS
 10
586.3386233581
 20
205.2240966151
 11
586.3386233581
 21
281.5740966151
  0
INSERT
  5
239
100
AcDbEntity
  8
0
100
AcDbBlockReference
 62
7
  6
CONTINUOUS
  2
_FILLED
 10
586.3386233581
 20
357.9240966151
 41
3.0
 42
3.0
 43
3.0
 50
90.0
  0
INSERT
  5
23A
100
AcDbEntity
  8
0
100
AcDbBlockReference
 62
7
  6
CONTINUOUS
  2
_FILLED
 10
586.3386233581
 20
205.2240966151
 41
3.0
 42
3.0
 43
3.0
 50
270.0
  0
ENDBLK
  5
23B
100
AcDbEntity
  8
0
  6
BYBLOCK
 62
0
100
AcDbBlockEnd
  0
ENDSEC
  0
SECTION
  2
ENTITIES
  0
DIMENSION
  5
23C
100
AcDbEntity
  8
0
100
AcDbDimension
 62
7
  6
CONTINUOUS
  2
*D0
 10
337.5245546895
 20
367.8452413276
 11
309.3816975466
 21
367.8452413276
 70
160
 71
2
 72
2
 41
0.9
 42
50.5
  3
DIMSTYLE_1
100
AcDbAlignedDimension
 13
287.0245546895
 23
357.9240966151
 14
337.5245546895
 24
343.0558821151
100
AcDbRotatedDimension
  0
DIMENSION
  5
23D
100
AcDbEntity
  8
0
100
AcDbDimension
 62
7
  6
CONTINUOUS
  2
*D1
 10
337.5245546895
 20
376.6670191364
 11
306.2578960466
 21
376.6670191364
 70
160
 71
2
 72
2
 41
0.9
 42
52.247603
  3
DIMSTYLE_1
100
AcDbAlignedDimension
 13
285.2769516895
 23
348.8546421151
 14
337.5245546895
 24
343.0558821151
100
AcDbRotatedDimension
  0
DIMENSION
  5
23E
100
AcDbEntity
  8
0
100
AcDbDimension
 62
7
  6
CONTINUOUS
  2
*D2
 10
570.7084366895
 20
368.9503028511
 11
487.9649795466
 21
368.9503028511
 70
160
 71
2
 72
2
 41
0.9
 42
155.2012
  3
DIMSTYLE_1
100
AcDbAlignedDimension
 13
415.5072366895
 23
353.9240966151
 14
570.7084366895
 24
353.9240966151
100
AcDbRotatedDimension
  0
DIMENSION
  5
23F
100
AcDbEntity
  8
0
100
AcDbDimension
 62
7
  6
CONTINUOUS
  2
*D3
 10
586.3386233581
 20
205.2240966151
 11
586.3386233581
 21
276.216953758
 70
160
 71
2
 72
2
 41
0.9
 42
152.7
  3
DIMSTYLE_1
100
AcDbAlignedDimension
 13
566.7084366895
 23
357.9240966151
 14
566.7084366895
 24
205.2240966151
 50
270.0
100
AcDbRotatedDimension
  0
LINE
  5
240
100
AcDbEntity
  8
0
100
AcDbLine
 62
7
  6
CONTINUOUS
 10
286.5061546895
 20
356.8587116151
 11
286.4807631895
 21
356.7525236151
  0
LINE
  5
241
100
AcDbEntity
  8
0
100
AcDbLine
 62
7
  6
CONTINUOUS
 10
286.5925546895
 20
357.2126186151
 11
286.5061546895
 21
356.8587116151
  0
LINE
  5
242
100
AcDbEntity
  8
0
100
AcDbLine
 62
7
  6
CONTINUOUS
 10
286.6645546895
 20
357.4993161151
 11
286.5925546895
 21
357.2126186151
  0
LINE
  5
243
100
AcDbEntity
  8
0
100
AcDbLine
 62
7
  6
CONTINUOUS
 10
286.7245546895
 20
357.7329156151
 11
286.6645546895
 21
357.4993161151
  0
LINE
  5
244
100
AcDbEntity
  8
0
100
AcDbLine
 62
7
  6
CONTINUOUS
 10
286.7745546895
 20
357.9240966151
 11
286.7245546895
 21
357.7329156151
  0
LINE
  5
245
100
AcDbEntity
  8
0
100
AcDbLine
 62
7
  6
CONTINUOUS
 10
286.7745546895
 20
205.2240966151
 11
286.7245546895
 21
205.4152776151
  0
LINE
  5
246
100
AcDbEntity
  8
0
100
AcDbLine
 62
7
  6
CONTINUOUS
 10
286.7245546895
 20
205.4152776151
 11
286.6645546895
 21
205.6488771151
  0
LINE
  5
247
100
AcDbEntity
  8
0
100
AcDbLine
 62
7
  6
CONTINUOUS
 10
286.6645546895
 20
205.6488771151
 11
286.5925546895
 21
205.9355746151
  0
LINE
  5
248
100
AcDbEntity
  8
0
100
AcDbLine
 62
7
  6
CONTINUOUS
 10
286.5925546895
 20
205.9355746151
 11
286.5061546895
 21
206.2894816151
  0
LINE
  5
249
100
AcDbEntity
  8
0
100
AcDbLine
 62
7
  6
CONTINUOUS
 10
286.4807631895
 20
206.3956696151
 11
286.5061546895
 21
206.2894816151
  0
LINE
  5
24A
100
AcDbEntity
  8
0
100
AcDbLine
 62
7
  6
CONTINUOUS
 10
285.2769516895
 20
214.4963621151
 11
285.2769516895
 21
349.1046421151
  0
LINE
  5
24B
100
AcDbEntity
  8
0
100
AcDbLine
 62
7
  6
CONTINUOUS
 10
285.4103516895
 20
349.1023136151
 11
285.4103516895
 21
214.0458796151
  0
LINE
  5
24C
100
AcDbEntity
  8
0
100
AcDbLine
 62
7
  6
CONTINUOUS
 10
286.7745546895
 20
209.2240966151
 11
286.7745546895
 21
353.9240966151
  0
LINE
  5
24D
100
AcDbEntity
  8
0
100
AcDbLine
 62
7
  6
CONTINUOUS
 10
287.0245546895
 20
205.2240966151
 11
287.0245546895
 21
357.9240966151
  0
LINE
  5
24E
100
AcDbEntity
  8
0
100
AcDbLine
 62
7
  6
CONTINUOUS
 10
287.3245516895
 20
346.3218966151
 11
287.3245516895
 21
345.3718966151
  0
LINE
  5
24F
100
AcDbEntity
  8
0
100
AcDbLine
 62
7
  6
CONTINUOUS
 10
287.3245516895
 20
216.8262966151
 11
287.3245516895
 21
217.7762966151
  0
LINE
  5
250
100
AcDbEntity
  8
0
100
AcDbLine
 62
7
  6
CONTINUOUS
 10
288.5769516895
 20
346.6459806151
 11
288.5769516895
 21
346.0394291151
  0
LINE
  5
251
100
AcDbEntity
  8
0
100
AcDbLine
 62
7
  6
CONTINUOUS
 10
288.5769516895
 20
344.9420296151
 11
288.5769516895
 21
345.1260076151
  0
LINE
  5
252
100
AcDbEntity
  8
0
100
AcDbLine
 62
7
  6
CONTINUOUS
 10
288.7245516895
 20
346.3218966151
 11
288.7245516895
 21
345.3718966151
  0
LINE
  5
253
100
AcDbEntity
  8
0
100
AcDbLine
 62
7
  6
CONTINUOUS
 10
288.7245516895
 20
216.8262966151
 11
288.7245516895
 21
217.7762966151
  0
LINE
  5
254
100
AcDbEntity
  8
0
100
AcDbLine
 62
7
  6
CONTINUOUS
 10
291.7745546895
 20
211.7240966151
 11
291.7745546895
 21
351.4240966151
  0
LINE
  5
255
100
AcDbEntity
  8
0
100
AcDbLine
 62
7
  6
CONTINUOUS
 10
298.9245546895
 20
211.9623581151
 11
298.9245546895
 21
351.1858351151
  0
LWPOLYLINE
  5
256
100
AcDbEntity
  8
0
100
AcDbPolyline
 62
7
  6
CONTINUOUS
 90
3
 70
0
 43
0.3499999985
 10
313.4007494202
 20
377.702737793
 10
313.329322937
 20
377.4884326782
 10
313.1864699707
 20
377.2027267456
  0
LWPOLYLINE
  5
257
100
AcDbEntity
  8
0
100
AcDbPolyline
 62
7
  6
CONTINUOUS
 90
3
 70
0
 43
0.3499999985
 10
306.2578957825
 20
379.5598776855
 10
307.1150392456
 20
380.4169954834
 10
307.1150392456
 20
377.4170318604
  0
LWPOLYLINE
  5
258
100
AcDbEntity
  8
0
100
AcDbPolyline
 62
7
  6
CONTINUOUS
 90
3
 70
0
 43
0.3499999985
 10
309.381694397
 20
370.7381038818
 10
310.2388378601
 20
371.595247345
 10
310.2388378601
 20
368.5952323914
  0
LWPOLYLINE
  5
259
100
AcDbEntity
  8
0
100
AcDbPolyline
 62
7
  6
CONTINUOUS
 90
3
 70
0
 43
0.3499999985
 10
313.4531322632
 20
370.7381038818
 10
314.3102757263
 20
371.595247345
 10
314.3102757263
 20
368.5952323914
  0
LINE
  5
25A
100
AcDbEntity
  8
0
100
AcDbLine
 62
7
  6
CONTINUOUS
 10
286.4807631895
 20
356.7525236151
 11
286.5061546895
 21
356.6421906151
  0
LWPOLYLINE
  5
25B
100
AcDbEntity
  8
0
100
AcDbPolyline
 62
7
  6
CONTINUOUS
 90
13
 70
0
 43
0.3499999985
 10
307.9721827087
 20
378.2741496582
 10
307.9721827087
 20
379.5598776855
 10
308.1864621582
 20
379.9884365845
 10
308.6150467224
 20
380.4169954834
 10
308.8293261719
 20
380.4169954834
 10
309.2578850708
 20
379.9884365845
 10
309.4721901855
 20
379.5598776855
 10
309.4721901855
 20
378.2741496582
 10
309.2578850708
 20
377.8455907593
 10
308.8293261719
 20
377.4170318604
 10
308.6150467224
 20
377.4170318604
 10
308.1864621582
 20
377.8455907593
 10
307.9721827087
 20
378.2741496582
  0
LWPOLYLINE
  5
25C
100
AcDbEntity
  8
0
100
AcDbPolyline
 62
7
  6
CONTINUOUS
 90
13
 70
0
 43
0.3499999985
 10
311.0959813232
 20
369.4523758545
 10
311.0959813232
 20
370.7381038818
 10
311.3102607727
 20
371.1666627808
 10
311.7388453369
 20
371.595247345
 10
311.9531247864
 20
371.595247345
 10
312.3817093506
 20
371.1666627808
 10
312.5959888
 20
370.7381038818
 10
312.5959888
 20
369.4523758545
 10
312.3817093506
 20
369.0238169556
 10
311.9531247864
 20
368.5952323914
 10
311.7388453369
 20
368.5952323914
 10
311.3102607727
 20
369.0238169556
 10
311.0959813232
 20
369.4523758545
  0
LWPOLYLINE
  5
25D
100
AcDbEntity
  8
0
100
AcDbPolyline
 62
7
  6
CONTINUOUS
 90
2
 70
0
 43
0.3499999985
 10
311.3293300781
 20
377.4170318604
 10
311.3293300781
 20
378.9170136719
  0
LINE
  5
25E
100
AcDbEntity
  8
0
100
AcDbLine
 62
7
  6
CONTINUOUS
 10
312.7745546895
 20
300.2337226151
 11
312.7745546895
 21
262.9144706151
  0
LINE
  5
25F
100
AcDbEntity
  8
0
100
AcDbLine
 62
7
  6
CONTINUOUS
 10
316.0245546895
 20
245.0740966151
 11
316.0245546895
 21
227.5740966151
  0
LINE
  5
260
100
AcDbEntity
  8
0
100
AcDbLine
 62
7
  6
CONTINUOUS
 10
316.0245546895
 20
318.0740966151
 11
316.0245546895
 21
335.5740966151
  0
LINE
  5
261
100
AcDbEntity
  8
0
100
AcDbLine
 62
7
  6
CONTINUOUS
 10
286.5061546895
 20
206.5060026151
 11
286.4807631895
 21
206.3956696151
  0
LINE
  5
262
100
AcDbEntity
  8
0
100
AcDbLine
 62
7
  6
CONTINUOUS
 10
287.3816871895
 20
346.1670596151
 11
287.3245526895
 21
346.1451506151
  0
LINE
  5
263
100
AcDbEntity
  8
0
100
AcDbLine
 62
7
  6
CONTINUOUS
 10
288.6951851895
 20
345.1713406151
 11
287.6599591895
 21
344.7743636151
  0
LINE
  5
264
100
AcDbEntity
  8
0
100
AcDbLine
 62
7
  6
CONTINUOUS
 10
566.7084366895
 20
205.2240966151
 11
419.5072366895
 21
205.2240966151
  0
LINE
  5
265
100
AcDbEntity
  8
0
100
AcDbLine
 62
7
  6
CONTINUOUS
 10
287.0245546895
 20
205.2240966151
 11
286.7745546895
 21
205.2240966151
  0
LINE
  5
266
100
AcDbEntity
  8
DEFAULT_1
100
AcDbLine
 62
7
  6
CENTER
 10
287.0789586895
 20
209.2240981151
 11
287.0245546895
 21
209.2240966151
  0
LINE
  5
267
100
AcDbEntity
  8
0
100
AcDbLine
 62
7
  6
CONTINUOUS
 10
287.0245546895
 20
209.2240966151
 11
286.7745546895
 21
209.2240966151
  0
LINE
  5
268
100
AcDbEntity
  8
DEFAULT_1
100
AcDbLine
 62
7
  6
CENTER
 10
286.7745546895
 20
209.2240966151
 11
286.4261086895
 21
209.2240981151
  0
LINE
  5
269
100
AcDbEntity
  8
0
100
AcDbLine
 62
7
  6
CONTINUOUS
 10
337.5245546895
 20
220.0923111151
 11
337.5245546895
 21
343.0558821151
  0
LINE
  5
26A
100
AcDbEntity
  8
0
100
AcDbLine
 62
7
  6
CONTINUOUS
 10
287.3302431895
 20
216.7372566151
 11
288.7245561895
 21
216.9831116151
  0
LINE
  5
26B
100
AcDbEntity
  8
0
100
AcDbLine
 62
7
  6
CONTINUOUS
 10
298.9245611895
 20
219.0815346151
 11
337.5245546895
 21
220.0923111151
  0
LINE
  5
26C
100
AcDbEntity
  8
0
100
AcDbLine
 62
7
  6
CONTINUOUS
 10
287.0245546895
 20
211.6411851151
 11
291.7745546895
 21
211.7240966151
  0
LINE
  5
26D
100
AcDbEntity
  8
0
100
AcDbLine
 62
7
  6
CONTINUOUS
 10
291.7745546895
 20
211.8375546151
 11
298.9245546895
 21
211.9623581151
  0
LINE
  5
26E
100
AcDbEntity
  8
0
100
AcDbLine
 62
7
  6
CONTINUOUS
 10
285.4103516895
 20
214.0458796151
 11
285.2769516895
 21
214.0435511151
  0
LINE
  5
26F
100
AcDbEntity
  8
0
100
AcDbLine
 62
7
  6
CONTINUOUS
 10
563.3193716895
 20
214.0458796151
 11
561.8889821895
 21
214.0435511151
  0
LINE
  5
270
100
AcDbEntity
  8
0
100
AcDbLine
 62
7
  6
CONTINUOUS
 10
424.3266911895
 20
214.0435511151
 11
561.8889821895
 21
214.0435511151
  0
LINE
  5
271
100
AcDbEntity
  8
0
100
AcDbLine
 62
7
  6
CONTINUOUS
 10
563.2257391895
 20
214.1395121151
 11
422.9899341895
 21
214.1395121151
  0
LINE
  5
272
100
AcDbEntity
  8
0
100
AcDbLine
 62
7
  6
CONTINUOUS
 10
562.6078366895
 20
214.4963621151
 11
423.6078366895
 21
214.4963621151
  0
LINE
  5
273
100
AcDbEntity
  8
0
100
AcDbLine
 62
7
  6
CONTINUOUS
 10
285.4103521895
 20
214.4963621151
 11
285.2769516895
 21
214.4963621151
  0
LINE
  5
274
100
AcDbEntity
  8
DEFAULT_1
100
AcDbLine
 62
7
  6
CENTER
 10
285.2636116895
 20
214.7463611151
 11
285.2769516895
 21
214.7463621151
  0
LINE
  5
275
100
AcDbEntity
  8
0
100
AcDbLine
 62
7
  6
CONTINUOUS
 10
285.2769516895
 20
214.7463621151
 11
285.4103516895
 21
214.7463621151
  0
LINE
  5
276
100
AcDbEntity
  8
DEFAULT_1
100
AcDbLine
 62
7
  6
CENTER
 10
285.4103516895
 20
214.7463621151
 11
285.4236916895
 21
214.7463611151
  0
LINE
  5
277
100
AcDbEntity
  8
0
100
AcDbLine
 62
7
  6
CONTINUOUS
 10
494.2303841895
 20
216.0270956151
 11
491.9852891895
 21
216.0270956151
  0
LINE
  5
278
100
AcDbEntity
  8
0
100
AcDbLine
 62
7
  6
CONTINUOUS
 10
494.2232801895
 20
216.0515326151
 11
491.9923931895
 21
216.0515326151
  0
LINE
  5
279
100
AcDbEntity
  8
0
100
AcDbLine
 62
7
  6
CONTINUOUS
 10
491.7022396895
 20
216.2802146151
 11
494.5134336895
 21
216.2802146151
  0
LINE
  5
27A
100
AcDbEntity
  8
0
100
AcDbLine
 62
7
  6
CONTINUOUS
 10
491.7106056895
 20
216.3015326151
 11
494.5050676895
 21
216.3015326151
  0
LINE
  5
27B
100
AcDbEntity
  8
DEFAULT_1
100
AcDbLine
 62
7
  6
CENTER
 10
563.2901716895
 20
216.8262941151
 11
563.2859601895
 21
216.8262966151
  0
LINE
  5
27C
100
AcDbEntity
  8
DEFAULT_1
100
AcDbLine
 62
7
  6
CENTER
 10
563.2615221895
 20
216.8262966151
 11
563.2567701895
 21
216.8262941151
  0
LINE
  5
27D
100
AcDbEntity
  8
DEFAULT_1
100
AcDbLine
 62
7
  6
CENTER
 10
422.9586286895
 20
216.8262941151
 11
422.9541511895
 21
216.8262966151
  0
LINE
  5
27E
100
AcDbEntity
  8
DEFAULT_1
100
AcDbLine
 62
7
  6
CENTER
 10
422.9297151895
 20
216.8262966151
 11
422.9255246895
 21
216.8262941151
  0
LINE
  5
27F
100
AcDbEntity
  8
0
100
AcDbLine
 62
7
  6
CONTINUOUS
 10
422.9297151895
 20
216.8262966151
 11
422.9541511895
 21
216.8262966151
  0
LINE
  5
280
100
AcDbEntity
  8
0
100
AcDbLine
 62
7
  6
CONTINUOUS
 10
563.2615221895
 20
216.8262966151
 11
563.2859601895
 21
216.8262966151
  0
LINE
  5
281
100
AcDbEntity
  8
0
100
AcDbLine
 62
7
  6
CONTINUOUS
 10
478.8578366895
 20
216.9963621151
 11
490.7794486895
 21
216.9963621151
  0
LINE
  5
282
100
AcDbEntity
  8
0
100
AcDbLine
 62
7
  6
CONTINUOUS
 10
495.4362246895
 20
216.9963621151
 11
507.3578366895
 21
216.9963621151
  0
LINE
  5
283
100
AcDbEntity
  8
0
100
AcDbLine
 62
7
  6
CONTINUOUS
 10
507.8291976895
 20
217.1629936151
 11
478.3864756895
 21
217.1629936151
  0
LINE
  5
284
100
AcDbEntity
  8
0
100
AcDbLine
 62
7
  6
CONTINUOUS
 10
285.2769886895
 20
217.1629936151
 11
285.2149666895
 21
217.1629936151
  0
LINE
  5
285
100
AcDbEntity
  8
DEFAULT_1
100
AcDbLine
 62
7
  6
CENTER
 10
563.2904386895
 20
217.7762946151
 11
563.2859601895
 21
217.7762966151
  0
LINE
  5
286
100
AcDbEntity
  8
DEFAULT_1
100
AcDbLine
 62
7
  6
CENTER
 10
563.2615221895
 20
217.7762966151
 11
563.2573346895
 21
217.7762946151
  0
LINE
  5
287
100
AcDbEntity
  8
DEFAULT_1
100
AcDbLine
 62
7
  6
CENTER
 10
422.9583616895
 20
217.7762946151
 11
422.9541511895
 21
217.7762966151
  0
LINE
  5
288
100
AcDbEntity
  8
DEFAULT_1
100
AcDbLine
 62
7
  6
CENTER
 10
422.9297151895
 20
217.7762966151
 11
422.9249601895
 21
217.7762946151
  0
LINE
  5
289
100
AcDbEntity
  8
0
100
AcDbLine
 62
7
  6
CONTINUOUS
 10
422.9297151895
 20
217.7762966151
 11
422.9541511895
 21
217.7762966151
  0
LINE
  5
28A
100
AcDbEntity
  8
0
100
AcDbLine
 62
7
  6
CONTINUOUS
 10
563.2615221895
 20
217.7762966151
 11
563.2859601895
 21
217.7762966151
  0
LINE
  5
28B
100
AcDbEntity
  8
0
100
AcDbLine
 62
7
  6
CONTINUOUS
 10
507.7014966895
 20
218.4129936151
 11
506.0373316895
 21
218.4129936151
  0
LINE
  5
28C
100
AcDbEntity
  8
0
100
AcDbLine
 62
7
  6
CONTINUOUS
 10
506.0367851895
 20
218.4129936151
 11
480.1367851895
 21
218.4129936151
  0
LINE
  5
28D
100
AcDbEntity
  8
0
100
AcDbLine
 62
7
  6
CONTINUOUS
 10
480.1362381895
 20
218.4129936151
 11
478.5143246895
 21
218.4129936151
  0
LINE
  5
28E
100
AcDbEntity
  8
0
100
AcDbLine
 62
7
  6
CONTINUOUS
 10
285.2769891895
 20
218.4129936151
 11
285.2149666895
 21
218.4129936151
  0
LINE
  5
28F
100
AcDbEntity
  8
0
100
AcDbLine
 62
7
  6
CONTINUOUS
 10
478.8578366895
 20
218.4963621151
 11
485.6748021895
 21
218.4963621151
  0
LINE
  5
290
100
AcDbEntity
  8
0
100
AcDbLine
 62
7
  6
CONTINUOUS
 10
500.5408711895
 20
218.4963621151
 11
507.3578366895
 21
218.4963621151
  0
LINE
  5
291
100
AcDbEntity
  8
0
100
AcDbLine
 62
7
  6
CONTINUOUS
 10
491.6102506895
 20
218.9740966151
 11
494.6052466895
 21
218.9740966151
  0
LINE
  5
292
100
AcDbEntity
  8
0
100
AcDbLine
 62
7
  6
CONTINUOUS
 10
491.5912986895
 20
219.0180351151
 11
494.6241981895
 21
219.0180351151
  0
LINE
  5
293
100
AcDbEntity
  8
0
100
AcDbLine
 62
7
  6
CONTINUOUS
 10
491.7106056895
 20
219.3015326151
 11
494.5050676895
 21
219.3015326151
  0
LINE
  5
294
100
AcDbEntity
  8
0
100
AcDbLine
 62
7
  6
CONTINUOUS
 10
491.7022396895
 20
219.3228511151
 11
494.5134336895
 21
219.3228511151
  0
LINE
  5
295
100
AcDbEntity
  8
0
100
AcDbLine
 62
7
  6
CONTINUOUS
 10
494.2232801895
 20
219.5515326151
 11
491.9923931895
 21
219.5515326151
  0
LINE
  5
296
100
AcDbEntity
  8
0
100
AcDbLine
 62
7
  6
CONTINUOUS
 10
491.9852891895
 20
219.5759701151
 11
494.2303841895
 21
219.5759701151
  0
LINE
  5
297
100
AcDbEntity
  8
0
100
AcDbLine
 62
7
  6
CONTINUOUS
 10
436.9658366895
 20
228.1045726151
 11
549.2498366895
 21
228.1045726151
  0
LINE
  5
298
100
AcDbEntity
  8
0
100
AcDbLine
 62
7
  6
CONTINUOUS
 10
437.1670606895
 20
228.3057966151
 11
549.0486126895
 21
228.3057966151
  0
LINE
  5
299
100
AcDbEntity
  8
0
100
AcDbLine
 62
7
  6
CONTINUOUS
 10
548.1971126895
 20
229.1572966151
 11
438.0185606895
 21
229.1572966151
  0
LINE
  5
29A
100
AcDbEntity
  8
0
100
AcDbLine
 62
7
  6
CONTINUOUS
 10
548.0483821895
 20
229.3060276151
 11
438.1672911895
 21
229.3060276151
  0
LINE
  5
29B
100
AcDbEntity
  8
0
100
AcDbLine
 62
7
  6
CONTINUOUS
 10
438.1578366895
 20
229.3515326151
 11
548.0078366895
 21
229.3515326151
  0
LINE
  5
29C
100
AcDbEntity
  8
0
100
AcDbLine
 62
7
  6
CONTINUOUS
 10
422.8963016895
 20
214.0458796151
 11
424.3266911895
 21
214.0435511151
  0
LWPOLYLINE
  5
29D
100
AcDbEntity
  8
0
100
AcDbPolyline
 62
7
  6
CONTINUOUS
 90
16
 70
0
 10
422.941932582
 20
216.1262965401
 10
422.9415879538
 20
216.1265765345
 10
422.9411126801
 20
216.1278828546
 10
422.9404280679
 20
216.1316523271
 10
422.9395201218
 20
216.1401497954
 10
422.9383961075
 20
216.1564105534
 10
422.9370832715
 20
216.1840564161
 10
422.9356328261
 20
216.226925912
 10
422.9353809077
 20
216.2358761078
 10
422.9338683626
 20
216.3010014482
 10
422.93290811
 20
216.3550770717
 10
422.9317537856
 20
216.4398511337
 10
422.9308568465
 20
216.5314528007
 10
422.93021929
 20
216.6276202233
 10
422.9298395905
 20
216.7264128653
 10
422.9297140355
 20
216.8262965401
  0
LWPOLYLINE
  5
29E
100
AcDbEntity
  8
0
100
AcDbPolyline
 62
7
  6
CONTINUOUS
 90
16
 70
0
 10
422.9419325815
 20
218.4762965401
 10
422.9422772097
 20
218.4760165458
 10
422.9427524835
 20
218.4747102257
 10
422.9434370956
 20
218.4709407532
 10
422.9443450417
 20
218.4624432849
 10
422.9454690559
 20
218.4461825268
 10
422.9467818918
 20
218.4185366641
 10
422.948232337
 20
218.3756671678
 10
422.9484842553
 20
218.3667169726
 10
422.9499968002
 20
218.3015916314
 10
422.9509570525
 20
218.2475160088
 10
422.9521113767
 20
218.1627419467
 10
422.9530083154
 20
218.0711402797
 10
422.9536458717
 20
217.974972857
 10
422.954025571
 20
217.876180215
 10
422.954151126
 20
217.7762965401
  0
LWPOLYLINE
  5
29F
100
AcDbEntity
  8
0
100
AcDbPolyline
 62
7
  6
CONTINUOUS
 90
10
 70
0
 43
0.3499999985
 10
313.329322937
 20
377.9170429077
 10
313.4007494202
 20
377.7741386108
 10
313.4007494202
 20
377.702737793
 10
313.2578964539
 20
377.5598848267
 10
313.1864699707
 20
377.5598848267
 10
313.1150434875
 20
377.6312856445
 10
313.1150434875
 20
377.702737793
 10
313.1864699707
 20
377.8455907593
 10
313.2578964539
 20
377.9170429077
 10
313.329322937
 20
377.9170429077
  0
LWPOLYLINE
  5
2A0
100
AcDbEntity
  8
0
100
AcDbPolyline
 62
7
  6
CONTINUOUS
 90
16
 70
0
 10
422.9419320758
 20
347.0218935641
 10
422.9415864684
 20
347.0216128276
 10
422.9411099162
 20
347.0203056793
 10
422.9404233233
 20
347.0165341612
 10
422.9395117554
 20
347.0080193392
 10
422.9384146707
 20
346.9922556585
 10
422.9370956073
 20
346.9647096787
 10
422.9356324278
 20
346.921657396
 10
422.934103805
 20
346.8592973549
 10
422.9335522112
 20
346.8312517901
 10
422.9322647518
 20
346.7498648993
 10
422.9312587693
 20
346.6624805381
 10
422.9304597893
 20
346.5626191359
 10
422.9299433233
 20
346.4568276075
 10
422.9297223495
 20
346.347712699
 10
422.9297141895
 20
345.3718966151
  0
LWPOLYLINE
  5
2A1
100
AcDbEntity
  8
0
100
AcDbPolyline
 62
7
  6
CONTINUOUS
 90
16
 70
0
 10
422.9419330869
 20
344.6718998157
 10
422.9422786943
 20
344.6721805521
 10
422.9427552465
 20
344.6734877003
 10
422.9434418394
 20
344.6772592182
 10
422.9443534072
 20
344.6857740397
 10
422.945450492
 20
344.7015377206
 10
422.9467695554
 20
344.7290837006
 10
422.9482327349
 20
344.7721359833
 10
422.9497613577
 20
344.8344960252
 10
422.9503129515
 20
344.8625415903
 10
422.9516004109
 20
344.9439284808
 10
422.9526063934
 20
345.0313128419
 10
422.9534053734
 20
345.1311742443
 10
422.9539218394
 20
345.2369657731
 10
422.9541428132
 20
345.346080681
 10
422.9541511895
 20
346.3218966151
  0
LWPOLYLINE
  5
2A2
100
AcDbEntity
  8
0
100
AcDbPolyline
 62
7
  6
CONTINUOUS
 90
5
 70
0
 43
0.3499999985
 10
488.8221131592
 20
371.4145894165
 10
489.1792712402
 20
371.628868866
 10
489.1792712402
 20
372.2717328796
 10
488.8221131592
 20
372.7002917786
 10
487.9649953613
 20
372.7002917786
  0
LINE
  5
2A3
100
AcDbEntity
  8
0
100
AcDbLine
 62
7
  6
CONTINUOUS
 10
316.0245546895
 20
227.5740966151
 11
298.9245596895
 21
225.1060561151
  0
LINE
  5
2A4
100
AcDbEntity
  8
0
100
AcDbLine
 62
7
  6
CONTINUOUS
 10
312.7745546895
 20
262.9144706151
 11
298.9245561895
 21
262.6727176151
  0
LINE
  5
2A5
100
AcDbEntity
  8
0
100
AcDbLine
 62
7
  6
CONTINUOUS
 10
530.8578366895
 20
243.3515326151
 11
530.3578366895
 21
243.3515326151
  0
LINE
  5
2A6
100
AcDbEntity
  8
0
100
AcDbLine
 62
7
  6
CONTINUOUS
 10
455.8578366895
 20
243.3515326151
 11
455.3578366895
 21
243.3515326151
  0
LINE
  5
2A7
100
AcDbEntity
  8
0
100
AcDbLine
 62
7
  6
CONTINUOUS
 10
531.5578366895
 20
244.0515326151
 11
529.6578366895
 21
244.0515326151
  0
LINE
  5
2A8
100
AcDbEntity
  8
0
100
AcDbLine
 62
7
  6
CONTINUOUS
 10
456.5578366895
 20
244.0515326151
 11
454.6578366895
 21
244.0515326151
  0
LINE
  5
2A9
100
AcDbEntity
  8
0
100
AcDbLine
 62
7
  6
CONTINUOUS
 10
454.6578366895
 20
244.5515326151
 11
456.5578366895
 21
244.5515326151
  0
LINE
  5
2AA
100
AcDbEntity
  8
0
100
AcDbLine
 62
7
  6
CONTINUOUS
 10
529.6578366895
 20
244.5515326151
 11
531.5578366895
 21
244.5515326151
  0
LINE
  5
2AB
100
AcDbEntity
  8
0
100
AcDbLine
 62
7
  6
CONTINUOUS
 10
455.3578366895
 20
245.2515326151
 11
455.8578366895
 21
245.2515326151
  0
LINE
  5
2AC
100
AcDbEntity
  8
0
100
AcDbLine
 62
7
  6
CONTINUOUS
 10
530.3578366895
 20
245.2515326151
 11
530.8578366895
 21
245.2515326151
  0
LINE
  5
2AD
100
AcDbEntity
  8
0
100
AcDbLine
 62
7
  6
CONTINUOUS
 10
563.1518366895
 20
258.0131166151
 11
562.8578371895
 21
258.0131166151
  0
LINE
  5
2AE
100
AcDbEntity
  8
0
100
AcDbLine
 62
7
  6
CONTINUOUS
 10
423.0638366895
 20
258.0131166151
 11
423.3578371895
 21
258.0131166151
  0
LINE
  5
2AF
100
AcDbEntity
  8
0
100
AcDbLine
 62
7
  6
CONTINUOUS
 10
435.0704401895
 20
258.0515326151
 11
423.0638366895
 21
258.0515326151
  0
LINE
  5
2B0
100
AcDbEntity
  8
0
100
AcDbLine
 62
7
  6
CONTINUOUS
 10
551.1452331895
 20
258.0515326151
 11
563.1518366895
 21
258.0515326151
  0
LINE
  5
2B1
100
AcDbEntity
  8
0
100
AcDbLine
 62
7
  6
CONTINUOUS
 10
285.4103516895
 20
258.0464081151
 11
285.2769516895
 21
258.0515326151
  0
LINE
  5
2B2
100
AcDbEntity
  8
DEFAULT_1
100
AcDbLine
 62
7
  6
CENTER
 10
285.4659176895
 20
259.0450116151
 11
285.2597731895
 21
259.0529311151
  0
LWPOLYLINE
  5
2B3
100
AcDbEntity
  8
0
100
AcDbPolyline
 62
7
  6
CONTINUOUS
 90
10
 70
0
 10
422.9336128837
 20
344.8593111463
 10
422.9351148057
 20
344.7910324413
 10
422.9366103859
 20
344.7417990193
 10
422.9379853962
 20
344.7094291418
 10
422.9383840481
 20
344.702067643
 10
422.9395141605
 20
344.6857466655
 10
422.9404252486
 20
344.6772461461
 10
422.9411113559
 20
344.6734826039
 10
422.9415874791
 20
344.6721791265
 10
422.9419330869
 20
344.6718998157
  0
LWPOLYLINE
  5
2B4
100
AcDbEntity
  8
0
100
AcDbPolyline
 62
7
  6
CONTINUOUS
 90
10
 70
0
 10
422.950252279
 20
346.8344822348
 10
422.948750357
 20
346.9027609394
 10
422.9472547768
 20
346.951994361
 10
422.9458797665
 20
346.9843642383
 10
422.9454811145
 20
346.9917257377
 10
422.9443510022
 20
347.0080467149
 10
422.943439914
 20
347.016547234
 10
422.9427538068
 20
347.020310776
 10
422.9422776837
 20
347.0216142533
 10
422.9419320758
 20
347.0218935641
  0
LWPOLYLINE
  5
2B5
100
AcDbEntity
  8
0
100
AcDbPolyline
 62
7
  6
CONTINUOUS
 90
6
 70
0
 10
422.9297140359
 20
345.3718966904
 10
422.9298505648
 20
345.2675784021
 10
422.9302845729
 20
345.1605806884
 10
422.9310055248
 20
345.0587913829
 10
422.9319953437
 20
344.9647145119
 10
422.9336128837
 20
344.8593111463
  0
LWPOLYLINE
  5
2B6
100
AcDbEntity
  8
0
100
AcDbPolyline
 62
7
  6
CONTINUOUS
 90
6
 70
0
 10
422.9541511268
 20
346.3218966906
 10
422.9540145979
 20
346.4262149798
 10
422.9535805898
 20
346.5332126925
 10
422.9528596379
 20
346.6350019969
 10
422.951869819
 20
346.7290788681
 10
422.950252279
 20
346.8344822348
  0
LINE
  5
2B7
100
AcDbEntity
  8
0
100
AcDbLine
 62
7
  6
CONTINUOUS
 10
415.5072366895
 20
353.9240966151
 11
415.5072366895
 21
209.2240966151
  0
LINE
  5
2B8
100
AcDbEntity
  8
0
100
AcDbLine
 62
7
  6
CONTINUOUS
 10
422.0638366895
 20
259.0522706151
 11
422.0638366895
 21
304.5507951151
  0
LINE
  5
2B9
100
AcDbEntity
  8
0
100
AcDbLine
 62
7
  6
CONTINUOUS
 10
422.8963016895
 20
214.0458796151
 11
422.8963016895
 21
349.1023136151
  0
LINE
  5
2BA
100
AcDbEntity
  8
0
100
AcDbLine
 62
7
  6
CONTINUOUS
 10
422.9899341895
 20
214.1395121151
 11
422.9899341895
 21
258.0158581151
  0
LINE
  5
2BB
100
AcDbEntity
  8
0
100
AcDbLine
 62
7
  6
CONTINUOUS
 10
422.9899341895
 20
305.5872151151
 11
422.9899341895
 21
349.0086811151
  0
LINE
  5
2BC
100
AcDbEntity
  8
0
100
AcDbLine
 62
7
  6
CONTINUOUS
 10
423.0638366895
 20
305.5899491151
 11
423.0638366895
 21
305.5515326151
  0
LINE
  5
2BD
100
AcDbEntity
  8
0
100
AcDbLine
 62
7
  6
CONTINUOUS
 10
423.0638366895
 20
258.0515326151
 11
423.0638366895
 21
258.0131166151
  0
LINE
  5
2BE
100
AcDbEntity
  8
0
100
AcDbLine
 62
7
  6
CONTINUOUS
 10
423.3578366895
 20
214.7463621151
 11
423.3578366895
 21
258.0515326151
  0
LINE
  5
2BF
100
AcDbEntity
  8
0
100
AcDbLine
 62
7
  6
CONTINUOUS
 10
423.3578366895
 20
305.5515326151
 11
423.3578366895
 21
348.8546421151
  0
LWPOLYLINE
  5
2C0
100
AcDbEntity
  8
0
100
AcDbPolyline
 62
7
  6
CONTINUOUS
 90
16
 70
0
 10
422.9297141895
 20
216.8262966151
 10
422.9297408851
 20
217.822593595
 10
422.9299835672
 20
217.9219736164
 10
422.9304834031
 20
218.0198159699
 10
422.931243959
 20
218.1143604759
 10
422.9322650737
 20
218.2033930023
 10
422.9335414298
 20
218.2843831967
 10
422.9350492296
 20
218.3541566163
 10
422.9365346085
 20
218.4039596332
 10
422.937083371
 20
218.4185413453
 10
422.9383960085
 20
218.4461835617
 10
422.9395200147
 20
218.4624435043
 10
422.9404280147
 20
218.4709408371
 10
422.941112665
 20
218.4747102554
 10
422.9415879528
 20
218.4760165518
 10
422.9419325815
 20
218.4762965401
  0
LWPOLYLINE
  5
2C1
100
AcDbEntity
  8
0
100
AcDbPolyline
 62
7
  6
CONTINUOUS
 90
16
 70
0
 10
422.9541511895
 20
217.7762966151
 10
422.9541242766
 20
216.7799994872
 10
422.9538815946
 20
216.6806194658
 10
422.9533817589
 20
216.5827771122
 10
422.9526212033
 20
216.4882326063
 10
422.9516000888
 20
216.3992000798
 10
422.950323733
 20
216.3182098851
 10
422.9488159335
 20
216.2484364643
 10
422.9473305547
 20
216.1986334471
 10
422.9467817923
 20
216.1840517346
 10
422.9454691549
 20
216.1564095184
 10
422.9443451488
 20
216.1401495759
 10
422.9434371488
 20
216.1316522432
 10
422.9427524985
 20
216.1278828249
 10
422.9422772108
 20
216.1265765285
 10
422.941932582
 20
216.1262965401
  0
LWPOLYLINE
  5
2C2
100
AcDbEntity
  8
0
100
AcDbPolyline
 62
7
  6
CONTINUOUS
 90
3
 70
0
 43
0.3499999985
 10
490.1078411865
 20
371.8431483154
 10
490.9649589844
 20
372.7002917786
 10
490.9649589844
 20
369.7003024902
  0
LINE
  5
2C3
100
AcDbEntity
  8
0
100
AcDbLine
 62
7
  6
CONTINUOUS
 10
337.5245546895
 20
250.5740966151
 11
316.0245546895
 21
245.0740966151
  0
LWPOLYLINE
  5
2C4
100
AcDbEntity
  8
0
100
AcDbPolyline
 62
7
  6
CONTINUOUS
 90
13
 70
0
 43
0.3499999985
 10
584.7314799194
 20
278.3598181152
 10
583.4457518921
 20
278.3598181152
 10
583.0171929932
 20
278.5740975647
 10
582.5886340942
 20
279.0026564636
 10
582.5886340942
 20
279.2169615784
 10
583.0171929932
 20
279.6455204773
 10
583.4457518921
 20
279.8597999268
 10
584.7314799194
 20
279.8597999268
 10
585.1600388184
 20
279.6455204773
 10
585.5885977173
 20
279.2169615784
 10
585.5885977173
 20
279.0026564636
 10
585.1600388184
 20
278.5740975647
 10
584.7314799194
 20
278.3598181152
  0
LWPOLYLINE
  5
2C5
100
AcDbEntity
  8
0
100
AcDbPolyline
 62
7
  6
CONTINUOUS
 90
2
 70
0
 43
0.3499999985
 10
585.5885977173
 20
285.5740982361
 10
584.0886159058
 20
285.5740982361
  0
LINE
  5
2C6
100
AcDbEntity
  8
0
100
AcDbLine
 62
7
  6
CONTINUOUS
 10
312.7745546895
 20
300.2337226151
 11
298.9245561895
 21
300.4754756151
  0
LINE
  5
2C7
100
AcDbEntity
  8
0
100
AcDbLine
 62
7
  6
CONTINUOUS
 10
337.5245546895
 20
312.5740966151
 11
316.0245546895
 21
318.0740966151
  0
LINE
  5
2C8
100
AcDbEntity
  8
0
100
AcDbLine
 62
7
  6
CONTINUOUS
 10
435.0704401895
 20
258.0515326151
 11
435.0704401895
 21
305.5515326151
  0
LINE
  5
2C9
100
AcDbEntity
  8
0
100
AcDbLine
 62
7
  6
CONTINUOUS
 10
436.9658366895
 20
346.3015326151
 11
436.9658366895
 21
228.1045726151
  0
LINE
  5
2CA
100
AcDbEntity
  8
0
100
AcDbLine
 62
7
  6
CONTINUOUS
 10
437.1670606895
 20
228.3057966151
 11
437.1670606895
 21
346.3015326151
  0
LINE
  5
2CB
100
AcDbEntity
  8
0
100
AcDbLine
 62
7
  6
CONTINUOUS
 10
438.0185606895
 20
229.1572966151
 11
438.0185606895
 21
345.4502636151
  0
LINE
  5
2CC
100
AcDbEntity
  8
0
100
AcDbLine
 62
7
  6
CONTINUOUS
 10
438.1578366895
 20
345.3015326151
 11
438.1578366895
 21
229.3515326151
  0
LINE
  5
2CD
100
AcDbEntity
  8
0
100
AcDbLine
 62
7
  6
CONTINUOUS
 10
438.1672911895
 20
229.3060276151
 11
438.1672911895
 21
229.3515341151
  0
LINE
  5
2CE
100
AcDbEntity
  8
DEFAULT_1
100
AcDbLine
 62
7
  6
CENTER
 10
285.2597731895
 20
304.5501346151
 11
285.4659176895
 21
304.5580541151
  0
LINE
  5
2CF
100
AcDbEntity
  8
0
100
AcDbLine
 62
7
  6
CONTINUOUS
 10
285.2769516895
 20
305.5515326151
 11
285.4103516895
 21
305.5566576151
  0
LINE
  5
2D0
100
AcDbEntity
  8
0
100
AcDbLine
 62
7
  6
CONTINUOUS
 10
435.0704401895
 20
305.5515326151
 11
423.0638366895
 21
305.5515326151
  0
LINE
  5
2D1
100
AcDbEntity
  8
0
100
AcDbLine
 62
7
  6
CONTINUOUS
 10
551.1452331895
 20
305.5515326151
 11
563.1518366895
 21
305.5515326151
  0
LINE
  5
2D2
100
AcDbEntity
  8
0
100
AcDbLine
 62
7
  6
CONTINUOUS
 10
563.1518366895
 20
305.5899491151
 11
562.8578371895
 21
305.5899491151
  0
LINE
  5
2D3
100
AcDbEntity
  8
0
100
AcDbLine
 62
7
  6
CONTINUOUS
 10
423.0638366895
 20
305.5899491151
 11
423.3578371895
 21
305.5899491151
  0
LINE
  5
2D4
100
AcDbEntity
  8
0
100
AcDbLine
 62
7
  6
CONTINUOUS
 10
530.8578366895
 20
318.3515326151
 11
530.3578366895
 21
318.3515326151
  0
LINE
  5
2D5
100
AcDbEntity
  8
0
100
AcDbLine
 62
7
  6
CONTINUOUS
 10
455.8578366895
 20
318.3515326151
 11
455.3578366895
 21
318.3515326151
  0
LINE
  5
2D6
100
AcDbEntity
  8
0
100
AcDbLine
 62
7
  6
CONTINUOUS
 10
531.5578366895
 20
319.0515326151
 11
529.6578366895
 21
319.0515326151
  0
LINE
  5
2D7
100
AcDbEntity
  8
0
100
AcDbLine
 62
7
  6
CONTINUOUS
 10
456.5578366895
 20
319.0515326151
 11
454.6578366895
 21
319.0515326151
  0
LINE
  5
2D8
100
AcDbEntity
  8
0
100
AcDbLine
 62
7
  6
CONTINUOUS
 10
454.6578366895
 20
319.5515326151
 11
456.5578366895
 21
319.5515326151
  0
LINE
  5
2D9
100
AcDbEntity
  8
0
100
AcDbLine
 62
7
  6
CONTINUOUS
 10
529.6578366895
 20
319.5515326151
 11
531.5578366895
 21
319.5515326151
  0
LINE
  5
2DA
100
AcDbEntity
  8
0
100
AcDbLine
 62
7
  6
CONTINUOUS
 10
455.3578366895
 20
320.2515326151
 11
455.8578366895
 21
320.2515326151
  0
LINE
  5
2DB
100
AcDbEntity
  8
0
100
AcDbLine
 62
7
  6
CONTINUOUS
 10
530.3578366895
 20
320.2515326151
 11
530.8578366895
 21
320.2515326151
  0
LINE
  5
2DC
100
AcDbEntity
  8
0
100
AcDbLine
 62
7
  6
CONTINUOUS
 10
316.0245546895
 20
335.5740966151
 11
298.9245596895
 21
338.0421371151
  0
LINE
  5
2DD
100
AcDbEntity
  8
0
100
AcDbLine
 62
7
  6
CONTINUOUS
 10
288.5769516895
 20
346.6459806151
 11
287.5415846895
 21
346.8285441151
  0
LINE
  5
2DE
100
AcDbEntity
  8
0
100
AcDbLine
 62
7
  6
CONTINUOUS
 10
288.5769516895
 20
346.6459806151
 11
288.6516726895
 21
346.6328056151
  0
LINE
  5
2DF
100
AcDbEntity
  8
0
100
AcDbLine
 62
7
  6
CONTINUOUS
 10
454.6578366895
 20
244.0515326151
 11
454.6578366895
 21
244.5515326151
  0
LINE
  5
2E0
100
AcDbEntity
  8
0
100
AcDbLine
 62
7
  6
CONTINUOUS
 10
454.6578366895
 20
319.0515326151
 11
454.6578366895
 21
319.5515326151
  0
LINE
  5
2E1
100
AcDbEntity
  8
0
100
AcDbLine
 62
7
  6
CONTINUOUS
 10
455.3578366895
 20
243.3515326151
 11
455.3578366895
 21
245.2515326151
  0
LINE
  5
2E2
100
AcDbEntity
  8
0
100
AcDbLine
 62
7
  6
CONTINUOUS
 10
455.3578366895
 20
318.3515326151
 11
455.3578366895
 21
320.2515326151
  0
LINE
  5
2E3
100
AcDbEntity
  8
0
100
AcDbLine
 62
7
  6
CONTINUOUS
 10
455.8578366895
 20
320.2515326151
 11
455.8578366895
 21
318.3515326151
  0
LINE
  5
2E4
100
AcDbEntity
  8
0
100
AcDbLine
 62
7
  6
CONTINUOUS
 10
455.8578366895
 20
245.2515326151
 11
455.8578366895
 21
243.3515326151
  0
LINE
  5
2E5
100
AcDbEntity
  8
0
100
AcDbLine
 62
7
  6
CONTINUOUS
 10
456.5578366895
 20
319.5515326151
 11
456.5578366895
 21
319.0515326151
  0
LINE
  5
2E6
100
AcDbEntity
  8
0
100
AcDbLine
 62
7
  6
CONTINUOUS
 10
456.5578366895
 20
244.5515326151
 11
456.5578366895
 21
244.0515326151
  0
LINE
  5
2E7
100
AcDbEntity
  8
0
100
AcDbLine
 62
7
  6
CONTINUOUS
 10
478.1367851895
 20
217.9527231151
 11
478.1367851895
 21
217.5396381151
  0
LINE
  5
2E8
100
AcDbEntity
  8
0
100
AcDbLine
 62
7
  6
CONTINUOUS
 10
482.1367851895
 20
218.4129936151
 11
482.1367851895
 21
217.1629936151
  0
LWPOLYLINE
  5
2E9
100
AcDbEntity
  8
0
100
AcDbPolyline
 62
7
  6
CONTINUOUS
 90
3
 70
0
 43
0.3499999985
 10
494.8935438843
 20
369.9860084229
 10
494.8221430664
 20
369.7717289734
 10
494.6792901001
 20
369.4860230408
  0
LINE
  5
2EA
100
AcDbEntity
  8
0
100
AcDbLine
 62
7
  6
CONTINUOUS
 10
548.1971126895
 20
345.4502636151
 11
548.0483821895
 21
345.3015326151
  0
LINE
  5
2EB
100
AcDbEntity
  8
0
100
AcDbLine
 62
7
  6
CONTINUOUS
 10
422.8963016895
 20
214.0458796151
 11
422.9899341895
 21
214.1395121151
  0
LINE
  5
2EC
100
AcDbEntity
  8
0
100
AcDbLine
 62
7
  6
CONTINUOUS
 10
438.0185606895
 20
229.1572966151
 11
438.1672911895
 21
229.3060276151
  0
LINE
  5
2ED
100
AcDbEntity
  8
0
100
AcDbLine
 62
7
  6
CONTINUOUS
 10
436.9658366895
 20
228.1045726151
 11
437.1670606895
 21
228.3057966151
  0
LINE
  5
2EE
100
AcDbEntity
  8
0
100
AcDbLine
 62
7
  6
CONTINUOUS
 10
416.6788096895
 20
206.3956696151
 11
424.3266911895
 21
214.0435511151
  0
LINE
  5
2EF
100
AcDbEntity
  8
0
100
AcDbLine
 62
7
  6
CONTINUOUS
 10
422.8963016895
 20
349.1023136151
 11
423.5832756895
 21
349.1034326151
  0
LINE
  5
2F0
100
AcDbEntity
  8
0
100
AcDbLine
 62
7
  6
CONTINUOUS
 10
548.0483821895
 20
345.3015326151
 11
438.1578366895
 21
345.3015326151
  0
LINE
  5
2F1
100
AcDbEntity
  8
0
100
AcDbLine
 62
7
  6
CONTINUOUS
 10
422.9297151895
 20
345.3718966151
 11
422.9541511895
 21
345.3718966151
  0
LINE
  5
2F2
100
AcDbEntity
  8
0
100
AcDbLine
 62
7
  6
CONTINUOUS
 10
563.2615221895
 20
345.3718966151
 11
563.2859601895
 21
345.3718966151
  0
LINE
  5
2F3
100
AcDbEntity
  8
DEFAULT_1
100
AcDbLine
 62
7
  6
CENTER
 10
422.9266461895
 20
345.3718986151
 11
422.9297151895
 21
345.3718966151
  0
LINE
  5
2F4
100
AcDbEntity
  8
DEFAULT_1
100
AcDbLine
 62
7
  6
CENTER
 10
422.9541511895
 20
345.3718966151
 11
422.9566526895
 21
345.3718986151
  0
LINE
  5
2F5
100
AcDbEntity
  8
DEFAULT_1
100
AcDbLine
 62
7
  6
CENTER
 10
563.2590206895
 20
345.3718986151
 11
563.2615221895
 21
345.3718966151
  0
LINE
  5
2F6
100
AcDbEntity
  8
DEFAULT_1
100
AcDbLine
 62
7
  6
CENTER
 10
563.2859601895
 20
345.3718966151
 11
563.2890271895
 21
345.3718986151
  0
LINE
  5
2F7
100
AcDbEntity
  8
0
100
AcDbLine
 62
7
  6
CONTINUOUS
 10
548.1971126895
 20
345.4502636151
 11
438.0185606895
 21
345.4502636151
  0
LINE
  5
2F8
100
AcDbEntity
  8
0
100
AcDbLine
 62
7
  6
CONTINUOUS
 10
549.2498366895
 20
346.3015326151
 11
436.9658366895
 21
346.3015326151
  0
LINE
  5
2F9
100
AcDbEntity
  8
0
100
AcDbLine
 62
7
  6
CONTINUOUS
 10
422.9297151895
 20
346.3218966151
 11
422.9541511895
 21
346.3218966151
  0
LINE
  5
2FA
100
AcDbEntity
  8
0
100
AcDbLine
 62
7
  6
CONTINUOUS
 10
563.2615221895
 20
346.3218966151
 11
563.2859601895
 21
346.3218966151
  0
LINE
  5
2FB
100
AcDbEntity
  8
DEFAULT_1
100
AcDbLine
 62
7
  6
CENTER
 10
422.9272106895
 20
346.3218996151
 11
422.9297151895
 21
346.3218966151
  0
LINE
  5
2FC
100
AcDbEntity
  8
DEFAULT_1
100
AcDbLine
 62
7
  6
CENTER
 10
422.9541511895
 20
346.3218966151
 11
422.9572171895
 21
346.3218996151
  0
LINE
  5
2FD
100
AcDbEntity
  8
DEFAULT_1
100
AcDbLine
 62
7
  6
CENTER
 10
563.2584561895
 20
346.3218996151
 11
563.2615221895
 21
346.3218966151
  0
LINE
  5
2FE
100
AcDbEntity
  8
DEFAULT_1
100
AcDbLine
 62
7
  6
CENTER
 10
563.2859601895
 20
346.3218966151
 11
563.2884626895
 21
346.3218996151
  0
LINE
  5
2FF
100
AcDbEntity
  8
0
100
AcDbLine
 62
7
  6
CONTINUOUS
 10
285.2769516895
 20
348.8546421151
 11
285.4103516895
 21
348.8546421151
  0
LINE
  5
300
100
AcDbEntity
  8
DEFAULT_1
100
AcDbLine
 62
7
  6
CENTER
 10
285.2636116895
 20
348.8546451151
 11
285.2769516895
 21
348.8546421151
  0
LINE
  5
301
100
AcDbEntity
  8
DEFAULT_1
100
AcDbLine
 62
7
  6
CENTER
 10
285.4103516895
 20
348.8546421151
 11
285.4236916895
 21
348.8546451151
  0
LINE
  5
302
100
AcDbEntity
  8
0
100
AcDbLine
 62
7
  6
CONTINUOUS
 10
563.2257391895
 20
349.0086811151
 11
562.8047496895
 21
349.0086811151
  0
LINE
  5
303
100
AcDbEntity
  8
0
100
AcDbLine
 62
7
  6
CONTINUOUS
 10
423.4109311895
 20
349.0086811151
 11
422.9899341895
 21
349.0086811151
  0
LINE
  5
304
100
AcDbEntity
  8
0
100
AcDbLine
 62
7
  6
CONTINUOUS
 10
562.6078366895
 20
349.1046421151
 11
423.6078366895
 21
349.1046421151
  0
LINE
  5
305
100
AcDbEntity
  8
DEFAULT_1
100
AcDbLine
 62
7
  6
CENTER
 10
287.0789336895
 20
353.9240951151
 11
287.0245546895
 21
353.9240966151
  0
LINE
  5
306
100
AcDbEntity
  8
0
100
AcDbLine
 62
7
  6
CONTINUOUS
 10
287.0245546895
 20
353.9240966151
 11
286.7745546895
 21
353.9240966151
  0
LINE
  5
307
100
AcDbEntity
  8
DEFAULT_1
100
AcDbLine
 62
7
  6
CENTER
 10
286.7745546895
 20
353.9240966151
 11
286.4263836895
 21
353.9240951151
  0
LINE
  5
308
100
AcDbEntity
  8
0
100
AcDbLine
 62
7
  6
CONTINUOUS
 10
287.0245546895
 20
357.9240966151
 11
286.7745546895
 21
357.9240966151
  0
LINE
  5
309
100
AcDbEntity
  8
0
100
AcDbLine
 62
7
  6
CONTINUOUS
 10
419.5072366895
 20
357.9240966151
 11
566.7084366895
 21
357.9240966151
  0
LINE
  5
30A
100
AcDbEntity
  8
0
100
AcDbLine
 62
7
  6
CONTINUOUS
 10
563.3193716895
 20
349.1023136151
 11
562.6323976895
 21
349.1034326151
  0
LINE
  5
30B
100
AcDbEntity
  8
0
100
AcDbLine
 62
7
  6
CONTINUOUS
 10
291.7745546895
 20
351.3106386151
 11
298.9245546895
 21
351.1858351151
  0
LINE
  5
30C
100
AcDbEntity
  8
0
100
AcDbLine
 62
7
  6
CONTINUOUS
 10
287.0245546895
 20
351.5070081151
 11
291.7745546895
 21
351.4240966151
  0
LINE
  5
30D
100
AcDbEntity
  8
0
100
AcDbLine
 62
7
  6
CONTINUOUS
 10
298.9245611895
 20
344.0666586151
 11
337.5245546895
 21
343.0558821151
  0
LWPOLYLINE
  5
30E
100
AcDbEntity
  8
0
100
AcDbPolyline
 62
7
  6
CONTINUOUS
 90
3
 70
0
 43
0.3499999985
 10
585.3028917847
 20
283.5741053772
 10
585.5171968994
 20
283.502678894
 10
585.802902832
 20
283.3598002625
  0
LINE
  5
30F
100
AcDbEntity
  8
0
100
AcDbLine
 62
7
  6
CONTINUOUS
 10
422.8963016895
 20
349.1023136151
 11
422.9899341895
 21
349.0086811151
  0
LINE
  5
310
100
AcDbEntity
  8
0
100
AcDbLine
 62
7
  6
CONTINUOUS
 10
424.3266911895
 20
349.1046421151
 11
416.6788096895
 21
356.7525236151
  0
LINE
  5
311
100
AcDbEntity
  8
0
100
AcDbLine
 62
7
  6
CONTINUOUS
 10
561.8889821895
 20
214.0435511151
 11
569.5368636895
 21
206.3956696151
  0
LINE
  5
312
100
AcDbEntity
  8
0
100
AcDbLine
 62
7
  6
CONTINUOUS
 10
549.2498366895
 20
228.1045726151
 11
549.0486126895
 21
228.3057966151
  0
LINE
  5
313
100
AcDbEntity
  8
0
100
AcDbLine
 62
7
  6
CONTINUOUS
 10
548.1971126895
 20
229.1572966151
 11
548.0483821895
 21
229.3060276151
  0
LINE
  5
314
100
AcDbEntity
  8
0
100
AcDbLine
 62
7
  6
CONTINUOUS
 10
563.3193716895
 20
214.0458796151
 11
563.2257391895
 21
214.1395121151
  0
LINE
  5
315
100
AcDbEntity
  8
0
100
AcDbLine
 62
7
  6
CONTINUOUS
 10
438.0185606895
 20
345.4502636151
 11
438.1672911895
 21
345.3015326151
  0
LINE
  5
316
100
AcDbEntity
  8
0
100
AcDbLine
 62
7
  6
CONTINUOUS
 10
491.5912986895
 20
219.0180351151
 11
491.6102506895
 21
218.9740966151
  0
LINE
  5
317
100
AcDbEntity
  8
0
100
AcDbLine
 62
7
  6
CONTINUOUS
 10
491.7022396895
 20
219.3228511151
 11
491.7106056895
 21
219.3015326151
  0
LINE
  5
318
100
AcDbEntity
  8
0
100
AcDbLine
 62
7
  6
CONTINUOUS
 10
494.5050676895
 20
216.3015326151
 11
494.5134336895
 21
216.2802146151
  0
LINE
  5
319
100
AcDbEntity
  8
0
100
AcDbLine
 62
7
  6
CONTINUOUS
 10
491.9923931895
 20
219.5515326151
 11
491.9852891895
 21
219.5759701151
  0
LINE
  5
31A
100
AcDbEntity
  8
0
100
AcDbLine
 62
7
  6
CONTINUOUS
 10
494.2232801895
 20
216.0515326151
 11
494.2303841895
 21
216.0270956151
  0
LWPOLYLINE
  5
31B
100
AcDbEntity
  8
0
100
AcDbPolyline
 62
7
  6
CONTINUOUS
 90
13
 70
0
 43
0.3499999985
 10
491.8221281128
 20
370.5574459534
 10
491.8221281128
 20
371.8431483154
 10
492.0364332275
 20
372.2717328796
 10
492.4649921265
 20
372.7002917786
 10
492.6792459106
 20
372.7002917786
 10
493.1078561401
 20
372.2717328796
 10
493.3221099243
 20
371.8431483154
 10
493.3221099243
 20
370.5574459534
 10
493.1078561401
 20
370.1288870544
 10
492.6792459106
 20
369.7003024902
 10
492.4649921265
 20
369.7003024902
 10
492.0364332275
 20
370.1288870544
 10
491.8221281128
 20
370.5574459534
  0
LWPOLYLINE
  5
31C
100
AcDbEntity
  8
0
100
AcDbPolyline
 62
7
  6
CONTINUOUS
 90
2
 70
0
 43
0.3499999985
 10
496.8935367432
 20
369.7003024902
 10
496.8935367432
 20
371.200309967
  0
LINE
  5
31D
100
AcDbEntity
  8
0
100
AcDbLine
 62
7
  6
CONTINUOUS
 10
504.0367851895
 20
218.4129936151
 11
504.0367851895
 21
217.1629936151
  0
LINE
  5
31E
100
AcDbEntity
  8
0
100
AcDbLine
 62
7
  6
CONTINUOUS
 10
508.0367851895
 20
217.4277271151
 11
508.0367851895
 21
218.0649961151
  0
LINE
  5
31F
100
AcDbEntity
  8
0
100
AcDbLine
 62
7
  6
CONTINUOUS
 10
491.9923931895
 20
216.0515326151
 11
491.9852891895
 21
216.0270956151
  0
LINE
  5
320
100
AcDbEntity
  8
0
100
AcDbLine
 62
7
  6
CONTINUOUS
 10
569.5368636895
 20
356.7525236151
 11
561.8889821895
 21
349.1046421151
  0
LINE
  5
321
100
AcDbEntity
  8
0
100
AcDbLine
 62
7
  6
CONTINUOUS
 10
563.3193716895
 20
349.1023136151
 11
563.2257391895
 21
349.0086811151
  0
LWPOLYLINE
  5
322
100
AcDbEntity
  8
0
100
AcDbPolyline
 62
7
  6
CONTINUOUS
 90
10
 70
0
 43
0.3499999985
 10
585.0886380005
 20
283.502678894
 10
585.2314909668
 20
283.5741053772
 10
585.3028917847
 20
283.5741053772
 10
585.445744751
 20
283.4312267456
 10
585.445744751
 20
283.3598002625
 10
585.3743439331
 20
283.2883737793
 10
585.3028917847
 20
283.2883737793
 10
585.1600388184
 20
283.3598002625
 10
585.0886380005
 20
283.4312267456
 10
585.0886380005
 20
283.502678894
  0
LWPOLYLINE
  5
323
100
AcDbEntity
  8
0
100
AcDbPolyline
 62
7
  6
CONTINUOUS
 90
6
 70
0
 43
0.3499999985
 10
487.9649953613
 20
369.7003024902
 10
489.0364182739
 20
369.7003024902
 10
489.2506720581
 20
369.9145819397
 10
489.2506720581
 20
370.9860048523
 10
488.8221131592
 20
371.4145894165
 10
488.3935542603
 20
371.4145894165
  0
LWPOLYLINE
  5
324
100
AcDbEntity
  8
0
100
AcDbPolyline
 62
7
  6
CONTINUOUS
 90
3
 70
0
 43
0.3499999985
 10
497.3935477905
 20
370.3431665039
 10
495.893565979
 20
370.3431665039
 10
496.5364299927
 20
372.7002917786
  0
LWPOLYLINE
  5
325
100
AcDbEntity
  8
0
100
AcDbPolyline
 62
7
  6
CONTINUOUS
 90
8
 70
0
 43
0.3499999985
 10
314.4007458496
 20
377.4170318604
 10
315.2578893127
 20
377.4170318604
 10
315.686473877
 20
377.8455907593
 10
315.686473877
 20
378.7027085571
 10
315.2578893127
 20
379.1313187866
 10
314.4007458496
 20
379.1313187866
 10
314.4007458496
 20
380.4169954834
 10
315.686473877
 20
380.4169954834
  0
LWPOLYLINE
  5
326
100
AcDbEntity
  8
0
100
AcDbPolyline
 62
7
  6
CONTINUOUS
 90
3
 70
0
 43
0.3499999985
 10
311.8293154602
 20
378.059895874
 10
310.3293336487
 20
378.059895874
 10
310.9721719971
 20
380.4169954834
  0
LINE
  5
327
100
AcDbEntity
  8
0
100
AcDbLine
 62
7
  6
CONTINUOUS
 10
529.6578366895
 20
244.0515326151
 11
529.6578366895
 21
244.5515326151
  0
LINE
  5
328
100
AcDbEntity
  8
0
100
AcDbLine
 62
7
  6
CONTINUOUS
 10
529.6578366895
 20
319.0515326151
 11
529.6578366895
 21
319.5515326151
  0
LINE
  5
329
100
AcDbEntity
  8
0
100
AcDbLine
 62
7
  6
CONTINUOUS
 10
530.3578366895
 20
243.3515326151
 11
530.3578366895
 21
245.2515326151
  0
LINE
  5
32A
100
AcDbEntity
  8
0
100
AcDbLine
 62
7
  6
CONTINUOUS
 10
530.3578366895
 20
318.3515326151
 11
530.3578366895
 21
320.2515326151
  0
LINE
  5
32B
100
AcDbEntity
  8
0
100
AcDbLine
 62
7
  6
CONTINUOUS
 10
530.8578366895
 20
320.2515326151
 11
530.8578366895
 21
318.3515326151
  0
LINE
  5
32C
100
AcDbEntity
  8
0
100
AcDbLine
 62
7
  6
CONTINUOUS
 10
530.8578366895
 20
245.2515326151
 11
530.8578366895
 21
243.3515326151
  0
LINE
  5
32D
100
AcDbEntity
  8
0
100
AcDbLine
 62
7
  6
CONTINUOUS
 10
531.5578366895
 20
319.5515326151
 11
531.5578366895
 21
319.0515326151
  0
LINE
  5
32E
100
AcDbEntity
  8
0
100
AcDbLine
 62
7
  6
CONTINUOUS
 10
531.5578366895
 20
244.5515326151
 11
531.5578366895
 21
244.0515326151
  0
LINE
  5
32F
100
AcDbEntity
  8
0
100
AcDbLine
 62
7
  6
CONTINUOUS
 10
494.2232801895
 20
219.5515326151
 11
494.2303841895
 21
219.5759701151
  0
LINE
  5
330
100
AcDbEntity
  8
0
100
AcDbLine
 62
7
  6
CONTINUOUS
 10
491.7106056895
 20
216.3015326151
 11
491.7022396895
 21
216.2802146151
  0
LINE
  5
331
100
AcDbEntity
  8
0
100
AcDbLine
 62
7
  6
CONTINUOUS
 10
494.5134336895
 20
219.3228511151
 11
494.5050676895
 21
219.3015326151
  0
LINE
  5
332
100
AcDbEntity
  8
0
100
AcDbLine
 62
7
  6
CONTINUOUS
 10
494.6052466895
 20
218.9740966151
 11
494.6241981895
 21
219.0180351151
  0
LWPOLYLINE
  5
333
100
AcDbEntity
  8
0
100
AcDbPolyline
 62
7
  6
CONTINUOUS
 90
10
 70
0
 43
0.3499999985
 10
494.8221430664
 20
370.2003135376
 10
494.8935438843
 20
370.057434906
 10
494.8935438843
 20
369.9860084229
 10
494.750690918
 20
369.8431554565
 10
494.6792901001
 20
369.8431554565
 10
494.6078379517
 20
369.9145819397
 10
494.6078379517
 20
369.9860084229
 10
494.6792901001
 20
370.1288870544
 10
494.750690918
 20
370.2003135376
 10
494.8221430664
 20
370.2003135376
  0
LWPOLYLINE
  5
334
100
AcDbEntity
  8
0
100
AcDbPolyline
 62
7
  6
CONTINUOUS
 90
15
 70
0
 10
563.2615491019
 20
216.7799994834
 10
563.2617917839
 20
216.680619462
 10
563.2622916197
 20
216.5827771085
 10
563.2630521753
 20
216.4882326027
 10
563.2640732899
 20
216.3992000765
 10
563.2653496457
 20
216.3182098822
 10
563.2668574452
 20
216.2484364633
 10
563.268342824
 20
216.1986334471
 10
563.2688915865
 20
216.184051732
 10
563.270204224
 20
216.1564095172
 10
563.27132823
 20
216.1401495754
 10
563.2722362301
 20
216.131652243
 10
563.2729208804
 20
216.1278828249
 10
563.2733961681
 20
216.1265765285
 10
563.2737407969
 20
216.1262965401
  0
LWPOLYLINE
  5
335
100
AcDbEntity
  8
0
100
AcDbPolyline
 62
7
  6
CONTINUOUS
 90
15
 70
0
 10
563.2859324944
 20
217.8225935998
 10
563.2856898123
 20
217.9219736211
 10
563.2851899763
 20
218.0198159746
 10
563.2844294204
 20
218.1143604803
 10
563.2834083056
 20
218.2033930064
 10
563.2821319495
 20
218.2843832003
 10
563.2806241497
 20
218.3541566177
 10
563.2791387707
 20
218.4039596332
 10
563.2785900081
 20
218.4185413486
 10
563.2772773705
 20
218.4461835632
 10
563.2761533644
 20
218.4624435049
 10
563.2752453643
 20
218.4709408373
 10
563.274560714
 20
218.4747102554
 10
563.2740854262
 20
218.4760165518
 10
563.2737407975
 20
218.4762965401
  0
LINE
  5
336
100
AcDbEntity
  8
0
100
AcDbLine
 62
7
  6
CONTINUOUS
 10
563.2617515395
 20
345.2369657731
 11
563.2615222521
 21
345.3718966904
  0
LINE
  5
337
100
AcDbEntity
  8
0
100
AcDbLine
 62
7
  6
CONTINUOUS
 10
563.2857300556
 20
346.4568276075
 11
563.285959343
 21
346.3218966906
  0
LINE
  5
338
100
AcDbEntity
  8
0
100
AcDbLine
 62
7
  6
CONTINUOUS
 10
548.0078366895
 20
229.3515326151
 11
548.0078366895
 21
345.3015326151
  0
LINE
  5
339
100
AcDbEntity
  8
0
100
AcDbLine
 62
7
  6
CONTINUOUS
 10
548.0483821895
 20
229.3060276151
 11
548.0483821895
 21
345.3015326151
  0
LINE
  5
33A
100
AcDbEntity
  8
0
100
AcDbLine
 62
7
  6
CONTINUOUS
 10
548.1971126895
 20
229.1572966151
 11
548.1971126895
 21
345.4502636151
  0
LINE
  5
33B
100
AcDbEntity
  8
0
100
AcDbLine
 62
7
  6
CONTINUOUS
 10
549.0486126895
 20
228.3057966151
 11
549.0486126895
 21
346.3015326151
  0
LINE
  5
33C
100
AcDbEntity
  8
0
100
AcDbLine
 62
7
  6
CONTINUOUS
 10
549.2498366895
 20
346.3015326151
 11
549.2498366895
 21
228.1045726151
  0
LINE
  5
33D
100
AcDbEntity
  8
0
100
AcDbLine
 62
7
  6
CONTINUOUS
 10
551.1452331895
 20
305.5515326151
 11
551.1452331895
 21
258.0515326151
  0
LINE
  5
33E
100
AcDbEntity
  8
0
100
AcDbLine
 62
7
  6
CONTINUOUS
 10
562.8578366895
 20
214.7463621151
 11
562.8578366895
 21
258.0515326151
  0
LINE
  5
33F
100
AcDbEntity
  8
0
100
AcDbLine
 62
7
  6
CONTINUOUS
 10
562.8578366895
 20
305.5515326151
 11
562.8578366895
 21
348.8546421151
  0
LINE
  5
340
100
AcDbEntity
  8
0
100
AcDbLine
 62
7
  6
CONTINUOUS
 10
563.1518366895
 20
258.0131166151
 11
563.1518366895
 21
258.0515326151
  0
LINE
  5
341
100
AcDbEntity
  8
0
100
AcDbLine
 62
7
  6
CONTINUOUS
 10
563.1518366895
 20
305.5515326151
 11
563.1518366895
 21
305.5899491151
  0
LINE
  5
342
100
AcDbEntity
  8
0
100
AcDbLine
 62
7
  6
CONTINUOUS
 10
563.2257391895
 20
214.1395121151
 11
563.2257391895
 21
258.0158561151
  0
LINE
  5
343
100
AcDbEntity
  8
0
100
AcDbLine
 62
7
  6
CONTINUOUS
 10
563.2257391895
 20
305.5872146151
 11
563.2257391895
 21
349.0086811151
  0
LINE
  5
344
100
AcDbEntity
  8
0
100
AcDbLine
 62
7
  6
CONTINUOUS
 10
563.2615221895
 20
346.3218966151
 11
563.2615221895
 21
345.3718966151
  0
LINE
  5
345
100
AcDbEntity
  8
0
100
AcDbLine
 62
7
  6
CONTINUOUS
 10
563.2615491019
 20
216.7799994834
 11
563.2615221895
 21
217.7762966151
  0
LINE
  5
346
100
AcDbEntity
  8
0
100
AcDbLine
 62
7
  6
CONTINUOUS
 10
563.2859591895
 20
346.3218966151
 11
563.2859591895
 21
345.3718966151
  0
LINE
  5
347
100
AcDbEntity
  8
0
100
AcDbLine
 62
7
  6
CONTINUOUS
 10
563.2859591895
 20
216.8262966151
 11
563.2859324944
 21
217.8225935998
  0
LINE
  5
348
100
AcDbEntity
  8
0
100
AcDbLine
 62
7
  6
CONTINUOUS
 10
563.3193716895
 20
349.1023136151
 11
563.3193716895
 21
214.0458796151
  0
LINE
  5
349
100
AcDbEntity
  8
0
100
AcDbLine
 62
7
  6
CONTINUOUS
 10
564.1518366895
 20
304.5507951151
 11
564.1518366895
 21
259.0522706151
  0
LINE
  5
34A
100
AcDbEntity
  8
0
100
AcDbLine
 62
7
  6
CONTINUOUS
 10
570.7084366895
 20
209.2240966151
 11
570.7084366895
 21
353.9240966151
  0
LWPOLYLINE
  5
34B
100
AcDbEntity
  8
0
100
AcDbPolyline
 62
7
  6
CONTINUOUS
 90
4
 70
0
 10
563.2615222521
 20
346.3218966906
 10
563.261658781
 20
346.4262149796
 10
563.2620927891
 20
346.5332126924
 10
563.262813741
 20
346.6350019969
  0
LWPOLYLINE
  5
34C
100
AcDbEntity
  8
0
100
AcDbPolyline
 62
7
  6
CONTINUOUS
 90
4
 70
0
 10
563.285959343
 20
345.3718966904
 10
563.2858228141
 20
345.2675784021
 10
563.285388806
 20
345.1605806884
 10
563.2846678542
 20
345.0587913829
  0
LWPOLYLINE
  5
34D
100
AcDbEntity
  8
0
100
AcDbPolyline
 62
7
  6
CONTINUOUS
 90
12
 70
0
 10
563.262813741
 20
346.6350019969
 10
563.2641239545
 20
346.7535911911
 10
563.2654210999
 20
346.834482235
 10
563.2669230219
 20
346.9027609395
 10
563.2684186021
 20
346.951994361
 10
563.2697936124
 20
346.9843642383
 10
563.2701922644
 20
346.9917257376
 10
563.2713223767
 20
347.0080467148
 10
563.2722334649
 20
347.016547234
 10
563.2729195721
 20
347.020310776
 10
563.2733956952
 20
347.0216142533
 10
563.2737413031
 20
347.0218935641
  0
LWPOLYLINE
  5
34E
100
AcDbEntity
  8
0
100
AcDbPolyline
 62
7
  6
CONTINUOUS
 90
12
 70
0
 10
563.2846678542
 20
345.0587913829
 10
563.2833576407
 20
344.9402021903
 10
563.2820604953
 20
344.8593111464
 10
563.2805585732
 20
344.7910324413
 10
563.279062993
 20
344.7417990193
 10
563.2776879827
 20
344.7094291418
 10
563.2772893308
 20
344.7020676429
 10
563.2761592184
 20
344.6857466655
 10
563.2752481303
 20
344.6772461461
 10
563.274562023
 20
344.6734826039
 10
563.2740858998
 20
344.6721791265
 10
563.273740292
 20
344.6718998157
  0
LWPOLYLINE
  5
34F
100
AcDbEntity
  8
0
100
AcDbPolyline
 62
7
  6
CONTINUOUS
 90
14
 70
0
 10
563.273740292
 20
344.6718998157
 10
563.2733946846
 20
344.6721805522
 10
563.2729181324
 20
344.6734877003
 10
563.2722315395
 20
344.6772592182
 10
563.2713199717
 20
344.6857740397
 10
563.2702228869
 20
344.7015377206
 10
563.2689038235
 20
344.7290837006
 10
563.267440644
 20
344.7721359833
 10
563.2659120212
 20
344.8344960251
 10
563.2653604274
 20
344.8625415903
 10
563.264072968
 20
344.9439284808
 10
563.2630669855
 20
345.0313128419
 10
563.2622680055
 20
345.1311742444
 10
563.2617515395
 20
345.2369657731
  0
LWPOLYLINE
  5
350
100
AcDbEntity
  8
0
100
AcDbPolyline
 62
7
  6
CONTINUOUS
 90
14
 70
0
 10
563.2737413031
 20
347.0218935641
 10
563.2740869105
 20
347.0216128276
 10
563.2745634627
 20
347.0203056793
 10
563.2752500556
 20
347.0165341612
 10
563.2761616235
 20
347.0080193392
 10
563.2772587082
 20
346.9922556585
 10
563.2785777716
 20
346.9647096787
 10
563.2800409511
 20
346.9216573961
 10
563.2815695739
 20
346.859297355
 10
563.2821211677
 20
346.8312517901
 10
563.2834086271
 20
346.7498648993
 10
563.2844146096
 20
346.6624805382
 10
563.2852135896
 20
346.562619136
 10
563.2857300556
 20
346.4568276075
  0
LWPOLYLINE
  5
351
100
AcDbEntity
  8
0
100
AcDbPolyline
 62
7
  6
CONTINUOUS
 90
5
 70
0
 43
0.3499999985
 10
583.8743621216
 20
277.0740900879
 10
583.6600570068
 20
277.4312481689
 10
583.0171929932
 20
277.4312481689
 10
582.5886340942
 20
277.0740900879
 10
582.5886340942
 20
276.2169466248
  0
LWPOLYLINE
  5
352
100
AcDbEntity
  8
0
100
AcDbPolyline
 62
7
  6
CONTINUOUS
 90
3
 70
0
 43
0.3499999985
 10
584.9457850342
 20
286.0741092834
 10
584.9457850342
 20
284.5741018066
 10
582.5886340942
 20
285.2169658203
  0
LWPOLYLINE
  5
353
100
AcDbEntity
  8
0
100
AcDbPolyline
 62
7
  6
CONTINUOUS
 90
6
 70
0
 43
0.3499999985
 10
585.5885977173
 20
276.2169466248
 10
585.5885977173
 20
277.2883695374
 10
585.3743439331
 20
277.5026746521
 10
584.3029210205
 20
277.5026746521
 10
583.8743621216
 20
277.0740900879
 10
583.8743621216
 20
276.645531189
  0
LWPOLYLINE
  5
354
100
AcDbEntity
  8
0
100
AcDbPolyline
 62
7
  6
CONTINUOUS
 90
8
 70
0
 43
0.3499999985
 10
585.5885977173
 20
280.7169433899
 10
585.5885977173
 20
281.574086853
 10
585.1600388184
 20
282.0026714172
 10
584.3029210205
 20
282.0026714172
 10
583.8743621216
 20
281.574086853
 10
583.8743621216
 20
280.7169433899
 10
582.5886340942
 20
280.7169433899
 10
582.5886340942
 20
282.0026714172
  0
LWPOLYLINE
  5
355
100
AcDbEntity
  8
0
100
AcDbPolyline
 62
7
  6
CONTINUOUS
 90
16
 70
0
 10
563.2737407975
 20
218.4762965401
 10
563.2733961693
 20
218.4760165458
 10
563.2729208955
 20
218.4747102257
 10
563.2722362834
 20
218.4709407534
 10
563.2713283372
 20
218.4624432855
 10
563.270204323
 20
218.4461825283
 10
563.2688914871
 20
218.4185366673
 10
563.2674410419
 20
218.3756671737
 10
563.2671891234
 20
218.3667169726
 10
563.2656765785
 20
218.3015916331
 10
563.2647163261
 20
218.2475160088
 10
563.2635620019
 20
218.1627419467
 10
563.2626650631
 20
218.0711402797
 10
563.2620275068
 20
217.974972857
 10
563.2616478075
 20
217.876180215
 10
563.2615222525
 20
217.7762965401
  0
LWPOLYLINE
  5
356
100
AcDbEntity
  8
0
100
AcDbPolyline
 62
7
  6
CONTINUOUS
 90
16
 70
0
 10
563.2737407969
 20
216.1262965401
 10
563.2740854251
 20
216.1265765345
 10
563.2745606989
 20
216.1278828545
 10
563.275245311
 20
216.1316523269
 10
563.2761532572
 20
216.1401497949
 10
563.2772772715
 20
216.1564105522
 10
563.2785901075
 20
216.1840564135
 10
563.2800405529
 20
216.2269259073
 10
563.2802924714
 20
216.2358761078
 10
563.2818050166
 20
216.3010014469
 10
563.2827652692
 20
216.3550770717
 10
563.2839195937
 20
216.4398511337
 10
563.2848165327
 20
216.5314528007
 10
563.2854540893
 20
216.6276202233
 10
563.2858337888
 20
216.7264128653
 10
563.2859593438
 20
216.8262965401
  0
ARC
  5
357
100
AcDbEntity
  8
0
100
AcDbCircle
 62
7
  6
CONTINUOUS
 10
335.1224821895
 20
217.9707791151
 40
50.0
100
AcDbArc
 50
184.504912
 51
193.385528
  0
ARC
  5
358
100
AcDbEntity
  8
0
100
AcDbCircle
 62
7
  6
CONTINUOUS
 10
271.9230451895
 20
209.2187956151
 40
14.8514735
100
AcDbArc
 50
355.301404
 51
0.020451
  0
ARC
  5
359
100
AcDbEntity
  8
0
100
AcDbCircle
 62
7
  6
CONTINUOUS
 10
273.6276011895
 20
209.0862441151
 40
13.1417205
100
AcDbArc
 50
352.760979
 51
355.268614
  0
ARC
  5
35A
100
AcDbEntity
  8
0
100
AcDbCircle
 62
7
  6
CONTINUOUS
 10
275.4079321895
 20
208.8590731151
 40
11.346921
100
AcDbArc
 50
350.298255
 51
352.766142
  0
ARC
  5
35B
100
AcDbEntity
  8
0
100
AcDbCircle
 62
7
  6
CONTINUOUS
 10
277.5074136895
 20
208.4971851151
 40
9.2164345
100
AcDbArc
 50
347.523005
 51
350.316341
  0
ARC
  5
35C
100
AcDbEntity
  8
0
100
AcDbCircle
 62
7
  6
CONTINUOUS
 10
288.0245516895
 20
217.7762966151
 40
0.7
100
AcDbArc
 50
0.0
 51
180.0
  0
ARC
  5
35D
100
AcDbEntity
  8
0
100
AcDbCircle
 62
7
  6
CONTINUOUS
 10
288.0245516895
 20
216.8262966151
 40
0.7
100
AcDbArc
 50
180.0
 51
360.0
  0
ARC
  5
35E
100
AcDbEntity
  8
0
100
AcDbCircle
 62
7
  6
CONTINUOUS
 10
285.2149666895
 20
217.7879936151
 40
0.625
100
AcDbArc
 50
90.0
 51
270.0
  0
ARC
  5
35F
100
AcDbEntity
  8
0
100
AcDbCircle
 62
7
  6
CONTINUOUS
 10
335.1224821895
 20
345.1774141151
 40
50.0
100
AcDbArc
 50
166.614472
 51
175.495088
  0
ARC
  5
360
100
AcDbEntity
  8
0
100
AcDbCircle
 62
7
  6
CONTINUOUS
 10
271.9479281895
 20
353.9304096151
 40
14.826589
100
AcDbArc
 50
359.975605
 51
4.702576
  0
ARC
  5
361
100
AcDbEntity
  8
0
100
AcDbCircle
 62
7
  6
CONTINUOUS
 10
273.6254211895
 20
354.0617196151
 40
13.1439125
100
AcDbArc
 50
4.7316
 51
7.238817
  0
ARC
  5
362
100
AcDbEntity
  8
0
100
AcDbCircle
 62
7
  6
CONTINUOUS
 10
275.4045106895
 20
354.2886091151
 40
11.3503795
100
AcDbArc
 50
7.234241
 51
9.701375
  0
ARC
  5
363
100
AcDbEntity
  8
0
100
AcDbCircle
 62
7
  6
CONTINUOUS
 10
277.5031086895
 20
354.6501636151
 40
9.2208205
100
AcDbArc
 50
9.684333
 51
12.47634
  0
ARC
  5
364
100
AcDbEntity
  8
0
100
AcDbCircle
 62
7
  6
CONTINUOUS
 10
288.0269521895
 20
346.5493331151
 40
0.75
100
AcDbArc
 50
200.523492
 51
338.455633
  0
ARC
  5
365
100
AcDbEntity
  8
0
100
AcDbCircle
 62
7
  6
CONTINUOUS
 10
288.0245516895
 20
346.3218966151
 40
0.7
100
AcDbArc
 50
0.0
 51
180.0
  0
ARC
  5
366
100
AcDbEntity
  8
0
100
AcDbCircle
 62
7
  6
CONTINUOUS
 10
288.0245516895
 20
345.3718966151
 40
0.7
100
AcDbArc
 50
180.0
 51
360.0
  0
ARC
  5
367
100
AcDbEntity
  8
0
100
AcDbCircle
 62
7
  6
CONTINUOUS
 10
419.5072366895
 20
209.2240966151
 40
4.0
100
AcDbArc
 50
180.0
 51
270.0
  0
ARC
  5
368
100
AcDbEntity
  8
0
100
AcDbCircle
 62
7
  6
CONTINUOUS
 10
493.1077486895
 20
217.5740966151
 40
3.1
100
AcDbArc
 50
263.128219
 51
276.871781
  0
ARC
  5
369
100
AcDbEntity
  8
0
100
AcDbCircle
 62
7
  6
CONTINUOUS
 10
493.1077486895
 20
217.8015326151
 40
2.529214
100
AcDbArc
 50
198.563065
 51
341.432945
  0
ARC
  5
36A
100
AcDbEntity
  8
0
100
AcDbCircle
 62
7
  6
CONTINUOUS
 10
493.1077486895
 20
217.8015326151
 40
2.4637575
100
AcDbArc
 50
14.370033
 51
16.35211
  0
ARC
  5
36B
100
AcDbEntity
  8
0
100
AcDbCircle
 62
7
  6
CONTINUOUS
 10
493.1077486895
 20
217.8015326151
 40
2.4637575
100
AcDbArc
 50
340.924968
 51
344.97907
  0
ARC
  5
36C
100
AcDbEntity
  8
0
100
AcDbCircle
 62
7
  6
CONTINUOUS
 10
493.1077486895
 20
217.8015326151
 40
2.45
100
AcDbArc
 50
14.452489
 51
163.64377
  0
ARC
  5
36D
100
AcDbEntity
  8
0
100
AcDbCircle
 62
7
  6
CONTINUOUS
 10
493.1077486895
 20
217.8015326151
 40
2.45
100
AcDbArc
 50
195.107268
 51
344.888613
  0
ARC
  5
36E
100
AcDbEntity
  8
0
100
AcDbCircle
 62
7
  6
CONTINUOUS
 10
493.1077486895
 20
217.8015326151
 40
2.099747
100
AcDbArc
 50
16.930314
 51
57.679638
  0
ARC
  5
36F
100
AcDbEntity
  8
0
100
AcDbCircle
 62
7
  6
CONTINUOUS
 10
493.1077486895
 20
217.8015326151
 40
2.099747
100
AcDbArc
 50
302.320362
 51
342.295887
  0
ARC
  5
370
100
AcDbEntity
  8
0
100
AcDbCircle
 62
7
  6
CONTINUOUS
 10
493.1077486895
 20
217.5740966151
 40
2.05
100
AcDbArc
 50
24.155999
 51
43.072781
  0
ARC
  5
371
100
AcDbEntity
  8
0
100
AcDbCircle
 62
7
  6
CONTINUOUS
 10
493.1077486895
 20
217.5740966151
 40
2.05
100
AcDbArc
 50
136.927219
 51
155.844001
  0
ARC
  5
372
100
AcDbEntity
  8
0
100
AcDbCircle
 62
7
  6
CONTINUOUS
 10
493.1077486895
 20
217.8015326151
 40
2.05
100
AcDbArc
 50
17.354089
 51
47.029721
  0
ARC
  5
373
100
AcDbEntity
  8
0
100
AcDbCircle
 62
7
  6
CONTINUOUS
 10
493.1077486895
 20
217.8015326151
 40
2.05
100
AcDbArc
 50
312.970291
 51
341.851554
  0
ARC
  5
374
100
AcDbEntity
  8
0
100
AcDbCircle
 62
7
  6
CONTINUOUS
 10
493.1075891895
 20
217.8375206151
 40
2.045142
100
AcDbArc
 50
46.574813
 51
56.93894
  0
ARC
  5
375
100
AcDbEntity
  8
0
100
AcDbCircle
 62
7
  6
CONTINUOUS
 10
493.1075891895
 20
217.7655451151
 40
2.045142
100
AcDbArc
 50
303.06106
 51
313.425187
  0
ARC
  5
376
100
AcDbEntity
  8
0
100
AcDbCircle
 62
7
  6
CONTINUOUS
 10
493.1065766895
 20
217.6605666151
 40
2.036147
100
AcDbArc
 50
41.811702
 51
53.698847
  0
ARC
  5
377
100
AcDbEntity
  8
0
100
AcDbCircle
 62
7
  6
CONTINUOUS
 10
478.8578366895
 20
217.7463621151
 40
0.75
100
AcDbArc
 50
90.0
 51
270.0
  0
ARC
  5
378
100
AcDbEntity
  8
0
100
AcDbCircle
 62
7
  6
CONTINUOUS
 10
481.6078366895
 20
217.7463621151
 40
0.75
100
AcDbArc
 50
62.728121
 51
90.0
  0
ARC
  5
379
100
AcDbEntity
  8
0
100
AcDbCircle
 62
7
  6
CONTINUOUS
 10
481.6078366895
 20
217.7463621151
 40
0.75
100
AcDbArc
 50
270.0
 51
308.938311
  0
ARC
  5
37A
100
AcDbEntity
  8
0
100
AcDbCircle
 62
7
  6
CONTINUOUS
 10
480.1367851895
 20
217.7879936151
 40
0.625
100
AcDbArc
 50
90.0
 51
270.0
  0
ARC
  5
37B
100
AcDbEntity
  8
0
100
AcDbCircle
 62
7
  6
CONTINUOUS
 10
423.6078366895
 20
214.7463621151
 40
0.25
100
AcDbArc
 50
180.0
 51
270.0
  0
CIRCLE
  5
37C
100
AcDbEntity
  8
0
100
AcDbCircle
 62
7
  6
CONTINUOUS
 10
455.6078366895
 20
244.3015326151
 40
1.875
  0
CIRCLE
  5
37D
100
AcDbEntity
  8
0
100
AcDbCircle
 62
7
  6
CONTINUOUS
 10
455.6078366895
 20
244.3015326151
 40
1.55
  0
ARC
  5
37E
100
AcDbEntity
  8
0
100
AcDbCircle
 62
7
  6
CONTINUOUS
 10
423.0642621895
 20
259.0518436151
 40
1.0003675
100
AcDbArc
 50
179.975559
 51
269.975615
  0
ARC
  5
37F
100
AcDbEntity
  8
0
100
AcDbCircle
 62
7
  6
CONTINUOUS
 10
493.1078366895
 20
219.4963621151
 40
7.5
100
AcDbArc
 50
198.126477
 51
199.471221
  0
ARC
  5
380
100
AcDbEntity
  8
0
100
AcDbCircle
 62
7
  6
CONTINUOUS
 10
493.1078366895
 20
219.4963621151
 40
7.5
100
AcDbArc
 50
340.528779
 51
341.873523
  0
ARC
  5
381
100
AcDbEntity
  8
0
100
AcDbCircle
 62
7
  6
CONTINUOUS
 10
493.1078366895
 20
219.4963621151
 40
7.5
100
AcDbArc
 50
351.694628
 51
188.305372
  0
ARC
  5
382
100
AcDbEntity
  8
0
100
AcDbCircle
 62
7
  6
CONTINUOUS
 10
566.7084366895
 20
209.2240966151
 40
4.0
100
AcDbArc
 50
270.0
 51
360.0
  0
ARC
  5
383
100
AcDbEntity
  8
0
100
AcDbCircle
 62
7
  6
CONTINUOUS
 10
493.1079246895
 20
217.8015326151
 40
2.4637575
100
AcDbArc
 50
16.35211
 51
165.625871
  0
ARC
  5
384
100
AcDbEntity
  8
0
100
AcDbCircle
 62
7
  6
CONTINUOUS
 10
493.1079246895
 20
217.8015326151
 40
2.4637575
100
AcDbArc
 50
195.02093
 51
199.075032
  0
ARC
  5
385
100
AcDbEntity
  8
0
100
AcDbCircle
 62
7
  6
CONTINUOUS
 10
493.1079246895
 20
217.8015326151
 40
2.45
100
AcDbArc
 50
163.64789
 51
165.547511
  0
ARC
  5
386
100
AcDbEntity
  8
0
100
AcDbCircle
 62
7
  6
CONTINUOUS
 10
493.1079246895
 20
217.8015326151
 40
2.099747
100
AcDbArc
 50
122.320362
 51
163.069686
  0
ARC
  5
387
100
AcDbEntity
  8
0
100
AcDbCircle
 62
7
  6
CONTINUOUS
 10
493.1079246895
 20
217.8015326151
 40
2.099747
100
AcDbArc
 50
197.704113
 51
237.679638
  0
ARC
  5
388
100
AcDbEntity
  8
0
100
AcDbCircle
 62
7
  6
CONTINUOUS
 10
493.1079246895
 20
217.8015326151
 40
2.05
100
AcDbArc
 50
198.148446
 51
227.029709
  0
ARC
  5
389
100
AcDbEntity
  8
0
100
AcDbCircle
 62
7
  6
CONTINUOUS
 10
493.1079246895
 20
217.8015326151
 40
2.05
100
AcDbArc
 50
132.970279
 51
162.645911
  0
ARC
  5
38A
100
AcDbEntity
  8
0
100
AcDbCircle
 62
7
  6
CONTINUOUS
 10
493.1080841895
 20
217.7655451151
 40
2.045142
100
AcDbArc
 50
226.574813
 51
236.93894
  0
ARC
  5
38B
100
AcDbEntity
  8
0
100
AcDbCircle
 62
7
  6
CONTINUOUS
 10
493.1080841895
 20
217.8375206151
 40
2.045142
100
AcDbArc
 50
123.06106
 51
133.425187
  0
ARC
  5
38C
100
AcDbEntity
  8
0
100
AcDbCircle
 62
7
  6
CONTINUOUS
 10
493.1089216895
 20
217.6605646151
 40
2.0361495
100
AcDbArc
 50
126.301116
 51
138.188269
  0
ARC
  5
38D
100
AcDbEntity
  8
0
100
AcDbCircle
 62
7
  6
CONTINUOUS
 10
507.3578366895
 20
217.7463621151
 40
0.75
100
AcDbArc
 50
270.0
 51
90.0
  0
ARC
  5
38E
100
AcDbEntity
  8
0
100
AcDbCircle
 62
7
  6
CONTINUOUS
 10
504.6078366895
 20
217.7463621151
 40
0.75
100
AcDbArc
 50
90.0
 51
117.271878
  0
ARC
  5
38F
100
AcDbEntity
  8
0
100
AcDbCircle
 62
7
  6
CONTINUOUS
 10
504.6078366895
 20
217.7463621151
 40
0.75
100
AcDbArc
 50
231.061828
 51
270.0
  0
ARC
  5
390
100
AcDbEntity
  8
0
100
AcDbCircle
 62
7
  6
CONTINUOUS
 10
506.0367851895
 20
217.7879936151
 40
0.625
100
AcDbArc
 50
270.0
 51
90.0
  0
ARC
  5
391
100
AcDbEntity
  8
0
100
AcDbCircle
 62
7
  6
CONTINUOUS
 10
562.6078366895
 20
214.7463621151
 40
0.25
100
AcDbArc
 50
270.0
 51
360.0
  0
CIRCLE
  5
392
100
AcDbEntity
  8
0
100
AcDbCircle
 62
7
  6
CONTINUOUS
 10
530.6078366895
 20
244.3015326151
 40
1.875
  0
CIRCLE
  5
393
100
AcDbEntity
  8
0
100
AcDbCircle
 62
7
  6
CONTINUOUS
 10
530.6078366895
 20
244.3015326151
 40
1.55
  0
ARC
  5
394
100
AcDbEntity
  8
0
100
AcDbCircle
 62
7
  6
CONTINUOUS
 10
563.1514101895
 20
259.0518451151
 40
1.0003695
100
AcDbArc
 50
270.024423
 51
0.024373
  0
CIRCLE
  5
395
100
AcDbEntity
  8
0
100
AcDbCircle
 62
7
  6
CONTINUOUS
 10
493.1078366895
 20
244.3015326151
 40
1.0
  0
CIRCLE
  5
396
100
AcDbEntity
  8
0
100
AcDbCircle
 62
7
  6
CONTINUOUS
 10
493.1078366895
 20
244.3015326151
 40
0.887177
  0
CIRCLE
  5
397
100
AcDbEntity
  8
0
100
AcDbCircle
 62
7
  6
CONTINUOUS
 10
493.1078366895
 20
244.3015326151
 40
0.822092
  0
CIRCLE
  5
398
100
AcDbEntity
  8
0
100
AcDbCircle
 62
7
  6
CONTINUOUS
 10
493.1078366895
 20
244.3015326151
 40
0.5888405
  0
ARC
  5
399
100
AcDbEntity
  8
0
100
AcDbCircle
 62
7
  6
CONTINUOUS
 10
566.7084366895
 20
353.9240966151
 40
4.0
100
AcDbArc
 50
0.0
 51
90.0
  0
ARC
  5
39A
100
AcDbEntity
  8
0
100
AcDbCircle
 62
7
  6
CONTINUOUS
 10
419.5072366895
 20
353.9240966151
 40
4.0
100
AcDbArc
 50
90.0
 51
180.0
  0
CIRCLE
  5
39B
100
AcDbEntity
  8
0
100
AcDbCircle
 62
7
  6
CONTINUOUS
 10
530.6078366895
 20
319.3015326151
 40
1.875
  0
CIRCLE
  5
39C
100
AcDbEntity
  8
0
100
AcDbCircle
 62
7
  6
CONTINUOUS
 10
455.6078366895
 20
319.3015326151
 40
1.875
  0
CIRCLE
  5
39D
100
AcDbEntity
  8
0
100
AcDbCircle
 62
7
  6
CONTINUOUS
 10
530.6078366895
 20
319.3015326151
 40
1.55
  0
CIRCLE
  5
39E
100
AcDbEntity
  8
0
100
AcDbCircle
 62
7
  6
CONTINUOUS
 10
455.6078366895
 20
319.3015326151
 40
1.55
  0
ARC
  5
39F
100
AcDbEntity
  8
0
100
AcDbCircle
 62
7
  6
CONTINUOUS
 10
423.0642631895
 20
304.5512206151
 40
1.0003695
100
AcDbArc
 50
90.024423
 51
180.024373
  0
ARC
  5
3A0
100
AcDbEntity
  8
0
100
AcDbCircle
 62
7
  6
CONTINUOUS
 10
563.1514111895
 20
304.5512221151
 40
1.0003675
100
AcDbArc
 50
359.975559
 51
89.975615
  0
CIRCLE
  5
3A1
100
AcDbEntity
  8
0
100
AcDbCircle
 62
7
  6
CONTINUOUS
 10
530.6078366895
 20
281.8015326151
 40
1.0
  0
CIRCLE
  5
3A2
100
AcDbEntity
  8
0
100
AcDbCircle
 62
7
  6
CONTINUOUS
 10
455.6078366895
 20
281.8015326151
 40
1.0
  0
CIRCLE
  5
3A3
100
AcDbEntity
  8
0
100
AcDbCircle
 62
7
  6
CONTINUOUS
 10
493.1078366895
 20
319.3015326151
 40
1.0
  0
CIRCLE
  5
3A4
100
AcDbEntity
  8
0
100
AcDbCircle
 62
7
  6
CONTINUOUS
 10
530.6078366895
 20
281.8015326151
 40
0.887177
  0
CIRCLE
  5
3A5
100
AcDbEntity
  8
0
100
AcDbCircle
 62
7
  6
CONTINUOUS
 10
493.1078366895
 20
319.3015326151
 40
0.887177
  0
CIRCLE
  5
3A6
100
AcDbEntity
  8
0
100
AcDbCircle
 62
7
  6
CONTINUOUS
 10
455.6078366895
 20
281.8015326151
 40
0.887177
  0
CIRCLE
  5
3A7
100
AcDbEntity
  8
0
100
AcDbCircle
 62
7
  6
CONTINUOUS
 10
530.6078366895
 20
281.8015326151
 40
0.822092
  0
CIRCLE
  5
3A8
100
AcDbEntity
  8
0
100
AcDbCircle
 62
7
  6
CONTINUOUS
 10
493.1078366895
 20
319.3015326151
 40
0.822092
  0
CIRCLE
  5
3A9
100
AcDbEntity
  8
0
100
AcDbCircle
 62
7
  6
CONTINUOUS
 10
455.6078366895
 20
281.8015326151
 40
0.822092
  0
CIRCLE
  5
3AA
100
AcDbEntity
  8
0
100
AcDbCircle
 62
7
  6
CONTINUOUS
 10
530.6078366895
 20
281.8015326151
 40
0.5888405
  0
CIRCLE
  5
3AB
100
AcDbEntity
  8
0
100
AcDbCircle
 62
7
  6
CONTINUOUS
 10
493.1078366895
 20
319.3015326151
 40
0.5888405
  0
CIRCLE
  5
3AC
100
AcDbEntity
  8
0
100
AcDbCircle
 62
7
  6
CONTINUOUS
 10
455.6078366895
 20
281.8015326151
 40
0.5888405
  0
ARC
  5
3AD
100
AcDbEntity
  8
0
100
AcDbCircle
 62
7
  6
CONTINUOUS
 10
562.6078366895
 20
348.8546421151
 40
0.25
100
AcDbArc
 50
0.0
 51
90.0
  0
ARC
  5
3AE
100
AcDbEntity
  8
0
100
AcDbCircle
 62
7
  6
CONTINUOUS
 10
423.6078366895
 20
348.8546421151
 40
0.25
100
AcDbArc
 50
90.0
 51
180.0
  0
ENDSEC
  0
SECTION
  2
OBJECTS
  0
DICTIONARY
  5
C
100
AcDbDictionary
280
0
281
1
  3
ACAD_GROUP
350
D
  3
ACAD_MLINESTYLE
350
17
  3
ACAD_LAYOUT
350
1A
  3
ACAD_PLOTSETTINGS
350
19
  3
ACAD_PLOTSTYLENAME
350
E
  0
DICTIONARY
  5
D
102
{ACAD_REACTORS
330
C
102
}
100
AcDbDictionary
280
0
281
1
  0
ACDBDICTIONARYWDFLT
  5
E
102
{ACAD_REACTORS
330
C
102
}
100
AcDbDictionary
281
1
  3
Normal
350
F
100
AcDbDictionaryWithDefault
340
F
  0
DICTIONARY
  5
17
102
{ACAD_REACTORS
330
C
102
}
100
AcDbDictionary
280
0
281
1
  3
Standard
350
18
  0
DICTIONARY
  5
19
102
{ACAD_REACTORS
330
C
102
}
100
AcDbDictionary
281
1
  0
DICTIONARY
  5
1A
102
{ACAD_REACTORS
330
C
102
}
100
AcDbDictionary
281
1
  3
Model
350
3AF
  3
Layout1
350
3B0
  0
ACDBPLACEHOLDER
  5
F
102
{ACAD_REACTORS
330
E
102
}
  0
MLINESTYLE
  5
18
102
{ACAD_REACTORS
330
17
102
}
100
AcDbMlineStyle
  2
STANDARD
 70
0
  3

 62
256
 51
90.0
 52
90.0
 71
2
 49
0.5
 62
256
  6
BYLAYER
 49
-0.5
 62
256
  6
BYLAYER
  0
LAYOUT
  5
3AF
102
{ACAD_REACTORS
330
1A
102
}
100
AcDbPlotSettings
  1

  2
none_device
  4
ISO_A1_(594.00_x_841.00_MM)
  6

 40
0.0
 41
0.0
 42
0.0
 43
0.0
 44
841.0
 45
594.0
 46
0.0
 47
0.0
 48
0.0
 49
0.0
140
0.0
141
0.0
142
1.0
143
1.0
 70
1024
 72
1
 73
0
 74
0
  7

 75
0
147
1.0
148
0.0
149
0.0
100
AcDbLayout
  1
Model
 70
0
 71
0
 10
0.0
 20
0.0
 11
841.0
 21
594.0
 12
0.0
 22
0.0
 32
0.0
 14
0.0
 24
0.0
 34
0.0
 15
0.0
 25
0.0
 35
0.0
146
0.0
 13
0.0
 23
0.0
 33
0.0
 16
1.0
 26
0.0
 36
0.0
 17
0.0
 27
1.0
 37
0.0
 76
0
330
210
345
0
346
0
  0
LAYOUT
  5
3B0
102
{ACAD_REACTORS
330
1A
102
}
100
AcDbPlotSettings
  1

  2
none_device
  4
ISO_A1_(594.00_x_841.00_MM)
  6

 40
0.0
 41
0.0
 42
0.0
 43
0.0
 44
841.0
 45
594.0
 46
0.0
 47
0.0
 48
0.0
 49
0.0
140
0.0
141
0.0
142
1.0
143
1.0
 70
0
 72
1
 73
0
 74
0
  7

 75
0
147
1.0
148
0.0
149
0.0
100
AcDbLayout
  1
Layout1
 70
0
 71
1
 10
0.0
 20
0.0
 11
841.0
 21
594.0
 12
0.0
 22
0.0
 32
0.0
 14
0.0
 24
0.0
 34
0.0
 15
0.0
 25
0.0
 35
0.0
146
0.0
 13
0.0
 23
0.0
 33
0.0
 16
1.0
 26
0.0
 36
0.0
 17
0.0
 27
1.0
 37
0.0
 76
0
330
211
345
0
346
0
  0
ENDSEC
  0
EOF
