  0
SECTION
  2
HEADER
  9
$ACADVER
  1
AC1024
  9
$DWGCODEPAGE
  3
ANSI_1252
  9
$EXTMAX
 10
841.0
 20
594.0
 30
0.0
  9
$EXTMIN
 10
0.0
 20
0.0
 30
0.0
  9
$LIMMIN
 10
0.0
 20
0.0
  9
$LIMMAX
 10
841.0
 20
594.0
  9
$VIEWCTR
 10
420.5
 20
297.0
  9
$VIEWSIZE
 40
594.0
  9
$CLAYER
  8
0
  9
$LTSCALE
 40
46.255
  9
$CELTYPE
  6
BYLAYER
  9
$DIMSCALE
 40
1.0
  9
$DIMASZ
 40
3.0
  9
$DIMEXO
 40
0.5
  9
$DIMDLI
 40
31.958
  9
$DIMEXE
 40
1.5
  9
$DIMCEN
 40
7.569
  9
$DIMLFAC
 40
1.0
  9
$DIMBLK
  1
_FILLED
  9
$DIMALT
 70
0
  9
$DIMALTF
 40
0.0393700787
  9
$DIMTXT
 40
3.0
  9
$DIMTOL
 70
1
  9
$DIMLIM
 70
0
  9
$DIMTFAC
 40
1.0
  9
$DIMTP
 40
0.01
  9
$DIMTM
 40
0.01
  9
$DIMGAP
 40
0.625
  9
$DIMDSEP
 70
44
  9
$AUNITS
 70
0
  9
$PDMODE
 70
3
  9
$PDSIZE
 40
3.0
  9
$HANDSEED
  5
36F
  9
$TILEMODE
 70
1
  9
$MEASUREMENT
 70
1
  9
$INSUNITS
 70
4
  0
ENDSEC
  0
SECTION
  2
CLASSES
  0
CLASS
  1
ACDBDICTIONARYWDFLT
  2
AcDbDictionaryWithDefault
  3
AutoCAD 2000
 90
0
 91
1
280
0
281
0
  0
CLASS
  1
ACDBPLACEHOLDER
  2
AcDbPlaceHolder
  3
AutoCAD 2000
 90
0
 91
1
280
0
281
0
  0
CLASS
  1
LAYOUT
  2
AcDbLayout
  3
AutoCAD 2000
 90
0
 91
0
280
0
281
0
  0
ENDSEC
  0
SECTION
  2
TABLES
  0
TABLE
  2
VPORT
  5
8
100
AcDbSymbolTable
 70
2
  0
VPORT
  5
1F4
100
AcDbSymbolTableRecord
100
AcDbViewportTableRecord
  2
*ACTIVE
 70
0
 10
0.0
 20
0.0
 11
1.0
 21
1.0
 12
420.5
 22
297.0
 13
0.0
 23
0.0
 14
1.0
 24
1.0
 15
0.0
 25
0.0
 16
0.0
 26
0.0
 36
1.0
 17
0.0
 27
0.0
 37
0.0
 40
594.0
 41
1.4158249158
 42
50.0
 43
0.0
 44
0.0
 50
0.0
 51
0.0
 71
0
 72
100
 73
1
 74
1
 75
0
 76
0
 77
0
 78
0
  0
ENDTAB
  0
TABLE
  2
LTYPE
  5
5
100
AcDbSymbolTable
 70
6
  0
LTYPE
  5
14
100
AcDbSymbolTableRecord
100
AcDbLinetypeTableRecord
  2
BYBLOCK
 70
0
  3

 72
65
 73
0
 40
0.0
  0
LTYPE
  5
15
100
AcDbSymbolTableRecord
100
AcDbLinetypeTableRecord
  2
BYLAYER
 70
0
  3

 72
65
 73
0
 40
0.0
  0
LTYPE
  5
16
100
AcDbSymbolTableRecord
100
AcDbLinetypeTableRecord
  2
CONTINUOUS
 70
64
  3
Solid line
 72
65
 73
0
 40
0.0
  0
LTYPE
  5
1F5
100
AcDbSymbolTableRecord
100
AcDbLinetypeTableRecord
  2
CENTER
 70
64
  3
____ _ ____ _ ____ _ ____ _ ____ _ ____ _ ____
 72
65
 73
4
 40
0.6
 49
0.375
 74
0
 49
-0.075
 74
0
 49
0.075
 74
0
 49
-0.075
 74
0
  0
LTYPE
  5
1F6
100
AcDbSymbolTableRecord
100
AcDbLinetypeTableRecord
  2
HIDDEN
 70
64
  3
- - - - - - - - - - - - - - - - - - - -
 72
65
 73
2
 40
0.2
 49
0.1
 74
0
 49
-0.1
 74
0
  0
LTYPE
  5
1F7
100
AcDbSymbolTableRecord
100
AcDbLinetypeTableRecord
  2
PHANTOM
 70
64
  3
_____ _ _ _____ _ _ _____ _ _ _____
 72
65
 73
6
 40
0.8
 49
0.45
 74
0
 49
-0.05
 74
0
 49
0.1
 74
0
 49
-0.05
 74
0
 49
0.1
 74
0
 49
-0.05
 74
0
  0
LTYPE
  5
1F8
100
AcDbSymbolTableRecord
100
AcDbLinetypeTableRecord
  2
DOT
 70
64
  3
. . . . . . . . . . . . . . . . . . . .
 72
65
 73
2
 40
0.2
 49
0.1
 74
0
 49
-0.1
 74
0
  0
LTYPE
  5
1F9
100
AcDbSymbolTableRecord
100
AcDbLinetypeTableRecord
  2
DASHED
 70
64
  3
- - - - - - - - - - - - - - - - - - - -
 72
65
 73
2
 40
0.2
 49
0.1
 74
0
 49
-0.1
 74
0
  0
ENDTAB
  0
TABLE
  2
LAYER
  5
2
100
AcDbSymbolTable
 70
36
  0
LAYER
  5
10
100
AcDbSymbolTableRecord
100
AcDbLayerTableRecord
  2
0
 70
0
 62
7
  6
CONTINUOUS
370
-3
390
F
  0
LAYER
  5
1FA
100
AcDbSymbolTableRecord
100
AcDbLayerTableRecord
  2
DEFAULT_1
 70
0
 62
7
  6
CENTER
370
-3
390
F
  0
LAYER
  5
1FB
100
AcDbSymbolTableRecord
100
AcDbLayerTableRecord
  2
DEFAULT_2
 70
0
 62
7
  6
HIDDEN
370
-3
390
F
  0
LAYER
  5
1FC
100
AcDbSymbolTableRecord
100
AcDbLayerTableRecord
  2
DEFAULT_3
 70
0
 62
7
  6
PHANTOM
370
-3
390
F
  0
LAYER
  5
1FD
100
AcDbSymbolTableRecord
100
AcDbLayerTableRecord
  2
ASSI
 70
0
 62
7
  6
CONTINUOUS
370
-3
390
F
  0
LAYER
  5
1FE
100
AcDbSymbolTableRecord
100
AcDbLayerTableRecord
  2
CLOSED_SHELL
 70
0
 62
7
  6
CONTINUOUS
370
-3
390
F
  0
LAYER
  5
1FF
100
AcDbSymbolTableRecord
100
AcDbLayerTableRecord
  2
COORDINATE
 70
0
 62
7
  6
CONTINUOUS
370
-3
390
F
  0
LAYER
  5
200
100
AcDbSymbolTableRecord
100
AcDbLayerTableRecord
  2
COPY_PUBLISH
 70
0
 62
7
  6
CONTINUOUS
370
-3
390
F
  0
LAYER
  5
201
100
AcDbSymbolTableRecord
100
AcDbLayerTableRecord
  2
COSMETICI
 70
0
 62
7
  6
CONTINUOUS
370
-3
390
F
  0
LAYER
  5
202
100
AcDbSymbolTableRecord
100
AcDbLayerTableRecord
  2
CURVE
 70
0
 62
7
  6
CONTINUOUS
370
-3
390
F
  0
LAYER
  5
203
100
AcDbSymbolTableRecord
100
AcDbLayerTableRecord
  2
DRAFT
 70
0
 62
7
  6
CONTINUOUS
370
-3
390
F
  0
LAYER
  5
204
100
AcDbSymbolTableRecord
100
AcDbLayerTableRecord
  2
GENERAL
 70
0
 62
7
  6
CONTINUOUS
370
-3
390
F
  0
LAYER
  5
205
100
AcDbSymbolTableRecord
100
AcDbLayerTableRecord
  2
IMPORT_IGES
 70
0
 62
7
  6
CONTINUOUS
370
-3
390
F
  0
LAYER
  5
206
100
AcDbSymbolTableRecord
100
AcDbLayerTableRecord
  2
NOTE
 70
0
 62
7
  6
CONTINUOUS
370
-3
390
F
  0
LAYER
  5
207
100
AcDbSymbolTableRecord
100
AcDbLayerTableRecord
  2
PIANI
 70
0
 62
7
  6
CONTINUOUS
370
-3
390
F
  0
LAYER
  5
208
100
AcDbSymbolTableRecord
100
AcDbLayerTableRecord
  2
PUNTI
 70
0
 62
7
  6
CONTINUOUS
370
-3
390
F
  0
LAYER
  5
209
100
AcDbSymbolTableRecord
100
AcDbLayerTableRecord
  2
RACCORDO
 70
0
 62
7
  6
CONTINUOUS
370
-3
390
F
  0
LAYER
  5
20A
100
AcDbSymbolTableRecord
100
AcDbLayerTableRecord
  2
SIMBOLI
 70
0
 62
7
  6
CONTINUOUS
370
-3
390
F
  0
LAYER
  5
20B
100
AcDbSymbolTableRecord
100
AcDbLayerTableRecord
  2
SMUSSO
 70
0
 62
7
  6
CONTINUOUS
370
-3
390
F
  0
LAYER
  5
20C
100
AcDbSymbolTableRecord
100
AcDbLayerTableRecord
  2
SUPERFICI
 70
0
 62
7
  6
CONTINUOUS
370
-3
390
F
  0
LAYER
  5
20D
100
AcDbSymbolTableRecord
100
AcDbLayerTableRecord
  2
TRASH
 70
0
 62
7
  6
CONTINUOUS
370
-3
390
F
  0
ENDTAB
  0
TABLE
  2
STYLE
  5
3
100
AcDbSymbolTable
 70
1
  0
STYLE
  5
11
100
AcDbSymbolTableRecord
100
AcDbTextStyleTableRecord
  2
STANDARD
 70
0
 40
0.0
 41
0.8
 50
0.0
 71
0
 42
0.2
  3
txt
  4

  0
STYLE
  5
20E
100
AcDbSymbolTableRecord
100
AcDbTextStyleTableRecord
  2
TEXTSTYLE_1
 70
0
 40
0.0
 41
0.8
 50
0.0
 71
0
 42
0.2
  3
gdt
  4

  0
ENDTAB
  0
TABLE
  2
VIEW
  5
6
100
AcDbSymbolTable
 70
0
  0
ENDTAB
  0
TABLE
  2
UCS
  5
7
100
AcDbSymbolTable
 70
0
  0
ENDTAB
  0
TABLE
  2
APPID
  5
9
100
AcDbSymbolTable
 70
1
  0
APPID
  5
20F
100
AcDbSymbolTableRecord
100
AcDbRegAppTableRecord
  2
ACAD
 70
0
  0
ENDTAB
  0
TABLE
  2
BLOCK_RECORD
  5
1
100
AcDbSymbolTable
 70
0
  0
BLOCK_RECORD
  5
210
100
AcDbSymbolTableRecord
100
AcDbBlockTableRecord
  2
*Model_Space
  0
BLOCK_RECORD
  5
211
100
AcDbSymbolTableRecord
100
AcDbBlockTableRecord
  2
*Paper_Space
  0
BLOCK_RECORD
  5
212
100
AcDbSymbolTableRecord
100
AcDbBlockTableRecord
  2
_FILLED
  0
BLOCK_RECORD
  5
213
100
AcDbSymbolTableRecord
100
AcDbBlockTableRecord
  2
*D0
  0
BLOCK_RECORD
  5
214
100
AcDbSymbolTableRecord
100
AcDbBlockTableRecord
  2
*D1
  0
BLOCK_RECORD
  5
215
100
AcDbSymbolTableRecord
100
AcDbBlockTableRecord
  2
*D2
  0
BLOCK_RECORD
  5
216
100
AcDbSymbolTableRecord
100
AcDbBlockTableRecord
  2
*D3
  0
ENDTAB
  0
TABLE
  2
DIMSTYLE
  5
A
100
AcDbSymbolTable
 70
1
100
AcDbDimStyleTable
 71
0
  0
DIMSTYLE
105
217
100
AcDbSymbolTableRecord
100
AcDbDimStyleTableRecord
  2
STANDARD
 70
0
  3

  4

 40
1.0
 41
3.0
 42
0.5
 43
0.38
 44
1.5
 45
0.0
 46
0.0
 47
0.01
 48
0.01
140
3.0
141
0.09
142
0.0
143
25.4
144
1.0
145
0.0
146
1.0
147
0.625
 71
1
 72
0
 73
0
 74
0
 75
0
 76
0
 77
1
 78
8
 79
2
170
0
171
1
172
0
173
0
174
0
175
0
176
0
177
0
178
0
270
2
179
2
271
2
272
2
273
2
274
2
275
0
280
0
281
0
282
0
283
1
284
8
285
0
286
0
287
3
288
0
340
11
278
44
341
212
342
212
343
212
344
212
  0
DIMSTYLE
105
218
100
AcDbSymbolTableRecord
100
AcDbDimStyleTableRecord
  2
DIMSTYLE_1
 70
0
  3

  4

 40
1.0
 41
3.0
 42
0.5
 43
0.38
 44
1.5
 45
0.0
 46
0.0
 47
0.0
 48
0.0
140
3.0
141
0.09
142
0.0
143
25.4
144
1.0
145
0.0
146
1.0
147
0.75
 71
0
 72
0
 73
0
 74
0
 75
0
 76
0
 77
1
 78
8
 79
2
170
0
171
1
172
0
173
0
174
0
175
0
176
0
177
0
178
0
270
2
179
2
271
2
272
2
273
2
274
2
275
0
280
0
281
0
282
0
283
1
284
8
285
0
286
0
287
3
288
0
340
11
278
44
341
212
342
212
343
212
344
212
  0
ENDTAB
  0
ENDSEC
  0
SECTION
  2
BLOCKS
  0
BLOCK
  5
20
100
AcDbEntity
  8
0
100
AcDbBlockBegin
  2
*Model_Space
 70
0
 10
0.0
 20
0.0
 30
0.0
  3
*Model_Space
  1

  0
ENDBLK
  5
21
100
AcDbEntity
  8
0
100
AcDbBlockEnd
  0
BLOCK
  5
1C
100
AcDbEntity
  8
0
100
AcDbBlockBegin
  2
*Paper_Space
 70
0
 10
0.0
 20
0.0
 30
0.0
  3
*Paper_Space
  1

  0
ENDBLK
  5
1D
100
AcDbEntity
  8
0
100
AcDbBlockEnd
  0
BLOCK
  5
219
100
AcDbEntity
  8
0
100
AcDbBlockBegin
  2
_FILLED
 70
64
 10
0.0
 20
0.0
  3
_FILLED
  1

  0
SOLID
  5
21A
100
AcDbEntity
  8
0
  6
BYBLOCK
 62
0
100
AcDbTrace
 10
0.0
 20
0.0
 11
-1.0
 21
0.3166666667
 12
-1.0
 22
-0.3166666667
 13
-1.0
 23
-0.3166666667
  0
ENDBLK
  5
21B
100
AcDbEntity
  8
0
  6
BYBLOCK
 62
0
100
AcDbBlockEnd
  0
BLOCK
  5
21C
100
AcDbEntity
  8
0
100
AcDbBlockBegin
 62
7
  6
CONTINUOUS
  2
*D0
 70
65
 10
0.0
 20
0.0
  3
*D0
  1

  0
LINE
  5
21D
100
AcDbEntity
  8
0
100
AcDbLine
 62
7
  6
CONTINUOUS
 10
246.6474093968
 20
379.3672122388
 11
246.6474093968
 21
390.5428589143
  0
LINE
  5
21E
100
AcDbEntity
  8
0
100
AcDbLine
 62
7
  6
CONTINUOUS
 10
297.1474093968
 20
364.4989977388
 11
297.1474093968
 21
390.5428589143
  0
LINE
  5
21F
100
AcDbEntity
  8
0
100
AcDbLine
 62
7
  6
CONTINUOUS
 10
246.6474093968
 20
389.0428589143
 11
271.8974093968
 21
389.0428589143
  0
LINE
  5
220
100
AcDbEntity
  8
0
100
AcDbLine
 62
7
  6
CONTINUOUS
 10
297.1474093968
 20
389.0428589143
 11
271.8974093968
 21
389.0428589143
  0
INSERT
  5
221
100
AcDbEntity
  8
0
100
AcDbBlockReference
 62
7
  6
CONTINUOUS
  2
_FILLED
 10
246.6474093968
 20
389.0428589143
 41
3.0
 42
3.0
 43
3.0
 50
180.0
  0
INSERT
  5
222
100
AcDbEntity
  8
0
100
AcDbBlockReference
 62
7
  6
CONTINUOUS
  2
_FILLED
 10
297.1474093968
 20
389.0428589143
 41
3.0
 42
3.0
 43
3.0
  0
ENDBLK
  5
223
100
AcDbEntity
  8
0
  6
BYBLOCK
 62
0
100
AcDbBlockEnd
  0
BLOCK
  5
224
100
AcDbEntity
  8
0
100
AcDbBlockBegin
 62
7
  6
CONTINUOUS
  2
*D1
 70
65
 10
0.0
 20
0.0
  3
*D1
  1

  0
LINE
  5
225
100
AcDbEntity
  8
0
100
AcDbLine
 62
7
  6
CONTINUOUS
 10
244.8998063968
 20
370.2977577388
 11
244.8998063968
 21
400.6256648013
  0
LINE
  5
226
100
AcDbEntity
  8
0
100
AcDbLine
 62
7
  6
CONTINUOUS
 10
297.1474093968
 20
364.4989977388
 11
297.1474093968
 21
400.6256648013
  0
LINE
  5
227
100
AcDbEntity
  8
0
100
AcDbLine
 62
7
  6
CONTINUOUS
 10
244.8998063968
 20
399.1256648013
 11
271.0236078968
 21
399.1256648013
  0
LINE
  5
228
100
AcDbEntity
  8
0
100
AcDbLine
 62
7
  6
CONTINUOUS
 10
297.1474093968
 20
399.1256648013
 11
271.0236078968
 21
399.1256648013
  0
INSERT
  5
229
100
AcDbEntity
  8
0
100
AcDbBlockReference
 62
7
  6
CONTINUOUS
  2
_FILLED
 10
244.8998063968
 20
399.1256648013
 41
3.0
 42
3.0
 43
3.0
 50
180.0
  0
INSERT
  5
22A
100
AcDbEntity
  8
0
100
AcDbBlockReference
 62
7
  6
CONTINUOUS
  2
_FILLED
 10
297.1474093968
 20
399.1256648013
 41
3.0
 42
3.0
 43
3.0
  0
ENDBLK
  5
22B
100
AcDbEntity
  8
0
  6
BYBLOCK
 62
0
100
AcDbBlockEnd
  0
BLOCK
  5
22C
100
AcDbEntity
  8
0
100
AcDbBlockBegin
 62
7
  6
CONTINUOUS
  2
*D2
 70
65
 10
0.0
 20
0.0
  3
*D2
  1

  0
LINE
  5
22D
100
AcDbEntity
  8
0
100
AcDbLine
 62
7
  6
CONTINUOUS
 10
375.1300913968
 20
375.3672122388
 11
375.1300913968
 21
392.7758004045
  0
LINE
  5
22E
100
AcDbEntity
  8
0
100
AcDbLine
 62
7
  6
CONTINUOUS
 10
530.3312913968
 20
375.3672122388
 11
530.3312913968
 21
392.7758004045
  0
LINE
  5
22F
100
AcDbEntity
  8
0
100
AcDbLine
 62
7
  6
CONTINUOUS
 10
375.1300913968
 20
391.2758004045
 11
452.7306913968
 21
391.2758004045
  0
LINE
  5
230
100
AcDbEntity
  8
0
100
AcDbLine
 62
7
  6
CONTINUOUS
 10
530.3312913968
 20
391.2758004045
 11
452.7306913968
 21
391.2758004045
  0
INSERT
  5
231
100
AcDbEntity
  8
0
100
AcDbBlockReference
 62
7
  6
CONTINUOUS
  2
_FILLED
 10
375.1300913968
 20
391.2758004045
 41
3.0
 42
3.0
 43
3.0
 50
180.0
  0
INSERT
  5
232
100
AcDbEntity
  8
0
100
AcDbBlockReference
 62
7
  6
CONTINUOUS
  2
_FILLED
 10
530.3312913968
 20
391.2758004045
 41
3.0
 42
3.0
 43
3.0
  0
ENDBLK
  5
233
100
AcDbEntity
  8
0
  6
BYBLOCK
 62
0
100
AcDbBlockEnd
  0
BLOCK
  5
234
100
AcDbEntity
  8
0
100
AcDbBlockBegin
 62
7
  6
CONTINUOUS
  2
*D3
 70
65
 10
0.0
 20
0.0
  3
*D3
  1

  0
LINE
  5
235
100
AcDbEntity
  8
0
100
AcDbLine
 62
7
  6
CONTINUOUS
 10
526.8312913968
 20
378.8672122388
 11
547.7730322878
 21
378.8672122388
  0
LINE
  5
236
100
AcDbEntity
  8
0
100
AcDbLine
 62
7
  6
CONTINUOUS
 10
526.8312913968
 20
226.1672122388
 11
547.7730322878
 21
226.1672122388
  0
LINE
  5
237
100
AcDbEntity
  8
0
100
AcDbLine
 62
7
  6
CONTINUOUS
 10
546.2730322878
 20
378.8672122388
 11
546.2730322878
 21
302.5172122388
  0
LINE
  5
238
100
AcDbEntity
  8
0
100
AcDbLine
 62
7
  6
CONTINUOUS
 10
546.2730322878
 20
226.1672122388
 11
546.2730322878
 21
302.5172122388
  0
INSERT
  5
239
100
AcDbEntity
  8
0
100
AcDbBlockReference
 62
7
  6
CONTINUOUS
  2
_FILLED
 10
546.2730322878
 20
378.8672122388
 41
3.0
 42
3.0
 43
3.0
 50
90.0
  0
INSERT
  5
23A
100
AcDbEntity
  8
0
100
AcDbBlockReference
 62
7
  6
CONTINUOUS
  2
_FILLED
 10
546.2730322878
 20
226.1672122388
 41
3.0
 42
3.0
 43
3.0
 50
270.0
  0
ENDBLK
  5
23B
100
AcDbEntity
  8
0
  6
BYBLOCK
 62
0
100
AcDbBlockEnd
  0
ENDSEC
  0
SECTION
  2
ENTITIES
  0
DIMENSION
  5
23C
100
AcDbEntity
  8
0
100
AcDbDimension
 62
7
  6
CONTINUOUS
  2
*D0
 10
297.1474093968
 20
389.0428589143
 11
269.004552254
 21
389.0428589143
 70
160
 71
2
 72
2
 41
0.9
 42
50.5
  3
DIMSTYLE_1
100
AcDbAlignedDimension
 13
246.6474093968
 23
378.8672122388
 14
297.1474093968
 24
363.9989977388
100
AcDbRotatedDimension
  0
DIMENSION
  5
23D
100
AcDbEntity
  8
0
100
AcDbDimension
 62
7
  6
CONTINUOUS
  2
*D1
 10
297.1474093968
 20
399.1256648013
 11
265.880750754
 21
399.1256648013
 70
160
 71
2
 72
2
 41
0.9
 42
52.247603
  3
DIMSTYLE_1
100
AcDbAlignedDimension
 13
244.8998063968
 23
369.7977577388
 14
297.1474093968
 24
363.9989977388
100
AcDbRotatedDimension
  0
DIMENSION
  5
23E
100
AcDbEntity
  8
0
100
AcDbDimension
 62
7
  6
CONTINUOUS
  2
*D2
 10
530.3312913968
 20
391.2758004045
 11
447.587834254
 21
391.2758004045
 70
160
 71
2
 72
2
 41
0.9
 42
155.2012
  3
DIMSTYLE_1
100
AcDbAlignedDimension
 13
375.1300913968
 23
374.8672122388
 14
530.3312913968
 24
374.8672122388
100
AcDbRotatedDimension
  0
DIMENSION
  5
23F
100
AcDbEntity
  8
0
100
AcDbDimension
 62
7
  6
CONTINUOUS
  2
*D3
 10
546.2730322878
 20
226.1672122388
 11
546.2730322878
 21
297.1600693817
 70
160
 71
2
 72
2
 41
0.9
 42
152.7
  3
DIMSTYLE_1
100
AcDbAlignedDimension
 13
526.3312913968
 23
378.8672122388
 14
526.3312913968
 24
226.1672122388
 50
270.0
100
AcDbRotatedDimension
  0
LINE
  5
240
100
AcDbEntity
  8
0
100
AcDbLine
 62
7
  6
CONTINUOUS
 10
244.8998063968
 20
235.4394777388
 11
244.8998063968
 21
370.0477577388
  0
LINE
  5
241
100
AcDbEntity
  8
0
100
AcDbLine
 62
7
  6
CONTINUOUS
 10
245.0332063968
 20
370.0454292388
 11
245.0332063968
 21
234.9889952388
  0
LINE
  5
242
100
AcDbEntity
  8
0
100
AcDbLine
 62
7
  6
CONTINUOUS
 10
246.3974093968
 20
230.1672122388
 11
246.3974093968
 21
374.8672122388
  0
LINE
  5
243
100
AcDbEntity
  8
0
100
AcDbLine
 62
7
  6
CONTINUOUS
 10
246.6474093968
 20
226.1672122388
 11
246.6474093968
 21
378.8672122388
  0
LINE
  5
244
100
AcDbEntity
  8
0
100
AcDbLine
 62
7
  6
CONTINUOUS
 10
246.9474063968
 20
367.2650122388
 11
246.9474063968
 21
366.3150122388
  0
LINE
  5
245
100
AcDbEntity
  8
0
100
AcDbLine
 62
7
  6
CONTINUOUS
 10
246.9474063968
 20
237.7694122388
 11
246.9474063968
 21
238.7194122388
  0
LINE
  5
246
100
AcDbEntity
  8
0
100
AcDbLine
 62
7
  6
CONTINUOUS
 10
248.1998063968
 20
367.5890962388
 11
248.1998063968
 21
366.9825447388
  0
LINE
  5
247
100
AcDbEntity
  8
0
100
AcDbLine
 62
7
  6
CONTINUOUS
 10
248.1998063968
 20
365.8851452388
 11
248.1998063968
 21
366.0691232388
  0
LINE
  5
248
100
AcDbEntity
  8
0
100
AcDbLine
 62
7
  6
CONTINUOUS
 10
248.3474063968
 20
367.2650122388
 11
248.3474063968
 21
366.3150122388
  0
LINE
  5
249
100
AcDbEntity
  8
0
100
AcDbLine
 62
7
  6
CONTINUOUS
 10
248.3474063968
 20
237.7694122388
 11
248.3474063968
 21
238.7194122388
  0
LINE
  5
24A
100
AcDbEntity
  8
0
100
AcDbLine
 62
7
  6
CONTINUOUS
 10
246.1290093968
 20
377.8018272388
 11
246.1036178968
 21
377.6956392388
  0
LINE
  5
24B
100
AcDbEntity
  8
0
100
AcDbLine
 62
7
  6
CONTINUOUS
 10
246.2154093968
 20
378.1557342388
 11
246.1290093968
 21
377.8018272388
  0
LINE
  5
24C
100
AcDbEntity
  8
0
100
AcDbLine
 62
7
  6
CONTINUOUS
 10
246.2874093968
 20
378.4424317388
 11
246.2154093968
 21
378.1557342388
  0
LINE
  5
24D
100
AcDbEntity
  8
0
100
AcDbLine
 62
7
  6
CONTINUOUS
 10
246.3474093968
 20
378.6760312388
 11
246.2874093968
 21
378.4424317388
  0
LINE
  5
24E
100
AcDbEntity
  8
0
100
AcDbLine
 62
7
  6
CONTINUOUS
 10
246.3974093968
 20
378.8672122388
 11
246.3474093968
 21
378.6760312388
  0
LWPOLYLINE
  5
24F
100
AcDbEntity
  8
0
100
AcDbPolyline
 62
7
  6
CONTINUOUS
 90
3
 70
0
 43
0.3499999985
 10
273.0236125793
 20
400.1614005127
 10
272.9521860962
 20
399.9470953979
 10
272.8093331299
 20
399.6613894653
  0
LWPOLYLINE
  5
250
100
AcDbEntity
  8
0
100
AcDbPolyline
 62
7
  6
CONTINUOUS
 90
3
 70
0
 43
0.3499999985
 10
265.8807589417
 20
402.0185404053
 10
266.7379024048
 20
402.8756582031
 10
266.7379024048
 20
399.8756432495
  0
LWPOLYLINE
  5
251
100
AcDbEntity
  8
0
100
AcDbPolyline
 62
7
  6
CONTINUOUS
 90
3
 70
0
 43
0.3499999985
 10
269.0045575562
 20
391.9357285767
 10
269.8617010193
 20
392.7928463745
 10
269.8617010193
 20
389.7928827515
  0
LINE
  5
252
100
AcDbEntity
  8
0
100
AcDbLine
 62
7
  6
CONTINUOUS
 10
246.3974093968
 20
226.1672122388
 11
246.3474093968
 21
226.3583932388
  0
LINE
  5
253
100
AcDbEntity
  8
0
100
AcDbLine
 62
7
  6
CONTINUOUS
 10
246.3474093968
 20
226.3583932388
 11
246.2874093968
 21
226.5919927388
  0
LINE
  5
254
100
AcDbEntity
  8
0
100
AcDbLine
 62
7
  6
CONTINUOUS
 10
246.2874093968
 20
226.5919927388
 11
246.2154093968
 21
226.8786902388
  0
LINE
  5
255
100
AcDbEntity
  8
0
100
AcDbLine
 62
7
  6
CONTINUOUS
 10
246.2154093968
 20
226.8786902388
 11
246.1290093968
 21
227.2325972388
  0
LINE
  5
256
100
AcDbEntity
  8
0
100
AcDbLine
 62
7
  6
CONTINUOUS
 10
246.1036178968
 20
227.3387852388
 11
246.1290093968
 21
227.2325972388
  0
LINE
  5
257
100
AcDbEntity
  8
0
100
AcDbLine
 62
7
  6
CONTINUOUS
 10
251.3974093968
 20
232.6672122388
 11
251.3974093968
 21
372.3672122388
  0
LINE
  5
258
100
AcDbEntity
  8
0
100
AcDbLine
 62
7
  6
CONTINUOUS
 10
258.5474093968
 20
232.9054737388
 11
258.5474093968
 21
372.1289507388
  0
LWPOLYLINE
  5
259
100
AcDbEntity
  8
0
100
AcDbPolyline
 62
7
  6
CONTINUOUS
 90
13
 70
0
 43
0.3499999985
 10
267.5950458679
 20
400.7328123779
 10
267.5950458679
 20
402.0185404053
 10
267.8093253174
 20
402.4470993042
 10
268.2378842163
 20
402.8756582031
 10
268.4521893311
 20
402.8756582031
 10
268.88074823
 20
402.4470993042
 10
269.0950276794
 20
402.0185404053
 10
269.0950276794
 20
400.7328123779
 10
268.88074823
 20
400.304253479
 10
268.4521893311
 20
399.8756432495
 10
268.2378842163
 20
399.8756432495
 10
267.8093253174
 20
400.304253479
 10
267.5950458679
 20
400.7328123779
  0
LWPOLYLINE
  5
25A
100
AcDbEntity
  8
0
100
AcDbPolyline
 62
7
  6
CONTINUOUS
 90
13
 70
0
 43
0.3499999985
 10
270.7188444824
 20
390.6500005493
 10
270.7188444824
 20
391.9357285767
 10
270.9331239319
 20
392.3642874756
 10
271.3616828308
 20
392.7928463745
 10
271.5759879456
 20
392.7928463745
 10
272.0045468445
 20
392.3642874756
 10
272.2188262939
 20
391.9357285767
 10
272.2188262939
 20
390.6500005493
 10
272.0045468445
 20
390.2214416504
 10
271.5759879456
 20
389.7928827515
 10
271.3616828308
 20
389.7928827515
 10
270.9331239319
 20
390.2214416504
 10
270.7188444824
 20
390.6500005493
  0
LWPOLYLINE
  5
25B
100
AcDbEntity
  8
0
100
AcDbPolyline
 62
7
  6
CONTINUOUS
 90
2
 70
0
 43
0.3499999985
 10
270.952167572
 20
399.8756432495
 10
270.952167572
 20
401.3756763916
  0
LINE
  5
25C
100
AcDbEntity
  8
0
100
AcDbLine
 62
7
  6
CONTINUOUS
 10
272.3974093968
 20
321.1768382388
 11
272.3974093968
 21
283.8575862388
  0
LINE
  5
25D
100
AcDbEntity
  8
0
100
AcDbLine
 62
7
  6
CONTINUOUS
 10
275.6474093968
 20
266.0172122388
 11
275.6474093968
 21
248.5172122388
  0
LINE
  5
25E
100
AcDbEntity
  8
0
100
AcDbLine
 62
7
  6
CONTINUOUS
 10
275.6474093968
 20
339.0172122388
 11
275.6474093968
 21
356.5172122388
  0
LINE
  5
25F
100
AcDbEntity
  8
0
100
AcDbLine
 62
7
  6
CONTINUOUS
 10
246.1290093968
 20
227.4491182388
 11
246.1036178968
 21
227.3387852388
  0
LWPOLYLINE
  5
260
100
AcDbEntity
  8
0
100
AcDbPolyline
 62
7
  6
CONTINUOUS
 90
3
 70
0
 43
0.3499999985
 10
273.0759697571
 20
391.9357285767
 10
273.9331132202
 20
392.7928463745
 10
273.9331132202
 20
389.7928827515
  0
LINE
  5
261
100
AcDbEntity
  8
0
100
AcDbLine
 62
7
  6
CONTINUOUS
 10
246.1036178968
 20
377.6956392388
 11
246.1290093968
 21
377.5853062388
  0
LINE
  5
262
100
AcDbEntity
  8
0
100
AcDbLine
 62
7
  6
CONTINUOUS
 10
297.1474093968
 20
241.0354267388
 11
297.1474093968
 21
363.9989977388
  0
LINE
  5
263
100
AcDbEntity
  8
0
100
AcDbLine
 62
7
  6
CONTINUOUS
 10
247.0045418968
 20
367.1101752388
 11
246.9474073968
 21
367.0882662388
  0
LINE
  5
264
100
AcDbEntity
  8
0
100
AcDbLine
 62
7
  6
CONTINUOUS
 10
248.3180398968
 20
366.1144562388
 11
247.2828138968
 21
365.7174792388
  0
LWPOLYLINE
  5
265
100
AcDbEntity
  8
0
100
AcDbPolyline
 62
7
  6
CONTINUOUS
 90
10
 70
0
 43
0.3499999985
 10
272.9521860962
 20
400.3756542969
 10
273.0236125793
 20
400.2328013306
 10
273.0236125793
 20
400.1614005127
 10
272.880759613
 20
400.0185475464
 10
272.8093331299
 20
400.0185475464
 10
272.7378809814
 20
400.0899483643
 10
272.7378809814
 20
400.1614005127
 10
272.8093331299
 20
400.304253479
 10
272.880759613
 20
400.3756542969
 10
272.9521860962
 20
400.3756542969
  0
LWPOLYLINE
  5
266
100
AcDbEntity
  8
0
100
AcDbPolyline
 62
7
  6
CONTINUOUS
 90
16
 70
0
 10
382.5647867831
 20
367.9650091878
 10
382.5644411757
 20
367.9647284513
 10
382.5639646236
 20
367.963421303
 10
382.5632780306
 20
367.9596497848
 10
382.5623664628
 20
367.9511349628
 10
382.561269378
 20
367.9353712822
 10
382.5599503147
 20
367.9078253023
 10
382.5584871352
 20
367.8647730197
 10
382.5569585123
 20
367.8024129786
 10
382.5564069186
 20
367.7743674138
 10
382.5551194592
 20
367.6929805229
 10
382.5541134766
 20
367.6055961618
 10
382.5533144966
 20
367.5057347596
 10
382.5527980307
 20
367.3999432312
 10
382.5525770568
 20
367.2908283227
 10
382.5525688968
 20
366.3150122388
  0
LWPOLYLINE
  5
267
100
AcDbEntity
  8
0
100
AcDbPolyline
 62
7
  6
CONTINUOUS
 90
16
 70
0
 10
382.5647877943
 20
365.6150154394
 10
382.5651334017
 20
365.6152961758
 10
382.5656099538
 20
365.616603324
 10
382.5662965468
 20
365.6203748419
 10
382.5672081146
 20
365.6288896634
 10
382.5683051994
 20
365.6446533443
 10
382.5696242628
 20
365.6721993243
 10
382.5710874422
 20
365.715251607
 10
382.5726160651
 20
365.7776116488
 10
382.5731676588
 20
365.805657214
 10
382.5744551182
 20
365.8870441045
 10
382.5754611008
 20
365.9744284655
 10
382.5762600808
 20
366.074289868
 10
382.5767765468
 20
366.1800813968
 10
382.5769975206
 20
366.2891963047
 10
382.5770058968
 20
367.2650122388
  0
LWPOLYLINE
  5
268
100
AcDbEntity
  8
0
100
AcDbPolyline
 62
7
  6
CONTINUOUS
 90
5
 70
0
 43
0.3499999985
 10
448.4449763184
 20
393.740100647
 10
448.8021343994
 20
393.9543544312
 10
448.8021343994
 20
394.5972184448
 10
448.4449763184
 20
395.0257773438
 10
447.5878585205
 20
395.0257773438
  0
LINE
  5
269
100
AcDbEntity
  8
0
100
AcDbLine
 62
7
  6
CONTINUOUS
 10
246.6474093968
 20
232.5843007388
 11
251.3974093968
 21
232.6672122388
  0
LINE
  5
26A
100
AcDbEntity
  8
0
100
AcDbLine
 62
7
  6
CONTINUOUS
 10
251.3974093968
 20
232.7806702388
 11
258.5474093968
 21
232.9054737388
  0
LINE
  5
26B
100
AcDbEntity
  8
0
100
AcDbLine
 62
7
  6
CONTINUOUS
 10
245.0332063968
 20
234.9889952388
 11
244.8998063968
 21
234.9866667388
  0
LINE
  5
26C
100
AcDbEntity
  8
0
100
AcDbLine
 62
7
  6
CONTINUOUS
 10
522.9422263968
 20
234.9889952388
 11
521.5118368968
 21
234.9866667388
  0
LINE
  5
26D
100
AcDbEntity
  8
0
100
AcDbLine
 62
7
  6
CONTINUOUS
 10
526.3312913968
 20
226.1672122388
 11
379.1300913968
 21
226.1672122388
  0
LINE
  5
26E
100
AcDbEntity
  8
0
100
AcDbLine
 62
7
  6
CONTINUOUS
 10
246.6474093968
 20
226.1672122388
 11
246.3974093968
 21
226.1672122388
  0
LINE
  5
26F
100
AcDbEntity
  8
DEFAULT_1
100
AcDbLine
 62
7
  6
CENTER
 10
246.7018133968
 20
230.1672137388
 11
246.6474093968
 21
230.1672122388
  0
LINE
  5
270
100
AcDbEntity
  8
0
100
AcDbLine
 62
7
  6
CONTINUOUS
 10
246.6474093968
 20
230.1672122388
 11
246.3974093968
 21
230.1672122388
  0
LINE
  5
271
100
AcDbEntity
  8
DEFAULT_1
100
AcDbLine
 62
7
  6
CENTER
 10
246.3974093968
 20
230.1672122388
 11
246.0489633968
 21
230.1672137388
  0
LINE
  5
272
100
AcDbEntity
  8
0
100
AcDbLine
 62
7
  6
CONTINUOUS
 10
383.9495458968
 20
234.9866667388
 11
521.5118368968
 21
234.9866667388
  0
LINE
  5
273
100
AcDbEntity
  8
0
100
AcDbLine
 62
7
  6
CONTINUOUS
 10
522.8485938968
 20
235.0826277388
 11
382.6127888968
 21
235.0826277388
  0
LINE
  5
274
100
AcDbEntity
  8
0
100
AcDbLine
 62
7
  6
CONTINUOUS
 10
522.2306913968
 20
235.4394777388
 11
383.2306913968
 21
235.4394777388
  0
LINE
  5
275
100
AcDbEntity
  8
0
100
AcDbLine
 62
7
  6
CONTINUOUS
 10
245.0332068968
 20
235.4394777388
 11
244.8998063968
 21
235.4394777388
  0
LINE
  5
276
100
AcDbEntity
  8
DEFAULT_1
100
AcDbLine
 62
7
  6
CENTER
 10
244.8864663968
 20
235.6894767388
 11
244.8998063968
 21
235.6894777388
  0
LINE
  5
277
100
AcDbEntity
  8
0
100
AcDbLine
 62
7
  6
CONTINUOUS
 10
244.8998063968
 20
235.6894777388
 11
245.0332063968
 21
235.6894777388
  0
LINE
  5
278
100
AcDbEntity
  8
DEFAULT_1
100
AcDbLine
 62
7
  6
CENTER
 10
245.0332063968
 20
235.6894777388
 11
245.0465463968
 21
235.6894767388
  0
LINE
  5
279
100
AcDbEntity
  8
0
100
AcDbLine
 62
7
  6
CONTINUOUS
 10
453.8532388968
 20
236.9702112388
 11
451.6081438968
 21
236.9702112388
  0
LINE
  5
27A
100
AcDbEntity
  8
0
100
AcDbLine
 62
7
  6
CONTINUOUS
 10
453.8461348968
 20
236.9946482388
 11
451.6152478968
 21
236.9946482388
  0
LINE
  5
27B
100
AcDbEntity
  8
0
100
AcDbLine
 62
7
  6
CONTINUOUS
 10
451.3250943968
 20
237.2233302388
 11
454.1362883968
 21
237.2233302388
  0
LINE
  5
27C
100
AcDbEntity
  8
0
100
AcDbLine
 62
7
  6
CONTINUOUS
 10
451.3334603968
 20
237.2446482388
 11
454.1279223968
 21
237.2446482388
  0
LINE
  5
27D
100
AcDbEntity
  8
DEFAULT_1
100
AcDbLine
 62
7
  6
CENTER
 10
522.9130263968
 20
237.7694097388
 11
522.9088148968
 21
237.7694122388
  0
LINE
  5
27E
100
AcDbEntity
  8
DEFAULT_1
100
AcDbLine
 62
7
  6
CENTER
 10
522.8843768968
 20
237.7694122388
 11
522.8796248968
 21
237.7694097388
  0
LINE
  5
27F
100
AcDbEntity
  8
DEFAULT_1
100
AcDbLine
 62
7
  6
CENTER
 10
382.5814833968
 20
237.7694097388
 11
382.5770058968
 21
237.7694122388
  0
LINE
  5
280
100
AcDbEntity
  8
DEFAULT_1
100
AcDbLine
 62
7
  6
CENTER
 10
382.5525698968
 20
237.7694122388
 11
382.5483793968
 21
237.7694097388
  0
LINE
  5
281
100
AcDbEntity
  8
0
100
AcDbLine
 62
7
  6
CONTINUOUS
 10
382.5525698968
 20
237.7694122388
 11
382.5770058968
 21
237.7694122388
  0
LINE
  5
282
100
AcDbEntity
  8
0
100
AcDbLine
 62
7
  6
CONTINUOUS
 10
522.8843768968
 20
237.7694122388
 11
522.9088148968
 21
237.7694122388
  0
LINE
  5
283
100
AcDbEntity
  8
0
100
AcDbLine
 62
7
  6
CONTINUOUS
 10
438.4806913968
 20
237.9394777388
 11
450.4023033968
 21
237.9394777388
  0
LINE
  5
284
100
AcDbEntity
  8
0
100
AcDbLine
 62
7
  6
CONTINUOUS
 10
455.0590793968
 20
237.9394777388
 11
466.9806913968
 21
237.9394777388
  0
LINE
  5
285
100
AcDbEntity
  8
0
100
AcDbLine
 62
7
  6
CONTINUOUS
 10
467.4520523968
 20
238.1061092388
 11
438.0093303968
 21
238.1061092388
  0
LINE
  5
286
100
AcDbEntity
  8
0
100
AcDbLine
 62
7
  6
CONTINUOUS
 10
244.8998433968
 20
238.1061092388
 11
244.8378213968
 21
238.1061092388
  0
LINE
  5
287
100
AcDbEntity
  8
DEFAULT_1
100
AcDbLine
 62
7
  6
CENTER
 10
522.9132933968
 20
238.7194102388
 11
522.9088148968
 21
238.7194122388
  0
LINE
  5
288
100
AcDbEntity
  8
DEFAULT_1
100
AcDbLine
 62
7
  6
CENTER
 10
522.8843768968
 20
238.7194122388
 11
522.8801893968
 21
238.7194102388
  0
LINE
  5
289
100
AcDbEntity
  8
DEFAULT_1
100
AcDbLine
 62
7
  6
CENTER
 10
382.5812163968
 20
238.7194102388
 11
382.5770058968
 21
238.7194122388
  0
LINE
  5
28A
100
AcDbEntity
  8
DEFAULT_1
100
AcDbLine
 62
7
  6
CENTER
 10
382.5525698968
 20
238.7194122388
 11
382.5478148968
 21
238.7194102388
  0
LINE
  5
28B
100
AcDbEntity
  8
0
100
AcDbLine
 62
7
  6
CONTINUOUS
 10
382.5525698968
 20
238.7194122388
 11
382.5770058968
 21
238.7194122388
  0
LINE
  5
28C
100
AcDbEntity
  8
0
100
AcDbLine
 62
7
  6
CONTINUOUS
 10
522.8843768968
 20
238.7194122388
 11
522.9088148968
 21
238.7194122388
  0
LINE
  5
28D
100
AcDbEntity
  8
0
100
AcDbLine
 62
7
  6
CONTINUOUS
 10
467.3243513968
 20
239.3561092388
 11
465.6601863968
 21
239.3561092388
  0
LINE
  5
28E
100
AcDbEntity
  8
0
100
AcDbLine
 62
7
  6
CONTINUOUS
 10
465.6596398968
 20
239.3561092388
 11
439.7596398968
 21
239.3561092388
  0
LINE
  5
28F
100
AcDbEntity
  8
0
100
AcDbLine
 62
7
  6
CONTINUOUS
 10
439.7590928968
 20
239.3561092388
 11
438.1371793968
 21
239.3561092388
  0
LINE
  5
290
100
AcDbEntity
  8
0
100
AcDbLine
 62
7
  6
CONTINUOUS
 10
244.8998438968
 20
239.3561092388
 11
244.8378213968
 21
239.3561092388
  0
LINE
  5
291
100
AcDbEntity
  8
0
100
AcDbLine
 62
7
  6
CONTINUOUS
 10
438.4806913968
 20
239.4394777388
 11
445.2976568968
 21
239.4394777388
  0
LINE
  5
292
100
AcDbEntity
  8
0
100
AcDbLine
 62
7
  6
CONTINUOUS
 10
460.1637258968
 20
239.4394777388
 11
466.9806913968
 21
239.4394777388
  0
LINE
  5
293
100
AcDbEntity
  8
0
100
AcDbLine
 62
7
  6
CONTINUOUS
 10
451.2331053968
 20
239.9172122388
 11
454.2281013968
 21
239.9172122388
  0
LINE
  5
294
100
AcDbEntity
  8
0
100
AcDbLine
 62
7
  6
CONTINUOUS
 10
451.2141533968
 20
239.9611507388
 11
454.2470528968
 21
239.9611507388
  0
LINE
  5
295
100
AcDbEntity
  8
0
100
AcDbLine
 62
7
  6
CONTINUOUS
 10
451.3334603968
 20
240.2446482388
 11
454.1279223968
 21
240.2446482388
  0
LINE
  5
296
100
AcDbEntity
  8
0
100
AcDbLine
 62
7
  6
CONTINUOUS
 10
451.3250943968
 20
240.2659667388
 11
454.1362883968
 21
240.2659667388
  0
LINE
  5
297
100
AcDbEntity
  8
0
100
AcDbLine
 62
7
  6
CONTINUOUS
 10
453.8461348968
 20
240.4946482388
 11
451.6152478968
 21
240.4946482388
  0
LINE
  5
298
100
AcDbEntity
  8
0
100
AcDbLine
 62
7
  6
CONTINUOUS
 10
451.6081438968
 20
240.5190857388
 11
453.8532388968
 21
240.5190857388
  0
LINE
  5
299
100
AcDbEntity
  8
0
100
AcDbLine
 62
7
  6
CONTINUOUS
 10
382.5191563968
 20
234.9889952388
 11
383.9495458968
 21
234.9866667388
  0
LWPOLYLINE
  5
29A
100
AcDbEntity
  8
0
100
AcDbPolyline
 62
7
  6
CONTINUOUS
 90
16
 70
0
 10
382.5647872894
 20
237.0694121638
 10
382.5644426612
 20
237.0696921582
 10
382.5639673874
 20
237.0709984783
 10
382.5632827753
 20
237.0747679508
 10
382.5623748291
 20
237.0832654191
 10
382.5612508148
 20
237.0995261771
 10
382.5599379788
 20
237.1271720398
 10
382.5584875335
 20
237.1700415357
 10
382.5582356151
 20
237.1789917315
 10
382.55672307
 20
237.2441170719
 10
382.5557628174
 20
237.2981926954
 10
382.5546084929
 20
237.3829667574
 10
382.5537115539
 20
237.4745684244
 10
382.5530739974
 20
237.570735847
 10
382.5526942979
 20
237.669528489
 10
382.5525687428
 20
237.7694121638
  0
LWPOLYLINE
  5
29B
100
AcDbEntity
  8
0
100
AcDbPolyline
 62
7
  6
CONTINUOUS
 90
16
 70
0
 10
382.5647872889
 20
239.4194121638
 10
382.5651319171
 20
239.4191321695
 10
382.5656071908
 20
239.4178258494
 10
382.5662918029
 20
239.4140563769
 10
382.5671997491
 20
239.4055589086
 10
382.5683237633
 20
239.3892981505
 10
382.5696365992
 20
239.3616522878
 10
382.5710870443
 20
239.3187827915
 10
382.5713389627
 20
239.3098325963
 10
382.5728515075
 20
239.2447072551
 10
382.5738117599
 20
239.1906316325
 10
382.574966084
 20
239.1058575704
 10
382.5758630228
 20
239.0142559034
 10
382.5765005791
 20
238.9180884807
 10
382.5768802784
 20
238.8192958387
 10
382.5770058334
 20
238.7194121638
  0
LWPOLYLINE
  5
29C
100
AcDbEntity
  8
0
100
AcDbPolyline
 62
7
  6
CONTINUOUS
 90
10
 70
0
 10
382.556467591
 20
365.80242677
 10
382.5579695131
 20
365.7341480649
 10
382.5594650932
 20
365.684914643
 10
382.5608401036
 20
365.6525447655
 10
382.5612387555
 20
365.6451832667
 10
382.5623688678
 20
365.6288622892
 10
382.563279956
 20
365.6203617698
 10
382.5639660633
 20
365.6165982276
 10
382.5644421864
 20
365.6152947502
 10
382.5647877943
 20
365.6150154394
  0
LWPOLYLINE
  5
29D
100
AcDbEntity
  8
0
100
AcDbPolyline
 62
7
  6
CONTINUOUS
 90
10
 70
0
 10
382.5731069864
 20
367.7775978585
 10
382.5716050643
 20
367.8458765631
 10
382.5701094842
 20
367.8951099847
 10
382.5687344738
 20
367.927479862
 10
382.5683358219
 20
367.9348413614
 10
382.5672057096
 20
367.9511623385
 10
382.5662946214
 20
367.9596628577
 10
382.5656085142
 20
367.9634263997
 10
382.565132391
 20
367.964729877
 10
382.5647867831
 20
367.9650091878
  0
LWPOLYLINE
  5
29E
100
AcDbEntity
  8
0
100
AcDbPolyline
 62
7
  6
CONTINUOUS
 90
6
 70
0
 10
382.5525687433
 20
366.3150123141
 10
382.5527052722
 20
366.2106940258
 10
382.5531392802
 20
366.1036963121
 10
382.5538602321
 20
366.0019070066
 10
382.5548500511
 20
365.9078301356
 10
382.556467591
 20
365.80242677
  0
LWPOLYLINE
  5
29F
100
AcDbEntity
  8
0
100
AcDbPolyline
 62
7
  6
CONTINUOUS
 90
6
 70
0
 10
382.5770058342
 20
367.2650123143
 10
382.5768693053
 20
367.3693306035
 10
382.5764352972
 20
367.4763283162
 10
382.5757143453
 20
367.5781176206
 10
382.5747245264
 20
367.6721944918
 10
382.5731069864
 20
367.7775978585
  0
LINE
  5
2A0
100
AcDbEntity
  8
0
100
AcDbLine
 62
7
  6
CONTINUOUS
 10
375.1300913968
 20
374.8672122388
 11
375.1300913968
 21
230.1672122388
  0
LINE
  5
2A1
100
AcDbEntity
  8
0
100
AcDbLine
 62
7
  6
CONTINUOUS
 10
381.6866913968
 20
279.9953862388
 11
381.6866913968
 21
325.4939107388
  0
LINE
  5
2A2
100
AcDbEntity
  8
0
100
AcDbLine
 62
7
  6
CONTINUOUS
 10
382.5191563968
 20
234.9889952388
 11
382.5191563968
 21
370.0454292388
  0
LINE
  5
2A3
100
AcDbEntity
  8
0
100
AcDbLine
 62
7
  6
CONTINUOUS
 10
382.6127888968
 20
235.0826277388
 11
382.6127888968
 21
278.9589737388
  0
LINE
  5
2A4
100
AcDbEntity
  8
0
100
AcDbLine
 62
7
  6
CONTINUOUS
 10
382.6127888968
 20
326.5303307388
 11
382.6127888968
 21
369.9517967388
  0
LINE
  5
2A5
100
AcDbEntity
  8
0
100
AcDbLine
 62
7
  6
CONTINUOUS
 10
382.6866913968
 20
326.5330647388
 11
382.6866913968
 21
326.4946482388
  0
LINE
  5
2A6
100
AcDbEntity
  8
0
100
AcDbLine
 62
7
  6
CONTINUOUS
 10
382.6866913968
 20
278.9946482388
 11
382.6866913968
 21
278.9562322388
  0
LINE
  5
2A7
100
AcDbEntity
  8
0
100
AcDbLine
 62
7
  6
CONTINUOUS
 10
382.9806913968
 20
235.6894777388
 11
382.9806913968
 21
278.9946482388
  0
LINE
  5
2A8
100
AcDbEntity
  8
0
100
AcDbLine
 62
7
  6
CONTINUOUS
 10
382.9806913968
 20
326.4946482388
 11
382.9806913968
 21
369.7977577388
  0
LINE
  5
2A9
100
AcDbEntity
  8
0
100
AcDbLine
 62
7
  6
CONTINUOUS
 10
394.6932948968
 20
278.9946482388
 11
394.6932948968
 21
326.4946482388
  0
LWPOLYLINE
  5
2AA
100
AcDbEntity
  8
0
100
AcDbPolyline
 62
7
  6
CONTINUOUS
 90
16
 70
0
 10
382.5525688968
 20
237.7694122388
 10
382.5525955924
 20
238.7657092187
 10
382.5528382745
 20
238.86508924
 10
382.5533381105
 20
238.9629315936
 10
382.5540986663
 20
239.0574760996
 10
382.5551197811
 20
239.1465086259
 10
382.5563961372
 20
239.2274988204
 10
382.5579039369
 20
239.29727224
 10
382.5593893159
 20
239.3470752569
 10
382.5599380783
 20
239.361656969
 10
382.5612507159
 20
239.3892991853
 10
382.562374722
 20
239.405559128
 10
382.5632827221
 20
239.4140564607
 10
382.5639673724
 20
239.417825879
 10
382.5644426601
 20
239.4191321755
 10
382.5647872889
 20
239.4194121638
  0
LWPOLYLINE
  5
2AB
100
AcDbEntity
  8
0
100
AcDbPolyline
 62
7
  6
CONTINUOUS
 90
16
 70
0
 10
382.5770058968
 20
238.7194122388
 10
382.576978984
 20
237.7231151109
 10
382.576736302
 20
237.6237350895
 10
382.5762364662
 20
237.5258927359
 10
382.5754759106
 20
237.4313482299
 10
382.5744547961
 20
237.3423157034
 10
382.5731784404
 20
237.2613255088
 10
382.5716706409
 20
237.191552088
 10
382.5701852621
 20
237.1417490708
 10
382.5696364997
 20
237.1271673583
 10
382.5683238622
 20
237.0995251421
 10
382.5671998562
 20
237.0832651996
 10
382.5662918562
 20
237.0747678669
 10
382.5656072059
 20
237.0709984486
 10
382.5651319181
 20
237.0696921522
 10
382.5647872894
 20
237.0694121638
  0
LWPOLYLINE
  5
2AC
100
AcDbEntity
  8
0
100
AcDbPolyline
 62
7
  6
CONTINUOUS
 90
3
 70
0
 43
0.3499999985
 10
449.7307043457
 20
394.1686595459
 10
450.5878221436
 20
395.0257773438
 10
450.5878221436
 20
392.0258137207
  0
LINE
  5
2AD
100
AcDbEntity
  8
0
100
AcDbLine
 62
7
  6
CONTINUOUS
 10
246.9530978968
 20
237.6803722388
 11
248.3474108968
 21
237.9262272388
  0
LINE
  5
2AE
100
AcDbEntity
  8
0
100
AcDbLine
 62
7
  6
CONTINUOUS
 10
275.6474093968
 20
248.5172122388
 11
258.5474143968
 21
246.0491717388
  0
LINE
  5
2AF
100
AcDbEntity
  8
0
100
AcDbLine
 62
7
  6
CONTINUOUS
 10
258.5474158968
 20
240.0246502388
 11
297.1474093968
 21
241.0354267388
  0
LINE
  5
2B0
100
AcDbEntity
  8
0
100
AcDbLine
 62
7
  6
CONTINUOUS
 10
396.5886913968
 20
249.0476882388
 11
508.8726913968
 21
249.0476882388
  0
LINE
  5
2B1
100
AcDbEntity
  8
0
100
AcDbLine
 62
7
  6
CONTINUOUS
 10
396.8399153968
 20
249.0714762388
 11
508.6214673968
 21
249.0714762388
  0
LINE
  5
2B2
100
AcDbEntity
  8
0
100
AcDbLine
 62
7
  6
CONTINUOUS
 10
396.7899153968
 20
249.2489122388
 11
396.8399168968
 21
249.2489122388
  0
LINE
  5
2B3
100
AcDbEntity
  8
0
100
AcDbLine
 62
7
  6
CONTINUOUS
 10
508.6214688968
 20
249.2489122388
 11
508.6714673968
 21
249.2489122388
  0
LINE
  5
2B4
100
AcDbEntity
  8
0
100
AcDbLine
 62
7
  6
CONTINUOUS
 10
396.5886913968
 20
367.2446482388
 11
396.5886913968
 21
249.0476882388
  0
LINE
  5
2B5
100
AcDbEntity
  8
0
100
AcDbLine
 62
7
  6
CONTINUOUS
 10
396.7899153968
 20
249.2489122388
 11
396.7899153968
 21
367.2446482388
  0
LINE
  5
2B6
100
AcDbEntity
  8
0
100
AcDbLine
 62
7
  6
CONTINUOUS
 10
396.8399153968
 20
366.9672122388
 11
396.8399153968
 21
249.0714762388
  0
LWPOLYLINE
  5
2B7
100
AcDbEntity
  8
0
100
AcDbPolyline
 62
7
  6
CONTINUOUS
 90
3
 70
0
 43
0.3499999985
 10
454.5164070435
 20
392.3115196533
 10
454.444954895
 20
392.0972145386
 10
454.3021019287
 20
391.811508606
  0
LINE
  5
2B8
100
AcDbEntity
  8
0
100
AcDbLine
 62
7
  6
CONTINUOUS
 10
272.3974093968
 20
283.8575862388
 11
258.5474108968
 21
283.6158332388
  0
LINE
  5
2B9
100
AcDbEntity
  8
0
100
AcDbLine
 62
7
  6
CONTINUOUS
 10
522.7746913968
 20
278.9562322388
 11
522.4806918968
 21
278.9562322388
  0
LINE
  5
2BA
100
AcDbEntity
  8
0
100
AcDbLine
 62
7
  6
CONTINUOUS
 10
382.6866913968
 20
278.9562322388
 11
382.9806918968
 21
278.9562322388
  0
LINE
  5
2BB
100
AcDbEntity
  8
0
100
AcDbLine
 62
7
  6
CONTINUOUS
 10
394.6932948968
 20
278.9946482388
 11
382.6866913968
 21
278.9946482388
  0
LINE
  5
2BC
100
AcDbEntity
  8
0
100
AcDbLine
 62
7
  6
CONTINUOUS
 10
510.7680878968
 20
278.9946482388
 11
522.7746913968
 21
278.9946482388
  0
LWPOLYLINE
  5
2BD
100
AcDbEntity
  8
0
100
AcDbPolyline
 62
7
  6
CONTINUOUS
 90
13
 70
0
 43
0.3499999985
 10
544.6658682861
 20
299.3029201965
 10
543.3801915894
 20
299.3029201965
 10
542.9515813599
 20
299.517199646
 10
542.5230224609
 20
299.9457842102
 10
542.5230224609
 20
300.1600636597
 10
542.9515813599
 20
300.5886482239
 10
543.3801915894
 20
300.8029276733
 10
544.6658682861
 20
300.8029276733
 10
545.0944785156
 20
300.5886482239
 10
545.5230374146
 20
300.1600636597
 10
545.5230374146
 20
299.9457842102
 10
545.0944785156
 20
299.517199646
 10
544.6658682861
 20
299.3029201965
  0
LINE
  5
2BE
100
AcDbEntity
  8
0
100
AcDbLine
 62
7
  6
CONTINUOUS
 10
245.0332063968
 20
278.9895237388
 11
244.8998063968
 21
278.9946482388
  0
LINE
  5
2BF
100
AcDbEntity
  8
DEFAULT_1
100
AcDbLine
 62
7
  6
CENTER
 10
245.0887723968
 20
279.9881272388
 11
244.8826278968
 21
279.9960467388
  0
LINE
  5
2C0
100
AcDbEntity
  8
0
100
AcDbLine
 62
7
  6
CONTINUOUS
 10
437.7596398968
 20
238.8958387388
 11
437.7596398968
 21
238.4827537388
  0
LINE
  5
2C1
100
AcDbEntity
  8
0
100
AcDbLine
 62
7
  6
CONTINUOUS
 10
441.7596398968
 20
239.3561092388
 11
441.7596398968
 21
238.1061092388
  0
LWPOLYLINE
  5
2C2
100
AcDbEntity
  8
0
100
AcDbPolyline
 62
7
  6
CONTINUOUS
 90
13
 70
0
 43
0.3499999985
 10
451.444991272
 20
392.8829315186
 10
451.444991272
 20
394.1686595459
 10
451.6592450562
 20
394.5972184448
 10
452.0878552856
 20
395.0257773438
 10
452.3021090698
 20
395.0257773438
 10
452.7306679687
 20
394.5972184448
 10
452.9449730835
 20
394.1686595459
 10
452.9449730835
 20
392.8829315186
 10
452.7306679687
 20
392.4543726196
 10
452.3021090698
 20
392.0258137207
 10
452.0878552856
 20
392.0258137207
 10
451.6592450562
 20
392.4543726196
 10
451.444991272
 20
392.8829315186
  0
LINE
  5
2C3
100
AcDbEntity
  8
0
100
AcDbLine
 62
7
  6
CONTINUOUS
 10
382.5191563968
 20
234.9889952388
 11
382.6127888968
 21
235.0826277388
  0
LINE
  5
2C4
100
AcDbEntity
  8
0
100
AcDbLine
 62
7
  6
CONTINUOUS
 10
396.5886913968
 20
249.0476882388
 11
396.7899153968
 21
249.2489122388
  0
LINE
  5
2C5
100
AcDbEntity
  8
0
100
AcDbLine
 62
7
  6
CONTINUOUS
 10
376.3016643968
 20
227.3387852388
 11
383.9495458968
 21
234.9866667388
  0
LINE
  5
2C6
100
AcDbEntity
  8
0
100
AcDbLine
 62
7
  6
CONTINUOUS
 10
529.1597183968
 20
377.6956392388
 11
521.5118368968
 21
370.0477577388
  0
LINE
  5
2C7
100
AcDbEntity
  8
0
100
AcDbLine
 62
7
  6
CONTINUOUS
 10
522.9422263968
 20
370.0454292388
 11
522.8485938968
 21
369.9517967388
  0
LINE
  5
2C8
100
AcDbEntity
  8
0
100
AcDbLine
 62
7
  6
CONTINUOUS
 10
297.1474093968
 20
271.5172122388
 11
275.6474093968
 21
266.0172122388
  0
LWPOLYLINE
  5
2C9
100
AcDbEntity
  8
0
100
AcDbPolyline
 62
7
  6
CONTINUOUS
 90
2
 70
0
 43
0.3499999985
 10
545.5230374146
 20
306.5172003174
 10
544.023055603
 20
306.5172003174
  0
LINE
  5
2CA
100
AcDbEntity
  8
0
100
AcDbLine
 62
7
  6
CONTINUOUS
 10
394.6932948968
 20
326.4946482388
 11
382.6866913968
 21
326.4946482388
  0
LINE
  5
2CB
100
AcDbEntity
  8
0
100
AcDbLine
 62
7
  6
CONTINUOUS
 10
510.7680878968
 20
326.4946482388
 11
522.7746913968
 21
326.4946482388
  0
LINE
  5
2CC
100
AcDbEntity
  8
0
100
AcDbLine
 62
7
  6
CONTINUOUS
 10
522.7746913968
 20
326.5330647388
 11
522.4806918968
 21
326.5330647388
  0
LINE
  5
2CD
100
AcDbEntity
  8
0
100
AcDbLine
 62
7
  6
CONTINUOUS
 10
382.6866913968
 20
326.5330647388
 11
382.9806918968
 21
326.5330647388
  0
LINE
  5
2CE
100
AcDbEntity
  8
0
100
AcDbLine
 62
7
  6
CONTINUOUS
 10
272.3974093968
 20
321.1768382388
 11
258.5474108968
 21
321.4185912388
  0
LINE
  5
2CF
100
AcDbEntity
  8
0
100
AcDbLine
 62
7
  6
CONTINUOUS
 10
297.1474093968
 20
333.5172122388
 11
275.6474093968
 21
339.0172122388
  0
LINE
  5
2D0
100
AcDbEntity
  8
0
100
AcDbLine
 62
7
  6
CONTINUOUS
 10
382.5191563968
 20
370.0454292388
 11
382.6127888968
 21
369.9517967388
  0
LINE
  5
2D1
100
AcDbEntity
  8
0
100
AcDbLine
 62
7
  6
CONTINUOUS
 10
383.9495458968
 20
370.0477577388
 11
376.3016643968
 21
377.6956392388
  0
LINE
  5
2D2
100
AcDbEntity
  8
0
100
AcDbLine
 62
7
  6
CONTINUOUS
 10
521.5118368968
 20
234.9866667388
 11
529.1597183968
 21
227.3387852388
  0
LINE
  5
2D3
100
AcDbEntity
  8
0
100
AcDbLine
 62
7
  6
CONTINUOUS
 10
508.8726913968
 20
249.0476882388
 11
508.6714673968
 21
249.2489122388
  0
LINE
  5
2D4
100
AcDbEntity
  8
0
100
AcDbLine
 62
7
  6
CONTINUOUS
 10
522.9422263968
 20
234.9889952388
 11
522.8485938968
 21
235.0826277388
  0
LINE
  5
2D5
100
AcDbEntity
  8
0
100
AcDbLine
 62
7
  6
CONTINUOUS
 10
451.2141533968
 20
239.9611507388
 11
451.2331053968
 21
239.9172122388
  0
LINE
  5
2D6
100
AcDbEntity
  8
0
100
AcDbLine
 62
7
  6
CONTINUOUS
 10
451.3250943968
 20
240.2659667388
 11
451.3334603968
 21
240.2446482388
  0
LINE
  5
2D7
100
AcDbEntity
  8
0
100
AcDbLine
 62
7
  6
CONTINUOUS
 10
454.1279223968
 20
237.2446482388
 11
454.1362883968
 21
237.2233302388
  0
LINE
  5
2D8
100
AcDbEntity
  8
0
100
AcDbLine
 62
7
  6
CONTINUOUS
 10
451.6152478968
 20
240.4946482388
 11
451.6081438968
 21
240.5190857388
  0
LINE
  5
2D9
100
AcDbEntity
  8
0
100
AcDbLine
 62
7
  6
CONTINUOUS
 10
453.8461348968
 20
236.9946482388
 11
453.8532388968
 21
236.9702112388
  0
LWPOLYLINE
  5
2DA
100
AcDbEntity
  8
0
100
AcDbPolyline
 62
7
  6
CONTINUOUS
 90
2
 70
0
 43
0.3499999985
 10
456.5163999023
 20
392.0258137207
 10
456.5163999023
 20
393.5257955322
  0
LINE
  5
2DB
100
AcDbEntity
  8
0
100
AcDbLine
 62
7
  6
CONTINUOUS
 10
463.6596398968
 20
239.3561092388
 11
463.6596398968
 21
238.1061092388
  0
LINE
  5
2DC
100
AcDbEntity
  8
0
100
AcDbLine
 62
7
  6
CONTINUOUS
 10
467.6596398968
 20
238.3708427388
 11
467.6596398968
 21
239.0081117388
  0
LINE
  5
2DD
100
AcDbEntity
  8
0
100
AcDbLine
 62
7
  6
CONTINUOUS
 10
451.6152478968
 20
236.9946482388
 11
451.6081438968
 21
236.9702112388
  0
LINE
  5
2DE
100
AcDbEntity
  8
0
100
AcDbLine
 62
7
  6
CONTINUOUS
 10
453.8461348968
 20
240.4946482388
 11
453.8532388968
 21
240.5190857388
  0
LINE
  5
2DF
100
AcDbEntity
  8
0
100
AcDbLine
 62
7
  6
CONTINUOUS
 10
451.3334603968
 20
237.2446482388
 11
451.3250943968
 21
237.2233302388
  0
LINE
  5
2E0
100
AcDbEntity
  8
0
100
AcDbLine
 62
7
  6
CONTINUOUS
 10
454.1362883968
 20
240.2659667388
 11
454.1279223968
 21
240.2446482388
  0
LINE
  5
2E1
100
AcDbEntity
  8
0
100
AcDbLine
 62
7
  6
CONTINUOUS
 10
454.2281013968
 20
239.9172122388
 11
454.2470528968
 21
239.9611507388
  0
LWPOLYLINE
  5
2E2
100
AcDbEntity
  8
0
100
AcDbPolyline
 62
7
  6
CONTINUOUS
 90
10
 70
0
 43
0.3499999985
 10
545.0230263672
 20
304.4457809753
 10
545.1658793335
 20
304.5172074585
 10
545.2373314819
 20
304.5172074585
 10
545.3801844482
 20
304.3743544922
 10
545.3801844482
 20
304.302928009
 10
545.3087322998
 20
304.2315015259
 10
545.2373314819
 20
304.2315015259
 10
545.0944785156
 20
304.302928009
 10
545.0230263672
 20
304.3743544922
 10
545.0230263672
 20
304.4457809753
  0
LINE
  5
2E3
100
AcDbEntity
  8
DEFAULT_1
100
AcDbLine
 62
7
  6
CENTER
 10
244.8826278968
 20
325.4932502388
 11
245.0887723968
 21
325.5011697388
  0
LINE
  5
2E4
100
AcDbEntity
  8
0
100
AcDbLine
 62
7
  6
CONTINUOUS
 10
244.8998063968
 20
326.4946482388
 11
245.0332063968
 21
326.4997732388
  0
LINE
  5
2E5
100
AcDbEntity
  8
0
100
AcDbLine
 62
7
  6
CONTINUOUS
 10
275.6474093968
 20
356.5172122388
 11
258.5474143968
 21
358.9852527388
  0
LINE
  5
2E6
100
AcDbEntity
  8
0
100
AcDbLine
 62
7
  6
CONTINUOUS
 10
248.1998063968
 20
367.5890962388
 11
247.1644393968
 21
367.7716597388
  0
LINE
  5
2E7
100
AcDbEntity
  8
0
100
AcDbLine
 62
7
  6
CONTINUOUS
 10
248.1998063968
 20
367.5890962388
 11
248.2745273968
 21
367.5759212388
  0
LWPOLYLINE
  5
2E8
100
AcDbEntity
  8
0
100
AcDbPolyline
 62
7
  6
CONTINUOUS
 90
3
 70
0
 43
0.3499999985
 10
545.2373314819
 20
304.5172074585
 10
545.4515852661
 20
304.4457809753
 10
545.7373425293
 20
304.302928009
  0
LINE
  5
2E9
100
AcDbEntity
  8
0
100
AcDbLine
 62
7
  6
CONTINUOUS
 10
508.6214673968
 20
249.0714762388
 11
508.6214673968
 21
366.9672122388
  0
LINE
  5
2EA
100
AcDbEntity
  8
0
100
AcDbLine
 62
7
  6
CONTINUOUS
 10
508.6714673968
 20
249.2489122388
 11
508.6714673968
 21
367.2446482388
  0
LINE
  5
2EB
100
AcDbEntity
  8
0
100
AcDbLine
 62
7
  6
CONTINUOUS
 10
508.8726913968
 20
367.2446482388
 11
508.8726913968
 21
249.0476882388
  0
LINE
  5
2EC
100
AcDbEntity
  8
0
100
AcDbLine
 62
7
  6
CONTINUOUS
 10
510.7680878968
 20
326.4946482388
 11
510.7680878968
 21
278.9946482388
  0
LINE
  5
2ED
100
AcDbEntity
  8
0
100
AcDbLine
 62
7
  6
CONTINUOUS
 10
382.5191563968
 20
370.0454292388
 11
383.2061303968
 21
370.0465482388
  0
LINE
  5
2EE
100
AcDbEntity
  8
DEFAULT_1
100
AcDbLine
 62
7
  6
CENTER
 10
382.5495008968
 20
366.3150142388
 11
382.5525698968
 21
366.3150122388
  0
LINE
  5
2EF
100
AcDbEntity
  8
0
100
AcDbLine
 62
7
  6
CONTINUOUS
 10
382.5525698968
 20
366.3150122388
 11
382.5770058968
 21
366.3150122388
  0
LINE
  5
2F0
100
AcDbEntity
  8
DEFAULT_1
100
AcDbLine
 62
7
  6
CENTER
 10
382.5770058968
 20
366.3150122388
 11
382.5795073968
 21
366.3150142388
  0
LINE
  5
2F1
100
AcDbEntity
  8
DEFAULT_1
100
AcDbLine
 62
7
  6
CENTER
 10
522.8818753968
 20
366.3150142388
 11
522.8843768968
 21
366.3150122388
  0
LINE
  5
2F2
100
AcDbEntity
  8
0
100
AcDbLine
 62
7
  6
CONTINUOUS
 10
522.8843768968
 20
366.3150122388
 11
522.9088148968
 21
366.3150122388
  0
LINE
  5
2F3
100
AcDbEntity
  8
DEFAULT_1
100
AcDbLine
 62
7
  6
CENTER
 10
522.9088148968
 20
366.3150122388
 11
522.9118818968
 21
366.3150142388
  0
LINE
  5
2F4
100
AcDbEntity
  8
0
100
AcDbLine
 62
7
  6
CONTINUOUS
 10
508.6214673968
 20
366.9672122388
 11
396.8399153968
 21
366.9672122388
  0
LINE
  5
2F5
100
AcDbEntity
  8
0
100
AcDbLine
 62
7
  6
CONTINUOUS
 10
508.8726913968
 20
367.2446482388
 11
396.5886913968
 21
367.2446482388
  0
LINE
  5
2F6
100
AcDbEntity
  8
DEFAULT_1
100
AcDbLine
 62
7
  6
CENTER
 10
382.5500653968
 20
367.2650152388
 11
382.5525698968
 21
367.2650122388
  0
LINE
  5
2F7
100
AcDbEntity
  8
0
100
AcDbLine
 62
7
  6
CONTINUOUS
 10
382.5525698968
 20
367.2650122388
 11
382.5770058968
 21
367.2650122388
  0
LINE
  5
2F8
100
AcDbEntity
  8
DEFAULT_1
100
AcDbLine
 62
7
  6
CENTER
 10
382.5770058968
 20
367.2650122388
 11
382.5800718968
 21
367.2650152388
  0
LINE
  5
2F9
100
AcDbEntity
  8
DEFAULT_1
100
AcDbLine
 62
7
  6
CENTER
 10
522.8813108968
 20
367.2650152388
 11
522.8843768968
 21
367.2650122388
  0
LINE
  5
2FA
100
AcDbEntity
  8
0
100
AcDbLine
 62
7
  6
CONTINUOUS
 10
522.8843768968
 20
367.2650122388
 11
522.9088148968
 21
367.2650122388
  0
LINE
  5
2FB
100
AcDbEntity
  8
DEFAULT_1
100
AcDbLine
 62
7
  6
CENTER
 10
522.9088148968
 20
367.2650122388
 11
522.9113173968
 21
367.2650152388
  0
LINE
  5
2FC
100
AcDbEntity
  8
DEFAULT_1
100
AcDbLine
 62
7
  6
CENTER
 10
244.8864663968
 20
369.7977607388
 11
244.8998063968
 21
369.7977577388
  0
LINE
  5
2FD
100
AcDbEntity
  8
0
100
AcDbLine
 62
7
  6
CONTINUOUS
 10
244.8998063968
 20
369.7977577388
 11
245.0332063968
 21
369.7977577388
  0
LINE
  5
2FE
100
AcDbEntity
  8
DEFAULT_1
100
AcDbLine
 62
7
  6
CENTER
 10
245.0332063968
 20
369.7977577388
 11
245.0465463968
 21
369.7977607388
  0
LINE
  5
2FF
100
AcDbEntity
  8
0
100
AcDbLine
 62
7
  6
CONTINUOUS
 10
522.8485938968
 20
369.9517967388
 11
522.4276043968
 21
369.9517967388
  0
LINE
  5
300
100
AcDbEntity
  8
0
100
AcDbLine
 62
7
  6
CONTINUOUS
 10
383.0337858968
 20
369.9517967388
 11
382.6127888968
 21
369.9517967388
  0
LINE
  5
301
100
AcDbEntity
  8
0
100
AcDbLine
 62
7
  6
CONTINUOUS
 10
522.2306913968
 20
370.0477577388
 11
383.2306913968
 21
370.0477577388
  0
LINE
  5
302
100
AcDbEntity
  8
DEFAULT_1
100
AcDbLine
 62
7
  6
CENTER
 10
246.7017883968
 20
374.8672107388
 11
246.6474093968
 21
374.8672122388
  0
LINE
  5
303
100
AcDbEntity
  8
0
100
AcDbLine
 62
7
  6
CONTINUOUS
 10
246.6474093968
 20
374.8672122388
 11
246.3974093968
 21
374.8672122388
  0
LINE
  5
304
100
AcDbEntity
  8
DEFAULT_1
100
AcDbLine
 62
7
  6
CENTER
 10
246.3974093968
 20
374.8672122388
 11
246.0492383968
 21
374.8672107388
  0
LINE
  5
305
100
AcDbEntity
  8
0
100
AcDbLine
 62
7
  6
CONTINUOUS
 10
246.6474093968
 20
378.8672122388
 11
246.3974093968
 21
378.8672122388
  0
LINE
  5
306
100
AcDbEntity
  8
0
100
AcDbLine
 62
7
  6
CONTINUOUS
 10
379.1300913968
 20
378.8672122388
 11
526.3312913968
 21
378.8672122388
  0
LINE
  5
307
100
AcDbEntity
  8
0
100
AcDbLine
 62
7
  6
CONTINUOUS
 10
522.9422263968
 20
370.0454292388
 11
522.2552523968
 21
370.0465482388
  0
LINE
  5
308
100
AcDbEntity
  8
0
100
AcDbLine
 62
7
  6
CONTINUOUS
 10
251.3974093968
 20
372.2537542388
 11
258.5474093968
 21
372.1289507388
  0
LINE
  5
309
100
AcDbEntity
  8
0
100
AcDbLine
 62
7
  6
CONTINUOUS
 10
246.6474093968
 20
372.4501237388
 11
251.3974093968
 21
372.3672122388
  0
LINE
  5
30A
100
AcDbEntity
  8
0
100
AcDbLine
 62
7
  6
CONTINUOUS
 10
258.5474158968
 20
365.0097742388
 11
297.1474093968
 21
363.9989977388
  0
LWPOLYLINE
  5
30B
100
AcDbEntity
  8
0
100
AcDbPolyline
 62
7
  6
CONTINUOUS
 90
10
 70
0
 43
0.3499999985
 10
454.444954895
 20
392.5258247681
 10
454.5164070435
 20
392.3829204712
 10
454.5164070435
 20
392.3115196533
 10
454.3735540771
 20
392.168666687
 10
454.3021019287
 20
392.168666687
 10
454.2307011108
 20
392.2400675049
 10
454.2307011108
 20
392.3115196533
 10
454.3021019287
 20
392.4543726196
 10
454.3735540771
 20
392.5258247681
 10
454.444954895
 20
392.5258247681
  0
LWPOLYLINE
  5
30C
100
AcDbEntity
  8
0
100
AcDbPolyline
 62
7
  6
CONTINUOUS
 90
15
 70
0
 10
522.8844038093
 20
237.723115107
 10
522.8846464913
 20
237.6237350857
 10
522.8851463271
 20
237.5258927322
 10
522.8859068827
 20
237.4313482264
 10
522.8869279972
 20
237.3423157002
 10
522.888204353
 20
237.2613255059
 10
522.8897121526
 20
237.1915520869
 10
522.8911975313
 20
237.1417490708
 10
522.8917462939
 20
237.1271673557
 10
522.8930589313
 20
237.0995251409
 10
522.8941829374
 20
237.0832651991
 10
522.8950909374
 20
237.0747678667
 10
522.8957755877
 20
237.0709984486
 10
522.8962508755
 20
237.0696921522
 10
522.8965955042
 20
237.0694121638
  0
LWPOLYLINE
  5
30D
100
AcDbEntity
  8
0
100
AcDbPolyline
 62
7
  6
CONTINUOUS
 90
15
 70
0
 10
522.9087872017
 20
238.7657092234
 10
522.9085445197
 20
238.8650892448
 10
522.9080446837
 20
238.9629315983
 10
522.9072841278
 20
239.057476104
 10
522.906263013
 20
239.1465086301
 10
522.9049866568
 20
239.227498824
 10
522.9034788571
 20
239.2972722414
 10
522.9019934781
 20
239.3470752569
 10
522.9014447155
 20
239.3616569723
 10
522.9001320779
 20
239.3892991869
 10
522.8990080718
 20
239.4055591286
 10
522.8981000717
 20
239.4140564609
 10
522.8974154213
 20
239.4178258791
 10
522.8969401336
 20
239.4191321755
 10
522.8965955049
 20
239.4194121638
  0
LINE
  5
30E
100
AcDbEntity
  8
0
100
AcDbLine
 62
7
  6
CONTINUOUS
 10
522.8846062469
 20
366.1800813968
 11
522.8843769595
 21
366.3150123141
  0
LINE
  5
30F
100
AcDbEntity
  8
0
100
AcDbLine
 62
7
  6
CONTINUOUS
 10
522.908584763
 20
367.3999432312
 11
522.9088140504
 21
367.2650123143
  0
LINE
  5
310
100
AcDbEntity
  8
0
100
AcDbLine
 62
7
  6
CONTINUOUS
 10
522.4806913968
 20
235.6894777388
 11
522.4806913968
 21
278.9946482388
  0
LINE
  5
311
100
AcDbEntity
  8
0
100
AcDbLine
 62
7
  6
CONTINUOUS
 10
522.4806913968
 20
326.4946482388
 11
522.4806913968
 21
369.7977577388
  0
LINE
  5
312
100
AcDbEntity
  8
0
100
AcDbLine
 62
7
  6
CONTINUOUS
 10
522.7746913968
 20
278.9562322388
 11
522.7746913968
 21
278.9946482388
  0
LINE
  5
313
100
AcDbEntity
  8
0
100
AcDbLine
 62
7
  6
CONTINUOUS
 10
522.7746913968
 20
326.4946482388
 11
522.7746913968
 21
326.5330647388
  0
LINE
  5
314
100
AcDbEntity
  8
0
100
AcDbLine
 62
7
  6
CONTINUOUS
 10
522.8485938968
 20
235.0826277388
 11
522.8485938968
 21
278.9589717388
  0
LINE
  5
315
100
AcDbEntity
  8
0
100
AcDbLine
 62
7
  6
CONTINUOUS
 10
522.8485938968
 20
326.5303302388
 11
522.8485938968
 21
369.9517967388
  0
LINE
  5
316
100
AcDbEntity
  8
0
100
AcDbLine
 62
7
  6
CONTINUOUS
 10
522.8843768968
 20
367.2650122388
 11
522.8843768968
 21
366.3150122388
  0
LINE
  5
317
100
AcDbEntity
  8
0
100
AcDbLine
 62
7
  6
CONTINUOUS
 10
522.8844038093
 20
237.723115107
 11
522.8843768968
 21
238.7194122388
  0
LINE
  5
318
100
AcDbEntity
  8
0
100
AcDbLine
 62
7
  6
CONTINUOUS
 10
522.9088138968
 20
367.2650122388
 11
522.9088138968
 21
366.3150122388
  0
LINE
  5
319
100
AcDbEntity
  8
0
100
AcDbLine
 62
7
  6
CONTINUOUS
 10
522.9088138968
 20
237.7694122388
 11
522.9087872017
 21
238.7657092234
  0
LINE
  5
31A
100
AcDbEntity
  8
0
100
AcDbLine
 62
7
  6
CONTINUOUS
 10
522.9422263968
 20
370.0454292388
 11
522.9422263968
 21
234.9889952388
  0
LINE
  5
31B
100
AcDbEntity
  8
0
100
AcDbLine
 62
7
  6
CONTINUOUS
 10
523.7746913968
 20
325.4939107388
 11
523.7746913968
 21
279.9953862388
  0
LINE
  5
31C
100
AcDbEntity
  8
0
100
AcDbLine
 62
7
  6
CONTINUOUS
 10
530.3312913968
 20
230.1672122388
 11
530.3312913968
 21
374.8672122388
  0
LWPOLYLINE
  5
31D
100
AcDbEntity
  8
0
100
AcDbPolyline
 62
7
  6
CONTINUOUS
 90
4
 70
0
 10
522.8843769595
 20
367.2650123143
 10
522.8845134884
 20
367.3693306033
 10
522.8849474964
 20
367.4763283161
 10
522.8856684483
 20
367.5781176206
  0
LWPOLYLINE
  5
31E
100
AcDbEntity
  8
0
100
AcDbPolyline
 62
7
  6
CONTINUOUS
 90
4
 70
0
 10
522.9088140504
 20
366.3150123141
 10
522.9086775215
 20
366.2106940258
 10
522.9082435134
 20
366.1036963121
 10
522.9075225615
 20
366.0019070066
  0
LWPOLYLINE
  5
31F
100
AcDbEntity
  8
0
100
AcDbPolyline
 62
7
  6
CONTINUOUS
 90
12
 70
0
 10
522.8856684483
 20
367.5781176206
 10
522.8869786618
 20
367.6967068147
 10
522.8882758072
 20
367.7775978587
 10
522.8897777293
 20
367.8458765632
 10
522.8912733094
 20
367.8951099847
 10
522.8926483198
 20
367.927479862
 10
522.8930469717
 20
367.9348413613
 10
522.8941770841
 20
367.9511623385
 10
522.8950881722
 20
367.9596628577
 10
522.8957742795
 20
367.9634263997
 10
522.8962504026
 20
367.964729877
 10
522.8965960105
 20
367.9650091878
  0
LWPOLYLINE
  5
320
100
AcDbEntity
  8
0
100
AcDbPolyline
 62
7
  6
CONTINUOUS
 90
12
 70
0
 10
522.9075225615
 20
366.0019070066
 10
522.906212348
 20
365.8833178139
 10
522.9049152026
 20
365.80242677
 10
522.9034132805
 20
365.734148065
 10
522.9019177004
 20
365.684914643
 10
522.90054269
 20
365.6525447655
 10
522.9001440381
 20
365.6451832665
 10
522.8990139258
 20
365.6288622891
 10
522.8981028376
 20
365.6203617698
 10
522.8974167304
 20
365.6165982276
 10
522.8969406072
 20
365.6152947502
 10
522.8965949993
 20
365.6150154394
  0
LWPOLYLINE
  5
321
100
AcDbEntity
  8
0
100
AcDbPolyline
 62
7
  6
CONTINUOUS
 90
16
 70
0
 10
522.8965955049
 20
239.4194121638
 10
522.8962508766
 20
239.4191321695
 10
522.8957756029
 20
239.4178258494
 10
522.8950909907
 20
239.4140563771
 10
522.8941830446
 20
239.4055589091
 10
522.8930590304
 20
239.389298152
 10
522.8917461945
 20
239.361652291
 10
522.8902957493
 20
239.3187827974
 10
522.8900438308
 20
239.3098325963
 10
522.8885312859
 20
239.2447072568
 10
522.8875710335
 20
239.1906316324
 10
522.8864167093
 20
239.1058575704
 10
522.8855197705
 20
239.0142559034
 10
522.8848822142
 20
238.9180884807
 10
522.8845025149
 20
238.8192958387
 10
522.8843769599
 20
238.7194121638
  0
LWPOLYLINE
  5
322
100
AcDbEntity
  8
0
100
AcDbPolyline
 62
7
  6
CONTINUOUS
 90
16
 70
0
 10
522.8965955042
 20
237.0694121638
 10
522.8969401325
 20
237.0696921582
 10
522.8974154062
 20
237.0709984782
 10
522.8981000184
 20
237.0747679506
 10
522.8990079645
 20
237.0832654186
 10
522.9001319788
 20
237.0995261759
 10
522.9014448149
 20
237.1271720372
 10
522.9028952602
 20
237.170041531
 10
522.9031471788
 20
237.1789917315
 10
522.9046597239
 20
237.2441170705
 10
522.9056199765
 20
237.2981926954
 10
522.906774301
 20
237.3829667574
 10
522.9076712401
 20
237.4745684244
 10
522.9083087966
 20
237.570735847
 10
522.9086884961
 20
237.669528489
 10
522.9088140512
 20
237.7694121638
  0
LWPOLYLINE
  5
323
100
AcDbEntity
  8
0
100
AcDbPolyline
 62
7
  6
CONTINUOUS
 90
6
 70
0
 43
0.3499999985
 10
447.5878585205
 20
392.0258137207
 10
448.6592814331
 20
392.0258137207
 10
448.8735352173
 20
392.2400675049
 10
448.8735352173
 20
393.3114904175
 10
448.4449763184
 20
393.740100647
 10
448.0164174194
 20
393.740100647
  0
LWPOLYLINE
  5
324
100
AcDbEntity
  8
0
100
AcDbPolyline
 62
7
  6
CONTINUOUS
 90
3
 70
0
 43
0.3499999985
 10
457.0164109497
 20
392.6686777344
 10
455.5164291382
 20
392.6686777344
 10
456.1592418213
 20
395.0257773438
  0
LWPOLYLINE
  5
325
100
AcDbEntity
  8
0
100
AcDbPolyline
 62
7
  6
CONTINUOUS
 90
8
 70
0
 43
0.3499999985
 10
274.0236090088
 20
399.8756432495
 10
274.8807524719
 20
399.8756432495
 10
275.3093113708
 20
400.304253479
 10
275.3093113708
 20
401.1613712769
 10
274.8807524719
 20
401.5899301758
 10
274.0236090088
 20
401.5899301758
 10
274.0236090088
 20
402.8756582031
 10
275.3093113708
 20
402.8756582031
  0
LWPOLYLINE
  5
326
100
AcDbEntity
  8
0
100
AcDbPolyline
 62
7
  6
CONTINUOUS
 90
3
 70
0
 43
0.3499999985
 10
271.4521786194
 20
400.5185072632
 10
269.9521711426
 20
400.5185072632
 10
270.5950351562
 20
402.8756582031
  0
LWPOLYLINE
  5
327
100
AcDbEntity
  8
0
100
AcDbPolyline
 62
7
  6
CONTINUOUS
 90
14
 70
0
 10
522.8965949993
 20
365.6150154394
 10
522.8962493919
 20
365.6152961758
 10
522.8957728398
 20
365.616603324
 10
522.8950862469
 20
365.6203748419
 10
522.894174679
 20
365.6288896634
 10
522.8930775943
 20
365.6446533443
 10
522.8917585309
 20
365.6721993243
 10
522.8902953514
 20
365.715251607
 10
522.8887667285
 20
365.7776116488
 10
522.8882151348
 20
365.805657214
 10
522.8869276754
 20
365.8870441045
 10
522.8859216928
 20
365.9744284656
 10
522.8851227128
 20
366.0742898681
 10
522.8846062469
 20
366.1800813968
  0
LWPOLYLINE
  5
328
100
AcDbEntity
  8
0
100
AcDbPolyline
 62
7
  6
CONTINUOUS
 90
14
 70
0
 10
522.8965960105
 20
367.9650091878
 10
522.8969416179
 20
367.9647284513
 10
522.89741817
 20
367.963421303
 10
522.898104763
 20
367.9596497849
 10
522.8990163308
 20
367.9511349629
 10
522.9001134156
 20
367.9353712822
 10
522.901432479
 20
367.9078253024
 10
522.9028956584
 20
367.8647730198
 10
522.9044242813
 20
367.8024129787
 10
522.904975875
 20
367.7743674138
 10
522.9062633344
 20
367.6929805229
 10
522.907269317
 20
367.6055961618
 10
522.908068297
 20
367.5057347597
 10
522.908584763
 20
367.3999432312
  0
LWPOLYLINE
  5
329
100
AcDbEntity
  8
0
100
AcDbPolyline
 62
7
  6
CONTINUOUS
 90
5
 70
0
 43
0.3499999985
 10
543.8087504883
 20
298.0172178345
 10
543.5944453735
 20
298.3743502502
 10
542.9515813599
 20
298.3743502502
 10
542.5230224609
 20
298.0172178345
 10
542.5230224609
 20
297.1600743713
  0
LWPOLYLINE
  5
32A
100
AcDbEntity
  8
0
100
AcDbPolyline
 62
7
  6
CONTINUOUS
 90
3
 70
0
 43
0.3499999985
 10
544.8801734009
 20
307.0172113647
 10
544.8801734009
 20
305.5172038879
 10
542.5230224609
 20
306.1600679016
  0
LWPOLYLINE
  5
32B
100
AcDbEntity
  8
0
100
AcDbPolyline
 62
7
  6
CONTINUOUS
 90
6
 70
0
 43
0.3499999985
 10
545.5230374146
 20
297.1600743713
 10
545.5230374146
 20
298.2314972839
 10
545.3087322998
 20
298.4457767334
 10
544.2373093872
 20
298.4457767334
 10
543.8087504883
 20
298.0172178345
 10
543.8087504883
 20
297.5886332703
  0
LWPOLYLINE
  5
32C
100
AcDbEntity
  8
0
100
AcDbPolyline
 62
7
  6
CONTINUOUS
 90
8
 70
0
 43
0.3499999985
 10
545.5230374146
 20
301.6600711365
 10
545.5230374146
 20
302.5172145996
 10
545.0944785156
 20
302.9457734985
 10
544.2373093872
 20
302.9457734985
 10
543.8087504883
 20
302.5172145996
 10
543.8087504883
 20
301.6600711365
 10
542.5230224609
 20
301.6600711365
 10
542.5230224609
 20
302.9457734985
  0
ARC
  5
32D
100
AcDbEntity
  8
0
100
AcDbCircle
 62
7
  6
CONTINUOUS
 10
294.7453368968
 20
238.9138947388
 40
50.0
100
AcDbArc
 50
184.504912
 51
193.385528
  0
ARC
  5
32E
100
AcDbEntity
  8
0
100
AcDbCircle
 62
7
  6
CONTINUOUS
 10
231.5458998968
 20
230.1619112388
 40
14.8514735
100
AcDbArc
 50
355.301404
 51
0.020451
  0
ARC
  5
32F
100
AcDbEntity
  8
0
100
AcDbCircle
 62
7
  6
CONTINUOUS
 10
233.2504558968
 20
230.0293597388
 40
13.1417205
100
AcDbArc
 50
352.760979
 51
355.268614
  0
ARC
  5
330
100
AcDbEntity
  8
0
100
AcDbCircle
 62
7
  6
CONTINUOUS
 10
235.0307868968
 20
229.8021887388
 40
11.346921
100
AcDbArc
 50
350.298255
 51
352.766142
  0
ARC
  5
331
100
AcDbEntity
  8
0
100
AcDbCircle
 62
7
  6
CONTINUOUS
 10
237.1302683968
 20
229.4403007388
 40
9.2164345
100
AcDbArc
 50
347.523005
 51
350.316341
  0
ARC
  5
332
100
AcDbEntity
  8
0
100
AcDbCircle
 62
7
  6
CONTINUOUS
 10
247.6474063968
 20
238.7194122388
 40
0.7
100
AcDbArc
 50
0.0
 51
180.0
  0
ARC
  5
333
100
AcDbEntity
  8
0
100
AcDbCircle
 62
7
  6
CONTINUOUS
 10
247.6474063968
 20
237.7694122388
 40
0.7
100
AcDbArc
 50
180.0
 51
360.0
  0
ARC
  5
334
100
AcDbEntity
  8
0
100
AcDbCircle
 62
7
  6
CONTINUOUS
 10
244.8378213968
 20
238.7311092388
 40
0.625
100
AcDbArc
 50
90.0
 51
270.0
  0
ARC
  5
335
100
AcDbEntity
  8
0
100
AcDbCircle
 62
7
  6
CONTINUOUS
 10
294.7453368968
 20
366.1205297388
 40
50.0
100
AcDbArc
 50
166.614472
 51
175.495088
  0
ARC
  5
336
100
AcDbEntity
  8
0
100
AcDbCircle
 62
7
  6
CONTINUOUS
 10
231.5707828968
 20
374.8735252388
 40
14.826589
100
AcDbArc
 50
359.975605
 51
4.702576
  0
ARC
  5
337
100
AcDbEntity
  8
0
100
AcDbCircle
 62
7
  6
CONTINUOUS
 10
233.2482758968
 20
375.0048352388
 40
13.1439125
100
AcDbArc
 50
4.7316
 51
7.238817
  0
ARC
  5
338
100
AcDbEntity
  8
0
100
AcDbCircle
 62
7
  6
CONTINUOUS
 10
235.0273653968
 20
375.2317247388
 40
11.3503795
100
AcDbArc
 50
7.234241
 51
9.701375
  0
ARC
  5
339
100
AcDbEntity
  8
0
100
AcDbCircle
 62
7
  6
CONTINUOUS
 10
237.1259633968
 20
375.5932792388
 40
9.2208205
100
AcDbArc
 50
9.684333
 51
12.47634
  0
ARC
  5
33A
100
AcDbEntity
  8
0
100
AcDbCircle
 62
7
  6
CONTINUOUS
 10
247.6498068968
 20
367.4924487388
 40
0.75
100
AcDbArc
 50
200.523492
 51
338.455633
  0
ARC
  5
33B
100
AcDbEntity
  8
0
100
AcDbCircle
 62
7
  6
CONTINUOUS
 10
247.6474063968
 20
367.2650122388
 40
0.7
100
AcDbArc
 50
0.0
 51
180.0
  0
ARC
  5
33C
100
AcDbEntity
  8
0
100
AcDbCircle
 62
7
  6
CONTINUOUS
 10
247.6474063968
 20
366.3150122388
 40
0.7
100
AcDbArc
 50
180.0
 51
360.0
  0
ARC
  5
33D
100
AcDbEntity
  8
0
100
AcDbCircle
 62
7
  6
CONTINUOUS
 10
379.1300913968
 20
230.1672122388
 40
4.0
100
AcDbArc
 50
180.0
 51
270.0
  0
ARC
  5
33E
100
AcDbEntity
  8
0
100
AcDbCircle
 62
7
  6
CONTINUOUS
 10
452.7306033968
 20
238.5172122388
 40
3.1
100
AcDbArc
 50
263.128219
 51
276.871781
  0
ARC
  5
33F
100
AcDbEntity
  8
0
100
AcDbCircle
 62
7
  6
CONTINUOUS
 10
452.7306033968
 20
238.7446482388
 40
2.529214
100
AcDbArc
 50
198.563065
 51
341.432945
  0
ARC
  5
340
100
AcDbEntity
  8
0
100
AcDbCircle
 62
7
  6
CONTINUOUS
 10
452.7306033968
 20
238.7446482388
 40
2.4637575
100
AcDbArc
 50
14.370033
 51
16.35211
  0
ARC
  5
341
100
AcDbEntity
  8
0
100
AcDbCircle
 62
7
  6
CONTINUOUS
 10
452.7306033968
 20
238.7446482388
 40
2.4637575
100
AcDbArc
 50
340.924968
 51
344.97907
  0
ARC
  5
342
100
AcDbEntity
  8
0
100
AcDbCircle
 62
7
  6
CONTINUOUS
 10
452.7306033968
 20
238.7446482388
 40
2.45
100
AcDbArc
 50
14.452489
 51
163.64377
  0
ARC
  5
343
100
AcDbEntity
  8
0
100
AcDbCircle
 62
7
  6
CONTINUOUS
 10
452.7306033968
 20
238.7446482388
 40
2.45
100
AcDbArc
 50
195.107268
 51
344.888613
  0
ARC
  5
344
100
AcDbEntity
  8
0
100
AcDbCircle
 62
7
  6
CONTINUOUS
 10
452.7306033968
 20
238.7446482388
 40
2.099747
100
AcDbArc
 50
16.930314
 51
57.679638
  0
ARC
  5
345
100
AcDbEntity
  8
0
100
AcDbCircle
 62
7
  6
CONTINUOUS
 10
452.7306033968
 20
238.7446482388
 40
2.099747
100
AcDbArc
 50
302.320362
 51
342.295887
  0
ARC
  5
346
100
AcDbEntity
  8
0
100
AcDbCircle
 62
7
  6
CONTINUOUS
 10
452.7306033968
 20
238.5172122388
 40
2.05
100
AcDbArc
 50
24.155999
 51
43.072781
  0
ARC
  5
347
100
AcDbEntity
  8
0
100
AcDbCircle
 62
7
  6
CONTINUOUS
 10
452.7306033968
 20
238.5172122388
 40
2.05
100
AcDbArc
 50
136.927219
 51
155.844001
  0
ARC
  5
348
100
AcDbEntity
  8
0
100
AcDbCircle
 62
7
  6
CONTINUOUS
 10
452.7306033968
 20
238.7446482388
 40
2.05
100
AcDbArc
 50
17.354089
 51
47.029721
  0
ARC
  5
349
100
AcDbEntity
  8
0
100
AcDbCircle
 62
7
  6
CONTINUOUS
 10
452.7306033968
 20
238.7446482388
 40
2.05
100
AcDbArc
 50
312.970291
 51
341.851554
  0
ARC
  5
34A
100
AcDbEntity
  8
0
100
AcDbCircle
 62
7
  6
CONTINUOUS
 10
452.7304438968
 20
238.7806362388
 40
2.045142
100
AcDbArc
 50
46.574813
 51
56.93894
  0
ARC
  5
34B
100
AcDbEntity
  8
0
100
AcDbCircle
 62
7
  6
CONTINUOUS
 10
452.7304438968
 20
238.7086607388
 40
2.045142
100
AcDbArc
 50
303.06106
 51
313.425187
  0
ARC
  5
34C
100
AcDbEntity
  8
0
100
AcDbCircle
 62
7
  6
CONTINUOUS
 10
452.7294313968
 20
238.6036822388
 40
2.036147
100
AcDbArc
 50
41.811702
 51
53.698847
  0
ARC
  5
34D
100
AcDbEntity
  8
0
100
AcDbCircle
 62
7
  6
CONTINUOUS
 10
438.4806913968
 20
238.6894777388
 40
0.75
100
AcDbArc
 50
90.0
 51
270.0
  0
ARC
  5
34E
100
AcDbEntity
  8
0
100
AcDbCircle
 62
7
  6
CONTINUOUS
 10
441.2306913968
 20
238.6894777388
 40
0.75
100
AcDbArc
 50
62.728121
 51
90.0
  0
ARC
  5
34F
100
AcDbEntity
  8
0
100
AcDbCircle
 62
7
  6
CONTINUOUS
 10
441.2306913968
 20
238.6894777388
 40
0.75
100
AcDbArc
 50
270.0
 51
308.938311
  0
ARC
  5
350
100
AcDbEntity
  8
0
100
AcDbCircle
 62
7
  6
CONTINUOUS
 10
439.7596398968
 20
238.7311092388
 40
0.625
100
AcDbArc
 50
90.0
 51
270.0
  0
ARC
  5
351
100
AcDbEntity
  8
0
100
AcDbCircle
 62
7
  6
CONTINUOUS
 10
383.2306913968
 20
235.6894777388
 40
0.25
100
AcDbArc
 50
180.0
 51
270.0
  0
ARC
  5
352
100
AcDbEntity
  8
0
100
AcDbCircle
 62
7
  6
CONTINUOUS
 10
382.6871168968
 20
279.9949592388
 40
1.0003675
100
AcDbArc
 50
179.975559
 51
269.975615
  0
ARC
  5
353
100
AcDbEntity
  8
0
100
AcDbCircle
 62
7
  6
CONTINUOUS
 10
452.7306913968
 20
240.4394777388
 40
7.5
100
AcDbArc
 50
198.126477
 51
199.471221
  0
ARC
  5
354
100
AcDbEntity
  8
0
100
AcDbCircle
 62
7
  6
CONTINUOUS
 10
452.7306913968
 20
240.4394777388
 40
7.5
100
AcDbArc
 50
340.528779
 51
341.873523
  0
ARC
  5
355
100
AcDbEntity
  8
0
100
AcDbCircle
 62
7
  6
CONTINUOUS
 10
452.7306913968
 20
240.4394777388
 40
7.5
100
AcDbArc
 50
351.694628
 51
188.305372
  0
ARC
  5
356
100
AcDbEntity
  8
0
100
AcDbCircle
 62
7
  6
CONTINUOUS
 10
526.3312913968
 20
230.1672122388
 40
4.0
100
AcDbArc
 50
270.0
 51
360.0
  0
ARC
  5
357
100
AcDbEntity
  8
0
100
AcDbCircle
 62
7
  6
CONTINUOUS
 10
452.7307793968
 20
238.7446482388
 40
2.4637575
100
AcDbArc
 50
16.35211
 51
165.625871
  0
ARC
  5
358
100
AcDbEntity
  8
0
100
AcDbCircle
 62
7
  6
CONTINUOUS
 10
452.7307793968
 20
238.7446482388
 40
2.4637575
100
AcDbArc
 50
195.02093
 51
199.075032
  0
ARC
  5
359
100
AcDbEntity
  8
0
100
AcDbCircle
 62
7
  6
CONTINUOUS
 10
452.7307793968
 20
238.7446482388
 40
2.45
100
AcDbArc
 50
163.64789
 51
165.547511
  0
ARC
  5
35A
100
AcDbEntity
  8
0
100
AcDbCircle
 62
7
  6
CONTINUOUS
 10
452.7307793968
 20
238.7446482388
 40
2.099747
100
AcDbArc
 50
122.320362
 51
163.069686
  0
ARC
  5
35B
100
AcDbEntity
  8
0
100
AcDbCircle
 62
7
  6
CONTINUOUS
 10
452.7307793968
 20
238.7446482388
 40
2.099747
100
AcDbArc
 50
197.704113
 51
237.679638
  0
ARC
  5
35C
100
AcDbEntity
  8
0
100
AcDbCircle
 62
7
  6
CONTINUOUS
 10
452.7307793968
 20
238.7446482388
 40
2.05
100
AcDbArc
 50
198.148446
 51
227.029709
  0
ARC
  5
35D
100
AcDbEntity
  8
0
100
AcDbCircle
 62
7
  6
CONTINUOUS
 10
452.7307793968
 20
238.7446482388
 40
2.05
100
AcDbArc
 50
132.970279
 51
162.645911
  0
ARC
  5
35E
100
AcDbEntity
  8
0
100
AcDbCircle
 62
7
  6
CONTINUOUS
 10
452.7309388968
 20
238.7086607388
 40
2.045142
100
AcDbArc
 50
226.574813
 51
236.93894
  0
ARC
  5
35F
100
AcDbEntity
  8
0
100
AcDbCircle
 62
7
  6
CONTINUOUS
 10
452.7309388968
 20
238.7806362388
 40
2.045142
100
AcDbArc
 50
123.06106
 51
133.425187
  0
ARC
  5
360
100
AcDbEntity
  8
0
100
AcDbCircle
 62
7
  6
CONTINUOUS
 10
452.7317763968
 20
238.6036802388
 40
2.0361495
100
AcDbArc
 50
126.301116
 51
138.188269
  0
ARC
  5
361
100
AcDbEntity
  8
0
100
AcDbCircle
 62
7
  6
CONTINUOUS
 10
466.9806913968
 20
238.6894777388
 40
0.75
100
AcDbArc
 50
270.0
 51
90.0
  0
ARC
  5
362
100
AcDbEntity
  8
0
100
AcDbCircle
 62
7
  6
CONTINUOUS
 10
464.2306913968
 20
238.6894777388
 40
0.75
100
AcDbArc
 50
90.0
 51
117.271878
  0
ARC
  5
363
100
AcDbEntity
  8
0
100
AcDbCircle
 62
7
  6
CONTINUOUS
 10
464.2306913968
 20
238.6894777388
 40
0.75
100
AcDbArc
 50
231.061828
 51
270.0
  0
ARC
  5
364
100
AcDbEntity
  8
0
100
AcDbCircle
 62
7
  6
CONTINUOUS
 10
465.6596398968
 20
238.7311092388
 40
0.625
100
AcDbArc
 50
270.0
 51
90.0
  0
ARC
  5
365
100
AcDbEntity
  8
0
100
AcDbCircle
 62
7
  6
CONTINUOUS
 10
522.2306913968
 20
235.6894777388
 40
0.25
100
AcDbArc
 50
270.0
 51
360.0
  0
ARC
  5
366
100
AcDbEntity
  8
0
100
AcDbCircle
 62
7
  6
CONTINUOUS
 10
522.7742648968
 20
279.9949607388
 40
1.0003695
100
AcDbArc
 50
270.024423
 51
0.024373
  0
ARC
  5
367
100
AcDbEntity
  8
0
100
AcDbCircle
 62
7
  6
CONTINUOUS
 10
526.3312913968
 20
374.8672122388
 40
4.0
100
AcDbArc
 50
0.0
 51
90.0
  0
ARC
  5
368
100
AcDbEntity
  8
0
100
AcDbCircle
 62
7
  6
CONTINUOUS
 10
379.1300913968
 20
374.8672122388
 40
4.0
100
AcDbArc
 50
90.0
 51
180.0
  0
ARC
  5
369
100
AcDbEntity
  8
0
100
AcDbCircle
 62
7
  6
CONTINUOUS
 10
382.6871178968
 20
325.4943362388
 40
1.0003695
100
AcDbArc
 50
90.024423
 51
180.024373
  0
ARC
  5
36A
100
AcDbEntity
  8
0
100
AcDbCircle
 62
7
  6
CONTINUOUS
 10
522.7742658968
 20
325.4943377388
 40
1.0003675
100
AcDbArc
 50
359.975559
 51
89.975615
  0
ARC
  5
36B
100
AcDbEntity
  8
0
100
AcDbCircle
 62
7
  6
CONTINUOUS
 10
522.2306913968
 20
369.7977577388
 40
0.25
100
AcDbArc
 50
0.0
 51
90.0
  0
ARC
  5
36C
100
AcDbEntity
  8
0
100
AcDbCircle
 62
7
  6
CONTINUOUS
 10
383.2306913968
 20
369.7977577388
 40
0.25
100
AcDbArc
 50
90.0
 51
180.0
  0
ENDSEC
  0
SECTION
  2
OBJECTS
  0
DICTIONARY
  5
C
100
AcDbDictionary
280
0
281
1
  3
ACAD_GROUP
350
D
  3
ACAD_MLINESTYLE
350
17
  3
ACAD_LAYOUT
350
1A
  3
ACAD_PLOTSETTINGS
350
19
  3
ACAD_PLOTSTYLENAME
350
E
  0
DICTIONARY
  5
D
102
{ACAD_REACTORS
330
C
102
}
100
AcDbDictionary
280
0
281
1
  0
ACDBDICTIONARYWDFLT
  5
E
102
{ACAD_REACTORS
330
C
102
}
100
AcDbDictionary
281
1
  3
Normal
350
F
100
AcDbDictionaryWithDefault
340
F
  0
DICTIONARY
  5
17
102
{ACAD_REACTORS
330
C
102
}
100
AcDbDictionary
280
0
281
1
  3
Standard
350
18
  0
DICTIONARY
  5
19
102
{ACAD_REACTORS
330
C
102
}
100
AcDbDictionary
281
1
  0
DICTIONARY
  5
1A
102
{ACAD_REACTORS
330
C
102
}
100
AcDbDictionary
281
1
  3
Model
350
36D
  3
Layout1
350
36E
  0
ACDBPLACEHOLDER
  5
F
102
{ACAD_REACTORS
330
E
102
}
  0
MLINESTYLE
  5
18
102
{ACAD_REACTORS
330
17
102
}
100
AcDbMlineStyle
  2
STANDARD
 70
0
  3

 62
256
 51
90.0
 52
90.0
 71
2
 49
0.5
 62
256
  6
BYLAYER
 49
-0.5
 62
256
  6
BYLAYER
  0
LAYOUT
  5
36D
102
{ACAD_REACTORS
330
1A
102
}
100
AcDbPlotSettings
  1

  2
none_device
  4
ISO_A1_(594.00_x_841.00_MM)
  6

 40
0.0
 41
0.0
 42
0.0
 43
0.0
 44
841.0
 45
594.0
 46
0.0
 47
0.0
 48
0.0
 49
0.0
140
0.0
141
0.0
142
1.0
143
1.0
 70
1024
 72
1
 73
0
 74
0
  7

 75
0
147
1.0
148
0.0
149
0.0
100
AcDbLayout
  1
Model
 70
0
 71
0
 10
0.0
 20
0.0
 11
841.0
 21
594.0
 12
0.0
 22
0.0
 32
0.0
 14
0.0
 24
0.0
 34
0.0
 15
0.0
 25
0.0
 35
0.0
146
0.0
 13
0.0
 23
0.0
 33
0.0
 16
1.0
 26
0.0
 36
0.0
 17
0.0
 27
1.0
 37
0.0
 76
0
330
210
345
0
346
0
  0
LAYOUT
  5
36E
102
{ACAD_REACTORS
330
1A
102
}
100
AcDbPlotSettings
  1

  2
none_device
  4
ISO_A1_(594.00_x_841.00_MM)
  6

 40
0.0
 41
0.0
 42
0.0
 43
0.0
 44
841.0
 45
594.0
 46
0.0
 47
0.0
 48
0.0
 49
0.0
140
0.0
141
0.0
142
1.0
143
1.0
 70
0
 72
1
 73
0
 74
0
  7

 75
0
147
1.0
148
0.0
149
0.0
100
AcDbLayout
  1
Layout1
 70
0
 71
1
 10
0.0
 20
0.0
 11
841.0
 21
594.0
 12
0.0
 22
0.0
 32
0.0
 14
0.0
 24
0.0
 34
0.0
 15
0.0
 25
0.0
 35
0.0
146
0.0
 13
0.0
 23
0.0
 33
0.0
 16
1.0
 26
0.0
 36
0.0
 17
0.0
 27
1.0
 37
0.0
 76
0
330
211
345
0
346
0
  0
ENDSEC
  0
EOF
