  0
SECTION
  2
HEADER
  9
$ACADVER
  1
AC1021
  9
$DWGCODEPAGE
  3
ANSI_1252
  9
$EXTMAX
 10
297.0
 20
210.0
 30
0.0
  9
$EXTMIN
 10
0.0
 20
0.0
 30
0.0
  9
$LIMMIN
 10
0.0
 20
0.0
  9
$LIMMAX
 10
297.0
 20
210.0
  9
$VIEWCTR
 10
148.5
 20
105.0
  9
$VIEWSIZE
 40
210.0
  9
$CLAYER
  8
0
  9
$LTSCALE
 40
16.335
  9
$CELTYPE
  6
BYLAYER
  9
$DIMSCALE
 40
1.0
  9
$DIMASZ
 40
3.0
  9
$DIMEXO
 40
0.5
  9
$DIMDLI
 40
11.286
  9
$DIMEXE
 40
1.5
  9
$DIMCEN
 40
2.673
  9
$DIMLFAC
 40
1.0
  9
$DIMBLK
  1
_FILLED
  9
$DIMALT
 70
0
  9
$DIMALTF
 40
25.4
  9
$DIMTXT
 40
3.0
  9
$DIMTOL
 70
1
  9
$DIMLIM
 70
0
  9
$DIMTFAC
 40
1.0
  9
$DIMTP
 40
0.01
  9
$DIMTM
 40
0.01
  9
$DIMGAP
 40
0.625
  9
$DIMDSEP
 70
44
  9
$AUNITS
 70
0
  9
$PDMODE
 70
3
  9
$PDSIZE
 40
3.0
  9
$HANDSEED
  5
2EB
  9
$TILEMODE
 70
1
  9
$MEASUREMENT
 70
1
  9
$INSUNITS
 70
4
  0
ENDSEC
  0
SECTION
  2
CLASSES
  0
CLASS
  1
ACDBDICTIONARYWDFLT
  2
AcDbDictionaryWithDefault
  3
AutoCAD 2000
 90
0
 91
1
280
0
281
0
  0
CLASS
  1
ACDBPLACEHOLDER
  2
AcDbPlaceHolder
  3
AutoCAD 2000
 90
0
 91
1
280
0
281
0
  0
CLASS
  1
LAYOUT
  2
AcDbLayout
  3
AutoCAD 2000
 90
0
 91
0
280
0
281
0
  0
ENDSEC
  0
SECTION
  2
TABLES
  0
TABLE
  2
VPORT
  5
8
100
AcDbSymbolTable
 70
2
  0
VPORT
  5
1F4
100
AcDbSymbolTableRecord
100
AcDbViewportTableRecord
  2
*ACTIVE
 70
0
 10
0.0
 20
0.0
 11
1.0
 21
1.0
 12
148.5
 22
105.0
 13
0.0
 23
0.0
 14
1.0
 24
1.0
 15
0.0
 25
0.0
 16
0.0
 26
0.0
 36
1.0
 17
0.0
 27
0.0
 37
0.0
 40
210.0
 41
1.4142857143
 42
50.0
 43
0.0
 44
0.0
 50
0.0
 51
0.0
 71
0
 72
100
 73
1
 74
1
 75
0
 76
0
 77
0
 78
0
  0
ENDTAB
  0
TABLE
  2
LTYPE
  5
5
100
AcDbSymbolTable
 70
6
  0
LTYPE
  5
14
100
AcDbSymbolTableRecord
100
AcDbLinetypeTableRecord
  2
BYBLOCK
 70
0
  3

 72
65
 73
0
 40
0.0
  0
LTYPE
  5
15
100
AcDbSymbolTableRecord
100
AcDbLinetypeTableRecord
  2
BYLAYER
 70
0
  3

 72
65
 73
0
 40
0.0
  0
LTYPE
  5
16
100
AcDbSymbolTableRecord
100
AcDbLinetypeTableRecord
  2
CONTINUOUS
 70
64
  3
Solid line
 72
65
 73
0
 40
0.0
  0
LTYPE
  5
1F5
100
AcDbSymbolTableRecord
100
AcDbLinetypeTableRecord
  2
CENTER
 70
64
  3
____ _ ____ _ ____ _ ____ _ ____ _ ____ _ ____
 72
65
 73
4
 40
0.6
 49
0.375
 74
0
 49
-0.075
 74
0
 49
0.075
 74
0
 49
-0.075
 74
0
  0
LTYPE
  5
1F6
100
AcDbSymbolTableRecord
100
AcDbLinetypeTableRecord
  2
HIDDEN
 70
64
  3
- - - - - - - - - - - - - - - - - - - -
 72
65
 73
2
 40
0.2
 49
0.1
 74
0
 49
-0.1
 74
0
  0
LTYPE
  5
1F7
100
AcDbSymbolTableRecord
100
AcDbLinetypeTableRecord
  2
PHANTOM
 70
64
  3
_____ _ _ _____ _ _ _____ _ _ _____
 72
65
 73
6
 40
0.8
 49
0.45
 74
0
 49
-0.05
 74
0
 49
0.1
 74
0
 49
-0.05
 74
0
 49
0.1
 74
0
 49
-0.05
 74
0
  0
LTYPE
  5
1F8
100
AcDbSymbolTableRecord
100
AcDbLinetypeTableRecord
  2
DOT
 70
64
  3
. . . . . . . . . . . . . . . . . . . .
 72
65
 73
2
 40
0.2
 49
0.1
 74
0
 49
-0.1
 74
0
  0
LTYPE
  5
1F9
100
AcDbSymbolTableRecord
100
AcDbLinetypeTableRecord
  2
DASHED
 70
64
  3
- - - - - - - - - - - - - - - - - - - -
 72
65
 73
2
 40
0.2
 49
0.1
 74
0
 49
-0.1
 74
0
  0
ENDTAB
  0
TABLE
  2
LAYER
  5
2
100
AcDbSymbolTable
 70
36
  0
LAYER
  5
10
100
AcDbSymbolTableRecord
100
AcDbLayerTableRecord
  2
0
 70
0
 62
7
  6
CONTINUOUS
370
-3
390
F
  0
LAYER
  5
1FA
100
AcDbSymbolTableRecord
100
AcDbLayerTableRecord
  2
DEFAULT_1
 70
0
 62
7
  6
CENTER
370
-3
390
F
  0
LAYER
  5
1FB
100
AcDbSymbolTableRecord
100
AcDbLayerTableRecord
  2
DEFAULT_2
 70
0
 62
7
  6
HIDDEN
370
-3
390
F
  0
LAYER
  5
1FC
100
AcDbSymbolTableRecord
100
AcDbLayerTableRecord
  2
DEFAULT_3
 70
0
 62
7
  6
PHANTOM
370
-3
390
F
  0
LAYER
  5
1FD
100
AcDbSymbolTableRecord
100
AcDbLayerTableRecord
  2
ASSI
 70
0
 62
7
  6
CONTINUOUS
370
-3
390
F
  0
LAYER
  5
1FE
100
AcDbSymbolTableRecord
100
AcDbLayerTableRecord
  2
COORDINATE
 70
0
 62
7
  6
CONTINUOUS
370
-3
390
F
  0
LAYER
  5
1FF
100
AcDbSymbolTableRecord
100
AcDbLayerTableRecord
  2
COORD_ORIGINE
 70
0
 62
7
  6
CONTINUOUS
370
-3
390
F
  0
LAYER
  5
200
100
AcDbSymbolTableRecord
100
AcDbLayerTableRecord
  2
COPY_PUBLISH
 70
0
 62
7
  6
CONTINUOUS
370
-3
390
F
  0
LAYER
  5
201
100
AcDbSymbolTableRecord
100
AcDbLayerTableRecord
  2
COSMETICHE
 70
0
 62
7
  6
CONTINUOUS
370
-3
390
F
  0
LAYER
  5
202
100
AcDbSymbolTableRecord
100
AcDbLayerTableRecord
  2
COSMETICI
 70
0
 62
7
  6
CONTINUOUS
370
-3
390
F
  0
LAYER
  5
203
100
AcDbSymbolTableRecord
100
AcDbLayerTableRecord
  2
CURVE
 70
0
 62
7
  6
CONTINUOUS
370
-3
390
F
  0
LAYER
  5
204
100
AcDbSymbolTableRecord
100
AcDbLayerTableRecord
  2
DRAFT
 70
0
 62
7
  6
CONTINUOUS
370
-3
390
F
  0
LAYER
  5
205
100
AcDbSymbolTableRecord
100
AcDbLayerTableRecord
  2
IMPORT_IGES
 70
0
 62
7
  6
CONTINUOUS
370
-3
390
F
  0
LAYER
  5
206
100
AcDbSymbolTableRecord
100
AcDbLayerTableRecord
  2
NONE
 70
0
 62
7
  6
CONTINUOUS
370
-3
390
F
  0
LAYER
  5
207
100
AcDbSymbolTableRecord
100
AcDbLayerTableRecord
  2
NOTE
 70
0
 62
7
  6
CONTINUOUS
370
-3
390
F
  0
LAYER
  5
208
100
AcDbSymbolTableRecord
100
AcDbLayerTableRecord
  2
PIANI
 70
0
 62
7
  6
CONTINUOUS
370
-3
390
F
  0
LAYER
  5
209
100
AcDbSymbolTableRecord
100
AcDbLayerTableRecord
  2
PIANI_ORIGINE
 70
0
 62
7
  6
CONTINUOUS
370
-3
390
F
  0
LAYER
  5
20A
100
AcDbSymbolTableRecord
100
AcDbLayerTableRecord
  2
PUNTI
 70
0
 62
7
  6
CONTINUOUS
370
-3
390
F
  0
LAYER
  5
20B
100
AcDbSymbolTableRecord
100
AcDbLayerTableRecord
  2
RACCORDO
 70
0
 62
7
  6
CONTINUOUS
370
-3
390
F
  0
LAYER
  5
20C
100
AcDbSymbolTableRecord
100
AcDbLayerTableRecord
  2
SIMBOLI
 70
0
 62
7
  6
CONTINUOUS
370
-3
390
F
  0
LAYER
  5
20D
100
AcDbSymbolTableRecord
100
AcDbLayerTableRecord
  2
SMUSSO
 70
0
 62
7
  6
CONTINUOUS
370
-3
390
F
  0
LAYER
  5
20E
100
AcDbSymbolTableRecord
100
AcDbLayerTableRecord
  2
SNAPLINE
 70
0
 62
7
  6
CONTINUOUS
370
-3
390
F
  0
LAYER
  5
20F
100
AcDbSymbolTableRecord
100
AcDbLayerTableRecord
  2
SUPERFICI
 70
0
 62
7
  6
CONTINUOUS
370
-3
390
F
  0
LAYER
  5
210
100
AcDbSymbolTableRecord
100
AcDbLayerTableRecord
  2
TRASH
 70
0
 62
7
  6
CONTINUOUS
370
-3
390
F
  0
ENDTAB
  0
TABLE
  2
STYLE
  5
3
100
AcDbSymbolTable
 70
1
  0
STYLE
  5
11
100
AcDbSymbolTableRecord
100
AcDbTextStyleTableRecord
  2
STANDARD
 70
0
 40
0.0
 41
0.8
 50
0.0
 71
0
 42
0.2
  3
txt
  4

  0
STYLE
  5
211
100
AcDbSymbolTableRecord
100
AcDbTextStyleTableRecord
  2
TEXTSTYLE_1
 70
0
 40
0.0
 41
0.8
 50
0.0
 71
0
 42
0.2
  3
gdt
  4

  0
ENDTAB
  0
TABLE
  2
VIEW
  5
6
100
AcDbSymbolTable
 70
0
  0
ENDTAB
  0
TABLE
  2
UCS
  5
7
100
AcDbSymbolTable
 70
0
  0
ENDTAB
  0
TABLE
  2
APPID
  5
9
100
AcDbSymbolTable
 70
1
  0
APPID
  5
212
100
AcDbSymbolTableRecord
100
AcDbRegAppTableRecord
  2
ACAD
 70
0
  0
ENDTAB
  0
TABLE
  2
BLOCK_RECORD
  5
1
100
AcDbSymbolTable
 70
0
  0
BLOCK_RECORD
  5
213
100
AcDbSymbolTableRecord
100
AcDbBlockTableRecord
  2
*Model_Space
  0
BLOCK_RECORD
  5
214
100
AcDbSymbolTableRecord
100
AcDbBlockTableRecord
  2
*Paper_Space
  0
BLOCK_RECORD
  5
215
100
AcDbSymbolTableRecord
100
AcDbBlockTableRecord
  2
_FILLED
  0
BLOCK_RECORD
  5
216
100
AcDbSymbolTableRecord
100
AcDbBlockTableRecord
  2
*D0
  0
BLOCK_RECORD
  5
217
100
AcDbSymbolTableRecord
100
AcDbBlockTableRecord
  2
*D1
  0
BLOCK_RECORD
  5
218
100
AcDbSymbolTableRecord
100
AcDbBlockTableRecord
  2
*D2
  0
BLOCK_RECORD
  5
219
100
AcDbSymbolTableRecord
100
AcDbBlockTableRecord
  2
*D3
  0
BLOCK_RECORD
  5
21A
100
AcDbSymbolTableRecord
100
AcDbBlockTableRecord
  2
*D4
  0
BLOCK_RECORD
  5
21B
100
AcDbSymbolTableRecord
100
AcDbBlockTableRecord
  2
*D5
  0
ENDTAB
  0
TABLE
  2
DIMSTYLE
  5
A
100
AcDbSymbolTable
 70
1
100
AcDbDimStyleTable
 71
0
  0
DIMSTYLE
105
21C
100
AcDbSymbolTableRecord
100
AcDbDimStyleTableRecord
  2
STANDARD
 70
0
  3

  4

 40
1.0
 41
3.0
 42
0.5
 43
0.38
 44
1.5
 45
0.0
 46
0.0
 47
0.01
 48
0.01
140
3.0
141
0.09
142
0.0
143
25.4
144
1.0
145
0.0
146
1.0
147
0.625
 71
1.0
 72
0.0
 73
0
 74
0
 75
0
 76
0
 77
1
 78
8
170
0
171
1
172
0
173
0
174
0
175
0
176
0
177
0
178
0
270
2
271
2
272
2
273
2
274
2
275
0
280
0
281
0
282
0
283
1
284
8
285
0
286
0
287
3
288
0
340
11
278
44
341
215
342
215
343
215
344
215
  0
DIMSTYLE
105
21D
100
AcDbSymbolTableRecord
100
AcDbDimStyleTableRecord
  2
DIMSTYLE_1
 70
0
  3

  4

 40
1.0
 41
3.0
 42
0.5
 43
0.38
 44
1.5
 45
0.0
 46
0.0
 47
0.0
 48
0.0
140
3.0
141
0.09
142
0.0
143
25.4
144
1.0
145
0.0
146
1.0
147
0.75
 71
0.0
 72
0.0
 73
0
 74
0
 75
0
 76
0
 77
1
 78
8
170
0
171
1
172
0
173
0
174
0
175
0
176
0
177
0
178
0
270
2
271
2
272
2
273
2
274
2
275
0
280
0
281
0
282
0
283
1
284
8
285
0
286
0
287
3
288
0
340
11
278
44
341
215
342
215
343
215
344
215
  0
ENDTAB
  0
ENDSEC
  0
SECTION
  2
BLOCKS
  0
BLOCK
  5
20
100
AcDbEntity
  8
0
100
AcDbBlockBegin
  2
*Model_Space
 70
0
 10
0.0
 20
0.0
 30
0.0
  3
*Model_Space
  1

  0
ENDBLK
  5
21
100
AcDbEntity
  8
0
100
AcDbBlockEnd
  0
BLOCK
  5
1C
100
AcDbEntity
  8
0
100
AcDbBlockBegin
  2
*Paper_Space
 70
0
 10
0.0
 20
0.0
 30
0.0
  3
*Paper_Space
  1

  0
ENDBLK
  5
1D
100
AcDbEntity
  8
0
100
AcDbBlockEnd
  0
BLOCK
  5
21E
100
AcDbEntity
  8
0
100
AcDbBlockBegin
  2
_FILLED
 70
64
 10
0.0
 20
0.0
  3
_FILLED
  1

  0
SOLID
  5
21F
100
AcDbEntity
  8
0
  6
BYBLOCK
 62
0
100
AcDbTrace
 10
0.0
 20
0.0
 11
-1.0
 21
0.3166666667
 12
-1.0
 22
-0.3166666667
 13
-1.0
 23
-0.3166666667
  0
ENDBLK
  5
220
100
AcDbEntity
  8
0
  6
BYBLOCK
 62
0
100
AcDbBlockEnd
  0
BLOCK
  5
221
100
AcDbEntity
  8
0
100
AcDbBlockBegin
 62
7
  6
CONTINUOUS
  2
*D0
 70
65
 10
0.0
 20
0.0
  3
*D0
  1

  0
MTEXT
  5
222
100
AcDbEntity
  8
0
100
AcDbMText
 62
7
  6
CONTINUOUS
  7
STANDARD
 71
2
 72
1
 10
0.4171289063
 20
72.3708203125
 30
0.0
 11
1.0
 21
0.0
 31
0.0
 44
0.9
  1
101
 40
3.0
 41
8.6785714286
  0
LINE
  5
223
100
AcDbEntity
  8
0
100
AcDbLine
 62
7
  6
CONTINUOUS
 10
-50.0828710937
 20
45.6208203125
 11
-50.0828710937
 21
70.1208203125
  0
LINE
  5
224
100
AcDbEntity
  8
0
100
AcDbLine
 62
7
  6
CONTINUOUS
 10
50.9171289063
 20
45.6208203125
 11
50.9171289063
 21
70.1208203125
  0
LINE
  5
225
100
AcDbEntity
  8
0
100
AcDbLine
 62
7
  6
CONTINUOUS
 10
-50.0828710937
 20
68.6208203125
 11
0.4171289063
 21
68.6208203125
  0
LINE
  5
226
100
AcDbEntity
  8
0
100
AcDbLine
 62
7
  6
CONTINUOUS
 10
50.9171289063
 20
68.6208203125
 11
0.4171289063
 21
68.6208203125
  0
INSERT
  5
227
100
AcDbEntity
  8
0
100
AcDbBlockReference
 62
7
  6
CONTINUOUS
  2
_FILLED
 10
-50.0828710937
 20
68.6208203125
 41
3.0
 42
3.0
 43
3.0
 50
180.0
  0
INSERT
  5
228
100
AcDbEntity
  8
0
100
AcDbBlockReference
 62
7
  6
CONTINUOUS
  2
_FILLED
 10
50.9171289063
 20
68.6208203125
 41
3.0
 42
3.0
 43
3.0
  0
ENDBLK
  5
229
100
AcDbEntity
  8
0
  6
BYBLOCK
 62
0
100
AcDbBlockEnd
  0
BLOCK
  5
22A
100
AcDbEntity
  8
0
100
AcDbBlockBegin
 62
7
  6
CONTINUOUS
  2
*D1
 70
65
 10
0.0
 20
0.0
  3
*D1
  1

  0
MTEXT
  5
22B
100
AcDbEntity
  8
0
100
AcDbMText
 62
7
  6
CONTINUOUS
  7
STANDARD
 71
2
 72
1
 10
57.1671289063
 20
0.1208203125
 30
0.0
 11
0.0
 21
1.0
 31
0.0
 44
0.9
  1
101
 40
3.0
 41
8.6785714286
  0
LINE
  5
22C
100
AcDbEntity
  8
0
100
AcDbLine
 62
7
  6
CONTINUOUS
 10
45.9171289063
 20
50.6208203125
 11
62.4171289063
 21
50.6208203125
  0
LINE
  5
22D
100
AcDbEntity
  8
0
100
AcDbLine
 62
7
  6
CONTINUOUS
 10
45.9171289063
 20
-50.3791796875
 11
62.4171289063
 21
-50.3791796875
  0
LINE
  5
22E
100
AcDbEntity
  8
0
100
AcDbLine
 62
7
  6
CONTINUOUS
 10
60.9171289063
 20
50.6208203125
 11
60.9171289063
 21
0.1208203125
  0
LINE
  5
22F
100
AcDbEntity
  8
0
100
AcDbLine
 62
7
  6
CONTINUOUS
 10
60.9171289063
 20
-50.3791796875
 11
60.9171289063
 21
0.1208203125
  0
INSERT
  5
230
100
AcDbEntity
  8
0
100
AcDbBlockReference
 62
7
  6
CONTINUOUS
  2
_FILLED
 10
60.9171289063
 20
50.6208203125
 41
3.0
 42
3.0
 43
3.0
 50
90.0
  0
INSERT
  5
231
100
AcDbEntity
  8
0
100
AcDbBlockReference
 62
7
  6
CONTINUOUS
  2
_FILLED
 10
60.9171289063
 20
-50.3791796875
 41
3.0
 42
3.0
 43
3.0
 50
270.0
  0
ENDBLK
  5
232
100
AcDbEntity
  8
0
  6
BYBLOCK
 62
0
100
AcDbBlockEnd
  0
BLOCK
  5
233
100
AcDbEntity
  8
0
100
AcDbBlockBegin
 62
7
  6
CONTINUOUS
  2
*D2
 70
65
 10
0.0
 20
0.0
  3
*D2
  1

  0
MTEXT
  5
234
100
AcDbEntity
  8
0
100
AcDbMText
 62
7
  6
CONTINUOUS
  7
STANDARD
 71
2
 72
1
 10
0.4171289063
 20
64.3708203125
 30
0.0
 11
1.0
 21
0.0
 31
0.0
 44
0.9
  1
84
 40
3.0
 41
7.0714285714
  0
LINE
  5
235
100
AcDbEntity
  8
0
100
AcDbLine
 62
7
  6
CONTINUOUS
 10
-41.5828710937
 20
0.6208203125
 11
-41.5828710937
 21
62.1208203125
  0
LINE
  5
236
100
AcDbEntity
  8
0
100
AcDbLine
 62
7
  6
CONTINUOUS
 10
42.4171289063
 20
0.6208203125
 11
42.4171289063
 21
62.1208203125
  0
LINE
  5
237
100
AcDbEntity
  8
0
100
AcDbLine
 62
7
  6
CONTINUOUS
 10
-41.5828710937
 20
60.6208203125
 11
0.4171289063
 21
60.6208203125
  0
LINE
  5
238
100
AcDbEntity
  8
0
100
AcDbLine
 62
7
  6
CONTINUOUS
 10
42.4171289063
 20
60.6208203125
 11
0.4171289063
 21
60.6208203125
  0
INSERT
  5
239
100
AcDbEntity
  8
0
100
AcDbBlockReference
 62
7
  6
CONTINUOUS
  2
_FILLED
 10
-41.5828710937
 20
60.6208203125
 41
3.0
 42
3.0
 43
3.0
 50
180.0
  0
INSERT
  5
23A
100
AcDbEntity
  8
0
100
AcDbBlockReference
 62
7
  6
CONTINUOUS
  2
_FILLED
 10
42.4171289063
 20
60.6208203125
 41
3.0
 42
3.0
 43
3.0
  0
ENDBLK
  5
23B
100
AcDbEntity
  8
0
  6
BYBLOCK
 62
0
100
AcDbBlockEnd
  0
BLOCK
  5
23C
100
AcDbEntity
  8
0
100
AcDbBlockBegin
 62
7
  6
CONTINUOUS
  2
*D3
 70
65
 10
0.0
 20
0.0
  3
*D3
  1

  0
MTEXT
  5
23D
100
AcDbEntity
  8
0
100
AcDbMText
 62
7
  6
CONTINUOUS
  7
STANDARD
 71
2
 72
1
 10
-148.5419921875
 20
72.3708203125
 30
0.0
 11
1.0
 21
0.0
 31
0.0
 44
0.9
  1
61,4
 40
3.0
 41
12.2142857143
  0
LINE
  5
23E
100
AcDbEntity
  8
0
100
AcDbLine
 62
7
  6
CONTINUOUS
 10
-179.2419921875
 20
45.6208203125
 11
-179.2419921875
 21
70.1208203125
  0
LINE
  5
23F
100
AcDbEntity
  8
0
100
AcDbLine
 62
7
  6
CONTINUOUS
 10
-117.8419921875
 20
45.6208203125
 11
-117.8419921875
 21
70.1208203125
  0
LINE
  5
240
100
AcDbEntity
  8
0
100
AcDbLine
 62
7
  6
CONTINUOUS
 10
-179.2419921875
 20
68.6208203125
 11
-148.5419921875
 21
68.6208203125
  0
LINE
  5
241
100
AcDbEntity
  8
0
100
AcDbLine
 62
7
  6
CONTINUOUS
 10
-117.8419921875
 20
68.6208203125
 11
-148.5419921875
 21
68.6208203125
  0
INSERT
  5
242
100
AcDbEntity
  8
0
100
AcDbBlockReference
 62
7
  6
CONTINUOUS
  2
_FILLED
 10
-179.2419921875
 20
68.6208203125
 41
3.0
 42
3.0
 43
3.0
 50
180.0
  0
INSERT
  5
243
100
AcDbEntity
  8
0
100
AcDbBlockReference
 62
7
  6
CONTINUOUS
  2
_FILLED
 10
-117.8419921875
 20
68.6208203125
 41
3.0
 42
3.0
 43
3.0
  0
ENDBLK
  5
244
100
AcDbEntity
  8
0
  6
BYBLOCK
 62
0
100
AcDbBlockEnd
  0
BLOCK
  5
245
100
AcDbEntity
  8
0
100
AcDbBlockBegin
 62
7
  6
CONTINUOUS
  2
*D4
 70
65
 10
0.0
 20
0.0
  3
*D4
  1

  0
MTEXT
  5
246
100
AcDbEntity
  8
0
100
AcDbMText
 62
7
  6
CONTINUOUS
  7
STANDARD
 71
2
 72
1
 10
-147.8419921875
 20
64.3708203125
 30
0.0
 11
1.0
 21
0.0
 31
0.0
 44
0.9
  1
60
 40
3.0
 41
7.0714285714
  0
LINE
  5
247
100
AcDbEntity
  8
0
100
AcDbLine
 62
7
  6
CONTINUOUS
 10
-177.8419921875
 20
51.1208203125
 11
-177.8419921875
 21
62.1208203125
  0
LINE
  5
248
100
AcDbEntity
  8
0
100
AcDbLine
 62
7
  6
CONTINUOUS
 10
-117.8419921875
 20
45.6208203125
 11
-117.8419921875
 21
62.1208203125
  0
LINE
  5
249
100
AcDbEntity
  8
0
100
AcDbLine
 62
7
  6
CONTINUOUS
 10
-177.8419921875
 20
60.6208203125
 11
-147.8419921875
 21
60.6208203125
  0
LINE
  5
24A
100
AcDbEntity
  8
0
100
AcDbLine
 62
7
  6
CONTINUOUS
 10
-117.8419921875
 20
60.6208203125
 11
-147.8419921875
 21
60.6208203125
  0
INSERT
  5
24B
100
AcDbEntity
  8
0
100
AcDbBlockReference
 62
7
  6
CONTINUOUS
  2
_FILLED
 10
-177.8419921875
 20
60.6208203125
 41
3.0
 42
3.0
 43
3.0
 50
180.0
  0
INSERT
  5
24C
100
AcDbEntity
  8
0
100
AcDbBlockReference
 62
7
  6
CONTINUOUS
  2
_FILLED
 10
-117.8419921875
 20
60.6208203125
 41
3.0
 42
3.0
 43
3.0
  0
ENDBLK
  5
24D
100
AcDbEntity
  8
0
  6
BYBLOCK
 62
0
100
AcDbBlockEnd
  0
BLOCK
  5
24E
100
AcDbEntity
  8
0
100
AcDbBlockBegin
 62
7
  6
CONTINUOUS
  2
*D5
 70
65
 10
0.0
 20
0.0
  3
*D5
  1

  0
MTEXT
  5
24F
100
AcDbEntity
  8
0
100
AcDbMText
 62
7
  6
CONTINUOUS
  7
STANDARD
 71
2
 72
1
 10
-111.5919921875
 20
0.1208203125
 30
0.0
 11
0.0
 21
1.0
 31
0.0
 44
0.9
  1
100
 40
3.0
 41
9.6428571429
  0
LINE
  5
250
100
AcDbEntity
  8
0
100
AcDbLine
 62
7
  6
CONTINUOUS
 10
-122.3419921875
 20
50.1208203125
 11
-106.3419921875
 21
50.1208203125
  0
LINE
  5
251
100
AcDbEntity
  8
0
100
AcDbLine
 62
7
  6
CONTINUOUS
 10
-122.3419921875
 20
-49.8791796875
 11
-106.3419921875
 21
-49.8791796875
  0
LINE
  5
252
100
AcDbEntity
  8
0
100
AcDbLine
 62
7
  6
CONTINUOUS
 10
-107.8419921875
 20
50.1208203125
 11
-107.8419921875
 21
0.1208203125
  0
LINE
  5
253
100
AcDbEntity
  8
0
100
AcDbLine
 62
7
  6
CONTINUOUS
 10
-107.8419921875
 20
-49.8791796875
 11
-107.8419921875
 21
0.1208203125
  0
INSERT
  5
254
100
AcDbEntity
  8
0
100
AcDbBlockReference
 62
7
  6
CONTINUOUS
  2
_FILLED
 10
-107.8419921875
 20
50.1208203125
 41
3.0
 42
3.0
 43
3.0
 50
90.0
  0
INSERT
  5
255
100
AcDbEntity
  8
0
100
AcDbBlockReference
 62
7
  6
CONTINUOUS
  2
_FILLED
 10
-107.8419921875
 20
-49.8791796875
 41
3.0
 42
3.0
 43
3.0
 50
270.0
  0
ENDBLK
  5
256
100
AcDbEntity
  8
0
  6
BYBLOCK
 62
0
100
AcDbBlockEnd
  0
ENDSEC
  0
SECTION
  2
ENTITIES
  0
DIMENSION
  5
257
100
AcDbEntity
  8
0
100
AcDbDimension
 62
7
  6
CONTINUOUS
  2
*D0
 10
50.9171289063
 20
68.6208203125
 11
-0.0114425225
 21
68.6208203125
 70
160
 71
2
 42
101.0
  3
DIMSTYLE_1
100
AcDbAlignedDimension
 13
-50.0828710937
 23
45.1208203125
 14
50.9171289063
 24
45.1208203125
100
AcDbRotatedDimension
  0
DIMENSION
  5
258
100
AcDbEntity
  8
0
100
AcDbDimension
 62
7
  6
CONTINUOUS
  2
*D1
 10
60.9171289063
 20
-50.3791796875
 11
60.9171289063
 21
-0.3077499041
 70
160
 71
2
 42
101.0
  3
DIMSTYLE_1
100
AcDbAlignedDimension
 13
45.4171289063
 23
50.6208203125
 14
45.4171289063
 24
-50.3791796875
 50
270.0
100
AcDbRotatedDimension
  0
DIMENSION
  5
259
100
AcDbEntity
  8
0
100
AcDbDimension
 62
7
  6
CONTINUOUS
  2
*D2
 10
42.4171289063
 20
60.6208203125
 11
-0.0114425225
 21
60.6208203125
 70
160
 71
2
 42
84.0
  3
DIMSTYLE_1
100
AcDbAlignedDimension
 13
-41.5828710937
 23
0.1208203125
 14
42.4171289063
 24
0.1208203125
100
AcDbRotatedDimension
  0
DIMENSION
  5
25A
100
AcDbEntity
  8
0
100
AcDbDimension
 62
7
  6
CONTINUOUS
  2
*D3
 10
-117.8419921875
 20
68.6208203125
 11
-148.9705657196
 21
68.6208203125
 70
160
 71
2
 42
61.4
  3
DIMSTYLE_1
100
AcDbAlignedDimension
 13
-179.2419921875
 23
45.1208203125
 14
-117.8419921875
 24
45.1208203125
100
AcDbRotatedDimension
  0
DIMENSION
  5
25B
100
AcDbEntity
  8
0
100
AcDbDimension
 62
7
  6
CONTINUOUS
  2
*D4
 10
-117.8419921875
 20
60.6208203125
 11
-148.270565506
 21
60.6208203125
 70
160
 71
2
 42
60.0
  3
DIMSTYLE_1
100
AcDbAlignedDimension
 13
-177.8419921875
 23
50.6208203125
 14
-117.8419921875
 24
45.1208203125
100
AcDbRotatedDimension
  0
DIMENSION
  5
25C
100
AcDbEntity
  8
0
100
AcDbDimension
 62
7
  6
CONTINUOUS
  2
*D5
 10
-107.8419921875
 20
-49.8791796875
 11
-107.8419921875
 21
-0.3077504054
 70
160
 71
2
 42
100.0
  3
DIMSTYLE_1
100
AcDbAlignedDimension
 13
-122.8419921875
 23
50.1208203125
 14
-122.8419921875
 24
-49.8791796875
 50
270.0
100
AcDbRotatedDimension
  0
LINE
  5
25D
100
AcDbEntity
  8
RACCORDO
100
AcDbLine
 62
7
  6
CONTINUOUS
 10
-50.0828710937
 20
45.1208203125
 11
-50.0828710937
 21
-44.8791796875
  0
LINE
  5
25E
100
AcDbEntity
  8
RACCORDO
100
AcDbLine
 62
7
  6
CONTINUOUS
 10
-44.5828710937
 20
-50.3791796875
 11
45.4171289063
 21
-50.3791796875
  0
LINE
  5
25F
100
AcDbEntity
  8
0
100
AcDbLine
 62
7
  6
CONTINUOUS
 10
-43.1742894857
 20
0.4708203125
 11
-43.1742894857
 21
-0.2291796875
  0
LINE
  5
260
100
AcDbEntity
  8
0
100
AcDbLine
 62
7
  6
CONTINUOUS
 10
-42.7255660384
 20
-0.2291796875
 11
-42.7255660384
 21
0.0482030738
  0
LINE
  5
261
100
AcDbEntity
  8
0
100
AcDbLine
 62
7
  6
CONTINUOUS
 10
-42.7255660384
 20
0.1934375512
 11
-42.7255660384
 21
0.4708203125
  0
LINE
  5
262
100
AcDbEntity
  8
0
100
AcDbLine
 62
7
  6
CONTINUOUS
 10
-41.9328710937
 20
-1.8054437398
 11
-41.9328710937
 21
-0.9693746242
  0
LINE
  5
263
100
AcDbEntity
  8
0
100
AcDbLine
 62
7
  6
CONTINUOUS
 10
-41.9328710937
 20
1.2110152492
 11
-41.9328710937
 21
2.0470843648
  0
LINE
  5
264
100
AcDbEntity
  8
0
100
AcDbLine
 62
7
  6
CONTINUOUS
 10
-41.2328710937
 20
-1.8054437398
 11
-41.2328710937
 21
-0.9693746242
  0
LINE
  5
265
100
AcDbEntity
  8
0
100
AcDbLine
 62
7
  6
CONTINUOUS
 10
-41.2328710937
 20
1.2110152492
 11
-41.2328710937
 21
2.0470843648
  0
LINE
  5
266
100
AcDbEntity
  8
0
100
AcDbLine
 62
7
  6
CONTINUOUS
 10
-40.4401761491
 20
-0.2291796875
 11
-40.4401761491
 21
0.0482030738
  0
LINE
  5
267
100
AcDbEntity
  8
0
100
AcDbLine
 62
7
  6
CONTINUOUS
 10
-40.4401761491
 20
0.1934375512
 11
-40.4401761491
 21
0.4708203125
  0
LINE
  5
268
100
AcDbEntity
  8
0
100
AcDbLine
 62
7
  6
CONTINUOUS
 10
-39.9914527018
 20
0.4708203125
 11
-39.9914527018
 21
-0.2291796875
  0
LINE
  5
269
100
AcDbEntity
  8
0
100
AcDbLine
 62
7
  6
CONTINUOUS
 10
-42.1025945779
 20
0.6405437967
 11
-41.9328710937
 21
1.2110152492
  0
LINE
  5
26A
100
AcDbEntity
  8
0
100
AcDbLine
 62
7
  6
CONTINUOUS
 10
-41.0631476096
 20
-0.3989031717
 11
-41.2328710937
 21
-0.9693746242
  0
LINE
  5
26B
100
AcDbEntity
  8
0
100
AcDbLine
 62
7
  6
CONTINUOUS
 10
-41.9328710937
 20
-0.9693746242
 11
-42.1025945779
 21
-0.3989031717
  0
LINE
  5
26C
100
AcDbEntity
  8
0
100
AcDbLine
 62
7
  6
CONTINUOUS
 10
-41.2328710937
 20
1.2110152492
 11
-41.0631476096
 21
0.6405437967
  0
LINE
  5
26D
100
AcDbEntity
  8
0
100
AcDbLine
 62
7
  6
CONTINUOUS
 10
-42.1025945779
 20
0.6405437967
 11
-42.6730660304
 21
0.4708203125
  0
LINE
  5
26E
100
AcDbEntity
  8
0
100
AcDbLine
 62
7
  6
CONTINUOUS
 10
-40.4926761571
 20
-0.2291796875
 11
-41.0631476096
 21
-0.3989031717
  0
LINE
  5
26F
100
AcDbEntity
  8
0
100
AcDbLine
 62
7
  6
CONTINUOUS
 10
-42.1025945779
 20
-0.3989031717
 11
-42.6730660304
 21
-0.2291796875
  0
LINE
  5
270
100
AcDbEntity
  8
0
100
AcDbLine
 62
7
  6
CONTINUOUS
 10
-40.4926761571
 20
0.4708203125
 11
-41.0631476096
 21
0.6405437967
  0
LINE
  5
271
100
AcDbEntity
  8
0
100
AcDbLine
 62
7
  6
CONTINUOUS
 10
-41.9328710937
 20
-1.0218746322
 11
-41.6554883325
 21
-1.0218746322
  0
LINE
  5
272
100
AcDbEntity
  8
0
100
AcDbLine
 62
7
  6
CONTINUOUS
 10
-41.510253855
 20
-1.0218746322
 11
-41.2328710937
 21
-1.0218746322
  0
LINE
  5
273
100
AcDbEntity
  8
0
100
AcDbLine
 62
7
  6
CONTINUOUS
 10
42.0671289063
 20
-1.0218746322
 11
42.3445116675
 21
-1.0218746322
  0
LINE
  5
274
100
AcDbEntity
  8
0
100
AcDbLine
 62
7
  6
CONTINUOUS
 10
42.489746145
 20
-1.0218746322
 11
42.7671289063
 21
-1.0218746322
  0
LINE
  5
275
100
AcDbEntity
  8
0
100
AcDbLine
 62
7
  6
CONTINUOUS
 10
45.3942003244
 20
-0.3791796875
 11
43.0031466026
 21
-0.3791796875
  0
LINE
  5
276
100
AcDbEntity
  8
0
100
AcDbLine
 62
7
  6
CONTINUOUS
 10
41.8311112099
 20
-0.3791796875
 11
39.4400574881
 21
-0.3791796875
  0
LINE
  5
277
100
AcDbEntity
  8
0
100
AcDbLine
 62
7
  6
CONTINUOUS
 10
-38.6057996756
 20
-0.3791796875
 11
-40.9968533974
 21
-0.3791796875
  0
LINE
  5
278
100
AcDbEntity
  8
0
100
AcDbLine
 62
7
  6
CONTINUOUS
 10
-42.1688887901
 20
-0.3791796875
 11
-44.5599425119
 21
-0.3791796875
  0
LINE
  5
279
100
AcDbEntity
  8
0
100
AcDbLine
 62
7
  6
CONTINUOUS
 10
-43.1742894857
 20
-0.2291796875
 11
-42.6730660304
 21
-0.2291796875
  0
LINE
  5
27A
100
AcDbEntity
  8
0
100
AcDbLine
 62
7
  6
CONTINUOUS
 10
-40.4926761571
 20
-0.2291796875
 11
-39.9914527018
 21
-0.2291796875
  0
LINE
  5
27B
100
AcDbEntity
  8
0
100
AcDbLine
 62
7
  6
CONTINUOUS
 10
40.8257105143
 20
-0.2291796875
 11
41.3269339696
 21
-0.2291796875
  0
LINE
  5
27C
100
AcDbEntity
  8
0
100
AcDbLine
 62
7
  6
CONTINUOUS
 10
43.5073238429
 20
-0.2291796875
 11
44.0085472982
 21
-0.2291796875
  0
LINE
  5
27D
100
AcDbEntity
  8
0
100
AcDbLine
 62
7
  6
CONTINUOUS
 10
-43.1742894857
 20
0.4708203125
 11
-42.6730660304
 21
0.4708203125
  0
LINE
  5
27E
100
AcDbEntity
  8
0
100
AcDbLine
 62
7
  6
CONTINUOUS
 10
-40.4926761571
 20
0.4708203125
 11
-39.9914527018
 21
0.4708203125
  0
LINE
  5
27F
100
AcDbEntity
  8
0
100
AcDbLine
 62
7
  6
CONTINUOUS
 10
40.8257105143
 20
0.4708203125
 11
41.3269339696
 21
0.4708203125
  0
LINE
  5
280
100
AcDbEntity
  8
0
100
AcDbLine
 62
7
  6
CONTINUOUS
 10
43.5073238429
 20
0.4708203125
 11
44.0085472982
 21
0.4708203125
  0
LINE
  5
281
100
AcDbEntity
  8
0
100
AcDbLine
 62
7
  6
CONTINUOUS
 10
-44.5599425119
 20
0.6208203125
 11
-42.1688887901
 21
0.6208203125
  0
LINE
  5
282
100
AcDbEntity
  8
0
100
AcDbLine
 62
7
  6
CONTINUOUS
 10
-40.9968533974
 20
0.6208203125
 11
-38.6057996756
 21
0.6208203125
  0
LINE
  5
283
100
AcDbEntity
  8
0
100
AcDbLine
 62
7
  6
CONTINUOUS
 10
39.4400574881
 20
0.6208203125
 11
41.8311112099
 21
0.6208203125
  0
LINE
  5
284
100
AcDbEntity
  8
0
100
AcDbLine
 62
7
  6
CONTINUOUS
 10
43.0031466026
 20
0.6208203125
 11
45.3942003244
 21
0.6208203125
  0
LWPOLYLINE
  5
285
100
AcDbEntity
  8
0
100
AcDbPolyline
 62
7
  6
CONTINUOUS
 90
10
 70
0
 10
-41.9328710937
 20
-1.8054437398
 10
-41.8552292458
 20
-1.807260669
 10
-41.7775194329
 20
-1.8086233659
 10
-41.6997416551
 20
-1.8095318304
 10
-41.6218506025
 20
-1.8099860627
 10
-41.543891585
 20
-1.8099860627
 10
-41.4660005324
 20
-1.8095318304
 10
-41.3882227546
 20
-1.8086233659
 10
-41.3105129417
 20
-1.807260669
 10
-41.2328710937
 20
-1.8054437398
  0
LWPOLYLINE
  5
286
100
AcDbEntity
  8
0
100
AcDbPolyline
 62
7
  6
CONTINUOUS
 90
10
 70
0
 10
42.0671289063
 20
-1.8054437398
 10
42.1447707542
 20
-1.807260669
 10
42.2224805671
 20
-1.8086233659
 10
42.3002583449
 20
-1.8095318304
 10
42.3781493975
 20
-1.8099860627
 10
42.456108415
 20
-1.8099860627
 10
42.5339994676
 20
-1.8095318304
 10
42.6117772454
 20
-1.8086233659
 10
42.6894870583
 20
-1.807260669
 10
42.7671289063
 20
-1.8054437398
  0
LINE
  5
287
100
AcDbEntity
  8
0
100
AcDbLine
 62
7
  6
CONTINUOUS
 10
-41.9328710937
 20
1.2635152572
 11
-41.6554883325
 21
1.2635152572
  0
LINE
  5
288
100
AcDbEntity
  8
0
100
AcDbLine
 62
7
  6
CONTINUOUS
 10
-41.510253855
 20
1.2635152572
 11
-41.2328710937
 21
1.2635152572
  0
LINE
  5
289
100
AcDbEntity
  8
0
100
AcDbLine
 62
7
  6
CONTINUOUS
 10
42.0671289063
 20
1.2635152572
 11
42.3445116675
 21
1.2635152572
  0
LINE
  5
28A
100
AcDbEntity
  8
0
100
AcDbLine
 62
7
  6
CONTINUOUS
 10
42.489746145
 20
1.2635152572
 11
42.7671289063
 21
1.2635152572
  0
LWPOLYLINE
  5
28B
100
AcDbEntity
  8
0
100
AcDbPolyline
 62
7
  6
CONTINUOUS
 90
10
 70
0
 10
-41.2328710937
 20
2.0470843648
 10
-41.3105129417
 20
2.048901294
 10
-41.3882227546
 20
2.0502639909
 10
-41.4660005324
 20
2.0511724554
 10
-41.543891585
 20
2.0516266877
 10
-41.6218506025
 20
2.0516266877
 10
-41.6997416551
 20
2.0511724554
 10
-41.7775194329
 20
2.0502639909
 10
-41.8552292458
 20
2.048901294
 10
-41.9328710937
 20
2.0470843648
  0
LWPOLYLINE
  5
28C
100
AcDbEntity
  8
0
100
AcDbPolyline
 62
7
  6
CONTINUOUS
 90
10
 70
0
 10
42.7671289063
 20
2.0470843648
 10
42.6894870583
 20
2.048901294
 10
42.6117772454
 20
2.0502639909
 10
42.5339994676
 20
2.0511724554
 10
42.456108415
 20
2.0516266877
 10
42.3781493975
 20
2.0516266877
 10
42.3002583449
 20
2.0511724554
 10
42.2224805671
 20
2.0502639909
 10
42.1447707542
 20
2.048901294
 10
42.0671289063
 20
2.0470843648
  0
LINE
  5
28D
100
AcDbEntity
  8
0
100
AcDbLine
 62
7
  6
CONTINUOUS
 10
41.3269339696
 20
0.4708203125
 11
41.8974054221
 21
0.6405437967
  0
LINE
  5
28E
100
AcDbEntity
  8
0
100
AcDbLine
 62
7
  6
CONTINUOUS
 10
42.9368523904
 20
-0.3989031717
 11
43.5073238429
 21
-0.2291796875
  0
LINE
  5
28F
100
AcDbEntity
  8
0
100
AcDbLine
 62
7
  6
CONTINUOUS
 10
41.3269339696
 20
-0.2291796875
 11
41.8974054221
 21
-0.3989031717
  0
LINE
  5
290
100
AcDbEntity
  8
0
100
AcDbLine
 62
7
  6
CONTINUOUS
 10
42.9368523904
 20
0.6405437967
 11
43.5073238429
 21
0.4708203125
  0
LINE
  5
291
100
AcDbEntity
  8
0
100
AcDbLine
 62
7
  6
CONTINUOUS
 10
40.8257105143
 20
0.4708203125
 11
40.8257105143
 21
-0.2291796875
  0
LINE
  5
292
100
AcDbEntity
  8
0
100
AcDbLine
 62
7
  6
CONTINUOUS
 10
41.2744339616
 20
-0.2291796875
 11
41.2744339616
 21
0.0482030738
  0
LINE
  5
293
100
AcDbEntity
  8
0
100
AcDbLine
 62
7
  6
CONTINUOUS
 10
41.2744339616
 20
0.1934375512
 11
41.2744339616
 21
0.4708203125
  0
LINE
  5
294
100
AcDbEntity
  8
0
100
AcDbLine
 62
7
  6
CONTINUOUS
 10
42.0671289063
 20
-1.8054437398
 11
42.0671289063
 21
-0.9693746242
  0
LINE
  5
295
100
AcDbEntity
  8
0
100
AcDbLine
 62
7
  6
CONTINUOUS
 10
42.0671289063
 20
1.2110152492
 11
42.0671289063
 21
2.0470843648
  0
LINE
  5
296
100
AcDbEntity
  8
0
100
AcDbLine
 62
7
  6
CONTINUOUS
 10
42.7671289063
 20
-1.8054437398
 11
42.7671289063
 21
-0.9693746242
  0
LINE
  5
297
100
AcDbEntity
  8
0
100
AcDbLine
 62
7
  6
CONTINUOUS
 10
42.7671289063
 20
1.2110152492
 11
42.7671289063
 21
2.0470843648
  0
LINE
  5
298
100
AcDbEntity
  8
0
100
AcDbLine
 62
7
  6
CONTINUOUS
 10
43.5598238509
 20
-0.2291796875
 11
43.5598238509
 21
0.0482030738
  0
LINE
  5
299
100
AcDbEntity
  8
0
100
AcDbLine
 62
7
  6
CONTINUOUS
 10
43.5598238509
 20
0.1934375512
 11
43.5598238509
 21
0.4708203125
  0
LINE
  5
29A
100
AcDbEntity
  8
0
100
AcDbLine
 62
7
  6
CONTINUOUS
 10
41.8974054221
 20
0.6405437967
 11
42.0671289063
 21
1.2110152492
  0
LINE
  5
29B
100
AcDbEntity
  8
0
100
AcDbLine
 62
7
  6
CONTINUOUS
 10
42.9368523904
 20
-0.3989031717
 11
42.7671289063
 21
-0.9693746242
  0
LINE
  5
29C
100
AcDbEntity
  8
0
100
AcDbLine
 62
7
  6
CONTINUOUS
 10
42.0671289063
 20
-0.9693746242
 11
41.8974054221
 21
-0.3989031717
  0
LINE
  5
29D
100
AcDbEntity
  8
0
100
AcDbLine
 62
7
  6
CONTINUOUS
 10
42.7671289063
 20
1.2110152492
 11
42.9368523904
 21
0.6405437967
  0
LINE
  5
29E
100
AcDbEntity
  8
0
100
AcDbLine
 62
7
  6
CONTINUOUS
 10
44.0085472982
 20
0.4708203125
 11
44.0085472982
 21
-0.2291796875
  0
LINE
  5
29F
100
AcDbEntity
  8
RACCORDO
100
AcDbLine
 62
7
  6
CONTINUOUS
 10
50.9171289063
 20
-44.8791796875
 11
50.9171289063
 21
45.1208203125
  0
LINE
  5
2A0
100
AcDbEntity
  8
RACCORDO
100
AcDbLine
 62
7
  6
CONTINUOUS
 10
45.4171289063
 20
50.6208203125
 11
-44.5828710937
 21
50.6208203125
  0
LINE
  5
2A1
100
AcDbEntity
  8
RACCORDO
100
AcDbLine
 62
7
  6
CONTINUOUS
 10
-179.2419921875
 20
-50.3791796875
 11
-177.8419921875
 21
-50.3791796875
  0
LINE
  5
2A2
100
AcDbEntity
  8
0
100
AcDbLine
 62
7
  6
CONTINUOUS
 10
-177.8419921875
 20
-49.8791796875
 11
-122.8419921875
 21
-49.8791796875
  0
LINE
  5
2A3
100
AcDbEntity
  8
RACCORDO
100
AcDbLine
 62
253
  6
CONTINUOUS
 10
-179.2419921875
 20
-44.8791796875
 11
-177.8419921875
 21
-44.8791796875
  0
LINE
  5
2A4
100
AcDbEntity
  8
0
100
AcDbLine
 62
253
  6
CONTINUOUS
 10
-117.8419921875
 20
-44.8791796824
 11
-177.8419921875
 21
-44.8791796875
  0
LWPOLYLINE
  5
2A5
100
AcDbEntity
  8
0
100
AcDbPolyline
 62
7
  6
CONTINUOUS
 90
19
 70
0
 10
-181.6968032676
 20
-0.3989031717
 10
-181.6950989896
 20
-0.4256879374
 10
-181.6932484271
 20
-0.4526143848
 10
-181.6912515799
 20
-0.4796825139
 10
-181.6891248996
 20
-0.5067600986
 10
-181.6868519347
 20
-0.533979365
 10
-181.6843833311
 20
-0.5617369915
 10
-181.6817288116
 20
-0.5900265845
 10
-181.6788786535
 20
-0.6188545376
 10
-181.6757543342
 20
-0.6486367096
 10
-181.6723616523
 20
-0.6794104013
 10
-181.6686948092
 20
-0.7111383119
 10
-181.6646578863
 20
-0.7441243974
 10
-181.6602465378
 20
-0.7784587122
 10
-181.6554651095
 20
-0.8140512019
 10
-181.6502307198
 20
-0.8509356587
 10
-181.6445157417
 20
-0.8891233467
 10
-181.6383478022
 20
-0.9286030019
 10
-181.6317269014
 20
-0.9693746242
  0
LWPOLYLINE
  5
2A6
100
AcDbEntity
  8
0
100
AcDbPolyline
 62
7
  6
CONTINUOUS
 90
19
 70
0
 10
-181.6317269014
 20
1.2110152492
 10
-181.6384308744
 20
1.1696999506
 10
-181.644664621
 20
1.1297662896
 10
-181.6504281414
 20
1.0912142661
 10
-181.6556911573
 20
1.0540617985
 10
-181.660483947
 20
1.0182909684
 10
-181.6648973448
 20
0.9838480212
 10
-181.6689279149
 20
0.9508223588
 10
-181.6725790932
 20
0.9191245793
 10
-181.6759520217
 20
0.8884327212
 10
-181.6790526967
 20
0.8587889423
 10
-181.681875122
 20
0.8301510848
 10
-181.6845024507
 20
0.8020707145
 10
-181.6869450836
 20
0.7745411335
 10
-181.6891926199
 20
0.7475690397
 10
-181.6912970114
 20
0.7207260931
 10
-181.693275575
 20
0.6938695138
 10
-181.6951109938
 20
0.6671420816
 10
-181.6968032676
 20
0.6405437967
  0
LINE
  5
2A7
100
AcDbEntity
  8
0
100
AcDbLine
 62
253
  6
CONTINUOUS
 10
-180.9898679741
 20
-2.7877531743
 11
-180.9898679741
 21
-0.3791796875
  0
LINE
  5
2A8
100
AcDbEntity
  8
0
100
AcDbLine
 62
253
  6
CONTINUOUS
 10
-180.9898679741
 20
0.6208203125
 11
-180.9898679741
 21
3.0293937993
  0
LINE
  5
2A9
100
AcDbEntity
  8
0
100
AcDbLine
 62
253
  6
CONTINUOUS
 10
-180.8323699298
 20
-2.8900396643
 11
-180.8323699298
 21
-0.3791796875
  0
LINE
  5
2AA
100
AcDbEntity
  8
0
100
AcDbLine
 62
253
  6
CONTINUOUS
 10
-180.8323699298
 20
0.6208203125
 11
-180.8323699298
 21
3.1316802893
  0
LINE
  5
2AB
100
AcDbEntity
  8
0
100
AcDbLine
 62
7
  6
CONTINUOUS
 10
-180.7419921875
 20
0.6208203125
 11
-180.7419921875
 21
-0.3791796875
  0
LINE
  5
2AC
100
AcDbEntity
  8
RACCORDO
100
AcDbLine
 62
7
  6
CONTINUOUS
 10
-179.2419921875
 20
-50.3791796875
 11
-179.2419921875
 21
50.6208203125
  0
LINE
  5
2AD
100
AcDbEntity
  8
RACCORDO
100
AcDbLine
 62
7
  6
CONTINUOUS
 10
-177.8419921875
 20
-50.3791796875
 11
-177.8419921875
 21
50.6208203125
  0
LWPOLYLINE
  5
2AE
100
AcDbEntity
  8
0
100
AcDbPolyline
 62
7
  6
CONTINUOUS
 90
7
 70
0
 10
-181.6923353087
 20
-0.3791796875
 10
-181.6931361087
 20
-0.382467363
 10
-181.6939144526
 20
-0.3857548673
 10
-181.6946703405
 20
-0.3890422003
 10
-181.6954037723
 20
-0.392329362
 10
-181.696114748
 20
-0.3956163525
 10
-181.6968032676
 20
-0.3989031717
  0
LWPOLYLINE
  5
2AF
100
AcDbEntity
  8
0
100
AcDbPolyline
 62
7
  6
CONTINUOUS
 90
7
 70
0
 10
-181.6968032676
 20
0.6405437967
 10
-181.6961150063
 20
0.6372581178
 10
-181.6954041856
 20
0.6339718115
 10
-181.6946708054
 20
0.6306848778
 10
-181.6939148659
 20
0.6273973168
 10
-181.693136367
 20
0.6241091283
 10
-181.6923353087
 20
0.6208203125
  0
LINE
  5
2B0
100
AcDbEntity
  8
0
100
AcDbLine
 62
253
  6
CONTINUOUS
 10
-176.8419921875
 20
-10.1471288799
 11
-176.8419921875
 21
10.3887695049
  0
LINE
  5
2B1
100
AcDbEntity
  8
0
100
AcDbLine
 62
7
  6
CONTINUOUS
 10
-176.5419921875
 20
13.6372465923
 11
-176.5419921875
 21
10.6019982503
  0
LINE
  5
2B2
100
AcDbEntity
  8
0
100
AcDbLine
 62
7
  6
CONTINUOUS
 10
-176.5419921875
 20
-10.3603576253
 11
-176.5419921875
 21
-13.3956059673
  0
LINE
  5
2B3
100
AcDbEntity
  8
0
100
AcDbLine
 62
7
  6
CONTINUOUS
 10
-181.4228130538
 20
-1.8100428418
 11
-181.4135886824
 21
-1.8054437398
  0
LINE
  5
2B4
100
AcDbEntity
  8
0
100
AcDbLine
 62
7
  6
CONTINUOUS
 10
-177.7745711575
 20
-14.3503322499
 11
-177.8419921875
 21
-14.3503322499
  0
LINE
  5
2B5
100
AcDbEntity
  8
0
100
AcDbLine
 62
7
  6
CONTINUOUS
 10
-181.4135886824
 20
2.0470843648
 11
-181.4228130538
 21
2.0516834668
  0
LINE
  5
2B6
100
AcDbEntity
  8
0
100
AcDbLine
 62
7
  6
CONTINUOUS
 10
-179.2419921875
 20
-3.0291796875
 11
-180.8323699298
 21
-2.8900396643
  0
LINE
  5
2B7
100
AcDbEntity
  8
0
100
AcDbLine
 62
7
  6
CONTINUOUS
 10
-180.7419921875
 20
-0.3791796875
 11
-181.6923353087
 21
-0.3791796875
  0
LINE
  5
2B8
100
AcDbEntity
  8
0
100
AcDbLine
 62
7
  6
CONTINUOUS
 10
-181.6923353087
 20
0.6208203125
 11
-180.7419921875
 21
0.6208203125
  0
LINE
  5
2B9
100
AcDbEntity
  8
0
100
AcDbLine
 62
7
  6
CONTINUOUS
 10
-179.2419921875
 20
3.2708203125
 11
-180.8323699298
 21
3.1316802893
  0
LINE
  5
2BA
100
AcDbEntity
  8
0
100
AcDbLine
 62
7
  6
CONTINUOUS
 10
-177.7745711575
 20
14.5919728749
 11
-177.8419921875
 21
14.5919728749
  0
LINE
  5
2BB
100
AcDbEntity
  8
0
100
AcDbLine
 62
253
  6
CONTINUOUS
 10
-122.8419921875
 20
50.1208203125
 11
-122.8419921875
 21
-49.8791796875
  0
LINE
  5
2BC
100
AcDbEntity
  8
0
100
AcDbLine
 62
7
  6
CONTINUOUS
 10
-117.8419921875
 20
-44.8791796875
 11
-117.8419921875
 21
45.1208203125
  0
LINE
  5
2BD
100
AcDbEntity
  8
RACCORDO
100
AcDbLine
 62
253
  6
CONTINUOUS
 10
-179.2419921875
 20
45.1208203125
 11
-177.8419921875
 21
45.1208203125
  0
LINE
  5
2BE
100
AcDbEntity
  8
0
100
AcDbLine
 62
253
  6
CONTINUOUS
 10
-177.8419921875
 20
45.1208203125
 11
-117.8419921875
 21
45.1208203125
  0
LINE
  5
2BF
100
AcDbEntity
  8
0
100
AcDbLine
 62
7
  6
CONTINUOUS
 10
-122.8419921875
 20
50.1208203125
 11
-177.8419921875
 21
50.1208203125
  0
LINE
  5
2C0
100
AcDbEntity
  8
RACCORDO
100
AcDbLine
 62
7
  6
CONTINUOUS
 10
-179.2419921875
 20
50.6208203125
 11
-177.8419921875
 21
50.6208203125
  0
ARC
  5
2C1
100
AcDbEntity
  8
RACCORDO
100
AcDbCircle
 62
7
  6
CONTINUOUS
 10
-44.5828710937
 20
45.1208203125
 40
5.5
100
AcDbArc
 50
90.0
 51
180.0
  0
ARC
  5
2C2
100
AcDbEntity
  8
RACCORDO
100
AcDbCircle
 62
7
  6
CONTINUOUS
 10
-44.5828710937
 20
-44.8791796875
 40
5.5
100
AcDbArc
 50
180.0
 51
270.0
  0
ARC
  5
2C3
100
AcDbEntity
  8
RACCORDO
100
AcDbCircle
 62
7
  6
CONTINUOUS
 10
45.4171289063
 20
-44.8791796875
 40
5.5
100
AcDbArc
 50
270.0
 51
360.0
  0
ARC
  5
2C4
100
AcDbEntity
  8
RACCORDO
100
AcDbCircle
 62
7
  6
CONTINUOUS
 10
45.4171289063
 20
45.1208203125
 40
5.5
100
AcDbArc
 50
0.0
 51
90.0
  0
CIRCLE
  5
2C5
100
AcDbEntity
  8
0
100
AcDbCircle
 62
7
  6
CONTINUOUS
 10
42.4171289063
 20
0.1208203125
 40
3.15
  0
CIRCLE
  5
2C6
100
AcDbEntity
  8
0
100
AcDbCircle
 62
7
  6
CONTINUOUS
 10
-41.5828710937
 20
0.1208203125
 40
3.15
  0
ARC
  5
2C7
100
AcDbEntity
  8
0
100
AcDbCircle
 62
7
  6
CONTINUOUS
 10
42.4171289063
 20
0.1208203125
 40
3.0187670047
100
AcDbArc
 50
350.4661344072
 51
9.5338655928
  0
ARC
  5
2C8
100
AcDbEntity
  8
0
100
AcDbCircle
 62
7
  6
CONTINUOUS
 10
42.4171289063
 20
0.1208203125
 40
3.0187670047
100
AcDbArc
 50
170.4661344072
 51
189.5338655928
  0
ARC
  5
2C9
100
AcDbEntity
  8
0
100
AcDbCircle
 62
7
  6
CONTINUOUS
 10
-41.5828710937
 20
0.1208203125
 40
3.0187670047
100
AcDbArc
 50
350.4661344072
 51
9.5338655928
  0
ARC
  5
2CA
100
AcDbEntity
  8
0
100
AcDbCircle
 62
7
  6
CONTINUOUS
 10
-41.5828710937
 20
0.1208203125
 40
3.0187670047
100
AcDbArc
 50
170.4661344072
 51
189.5338655928
  0
ARC
  5
2CB
100
AcDbEntity
  8
0
100
AcDbCircle
 62
253
  6
CONTINUOUS
 10
42.4171289063
 20
0.1208203125
 40
3.0108599768
100
AcDbArc
 50
189.5591377431
 51
350.4408622569
  0
ARC
  5
2CC
100
AcDbEntity
  8
0
100
AcDbCircle
 62
253
  6
CONTINUOUS
 10
42.4171289063
 20
0.1208203125
 40
3.0108599768
100
AcDbArc
 50
9.5591377431
 51
170.4408622569
  0
ARC
  5
2CD
100
AcDbEntity
  8
0
100
AcDbCircle
 62
253
  6
CONTINUOUS
 10
-41.5828710937
 20
0.1208203125
 40
3.0108599768
100
AcDbArc
 50
189.5591377431
 51
350.4408622569
  0
ARC
  5
2CE
100
AcDbEntity
  8
0
100
AcDbCircle
 62
253
  6
CONTINUOUS
 10
-41.5828710937
 20
0.1208203125
 40
3.0108599768
100
AcDbArc
 50
9.5591377431
 51
170.4408622569
  0
ARC
  5
2CF
100
AcDbEntity
  8
0
100
AcDbCircle
 62
253
  6
CONTINUOUS
 10
42.4171289063
 20
0.1208203125
 40
2.9085734868
100
AcDbArc
 50
9.8986317757
 51
170.1013682243
  0
ARC
  5
2D0
100
AcDbEntity
  8
0
100
AcDbCircle
 62
253
  6
CONTINUOUS
 10
42.4171289063
 20
0.1208203125
 40
2.9085734868
100
AcDbArc
 50
189.8986317757
 51
350.1013682243
  0
ARC
  5
2D1
100
AcDbEntity
  8
0
100
AcDbCircle
 62
253
  6
CONTINUOUS
 10
-41.5828710937
 20
0.1208203125
 40
2.9085734868
100
AcDbArc
 50
9.8986317757
 51
170.1013682243
  0
ARC
  5
2D2
100
AcDbEntity
  8
0
100
AcDbCircle
 62
253
  6
CONTINUOUS
 10
-41.5828710937
 20
0.1208203125
 40
2.9085734868
100
AcDbArc
 50
189.8986317757
 51
350.1013682243
  0
ARC
  5
2D3
100
AcDbEntity
  8
0
100
AcDbCircle
 62
7
  6
CONTINUOUS
 10
42.4171289063
 20
0.1208203125
 40
1.145
100
AcDbArc
 50
86.3637942714
 51
93.6362057286
  0
ARC
  5
2D4
100
AcDbEntity
  8
0
100
AcDbCircle
 62
7
  6
CONTINUOUS
 10
42.4171289063
 20
0.1208203125
 40
1.145
100
AcDbArc
 50
266.3637942714
 51
273.6362057286
  0
ARC
  5
2D5
100
AcDbEntity
  8
0
100
AcDbCircle
 62
7
  6
CONTINUOUS
 10
42.4171289063
 20
0.1208203125
 40
1.145
100
AcDbArc
 50
176.3637942714
 51
183.6362057286
  0
ARC
  5
2D6
100
AcDbEntity
  8
0
100
AcDbCircle
 62
7
  6
CONTINUOUS
 10
42.4171289063
 20
0.1208203125
 40
1.145
100
AcDbArc
 50
356.3637942714
 51
3.6362057286
  0
ARC
  5
2D7
100
AcDbEntity
  8
0
100
AcDbCircle
 62
7
  6
CONTINUOUS
 10
-41.5828710937
 20
0.1208203125
 40
1.145
100
AcDbArc
 50
86.3637942714
 51
93.6362057286
  0
ARC
  5
2D8
100
AcDbEntity
  8
0
100
AcDbCircle
 62
7
  6
CONTINUOUS
 10
-41.5828710937
 20
0.1208203125
 40
1.145
100
AcDbArc
 50
266.3637942714
 51
273.6362057286
  0
ARC
  5
2D9
100
AcDbEntity
  8
0
100
AcDbCircle
 62
7
  6
CONTINUOUS
 10
-41.5828710937
 20
0.1208203125
 40
1.145
100
AcDbArc
 50
176.3637942714
 51
183.6362057286
  0
ARC
  5
2DA
100
AcDbEntity
  8
0
100
AcDbCircle
 62
7
  6
CONTINUOUS
 10
-41.5828710937
 20
0.1208203125
 40
1.145
100
AcDbArc
 50
356.3637942714
 51
3.6362057286
  0
CIRCLE
  5
2DB
100
AcDbEntity
  8
0
100
AcDbCircle
 62
7
  6
CONTINUOUS
 10
-143.8419921875
 20
-22.8791796875
 40
13.5
  0
CIRCLE
  5
2DC
100
AcDbEntity
  8
0
100
AcDbCircle
 62
7
  6
CONTINUOUS
 10
-143.8419921875
 20
23.1208203125
 40
11.0
  0
ARC
  5
2DD
100
AcDbEntity
  8
0
100
AcDbCircle
 62
7
  6
CONTINUOUS
 10
-175.7419921875
 20
0.1208203125
 40
6.0
100
AcDbArc
 50
198.7724690045
 51
208.9968967074
  0
ARC
  5
2DE
100
AcDbEntity
  8
0
100
AcDbCircle
 62
7
  6
CONTINUOUS
 10
-175.7419921875
 20
0.1208203125
 40
6.0
100
AcDbArc
 50
151.0031032926
 51
161.2275309955
  0
ARC
  5
2DF
100
AcDbEntity
  8
0
100
AcDbCircle
 62
7
  6
CONTINUOUS
 10
-175.7419921875
 20
0.1208203125
 40
5.9897829677
100
AcDbArc
 50
161.2407928967
 51
169.5131945664
  0
ARC
  5
2E0
100
AcDbEntity
  8
0
100
AcDbCircle
 62
7
  6
CONTINUOUS
 10
-175.7419921875
 20
0.1208203125
 40
5.9897829677
100
AcDbArc
 50
190.4868054336
 51
198.7592071033
  0
ARC
  5
2E1
100
AcDbEntity
  8
0
100
AcDbCircle
 62
7
  6
CONTINUOUS
 10
-122.8419921875
 20
-44.8791796875
 40
5.0
100
AcDbArc
 50
270.0
 51
360.0
  0
ARC
  5
2E2
100
AcDbEntity
  8
0
100
AcDbCircle
 62
7
  6
CONTINUOUS
 10
-122.8419921875
 20
45.1208203125
 40
5.0
100
AcDbArc
 50
0.0
 51
90.0
  0
ARC
  5
2E3
100
AcDbEntity
  8
0
100
AcDbCircle
 62
7
  6
CONTINUOUS
 10
-177.8419921875
 20
12.1208203125
 40
2.0
100
AcDbArc
 50
270.0
 51
70.5287793655
  0
ARC
  5
2E4
100
AcDbEntity
  8
0
100
AcDbCircle
 62
7
  6
CONTINUOUS
 10
-177.8419921875
 20
-11.8791796875
 40
2.0
100
AcDbArc
 50
289.4712206345
 51
90.0
  0
ARC
  5
2E5
100
AcDbEntity
  8
0
100
AcDbCircle
 62
7
  6
CONTINUOUS
 10
-176.8419921875
 20
14.9492474372
 40
1.0
100
AcDbArc
 50
180.0
 51
250.5287793655
  0
ARC
  5
2E6
100
AcDbEntity
  8
0
100
AcDbCircle
 62
7
  6
CONTINUOUS
 10
-176.8419921875
 20
-14.7076068122
 40
1.0
100
AcDbArc
 50
109.4712206345
 51
180.0
  0
ARC
  5
2E7
100
AcDbEntity
  8
0
100
AcDbCircle
 62
7
  6
CONTINUOUS
 10
-180.8149387813
 20
-2.6908007247
 40
0.2
100
AcDbArc
 50
208.9968967074
 51
265.0
  0
ARC
  5
2E8
100
AcDbEntity
  8
0
100
AcDbCircle
 62
7
  6
CONTINUOUS
 10
-180.8149387813
 20
2.9324413497
 40
0.2
100
AcDbArc
 50
95.0
 51
151.0031032926
  0
ENDSEC
  0
SECTION
  2
OBJECTS
  0
DICTIONARY
  5
C
100
AcDbDictionary
280
0
281
1
  3
ACAD_GROUP
350
D
  3
ACAD_MLINESTYLE
350
17
  3
ACAD_LAYOUT
350
1A
  3
ACAD_PLOTSETTINGS
350
19
  3
ACAD_PLOTSTYLENAME
350
E
  0
DICTIONARY
  5
D
102
{ACAD_REACTORS
330
C
102
}
100
AcDbDictionary
280
0
281
1
  0
ACDBDICTIONARYWDFLT
  5
E
102
{ACAD_REACTORS
330
C
102
}
100
AcDbDictionary
281
1
  3
Normal
350
F
100
AcDbDictionaryWithDefault
340
F
  0
DICTIONARY
  5
17
102
{ACAD_REACTORS
330
C
102
}
100
AcDbDictionary
280
0
281
1
  3
Standard
350
18
  0
DICTIONARY
  5
19
102
{ACAD_REACTORS
330
C
102
}
100
AcDbDictionary
281
1
  0
DICTIONARY
  5
1A
102
{ACAD_REACTORS
330
C
102
}
100
AcDbDictionary
281
1
  3
Model
350
2E9
  3
Layout1
350
2EA
  0
ACDBPLACEHOLDER
  5
F
102
{ACAD_REACTORS
330
E
102
}
  0
MLINESTYLE
  5
18
102
{ACAD_REACTORS
330
17
102
}
100
AcDbMlineStyle
  2
STANDARD
 70
0
  3

 62
256
 51
90.0
 52
90.0
 71
2
 49
0.5
 62
256
  6
BYLAYER
 49
-0.5
 62
256
  6
BYLAYER
  0
LAYOUT
  5
2E9
102
{ACAD_REACTORS
330
1A
102
}
100
AcDbPlotSettings
  1

  2
none_device
  4
ISO_A4_(297.00_x_210.00_MM)
  6

 40
0.0
 41
0.0
 42
0.0
 43
0.0
 44
297.0
 45
210.0
 46
0.0
 47
0.0
 48
0.0
 49
0.0
140
0.0
141
0.0
142
1.0
143
1.0
 70
1024
 72
1
 73
0
 74
0
  7

 75
0
147
1.0
148
0.0
149
0.0
100
AcDbLayout
  1
Model
 70
0
 71
0
 10
0.0
 20
0.0
 11
297.0
 21
210.0
 12
0.0
 22
0.0
 32
0.0
 14
0.0
 24
0.0
 34
0.0
 15
0.0
 25
0.0
 35
0.0
146
0.0
 13
0.0
 23
0.0
 33
0.0
 16
1.0
 26
0.0
 36
0.0
 17
0.0
 27
1.0
 37
0.0
 76
0
330
213
345
0
346
0
  0
LAYOUT
  5
2EA
102
{ACAD_REACTORS
330
1A
102
}
100
AcDbPlotSettings
  1

  2
none_device
  4
ISO_A4_(297.00_x_210.00_MM)
  6

 40
0.0
 41
0.0
 42
0.0
 43
0.0
 44
297.0
 45
210.0
 46
0.0
 47
0.0
 48
0.0
 49
0.0
140
0.0
141
0.0
142
1.0
143
1.0
 70
0
 72
1
 73
0
 74
0
  7

 75
0
147
1.0
148
0.0
149
0.0
100
AcDbLayout
  1
Layout1
 70
0
 71
1
 10
0.0
 20
0.0
 11
297.0
 21
210.0
 12
0.0
 22
0.0
 32
0.0
 14
0.0
 24
0.0
 34
0.0
 15
0.0
 25
0.0
 35
0.0
146
0.0
 13
0.0
 23
0.0
 33
0.0
 16
1.0
 26
0.0
 36
0.0
 17
0.0
 27
1.0
 37
0.0
 76
0
330
214
345
0
346
0
  0
ENDSEC
  0
EOF
