  0
SECTION
  2
HEADER
  9
$ACADVER
  1
AC1015
  9
$DWGCODEPAGE
  3
ANSI_1252
  9
$EXTMAX
 10
297.0
 20
210.0
 30
0.0
  9
$EXTMIN
 10
0.0
 20
0.0
 30
0.0
  9
$LIMMIN
 10
0.0
 20
0.0
  9
$LIMMAX
 10
297.0
 20
210.0
  9
$VIEWCTR
 10
148.5
 20
105.0
  9
$VIEWSIZE
 40
210.0
  9
$CLAYER
  8
0
  9
$LTSCALE
 40
16.335
  9
$CELTYPE
  6
BYLAYER
  9
$DIMSCALE
 40
1.0
  9
$DIMASZ
 40
3.0
  9
$DIMEXO
 40
1.85625
  9
$DIMDLI
 40
11.286
  9
$DIMEXE
 40
5.346
  9
$DIMCEN
 40
2.673
  9
$DIMLFAC
 40
1.0
  9
$DIMBLK
  1
_FILLED
  9
$DIMTXT
 40
3.0
  9
$DIMTOL
 70
1
  9
$DIMLIM
 70
0
  9
$DIMTFAC
 40
1.0
  9
$DIMTP
 40
0.01
  9
$DIMTM
 40
0.01
  9
$PDMODE
 70
3
  9
$PDSIZE
 40
3.0
  9
$HANDSEED
  5
3AC
  9
$TILEMODE
 70
1
  9
$MEASUREMENT
 70
1
  9
$INSUNITS
 70
4
  0
ENDSEC
  0
SECTION
  2
CLASSES
  0
CLASS
  1
ACDBDICTIONARYWDFLT
  2
AcDbDictionaryWithDefault
  3
AutoCAD 2000
 90
0
280
0
281
0
  0
CLASS
  1
ACDBPLACEHOLDER
  2
AcDbPlaceHolder
  3
AutoCAD 2000
 90
0
280
0
281
0
  0
CLASS
  1
LAYOUT
  2
AcDbLayout
  3
AutoCAD 2000
 90
0
280
0
281
0
  0
ENDSEC
  0
SECTION
  2
TABLES
  0
TABLE
  2
VPORT
  5
8
100
AcDbSymbolTable
 70
2
  0
VPORT
  5
1F4
100
AcDbSymbolTableRecord
100
AcDbViewportTableRecord
  2
*ACTIVE
 70
0
 10
0.0
 20
0.0
 11
1.0
 21
1.0
 12
148.5
 22
105.0
 13
0.0
 23
0.0
 14
1.0
 24
1.0
 15
0.0
 25
0.0
 16
0.0
 26
0.0
 36
1.0
 17
0.0
 27
0.0
 37
0.0
 40
210.0
 41
1.4142857143
 42
50.0
 43
0.0
 44
0.0
 50
0.0
 51
0.0
 71
0
 72
100
 73
1
 74
1
 75
0
 76
0
 77
0
 78
0
  0
ENDTAB
  0
TABLE
  2
LTYPE
  5
5
100
AcDbSymbolTable
 70
6
  0
LTYPE
  5
14
100
AcDbSymbolTableRecord
100
AcDbLinetypeTableRecord
  2
BYBLOCK
 70
0
  3

 72
65
 73
0
 40
0.0
  0
LTYPE
  5
15
100
AcDbSymbolTableRecord
100
AcDbLinetypeTableRecord
  2
BYLAYER
 70
0
  3

 72
65
 73
0
 40
0.0
  0
LTYPE
  5
16
100
AcDbSymbolTableRecord
100
AcDbLinetypeTableRecord
  2
CONTINUOUS
 70
64
  3
Solid line
 72
65
 73
0
 40
0.0
  0
LTYPE
  5
1F5
100
AcDbSymbolTableRecord
100
AcDbLinetypeTableRecord
  2
CENTER
 70
64
  3
____ _ ____ _ ____ _ ____ _ ____ _ ____ _ ____
 72
65
 73
4
 40
0.6
 49
0.375
 74
0
 49
-0.075
 74
0
 49
0.075
 74
0
 49
-0.075
 74
0
  0
LTYPE
  5
1F6
100
AcDbSymbolTableRecord
100
AcDbLinetypeTableRecord
  2
HIDDEN
 70
64
  3
- - - - - - - - - - - - - - - - - - - -
 72
65
 73
2
 40
0.2
 49
0.1
 74
0
 49
-0.1
 74
0
  0
LTYPE
  5
1F7
100
AcDbSymbolTableRecord
100
AcDbLinetypeTableRecord
  2
PHANTOM
 70
64
  3
_____ _ _ _____ _ _ _____ _ _ _____
 72
65
 73
6
 40
0.8
 49
0.45
 74
0
 49
-0.05
 74
0
 49
0.1
 74
0
 49
-0.05
 74
0
 49
0.1
 74
0
 49
-0.05
 74
0
  0
LTYPE
  5
1F8
100
AcDbSymbolTableRecord
100
AcDbLinetypeTableRecord
  2
DOT
 70
64
  3
. . . . . . . . . . . . . . . . . . . .
 72
65
 73
2
 40
0.2
 49
0.1
 74
0
 49
-0.1
 74
0
  0
LTYPE
  5
1F9
100
AcDbSymbolTableRecord
100
AcDbLinetypeTableRecord
  2
DASHED
 70
64
  3
- - - - - - - - - - - - - - - - - - - -
 72
65
 73
2
 40
0.2
 49
0.1
 74
0
 49
-0.1
 74
0
  0
ENDTAB
  0
TABLE
  2
LAYER
  5
2
100
AcDbSymbolTable
 70
36
  0
LAYER
  5
10
100
AcDbSymbolTableRecord
100
AcDbLayerTableRecord
  2
0
 70
0
 62
7
  6
CONTINUOUS
370
-3
390
F
  0
LAYER
  5
1FA
100
AcDbSymbolTableRecord
100
AcDbLayerTableRecord
  2
DEFAULT_1
 70
0
 62
7
  6
CENTER
370
-3
390
F
  0
LAYER
  5
1FB
100
AcDbSymbolTableRecord
100
AcDbLayerTableRecord
  2
DEFAULT_2
 70
0
 62
7
  6
HIDDEN
370
-3
390
F
  0
LAYER
  5
1FC
100
AcDbSymbolTableRecord
100
AcDbLayerTableRecord
  2
DEFAULT_3
 70
0
 62
7
  6
PHANTOM
370
-3
390
F
  0
LAYER
  5
1FD
100
AcDbSymbolTableRecord
100
AcDbLayerTableRecord
  2
ASSI
 70
0
 62
7
  6
CONTINUOUS
370
-3
390
F
  0
LAYER
  5
1FE
100
AcDbSymbolTableRecord
100
AcDbLayerTableRecord
  2
COORDINATE
 70
0
 62
7
  6
CONTINUOUS
370
-3
390
F
  0
LAYER
  5
1FF
100
AcDbSymbolTableRecord
100
AcDbLayerTableRecord
  2
COORD_ORIGINE
 70
0
 62
7
  6
CONTINUOUS
370
-3
390
F
  0
LAYER
  5
200
100
AcDbSymbolTableRecord
100
AcDbLayerTableRecord
  2
COPY_PUBLISH
 70
0
 62
7
  6
CONTINUOUS
370
-3
390
F
  0
LAYER
  5
201
100
AcDbSymbolTableRecord
100
AcDbLayerTableRecord
  2
COSMETIC
 70
0
 62
7
  6
CONTINUOUS
370
-3
390
F
  0
LAYER
  5
202
100
AcDbSymbolTableRecord
100
AcDbLayerTableRecord
  2
CURVA_ASSE
 70
0
 62
7
  6
CONTINUOUS
370
-3
390
F
  0
LAYER
  5
203
100
AcDbSymbolTableRecord
100
AcDbLayerTableRecord
  2
CURVE
 70
0
 62
7
  6
CONTINUOUS
370
-3
390
F
  0
LAYER
  5
204
100
AcDbSymbolTableRecord
100
AcDbLayerTableRecord
  2
CURVE_GUIDA
 70
0
 62
7
  6
CONTINUOUS
370
-3
390
F
  0
LAYER
  5
205
100
AcDbSymbolTableRecord
100
AcDbLayerTableRecord
  2
CURVE_INC_PUNZONI
 70
0
 62
7
  6
CONTINUOUS
370
-3
390
F
  0
LAYER
  5
206
100
AcDbSymbolTableRecord
100
AcDbLayerTableRecord
  2
DRAFT
 70
0
 62
7
  6
CONTINUOUS
370
-3
390
F
  0
LAYER
  5
207
100
AcDbSymbolTableRecord
100
AcDbLayerTableRecord
  2
IMPORT_IGES
 70
0
 62
7
  6
CONTINUOUS
370
-3
390
F
  0
LAYER
  5
208
100
AcDbSymbolTableRecord
100
AcDbLayerTableRecord
  2
NOTE
 70
0
 62
7
  6
CONTINUOUS
370
-3
390
F
  0
LAYER
  5
209
100
AcDbSymbolTableRecord
100
AcDbLayerTableRecord
  2
PIANI
 70
0
 62
7
  6
CONTINUOUS
370
-3
390
F
  0
LAYER
  5
20A
100
AcDbSymbolTableRecord
100
AcDbLayerTableRecord
  2
PIANI_ORIGINE
 70
0
 62
7
  6
CONTINUOUS
370
-3
390
F
  0
LAYER
  5
20B
100
AcDbSymbolTableRecord
100
AcDbLayerTableRecord
  2
PUNTI
 70
0
 62
7
  6
CONTINUOUS
370
-3
390
F
  0
LAYER
  5
20C
100
AcDbSymbolTableRecord
100
AcDbLayerTableRecord
  2
RACCORDO
 70
0
 62
7
  6
CONTINUOUS
370
-3
390
F
  0
LAYER
  5
20D
100
AcDbSymbolTableRecord
100
AcDbLayerTableRecord
  2
SMUSSO
 70
0
 62
7
  6
CONTINUOUS
370
-3
390
F
  0
LAYER
  5
20E
100
AcDbSymbolTableRecord
100
AcDbLayerTableRecord
  2
SNAPLINE
 70
0
 62
7
  6
CONTINUOUS
370
-3
390
F
  0
LAYER
  5
20F
100
AcDbSymbolTableRecord
100
AcDbLayerTableRecord
  2
SUPERFICI
 70
0
 62
7
  6
CONTINUOUS
370
-3
390
F
  0
LAYER
  5
210
100
AcDbSymbolTableRecord
100
AcDbLayerTableRecord
  2
TRASH
 70
0
 62
7
  6
CONTINUOUS
370
-3
390
F
  0
LAYER
  5
211
100
AcDbSymbolTableRecord
100
AcDbLayerTableRecord
  2
XSEC_DATUMS
 70
0
 62
7
  6
CONTINUOUS
370
-3
390
F
  0
ENDTAB
  0
TABLE
  2
STYLE
  5
3
100
AcDbSymbolTable
 70
1
  0
STYLE
  5
11
100
AcDbSymbolTableRecord
100
AcDbTextStyleTableRecord
  2
STANDARD
 70
0
 40
0.0
 41
0.8
 50
0.0
 71
0
 42
0.2
  3
txt
  4

  0
STYLE
  5
212
100
AcDbSymbolTableRecord
100
AcDbTextStyleTableRecord
  2
TEXTSTYLE_1
 70
0
 40
0.0
 41
0.8
 50
0.0
 71
0
 42
0.2
  3
gdt
  4

  0
ENDTAB
  0
TABLE
  2
VIEW
  5
6
100
AcDbSymbolTable
 70
0
  0
ENDTAB
  0
TABLE
  2
UCS
  5
7
100
AcDbSymbolTable
 70
0
  0
ENDTAB
  0
TABLE
  2
APPID
  5
9
100
AcDbSymbolTable
 70
1
  0
APPID
  5
213
100
AcDbSymbolTableRecord
100
AcDbRegAppTableRecord
  2
ACAD
 70
0
  0
ENDTAB
  0
TABLE
  2
BLOCK_RECORD
  5
1
100
AcDbSymbolTable
 70
0
  0
BLOCK_RECORD
  5
214
100
AcDbSymbolTableRecord
100
AcDbBlockTableRecord
  2
*Model_Space
  0
BLOCK_RECORD
  5
215
100
AcDbSymbolTableRecord
100
AcDbBlockTableRecord
  2
*Paper_Space
  0
BLOCK_RECORD
  5
216
100
AcDbSymbolTableRecord
100
AcDbBlockTableRecord
  2
_FILLED
  0
BLOCK_RECORD
  5
217
100
AcDbSymbolTableRecord
100
AcDbBlockTableRecord
  2
_NONE
  0
BLOCK_RECORD
  5
218
100
AcDbSymbolTableRecord
100
AcDbBlockTableRecord
  2
*D0
  0
BLOCK_RECORD
  5
219
100
AcDbSymbolTableRecord
100
AcDbBlockTableRecord
  2
*D1
  0
BLOCK_RECORD
  5
21A
100
AcDbSymbolTableRecord
100
AcDbBlockTableRecord
  2
*D2
  0
BLOCK_RECORD
  5
21B
100
AcDbSymbolTableRecord
100
AcDbBlockTableRecord
  2
*D3
  0
BLOCK_RECORD
  5
21C
100
AcDbSymbolTableRecord
100
AcDbBlockTableRecord
  2
*D4
  0
BLOCK_RECORD
  5
21D
100
AcDbSymbolTableRecord
100
AcDbBlockTableRecord
  2
*D5
  0
BLOCK_RECORD
  5
21E
100
AcDbSymbolTableRecord
100
AcDbBlockTableRecord
  2
*D6
  0
ENDTAB
  0
TABLE
  2
DIMSTYLE
  5
A
100
AcDbSymbolTable
 70
1
100
AcDbDimStyleTable
 71
0
  0
DIMSTYLE
105
21F
100
AcDbSymbolTableRecord
100
AcDbDimStyleTableRecord
  2
STANDARD
 70
0
  3

  4

 40
1.0
 41
3.0
 42
0.0625
 43
0.38
 44
0.18
 45
0.0
 46
0.0
 47
0.01
 48
0.01
140
3.0
141
0.09
142
0.0
143
25.4
144
1.0
145
0.0
146
1.0
147
0.09
 71
1.0
 72
0.0
 73
0
 74
0
 75
0
 76
0
 77
1
 78
8
170
0
171
2
172
0
173
0
174
0
175
0
176
0
177
0
178
0
270
2
271
2
272
2
273
2
274
2
275
0
280
0
281
0
282
0
283
1
284
8
285
0
286
0
287
3
288
0
340
11
341
216
342
216
343
216
344
216
  0
DIMSTYLE
105
220
100
AcDbSymbolTableRecord
100
AcDbDimStyleTableRecord
  2
DIMSTYLE_1
 70
0
  3

  4

 40
1.0
 41
3.0
 42
0.0625
 43
0.38
 44
0.18
 45
0.0
 46
0.0
 47
0.0
 48
0.0
140
3.0
141
0.09
142
0.0
143
25.4
144
1.0
145
0.0
146
1.0
147
0.09
 71
0.0
 72
0.0
 73
0
 74
0
 75
0
 76
0
 77
1
 78
8
170
0
171
2
172
0
173
0
174
0
175
0
176
0
177
0
178
0
270
2
271
2
272
2
273
2
274
2
275
0
280
0
281
0
282
0
283
1
284
8
285
0
286
0
287
3
288
0
340
11
341
216
342
216
343
216
344
216
  0
ENDTAB
  0
ENDSEC
  0
SECTION
  2
BLOCKS
  0
BLOCK
  5
20
100
AcDbEntity
  8
0
100
AcDbBlockBegin
  2
*Model_Space
 70
0
 10
0.0
 20
0.0
 30
0.0
  3
*Model_Space
  1

  0
ENDBLK
  5
21
100
AcDbEntity
  8
0
100
AcDbBlockEnd
  0
BLOCK
  5
1C
100
AcDbEntity
  8
0
100
AcDbBlockBegin
  2
*Paper_Space
 70
0
 10
0.0
 20
0.0
 30
0.0
  3
*Paper_Space
  1

  0
ENDBLK
  5
1D
100
AcDbEntity
  8
0
100
AcDbBlockEnd
  0
BLOCK
  5
221
100
AcDbEntity
  8
0
100
AcDbBlockBegin
  2
_FILLED
 70
64
 10
0.0
 20
0.0
  3
_FILLED
  1

  0
SOLID
  5
222
100
AcDbEntity
  8
0
  6
BYBLOCK
 62
0
100
AcDbTrace
 10
0.0
 20
0.0
 11
-1.0
 21
0.3166666667
 12
-1.0
 22
-0.3166666667
 13
-1.0
 23
-0.3166666667
  0
ENDBLK
  5
223
100
AcDbEntity
  8
0
  6
BYBLOCK
 62
0
100
AcDbBlockEnd
  0
BLOCK
  5
224
100
AcDbEntity
  8
0
100
AcDbBlockBegin
  2
_NONE
 70
64
 10
0.0
 20
0.0
  3
_NONE
  1

  0
ENDBLK
  5
225
100
AcDbEntity
  8
0
  6
BYBLOCK
 62
0
100
AcDbBlockEnd
  0
BLOCK
  5
226
100
AcDbEntity
  8
0
100
AcDbBlockBegin
 62
7
  6
CONTINUOUS
  2
*D0
 70
65
 10
0.0
 20
0.0
  3
*D0
  1

  0
MTEXT
  5
227
100
AcDbEntity
  8
0
100
AcDbMText
 62
7
  6
CONTINUOUS
  7
STANDARD
 71
2
 72
1
 10
-112.9920446473
 20
80.75
 30
0.0
 11
1.0
 21
0.0
 31
0.0
 44
0.9
  1
55,3
 40
3.0
 41
8.1428571429
  0
LINE
  5
228
100
AcDbEntity
  8
0
100
AcDbLine
 62
7
  6
CONTINUOUS
 10
-140.6420446473
 20
57.499999798
 11
-140.6420446473
 21
78.5
  0
LINE
  5
229
100
AcDbEntity
  8
0
100
AcDbLine
 62
7
  6
CONTINUOUS
 10
-85.3420446473
 20
40.5067708424
 11
-85.3420446473
 21
78.5
  0
LINE
  5
22A
100
AcDbEntity
  8
0
100
AcDbLine
 62
7
  6
CONTINUOUS
 10
-140.6420446473
 20
77.0
 11
-112.9920446473
 21
77.0
  0
LINE
  5
22B
100
AcDbEntity
  8
0
100
AcDbLine
 62
7
  6
CONTINUOUS
 10
-85.3420446473
 20
77.0
 11
-112.9920446473
 21
77.0
  0
INSERT
  5
22C
100
AcDbEntity
  8
0
100
AcDbBlockReference
 62
7
  6
CONTINUOUS
  2
_FILLED
 10
-140.6420446473
 20
77.0
 41
3.0
 42
3.0
 43
3.0
 50
180.0
  0
INSERT
  5
22D
100
AcDbEntity
  8
0
100
AcDbBlockReference
 62
7
  6
CONTINUOUS
  2
_FILLED
 10
-85.3420446473
 20
77.0
 41
3.0
 42
3.0
 43
3.0
  0
ENDBLK
  5
22E
100
AcDbEntity
  8
0
  6
BYBLOCK
 62
0
100
AcDbBlockEnd
  0
BLOCK
  5
22F
100
AcDbEntity
  8
0
100
AcDbBlockBegin
 62
7
  6
CONTINUOUS
  2
*D1
 70
65
 10
0.0
 20
0.0
  3
*D1
  1

  0
MTEXT
  5
230
100
AcDbEntity
  8
0
100
AcDbMText
 62
7
  6
CONTINUOUS
  7
STANDARD
 71
2
 72
1
 10
-110.3420446473
 20
70.75
 30
0.0
 11
1.0
 21
0.0
 31
0.0
 44
0.9
  1
50
 40
3.0
 41
4.5
  0
LINE
  5
231
100
AcDbEntity
  8
0
100
AcDbLine
 62
7
  6
CONTINUOUS
 10
-135.3420446473
 20
59.5
 11
-135.3420446473
 21
68.5
  0
LINE
  5
232
100
AcDbEntity
  8
0
100
AcDbLine
 62
7
  6
CONTINUOUS
 10
-85.3420446473
 20
35.4676308898
 11
-85.3420446473
 21
68.5
  0
LINE
  5
233
100
AcDbEntity
  8
0
100
AcDbLine
 62
7
  6
CONTINUOUS
 10
-135.3420446473
 20
67.0
 11
-110.3420446473
 21
67.0
  0
LINE
  5
234
100
AcDbEntity
  8
0
100
AcDbLine
 62
7
  6
CONTINUOUS
 10
-85.3420446473
 20
67.0
 11
-110.3420446473
 21
67.0
  0
INSERT
  5
235
100
AcDbEntity
  8
0
100
AcDbBlockReference
 62
7
  6
CONTINUOUS
  2
_FILLED
 10
-135.3420446473
 20
67.0
 41
3.0
 42
3.0
 43
3.0
 50
180.0
  0
INSERT
  5
236
100
AcDbEntity
  8
0
100
AcDbBlockReference
 62
7
  6
CONTINUOUS
  2
_FILLED
 10
-85.3420446473
 20
67.0
 41
3.0
 42
3.0
 43
3.0
  0
ENDBLK
  5
237
100
AcDbEntity
  8
0
  6
BYBLOCK
 62
0
100
AcDbBlockEnd
  0
BLOCK
  5
238
100
AcDbEntity
  8
0
100
AcDbBlockBegin
 62
7
  6
CONTINUOUS
  2
*D2
 70
65
 10
0.0
 20
0.0
  3
*D2
  1

  0
MTEXT
  5
239
100
AcDbEntity
  8
0
100
AcDbMText
 62
7
  6
CONTINUOUS
  7
STANDARD
 71
2
 72
1
 10
0.0
 20
80.75
 30
0.0
 11
1.0
 21
0.0
 31
0.0
 44
0.9
  1
118
 40
3.0
 41
5.7857142857
  0
LINE
  5
23A
100
AcDbEntity
  8
0
100
AcDbLine
 62
7
  6
CONTINUOUS
 10
-59.0
 20
49.5
 11
-59.0
 21
78.5
  0
LINE
  5
23B
100
AcDbEntity
  8
0
100
AcDbLine
 62
7
  6
CONTINUOUS
 10
59.0
 20
49.4999999989
 11
59.0
 21
78.5
  0
LINE
  5
23C
100
AcDbEntity
  8
0
100
AcDbLine
 62
7
  6
CONTINUOUS
 10
-59.0
 20
77.0
 11
0.0
 21
77.0
  0
LINE
  5
23D
100
AcDbEntity
  8
0
100
AcDbLine
 62
7
  6
CONTINUOUS
 10
59.0
 20
77.0
 11
0.0
 21
77.0
  0
INSERT
  5
23E
100
AcDbEntity
  8
0
100
AcDbBlockReference
 62
7
  6
CONTINUOUS
  2
_FILLED
 10
-59.0
 20
77.0
 41
3.0
 42
3.0
 43
3.0
 50
180.0
  0
INSERT
  5
23F
100
AcDbEntity
  8
0
100
AcDbBlockReference
 62
7
  6
CONTINUOUS
  2
_FILLED
 10
59.0
 20
77.0
 41
3.0
 42
3.0
 43
3.0
 50
360.0
  0
ENDBLK
  5
240
100
AcDbEntity
  8
0
  6
BYBLOCK
 62
0
100
AcDbBlockEnd
  0
BLOCK
  5
241
100
AcDbEntity
  8
0
100
AcDbBlockBegin
 62
7
  6
CONTINUOUS
  2
*D3
 70
65
 10
0.0
 20
0.0
  3
*D3
  1

  0
MTEXT
  5
242
100
AcDbEntity
  8
0
100
AcDbMText
 62
7
  6
CONTINUOUS
  7
STANDARD
 71
2
 72
1
 10
73.25
 20
-0.0
 30
0.0
 11
0.0
 21
1.0
 31
0.0
 44
0.9
  1
118
 40
3.0
 41
5.7857142857
  0
LINE
  5
243
100
AcDbEntity
  8
0
100
AcDbLine
 62
7
  6
CONTINUOUS
 10
49.5
 20
59.0
 11
78.5
 21
59.0
  0
LINE
  5
244
100
AcDbEntity
  8
0
100
AcDbLine
 62
7
  6
CONTINUOUS
 10
49.4999999989
 20
-59.0
 11
78.5
 21
-59.0
  0
LINE
  5
245
100
AcDbEntity
  8
0
100
AcDbLine
 62
7
  6
CONTINUOUS
 10
77.0
 20
59.0
 11
77.0
 21
-0.0
  0
LINE
  5
246
100
AcDbEntity
  8
0
100
AcDbLine
 62
7
  6
CONTINUOUS
 10
77.0
 20
-59.0
 11
77.0
 21
-0.0
  0
INSERT
  5
247
100
AcDbEntity
  8
0
100
AcDbBlockReference
 62
7
  6
CONTINUOUS
  2
_FILLED
 10
77.0
 20
59.0
 41
3.0
 42
3.0
 43
3.0
 50
90.0
  0
INSERT
  5
248
100
AcDbEntity
  8
0
100
AcDbBlockReference
 62
7
  6
CONTINUOUS
  2
_FILLED
 10
77.0
 20
-59.0
 41
3.0
 42
3.0
 43
3.0
 50
270.0
  0
ENDBLK
  5
249
100
AcDbEntity
  8
0
  6
BYBLOCK
 62
0
100
AcDbBlockEnd
  0
BLOCK
  5
24A
100
AcDbEntity
  8
0
100
AcDbBlockBegin
 62
7
  6
CONTINUOUS
  2
*D4
 70
65
 10
0.0
 20
0.0
  3
*D4
  1

  0
MTEXT
  5
24B
100
AcDbEntity
  8
0
100
AcDbMText
 62
7
  6
CONTINUOUS
  7
STANDARD
 71
3
 72
1
 10
-145.5133472459
 20
70.75
 30
0.0
 11
1.0
 21
0.0
 31
0.0
 44
0.9
  1
5,3
 40
3.0
 41
6.0
  0
LINE
  5
24C
100
AcDbEntity
  8
0
100
AcDbLine
 62
7
  6
CONTINUOUS
 10
-135.3420446473
 20
59.5
 11
-135.3420446473
 21
68.5
  0
LINE
  5
24D
100
AcDbEntity
  8
0
100
AcDbLine
 62
7
  6
CONTINUOUS
 10
-140.6420446473
 20
57.499999798
 11
-140.6420446473
 21
68.5
  0
LINE
  5
24E
100
AcDbEntity
  8
0
100
AcDbLine
 62
7
  6
CONTINUOUS
 10
-135.3420446473
 20
67.0
 11
-131.3420446473
 21
67.0
  0
LINE
  5
24F
100
AcDbEntity
  8
0
100
AcDbLine
 62
7
  6
CONTINUOUS
 10
-131.3420446473
 20
67.0
 11
-137.9920446473
 21
67.0
  0
LINE
  5
250
100
AcDbEntity
  8
0
100
AcDbLine
 62
7
  6
CONTINUOUS
 10
-140.6420446473
 20
67.0
 11
-151.5133472459
 21
67.0
  0
LINE
  5
251
100
AcDbEntity
  8
0
100
AcDbLine
 62
7
  6
CONTINUOUS
 10
-151.5133472459
 20
67.0
 11
-137.9920446473
 21
67.0
  0
INSERT
  5
252
100
AcDbEntity
  8
0
100
AcDbBlockReference
 62
7
  6
CONTINUOUS
  2
_NONE
 10
-135.3420446473
 20
67.0
 41
3.0
 42
3.0
 43
3.0
 50
180.0
  0
INSERT
  5
253
100
AcDbEntity
  8
0
100
AcDbBlockReference
 62
7
  6
CONTINUOUS
  2
_FILLED
 10
-140.6420446473
 20
67.0
 41
3.0
 42
3.0
 43
3.0
  0
ENDBLK
  5
254
100
AcDbEntity
  8
0
  6
BYBLOCK
 62
0
100
AcDbBlockEnd
  0
BLOCK
  5
255
100
AcDbEntity
  8
0
100
AcDbBlockBegin
 62
7
  6
CONTINUOUS
  2
*D5
 70
65
 10
0.0
 20
0.0
  3
*D5
  1

  0
MTEXT
  5
256
100
AcDbEntity
  8
0
100
AcDbMText
 62
7
  6
CONTINUOUS
  7
STANDARD
 71
2
 72
1
 10
0.0
 20
70.75
 30
0.0
 11
1.0
 21
0.0
 31
0.0
 44
0.9
  1
78
 40
3.0
 41
4.7142857143
  0
LINE
  5
257
100
AcDbEntity
  8
0
100
AcDbLine
 62
7
  6
CONTINUOUS
 10
39.0
 20
39.5
 11
39.0
 21
68.5
  0
LINE
  5
258
100
AcDbEntity
  8
0
100
AcDbLine
 62
7
  6
CONTINUOUS
 10
-39.0
 20
39.5
 11
-39.0
 21
68.5
  0
LINE
  5
259
100
AcDbEntity
  8
0
100
AcDbLine
 62
7
  6
CONTINUOUS
 10
39.0
 20
67.0
 11
0.0
 21
67.0
  0
LINE
  5
25A
100
AcDbEntity
  8
0
100
AcDbLine
 62
7
  6
CONTINUOUS
 10
-39.0
 20
67.0
 11
0.0
 21
67.0
  0
INSERT
  5
25B
100
AcDbEntity
  8
0
100
AcDbBlockReference
 62
7
  6
CONTINUOUS
  2
_FILLED
 10
39.0
 20
67.0
 41
3.0
 42
3.0
 43
3.0
  0
INSERT
  5
25C
100
AcDbEntity
  8
0
100
AcDbBlockReference
 62
7
  6
CONTINUOUS
  2
_FILLED
 10
-39.0
 20
67.0
 41
3.0
 42
3.0
 43
3.0
 50
180.0
  0
ENDBLK
  5
25D
100
AcDbEntity
  8
0
  6
BYBLOCK
 62
0
100
AcDbBlockEnd
  0
BLOCK
  5
25E
100
AcDbEntity
  8
0
100
AcDbBlockBegin
 62
7
  6
CONTINUOUS
  2
*D6
 70
65
 10
0.0
 20
0.0
  3
*D6
  1

  0
MTEXT
  5
25F
100
AcDbEntity
  8
0
100
AcDbMText
 62
7
  6
CONTINUOUS
  7
STANDARD
 71
2
 72
1
 10
63.25
 20
-0.0
 30
0.0
 11
0.0
 21
1.0
 31
0.0
 44
0.9
  1
78
 40
3.0
 41
4.7142857143
  0
LINE
  5
260
100
AcDbEntity
  8
0
100
AcDbLine
 62
7
  6
CONTINUOUS
 10
39.5
 20
39.0
 11
68.5
 21
39.0
  0
LINE
  5
261
100
AcDbEntity
  8
0
100
AcDbLine
 62
7
  6
CONTINUOUS
 10
39.5
 20
-39.0
 11
68.5
 21
-39.0
  0
LINE
  5
262
100
AcDbEntity
  8
0
100
AcDbLine
 62
7
  6
CONTINUOUS
 10
67.0
 20
39.0
 11
67.0
 21
-0.0
  0
LINE
  5
263
100
AcDbEntity
  8
0
100
AcDbLine
 62
7
  6
CONTINUOUS
 10
67.0
 20
-39.0
 11
67.0
 21
-0.0
  0
INSERT
  5
264
100
AcDbEntity
  8
0
100
AcDbBlockReference
 62
7
  6
CONTINUOUS
  2
_FILLED
 10
67.0
 20
39.0
 41
3.0
 42
3.0
 43
3.0
 50
90.0
  0
INSERT
  5
265
100
AcDbEntity
  8
0
100
AcDbBlockReference
 62
7
  6
CONTINUOUS
  2
_FILLED
 10
67.0
 20
-39.0
 41
3.0
 42
3.0
 43
3.0
 50
270.0
  0
ENDBLK
  5
266
100
AcDbEntity
  8
0
  6
BYBLOCK
 62
0
100
AcDbBlockEnd
  0
ENDSEC
  0
SECTION
  2
ENTITIES
  0
DIMENSION
  5
267
100
AcDbEntity
  8
0
100
AcDbDimension
 62
7
  6
CONTINUOUS
  2
*D0
 10
-85.3420446473
 20
77.0
 11
-117.0634732187
 21
79.25
 70
160
 71
2
 42
55.3
  3
DIMSTYLE_1
100
AcDbAlignedDimension
 13
-140.6420446473
 23
57.499999798
 14
-85.3420446473
 24
40.5067708424
100
AcDbRotatedDimension
  0
DIMENSION
  5
268
100
AcDbEntity
  8
0
100
AcDbDimension
 62
7
  6
CONTINUOUS
  2
*D1
 10
-85.3420446473
 20
67.0
 11
-112.5920446473
 21
69.25
 70
160
 71
2
 42
50.0
  3
DIMSTYLE_1
100
AcDbAlignedDimension
 13
-135.3420446473
 23
59.5
 14
-85.3420446473
 24
35.4676308898
100
AcDbRotatedDimension
  0
DIMENSION
  5
269
100
AcDbEntity
  8
0
100
AcDbDimension
 62
7
  6
CONTINUOUS
  2
*D2
 10
59.0
 20
77.0
 11
-2.8928571429
 21
79.25
 70
160
 71
2
 42
118.0
  3
DIMSTYLE_1
100
AcDbAlignedDimension
 13
-59.0
 23
49.5
 14
59.0
 24
49.4999999989
100
AcDbRotatedDimension
  0
DIMENSION
  5
26A
100
AcDbEntity
  8
0
100
AcDbDimension
 62
7
  6
CONTINUOUS
  2
*D3
 10
77.0
 20
-59.0
 11
76.0462129609
 21
-2.586204634
 70
160
 71
2
 42
118.0
  3
DIMSTYLE_1
100
AcDbAlignedDimension
 13
49.5
 23
59.0
 14
49.4999999989
 24
-59.0
 50
270.0
100
AcDbRotatedDimension
  0
DIMENSION
  5
26B
100
AcDbEntity
  8
0
100
AcDbDimension
 62
7
  6
CONTINUOUS
  2
*D4
 10
-140.6420446473
 20
67.0
 11
-154.5133472459
 21
69.25
 70
160
 71
3
 42
5.3
  3
DIMSTYLE_1
100
AcDbAlignedDimension
 13
-135.3420446473
 23
59.5
 14
-140.6420446473
 24
57.499999798
 50
180.0
100
AcDbRotatedDimension
1001
ACAD
1000
DSTYLE
1002
{
1070
173
1070
1
1070
6
1000
_NONE
1002
}
  0
DIMENSION
  5
26C
100
AcDbEntity
  8
0
100
AcDbDimension
 62
7
  6
CONTINUOUS
  2
*D5
 10
-39.0
 20
67.0
 11
-2.3571428571
 21
69.25
 70
160
 71
2
 42
78.0
  3
DIMSTYLE_1
100
AcDbAlignedDimension
 13
39.0
 23
39.5
 14
-39.0
 24
39.5
 50
180.0
100
AcDbRotatedDimension
  0
DIMENSION
  5
26D
100
AcDbEntity
  8
0
100
AcDbDimension
 62
7
  6
CONTINUOUS
  2
*D6
 10
67.0
 20
-39.0
 11
65.8061735237
 21
-2.1072778499
 70
160
 71
2
 42
78.0
  3
DIMSTYLE_1
100
AcDbAlignedDimension
 13
39.5
 23
39.0
 14
39.5
 24
-39.0
 50
270.0
100
AcDbRotatedDimension
  0
LINE
  5
26E
100
AcDbEntity
  8
RACCORDO
100
AcDbLine
 62
7
  6
CONTINUOUS
 10
-59.0
 20
49.0
 11
-59.0
 21
-49.0
  0
LINE
  5
26F
100
AcDbEntity
  8
RACCORDO
100
AcDbLine
 62
253
  6
CONTINUOUS
 10
-57.0
 20
49.0
 11
-57.0
 21
-49.0
  0
LINE
  5
270
100
AcDbEntity
  8
RACCORDO
100
AcDbLine
 62
7
  6
CONTINUOUS
 10
-49.0
 20
-59.0
 11
49.0
 21
-59.0
  0
LINE
  5
271
100
AcDbEntity
  8
RACCORDO
100
AcDbLine
 62
253
  6
CONTINUOUS
 10
-49.0
 20
-57.0
 11
49.0
 21
-57.0
  0
LINE
  5
272
100
AcDbEntity
  8
RACCORDO
100
AcDbLine
 62
253
  6
CONTINUOUS
 10
-49.0
 20
-57.0
 11
-49.0
 21
-59.0
  0
LINE
  5
273
100
AcDbEntity
  8
RACCORDO
100
AcDbLine
 62
253
  6
CONTINUOUS
 10
-49.0
 20
57.0
 11
-48.9999999989
 21
59.0
  0
LINE
  5
274
100
AcDbEntity
  8
0
100
AcDbLine
 62
7
  6
CONTINUOUS
 10
-39.5197234842
 20
39.5197234842
 11
-39.35
 21
40.0901949367
  0
LINE
  5
275
100
AcDbEntity
  8
0
100
AcDbLine
 62
7
  6
CONTINUOUS
 10
-38.4802765158
 20
38.4802765158
 11
-38.65
 21
37.9098050633
  0
LINE
  5
276
100
AcDbEntity
  8
0
100
AcDbLine
 62
7
  6
CONTINUOUS
 10
-39.5197234842
 20
39.5197234842
 11
-40.0901949367
 21
39.35
  0
LINE
  5
277
100
AcDbEntity
  8
0
100
AcDbLine
 62
7
  6
CONTINUOUS
 10
-37.9098050633
 20
38.65
 11
-38.4802765158
 21
38.4802765158
  0
LINE
  5
278
100
AcDbEntity
  8
RACCORDO
100
AcDbLine
 62
253
  6
CONTINUOUS
 10
57.0
 20
-49.0
 11
59.0
 21
-49.0
  0
LINE
  5
279
100
AcDbEntity
  8
RACCORDO
100
AcDbLine
 62
253
  6
CONTINUOUS
 10
-57.0
 20
-49.0
 11
-59.0
 21
-48.9999999989
  0
LINE
  5
27A
100
AcDbEntity
  8
0
100
AcDbLine
 62
7
  6
CONTINUOUS
 10
-39.5197234842
 20
-39.5197234842
 11
-40.0901949367
 21
-39.35
  0
LINE
  5
27B
100
AcDbEntity
  8
0
100
AcDbLine
 62
7
  6
CONTINUOUS
 10
-37.9098050633
 20
-38.65
 11
-38.4802765158
 21
-38.4802765158
  0
LINE
  5
27C
100
AcDbEntity
  8
0
100
AcDbLine
 62
7
  6
CONTINUOUS
 10
-39.35
 20
-40.0901949367
 11
-39.5197234842
 21
-39.5197234842
  0
LINE
  5
27D
100
AcDbEntity
  8
0
100
AcDbLine
 62
7
  6
CONTINUOUS
 10
-38.65
 20
-37.9098050633
 11
-38.4802765158
 21
-38.4802765158
  0
LINE
  5
27E
100
AcDbEntity
  8
0
100
AcDbLine
 62
7
  6
CONTINUOUS
 10
-40.5937234472
 20
-39.35
 11
-40.5937234472
 21
-38.65
  0
LINE
  5
27F
100
AcDbEntity
  8
0
100
AcDbLine
 62
7
  6
CONTINUOUS
 10
-40.5937234472
 20
38.65
 11
-40.5937234472
 21
39.35
  0
LINE
  5
280
100
AcDbEntity
  8
0
100
AcDbLine
 62
7
  6
CONTINUOUS
 10
-40.145
 20
-39.35
 11
-40.145
 21
-38.65
  0
LINE
  5
281
100
AcDbEntity
  8
0
100
AcDbLine
 62
7
  6
CONTINUOUS
 10
-40.145
 20
38.65
 11
-40.145
 21
39.35
  0
LINE
  5
282
100
AcDbEntity
  8
0
100
AcDbLine
 62
7
  6
CONTINUOUS
 10
-39.35
 20
40.9418577643
 11
-39.35
 21
40.0901949367
  0
LINE
  5
283
100
AcDbEntity
  8
0
100
AcDbLine
 62
7
  6
CONTINUOUS
 10
-39.35
 20
37.9098050633
 11
-39.35
 21
37.0581422357
  0
LINE
  5
284
100
AcDbEntity
  8
0
100
AcDbLine
 62
7
  6
CONTINUOUS
 10
-39.35
 20
-37.0581422357
 11
-39.35
 21
-37.9098050633
  0
LINE
  5
285
100
AcDbEntity
  8
0
100
AcDbLine
 62
7
  6
CONTINUOUS
 10
-39.35
 20
-40.0901949367
 11
-39.35
 21
-40.9418577643
  0
LINE
  5
286
100
AcDbEntity
  8
0
100
AcDbLine
 62
7
  6
CONTINUOUS
 10
-38.65
 20
40.9418577643
 11
-38.65
 21
40.0901949367
  0
LINE
  5
287
100
AcDbEntity
  8
0
100
AcDbLine
 62
7
  6
CONTINUOUS
 10
-38.65
 20
37.9098050633
 11
-38.65
 21
37.0581422357
  0
LINE
  5
288
100
AcDbEntity
  8
0
100
AcDbLine
 62
7
  6
CONTINUOUS
 10
-38.65
 20
-37.0581422357
 11
-38.65
 21
-37.9098050633
  0
LINE
  5
289
100
AcDbEntity
  8
0
100
AcDbLine
 62
7
  6
CONTINUOUS
 10
-38.65
 20
-40.0901949367
 11
-38.65
 21
-40.9418577643
  0
LINE
  5
28A
100
AcDbEntity
  8
0
100
AcDbLine
 62
7
  6
CONTINUOUS
 10
39.35
 20
-40.145
 11
38.65
 21
-40.145
  0
LINE
  5
28B
100
AcDbEntity
  8
0
100
AcDbLine
 62
7
  6
CONTINUOUS
 10
-38.65
 20
-40.145
 11
-39.35
 21
-40.145
  0
LINE
  5
28C
100
AcDbEntity
  8
0
100
AcDbLine
 62
7
  6
CONTINUOUS
 10
41.7041634566
 20
-39.5
 11
39.5860176963
 21
-39.5
  0
LINE
  5
28D
100
AcDbEntity
  8
0
100
AcDbLine
 62
7
  6
CONTINUOUS
 10
38.4139823037
 20
-39.5
 11
36.2958365434
 21
-39.5
  0
LINE
  5
28E
100
AcDbEntity
  8
0
100
AcDbLine
 62
7
  6
CONTINUOUS
 10
-36.2958365434
 20
-39.5
 11
-38.4139823037
 21
-39.5
  0
LINE
  5
28F
100
AcDbEntity
  8
0
100
AcDbLine
 62
7
  6
CONTINUOUS
 10
-39.5860176963
 20
-39.5
 11
-41.7041634566
 21
-39.5
  0
LINE
  5
290
100
AcDbEntity
  8
0
100
AcDbLine
 62
7
  6
CONTINUOUS
 10
40.5937234472
 20
-39.35
 11
40.0901949367
 21
-39.35
  0
LINE
  5
291
100
AcDbEntity
  8
0
100
AcDbLine
 62
7
  6
CONTINUOUS
 10
37.9098050633
 20
-39.35
 11
37.4062765528
 21
-39.35
  0
LINE
  5
292
100
AcDbEntity
  8
0
100
AcDbLine
 62
7
  6
CONTINUOUS
 10
-37.4062765528
 20
-39.35
 11
-37.9098050633
 21
-39.35
  0
LINE
  5
293
100
AcDbEntity
  8
0
100
AcDbLine
 62
7
  6
CONTINUOUS
 10
-40.0901949367
 20
-39.35
 11
-40.5937234472
 21
-39.35
  0
LINE
  5
294
100
AcDbEntity
  8
0
100
AcDbLine
 62
7
  6
CONTINUOUS
 10
40.5937234472
 20
-38.65
 11
40.0901949367
 21
-38.65
  0
LINE
  5
295
100
AcDbEntity
  8
0
100
AcDbLine
 62
7
  6
CONTINUOUS
 10
37.9098050633
 20
-38.65
 11
37.4062765528
 21
-38.65
  0
LINE
  5
296
100
AcDbEntity
  8
0
100
AcDbLine
 62
7
  6
CONTINUOUS
 10
-37.4062765528
 20
-38.65
 11
-37.9098050633
 21
-38.65
  0
LINE
  5
297
100
AcDbEntity
  8
0
100
AcDbLine
 62
7
  6
CONTINUOUS
 10
-40.0901949367
 20
-38.65
 11
-40.5937234472
 21
-38.65
  0
LINE
  5
298
100
AcDbEntity
  8
0
100
AcDbLine
 62
7
  6
CONTINUOUS
 10
-41.7041634566
 20
-38.5
 11
-39.5860176963
 21
-38.5
  0
LINE
  5
299
100
AcDbEntity
  8
0
100
AcDbLine
 62
7
  6
CONTINUOUS
 10
-38.4139823037
 20
-38.5
 11
-36.2958365434
 21
-38.5
  0
LINE
  5
29A
100
AcDbEntity
  8
0
100
AcDbLine
 62
7
  6
CONTINUOUS
 10
36.2958365434
 20
-38.5
 11
38.4139823037
 21
-38.5
  0
LINE
  5
29B
100
AcDbEntity
  8
0
100
AcDbLine
 62
7
  6
CONTINUOUS
 10
39.5860176963
 20
-38.5
 11
41.7041634566
 21
-38.5
  0
LINE
  5
29C
100
AcDbEntity
  8
0
100
AcDbLine
 62
7
  6
CONTINUOUS
 10
-37.855
 20
39.35
 11
-37.855
 21
38.65
  0
LINE
  5
29D
100
AcDbEntity
  8
0
100
AcDbLine
 62
7
  6
CONTINUOUS
 10
-37.855
 20
-38.65
 11
-37.855
 21
-39.35
  0
LINE
  5
29E
100
AcDbEntity
  8
0
100
AcDbLine
 62
7
  6
CONTINUOUS
 10
-37.4062765528
 20
-39.35
 11
-37.4062765528
 21
-38.65
  0
LINE
  5
29F
100
AcDbEntity
  8
0
100
AcDbLine
 62
7
  6
CONTINUOUS
 10
-37.4062765528
 20
38.65
 11
-37.4062765528
 21
39.35
  0
LINE
  5
2A0
100
AcDbEntity
  8
0
100
AcDbLine
 62
7
  6
CONTINUOUS
 10
-39.35
 20
-37.855
 11
-38.65
 21
-37.855
  0
LINE
  5
2A1
100
AcDbEntity
  8
0
100
AcDbLine
 62
7
  6
CONTINUOUS
 10
38.65
 20
-37.855
 11
39.35
 21
-37.855
  0
LINE
  5
2A2
100
AcDbEntity
  8
0
100
AcDbLine
 62
7
  6
CONTINUOUS
 10
-39.5197234842
 20
-38.4802765158
 11
-39.35
 21
-37.9098050633
  0
LINE
  5
2A3
100
AcDbEntity
  8
0
100
AcDbLine
 62
7
  6
CONTINUOUS
 10
-38.4802765158
 20
-39.5197234842
 11
-38.65
 21
-40.0901949367
  0
LINE
  5
2A4
100
AcDbEntity
  8
0
100
AcDbLine
 62
7
  6
CONTINUOUS
 10
37.9098050633
 20
39.35
 11
38.4802765158
 21
39.5197234842
  0
LINE
  5
2A5
100
AcDbEntity
  8
0
100
AcDbLine
 62
7
  6
CONTINUOUS
 10
39.5197234842
 20
38.4802765158
 11
40.0901949367
 21
38.65
  0
LINE
  5
2A6
100
AcDbEntity
  8
0
100
AcDbLine
 62
7
  6
CONTINUOUS
 10
37.9098050633
 20
-39.35
 11
38.4802765158
 21
-39.5197234842
  0
LINE
  5
2A7
100
AcDbEntity
  8
0
100
AcDbLine
 62
7
  6
CONTINUOUS
 10
39.5197234842
 20
-38.4802765158
 11
40.0901949367
 21
-38.65
  0
LINE
  5
2A8
100
AcDbEntity
  8
0
100
AcDbLine
 62
7
  6
CONTINUOUS
 10
-39.35
 20
37.9098050633
 11
-39.5197234842
 21
38.4802765158
  0
LINE
  5
2A9
100
AcDbEntity
  8
0
100
AcDbLine
 62
7
  6
CONTINUOUS
 10
-38.65
 20
40.0901949367
 11
-38.4802765158
 21
39.5197234842
  0
LINE
  5
2AA
100
AcDbEntity
  8
0
100
AcDbLine
 62
7
  6
CONTINUOUS
 10
38.4802765158
 20
39.5197234842
 11
38.65
 21
40.0901949367
  0
LINE
  5
2AB
100
AcDbEntity
  8
0
100
AcDbLine
 62
7
  6
CONTINUOUS
 10
39.5197234842
 20
38.4802765158
 11
39.35
 21
37.9098050633
  0
LINE
  5
2AC
100
AcDbEntity
  8
0
100
AcDbLine
 62
7
  6
CONTINUOUS
 10
-39.5197234842
 20
-38.4802765158
 11
-40.0901949367
 21
-38.65
  0
LINE
  5
2AD
100
AcDbEntity
  8
0
100
AcDbLine
 62
7
  6
CONTINUOUS
 10
-37.9098050633
 20
-39.35
 11
-38.4802765158
 21
-39.5197234842
  0
LINE
  5
2AE
100
AcDbEntity
  8
0
100
AcDbLine
 62
7
  6
CONTINUOUS
 10
-39.5197234842
 20
38.4802765158
 11
-40.0901949367
 21
38.65
  0
LINE
  5
2AF
100
AcDbEntity
  8
0
100
AcDbLine
 62
7
  6
CONTINUOUS
 10
-37.9098050633
 20
39.35
 11
-38.4802765158
 21
39.5197234842
  0
LINE
  5
2B0
100
AcDbEntity
  8
0
100
AcDbLine
 62
7
  6
CONTINUOUS
 10
38.65
 20
-40.0901949367
 11
38.4802765158
 21
-39.5197234842
  0
LINE
  5
2B1
100
AcDbEntity
  8
0
100
AcDbLine
 62
7
  6
CONTINUOUS
 10
39.35
 20
-37.9098050633
 11
39.5197234842
 21
-38.4802765158
  0
LINE
  5
2B2
100
AcDbEntity
  8
0
100
AcDbLine
 62
7
  6
CONTINUOUS
 10
37.4062765528
 20
-39.35
 11
37.4062765528
 21
-38.65
  0
LINE
  5
2B3
100
AcDbEntity
  8
0
100
AcDbLine
 62
7
  6
CONTINUOUS
 10
37.4062765528
 20
38.65
 11
37.4062765528
 21
39.35
  0
LINE
  5
2B4
100
AcDbEntity
  8
0
100
AcDbLine
 62
7
  6
CONTINUOUS
 10
37.855
 20
-39.35
 11
37.855
 21
-38.65
  0
LINE
  5
2B5
100
AcDbEntity
  8
0
100
AcDbLine
 62
7
  6
CONTINUOUS
 10
37.855
 20
38.65
 11
37.855
 21
39.35
  0
LINE
  5
2B6
100
AcDbEntity
  8
0
100
AcDbLine
 62
7
  6
CONTINUOUS
 10
38.65
 20
40.9418577643
 11
38.65
 21
40.0901949367
  0
LINE
  5
2B7
100
AcDbEntity
  8
0
100
AcDbLine
 62
7
  6
CONTINUOUS
 10
38.65
 20
37.9098050633
 11
38.65
 21
37.0581422357
  0
LINE
  5
2B8
100
AcDbEntity
  8
0
100
AcDbLine
 62
7
  6
CONTINUOUS
 10
38.65
 20
-37.0581422357
 11
38.65
 21
-37.9098050633
  0
LINE
  5
2B9
100
AcDbEntity
  8
0
100
AcDbLine
 62
7
  6
CONTINUOUS
 10
38.65
 20
-40.0901949367
 11
38.65
 21
-40.9418577643
  0
LINE
  5
2BA
100
AcDbEntity
  8
0
100
AcDbLine
 62
7
  6
CONTINUOUS
 10
39.35
 20
40.9418577643
 11
39.35
 21
40.0901949367
  0
LINE
  5
2BB
100
AcDbEntity
  8
0
100
AcDbLine
 62
7
  6
CONTINUOUS
 10
39.35
 20
37.9098050633
 11
39.35
 21
37.0581422357
  0
LINE
  5
2BC
100
AcDbEntity
  8
0
100
AcDbLine
 62
7
  6
CONTINUOUS
 10
39.35
 20
-37.0581422357
 11
39.35
 21
-37.9098050633
  0
LINE
  5
2BD
100
AcDbEntity
  8
0
100
AcDbLine
 62
7
  6
CONTINUOUS
 10
39.35
 20
-40.0901949367
 11
39.35
 21
-40.9418577643
  0
LINE
  5
2BE
100
AcDbEntity
  8
0
100
AcDbLine
 62
7
  6
CONTINUOUS
 10
39.35
 20
37.855
 11
38.65
 21
37.855
  0
LINE
  5
2BF
100
AcDbEntity
  8
0
100
AcDbLine
 62
7
  6
CONTINUOUS
 10
-38.65
 20
37.855
 11
-39.35
 21
37.855
  0
LINE
  5
2C0
100
AcDbEntity
  8
0
100
AcDbLine
 62
7
  6
CONTINUOUS
 10
41.7041634566
 20
38.5
 11
39.5860176963
 21
38.5
  0
LINE
  5
2C1
100
AcDbEntity
  8
0
100
AcDbLine
 62
7
  6
CONTINUOUS
 10
38.4139823037
 20
38.5
 11
36.2958365434
 21
38.5
  0
LINE
  5
2C2
100
AcDbEntity
  8
0
100
AcDbLine
 62
7
  6
CONTINUOUS
 10
-36.2958365434
 20
38.5
 11
-38.4139823037
 21
38.5
  0
LINE
  5
2C3
100
AcDbEntity
  8
0
100
AcDbLine
 62
7
  6
CONTINUOUS
 10
-39.5860176963
 20
38.5
 11
-41.7041634566
 21
38.5
  0
LINE
  5
2C4
100
AcDbEntity
  8
0
100
AcDbLine
 62
7
  6
CONTINUOUS
 10
40.5937234472
 20
38.65
 11
40.0901949367
 21
38.65
  0
LINE
  5
2C5
100
AcDbEntity
  8
0
100
AcDbLine
 62
7
  6
CONTINUOUS
 10
37.9098050633
 20
38.65
 11
37.4062765528
 21
38.65
  0
LINE
  5
2C6
100
AcDbEntity
  8
0
100
AcDbLine
 62
7
  6
CONTINUOUS
 10
-37.4062765528
 20
38.65
 11
-37.9098050633
 21
38.65
  0
LINE
  5
2C7
100
AcDbEntity
  8
0
100
AcDbLine
 62
7
  6
CONTINUOUS
 10
-40.0901949367
 20
38.65
 11
-40.5937234472
 21
38.65
  0
LINE
  5
2C8
100
AcDbEntity
  8
0
100
AcDbLine
 62
7
  6
CONTINUOUS
 10
40.5937234472
 20
39.35
 11
40.0901949367
 21
39.35
  0
LINE
  5
2C9
100
AcDbEntity
  8
0
100
AcDbLine
 62
7
  6
CONTINUOUS
 10
37.9098050633
 20
39.35
 11
37.4062765528
 21
39.35
  0
LINE
  5
2CA
100
AcDbEntity
  8
0
100
AcDbLine
 62
7
  6
CONTINUOUS
 10
-37.4062765528
 20
39.35
 11
-37.9098050633
 21
39.35
  0
LINE
  5
2CB
100
AcDbEntity
  8
0
100
AcDbLine
 62
7
  6
CONTINUOUS
 10
-40.0901949367
 20
39.35
 11
-40.5937234472
 21
39.35
  0
LINE
  5
2CC
100
AcDbEntity
  8
0
100
AcDbLine
 62
7
  6
CONTINUOUS
 10
-41.7041634566
 20
39.5
 11
-39.5860176963
 21
39.5
  0
LINE
  5
2CD
100
AcDbEntity
  8
0
100
AcDbLine
 62
7
  6
CONTINUOUS
 10
-38.4139823037
 20
39.5
 11
-36.2958365434
 21
39.5
  0
LINE
  5
2CE
100
AcDbEntity
  8
0
100
AcDbLine
 62
7
  6
CONTINUOUS
 10
36.2958365434
 20
39.5
 11
38.4139823037
 21
39.5
  0
LINE
  5
2CF
100
AcDbEntity
  8
0
100
AcDbLine
 62
7
  6
CONTINUOUS
 10
39.5860176963
 20
39.5
 11
41.7041634566
 21
39.5
  0
LINE
  5
2D0
100
AcDbEntity
  8
0
100
AcDbLine
 62
7
  6
CONTINUOUS
 10
40.145
 20
39.35
 11
40.145
 21
38.65
  0
LINE
  5
2D1
100
AcDbEntity
  8
0
100
AcDbLine
 62
7
  6
CONTINUOUS
 10
40.145
 20
-38.65
 11
40.145
 21
-39.35
  0
LINE
  5
2D2
100
AcDbEntity
  8
0
100
AcDbLine
 62
7
  6
CONTINUOUS
 10
40.5937234472
 20
-39.35
 11
40.5937234472
 21
-38.65
  0
LINE
  5
2D3
100
AcDbEntity
  8
0
100
AcDbLine
 62
7
  6
CONTINUOUS
 10
40.5937234472
 20
38.65
 11
40.5937234472
 21
39.35
  0
LINE
  5
2D4
100
AcDbEntity
  8
0
100
AcDbLine
 62
7
  6
CONTINUOUS
 10
-39.35
 20
40.145
 11
-38.65
 21
40.145
  0
LINE
  5
2D5
100
AcDbEntity
  8
0
100
AcDbLine
 62
7
  6
CONTINUOUS
 10
38.65
 20
40.145
 11
39.35
 21
40.145
  0
LINE
  5
2D6
100
AcDbEntity
  8
RACCORDO
100
AcDbLine
 62
253
  6
CONTINUOUS
 10
49.0
 20
-57.0
 11
48.9999999989
 21
-59.0
  0
LINE
  5
2D7
100
AcDbEntity
  8
RACCORDO
100
AcDbLine
 62
253
  6
CONTINUOUS
 10
49.0
 20
57.0
 11
49.0
 21
59.0
  0
LINE
  5
2D8
100
AcDbEntity
  8
0
100
AcDbLine
 62
7
  6
CONTINUOUS
 10
38.4802765158
 20
-38.4802765158
 11
38.65
 21
-37.9098050633
  0
LINE
  5
2D9
100
AcDbEntity
  8
0
100
AcDbLine
 62
7
  6
CONTINUOUS
 10
39.5197234842
 20
-39.5197234842
 11
39.35
 21
-40.0901949367
  0
LINE
  5
2DA
100
AcDbEntity
  8
0
100
AcDbLine
 62
7
  6
CONTINUOUS
 10
37.9098050633
 20
-38.65
 11
38.4802765158
 21
-38.4802765158
  0
LINE
  5
2DB
100
AcDbEntity
  8
0
100
AcDbLine
 62
7
  6
CONTINUOUS
 10
39.5197234842
 20
-39.5197234842
 11
40.0901949367
 21
-39.35
  0
LINE
  5
2DC
100
AcDbEntity
  8
RACCORDO
100
AcDbLine
 62
253
  6
CONTINUOUS
 10
57.0
 20
49.0
 11
59.0
 21
48.9999999989
  0
LINE
  5
2DD
100
AcDbEntity
  8
RACCORDO
100
AcDbLine
 62
253
  6
CONTINUOUS
 10
-57.0
 20
49.0
 11
-59.0
 21
49.0
  0
LINE
  5
2DE
100
AcDbEntity
  8
0
100
AcDbLine
 62
7
  6
CONTINUOUS
 10
37.9098050633
 20
38.65
 11
38.4802765158
 21
38.4802765158
  0
LINE
  5
2DF
100
AcDbEntity
  8
0
100
AcDbLine
 62
7
  6
CONTINUOUS
 10
39.5197234842
 20
39.5197234842
 11
40.0901949367
 21
39.35
  0
LINE
  5
2E0
100
AcDbEntity
  8
0
100
AcDbLine
 62
7
  6
CONTINUOUS
 10
38.65
 20
37.9098050633
 11
38.4802765158
 21
38.4802765158
  0
LINE
  5
2E1
100
AcDbEntity
  8
0
100
AcDbLine
 62
7
  6
CONTINUOUS
 10
39.35
 20
40.0901949367
 11
39.5197234842
 21
39.5197234842
  0
LINE
  5
2E2
100
AcDbEntity
  8
RACCORDO
100
AcDbLine
 62
253
  6
CONTINUOUS
 10
57.0
 20
-49.0
 11
57.0
 21
49.0
  0
LINE
  5
2E3
100
AcDbEntity
  8
RACCORDO
100
AcDbLine
 62
7
  6
CONTINUOUS
 10
59.0
 20
-49.0
 11
59.0
 21
49.0
  0
LINE
  5
2E4
100
AcDbEntity
  8
RACCORDO
100
AcDbLine
 62
253
  6
CONTINUOUS
 10
49.0
 20
57.0
 11
-49.0
 21
57.0
  0
LINE
  5
2E5
100
AcDbEntity
  8
RACCORDO
100
AcDbLine
 62
7
  6
CONTINUOUS
 10
49.0
 20
59.0
 11
-49.0
 21
59.0
  0
LINE
  5
2E6
100
AcDbEntity
  8
RACCORDO
100
AcDbLine
 62
7
  6
CONTINUOUS
 10
-138.6420446473
 20
-59.0
 11
-135.3420446473
 21
-59.0
  0
LINE
  5
2E7
100
AcDbEntity
  8
ASSI
100
AcDbLine
 62
7
  6
CONTINUOUS
 10
-135.3420446473
 20
-59.0
 11
-138.6420446473
 21
-59.0
  0
LINE
  5
2E8
100
AcDbEntity
  8
RACCORDO
100
AcDbLine
 62
7
  6
CONTINUOUS
 10
-120.3245922408
 20
-52.9473301723
 11
-123.3420446473
 21
-53.0
  0
LINE
  5
2E9
100
AcDbEntity
  8
DRAFT
100
AcDbLine
 62
7
  6
CONTINUOUS
 10
-123.3420446473
 20
51.5
 11
-132.791204384
 21
46.0445250824
  0
LINE
  5
2EA
100
AcDbEntity
  8
RACCORDO
100
AcDbLine
 62
253
  6
CONTINUOUS
 10
-135.3420446473
 20
-49.0
 11
-140.6420446473
 21
-49.0
  0
LINE
  5
2EB
100
AcDbEntity
  8
DRAFT
100
AcDbLine
 62
7
  6
CONTINUOUS
 10
-132.791204384
 20
-46.0445250824
 11
-123.3420446473
 21
-51.5
  0
LINE
  5
2EC
100
AcDbEntity
  8
DRAFT
100
AcDbLine
 62
7
  6
CONTINUOUS
 10
-119.3420446473
 20
-44.2207189611
 11
-88.3420446473
 21
-43.6796119484
  0
LINE
  5
2ED
100
AcDbEntity
  8
RACCORDO
100
AcDbLine
 62
7
  6
CONTINUOUS
 10
-88.3420446473
 20
-43.6796119484
 11
-88.289687428
 21
-43.6786980497
  0
LINE
  5
2EE
100
AcDbEntity
  8
DRAFT
100
AcDbLine
 62
7
  6
CONTINUOUS
 10
-135.3420446473
 20
-46.0
 11
-123.3420446473
 21
-46.2094607791
  0
LINE
  5
2EF
100
AcDbEntity
  8
DRAFT
100
AcDbLine
 62
7
  6
CONTINUOUS
 10
-88.3420446473
 20
-40.3499227399
 11
-119.3420446473
 21
-40.9238388271
  0
LINE
  5
2F0
100
AcDbEntity
  8
DRAFT
100
AcDbLine
 62
7
  6
CONTINUOUS
 10
-85.8376813795
 20
-38.7551022885
 11
-88.3430114367
 21
-38.7769659727
  0
LINE
  5
2F1
100
AcDbEntity
  8
DRAFT
100
AcDbLine
 62
7
  6
CONTINUOUS
 10
-119.3420446473
 20
-39.1118829336
 11
-88.3420446473
 21
-38.8877490702
  0
LINE
  5
2F2
100
AcDbEntity
  8
DRAFT
100
AcDbLine
 62
7
  6
CONTINUOUS
 10
-88.3420446473
 20
-42.2174382787
 11
-119.3420446473
 21
-42.4087630676
  0
LINE
  5
2F3
100
AcDbEntity
  8
RACCORDO
100
AcDbLine
 62
7
  6
CONTINUOUS
 10
-88.3425037202
 20
-40.2229241369
 11
-85.8376813795
 21
-40.2138697376
  0
LINE
  5
2F4
100
AcDbEntity
  8
RACCORDO
100
AcDbLine
 62
253
  6
CONTINUOUS
 10
-85.8376813795
 20
-40.6791549642
 11
-85.3420446473
 21
-40.6791549642
  0
LINE
  5
2F5
100
AcDbEntity
  8
DRAFT
100
AcDbLine
 62
7
  6
CONTINUOUS
 10
-119.3420446473
 20
-40.9819835791
 11
-88.3420446473
 21
-41.3645748775
  0
LINE
  5
2F6
100
AcDbEntity
  8
RACCORDO
100
AcDbLine
 62
7
  6
CONTINUOUS
 10
-85.8376813795
 20
-35.4676118513
 11
-88.2940503634
 21
-35.4890482587
  0
LINE
  5
2F7
100
AcDbEntity
  8
RACCORDO
100
AcDbLine
 62
253
  6
CONTINUOUS
 10
-88.289687428
 20
-34.9890672972
 11
-88.3420446473
 21
-34.9895242117
  0
LINE
  5
2F8
100
AcDbEntity
  8
DRAFT
100
AcDbLine
 62
253
  6
CONTINUOUS
 10
-135.3420446473
 20
-37.5
 11
-123.3420446473
 21
-37.5
  0
LINE
  5
2F9
100
AcDbEntity
  8
RACCORDO
100
AcDbLine
 62
7
  6
CONTINUOUS
 10
-86.5420446473
 20
-33.3
 11
-119.3420446473
 21
-33.8725261296
  0
LINE
  5
2FA
100
AcDbEntity
  8
DRAFT
100
AcDbLine
 62
253
  6
CONTINUOUS
 10
-92.5420446473
 20
-33.25
 11
-89.3420446473
 21
-33.25
  0
LINE
  5
2FB
100
AcDbEntity
  8
RACCORDO
100
AcDbLine
 62
253
  6
CONTINUOUS
 10
-119.3420446473
 20
-31.0
 11
-123.3420446473
 21
-31.0
  0
LINE
  5
2FC
100
AcDbEntity
  8
RACCORDO
100
AcDbLine
 62
7
  6
CONTINUOUS
 10
-116.2551344505
 20
-31.4406977936
 11
-86.5420446473
 21
-31.7
  0
LINE
  5
2FD
100
AcDbEntity
  8
RACCORDO
100
AcDbLine
 62
7
  6
CONTINUOUS
 10
-140.6420446473
 20
-57.0
 11
-140.6420446473
 21
57.0
  0
LINE
  5
2FE
100
AcDbEntity
  8
RACCORDO
100
AcDbLine
 62
253
  6
CONTINUOUS
 10
-138.6420446473
 20
-59.0
 11
-138.6420446473
 21
59.0
  0
LINE
  5
2FF
100
AcDbEntity
  8
DRAFT
100
AcDbLine
 62
7
  6
CONTINUOUS
 10
-132.791204384
 20
-26.308573359
 11
-123.3420446473
 21
-26.1436376623
  0
LINE
  5
300
100
AcDbEntity
  8
DRAFT
100
AcDbLine
 62
7
  6
CONTINUOUS
 10
-132.791204384
 20
-27.291426641
 11
-123.3420446473
 21
-27.4563623377
  0
LINE
  5
301
100
AcDbEntity
  8
0
100
AcDbLine
 62
7
  6
CONTINUOUS
 10
-135.3420446473
 20
-59.0
 11
-135.3420446473
 21
59.0
  0
LINE
  5
302
100
AcDbEntity
  8
RACCORDO
100
AcDbLine
 62
253
  6
CONTINUOUS
 10
-134.3594970537
 20
13.7642042954
 11
-134.3594970537
 21
13.1137625549
  0
LINE
  5
303
100
AcDbEntity
  8
RACCORDO
100
AcDbLine
 62
253
  6
CONTINUOUS
 10
-134.3594970537
 20
-13.1137625549
 11
-134.3594970537
 21
-13.7642042954
  0
LINE
  5
304
100
AcDbEntity
  8
DRAFT
100
AcDbLine
 62
7
  6
CONTINUOUS
 10
-133.8420446473
 20
-13.1047303896
 11
-133.8420446473
 21
13.1047303896
  0
LINE
  5
305
100
AcDbEntity
  8
DRAFT
100
AcDbLine
 62
7
  6
CONTINUOUS
 10
-132.791204384
 20
-27.291426641
 11
-132.791204384
 21
-26.308573359
  0
LINE
  5
306
100
AcDbEntity
  8
DRAFT
100
AcDbLine
 62
7
  6
CONTINUOUS
 10
-132.791204384
 20
26.308573359
 11
-132.791204384
 21
27.291426641
  0
LINE
  5
307
100
AcDbEntity
  8
RACCORDO
100
AcDbLine
 62
7
  6
CONTINUOUS
 10
-132.6420446473
 20
-12.8337843117
 11
-132.6420446473
 21
-11.0
  0
LINE
  5
308
100
AcDbEntity
  8
DRAFT
100
AcDbLine
 62
7
  6
CONTINUOUS
 10
-132.6420446473
 20
-11.0
 11
-132.6420446473
 21
11.0
  0
LINE
  5
309
100
AcDbEntity
  8
RACCORDO
100
AcDbLine
 62
7
  6
CONTINUOUS
 10
-132.6420446473
 20
11.0
 11
-132.6420446473
 21
12.8337843117
  0
LINE
  5
30A
100
AcDbEntity
  8
SMUSSO
100
AcDbLine
 62
7
  6
CONTINUOUS
 10
-117.7420446473
 20
-18.25
 11
-119.3420446473
 21
-17.8212812921
  0
LINE
  5
30B
100
AcDbEntity
  8
RACCORDO
100
AcDbLine
 62
7
  6
CONTINUOUS
 10
-127.8420446473
 20
-12.5086513684
 11
-127.8420446473
 21
-8.2988123013
  0
LINE
  5
30C
100
AcDbEntity
  8
DRAFT
100
AcDbLine
 62
7
  6
CONTINUOUS
 10
-127.8420446473
 20
-8.2988123013
 11
-127.8420446473
 21
8.2988123013
  0
LINE
  5
30D
100
AcDbEntity
  8
RACCORDO
100
AcDbLine
 62
7
  6
CONTINUOUS
 10
-127.8420446473
 20
8.2988123013
 11
-127.8420446473
 21
12.5086513684
  0
LINE
  5
30E
100
AcDbEntity
  8
SMUSSO
100
AcDbLine
 62
7
  6
CONTINUOUS
 10
-119.3420446473
 20
-14.6787187079
 11
-117.7420446473
 21
-14.25
  0
LINE
  5
30F
100
AcDbEntity
  8
RACCORDO
100
AcDbLine
 62
7
  6
CONTINUOUS
 10
-135.3420446473
 20
-13.130912987
 11
-128.3333184441
 21
-13.008575216
  0
LINE
  5
310
100
AcDbEntity
  8
RACCORDO
100
AcDbLine
 62
7
  6
CONTINUOUS
 10
-128.3333184441
 20
-12.758575216
 11
-133.8420446473
 21
-12.8547303896
  0
LINE
  5
311
100
AcDbEntity
  8
RACCORDO
100
AcDbLine
 62
253
  6
CONTINUOUS
 10
-134.3594970537
 20
-13.7642042954
 11
-135.3420446473
 21
-13.7642042954
  0
LINE
  5
312
100
AcDbEntity
  8
RACCORDO
100
AcDbLine
 62
7
  6
CONTINUOUS
 10
-123.3420446473
 20
-14.9563623377
 11
-134.3594970537
 21
-14.7640519906
  0
LINE
  5
313
100
AcDbEntity
  8
RACCORDO
100
AcDbLine
 62
253
  6
CONTINUOUS
 10
-123.3420446473
 20
-13.9565146425
 11
-134.3594970537
 21
-13.7642042954
  0
LINE
  5
314
100
AcDbEntity
  8
DRAFT
100
AcDbLine
 62
7
  6
CONTINUOUS
 10
-123.3420446473
 20
-53.0
 11
-123.3420446473
 21
-31.0
  0
LINE
  5
315
100
AcDbEntity
  8
RACCORDO
100
AcDbLine
 62
7
  6
CONTINUOUS
 10
-123.3420446473
 20
31.0
 11
-123.3420446473
 21
-31.0
  0
LINE
  5
316
100
AcDbEntity
  8
DRAFT
100
AcDbLine
 62
7
  6
CONTINUOUS
 10
-123.3420446473
 20
31.0
 11
-123.3420446473
 21
53.0
  0
LINE
  5
317
100
AcDbEntity
  8
DRAFT
100
AcDbLine
 62
7
  6
CONTINUOUS
 10
-127.8420446473
 20
-11.0
 11
-132.6420446473
 21
-11.0
  0
LINE
  5
318
100
AcDbEntity
  8
RACCORDO
100
AcDbLine
 62
253
  6
CONTINUOUS
 10
-120.3245922408
 20
52.9473301723
 11
-120.3245922408
 21
-52.9473301723
  0
LINE
  5
319
100
AcDbEntity
  8
RACCORDO
100
AcDbLine
 62
7
  6
CONTINUOUS
 10
-119.3420446473
 20
51.9474824772
 11
-119.3420446473
 21
-51.9474824772
  0
LINE
  5
31A
100
AcDbEntity
  8
SMUSSO
100
AcDbLine
 62
7
  6
CONTINUOUS
 10
-118.8421207997
 20
17.9552354833
 11
-118.8421207997
 21
14.5447645167
  0
LINE
  5
31B
100
AcDbEntity
  8
SMUSSO
100
AcDbLine
 62
7
  6
CONTINUOUS
 10
-118.8421207997
 20
-14.5447645167
 11
-118.8421207997
 21
-17.9552354833
  0
LINE
  5
31C
100
AcDbEntity
  8
RACCORDO
100
AcDbLine
 62
7
  6
CONTINUOUS
 10
-117.7420446473
 20
-29.940754909
 11
-117.7420446473
 21
-18.25
  0
LINE
  5
31D
100
AcDbEntity
  8
RACCORDO
100
AcDbLine
 62
7
  6
CONTINUOUS
 10
-117.7420446473
 20
-14.25
 11
-117.7420446473
 21
-2.559245091
  0
LINE
  5
31E
100
AcDbEntity
  8
RACCORDO
100
AcDbLine
 62
7
  6
CONTINUOUS
 10
-117.7420446473
 20
2.559245091
 11
-117.7420446473
 21
14.25
  0
LINE
  5
31F
100
AcDbEntity
  8
RACCORDO
100
AcDbLine
 62
7
  6
CONTINUOUS
 10
-117.7420446473
 20
18.25
 11
-117.7420446473
 21
29.940754909
  0
LINE
  5
320
100
AcDbEntity
  8
DRAFT
100
AcDbLine
 62
7
  6
CONTINUOUS
 10
-132.6420446473
 20
-8.0882381259
 11
-127.8420446473
 21
-8.0882381259
  0
LINE
  5
321
100
AcDbEntity
  8
DRAFT
100
AcDbLine
 62
7
  6
CONTINUOUS
 10
-92.5420446473
 20
0.4952696104
 11
-89.3420446473
 21
0.5511258182
  0
LINE
  5
322
100
AcDbEntity
  8
RACCORDO
100
AcDbLine
 62
7
  6
CONTINUOUS
 10
-86.5420446473
 20
-0.8
 11
-116.2551344505
 21
-1.0593022064
  0
LINE
  5
323
100
AcDbEntity
  8
DRAFT
100
AcDbLine
 62
7
  6
CONTINUOUS
 10
-92.5420446473
 20
-0.4952696104
 11
-89.3420446473
 21
-0.5511258182
  0
LINE
  5
324
100
AcDbEntity
  8
RACCORDO
100
AcDbLine
 62
7
  6
CONTINUOUS
 10
-116.2551344505
 20
1.0593022064
 11
-86.5420446473
 21
0.8
  0
LINE
  5
325
100
AcDbEntity
  8
DRAFT
100
AcDbLine
 62
7
  6
CONTINUOUS
 10
-132.6420446473
 20
8.0882381259
 11
-127.8420446473
 21
8.0882381259
  0
LINE
  5
326
100
AcDbEntity
  8
DRAFT
100
AcDbLine
 62
7
  6
CONTINUOUS
 10
-127.8420446473
 20
11.0
 11
-132.6420446473
 21
11.0
  0
LINE
  5
327
100
AcDbEntity
  8
RACCORDO
100
AcDbLine
 62
7
  6
CONTINUOUS
 10
-128.3333184441
 20
12.758575216
 11
-133.8420446473
 21
12.8547303896
  0
LINE
  5
328
100
AcDbEntity
  8
RACCORDO
100
AcDbLine
 62
7
  6
CONTINUOUS
 10
-128.3333184441
 20
13.008575216
 11
-135.3420446473
 21
13.130912987
  0
LINE
  5
329
100
AcDbEntity
  8
SMUSSO
100
AcDbLine
 62
7
  6
CONTINUOUS
 10
-117.7420446473
 20
14.25
 11
-119.3420446473
 21
14.6787187079
  0
LINE
  5
32A
100
AcDbEntity
  8
RACCORDO
100
AcDbLine
 62
253
  6
CONTINUOUS
 10
-134.3594970537
 20
13.7642042954
 11
-123.3420446473
 21
13.9565146425
  0
LINE
  5
32B
100
AcDbEntity
  8
RACCORDO
100
AcDbLine
 62
7
  6
CONTINUOUS
 10
-134.3594970537
 20
14.7640519906
 11
-123.3420446473
 21
14.9563623377
  0
LINE
  5
32C
100
AcDbEntity
  8
RACCORDO
100
AcDbLine
 62
253
  6
CONTINUOUS
 10
-134.3594970537
 20
13.7642042954
 11
-135.3420446473
 21
13.7642042954
  0
LINE
  5
32D
100
AcDbEntity
  8
DRAFT
100
AcDbLine
 62
7
  6
CONTINUOUS
 10
-92.5420446473
 20
-33.4047303896
 11
-92.5420446473
 21
-31.6476387933
  0
LINE
  5
32E
100
AcDbEntity
  8
DRAFT
100
AcDbLine
 62
7
  6
CONTINUOUS
 10
-92.5420446473
 20
-0.8523612067
 11
-92.5420446473
 21
0.8523612067
  0
LINE
  5
32F
100
AcDbEntity
  8
DRAFT
100
AcDbLine
 62
7
  6
CONTINUOUS
 10
-92.5420446473
 20
31.6476387933
 11
-92.5420446473
 21
33.4047303896
  0
LINE
  5
330
100
AcDbEntity
  8
SMUSSO
100
AcDbLine
 62
7
  6
CONTINUOUS
 10
-119.3420446473
 20
17.8212812921
 11
-117.7420446473
 21
18.25
  0
LINE
  5
331
100
AcDbEntity
  8
DRAFT
100
AcDbLine
 62
7
  6
CONTINUOUS
 10
-89.3420446473
 20
-33.3488741818
 11
-89.3420446473
 21
-31.6755647702
  0
LINE
  5
332
100
AcDbEntity
  8
DRAFT
100
AcDbLine
 62
7
  6
CONTINUOUS
 10
-89.3420446473
 20
-0.8244352298
 11
-89.3420446473
 21
0.8244352298
  0
LINE
  5
333
100
AcDbEntity
  8
DRAFT
100
AcDbLine
 62
7
  6
CONTINUOUS
 10
-89.3420446473
 20
31.6755647702
 11
-89.3420446473
 21
33.3488741818
  0
LINE
  5
334
100
AcDbEntity
  8
DRAFT
100
AcDbLine
 62
7
  6
CONTINUOUS
 10
-88.3420446473
 20
-40.3499227399
 11
-88.3420446473
 21
-38.8877490702
  0
LINE
  5
335
100
AcDbEntity
  8
RACCORDO
100
AcDbLine
 62
7
  6
CONTINUOUS
 10
-88.3420446473
 20
-38.8877490702
 11
-88.3420446473
 21
-34.9895242117
  0
LINE
  5
336
100
AcDbEntity
  8
DRAFT
100
AcDbLine
 62
7
  6
CONTINUOUS
 10
-88.3420446473
 20
-41.3645748775
 11
-88.3420446473
 21
-43.6796119484
  0
LINE
  5
337
100
AcDbEntity
  8
RACCORDO
100
AcDbLine
 62
7
  6
CONTINUOUS
 10
-88.3420446473
 20
34.9895242117
 11
-88.3420446473
 21
38.8877490702
  0
LINE
  5
338
100
AcDbEntity
  8
DRAFT
100
AcDbLine
 62
7
  6
CONTINUOUS
 10
-88.3420446473
 20
38.8877490702
 11
-88.3420446473
 21
40.3499227399
  0
LINE
  5
339
100
AcDbEntity
  8
DRAFT
100
AcDbLine
 62
7
  6
CONTINUOUS
 10
-88.3420446473
 20
41.3645748775
 11
-88.3420446473
 21
43.6796119484
  0
LINE
  5
33A
100
AcDbEntity
  8
RACCORDO
100
AcDbLine
 62
253
  6
CONTINUOUS
 10
-88.289687428
 20
34.9890672972
 11
-88.289687428
 21
33.3305052182
  0
LINE
  5
33B
100
AcDbEntity
  8
RACCORDO
100
AcDbLine
 62
253
  6
CONTINUOUS
 10
-88.289687428
 20
31.6847485525
 11
-88.289687428
 21
0.8152514475
  0
LINE
  5
33C
100
AcDbEntity
  8
RACCORDO
100
AcDbLine
 62
253
  6
CONTINUOUS
 10
-88.289687428
 20
-0.8152514475
 11
-88.289687428
 21
-31.6847485525
  0
LINE
  5
33D
100
AcDbEntity
  8
RACCORDO
100
AcDbLine
 62
253
  6
CONTINUOUS
 10
-88.289687428
 20
-33.3305052182
 11
-88.289687428
 21
-34.9890672972
  0
LINE
  5
33E
100
AcDbEntity
  8
RACCORDO
100
AcDbLine
 62
7
  6
CONTINUOUS
 10
-86.5420446473
 20
-33.3
 11
-86.5420446473
 21
-31.7
  0
LINE
  5
33F
100
AcDbEntity
  8
RACCORDO
100
AcDbLine
 62
7
  6
CONTINUOUS
 10
-86.5420446473
 20
-0.8
 11
-86.5420446473
 21
0.8
  0
LINE
  5
340
100
AcDbEntity
  8
RACCORDO
100
AcDbLine
 62
7
  6
CONTINUOUS
 10
-86.5420446473
 20
31.7
 11
-86.5420446473
 21
33.3
  0
LINE
  5
341
100
AcDbEntity
  8
DRAFT
100
AcDbLine
 62
7
  6
CONTINUOUS
 10
-132.791204384
 20
26.308573359
 11
-123.3420446473
 21
26.1436376623
  0
LINE
  5
342
100
AcDbEntity
  8
RACCORDO
100
AcDbLine
 62
253
  6
CONTINUOUS
 10
-85.8376813795
 20
-35.4676118513
 11
-85.8376813795
 21
-40.6791549642
  0
LINE
  5
343
100
AcDbEntity
  8
RACCORDO
100
AcDbLine
 62
253
  6
CONTINUOUS
 10
-85.8376813795
 20
35.4676118513
 11
-85.8376813795
 21
40.6791549642
  0
LINE
  5
344
100
AcDbEntity
  8
DRAFT
100
AcDbLine
 62
7
  6
CONTINUOUS
 10
-85.3420446473
 20
37.6583462909
 11
-85.3420446473
 21
37.109402695
  0
LINE
  5
345
100
AcDbEntity
  8
RACCORDO
100
AcDbLine
 62
7
  6
CONTINUOUS
 10
-85.3420446473
 20
-40.6791549642
 11
-85.3420446473
 21
40.6791549642
  0
LINE
  5
346
100
AcDbEntity
  8
SMUSSO
100
AcDbLine
 62
7
  6
CONTINUOUS
 10
-119.3420446473
 20
-44.7207189611
 11
-118.8421207997
 21
-44.2119927579
  0
LINE
  5
347
100
AcDbEntity
  8
DRAFT
100
AcDbLine
 62
7
  6
CONTINUOUS
 10
-132.791204384
 20
27.291426641
 11
-123.3420446473
 21
27.4563623377
  0
LINE
  5
348
100
AcDbEntity
  8
SMUSSO
100
AcDbLine
 62
7
  6
CONTINUOUS
 10
-118.8421207997
 20
44.2119927579
 11
-119.3420446473
 21
44.7207189611
  0
LINE
  5
349
100
AcDbEntity
  8
RACCORDO
100
AcDbLine
 62
7
  6
CONTINUOUS
 10
-86.5420446473
 20
31.7
 11
-116.2551344505
 21
31.4406977936
  0
LINE
  5
34A
100
AcDbEntity
  8
RACCORDO
100
AcDbLine
 62
253
  6
CONTINUOUS
 10
-119.3420446473
 20
31.0
 11
-123.3420446473
 21
31.0
  0
LINE
  5
34B
100
AcDbEntity
  8
DRAFT
100
AcDbLine
 62
253
  6
CONTINUOUS
 10
-92.5420446473
 20
33.25
 11
-89.3420446473
 21
33.25
  0
LINE
  5
34C
100
AcDbEntity
  8
RACCORDO
100
AcDbLine
 62
253
  6
CONTINUOUS
 10
-88.3420446473
 20
34.9895242117
 11
-88.289687428
 21
34.9890672972
  0
LINE
  5
34D
100
AcDbEntity
  8
RACCORDO
100
AcDbLine
 62
7
  6
CONTINUOUS
 10
-86.5420446473
 20
33.3
 11
-119.3420446473
 21
33.8725261296
  0
LINE
  5
34E
100
AcDbEntity
  8
DRAFT
100
AcDbLine
 62
253
  6
CONTINUOUS
 10
-135.3420446473
 20
37.5
 11
-123.3420446473
 21
37.5
  0
LINE
  5
34F
100
AcDbEntity
  8
DRAFT
100
AcDbLine
 62
7
  6
CONTINUOUS
 10
-119.3420446473
 20
39.1118829336
 11
-88.3420446473
 21
38.8877490702
  0
LINE
  5
350
100
AcDbEntity
  8
RACCORDO
100
AcDbLine
 62
7
  6
CONTINUOUS
 10
-88.2940503634
 20
35.4890482587
 11
-85.8376813795
 21
35.4676118513
  0
LINE
  5
351
100
AcDbEntity
  8
DRAFT
100
AcDbLine
 62
7
  6
CONTINUOUS
 10
-85.8376813795
 20
38.7551022885
 11
-88.3430114367
 21
38.7769659727
  0
LINE
  5
352
100
AcDbEntity
  8
DRAFT
100
AcDbLine
 62
7
  6
CONTINUOUS
 10
-119.3420446473
 20
40.9819835791
 11
-88.3420446473
 21
41.3645748775
  0
LINE
  5
353
100
AcDbEntity
  8
RACCORDO
100
AcDbLine
 62
253
  6
CONTINUOUS
 10
-85.8376813795
 20
40.6791549642
 11
-85.3420446473
 21
40.6791547879
  0
LINE
  5
354
100
AcDbEntity
  8
RACCORDO
100
AcDbLine
 62
7
  6
CONTINUOUS
 10
-88.3425037202
 20
40.2229241369
 11
-85.8376813795
 21
40.2138697376
  0
LINE
  5
355
100
AcDbEntity
  8
DRAFT
100
AcDbLine
 62
7
  6
CONTINUOUS
 10
-88.3420446473
 20
42.2174382787
 11
-119.3420446473
 21
42.4087630676
  0
LINE
  5
356
100
AcDbEntity
  8
DRAFT
100
AcDbLine
 62
7
  6
CONTINUOUS
 10
-88.3420446473
 20
40.3499227399
 11
-119.3420446473
 21
40.9238388271
  0
LINE
  5
357
100
AcDbEntity
  8
DRAFT
100
AcDbLine
 62
7
  6
CONTINUOUS
 10
-135.3420446473
 20
46.0
 11
-123.3420446473
 21
46.2094607791
  0
LINE
  5
358
100
AcDbEntity
  8
DRAFT
100
AcDbLine
 62
7
  6
CONTINUOUS
 10
-119.3420446473
 20
44.2207189611
 11
-88.3420446473
 21
43.6796119484
  0
LINE
  5
359
100
AcDbEntity
  8
RACCORDO
100
AcDbLine
 62
7
  6
CONTINUOUS
 10
-88.289687428
 20
43.6786980497
 11
-88.3420446473
 21
43.6796119484
  0
LINE
  5
35A
100
AcDbEntity
  8
RACCORDO
100
AcDbLine
 62
253
  6
CONTINUOUS
 10
-135.3420446473
 20
49.0
 11
-140.6420446473
 21
49.0
  0
LINE
  5
35B
100
AcDbEntity
  8
DRAFT
100
AcDbLine
 62
7
  6
CONTINUOUS
 10
-123.3420446473
 20
53.0
 11
-120.3245922408
 21
52.9473301723
  0
LINE
  5
35C
100
AcDbEntity
  8
RACCORDO
100
AcDbLine
 62
7
  6
CONTINUOUS
 10
-120.3245922408
 20
52.9473301723
 11
-123.3420446473
 21
53.0
  0
LINE
  5
35D
100
AcDbEntity
  8
RACCORDO
100
AcDbLine
 62
7
  6
CONTINUOUS
 10
-135.3420446473
 20
59.0
 11
-138.6420446473
 21
59.0
  0
ARC
  5
35E
100
AcDbEntity
  8
0
100
AcDbCircle
 62
7
  6
CONTINUOUS
 10
-39.0
 20
-26.3559837131
 40
14.5900727153
100
AcDbArc
 50
268.6254046104
 51
271.3745953896
  0
ARC
  5
35F
100
AcDbEntity
  8
0
100
AcDbCircle
 62
7
  6
CONTINUOUS
 10
-39.0
 20
-51.6440162869
 40
14.5900727153
100
AcDbArc
 50
88.6254046104
 51
91.3745953896
  0
ARC
  5
360
100
AcDbEntity
  8
RACCORDO
100
AcDbCircle
 62
7
  6
CONTINUOUS
 10
-49.0
 20
-49.0
 40
10.0
100
AcDbArc
 50
179.9999999934
 51
270.0000000117
  0
ARC
  5
361
100
AcDbEntity
  8
RACCORDO
100
AcDbCircle
 62
253
  6
CONTINUOUS
 10
-49.0
 20
-49.0
 40
7.999999798
100
AcDbArc
 50
180.0
 51
270.0
  0
CIRCLE
  5
362
100
AcDbEntity
  8
0
100
AcDbCircle
 62
7
  6
CONTINUOUS
 10
-39.0
 20
-39.0
 40
3.0
  0
CIRCLE
  5
363
100
AcDbEntity
  8
0
100
AcDbCircle
 62
7
  6
CONTINUOUS
 10
-39.0
 20
-39.0
 40
2.75
  0
ARC
  5
364
100
AcDbEntity
  8
0
100
AcDbCircle
 62
7
  6
CONTINUOUS
 10
-39.0
 20
51.6440162869
 40
14.5900727153
100
AcDbArc
 50
268.6254046104
 51
271.3745953896
  0
ARC
  5
365
100
AcDbEntity
  8
0
100
AcDbCircle
 62
7
  6
CONTINUOUS
 10
-39.0
 20
26.3559837131
 40
14.5900727153
100
AcDbArc
 50
88.6254046104
 51
91.3745953896
  0
ARC
  5
366
100
AcDbEntity
  8
RACCORDO
100
AcDbCircle
 62
7
  6
CONTINUOUS
 10
-49.0
 20
49.0
 40
10.0
100
AcDbArc
 50
89.9999999934
 51
180.0000000117
  0
ARC
  5
367
100
AcDbEntity
  8
RACCORDO
100
AcDbCircle
 62
253
  6
CONTINUOUS
 10
-49.0
 20
49.0
 40
7.999999798
100
AcDbArc
 50
90.0
 51
180.0
  0
CIRCLE
  5
368
100
AcDbEntity
  8
0
100
AcDbCircle
 62
7
  6
CONTINUOUS
 10
-39.0
 20
39.0
 40
3.0
  0
CIRCLE
  5
369
100
AcDbEntity
  8
0
100
AcDbCircle
 62
7
  6
CONTINUOUS
 10
-39.0
 20
39.0
 40
2.75
  0
ARC
  5
36A
100
AcDbEntity
  8
0
100
AcDbCircle
 62
7
  6
CONTINUOUS
 10
39.0
 20
-26.3559837131
 40
14.5900727153
100
AcDbArc
 50
268.6254046104
 51
271.3745953896
  0
ARC
  5
36B
100
AcDbEntity
  8
0
100
AcDbCircle
 62
7
  6
CONTINUOUS
 10
39.0
 20
-51.6440162869
 40
14.5900727153
100
AcDbArc
 50
88.6254046104
 51
91.3745953896
  0
ARC
  5
36C
100
AcDbEntity
  8
RACCORDO
100
AcDbCircle
 62
7
  6
CONTINUOUS
 10
49.0
 20
-49.0
 40
10.0
100
AcDbArc
 50
269.9999999934
 51
360.0
  0
ARC
  5
36D
100
AcDbEntity
  8
RACCORDO
100
AcDbCircle
 62
253
  6
CONTINUOUS
 10
49.0
 20
-49.0
 40
7.999999798
100
AcDbArc
 50
270.0
 51
360.0
  0
CIRCLE
  5
36E
100
AcDbEntity
  8
0
100
AcDbCircle
 62
7
  6
CONTINUOUS
 10
39.0
 20
-39.0
 40
3.0
  0
CIRCLE
  5
36F
100
AcDbEntity
  8
0
100
AcDbCircle
 62
7
  6
CONTINUOUS
 10
39.0
 20
-39.0
 40
2.75
  0
ARC
  5
370
100
AcDbEntity
  8
0
100
AcDbCircle
 62
7
  6
CONTINUOUS
 10
39.0
 20
51.6440162869
 40
14.5900727153
100
AcDbArc
 50
268.6254046104
 51
271.3745953896
  0
ARC
  5
371
100
AcDbEntity
  8
0
100
AcDbCircle
 62
7
  6
CONTINUOUS
 10
39.0
 20
26.3559837131
 40
14.5900727153
100
AcDbArc
 50
88.6254046104
 51
91.3745953896
  0
ARC
  5
372
100
AcDbEntity
  8
RACCORDO
100
AcDbCircle
 62
7
  6
CONTINUOUS
 10
49.0
 20
49.0
 40
10.0
100
AcDbArc
 50
0.0
 51
90.0000000117
  0
ARC
  5
373
100
AcDbEntity
  8
RACCORDO
100
AcDbCircle
 62
253
  6
CONTINUOUS
 10
49.0
 20
49.0
 40
7.999999798
100
AcDbArc
 50
0.0
 51
90.0
  0
CIRCLE
  5
374
100
AcDbEntity
  8
0
100
AcDbCircle
 62
7
  6
CONTINUOUS
 10
39.0
 20
39.0
 40
3.0
  0
CIRCLE
  5
375
100
AcDbEntity
  8
0
100
AcDbCircle
 62
7
  6
CONTINUOUS
 10
39.0
 20
39.0
 40
2.75
  0
ARC
  5
376
100
AcDbEntity
  8
RACCORDO
100
AcDbCircle
 62
7
  6
CONTINUOUS
 10
-138.6420446473
 20
-57.0
 40
2.0
100
AcDbArc
 50
180.0
 51
270.0
  0
ARC
  5
377
100
AcDbEntity
  8
RACCORDO
100
AcDbCircle
 62
7
  6
CONTINUOUS
 10
-116.2420446473
 20
-29.940754909
 40
1.5
100
AcDbArc
 50
180.0
 51
269.5
  0
ARC
  5
378
100
AcDbEntity
  8
RACCORDO
100
AcDbCircle
 62
7
  6
CONTINUOUS
 10
-116.2420446473
 20
-2.559245091
 40
1.5
100
AcDbArc
 50
90.5
 51
180.0
  0
ARC
  5
379
100
AcDbEntity
  8
RACCORDO
100
AcDbCircle
 62
7
  6
CONTINUOUS
 10
-120.3420446473
 20
-51.9474824772
 40
1.0
100
AcDbArc
 50
271.0
 51
360.0
  0
ARC
  5
37A
100
AcDbEntity
  8
RACCORDO
100
AcDbCircle
 62
7
  6
CONTINUOUS
 10
-134.3420446473
 20
-13.7642042954
 40
1.0
100
AcDbArc
 50
180.0
 51
269.0
  0
ARC
  5
37B
100
AcDbEntity
  8
RACCORDO
100
AcDbCircle
 62
7
  6
CONTINUOUS
 10
-128.3420446473
 20
-12.2586513684
 40
0.5
100
AcDbArc
 50
271.0
 51
339.875011674
  0
ARC
  5
37C
100
AcDbEntity
  8
RACCORDO
100
AcDbCircle
 62
7
  6
CONTINUOUS
 10
-128.3420446473
 20
-12.5086513684
 40
0.5
100
AcDbArc
 50
271.0
 51
360.0
  0
ARC
  5
37D
100
AcDbEntity
  8
RACCORDO
100
AcDbCircle
 62
7
  6
CONTINUOUS
 10
-138.6420446473
 20
57.0
 40
2.0
100
AcDbArc
 50
90.0
 51
180.0
  0
ARC
  5
37E
100
AcDbEntity
  8
RACCORDO
100
AcDbCircle
 62
7
  6
CONTINUOUS
 10
-116.2420446473
 20
2.559245091
 40
1.5
100
AcDbArc
 50
180.0
 51
269.5
  0
ARC
  5
37F
100
AcDbEntity
  8
RACCORDO
100
AcDbCircle
 62
7
  6
CONTINUOUS
 10
-116.2420446473
 20
29.940754909
 40
1.5
100
AcDbArc
 50
90.5
 51
180.0
  0
ARC
  5
380
100
AcDbEntity
  8
RACCORDO
100
AcDbCircle
 62
7
  6
CONTINUOUS
 10
-120.3420446473
 20
51.9474824772
 40
1.0
100
AcDbArc
 50
0.0
 51
88.9999999963
  0
ARC
  5
381
100
AcDbEntity
  8
RACCORDO
100
AcDbCircle
 62
7
  6
CONTINUOUS
 10
-134.3420446473
 20
13.7642042954
 40
1.0
100
AcDbArc
 50
91.0
 51
180.0
  0
ARC
  5
382
100
AcDbEntity
  8
RACCORDO
100
AcDbCircle
 62
7
  6
CONTINUOUS
 10
-128.3420446473
 20
12.2586513684
 40
0.5
100
AcDbArc
 50
20.125099741
 51
89.0
  0
ARC
  5
383
100
AcDbEntity
  8
RACCORDO
100
AcDbCircle
 62
7
  6
CONTINUOUS
 10
-128.3420446473
 20
12.5086513684
 40
0.5
100
AcDbArc
 50
0.0
 51
89.0
  0
ARC
  5
384
100
AcDbEntity
  8
RACCORDO
100
AcDbCircle
 62
7
  6
CONTINUOUS
 10
-88.3420446473
 20
-40.6791549642
 40
3.0
100
AcDbArc
 50
271.0
 51
360.0
  0
ARC
  5
385
100
AcDbEntity
  8
RACCORDO
100
AcDbCircle
 62
253
  6
CONTINUOUS
 10
-88.337778521
 20
-40.6790308559
 40
2.500120879
100
AcDbArc
 50
271.0021762297
 51
359.9971557559
  0
ARC
  5
386
100
AcDbEntity
  8
RACCORDO
100
AcDbCircle
 62
7
  6
CONTINUOUS
 10
-85.8420446473
 20
-38.255121327
 40
0.5
100
AcDbArc
 50
270.5
 51
360.0
  0
ARC
  5
387
100
AcDbEntity
  8
RACCORDO
100
AcDbCircle
 62
7
  6
CONTINUOUS
 10
-85.842350514
 20
-34.9676335591
 40
0.5
100
AcDbArc
 50
270.5350510747
 51
0.0003054077
  0
ARC
  5
388
100
AcDbEntity
  8
RACCORDO
100
AcDbCircle
 62
253
  6
CONTINUOUS
 10
-85.8285173265
 20
-37.8869825195
 40
0.4988044682
100
AcDbArc
 50
51.2243439275
 51
61.097628613
  0
ARC
  5
389
100
AcDbEntity
  8
RACCORDO
100
AcDbCircle
 62
7
  6
CONTINUOUS
 10
-88.3420446473
 20
40.6791549642
 40
3.0
100
AcDbArc
 50
0.0
 51
89.0
  0
ARC
  5
38A
100
AcDbEntity
  8
RACCORDO
100
AcDbCircle
 62
253
  6
CONTINUOUS
 10
-88.3378895382
 20
40.6789210599
 40
2.5002576364
100
AcDbArc
 50
0.0053602456
 51
88.9953240829
  0
ARC
  5
38B
100
AcDbEntity
  8
RACCORDO
100
AcDbCircle
 62
253
  6
CONTINUOUS
 10
-85.8312018923
 20
37.8908305253
 40
0.5033785214
100
AcDbArc
 50
294.7556363887
 51
310.1609350086
  0
ARC
  5
38C
100
AcDbEntity
  8
RACCORDO
100
AcDbCircle
 62
7
  6
CONTINUOUS
 10
-85.8420446473
 20
38.255121327
 40
0.5
100
AcDbArc
 50
0.0
 51
89.5
  0
ARC
  5
38D
100
AcDbEntity
  8
RACCORDO
100
AcDbCircle
 62
7
  6
CONTINUOUS
 10
-85.8420446473
 20
34.9676308898
 40
0.5
100
AcDbArc
 50
0.0
 51
89.5
  0
ARC
  5
38E
100
AcDbEntity
  8
RACCORDO
100
AcDbCircle
 62
253
  6
CONTINUOUS
 10
-85.8170607907
 20
37.8735521953
 40
0.481053802
100
AcDbArc
 50
310.2009890302
 51
317.7756398064
  0
SPLINE
  5
38F
100
AcDbEntity
  8
RACCORDO
100
AcDbSpline
 62
253
  6
CONTINUOUS
 70
0
 71
3
 72
9
 73
5
 74
3
 42
0.0000001
 43
0.0000001
 44
0.0000000001
 12
0.2500608409
 22
-0.0021822479
 32
0.0
 13
0.0243517834
 23
-0.2229552606
 33
0.0
 40
0.0
 40
0.0
 40
0.0
 40
0.0
 40
0.2682412441
 40
1.0
 40
1.0
 40
1.0
 40
1.0
 10
-88.2940503634
 20
35.4890482587
 30
0.0
 10
-88.2716914864
 20
35.4888531358
 30
0.0
 10
-88.314823043
 20
35.354561889
 30
0.0
 10
-88.2946155296
 20
35.2934744456
 30
0.0
 10
-88.2886756527
 20
35.2390912909
 30
0.0
 11
-88.2940503634
 21
35.4890482587
 31
0.0
 11
-88.290273352
 21
35.4220754935
 31
0.0
 11
-88.2886756527
 21
35.2390912909
 31
0.0
  0
SPLINE
  5
390
100
AcDbEntity
  8
RACCORDO
100
AcDbSpline
 62
253
  6
CONTINUOUS
 70
0
 71
3
 72
8
 73
4
 74
2
 42
0.0000001
 43
0.0000001
 44
0.0000000001
 12
0.0243474674
 22
-0.2229157448
 32
0.0
 13
-0.0021810095
 23
-0.2500165284
 33
0.0
 40
0.0
 40
0.0
 40
0.0
 40
0.0
 40
1.0
 40
1.0
 40
1.0
 40
1.0
 10
-88.2886756527
 20
35.2390912909
 30
0.0
 10
-88.2805598302
 20
35.1647860426
 30
0.0
 10
-88.2889603349
 20
35.0724061393
 30
0.0
 10
-88.289687338
 20
34.9890672964
 30
0.0
 11
-88.2886756527
 21
35.2390912909
 31
0.0
 11
-88.289687338
 21
34.9890672964
 31
0.0
  0
SPLINE
  5
391
100
AcDbEntity
  8
RACCORDO
100
AcDbSpline
 62
7
  6
CONTINUOUS
 70
0
 71
3
 72
8
 73
4
 74
2
 42
0.0000001
 43
0.0000001
 44
0.0000000001
 12
2.5043634198
 22
-0.0073797339
 32
0.0
 13
2.5043596671
 23
-0.0085287816
 33
0.0
 40
0.0
 40
0.0
 40
0.0
 40
0.0
 40
1.0
 40
1.0
 40
1.0
 40
1.0
 10
-88.3420429835
 20
-37.3771520016
 30
0.0
 10
-87.5072551768
 20
-37.3796119129
 30
0.0
 10
-86.6724679352
 20
-37.3822534321
 30
0.0
 10
-85.8376813795
 20
-37.3850963593
 30
0.0
 11
-88.3420429835
 21
-37.3771520016
 31
0.0
 11
-85.8376813795
 21
-37.3850963593
 31
0.0
  0
SPLINE
  5
392
100
AcDbEntity
  8
RACCORDO
100
AcDbSpline
 62
7
  6
CONTINUOUS
 70
0
 71
3
 72
8
 73
4
 74
2
 42
0.0000001
 43
0.0000001
 44
0.0000000001
 12
2.5043634198
 22
0.0073797339
 32
0.0
 13
2.5043596671
 23
0.0085287816
 33
0.0
 40
0.0
 40
0.0
 40
0.0
 40
0.0
 40
1.0
 40
1.0
 40
1.0
 40
1.0
 10
-88.3420429835
 20
37.3771520016
 30
0.0
 10
-87.5072551768
 20
37.3796119129
 30
0.0
 10
-86.6724679352
 20
37.3822534321
 30
0.0
 10
-85.8376813795
 20
37.3850963593
 30
0.0
 11
-88.3420429835
 21
37.3771520016
 31
0.0
 11
-85.8376813795
 21
37.3850963593
 31
0.0
  0
SPLINE
  5
393
100
AcDbEntity
  8
RACCORDO
100
AcDbSpline
 62
253
  6
CONTINUOUS
 70
0
 71
3
 72
14
 73
10
 74
8
 42
0.0000001
 43
0.0000001
 44
0.0000000001
 12
-0.0174497832
 22
-1.000001995
 32
0.0
 13
1.0000019021
 23
-0.0174551052
 33
0.0
 40
0.0
 40
0.0
 40
0.0
 40
0.0
 40
0.1834597968
 40
0.3764171911
 40
0.5663604008
 40
0.7384326713
 40
0.8770325507
 40
0.9678288138
 40
1.0
 40
1.0
 40
1.0
 40
1.0
 10
-134.3594970537
 20
-13.7642042954
 30
0.0
 10
-134.3605641649
 20
-13.825357683
 30
0.0
 10
-134.3626155401
 20
-13.9509147803
 30
0.0
 10
-134.3646726925
 20
-14.1393389245
 30
0.0
 10
-134.367244323
 20
-14.3256876415
 30
0.0
 10
-134.3644562979
 20
-14.4883585471
 30
0.0
 10
-134.3724448379
 20
-14.6334357868
 30
0.0
 10
-134.3536987316
 20
-14.6986403263
 30
0.0
 10
-134.3702208028
 20
-14.7638648068
 30
0.0
 10
-134.3594970537
 20
-14.7640519906
 30
0.0
 11
-134.3594970537
 21
-13.7642042954
 31
0.0
 11
-134.3624012676
 21
-13.9476694022
 31
0.0
 11
-134.3647810309
 21
-14.1406418833
 31
0.0
 11
-134.3663103043
 21
-14.3306082325
 31
0.0
 11
-134.3666970847
 21
-14.5027066072
 31
0.0
 11
-134.3657281376
 21
-14.6413244765
 31
0.0
 11
-134.3633097743
 21
-14.7321025358
 31
0.0
 11
-134.3594970537
 21
-14.7640519906
 31
0.0
  0
SPLINE
  5
394
100
AcDbEntity
  8
RACCORDO
100
AcDbSpline
 62
253
  6
CONTINUOUS
 70
0
 71
3
 72
14
 73
10
 74
8
 42
0.0000001
 43
0.0000001
 44
0.0000000001
 12
-1.0000458478
 22
-0.0174558646
 32
0.0
 13
0.01745055
 23
-1.0000459406
 33
0.0
 40
0.0
 40
0.0
 40
0.0
 40
0.0
 40
0.0176488174
 40
0.0752312205
 40
0.1785763109
 40
0.3291104466
 40
0.5230783867
 40
0.7513365489
 40
1.0
 40
1.0
 40
1.0
 40
1.0
 10
-134.3594970537
 20
14.7640519906
 30
0.0
 10
-134.3653802626
 20
14.7639492988
 30
0.0
 10
-134.3575840286
 20
14.7246706368
 30
0.0
 10
-134.3696170753
 20
14.679953466
 30
0.0
 10
-134.3645969588
 20
14.5670067399
 30
0.0
 10
-134.3677026226
 20
14.4219225947
 30
0.0
 10
-134.3655019875
 20
14.2293118425
 30
0.0
 10
-134.3634786919
 20
14.0062281978
 30
0.0
 10
-134.3609434917
 20
13.8470959204
 30
0.0
 10
-134.3594970537
 20
13.7642042954
 30
0.0
 11
-134.3594970537
 21
14.7640519906
 31
0.0
 11
-134.3624304075
 21
14.7466451051
 31
0.0
 11
-134.3648129892
 21
14.6891005934
 31
0.0
 11
-134.3663273259
 21
14.5857461151
 31
0.0
 11
-134.3666925515
 21
14.435182589
 31
0.0
 11
-134.3657073671
 21
14.2411787093
 31
0.0
 11
-134.3632889741
 21
14.0128881195
 31
0.0
 11
-134.3594970537
 21
13.7642042954
 31
0.0
  0
SPLINE
  5
395
100
AcDbEntity
  8
RACCORDO
100
AcDbSpline
 62
253
  6
CONTINUOUS
 70
0
 71
3
 72
8
 73
4
 74
2
 42
0.0000001
 43
0.0000001
 44
0.0000000001
 12
0.0
 22
-0.1859848464
 32
0.0
 13
-0.1177396132
 23
-0.1486431384
 33
0.0
 40
0.0
 40
0.0
 40
0.0
 40
0.0
 40
1.0
 40
1.0
 40
1.0
 40
1.0
 10
-85.3420446473
 20
37.7356828833
 30
0.0
 10
-85.3420446473
 20
37.6736879345
 30
0.0
 10
-85.3686573112
 20
37.6112969057
 30
0.0
 10
-85.4079038489
 20
37.5617491929
 30
0.0
 11
-85.3420446473
 21
37.7356828833
 31
0.0
 11
-85.4079038489
 21
37.5617491929
 31
0.0
  0
SPLINE
  5
396
100
AcDbEntity
  8
RACCORDO
100
AcDbSpline
 62
253
  6
CONTINUOUS
 70
0
 71
3
 72
8
 73
4
 74
2
 42
0.0000001
 43
0.0000001
 44
0.0000000001
 12
-0.0423539448
 22
-0.0534707318
 32
0.0
 13
-0.0510552983
 23
-0.043985197
 33
0.0
 40
0.0
 40
0.0
 40
0.0
 40
0.0
 40
1.0
 40
1.0
 40
1.0
 40
1.0
 10
-85.4079038489
 20
37.5617491929
 30
0.0
 10
-85.4220218305
 20
37.5439256156
 30
0.0
 10
-85.4377746664
 20
37.527763995
 30
0.0
 10
-85.4547930992
 20
37.5131022627
 30
0.0
 11
-85.4079038489
 21
37.5617491929
 31
0.0
 11
-85.4547930992
 21
37.5131022627
 31
0.0
  0
SPLINE
  5
397
100
AcDbEntity
  8
RACCORDO
100
AcDbSpline
 62
253
  6
CONTINUOUS
 70
0
 71
3
 72
9
 73
5
 74
3
 42
0.0000001
 43
0.0000001
 44
0.0000000001
 12
-0.3087550199
 22
-0.2659988449
 32
0.0
 13
-0.4045960359
 23
0.0005544627
 33
0.0
 40
0.0
 40
0.0
 40
0.0
 40
0.0
 40
0.3811669615
 40
1.0
 40
1.0
 40
1.0
 40
1.0
 10
-85.4547930992
 20
37.5131022627
 30
0.0
 10
-85.4940221701
 20
37.4793056055
 30
0.0
 10
-85.6145828853
 20
37.4115477132
 30
0.0
 10
-85.7502998361
 20
37.384980851
 30
0.0
 10
-85.8337589675
 20
37.3850952243
 30
0.0
 11
-85.4547930992
 21
37.5131022627
 31
0.0
 11
-85.5881317161
 21
37.4336360384
 31
0.0
 11
-85.8337589675
 21
37.3850952243
 31
0.0
  0
SPLINE
  5
398
100
AcDbEntity
  8
RACCORDO
100
AcDbSpline
 62
7
  6
CONTINUOUS
 70
0
 71
3
 72
10
 73
6
 74
4
 42
0.0000001
 43
0.0000001
 44
0.0000000001
 12
0.5689428333
 22
-0.0020566072
 32
0.0
 13
0.0
 23
-0.5689465504
 33
0.0
 40
0.0
 40
0.0
 40
0.0
 40
0.0
 40
0.4541325415
 40
0.7939816238
 40
1.0
 40
1.0
 40
1.0
 40
1.0
 10
-85.8376813795
 20
40.2138697376
 30
0.0
 10
-85.7515562279
 20
40.2135584136
 30
0.0
 10
-85.6002103352
 20
40.1949556939
 30
0.0
 10
-85.4198992014
 20
40.1374867388
 30
0.0
 10
-85.3420446473
 20
40.0458419906
 30
0.0
 10
-85.3420446473
 20
40.0067708424
 30
0.0
 11
-85.8376813795
 21
40.2138697376
 31
0.0
 11
-85.5811028171
 21
40.1834363799
 31
0.0
 11
-85.4037417774
 21
40.1064325487
 31
0.0
 11
-85.3420446473
 21
40.0067708424
 31
0.0
  0
SPLINE
  5
399
100
AcDbEntity
  8
RACCORDO
100
AcDbSpline
 62
253
  6
CONTINUOUS
 70
0
 71
3
 72
10
 73
6
 74
4
 42
0.0000001
 43
0.0000001
 44
0.0000000001
 12
0.0087249728
 22
0.4998908722
 32
0.0
 13
-0.4998908607
 23
0.0087256274
 33
0.0
 40
0.0
 40
0.0
 40
0.0
 40
0.0
 40
0.499969887
 40
0.8659708621
 40
1.0
 40
1.0
 40
1.0
 40
1.0
 10
-88.2940503634
 20
43.1787742021
 30
0.0
 10
-88.2925962889
 20
43.2620843298
 30
0.0
 10
-88.2752987803
 20
43.4219647327
 30
0.0
 10
-88.3164677134
 20
43.5442858497
 30
0.0
 10
-88.2673541143
 20
43.6783082203
 30
0.0
 10
-88.289687428
 20
43.6786980497
 30
0.0
 11
-88.2940503634
 21
43.1787742021
 31
0.0
 11
-88.2902724236
 21
43.4287140998
 31
0.0
 11
-88.2886754849
 21
43.6116955439
 31
0.0
 11
-88.289687428
 21
43.6786980497
 31
0.0
  0
SPLINE
  5
39A
100
AcDbEntity
  8
RACCORDO
100
AcDbSpline
 62
253
  6
CONTINUOUS
 70
0
 71
3
 72
9
 73
5
 74
3
 42
0.0000001
 43
0.0000001
 44
0.0000000001
 12
0.0
 22
-0.330939254
 32
0.0
 13
-0.2235189538
 23
-0.2465105888
 33
0.0
 40
0.0
 40
0.0
 40
0.0
 40
0.0
 40
0.4715220958
 40
1.0
 40
1.0
 40
1.0
 40
1.0
 10
-85.3420446473
 20
37.853127565
 30
0.0
 10
-85.3420446473
 20
37.8011125081
 30
0.0
 10
-85.3621583127
 20
37.689873537
 30
0.0
 10
-85.421456398
 20
37.5936920994
 30
0.0
 10
-85.4608313407
 20
37.5502669662
 30
0.0
 11
-85.3420446473
 21
37.853127565
 31
0.0
 11
-85.3697247157
 21
37.6995570304
 31
0.0
 11
-85.4608313407
 21
37.5502669662
 31
0.0
  0
SPLINE
  5
39B
100
AcDbEntity
  8
RACCORDO
100
AcDbSpline
 62
253
  6
CONTINUOUS
 70
0
 71
3
 72
8
 73
4
 74
2
 42
0.0000001
 43
0.0000001
 44
0.0000000001
 12
-0.2039459596
 22
-0.0942196088
 32
0.0
 13
-0.2226314042
 23
-0.0021000286
 33
0.0
 40
0.0
 40
0.0
 40
0.0
 40
0.0
 40
1.0
 40
1.0
 40
1.0
 40
1.0
 10
-85.6204126032
 20
37.4337114911
 30
0.0
 10
-85.6883945897
 20
37.4023049549
 30
0.0
 10
-85.7634709115
 20
37.3857963683
 30
0.0
 10
-85.8376813795
 20
37.3850963588
 30
0.0
 11
-85.6204126032
 21
37.4337114911
 31
0.0
 11
-85.8376813795
 21
37.3850963588
 31
0.0
  0
SPLINE
  5
39C
100
AcDbEntity
  8
RACCORDO
100
AcDbSpline
 62
253
  6
CONTINUOUS
 70
0
 71
3
 72
10
 73
6
 74
4
 42
0.0000001
 43
0.0000001
 44
0.0000000001
 12
0.0
 22
0.663624636
 32
0.0
 13
-0.6636120011
 23
0.0040950468
 33
0.0
 40
0.0
 40
0.0
 40
0.0
 40
0.0
 40
0.2600046202
 40
0.5976566507
 40
1.0
 40
1.0
 40
1.0
 40
1.0
 10
-85.3420446473
 20
37.0315564309
 30
0.0
 10
-85.3420446473
 20
37.089071588
 30
0.0
 10
-85.3932440613
 20
37.2224344805
 30
0.0
 10
-85.5834006151
 20
37.3529913412
 30
0.0
 10
-85.7486814211
 20
37.3845471543
 30
0.0
 10
-85.8376813795
 20
37.3850963593
 30
0.0
 11
-85.3420446473
 21
37.0315564309
 31
0.0
 11
-85.3984113213
 21
37.194635362
 31
0.0
 11
-85.5762137436
 21
37.3310008575
 31
0.0
 11
-85.8376813795
 21
37.3850963593
 31
0.0
  0
SPLINE
  5
39D
100
AcDbEntity
  8
RACCORDO
100
AcDbSpline
 62
253
  6
CONTINUOUS
 70
0
 71
3
 72
9
 73
5
 74
3
 42
0.0000001
 43
0.0000001
 44
0.0000000001
 12
0.0
 22
-0.1582100194
 32
0.0
 13
-0.1474463257
 23
-0.0658993925
 33
0.0
 40
0.0
 40
0.0
 40
0.0
 40
0.0
 40
0.6812337725
 40
1.0
 40
1.0
 40
1.0
 40
1.0
 10
-85.3420446473
 20
-37.2131481326
 30
0.0
 10
-85.3420446473
 20
-37.2490741354
 30
0.0
 10
-85.3901187766
 20
-37.2907023607
 30
0.0
 10
-85.4389660413
 20
-37.3165417512
 30
0.0
 10
-85.4546330109
 20
-37.3235439181
 30
0.0
 11
-85.3420446473
 21
-37.2131481326
 31
0.0
 11
-85.4079028845
 21
-37.2984639675
 31
0.0
 11
-85.4546330109
 21
-37.3235439181
 31
0.0
  0
SPLINE
  5
39E
100
AcDbEntity
  8
RACCORDO
100
AcDbSpline
 62
253
  6
CONTINUOUS
 70
0
 71
3
 72
9
 73
5
 74
3
 42
0.0000001
 43
0.0000001
 44
0.0000000001
 12
-0.3610827305
 22
-0.1613816584
 32
0.0
 13
-0.3874319011
 23
0.002803484
 33
0.0
 40
0.0
 40
0.0
 40
0.0
 40
0.0
 40
0.3624669712
 40
1.0
 40
1.0
 40
1.0
 40
1.0
 10
-85.4546330109
 20
-37.3235439181
 30
0.0
 10
-85.4982598655
 20
-37.3430424251
 30
0.0
 10
-85.6206768755
 20
-37.3704255508
 30
0.0
 10
-85.7516510133
 20
-37.3857173838
 30
0.0
 10
-85.8339845577
 20
-37.3851216126
 30
0.0
 11
-85.4546330109
 21
-37.3235439181
 31
0.0
 11
-85.5881283664
 21
-37.3613048005
 31
0.0
 11
-85.8339845577
 21
-37.3851216126
 31
0.0
  0
SPLINE
  5
39F
100
AcDbEntity
  8
RACCORDO
100
AcDbSpline
 62
253
  6
CONTINUOUS
 70
0
 71
3
 72
10
 73
6
 74
4
 42
0.0000001
 43
0.0000001
 44
0.0000000001
 12
0.0087245814
 22
-0.4998908686
 32
0.0
 13
-0.4998908503
 23
-0.0087256329
 33
0.0
 40
0.0
 40
0.0
 40
0.0
 40
0.0
 40
0.4998405689
 40
0.8659068551
 40
1.0
 40
1.0
 40
1.0
 40
1.0
 10
-88.2940503634
 20
-43.1787742021
 30
0.0
 10
-88.2925967302
 20
-43.2620627809
 30
0.0
 10
-88.2753041136
 20
-43.4219272666
 30
0.0
 10
-88.3164736645
 20
-43.5442485222
 30
0.0
 10
-88.2673433593
 20
-43.6783080323
 30
0.0
 10
-88.289687338
 20
-43.6786980481
 30
0.0
 11
-88.2940503634
 21
-43.1787742021
 31
0.0
 11
-88.290273352
 21
-43.4286494465
 31
0.0
 11
-88.2886756527
 21
-43.6116635348
 31
0.0
 11
-88.289687338
 21
-43.6786980481
 31
0.0
  0
SPLINE
  5
3A0
100
AcDbEntity
  8
RACCORDO
100
AcDbSpline
 62
7
  6
CONTINUOUS
 70
0
 71
3
 72
10
 73
6
 74
4
 42
0.0000001
 43
0.0000001
 44
0.0000000001
 12
0.5689428333
 22
0.0020566072
 32
0.0
 13
0.0
 23
0.5689465504
 33
0.0
 40
0.0
 40
0.0
 40
0.0
 40
0.0
 40
0.4541325415
 40
0.7939816238
 40
1.0
 40
1.0
 40
1.0
 40
1.0
 10
-85.8376813795
 20
-40.2138697376
 30
0.0
 10
-85.7515562279
 20
-40.2135584136
 30
0.0
 10
-85.6002103352
 20
-40.1949556939
 30
0.0
 10
-85.4198992014
 20
-40.1374867388
 30
0.0
 10
-85.3420446473
 20
-40.0458419906
 30
0.0
 10
-85.3420446473
 20
-40.0067708424
 30
0.0
 11
-85.8376813795
 21
-40.2138697376
 31
0.0
 11
-85.5811028171
 21
-40.1834363799
 31
0.0
 11
-85.4037417774
 21
-40.1064325487
 31
0.0
 11
-85.3420446473
 21
-40.0067708424
 31
0.0
  0
SPLINE
  5
3A1
100
AcDbEntity
  8
RACCORDO
100
AcDbSpline
 62
253
  6
CONTINUOUS
 70
0
 71
3
 72
8
 73
4
 74
2
 42
0.0000001
 43
0.0000001
 44
0.0000000001
 12
0.0
 22
0.1575512816
 32
0.0
 13
-0.0561716357
 23
0.149930253
 33
0.0
 40
0.0
 40
0.0
 40
0.0
 40
0.0
 40
1.0
 40
1.0
 40
1.0
 40
1.0
 10
-85.3420446473
 20
-37.853127565
 30
0.0
 10
-85.3420446473
 20
-37.8006104711
 30
0.0
 10
-85.3520813208
 20
-37.7474435501
 30
0.0
 10
-85.3708051994
 20
-37.6974667991
 30
0.0
 11
-85.3420446473
 21
-37.853127565
 31
0.0
 11
-85.3708051994
 21
-37.6974667991
 31
0.0
  0
SPLINE
  5
3A2
100
AcDbEntity
  8
RACCORDO
100
AcDbSpline
 62
253
  6
CONTINUOUS
 70
0
 71
3
 72
9
 73
5
 74
3
 42
0.0000001
 43
0.0000001
 44
0.0000000001
 12
-0.0879179978
 22
0.2346659039
 32
0.0
 13
-0.1944662102
 23
0.1563076872
 33
0.0
 40
0.0
 40
0.0
 40
0.0
 40
0.0
 40
0.3252143065
 40
1.0
 40
1.0
 40
1.0
 40
1.0
 10
-85.3708051994
 20
-37.6974667991
 30
0.0
 10
-85.3803359296
 20
-37.672027896
 30
0.0
 10
-85.4165629656
 20
-37.5963475146
 30
0.0
 10
-85.4723887357
 20
-37.5332705612
 30
0.0
 10
-85.5161297412
 20
-37.4981124975
 30
0.0
 11
-85.3708051994
 21
-37.6974667991
 31
0.0
 11
-85.4059718776
 21
-37.6241362038
 31
0.0
 11
-85.5161297412
 21
-37.4981124975
 31
0.0
  0
SPLINE
  5
3A3
100
AcDbEntity
  8
RACCORDO
100
AcDbSpline
 62
253
  6
CONTINUOUS
 70
0
 71
3
 72
8
 73
4
 74
2
 42
0.0000001
 43
0.0000001
 44
0.0000000001
 12
-0.2293520779
 22
0.126668905
 32
0.0
 13
-0.2585938493
 23
0.0021125075
 33
0.0
 40
0.0
 40
0.0
 40
0.0
 40
0.0
 40
1.0
 40
1.0
 40
1.0
 40
1.0
 10
-85.5874358408
 20
-37.4503068794
 30
0.0
 10
-85.6638865334
 20
-37.408083911
 30
0.0
 10
-85.7514834298
 20
-37.3858005284
 30
0.0
 10
-85.8376813795
 20
-37.3850963592
 30
0.0
 11
-85.5874358408
 21
-37.4503068794
 31
0.0
 11
-85.8376813795
 21
-37.3850963592
 31
0.0
  0
LINE
  5
3A4
100
AcDbEntity
  8
RACCORDO
100
AcDbLine
 62
253
  6
CONTINUOUS
 10
-88.289687428
 20
34.9890672972
 11
-85.3420446473
 21
34.9676308898
  0
SPLINE
  5
3A5
100
AcDbEntity
  8
RACCORDO
100
AcDbSpline
 62
253
  6
CONTINUOUS
 70
0
 71
3
 72
9
 73
5
 74
3
 42
0.0000001
 43
0.0000001
 44
0.0000000001
 12
0.0
 22
-0.3998221314
 32
0.0
 13
-0.371960017
 23
-0.1611750895
 33
0.0
 40
0.0
 40
0.0
 40
0.0
 40
0.0
 40
0.4377097398
 40
1.0
 40
1.0
 40
1.0
 40
1.0
 10
-85.3420446473
 20
-37.0315564309
 30
0.0
 10
-85.3420446473
 20
-37.0898917779
 30
0.0
 10
-85.3944862698
 20
-37.2242831319
 30
0.0
 10
-85.5095262726
 20
-37.3021256718
 30
0.0
 10
-85.5792427708
 20
-37.3323347328
 30
0.0
 11
-85.3420446473
 21
-37.0315564309
 31
0.0
 11
-85.3999462773
 21
-37.1967064102
 31
0.0
 11
-85.5792427708
 21
-37.3323347328
 31
0.0
  0
SPLINE
  5
3A6
100
AcDbEntity
  8
RACCORDO
100
AcDbSpline
 62
253
  6
CONTINUOUS
 70
0
 71
3
 72
8
 73
4
 74
2
 42
0.0000001
 43
0.0000001
 44
0.0000000001
 12
-0.2453883064
 22
-0.1063299291
 32
0.0
 13
-0.263764392
 23
-0.0016276445
 33
0.0
 40
0.0
 40
0.0
 40
0.0
 40
0.0
 40
1.0
 40
1.0
 40
1.0
 40
1.0
 10
-85.5792427708
 20
-37.3323347328
 30
0.0
 10
-85.6610388729
 20
-37.3677780425
 30
0.0
 10
-85.7497599155
 20
-37.3845538111
 30
0.0
 10
-85.8376813795
 20
-37.3850963593
 30
0.0
 11
-85.5792427708
 21
-37.3323347328
 31
0.0
 11
-85.8376813795
 21
-37.3850963593
 31
0.0
  0
SPLINE
  5
3A7
100
AcDbEntity
  8
RACCORDO
100
AcDbSpline
 62
253
  6
CONTINUOUS
 70
0
 71
3
 72
9
 73
5
 74
3
 42
0.0000001
 43
0.0000001
 44
0.0000000001
 12
0.2501162595
 22
0.0021827315
 32
0.0
 13
0.0243513223
 23
0.2230113831
 33
0.0
 40
0.0
 40
0.0
 40
0.0
 40
0.0
 40
0.2683310397
 40
1.0
 40
1.0
 40
1.0
 40
1.0
 10
-88.2940503634
 20
-35.4890482587
 30
0.0
 10
-88.2716790448
 20
-35.4888530272
 30
0.0
 10
-88.3148258713
 20
-35.3545282763
 30
0.0
 10
-88.2946145205
 20
-35.2934260248
 30
0.0
 10
-88.2886754849
 20
-35.2390358559
 30
0.0
 11
-88.2940503634
 21
-35.4890482587
 31
0.0
 11
-88.2902724236
 21
-35.4220381603
 31
0.0
 11
-88.2886754849
 21
-35.2390358559
 31
0.0
  0
SPLINE
  5
3A8
100
AcDbEntity
  8
RACCORDO
100
AcDbSpline
 62
253
  6
CONTINUOUS
 70
0
 71
3
 72
8
 73
4
 74
2
 42
0.0000001
 43
0.0000001
 44
0.0000000001
 12
0.0243362149
 22
0.2228730282
 32
0.0
 13
-0.0021807719
 23
0.2499610942
 33
0.0
 40
0.0
 40
0.0
 40
0.0
 40
0.0
 40
1.0
 40
1.0
 40
1.0
 40
1.0
 10
-88.2886754849
 20
-35.2390358559
 30
0.0
 10
-88.2805634133
 20
-35.1647448465
 30
0.0
 10
-88.288960504
 20
-35.0723876619
 30
0.0
 10
-88.289687428
 20
-34.9890672972
 30
0.0
 11
-88.2886754849
 21
-35.2390358559
 31
0.0
 11
-88.289687428
 21
-34.9890672972
 31
0.0
  0
LINE
  5
3A9
100
AcDbEntity
  8
RACCORDO
100
AcDbLine
 62
253
  6
CONTINUOUS
 10
-85.3420446473
 20
-34.9676308898
 11
-88.289687428
 21
-34.9890672972
  0
ENDSEC
  0
SECTION
  2
OBJECTS
  0
DICTIONARY
  5
C
100
AcDbDictionary
280
0
281
1
  3
ACAD_GROUP
350
D
  3
ACAD_MLINESTYLE
350
17
  3
ACAD_LAYOUT
350
1A
  3
ACAD_PLOTSETTINGS
350
19
  3
ACAD_PLOTSTYLENAME
350
E
  0
DICTIONARY
  5
D
102
{ACAD_REACTORS
330
C
102
}
100
AcDbDictionary
280
0
281
1
  0
ACDBDICTIONARYWDFLT
  5
E
102
{ACAD_REACTORS
330
C
102
}
100
AcDbDictionary
281
1
  3
Normal
350
F
100
AcDbDictionaryWithDefault
340
F
  0
DICTIONARY
  5
17
102
{ACAD_REACTORS
330
C
102
}
100
AcDbDictionary
280
0
281
1
  3
Standard
350
18
  0
DICTIONARY
  5
19
102
{ACAD_REACTORS
330
C
102
}
100
AcDbDictionary
281
1
  0
DICTIONARY
  5
1A
102
{ACAD_REACTORS
330
C
102
}
100
AcDbDictionary
281
1
  3
Model
350
3AA
  3
Layout1
350
3AB
  0
ACDBPLACEHOLDER
  5
F
102
{ACAD_REACTORS
330
E
102
}
  0
MLINESTYLE
  5
18
102
{ACAD_REACTORS
330
17
102
}
100
AcDbMlineStyle
  2
STANDARD
 70
0
  3

 62
256
 51
90.0
 52
90.0
 71
2
 49
0.5
 62
256
  6
BYLAYER
 49
-0.5
 62
256
  6
BYLAYER
  0
LAYOUT
  5
3AA
102
{ACAD_REACTORS
330
1A
102
}
100
AcDbPlotSettings
  1

  2
none_device
  4
ISO_A4_(297.00_x_210.00_MM)
  6

 40
0.0
 41
0.0
 42
0.0
 43
0.0
 44
297.0
 45
210.0
 46
0.0
 47
0.0
 48
0.0
 49
0.0
140
0.0
141
0.0
142
1.0
143
1.0
 70
1024
 72
1
 73
0
 74
0
  7

 75
0
147
1.0
148
0.0
149
0.0
100
AcDbLayout
  1
Model
 70
0
 71
0
 10
0.0
 20
0.0
 11
297.0
 21
210.0
 12
0.0
 22
0.0
 32
0.0
 14
0.0
 24
0.0
 34
0.0
 15
0.0
 25
0.0
 35
0.0
146
0.0
 13
0.0
 23
0.0
 33
0.0
 16
1.0
 26
0.0
 36
0.0
 17
0.0
 27
1.0
 37
0.0
 76
0
330
214
345
0
346
0
  0
LAYOUT
  5
3AB
102
{ACAD_REACTORS
330
1A
102
}
100
AcDbPlotSettings
  1

  2
none_device
  4
ISO_A4_(297.00_x_210.00_MM)
  6

 40
0.0
 41
0.0
 42
0.0
 43
0.0
 44
297.0
 45
210.0
 46
0.0
 47
0.0
 48
0.0
 49
0.0
140
0.0
141
0.0
142
1.0
143
1.0
 70
0
 72
1
 73
0
 74
0
  7

 75
0
147
1.0
148
0.0
149
0.0
100
AcDbLayout
  1
Layout1
 70
0
 71
1
 10
0.0
 20
0.0
 11
297.0
 21
210.0
 12
0.0
 22
0.0
 32
0.0
 14
0.0
 24
0.0
 34
0.0
 15
0.0
 25
0.0
 35
0.0
146
0.0
 13
0.0
 23
0.0
 33
0.0
 16
1.0
 26
0.0
 36
0.0
 17
0.0
 27
1.0
 37
0.0
 76
0
330
215
345
0
346
0
  0
ENDSEC
  0
EOF
