  0
SECTION
  2
HEADER
  9
$ACADVER
  1
AC1015
  9
$DWGCODEPAGE
  3
ANSI_1252
  9
$EXTMAX
 10
297.0
 20
210.0
 30
0.0
  9
$EXTMIN
 10
0.0
 20
0.0
 30
0.0
  9
$LIMMIN
 10
0.0
 20
0.0
  9
$LIMMAX
 10
297.0
 20
210.0
  9
$VIEWCTR
 10
148.5
 20
105.0
  9
$VIEWSIZE
 40
210.0
  9
$CLAYER
  8
0
  9
$LTSCALE
 40
16.335
  9
$CELTYPE
  6
BYLAYER
  9
$DIMSCALE
 40
1.0
  9
$DIMASZ
 40
3.0
  9
$DIMEXO
 40
1.85625
  9
$DIMDLI
 40
11.286
  9
$DIMEXE
 40
5.346
  9
$DIMCEN
 40
2.673
  9
$DIMLFAC
 40
1.0
  9
$DIMBLK
  1
_FILLED
  9
$DIMTXT
 40
3.0
  9
$DIMTOL
 70
1
  9
$DIMLIM
 70
0
  9
$DIMTFAC
 40
1.0
  9
$DIMTP
 40
0.01
  9
$DIMTM
 40
0.01
  9
$PDMODE
 70
3
  9
$PDSIZE
 40
3.0
  9
$HANDSEED
  5
394
  9
$TILEMODE
 70
1
  9
$MEASUREMENT
 70
1
  9
$INSUNITS
 70
4
  0
ENDSEC
  0
SECTION
  2
CLASSES
  0
CLASS
  1
ACDBDICTIONARYWDFLT
  2
AcDbDictionaryWithDefault
  3
AutoCAD 2000
 90
0
280
0
281
0
  0
CLASS
  1
ACDBPLACEHOLDER
  2
AcDbPlaceHolder
  3
AutoCAD 2000
 90
0
280
0
281
0
  0
CLASS
  1
LAYOUT
  2
AcDbLayout
  3
AutoCAD 2000
 90
0
280
0
281
0
  0
ENDSEC
  0
SECTION
  2
TABLES
  0
TABLE
  2
VPORT
  5
8
100
AcDbSymbolTable
 70
2
  0
VPORT
  5
1F4
100
AcDbSymbolTableRecord
100
AcDbViewportTableRecord
  2
*ACTIVE
 70
0
 10
0.0
 20
0.0
 11
1.0
 21
1.0
 12
148.5
 22
105.0
 13
0.0
 23
0.0
 14
1.0
 24
1.0
 15
0.0
 25
0.0
 16
0.0
 26
0.0
 36
1.0
 17
0.0
 27
0.0
 37
0.0
 40
210.0
 41
1.4142857143
 42
50.0
 43
0.0
 44
0.0
 50
0.0
 51
0.0
 71
0
 72
100
 73
1
 74
1
 75
0
 76
0
 77
0
 78
0
  0
ENDTAB
  0
TABLE
  2
LTYPE
  5
5
100
AcDbSymbolTable
 70
6
  0
LTYPE
  5
14
100
AcDbSymbolTableRecord
100
AcDbLinetypeTableRecord
  2
BYBLOCK
 70
0
  3

 72
65
 73
0
 40
0.0
  0
LTYPE
  5
15
100
AcDbSymbolTableRecord
100
AcDbLinetypeTableRecord
  2
BYLAYER
 70
0
  3

 72
65
 73
0
 40
0.0
  0
LTYPE
  5
16
100
AcDbSymbolTableRecord
100
AcDbLinetypeTableRecord
  2
CONTINUOUS
 70
64
  3
Solid line
 72
65
 73
0
 40
0.0
  0
LTYPE
  5
1F5
100
AcDbSymbolTableRecord
100
AcDbLinetypeTableRecord
  2
CENTER
 70
64
  3
____ _ ____ _ ____ _ ____ _ ____ _ ____ _ ____
 72
65
 73
4
 40
0.6
 49
0.375
 74
0
 49
-0.075
 74
0
 49
0.075
 74
0
 49
-0.075
 74
0
  0
LTYPE
  5
1F6
100
AcDbSymbolTableRecord
100
AcDbLinetypeTableRecord
  2
HIDDEN
 70
64
  3
- - - - - - - - - - - - - - - - - - - -
 72
65
 73
2
 40
0.2
 49
0.1
 74
0
 49
-0.1
 74
0
  0
LTYPE
  5
1F7
100
AcDbSymbolTableRecord
100
AcDbLinetypeTableRecord
  2
PHANTOM
 70
64
  3
_____ _ _ _____ _ _ _____ _ _ _____
 72
65
 73
6
 40
0.8
 49
0.45
 74
0
 49
-0.05
 74
0
 49
0.1
 74
0
 49
-0.05
 74
0
 49
0.1
 74
0
 49
-0.05
 74
0
  0
LTYPE
  5
1F8
100
AcDbSymbolTableRecord
100
AcDbLinetypeTableRecord
  2
DOT
 70
64
  3
. . . . . . . . . . . . . . . . . . . .
 72
65
 73
2
 40
0.2
 49
0.1
 74
0
 49
-0.1
 74
0
  0
LTYPE
  5
1F9
100
AcDbSymbolTableRecord
100
AcDbLinetypeTableRecord
  2
DASHED
 70
64
  3
- - - - - - - - - - - - - - - - - - - -
 72
65
 73
2
 40
0.2
 49
0.1
 74
0
 49
-0.1
 74
0
  0
ENDTAB
  0
TABLE
  2
LAYER
  5
2
100
AcDbSymbolTable
 70
36
  0
LAYER
  5
10
100
AcDbSymbolTableRecord
100
AcDbLayerTableRecord
  2
0
 70
0
 62
7
  6
CONTINUOUS
370
-3
390
F
  0
LAYER
  5
1FA
100
AcDbSymbolTableRecord
100
AcDbLayerTableRecord
  2
DEFAULT_1
 70
0
 62
7
  6
CENTER
370
-3
390
F
  0
LAYER
  5
1FB
100
AcDbSymbolTableRecord
100
AcDbLayerTableRecord
  2
DEFAULT_2
 70
0
 62
7
  6
HIDDEN
370
-3
390
F
  0
LAYER
  5
1FC
100
AcDbSymbolTableRecord
100
AcDbLayerTableRecord
  2
DEFAULT_3
 70
0
 62
7
  6
PHANTOM
370
-3
390
F
  0
LAYER
  5
1FD
100
AcDbSymbolTableRecord
100
AcDbLayerTableRecord
  2
ASSI
 70
0
 62
7
  6
CONTINUOUS
370
-3
390
F
  0
LAYER
  5
1FE
100
AcDbSymbolTableRecord
100
AcDbLayerTableRecord
  2
COORDINATE
 70
0
 62
7
  6
CONTINUOUS
370
-3
390
F
  0
LAYER
  5
1FF
100
AcDbSymbolTableRecord
100
AcDbLayerTableRecord
  2
COORD_ORIGINE
 70
0
 62
7
  6
CONTINUOUS
370
-3
390
F
  0
LAYER
  5
200
100
AcDbSymbolTableRecord
100
AcDbLayerTableRecord
  2
COPY_PUBLISH
 70
0
 62
7
  6
CONTINUOUS
370
-3
390
F
  0
LAYER
  5
201
100
AcDbSymbolTableRecord
100
AcDbLayerTableRecord
  2
COSMETIC
 70
0
 62
7
  6
CONTINUOUS
370
-3
390
F
  0
LAYER
  5
202
100
AcDbSymbolTableRecord
100
AcDbLayerTableRecord
  2
CURVA_ASSE
 70
0
 62
7
  6
CONTINUOUS
370
-3
390
F
  0
LAYER
  5
203
100
AcDbSymbolTableRecord
100
AcDbLayerTableRecord
  2
CURVE
 70
0
 62
7
  6
CONTINUOUS
370
-3
390
F
  0
LAYER
  5
204
100
AcDbSymbolTableRecord
100
AcDbLayerTableRecord
  2
CURVE_GUIDA
 70
0
 62
7
  6
CONTINUOUS
370
-3
390
F
  0
LAYER
  5
205
100
AcDbSymbolTableRecord
100
AcDbLayerTableRecord
  2
CURVE_INC_PUNZONI
 70
0
 62
7
  6
CONTINUOUS
370
-3
390
F
  0
LAYER
  5
206
100
AcDbSymbolTableRecord
100
AcDbLayerTableRecord
  2
DRAFT
 70
0
 62
7
  6
CONTINUOUS
370
-3
390
F
  0
LAYER
  5
207
100
AcDbSymbolTableRecord
100
AcDbLayerTableRecord
  2
IMPORT_IGES
 70
0
 62
7
  6
CONTINUOUS
370
-3
390
F
  0
LAYER
  5
208
100
AcDbSymbolTableRecord
100
AcDbLayerTableRecord
  2
NOTE
 70
0
 62
7
  6
CONTINUOUS
370
-3
390
F
  0
LAYER
  5
209
100
AcDbSymbolTableRecord
100
AcDbLayerTableRecord
  2
PIANI
 70
0
 62
7
  6
CONTINUOUS
370
-3
390
F
  0
LAYER
  5
20A
100
AcDbSymbolTableRecord
100
AcDbLayerTableRecord
  2
PIANI_ORIGINE
 70
0
 62
7
  6
CONTINUOUS
370
-3
390
F
  0
LAYER
  5
20B
100
AcDbSymbolTableRecord
100
AcDbLayerTableRecord
  2
PUNTI
 70
0
 62
7
  6
CONTINUOUS
370
-3
390
F
  0
LAYER
  5
20C
100
AcDbSymbolTableRecord
100
AcDbLayerTableRecord
  2
RACCORDO
 70
0
 62
7
  6
CONTINUOUS
370
-3
390
F
  0
LAYER
  5
20D
100
AcDbSymbolTableRecord
100
AcDbLayerTableRecord
  2
SMUSSO
 70
0
 62
7
  6
CONTINUOUS
370
-3
390
F
  0
LAYER
  5
20E
100
AcDbSymbolTableRecord
100
AcDbLayerTableRecord
  2
SNAPLINE
 70
0
 62
7
  6
CONTINUOUS
370
-3
390
F
  0
LAYER
  5
20F
100
AcDbSymbolTableRecord
100
AcDbLayerTableRecord
  2
SUPERFICI
 70
0
 62
7
  6
CONTINUOUS
370
-3
390
F
  0
LAYER
  5
210
100
AcDbSymbolTableRecord
100
AcDbLayerTableRecord
  2
TRASH
 70
0
 62
7
  6
CONTINUOUS
370
-3
390
F
  0
LAYER
  5
211
100
AcDbSymbolTableRecord
100
AcDbLayerTableRecord
  2
XSEC_DATUMS
 70
0
 62
7
  6
CONTINUOUS
370
-3
390
F
  0
ENDTAB
  0
TABLE
  2
STYLE
  5
3
100
AcDbSymbolTable
 70
1
  0
STYLE
  5
11
100
AcDbSymbolTableRecord
100
AcDbTextStyleTableRecord
  2
STANDARD
 70
0
 40
0.0
 41
0.8
 50
0.0
 71
0
 42
0.2
  3
txt
  4

  0
STYLE
  5
212
100
AcDbSymbolTableRecord
100
AcDbTextStyleTableRecord
  2
TEXTSTYLE_1
 70
0
 40
0.0
 41
0.8
 50
0.0
 71
0
 42
0.2
  3
gdt
  4

  0
ENDTAB
  0
TABLE
  2
VIEW
  5
6
100
AcDbSymbolTable
 70
0
  0
ENDTAB
  0
TABLE
  2
UCS
  5
7
100
AcDbSymbolTable
 70
0
  0
ENDTAB
  0
TABLE
  2
APPID
  5
9
100
AcDbSymbolTable
 70
1
  0
APPID
  5
213
100
AcDbSymbolTableRecord
100
AcDbRegAppTableRecord
  2
ACAD
 70
0
  0
ENDTAB
  0
TABLE
  2
BLOCK_RECORD
  5
1
100
AcDbSymbolTable
 70
0
  0
BLOCK_RECORD
  5
214
100
AcDbSymbolTableRecord
100
AcDbBlockTableRecord
  2
*Model_Space
  0
BLOCK_RECORD
  5
215
100
AcDbSymbolTableRecord
100
AcDbBlockTableRecord
  2
*Paper_Space
  0
BLOCK_RECORD
  5
216
100
AcDbSymbolTableRecord
100
AcDbBlockTableRecord
  2
_FILLED
  0
BLOCK_RECORD
  5
217
100
AcDbSymbolTableRecord
100
AcDbBlockTableRecord
  2
_NONE
  0
BLOCK_RECORD
  5
218
100
AcDbSymbolTableRecord
100
AcDbBlockTableRecord
  2
*D0
  0
BLOCK_RECORD
  5
219
100
AcDbSymbolTableRecord
100
AcDbBlockTableRecord
  2
*D1
  0
BLOCK_RECORD
  5
21A
100
AcDbSymbolTableRecord
100
AcDbBlockTableRecord
  2
*D2
  0
BLOCK_RECORD
  5
21B
100
AcDbSymbolTableRecord
100
AcDbBlockTableRecord
  2
*D3
  0
BLOCK_RECORD
  5
21C
100
AcDbSymbolTableRecord
100
AcDbBlockTableRecord
  2
*D4
  0
BLOCK_RECORD
  5
21D
100
AcDbSymbolTableRecord
100
AcDbBlockTableRecord
  2
*D5
  0
BLOCK_RECORD
  5
21E
100
AcDbSymbolTableRecord
100
AcDbBlockTableRecord
  2
*D6
  0
ENDTAB
  0
TABLE
  2
DIMSTYLE
  5
A
100
AcDbSymbolTable
 70
1
100
AcDbDimStyleTable
 71
0
  0
DIMSTYLE
105
21F
100
AcDbSymbolTableRecord
100
AcDbDimStyleTableRecord
  2
STANDARD
 70
0
  3

  4

 40
1.0
 41
3.0
 42
0.0625
 43
0.38
 44
0.18
 45
0.0
 46
0.0
 47
0.01
 48
0.01
140
3.0
141
0.09
142
0.0
143
25.4
144
1.0
145
0.0
146
1.0
147
0.09
 71
1.0
 72
0.0
 73
0
 74
0
 75
0
 76
0
 77
1
 78
8
170
0
171
2
172
0
173
0
174
0
175
0
176
0
177
0
178
0
270
2
271
2
272
2
273
2
274
2
275
0
280
0
281
0
282
0
283
1
284
8
285
0
286
0
287
3
288
0
340
11
341
216
342
216
343
216
344
216
  0
DIMSTYLE
105
220
100
AcDbSymbolTableRecord
100
AcDbDimStyleTableRecord
  2
DIMSTYLE_1
 70
0
  3

  4

 40
1.0
 41
3.0
 42
0.0625
 43
0.38
 44
0.18
 45
0.0
 46
0.0
 47
0.0
 48
0.0
140
3.0
141
0.09
142
0.0
143
25.4
144
1.0
145
0.0
146
1.0
147
0.09
 71
0.0
 72
0.0
 73
0
 74
0
 75
0
 76
0
 77
1
 78
8
170
0
171
2
172
0
173
0
174
0
175
0
176
0
177
0
178
0
270
2
271
2
272
2
273
2
274
2
275
0
280
0
281
0
282
0
283
1
284
8
285
0
286
0
287
3
288
0
340
11
341
216
342
216
343
216
344
216
  0
ENDTAB
  0
ENDSEC
  0
SECTION
  2
BLOCKS
  0
BLOCK
  5
20
100
AcDbEntity
  8
0
100
AcDbBlockBegin
  2
*Model_Space
 70
0
 10
0.0
 20
0.0
 30
0.0
  3
*Model_Space
  1

  0
ENDBLK
  5
21
100
AcDbEntity
  8
0
100
AcDbBlockEnd
  0
BLOCK
  5
1C
100
AcDbEntity
  8
0
100
AcDbBlockBegin
  2
*Paper_Space
 70
0
 10
0.0
 20
0.0
 30
0.0
  3
*Paper_Space
  1

  0
ENDBLK
  5
1D
100
AcDbEntity
  8
0
100
AcDbBlockEnd
  0
BLOCK
  5
221
100
AcDbEntity
  8
0
100
AcDbBlockBegin
  2
_FILLED
 70
64
 10
0.0
 20
0.0
  3
_FILLED
  1

  0
SOLID
  5
222
100
AcDbEntity
  8
0
  6
BYBLOCK
 62
0
100
AcDbTrace
 10
0.0
 20
0.0
 11
-1.0
 21
0.3166666667
 12
-1.0
 22
-0.3166666667
 13
-1.0
 23
-0.3166666667
  0
ENDBLK
  5
223
100
AcDbEntity
  8
0
  6
BYBLOCK
 62
0
100
AcDbBlockEnd
  0
BLOCK
  5
224
100
AcDbEntity
  8
0
100
AcDbBlockBegin
  2
_NONE
 70
64
 10
0.0
 20
0.0
  3
_NONE
  1

  0
ENDBLK
  5
225
100
AcDbEntity
  8
0
  6
BYBLOCK
 62
0
100
AcDbBlockEnd
  0
BLOCK
  5
226
100
AcDbEntity
  8
0
100
AcDbBlockBegin
 62
7
  6
CONTINUOUS
  2
*D0
 70
65
 10
0.0
 20
0.0
  3
*D0
  1

  0
MTEXT
  5
227
100
AcDbEntity
  8
0
100
AcDbMText
 62
7
  6
CONTINUOUS
  7
STANDARD
 71
2
 72
1
 10
-117.1290285604
 20
70.2726387481
 30
0.0
 11
1.0
 21
0.0
 31
0.0
 44
0.9
  1
55,3
 40
3.0
 41
8.1428571429
  0
LINE
  5
228
100
AcDbEntity
  8
0
100
AcDbLine
 62
7
  6
CONTINUOUS
 10
-144.7790285604
 20
47.0226383534
 11
-144.7790285604
 21
68.0226387481
  0
LINE
  5
229
100
AcDbEntity
  8
0
100
AcDbLine
 62
7
  6
CONTINUOUS
 10
-89.4790285604
 20
30.7017936963
 11
-89.4790285604
 21
68.0226387481
  0
LINE
  5
22A
100
AcDbEntity
  8
0
100
AcDbLine
 62
7
  6
CONTINUOUS
 10
-144.7790285604
 20
66.5226387481
 11
-117.1290285604
 21
66.5226387481
  0
LINE
  5
22B
100
AcDbEntity
  8
0
100
AcDbLine
 62
7
  6
CONTINUOUS
 10
-89.4790285604
 20
66.5226387481
 11
-117.1290285604
 21
66.5226387481
  0
INSERT
  5
22C
100
AcDbEntity
  8
0
100
AcDbBlockReference
 62
7
  6
CONTINUOUS
  2
_FILLED
 10
-144.7790285604
 20
66.5226387481
 41
3.0
 42
3.0
 43
3.0
 50
180.0
  0
INSERT
  5
22D
100
AcDbEntity
  8
0
100
AcDbBlockReference
 62
7
  6
CONTINUOUS
  2
_FILLED
 10
-89.4790285604
 20
66.5226387481
 41
3.0
 42
3.0
 43
3.0
  0
ENDBLK
  5
22E
100
AcDbEntity
  8
0
  6
BYBLOCK
 62
0
100
AcDbBlockEnd
  0
BLOCK
  5
22F
100
AcDbEntity
  8
0
100
AcDbBlockBegin
 62
7
  6
CONTINUOUS
  2
*D1
 70
65
 10
0.0
 20
0.0
  3
*D1
  1

  0
MTEXT
  5
230
100
AcDbEntity
  8
0
100
AcDbMText
 62
7
  6
CONTINUOUS
  7
STANDARD
 71
2
 72
1
 10
-114.4790285604
 20
60.2726387481
 30
0.0
 11
1.0
 21
0.0
 31
0.0
 44
0.9
  1
50
 40
3.0
 41
4.5
  0
LINE
  5
231
100
AcDbEntity
  8
0
100
AcDbLine
 62
7
  6
CONTINUOUS
 10
-139.4790285604
 20
49.0226387481
 11
-139.4790285604
 21
58.0226387481
  0
LINE
  5
232
100
AcDbEntity
  8
0
100
AcDbLine
 62
7
  6
CONTINUOUS
 10
-89.4790285604
 20
30.025240407
 11
-89.4790285604
 21
58.0226387481
  0
LINE
  5
233
100
AcDbEntity
  8
0
100
AcDbLine
 62
7
  6
CONTINUOUS
 10
-139.4790285604
 20
56.5226387481
 11
-114.4790285604
 21
56.5226387481
  0
LINE
  5
234
100
AcDbEntity
  8
0
100
AcDbLine
 62
7
  6
CONTINUOUS
 10
-89.4790285604
 20
56.5226387481
 11
-114.4790285604
 21
56.5226387481
  0
INSERT
  5
235
100
AcDbEntity
  8
0
100
AcDbBlockReference
 62
7
  6
CONTINUOUS
  2
_FILLED
 10
-139.4790285604
 20
56.5226387481
 41
3.0
 42
3.0
 43
3.0
 50
180.0
  0
INSERT
  5
236
100
AcDbEntity
  8
0
100
AcDbBlockReference
 62
7
  6
CONTINUOUS
  2
_FILLED
 10
-89.4790285604
 20
56.5226387481
 41
3.0
 42
3.0
 43
3.0
  0
ENDBLK
  5
237
100
AcDbEntity
  8
0
  6
BYBLOCK
 62
0
100
AcDbBlockEnd
  0
BLOCK
  5
238
100
AcDbEntity
  8
0
100
AcDbBlockBegin
 62
7
  6
CONTINUOUS
  2
*D2
 70
65
 10
0.0
 20
0.0
  3
*D2
  1

  0
MTEXT
  5
239
100
AcDbEntity
  8
0
100
AcDbMText
 62
7
  6
CONTINUOUS
  7
STANDARD
 71
2
 72
1
 10
42.8559442248
 20
70.2726387481
 30
0.0
 11
1.0
 21
0.0
 31
0.0
 44
0.9
  1
142
 40
3.0
 41
6.4285714286
  0
LINE
  5
23A
100
AcDbEntity
  8
0
100
AcDbLine
 62
7
  6
CONTINUOUS
 10
-28.1440557752
 20
39.0226387481
 11
-28.1440557752
 21
68.0226387481
  0
LINE
  5
23B
100
AcDbEntity
  8
0
100
AcDbLine
 62
7
  6
CONTINUOUS
 10
113.8559442248
 20
39.0226387467
 11
113.8559442248
 21
68.0226387481
  0
LINE
  5
23C
100
AcDbEntity
  8
0
100
AcDbLine
 62
7
  6
CONTINUOUS
 10
-28.1440557752
 20
66.5226387481
 11
42.8559442248
 21
66.5226387481
  0
LINE
  5
23D
100
AcDbEntity
  8
0
100
AcDbLine
 62
7
  6
CONTINUOUS
 10
113.8559442248
 20
66.5226387481
 11
42.8559442248
 21
66.5226387481
  0
INSERT
  5
23E
100
AcDbEntity
  8
0
100
AcDbBlockReference
 62
7
  6
CONTINUOUS
  2
_FILLED
 10
-28.1440557752
 20
66.5226387481
 41
3.0
 42
3.0
 43
3.0
 50
180.0
  0
INSERT
  5
23F
100
AcDbEntity
  8
0
100
AcDbBlockReference
 62
7
  6
CONTINUOUS
  2
_FILLED
 10
113.8559442248
 20
66.5226387481
 41
3.0
 42
3.0
 43
3.0
  0
ENDBLK
  5
240
100
AcDbEntity
  8
0
  6
BYBLOCK
 62
0
100
AcDbBlockEnd
  0
BLOCK
  5
241
100
AcDbEntity
  8
0
100
AcDbBlockBegin
 62
7
  6
CONTINUOUS
  2
*D3
 70
65
 10
0.0
 20
0.0
  3
*D3
  1

  0
MTEXT
  5
242
100
AcDbEntity
  8
0
100
AcDbMText
 62
7
  6
CONTINUOUS
  7
STANDARD
 71
2
 72
1
 10
128.1059442248
 20
-10.4773612519
 30
0.0
 11
0.0
 21
1.0
 31
0.0
 44
0.9
  1
118
 40
3.0
 41
5.7857142857
  0
LINE
  5
243
100
AcDbEntity
  8
0
100
AcDbLine
 62
7
  6
CONTINUOUS
 10
104.3559442248
 20
48.5226387481
 11
133.3559442248
 21
48.5226387481
  0
LINE
  5
244
100
AcDbEntity
  8
0
100
AcDbLine
 62
7
  6
CONTINUOUS
 10
104.3559442234
 20
-69.4773612519
 11
133.3559442248
 21
-69.4773612519
  0
LINE
  5
245
100
AcDbEntity
  8
0
100
AcDbLine
 62
7
  6
CONTINUOUS
 10
131.8559442248
 20
48.5226387481
 11
131.8559442248
 21
-10.4773612519
  0
LINE
  5
246
100
AcDbEntity
  8
0
100
AcDbLine
 62
7
  6
CONTINUOUS
 10
131.8559442248
 20
-69.4773612519
 11
131.8559442248
 21
-10.4773612519
  0
INSERT
  5
247
100
AcDbEntity
  8
0
100
AcDbBlockReference
 62
7
  6
CONTINUOUS
  2
_FILLED
 10
131.8559442248
 20
48.5226387481
 41
3.0
 42
3.0
 43
3.0
 50
90.0
  0
INSERT
  5
248
100
AcDbEntity
  8
0
100
AcDbBlockReference
 62
7
  6
CONTINUOUS
  2
_FILLED
 10
131.8559442248
 20
-69.4773612519
 41
3.0
 42
3.0
 43
3.0
 50
270.0
  0
ENDBLK
  5
249
100
AcDbEntity
  8
0
  6
BYBLOCK
 62
0
100
AcDbBlockEnd
  0
BLOCK
  5
24A
100
AcDbEntity
  8
0
100
AcDbBlockBegin
 62
7
  6
CONTINUOUS
  2
*D4
 70
65
 10
0.0
 20
0.0
  3
*D4
  1

  0
MTEXT
  5
24B
100
AcDbEntity
  8
0
100
AcDbMText
 62
7
  6
CONTINUOUS
  7
STANDARD
 71
3
 72
1
 10
-148.9197001671
 20
60.2726387481
 30
0.0
 11
1.0
 21
0.0
 31
0.0
 44
0.9
  1
5,3
 40
3.0
 41
6.0
  0
LINE
  5
24C
100
AcDbEntity
  8
0
100
AcDbLine
 62
7
  6
CONTINUOUS
 10
-139.4790285604
 20
49.0226387481
 11
-139.4790285604
 21
58.0226387481
  0
LINE
  5
24D
100
AcDbEntity
  8
0
100
AcDbLine
 62
7
  6
CONTINUOUS
 10
-144.7790285604
 20
47.0226383534
 11
-144.7790285604
 21
58.0226387481
  0
LINE
  5
24E
100
AcDbEntity
  8
0
100
AcDbLine
 62
7
  6
CONTINUOUS
 10
-139.4790285604
 20
56.5226387481
 11
-135.4790285604
 21
56.5226387481
  0
LINE
  5
24F
100
AcDbEntity
  8
0
100
AcDbLine
 62
7
  6
CONTINUOUS
 10
-135.4790285604
 20
56.5226387481
 11
-142.1290285604
 21
56.5226387481
  0
LINE
  5
250
100
AcDbEntity
  8
0
100
AcDbLine
 62
7
  6
CONTINUOUS
 10
-144.7790285604
 20
56.5226387481
 11
-154.9197001671
 21
56.5226387481
  0
LINE
  5
251
100
AcDbEntity
  8
0
100
AcDbLine
 62
7
  6
CONTINUOUS
 10
-154.9197001671
 20
56.5226387481
 11
-142.1290285604
 21
56.5226387481
  0
INSERT
  5
252
100
AcDbEntity
  8
0
100
AcDbBlockReference
 62
7
  6
CONTINUOUS
  2
_NONE
 10
-139.4790285604
 20
56.5226387481
 41
3.0
 42
3.0
 43
3.0
 50
180.0
  0
INSERT
  5
253
100
AcDbEntity
  8
0
100
AcDbBlockReference
 62
7
  6
CONTINUOUS
  2
_FILLED
 10
-144.7790285604
 20
56.5226387481
 41
3.0
 42
3.0
 43
3.0
  0
ENDBLK
  5
254
100
AcDbEntity
  8
0
  6
BYBLOCK
 62
0
100
AcDbBlockEnd
  0
BLOCK
  5
255
100
AcDbEntity
  8
0
100
AcDbBlockBegin
 62
7
  6
CONTINUOUS
  2
*D5
 70
65
 10
0.0
 20
0.0
  3
*D5
  1

  0
MTEXT
  5
256
100
AcDbEntity
  8
0
100
AcDbMText
 62
7
  6
CONTINUOUS
  7
STANDARD
 71
2
 72
1
 10
42.8559442248
 20
60.2726387481
 30
0.0
 11
1.0
 21
0.0
 31
0.0
 44
0.9
  1
102
 40
3.0
 41
6.4285714286
  0
LINE
  5
257
100
AcDbEntity
  8
0
100
AcDbLine
 62
7
  6
CONTINUOUS
 10
-8.1440557752
 20
29.0226387481
 11
-8.1440557752
 21
58.0226387481
  0
LINE
  5
258
100
AcDbEntity
  8
0
100
AcDbLine
 62
7
  6
CONTINUOUS
 10
93.8559442248
 20
29.0226387481
 11
93.8559442248
 21
58.0226387481
  0
LINE
  5
259
100
AcDbEntity
  8
0
100
AcDbLine
 62
7
  6
CONTINUOUS
 10
-8.1440557752
 20
56.5226387481
 11
42.8559442248
 21
56.5226387481
  0
LINE
  5
25A
100
AcDbEntity
  8
0
100
AcDbLine
 62
7
  6
CONTINUOUS
 10
93.8559442248
 20
56.5226387481
 11
42.8559442248
 21
56.5226387481
  0
INSERT
  5
25B
100
AcDbEntity
  8
0
100
AcDbBlockReference
 62
7
  6
CONTINUOUS
  2
_FILLED
 10
-8.1440557752
 20
56.5226387481
 41
3.0
 42
3.0
 43
3.0
 50
180.0
  0
INSERT
  5
25C
100
AcDbEntity
  8
0
100
AcDbBlockReference
 62
7
  6
CONTINUOUS
  2
_FILLED
 10
93.8559442248
 20
56.5226387481
 41
3.0
 42
3.0
 43
3.0
  0
ENDBLK
  5
25D
100
AcDbEntity
  8
0
  6
BYBLOCK
 62
0
100
AcDbBlockEnd
  0
BLOCK
  5
25E
100
AcDbEntity
  8
0
100
AcDbBlockBegin
 62
7
  6
CONTINUOUS
  2
*D6
 70
65
 10
0.0
 20
0.0
  3
*D6
  1

  0
MTEXT
  5
25F
100
AcDbEntity
  8
0
100
AcDbMText
 62
7
  6
CONTINUOUS
  7
STANDARD
 71
2
 72
1
 10
118.1059442248
 20
-10.4773612519
 30
0.0
 11
0.0
 21
1.0
 31
0.0
 44
0.9
  1
78
 40
3.0
 41
4.7142857143
  0
LINE
  5
260
100
AcDbEntity
  8
0
100
AcDbLine
 62
7
  6
CONTINUOUS
 10
94.3559442248
 20
28.5226387481
 11
123.3559442248
 21
28.5226387481
  0
LINE
  5
261
100
AcDbEntity
  8
0
100
AcDbLine
 62
7
  6
CONTINUOUS
 10
94.3559442248
 20
-49.4773612519
 11
123.3559442248
 21
-49.4773612519
  0
LINE
  5
262
100
AcDbEntity
  8
0
100
AcDbLine
 62
7
  6
CONTINUOUS
 10
121.8559442248
 20
28.5226387481
 11
121.8559442248
 21
-10.4773612519
  0
LINE
  5
263
100
AcDbEntity
  8
0
100
AcDbLine
 62
7
  6
CONTINUOUS
 10
121.8559442248
 20
-49.4773612519
 11
121.8559442248
 21
-10.4773612519
  0
INSERT
  5
264
100
AcDbEntity
  8
0
100
AcDbBlockReference
 62
7
  6
CONTINUOUS
  2
_FILLED
 10
121.8559442248
 20
28.5226387481
 41
3.0
 42
3.0
 43
3.0
 50
90.0
  0
INSERT
  5
265
100
AcDbEntity
  8
0
100
AcDbBlockReference
 62
7
  6
CONTINUOUS
  2
_FILLED
 10
121.8559442248
 20
-49.4773612519
 41
3.0
 42
3.0
 43
3.0
 50
270.0
  0
ENDBLK
  5
266
100
AcDbEntity
  8
0
  6
BYBLOCK
 62
0
100
AcDbBlockEnd
  0
ENDSEC
  0
SECTION
  2
ENTITIES
  0
DIMENSION
  5
267
100
AcDbEntity
  8
0
100
AcDbDimension
 62
7
  6
CONTINUOUS
  2
*D0
 10
-89.4790285604
 20
66.5226387481
 11
-121.2004571318
 21
68.7726387481
 70
160
 71
2
 42
55.3
  3
DIMSTYLE_1
100
AcDbAlignedDimension
 13
-144.7790285604
 23
47.0226383534
 14
-89.4790285604
 24
30.7017936963
100
AcDbRotatedDimension
  0
DIMENSION
  5
268
100
AcDbEntity
  8
0
100
AcDbDimension
 62
7
  6
CONTINUOUS
  2
*D1
 10
-89.4790285604
 20
56.5226387481
 11
-116.7290285604
 21
58.7726387481
 70
160
 71
2
 42
50.0
  3
DIMSTYLE_1
100
AcDbAlignedDimension
 13
-139.4790285604
 23
49.0226387481
 14
-89.4790285604
 24
30.025240407
100
AcDbRotatedDimension
  0
DIMENSION
  5
269
100
AcDbEntity
  8
0
100
AcDbDimension
 62
7
  6
CONTINUOUS
  2
*D2
 10
113.8559442248
 20
66.5226387481
 11
39.6416585105
 21
68.7726387481
 70
160
 71
2
 42
142.0
  3
DIMSTYLE_1
100
AcDbAlignedDimension
 13
-28.1440557752
 23
39.0226387481
 14
113.8559442248
 24
39.0226387467
100
AcDbRotatedDimension
  0
DIMENSION
  5
26A
100
AcDbEntity
  8
0
100
AcDbDimension
 62
7
  6
CONTINUOUS
  2
*D3
 10
131.8559442248
 20
-69.4773612519
 11
130.9021571857
 21
-13.0635658859
 70
160
 71
2
 42
118.0
  3
DIMSTYLE_1
100
AcDbAlignedDimension
 13
104.3559442248
 23
48.5226387481
 14
104.3559442234
 24
-69.4773612519
 50
270.0
100
AcDbRotatedDimension
  0
DIMENSION
  5
26B
100
AcDbEntity
  8
0
100
AcDbDimension
 62
7
  6
CONTINUOUS
  2
*D4
 10
-144.7790285604
 20
56.5226387481
 11
-157.9197001671
 21
58.7726387481
 70
160
 71
3
 42
5.3
  3
DIMSTYLE_1
100
AcDbAlignedDimension
 13
-139.4790285604
 23
49.0226387481
 14
-144.7790285604
 24
47.0226383534
 50
180.0
100
AcDbRotatedDimension
1001
ACAD
1000
DSTYLE
1002
{
1070
173
1070
1
1070
6
1000
_NONE
1002
}
  0
DIMENSION
  5
26C
100
AcDbEntity
  8
0
100
AcDbDimension
 62
7
  6
CONTINUOUS
  2
*D5
 10
93.8559442248
 20
56.5226387481
 11
39.6416585105
 21
58.7726387481
 70
160
 71
2
 42
102.0
  3
DIMSTYLE_1
100
AcDbAlignedDimension
 13
-8.1440557752
 23
29.0226387481
 14
93.8559442248
 24
29.0226387481
100
AcDbRotatedDimension
  0
DIMENSION
  5
26D
100
AcDbEntity
  8
0
100
AcDbDimension
 62
7
  6
CONTINUOUS
  2
*D6
 10
121.8559442248
 20
-49.4773612519
 11
120.6621177485
 21
-12.5846391018
 70
160
 71
2
 42
78.0
  3
DIMSTYLE_1
100
AcDbAlignedDimension
 13
94.3559442248
 23
28.5226387481
 14
94.3559442248
 24
-49.4773612519
 50
270.0
100
AcDbRotatedDimension
  0
LINE
  5
26E
100
AcDbEntity
  8
RACCORDO
100
AcDbLine
 62
7
  6
CONTINUOUS
 10
-28.1440557752
 20
38.5226387481
 11
-28.1440557752
 21
-59.4773612519
  0
LINE
  5
26F
100
AcDbEntity
  8
RACCORDO
100
AcDbLine
 62
253
  6
CONTINUOUS
 10
-26.1440557752
 20
38.5226387481
 11
-26.1440557752
 21
-59.4773612519
  0
LINE
  5
270
100
AcDbEntity
  8
RACCORDO
100
AcDbLine
 62
253
  6
CONTINUOUS
 10
-18.1440557752
 20
-67.4773612519
 11
-18.1440557752
 21
-69.4773612519
  0
LINE
  5
271
100
AcDbEntity
  8
RACCORDO
100
AcDbLine
 62
253
  6
CONTINUOUS
 10
-18.1440557752
 20
46.5226387481
 11
-18.1440557739
 21
48.5226387481
  0
LINE
  5
272
100
AcDbEntity
  8
0
100
AcDbLine
 62
7
  6
CONTINUOUS
 10
-8.6637792594
 20
29.0423622323
 11
-8.4940557752
 21
29.6128336848
  0
LINE
  5
273
100
AcDbEntity
  8
0
100
AcDbLine
 62
7
  6
CONTINUOUS
 10
-7.7940557752
 20
27.4324438114
 11
-7.6243322911
 21
28.0029152639
  0
LINE
  5
274
100
AcDbEntity
  8
RACCORDO
100
AcDbLine
 62
7
  6
CONTINUOUS
 10
-18.1440557752
 20
-69.4773612519
 11
103.8559442248
 21
-69.4773612519
  0
LINE
  5
275
100
AcDbEntity
  8
RACCORDO
100
AcDbLine
 62
253
  6
CONTINUOUS
 10
-18.1440557752
 20
-67.4773612519
 11
103.8559442248
 21
-67.4773612519
  0
LINE
  5
276
100
AcDbEntity
  8
0
100
AcDbLine
 62
7
  6
CONTINUOUS
 10
-8.6637792594
 20
-49.9970847361
 11
-8.4940557752
 21
-50.5675561886
  0
LINE
  5
277
100
AcDbEntity
  8
0
100
AcDbLine
 62
7
  6
CONTINUOUS
 10
-7.7940557752
 20
-48.3871663152
 11
-7.6243322911
 21
-48.9576377677
  0
LINE
  5
278
100
AcDbEntity
  8
0
100
AcDbLine
 62
7
  6
CONTINUOUS
 10
-9.2890557752
 20
-49.8273612519
 11
-9.2890557752
 21
-49.1273612519
  0
LINE
  5
279
100
AcDbEntity
  8
0
100
AcDbLine
 62
7
  6
CONTINUOUS
 10
-9.2890557752
 20
28.1726387481
 11
-9.2890557752
 21
28.8726387481
  0
LINE
  5
27A
100
AcDbEntity
  8
0
100
AcDbLine
 62
7
  6
CONTINUOUS
 10
-8.6440557752
 20
-52.1815247085
 11
-8.6440557752
 21
-50.0633789482
  0
LINE
  5
27B
100
AcDbEntity
  8
0
100
AcDbLine
 62
7
  6
CONTINUOUS
 10
-8.6440557752
 20
-48.8913435556
 11
-8.6440557752
 21
-46.7731977953
  0
LINE
  5
27C
100
AcDbEntity
  8
0
100
AcDbLine
 62
7
  6
CONTINUOUS
 10
-8.6440557752
 20
25.8184752915
 11
-8.6440557752
 21
27.9366210518
  0
LINE
  5
27D
100
AcDbEntity
  8
0
100
AcDbLine
 62
7
  6
CONTINUOUS
 10
-8.6440557752
 20
29.1086564444
 11
-8.6440557752
 21
31.2268022047
  0
LINE
  5
27E
100
AcDbEntity
  8
0
100
AcDbLine
 62
7
  6
CONTINUOUS
 10
-8.4940557752
 20
-51.0710846992
 11
-8.4940557752
 21
-50.5675561886
  0
LINE
  5
27F
100
AcDbEntity
  8
0
100
AcDbLine
 62
7
  6
CONTINUOUS
 10
-8.4940557752
 20
-48.3871663152
 11
-8.4940557752
 21
-47.8836378047
  0
LINE
  5
280
100
AcDbEntity
  8
0
100
AcDbLine
 62
7
  6
CONTINUOUS
 10
-8.4940557752
 20
26.9289153008
 11
-8.4940557752
 21
27.4324438114
  0
LINE
  5
281
100
AcDbEntity
  8
0
100
AcDbLine
 62
7
  6
CONTINUOUS
 10
-8.4940557752
 20
29.6128336848
 11
-8.4940557752
 21
30.1163621953
  0
LINE
  5
282
100
AcDbEntity
  8
0
100
AcDbLine
 62
7
  6
CONTINUOUS
 10
-7.7940557752
 20
-51.0710846992
 11
-7.7940557752
 21
-50.5675561886
  0
LINE
  5
283
100
AcDbEntity
  8
0
100
AcDbLine
 62
7
  6
CONTINUOUS
 10
-7.7940557752
 20
-48.3871663152
 11
-7.7940557752
 21
-47.8836378047
  0
LINE
  5
284
100
AcDbEntity
  8
0
100
AcDbLine
 62
7
  6
CONTINUOUS
 10
-7.7940557752
 20
26.9289153008
 11
-7.7940557752
 21
27.4324438114
  0
LINE
  5
285
100
AcDbEntity
  8
0
100
AcDbLine
 62
7
  6
CONTINUOUS
 10
-7.7940557752
 20
29.6128336848
 11
-7.7940557752
 21
30.1163621953
  0
LINE
  5
286
100
AcDbEntity
  8
0
100
AcDbLine
 62
7
  6
CONTINUOUS
 10
-7.6440557752
 20
31.2268022047
 11
-7.6440557752
 21
29.1086564444
  0
LINE
  5
287
100
AcDbEntity
  8
0
100
AcDbLine
 62
7
  6
CONTINUOUS
 10
-7.6440557752
 20
27.9366210518
 11
-7.6440557752
 21
25.8184752915
  0
LINE
  5
288
100
AcDbEntity
  8
0
100
AcDbLine
 62
7
  6
CONTINUOUS
 10
-7.6440557752
 20
-46.7731977953
 11
-7.6440557752
 21
-48.8913435556
  0
LINE
  5
289
100
AcDbEntity
  8
0
100
AcDbLine
 62
7
  6
CONTINUOUS
 10
-7.6440557752
 20
-50.0633789482
 11
-7.6440557752
 21
-52.1815247085
  0
LINE
  5
28A
100
AcDbEntity
  8
0
100
AcDbLine
 62
7
  6
CONTINUOUS
 10
-6.9990557752
 20
28.8726387481
 11
-6.9990557752
 21
28.1726387481
  0
LINE
  5
28B
100
AcDbEntity
  8
0
100
AcDbLine
 62
7
  6
CONTINUOUS
 10
-6.9990557752
 20
-49.1273612519
 11
-6.9990557752
 21
-49.8273612519
  0
LINE
  5
28C
100
AcDbEntity
  8
0
100
AcDbLine
 62
7
  6
CONTINUOUS
 10
-9.2342507119
 20
28.8726387481
 11
-8.6637792594
 21
29.0423622323
  0
LINE
  5
28D
100
AcDbEntity
  8
0
100
AcDbLine
 62
7
  6
CONTINUOUS
 10
-7.0538608385
 20
28.1726387481
 11
-7.6243322911
 21
28.0029152639
  0
LINE
  5
28E
100
AcDbEntity
  8
RACCORDO
100
AcDbLine
 62
253
  6
CONTINUOUS
 10
-26.1440557752
 20
-59.4773612519
 11
-28.1440557752
 21
-59.4773612505
  0
LINE
  5
28F
100
AcDbEntity
  8
RACCORDO
100
AcDbLine
 62
253
  6
CONTINUOUS
 10
111.8559442248
 20
-59.4773612519
 11
113.8559442248
 21
-59.4773612519
  0
LINE
  5
290
100
AcDbEntity
  8
0
100
AcDbLine
 62
7
  6
CONTINUOUS
 10
-8.6637792594
 20
-49.9970847361
 11
-9.2342507119
 21
-49.8273612519
  0
LINE
  5
291
100
AcDbEntity
  8
0
100
AcDbLine
 62
7
  6
CONTINUOUS
 10
-7.6243322911
 20
-48.9576377677
 11
-7.0538608385
 21
-49.1273612519
  0
LINE
  5
292
100
AcDbEntity
  8
0
100
AcDbLine
 62
7
  6
CONTINUOUS
 10
-8.4940557752
 20
-48.3871663152
 11
-8.6637792594
 21
-48.9576377677
  0
LINE
  5
293
100
AcDbEntity
  8
0
100
AcDbLine
 62
7
  6
CONTINUOUS
 10
-7.6243322911
 20
-49.9970847361
 11
-7.7940557752
 21
-50.5675561886
  0
LINE
  5
294
100
AcDbEntity
  8
0
100
AcDbLine
 62
7
  6
CONTINUOUS
 10
-8.4940557752
 20
-51.0710846992
 11
-7.7940557752
 21
-51.0710846992
  0
LINE
  5
295
100
AcDbEntity
  8
0
100
AcDbLine
 62
7
  6
CONTINUOUS
 10
93.5059442248
 20
-51.0710846992
 11
94.2059442248
 21
-51.0710846992
  0
LINE
  5
296
100
AcDbEntity
  8
0
100
AcDbLine
 62
7
  6
CONTINUOUS
 10
94.2059442248
 20
-50.6223612519
 11
93.5059442248
 21
-50.6223612519
  0
LINE
  5
297
100
AcDbEntity
  8
0
100
AcDbLine
 62
7
  6
CONTINUOUS
 10
-7.7940557752
 20
-50.6223612519
 11
-8.4940557752
 21
-50.6223612519
  0
LINE
  5
298
100
AcDbEntity
  8
0
100
AcDbLine
 62
7
  6
CONTINUOUS
 10
95.7978019891
 20
-49.8273612519
 11
94.9461391615
 21
-49.8273612519
  0
LINE
  5
299
100
AcDbEntity
  8
0
100
AcDbLine
 62
7
  6
CONTINUOUS
 10
92.7657492881
 20
-49.8273612519
 11
91.9140864604
 21
-49.8273612519
  0
LINE
  5
29A
100
AcDbEntity
  8
0
100
AcDbLine
 62
7
  6
CONTINUOUS
 10
-6.2021980109
 20
-49.8273612519
 11
-7.0538608385
 21
-49.8273612519
  0
LINE
  5
29B
100
AcDbEntity
  8
0
100
AcDbLine
 62
7
  6
CONTINUOUS
 10
-9.2342507119
 20
-49.8273612519
 11
-10.0859135396
 21
-49.8273612519
  0
LINE
  5
29C
100
AcDbEntity
  8
0
100
AcDbLine
 62
7
  6
CONTINUOUS
 10
95.7978019891
 20
-49.1273612519
 11
94.9461391615
 21
-49.1273612519
  0
LINE
  5
29D
100
AcDbEntity
  8
0
100
AcDbLine
 62
7
  6
CONTINUOUS
 10
92.7657492881
 20
-49.1273612519
 11
91.9140864604
 21
-49.1273612519
  0
LINE
  5
29E
100
AcDbEntity
  8
0
100
AcDbLine
 62
7
  6
CONTINUOUS
 10
-6.2021980109
 20
-49.1273612519
 11
-7.0538608385
 21
-49.1273612519
  0
LINE
  5
29F
100
AcDbEntity
  8
0
100
AcDbLine
 62
7
  6
CONTINUOUS
 10
-9.2342507119
 20
-49.1273612519
 11
-10.0859135396
 21
-49.1273612519
  0
LINE
  5
2A0
100
AcDbEntity
  8
0
100
AcDbLine
 62
7
  6
CONTINUOUS
 10
-8.4940557752
 20
-48.3323612519
 11
-7.7940557752
 21
-48.3323612519
  0
LINE
  5
2A1
100
AcDbEntity
  8
0
100
AcDbLine
 62
7
  6
CONTINUOUS
 10
93.5059442248
 20
-48.3323612519
 11
94.2059442248
 21
-48.3323612519
  0
LINE
  5
2A2
100
AcDbEntity
  8
0
100
AcDbLine
 62
7
  6
CONTINUOUS
 10
-8.4940557752
 20
-47.8836378047
 11
-7.7940557752
 21
-47.8836378047
  0
LINE
  5
2A3
100
AcDbEntity
  8
0
100
AcDbLine
 62
7
  6
CONTINUOUS
 10
93.5059442248
 20
-47.8836378047
 11
94.2059442248
 21
-47.8836378047
  0
LINE
  5
2A4
100
AcDbEntity
  8
0
100
AcDbLine
 62
7
  6
CONTINUOUS
 10
-8.4940557752
 20
27.4324438114
 11
-8.6637792594
 21
28.0029152639
  0
LINE
  5
2A5
100
AcDbEntity
  8
0
100
AcDbLine
 62
7
  6
CONTINUOUS
 10
-7.6243322911
 20
29.0423622323
 11
-7.7940557752
 21
29.6128336848
  0
LINE
  5
2A6
100
AcDbEntity
  8
0
100
AcDbLine
 62
7
  6
CONTINUOUS
 10
92.7657492881
 20
28.8726387481
 11
93.3362207406
 21
29.0423622323
  0
LINE
  5
2A7
100
AcDbEntity
  8
0
100
AcDbLine
 62
7
  6
CONTINUOUS
 10
94.9461391615
 20
28.1726387481
 11
94.3756677089
 21
28.0029152639
  0
LINE
  5
2A8
100
AcDbEntity
  8
0
100
AcDbLine
 62
7
  6
CONTINUOUS
 10
93.3362207406
 20
-49.9970847361
 11
92.7657492881
 21
-49.8273612519
  0
LINE
  5
2A9
100
AcDbEntity
  8
0
100
AcDbLine
 62
7
  6
CONTINUOUS
 10
94.3756677089
 20
-48.9576377677
 11
94.9461391615
 21
-49.1273612519
  0
LINE
  5
2AA
100
AcDbEntity
  8
0
100
AcDbLine
 62
7
  6
CONTINUOUS
 10
-9.2342507119
 20
-49.1273612519
 11
-8.6637792594
 21
-48.9576377677
  0
LINE
  5
2AB
100
AcDbEntity
  8
0
100
AcDbLine
 62
7
  6
CONTINUOUS
 10
-7.0538608385
 20
-49.8273612519
 11
-7.6243322911
 21
-49.9970847361
  0
LINE
  5
2AC
100
AcDbEntity
  8
0
100
AcDbLine
 62
7
  6
CONTINUOUS
 10
-8.6637792594
 20
28.0029152639
 11
-9.2342507119
 21
28.1726387481
  0
LINE
  5
2AD
100
AcDbEntity
  8
0
100
AcDbLine
 62
7
  6
CONTINUOUS
 10
-7.6243322911
 20
29.0423622323
 11
-7.0538608385
 21
28.8726387481
  0
LINE
  5
2AE
100
AcDbEntity
  8
0
100
AcDbLine
 62
7
  6
CONTINUOUS
 10
93.3362207406
 20
29.0423622323
 11
93.5059442248
 21
29.6128336848
  0
LINE
  5
2AF
100
AcDbEntity
  8
0
100
AcDbLine
 62
7
  6
CONTINUOUS
 10
-8.4940557752
 20
26.9289153008
 11
-7.7940557752
 21
26.9289153008
  0
LINE
  5
2B0
100
AcDbEntity
  8
0
100
AcDbLine
 62
7
  6
CONTINUOUS
 10
93.5059442248
 20
26.9289153008
 11
94.2059442248
 21
26.9289153008
  0
LINE
  5
2B1
100
AcDbEntity
  8
0
100
AcDbLine
 62
7
  6
CONTINUOUS
 10
93.3362207406
 20
-49.9970847361
 11
93.5059442248
 21
-50.5675561886
  0
LINE
  5
2B2
100
AcDbEntity
  8
0
100
AcDbLine
 62
7
  6
CONTINUOUS
 10
94.2059442248
 20
27.4324438114
 11
94.3756677089
 21
28.0029152639
  0
LINE
  5
2B3
100
AcDbEntity
  8
0
100
AcDbLine
 62
7
  6
CONTINUOUS
 10
94.2059442248
 20
27.3776387481
 11
93.5059442248
 21
27.3776387481
  0
LINE
  5
2B4
100
AcDbEntity
  8
0
100
AcDbLine
 62
7
  6
CONTINUOUS
 10
-7.7940557752
 20
27.3776387481
 11
-8.4940557752
 21
27.3776387481
  0
LINE
  5
2B5
100
AcDbEntity
  8
0
100
AcDbLine
 62
7
  6
CONTINUOUS
 10
95.7978019891
 20
28.1726387481
 11
94.9461391615
 21
28.1726387481
  0
LINE
  5
2B6
100
AcDbEntity
  8
0
100
AcDbLine
 62
7
  6
CONTINUOUS
 10
92.7657492881
 20
28.1726387481
 11
91.9140864604
 21
28.1726387481
  0
LINE
  5
2B7
100
AcDbEntity
  8
0
100
AcDbLine
 62
7
  6
CONTINUOUS
 10
-6.2021980109
 20
28.1726387481
 11
-7.0538608385
 21
28.1726387481
  0
LINE
  5
2B8
100
AcDbEntity
  8
0
100
AcDbLine
 62
7
  6
CONTINUOUS
 10
-9.2342507119
 20
28.1726387481
 11
-10.0859135396
 21
28.1726387481
  0
LINE
  5
2B9
100
AcDbEntity
  8
0
100
AcDbLine
 62
7
  6
CONTINUOUS
 10
95.7978019891
 20
28.8726387481
 11
94.9461391615
 21
28.8726387481
  0
LINE
  5
2BA
100
AcDbEntity
  8
0
100
AcDbLine
 62
7
  6
CONTINUOUS
 10
92.7657492881
 20
28.8726387481
 11
91.9140864604
 21
28.8726387481
  0
LINE
  5
2BB
100
AcDbEntity
  8
0
100
AcDbLine
 62
7
  6
CONTINUOUS
 10
-6.2021980109
 20
28.8726387481
 11
-7.0538608385
 21
28.8726387481
  0
LINE
  5
2BC
100
AcDbEntity
  8
0
100
AcDbLine
 62
7
  6
CONTINUOUS
 10
-9.2342507119
 20
28.8726387481
 11
-10.0859135396
 21
28.8726387481
  0
LINE
  5
2BD
100
AcDbEntity
  8
0
100
AcDbLine
 62
7
  6
CONTINUOUS
 10
-8.4940557752
 20
29.6676387481
 11
-7.7940557752
 21
29.6676387481
  0
LINE
  5
2BE
100
AcDbEntity
  8
0
100
AcDbLine
 62
7
  6
CONTINUOUS
 10
93.5059442248
 20
29.6676387481
 11
94.2059442248
 21
29.6676387481
  0
LINE
  5
2BF
100
AcDbEntity
  8
0
100
AcDbLine
 62
7
  6
CONTINUOUS
 10
-8.4940557752
 20
30.1163621953
 11
-7.7940557752
 21
30.1163621953
  0
LINE
  5
2C0
100
AcDbEntity
  8
0
100
AcDbLine
 62
7
  6
CONTINUOUS
 10
93.5059442248
 20
30.1163621953
 11
94.2059442248
 21
30.1163621953
  0
LINE
  5
2C1
100
AcDbEntity
  8
0
100
AcDbLine
 62
7
  6
CONTINUOUS
 10
94.2059442248
 20
-48.3871663152
 11
94.3756677089
 21
-48.9576377677
  0
LINE
  5
2C2
100
AcDbEntity
  8
0
100
AcDbLine
 62
7
  6
CONTINUOUS
 10
92.7109442248
 20
-49.8273612519
 11
92.7109442248
 21
-49.1273612519
  0
LINE
  5
2C3
100
AcDbEntity
  8
0
100
AcDbLine
 62
7
  6
CONTINUOUS
 10
92.7109442248
 20
28.1726387481
 11
92.7109442248
 21
28.8726387481
  0
LINE
  5
2C4
100
AcDbEntity
  8
RACCORDO
100
AcDbLine
 62
253
  6
CONTINUOUS
 10
-26.1440557752
 20
38.5226387481
 11
-28.1440557752
 21
38.5226387481
  0
LINE
  5
2C5
100
AcDbEntity
  8
RACCORDO
100
AcDbLine
 62
253
  6
CONTINUOUS
 10
111.8559442248
 20
38.5226387481
 11
113.8559442248
 21
38.5226387467
  0
LINE
  5
2C6
100
AcDbEntity
  8
0
100
AcDbLine
 62
7
  6
CONTINUOUS
 10
93.3559442248
 20
-52.1815247085
 11
93.3559442248
 21
-50.0633789482
  0
LINE
  5
2C7
100
AcDbEntity
  8
0
100
AcDbLine
 62
7
  6
CONTINUOUS
 10
93.3559442248
 20
-48.8913435556
 11
93.3559442248
 21
-46.7731977953
  0
LINE
  5
2C8
100
AcDbEntity
  8
0
100
AcDbLine
 62
7
  6
CONTINUOUS
 10
93.3559442248
 20
25.8184752915
 11
93.3559442248
 21
27.9366210518
  0
LINE
  5
2C9
100
AcDbEntity
  8
0
100
AcDbLine
 62
7
  6
CONTINUOUS
 10
93.3559442248
 20
29.1086564444
 11
93.3559442248
 21
31.2268022047
  0
LINE
  5
2CA
100
AcDbEntity
  8
0
100
AcDbLine
 62
7
  6
CONTINUOUS
 10
93.5059442248
 20
-51.0710846992
 11
93.5059442248
 21
-50.5675561886
  0
LINE
  5
2CB
100
AcDbEntity
  8
0
100
AcDbLine
 62
7
  6
CONTINUOUS
 10
93.5059442248
 20
-48.3871663152
 11
93.5059442248
 21
-47.8836378047
  0
LINE
  5
2CC
100
AcDbEntity
  8
0
100
AcDbLine
 62
7
  6
CONTINUOUS
 10
93.5059442248
 20
26.9289153008
 11
93.5059442248
 21
27.4324438114
  0
LINE
  5
2CD
100
AcDbEntity
  8
0
100
AcDbLine
 62
7
  6
CONTINUOUS
 10
93.5059442248
 20
29.6128336848
 11
93.5059442248
 21
30.1163621953
  0
LINE
  5
2CE
100
AcDbEntity
  8
0
100
AcDbLine
 62
7
  6
CONTINUOUS
 10
94.2059442248
 20
-51.0710846992
 11
94.2059442248
 21
-50.5675561886
  0
LINE
  5
2CF
100
AcDbEntity
  8
0
100
AcDbLine
 62
7
  6
CONTINUOUS
 10
94.2059442248
 20
-48.3871663152
 11
94.2059442248
 21
-47.8836378047
  0
LINE
  5
2D0
100
AcDbEntity
  8
0
100
AcDbLine
 62
7
  6
CONTINUOUS
 10
94.2059442248
 20
26.9289153008
 11
94.2059442248
 21
27.4324438114
  0
LINE
  5
2D1
100
AcDbEntity
  8
0
100
AcDbLine
 62
7
  6
CONTINUOUS
 10
94.2059442248
 20
29.6128336848
 11
94.2059442248
 21
30.1163621953
  0
LINE
  5
2D2
100
AcDbEntity
  8
0
100
AcDbLine
 62
7
  6
CONTINUOUS
 10
94.3559442248
 20
31.2268022047
 11
94.3559442248
 21
29.1086564444
  0
LINE
  5
2D3
100
AcDbEntity
  8
0
100
AcDbLine
 62
7
  6
CONTINUOUS
 10
94.3559442248
 20
27.9366210518
 11
94.3559442248
 21
25.8184752915
  0
LINE
  5
2D4
100
AcDbEntity
  8
0
100
AcDbLine
 62
7
  6
CONTINUOUS
 10
94.3559442248
 20
-46.7731977953
 11
94.3559442248
 21
-48.8913435556
  0
LINE
  5
2D5
100
AcDbEntity
  8
0
100
AcDbLine
 62
7
  6
CONTINUOUS
 10
94.3559442248
 20
-50.0633789482
 11
94.3559442248
 21
-52.1815247085
  0
LINE
  5
2D6
100
AcDbEntity
  8
0
100
AcDbLine
 62
7
  6
CONTINUOUS
 10
95.0009442248
 20
28.8726387481
 11
95.0009442248
 21
28.1726387481
  0
LINE
  5
2D7
100
AcDbEntity
  8
0
100
AcDbLine
 62
7
  6
CONTINUOUS
 10
95.0009442248
 20
-49.1273612519
 11
95.0009442248
 21
-49.8273612519
  0
LINE
  5
2D8
100
AcDbEntity
  8
0
100
AcDbLine
 62
7
  6
CONTINUOUS
 10
92.7657492881
 20
-49.1273612519
 11
93.3362207406
 21
-48.9576377677
  0
LINE
  5
2D9
100
AcDbEntity
  8
0
100
AcDbLine
 62
7
  6
CONTINUOUS
 10
94.9461391615
 20
-49.8273612519
 11
94.3756677089
 21
-49.9970847361
  0
LINE
  5
2DA
100
AcDbEntity
  8
0
100
AcDbLine
 62
7
  6
CONTINUOUS
 10
93.3362207406
 20
28.0029152639
 11
92.7657492881
 21
28.1726387481
  0
LINE
  5
2DB
100
AcDbEntity
  8
0
100
AcDbLine
 62
7
  6
CONTINUOUS
 10
94.3756677089
 20
29.0423622323
 11
94.9461391615
 21
28.8726387481
  0
LINE
  5
2DC
100
AcDbEntity
  8
RACCORDO
100
AcDbLine
 62
253
  6
CONTINUOUS
 10
103.8559442248
 20
-67.4773612519
 11
103.8559442234
 21
-69.4773612519
  0
LINE
  5
2DD
100
AcDbEntity
  8
RACCORDO
100
AcDbLine
 62
253
  6
CONTINUOUS
 10
103.8559442248
 20
46.5226387481
 11
103.8559442248
 21
48.5226387481
  0
LINE
  5
2DE
100
AcDbEntity
  8
0
100
AcDbLine
 62
7
  6
CONTINUOUS
 10
93.5059442248
 20
-48.3871663152
 11
93.3362207406
 21
-48.9576377677
  0
LINE
  5
2DF
100
AcDbEntity
  8
0
100
AcDbLine
 62
7
  6
CONTINUOUS
 10
94.3756677089
 20
-49.9970847361
 11
94.2059442248
 21
-50.5675561886
  0
LINE
  5
2E0
100
AcDbEntity
  8
RACCORDO
100
AcDbLine
 62
253
  6
CONTINUOUS
 10
103.8559442248
 20
46.5226387481
 11
-18.1440557752
 21
46.5226387481
  0
LINE
  5
2E1
100
AcDbEntity
  8
RACCORDO
100
AcDbLine
 62
7
  6
CONTINUOUS
 10
103.8559442248
 20
48.5226387481
 11
-18.1440557752
 21
48.5226387481
  0
LINE
  5
2E2
100
AcDbEntity
  8
0
100
AcDbLine
 62
7
  6
CONTINUOUS
 10
93.5059442248
 20
27.4324438114
 11
93.3362207406
 21
28.0029152639
  0
LINE
  5
2E3
100
AcDbEntity
  8
0
100
AcDbLine
 62
7
  6
CONTINUOUS
 10
94.3756677089
 20
29.0423622323
 11
94.2059442248
 21
29.6128336848
  0
LINE
  5
2E4
100
AcDbEntity
  8
RACCORDO
100
AcDbLine
 62
253
  6
CONTINUOUS
 10
111.8559442248
 20
-59.4773612519
 11
111.8559442248
 21
38.5226387481
  0
LINE
  5
2E5
100
AcDbEntity
  8
RACCORDO
100
AcDbLine
 62
7
  6
CONTINUOUS
 10
113.8559442248
 20
-59.4773612519
 11
113.8559442248
 21
38.5226387481
  0
LINE
  5
2E6
100
AcDbEntity
  8
RACCORDO
100
AcDbLine
 62
7
  6
CONTINUOUS
 10
-139.4790285604
 20
-69.4773612519
 11
-142.7790285604
 21
-69.4773612519
  0
LINE
  5
2E7
100
AcDbEntity
  8
ASSI
100
AcDbLine
 62
7
  6
CONTINUOUS
 10
-139.4790285604
 20
-69.4773612519
 11
-142.7790285604
 21
-69.4773612519
  0
LINE
  5
2E8
100
AcDbEntity
  8
DRAFT
100
AcDbLine
 62
7
  6
CONTINUOUS
 10
-124.4615761539
 20
-63.4246914242
 11
-127.4790285604
 21
-63.4773612519
  0
LINE
  5
2E9
100
AcDbEntity
  8
RACCORDO
100
AcDbLine
 62
7
  6
CONTINUOUS
 10
-124.4615761539
 20
-63.4246914242
 11
-127.4790285604
 21
-63.4773612519
  0
LINE
  5
2EA
100
AcDbEntity
  8
DRAFT
100
AcDbLine
 62
7
  6
CONTINUOUS
 10
-136.7790285604
 20
-63.9773612519
 11
-131.9790285604
 21
-63.9773612519
  0
LINE
  5
2EB
100
AcDbEntity
  8
RACCORDO
100
AcDbLine
 62
253
  6
CONTINUOUS
 10
-138.4964809668
 20
-62.2852032097
 11
-139.4790285604
 21
-62.2852032097
  0
LINE
  5
2EC
100
AcDbEntity
  8
RACCORDO
100
AcDbLine
 62
7
  6
CONTINUOUS
 10
-138.4964809668
 20
-63.2850509048
 11
-127.4790285604
 21
-63.4773612519
  0
LINE
  5
2ED
100
AcDbEntity
  8
RACCORDO
100
AcDbLine
 62
253
  6
CONTINUOUS
 10
-138.4964809668
 20
-62.2852032097
 11
-127.4790285604
 21
-62.4775135568
  0
LINE
  5
2EE
100
AcDbEntity
  8
DRAFT
100
AcDbLine
 62
7
  6
CONTINUOUS
 10
-127.4790285604
 20
40.8226387481
 11
-136.2137688897
 21
35.7796340676
  0
LINE
  5
2EF
100
AcDbEntity
  8
RACCORDO
100
AcDbLine
 62
253
  6
CONTINUOUS
 10
-139.4790285604
 20
-59.4773612519
 11
-144.7790285604
 21
-59.4773612519
  0
LINE
  5
2F0
100
AcDbEntity
  8
DRAFT
100
AcDbLine
 62
7
  6
CONTINUOUS
 10
-136.2137688897
 20
-56.7343565715
 11
-127.4790285604
 21
-61.7773612519
  0
LINE
  5
2F1
100
AcDbEntity
  8
DRAFT
100
AcDbLine
 62
7
  6
CONTINUOUS
 10
-123.4790285604
 20
-54.6980802131
 11
-92.4790285604
 21
-54.1569732003
  0
LINE
  5
2F2
100
AcDbEntity
  8
RACCORDO
100
AcDbLine
 62
7
  6
CONTINUOUS
 10
-92.4790285604
 20
-54.1569732003
 11
-92.426671341
 21
-54.1560593016
  0
LINE
  5
2F3
100
AcDbEntity
  8
DRAFT
100
AcDbLine
 62
7
  6
CONTINUOUS
 10
-127.4790285604
 20
-56.8868220311
 11
-139.4790285604
 21
-56.6773612519
  0
LINE
  5
2F4
100
AcDbEntity
  8
DRAFT
100
AcDbLine
 62
7
  6
CONTINUOUS
 10
-92.4790285604
 20
-50.8272839918
 11
-123.4790285604
 21
-51.401200079
  0
LINE
  5
2F5
100
AcDbEntity
  8
DRAFT
100
AcDbLine
 62
7
  6
CONTINUOUS
 10
-89.9746652926
 20
-49.3036022534
 11
-92.4793745789
 21
-49.3254605202
  0
LINE
  5
2F6
100
AcDbEntity
  8
DRAFT
100
AcDbLine
 62
7
  6
CONTINUOUS
 10
-123.4790285604
 20
-49.5892441855
 11
-92.4790285604
 21
-49.3651103221
  0
LINE
  5
2F7
100
AcDbEntity
  8
DRAFT
100
AcDbLine
 62
7
  6
CONTINUOUS
 10
-92.4790285604
 20
-52.6947995307
 11
-123.4790285604
 21
-52.8861243195
  0
LINE
  5
2F8
100
AcDbEntity
  8
RACCORDO
100
AcDbLine
 62
7
  6
CONTINUOUS
 10
-92.4795027038
 20
-50.6961162598
 11
-89.9746652926
 21
-50.6870618061
  0
LINE
  5
2F9
100
AcDbEntity
  8
RACCORDO
100
AcDbLine
 62
253
  6
CONTINUOUS
 10
-89.9746652926
 20
-51.1565162162
 11
-89.4790285604
 21
-51.1565162162
  0
LINE
  5
2FA
100
AcDbEntity
  8
DRAFT
100
AcDbLine
 62
7
  6
CONTINUOUS
 10
-123.4790285604
 20
-51.4572602392
 11
-92.4790285604
 21
-51.8398515376
  0
LINE
  5
2FB
100
AcDbEntity
  8
RACCORDO
100
AcDbLine
 62
7
  6
CONTINUOUS
 10
-89.9746652926
 20
-45.9449731033
 11
-92.4310342765
 21
-45.9664095106
  0
LINE
  5
2FC
100
AcDbEntity
  8
RACCORDO
100
AcDbLine
 62
253
  6
CONTINUOUS
 10
-92.426671341
 20
-45.4664285491
 11
-92.4790285604
 21
-45.4668854636
  0
LINE
  5
2FD
100
AcDbEntity
  8
DRAFT
100
AcDbLine
 62
253
  6
CONTINUOUS
 10
-127.4790285604
 20
-47.9773612519
 11
-139.4790285604
 21
-47.9773612519
  0
LINE
  5
2FE
100
AcDbEntity
  8
RACCORDO
100
AcDbLine
 62
7
  6
CONTINUOUS
 10
-90.6790285604
 20
-43.8273612519
 11
-123.4790285604
 21
-44.3998873816
  0
LINE
  5
2FF
100
AcDbEntity
  8
DRAFT
100
AcDbLine
 62
253
  6
CONTINUOUS
 10
-96.6790285604
 20
-43.7273612519
 11
-93.4790285604
 21
-43.7273612519
  0
LINE
  5
300
100
AcDbEntity
  8
RACCORDO
100
AcDbLine
 62
253
  6
CONTINUOUS
 10
-123.4790285604
 20
-41.4773612519
 11
-127.4790285604
 21
-41.4773612519
  0
LINE
  5
301
100
AcDbEntity
  8
RACCORDO
100
AcDbLine
 62
7
  6
CONTINUOUS
 10
-90.6790285604
 20
-42.1773612519
 11
-120.40520717
 21
-41.6584888742
  0
LINE
  5
302
100
AcDbEntity
  8
RACCORDO
100
AcDbLine
 62
7
  6
CONTINUOUS
 10
-144.7790285604
 20
-67.4773612519
 11
-144.7790285604
 21
46.5226387481
  0
LINE
  5
303
100
AcDbEntity
  8
RACCORDO
100
AcDbLine
 62
253
  6
CONTINUOUS
 10
-142.7790285604
 20
-69.4773612519
 11
-142.7790285604
 21
48.5226387481
  0
LINE
  5
304
100
AcDbEntity
  8
DRAFT
100
AcDbLine
 62
7
  6
CONTINUOUS
 10
-127.4790285604
 20
-36.6175079013
 11
-136.2137688897
 21
-36.7699733608
  0
LINE
  5
305
100
AcDbEntity
  8
DRAFT
100
AcDbLine
 62
7
  6
CONTINUOUS
 10
-127.4790285604
 20
-37.9372146026
 11
-136.2137688897
 21
-37.784749143
  0
LINE
  5
306
100
AcDbEntity
  8
0
100
AcDbLine
 62
7
  6
CONTINUOUS
 10
-139.4790285604
 20
-69.4773612519
 11
-139.4790285604
 21
48.5226387481
  0
LINE
  5
307
100
AcDbEntity
  8
RACCORDO
100
AcDbLine
 62
253
  6
CONTINUOUS
 10
-138.4964809668
 20
-56.694511684
 11
-138.4964809668
 21
-62.2852032097
  0
LINE
  5
308
100
AcDbEntity
  8
RACCORDO
100
AcDbLine
 62
253
  6
CONTINUOUS
 10
-138.4964809668
 20
35.7397891801
 11
-138.4964809668
 21
41.3304807058
  0
LINE
  5
309
100
AcDbEntity
  8
DRAFT
100
AcDbLine
 62
7
  6
CONTINUOUS
 10
-136.7790285604
 20
-63.3150291481
 11
-136.7790285604
 21
-63.9773612519
  0
LINE
  5
30A
100
AcDbEntity
  8
DRAFT
100
AcDbLine
 62
7
  6
CONTINUOUS
 10
-136.7790285604
 20
42.3603066443
 11
-136.7790285604
 21
43.0226387481
  0
LINE
  5
30B
100
AcDbEntity
  8
DRAFT
100
AcDbLine
 62
7
  6
CONTINUOUS
 10
-136.2137688897
 20
16.8300266392
 11
-136.2137688897
 21
15.815250857
  0
LINE
  5
30C
100
AcDbEntity
  8
DRAFT
100
AcDbLine
 62
7
  6
CONTINUOUS
 10
-136.2137688897
 20
-9.9699733608
 11
-136.2137688897
 21
-10.984749143
  0
LINE
  5
30D
100
AcDbEntity
  8
DRAFT
100
AcDbLine
 62
7
  6
CONTINUOUS
 10
-136.2137688897
 20
-36.7699733608
 11
-136.2137688897
 21
-37.784749143
  0
LINE
  5
30E
100
AcDbEntity
  8
SMUSSO
100
AcDbLine
 62
7
  6
CONTINUOUS
 10
-121.8790285604
 20
-28.7273612519
 11
-123.4790285604
 21
-28.298642544
  0
LINE
  5
30F
100
AcDbEntity
  8
DRAFT
100
AcDbLine
 62
7
  6
CONTINUOUS
 10
-131.9790285604
 20
-63.3988134597
 11
-131.9790285604
 21
-63.9773612519
  0
LINE
  5
310
100
AcDbEntity
  8
DRAFT
100
AcDbLine
 62
7
  6
CONTINUOUS
 10
-131.9790285604
 20
42.4440909559
 11
-131.9790285604
 21
43.0226387481
  0
LINE
  5
311
100
AcDbEntity
  8
SMUSSO
100
AcDbLine
 62
7
  6
CONTINUOUS
 10
-123.4790285604
 20
-25.1560799598
 11
-121.8790285604
 21
-24.7273612519
  0
LINE
  5
312
100
AcDbEntity
  8
DRAFT
100
AcDbLine
 62
7
  6
CONTINUOUS
 10
-127.4790285604
 20
-63.4773612519
 11
-127.4790285604
 21
42.5226387481
  0
LINE
  5
313
100
AcDbEntity
  8
RACCORDO
100
AcDbLine
 62
253
  6
CONTINUOUS
 10
-124.4615761539
 20
42.4699689204
 11
-124.4615761539
 21
-63.4246914242
  0
LINE
  5
314
100
AcDbEntity
  8
RACCORDO
100
AcDbLine
 62
7
  6
CONTINUOUS
 10
-123.4790285604
 20
-62.4248437291
 11
-123.4790285604
 21
41.4701212253
  0
LINE
  5
315
100
AcDbEntity
  8
SMUSSO
100
AcDbLine
 62
7
  6
CONTINUOUS
 10
-122.9791047128
 20
7.4778742314
 11
-122.9791047128
 21
4.0674032647
  0
LINE
  5
316
100
AcDbEntity
  8
SMUSSO
100
AcDbLine
 62
7
  6
CONTINUOUS
 10
-122.9791047128
 20
-25.0221257686
 11
-122.9791047128
 21
-28.4325967353
  0
LINE
  5
317
100
AcDbEntity
  8
RACCORDO
100
AcDbLine
 62
7
  6
CONTINUOUS
 10
-121.8790285604
 20
19.2039948276
 11
-121.8790285604
 21
7.7726387481
  0
LINE
  5
318
100
AcDbEntity
  8
RACCORDO
100
AcDbLine
 62
7
  6
CONTINUOUS
 10
-121.8790285604
 20
3.7726387481
 11
-121.8790285604
 21
-7.6587173315
  0
LINE
  5
319
100
AcDbEntity
  8
RACCORDO
100
AcDbLine
 62
7
  6
CONTINUOUS
 10
-121.8790285604
 20
-13.2960051724
 11
-121.8790285604
 21
-24.7273612519
  0
LINE
  5
31A
100
AcDbEntity
  8
RACCORDO
100
AcDbLine
 62
7
  6
CONTINUOUS
 10
-121.8790285604
 20
-28.7273612519
 11
-121.8790285604
 21
-40.1587173315
  0
LINE
  5
31B
100
AcDbEntity
  8
RACCORDO
100
AcDbLine
 62
7
  6
CONTINUOUS
 10
-90.6790285604
 20
-11.2773612519
 11
-120.40520717
 21
-11.7962336296
  0
LINE
  5
31C
100
AcDbEntity
  8
DRAFT
100
AcDbLine
 62
7
  6
CONTINUOUS
 10
-93.4790285604
 20
-9.7762354337
 11
-96.6634553758
 21
-9.8318198105
  0
LINE
  5
31D
100
AcDbEntity
  8
DRAFT
100
AcDbLine
 62
7
  6
CONTINUOUS
 10
-127.4790285604
 20
-11.1372146026
 11
-136.2137688897
 21
-10.984749143
  0
LINE
  5
31E
100
AcDbEntity
  8
DRAFT
100
AcDbLine
 62
7
  6
CONTINUOUS
 10
-93.4790285604
 20
-11.1784870701
 11
-96.6634553758
 21
-11.1229026933
  0
LINE
  5
31F
100
AcDbEntity
  8
DRAFT
100
AcDbLine
 62
7
  6
CONTINUOUS
 10
-127.4790285604
 20
-9.8175079013
 11
-136.2137688897
 21
-9.9699733608
  0
LINE
  5
320
100
AcDbEntity
  8
RACCORDO
100
AcDbLine
 62
7
  6
CONTINUOUS
 10
-90.6790285604
 20
-9.6773612519
 11
-120.40520717
 21
-9.1584888742
  0
LINE
  5
321
100
AcDbEntity
  8
SMUSSO
100
AcDbLine
 62
7
  6
CONTINUOUS
 10
-121.8790285604
 20
3.7726387481
 11
-123.4790285604
 21
4.201357456
  0
LINE
  5
322
100
AcDbEntity
  8
DRAFT
100
AcDbLine
 62
7
  6
CONTINUOUS
 10
-96.6790285604
 20
-43.9320916415
 11
-96.6790285604
 21
-42.0726308623
  0
LINE
  5
323
100
AcDbEntity
  8
DRAFT
100
AcDbLine
 62
7
  6
CONTINUOUS
 10
-96.6790285604
 20
-11.406504539
 11
-96.6790285604
 21
-9.5726308623
  0
LINE
  5
324
100
AcDbEntity
  8
DRAFT
100
AcDbLine
 62
7
  6
CONTINUOUS
 10
-96.6790285604
 20
21.1179083585
 11
-96.6790285604
 21
22.9773691377
  0
LINE
  5
325
100
AcDbEntity
  8
SMUSSO
100
AcDbLine
 62
7
  6
CONTINUOUS
 10
-123.4790285604
 20
7.3439200402
 11
-121.8790285604
 21
7.7726387481
  0
LINE
  5
326
100
AcDbEntity
  8
DRAFT
100
AcDbLine
 62
7
  6
CONTINUOUS
 10
-93.4790285604
 20
-43.8762354337
 11
-93.4790285604
 21
-42.1284870701
  0
LINE
  5
327
100
AcDbEntity
  8
DRAFT
100
AcDbLine
 62
7
  6
CONTINUOUS
 10
-93.4790285604
 20
-11.3262354337
 11
-93.4790285604
 21
-9.6284870701
  0
LINE
  5
328
100
AcDbEntity
  8
DRAFT
100
AcDbLine
 62
7
  6
CONTINUOUS
 10
-93.4790285604
 20
21.1737645663
 11
-93.4790285604
 21
22.9215129299
  0
LINE
  5
329
100
AcDbEntity
  8
DRAFT
100
AcDbLine
 62
7
  6
CONTINUOUS
 10
-92.4790285604
 20
-50.8272839918
 11
-92.4790285604
 21
-49.3651103221
  0
LINE
  5
32A
100
AcDbEntity
  8
RACCORDO
100
AcDbLine
 62
7
  6
CONTINUOUS
 10
-92.4790285604
 20
-49.3651103221
 11
-92.4790285604
 21
-45.4668854636
  0
LINE
  5
32B
100
AcDbEntity
  8
DRAFT
100
AcDbLine
 62
7
  6
CONTINUOUS
 10
-92.4790285604
 20
-51.8398515376
 11
-92.4790285604
 21
-54.1569732003
  0
LINE
  5
32C
100
AcDbEntity
  8
RACCORDO
100
AcDbLine
 62
7
  6
CONTINUOUS
 10
-92.4790285604
 20
24.5121629598
 11
-92.4790285604
 21
28.4103878183
  0
LINE
  5
32D
100
AcDbEntity
  8
DRAFT
100
AcDbLine
 62
7
  6
CONTINUOUS
 10
-92.4790285604
 20
28.4103878183
 11
-92.4790285604
 21
29.8725614879
  0
LINE
  5
32E
100
AcDbEntity
  8
DRAFT
100
AcDbLine
 62
7
  6
CONTINUOUS
 10
-92.4790285604
 20
30.8851290338
 11
-92.4790285604
 21
33.2022506965
  0
LINE
  5
32F
100
AcDbEntity
  8
RACCORDO
100
AcDbLine
 62
253
  6
CONTINUOUS
 10
-92.426671341
 20
24.5117060453
 11
-92.426671341
 21
22.9031439663
  0
LINE
  5
330
100
AcDbEntity
  8
RACCORDO
100
AcDbLine
 62
253
  6
CONTINUOUS
 10
-92.426671341
 20
21.1921335299
 11
-92.426671341
 21
-9.6468560337
  0
LINE
  5
331
100
AcDbEntity
  8
RACCORDO
100
AcDbLine
 62
253
  6
CONTINUOUS
 10
-92.426671341
 20
-11.3078664701
 11
-92.426671341
 21
-42.1468560337
  0
LINE
  5
332
100
AcDbEntity
  8
RACCORDO
100
AcDbLine
 62
253
  6
CONTINUOUS
 10
-92.426671341
 20
-43.8578664701
 11
-92.426671341
 21
-45.4664285491
  0
LINE
  5
333
100
AcDbEntity
  8
RACCORDO
100
AcDbLine
 62
7
  6
CONTINUOUS
 10
-90.6790285604
 20
-43.8273612519
 11
-90.6790285604
 21
-42.1773612519
  0
LINE
  5
334
100
AcDbEntity
  8
RACCORDO
100
AcDbLine
 62
7
  6
CONTINUOUS
 10
-90.6790285604
 20
-11.2773612519
 11
-90.6790285604
 21
-9.6773612519
  0
LINE
  5
335
100
AcDbEntity
  8
RACCORDO
100
AcDbLine
 62
7
  6
CONTINUOUS
 10
-90.6790285604
 20
21.2226387481
 11
-90.6790285604
 21
22.8726387481
  0
LINE
  5
336
100
AcDbEntity
  8
DRAFT
100
AcDbLine
 62
7
  6
CONTINUOUS
 10
-127.4790285604
 20
15.6627853974
 11
-136.2137688897
 21
15.815250857
  0
LINE
  5
337
100
AcDbEntity
  8
RACCORDO
100
AcDbLine
 62
253
  6
CONTINUOUS
 10
-89.9746652926
 20
-45.9449731033
 11
-89.9746652926
 21
-51.1565162162
  0
LINE
  5
338
100
AcDbEntity
  8
RACCORDO
100
AcDbLine
 62
253
  6
CONTINUOUS
 10
-89.9746652926
 20
24.9902505994
 11
-89.9746652926
 21
30.2017937123
  0
LINE
  5
339
100
AcDbEntity
  8
RACCORDO
100
AcDbLine
 62
7
  6
CONTINUOUS
 10
-89.4790285604
 20
-51.1565162162
 11
-89.4790285604
 21
30.2017937123
  0
LINE
  5
33A
100
AcDbEntity
  8
SMUSSO
100
AcDbLine
 62
7
  6
CONTINUOUS
 10
-123.4790285604
 20
-55.1980802131
 11
-122.9791047128
 21
-54.6893540098
  0
LINE
  5
33B
100
AcDbEntity
  8
DRAFT
100
AcDbLine
 62
7
  6
CONTINUOUS
 10
-127.4790285604
 20
16.9824920987
 11
-136.2137688897
 21
16.8300266392
  0
LINE
  5
33C
100
AcDbEntity
  8
SMUSSO
100
AcDbLine
 62
7
  6
CONTINUOUS
 10
-122.9791047128
 20
33.734631506
 11
-123.4790285604
 21
34.2433577092
  0
LINE
  5
33D
100
AcDbEntity
  8
RACCORDO
100
AcDbLine
 62
7
  6
CONTINUOUS
 10
-90.6790285604
 20
21.2226387481
 11
-120.40520717
 21
20.7037663704
  0
LINE
  5
33E
100
AcDbEntity
  8
RACCORDO
100
AcDbLine
 62
253
  6
CONTINUOUS
 10
-123.4790285604
 20
20.5226387481
 11
-127.4790285604
 21
20.5226387481
  0
LINE
  5
33F
100
AcDbEntity
  8
DRAFT
100
AcDbLine
 62
253
  6
CONTINUOUS
 10
-96.6790285604
 20
22.7726387481
 11
-93.4790285604
 21
22.7726387481
  0
LINE
  5
340
100
AcDbEntity
  8
RACCORDO
100
AcDbLine
 62
253
  6
CONTINUOUS
 10
-92.4790285604
 20
24.5121629598
 11
-92.426671341
 21
24.5117060453
  0
LINE
  5
341
100
AcDbEntity
  8
RACCORDO
100
AcDbLine
 62
7
  6
CONTINUOUS
 10
-90.6790285604
 20
22.8726387481
 11
-123.4790285604
 21
23.4451648777
  0
LINE
  5
342
100
AcDbEntity
  8
DRAFT
100
AcDbLine
 62
253
  6
CONTINUOUS
 10
-127.4790285604
 20
27.0226387481
 11
-139.4790285604
 21
27.0226387481
  0
LINE
  5
343
100
AcDbEntity
  8
DRAFT
100
AcDbLine
 62
7
  6
CONTINUOUS
 10
-123.4790285604
 20
28.6345216817
 11
-92.4790285604
 21
28.4103878183
  0
LINE
  5
344
100
AcDbEntity
  8
RACCORDO
100
AcDbLine
 62
7
  6
CONTINUOUS
 10
-92.4310342765
 20
25.0116870068
 11
-89.9746652926
 21
24.9902505994
  0
LINE
  5
345
100
AcDbEntity
  8
DRAFT
100
AcDbLine
 62
7
  6
CONTINUOUS
 10
-89.9746652926
 20
28.3488797495
 11
-92.4793745789
 21
28.3707380163
  0
LINE
  5
346
100
AcDbEntity
  8
DRAFT
100
AcDbLine
 62
7
  6
CONTINUOUS
 10
-123.4790285604
 20
30.5025377354
 11
-92.4790285604
 21
30.8851290338
  0
LINE
  5
347
100
AcDbEntity
  8
RACCORDO
100
AcDbLine
 62
253
  6
CONTINUOUS
 10
-89.9746652926
 20
30.2017937123
 11
-89.4790285604
 21
30.2017936963
  0
LINE
  5
348
100
AcDbEntity
  8
RACCORDO
100
AcDbLine
 62
7
  6
CONTINUOUS
 10
-92.4795027038
 20
29.7413937559
 11
-89.9746652926
 21
29.7323393022
  0
LINE
  5
349
100
AcDbEntity
  8
DRAFT
100
AcDbLine
 62
7
  6
CONTINUOUS
 10
-92.4790285604
 20
31.7400770268
 11
-123.4790285604
 21
31.9314018157
  0
LINE
  5
34A
100
AcDbEntity
  8
DRAFT
100
AcDbLine
 62
7
  6
CONTINUOUS
 10
-92.4790285604
 20
29.8725614879
 11
-123.4790285604
 21
30.4464775752
  0
LINE
  5
34B
100
AcDbEntity
  8
DRAFT
100
AcDbLine
 62
7
  6
CONTINUOUS
 10
-127.4790285604
 20
35.9320995272
 11
-139.4790285604
 21
35.7226387481
  0
LINE
  5
34C
100
AcDbEntity
  8
DRAFT
100
AcDbLine
 62
7
  6
CONTINUOUS
 10
-123.4790285604
 20
33.7433577092
 11
-92.4790285604
 21
33.2022506965
  0
LINE
  5
34D
100
AcDbEntity
  8
RACCORDO
100
AcDbLine
 62
7
  6
CONTINUOUS
 10
-92.426671341
 20
33.2013367978
 11
-92.4790285604
 21
33.2022506965
  0
LINE
  5
34E
100
AcDbEntity
  8
RACCORDO
100
AcDbLine
 62
253
  6
CONTINUOUS
 10
-127.4790285604
 20
41.5227910529
 11
-138.4964809668
 21
41.3304807058
  0
LINE
  5
34F
100
AcDbEntity
  8
RACCORDO
100
AcDbLine
 62
253
  6
CONTINUOUS
 10
-139.4790285604
 20
38.5226387481
 11
-144.7790285604
 21
38.5226387481
  0
LINE
  5
350
100
AcDbEntity
  8
RACCORDO
100
AcDbLine
 62
253
  6
CONTINUOUS
 10
-139.4790285604
 20
41.3304807058
 11
-138.4964809668
 21
41.330480706
  0
LINE
  5
351
100
AcDbEntity
  8
RACCORDO
100
AcDbLine
 62
7
  6
CONTINUOUS
 10
-127.4790285604
 20
42.5226387481
 11
-138.4964809668
 21
42.330328401
  0
LINE
  5
352
100
AcDbEntity
  8
DRAFT
100
AcDbLine
 62
7
  6
CONTINUOUS
 10
-136.7790285604
 20
43.0226387481
 11
-131.9790285604
 21
43.0226387481
  0
LINE
  5
353
100
AcDbEntity
  8
RACCORDO
100
AcDbLine
 62
7
  6
CONTINUOUS
 10
-124.4615761539
 20
42.4699689204
 11
-127.4790285604
 21
42.5226387481
  0
LINE
  5
354
100
AcDbEntity
  8
RACCORDO
100
AcDbLine
 62
7
  6
CONTINUOUS
 10
-139.4790285604
 20
48.5226387481
 11
-142.7790285604
 21
48.5226387481
  0
ARC
  5
355
100
AcDbEntity
  8
0
100
AcDbCircle
 62
7
  6
CONTINUOUS
 10
4.4999605116
 20
-49.4773612519
 40
14.5900727153
100
AcDbArc
 50
178.6254046104
 51
181.3745953896
  0
ARC
  5
356
100
AcDbEntity
  8
0
100
AcDbCircle
 62
7
  6
CONTINUOUS
 10
-20.7880720621
 20
-49.4773612519
 40
14.5900727153
100
AcDbArc
 50
358.6254046104
 51
1.3745953896
  0
ARC
  5
357
100
AcDbEntity
  8
RACCORDO
100
AcDbCircle
 62
7
  6
CONTINUOUS
 10
-18.1440557752
 20
-59.4773612519
 40
10.0
100
AcDbArc
 50
179.9999999921
 51
270.0000000138
  0
ARC
  5
358
100
AcDbEntity
  8
RACCORDO
100
AcDbCircle
 62
253
  6
CONTINUOUS
 10
-18.1440557752
 20
-59.4773612519
 40
7.9999996053
100
AcDbArc
 50
180.0
 51
270.0
  0
CIRCLE
  5
359
100
AcDbEntity
  8
0
100
AcDbCircle
 62
7
  6
CONTINUOUS
 10
-8.1440557752
 20
-49.4773612519
 40
3.0
  0
CIRCLE
  5
35A
100
AcDbEntity
  8
0
100
AcDbCircle
 62
7
  6
CONTINUOUS
 10
-8.1440557752
 20
-49.4773612519
 40
2.75
  0
ARC
  5
35B
100
AcDbEntity
  8
0
100
AcDbCircle
 62
7
  6
CONTINUOUS
 10
4.4999605116
 20
28.5226387481
 40
14.5900727153
100
AcDbArc
 50
178.6254046104
 51
181.3745953896
  0
ARC
  5
35C
100
AcDbEntity
  8
0
100
AcDbCircle
 62
7
  6
CONTINUOUS
 10
-20.7880720621
 20
28.5226387481
 40
14.5900727153
100
AcDbArc
 50
358.6254046104
 51
1.3745953896
  0
ARC
  5
35D
100
AcDbEntity
  8
RACCORDO
100
AcDbCircle
 62
7
  6
CONTINUOUS
 10
-18.1440557752
 20
38.5226387481
 40
10.0
100
AcDbArc
 50
89.9999999921
 51
180.0000000138
  0
ARC
  5
35E
100
AcDbEntity
  8
RACCORDO
100
AcDbCircle
 62
253
  6
CONTINUOUS
 10
-18.1440557752
 20
38.5226387481
 40
7.9999996053
100
AcDbArc
 50
90.0
 51
180.0
  0
CIRCLE
  5
35F
100
AcDbEntity
  8
0
100
AcDbCircle
 62
7
  6
CONTINUOUS
 10
-8.1440557752
 20
28.5226387481
 40
3.0
  0
CIRCLE
  5
360
100
AcDbEntity
  8
0
100
AcDbCircle
 62
7
  6
CONTINUOUS
 10
-8.1440557752
 20
28.5226387481
 40
2.75
  0
ARC
  5
361
100
AcDbEntity
  8
0
100
AcDbCircle
 62
7
  6
CONTINUOUS
 10
106.4999605116
 20
-49.4773612519
 40
14.5900727153
100
AcDbArc
 50
178.6254046104
 51
181.3745953896
  0
ARC
  5
362
100
AcDbEntity
  8
0
100
AcDbCircle
 62
7
  6
CONTINUOUS
 10
81.2119279379
 20
-49.4773612519
 40
14.5900727153
100
AcDbArc
 50
358.6254046104
 51
1.3745953896
  0
ARC
  5
363
100
AcDbEntity
  8
RACCORDO
100
AcDbCircle
 62
7
  6
CONTINUOUS
 10
103.8559442248
 20
-59.4773612519
 40
10.0
100
AcDbArc
 50
269.9999999921
 51
360.0
  0
ARC
  5
364
100
AcDbEntity
  8
RACCORDO
100
AcDbCircle
 62
253
  6
CONTINUOUS
 10
103.8559442248
 20
-59.4773612519
 40
7.9999996053
100
AcDbArc
 50
270.0
 51
360.0
  0
CIRCLE
  5
365
100
AcDbEntity
  8
0
100
AcDbCircle
 62
7
  6
CONTINUOUS
 10
93.8559442248
 20
-49.4773612519
 40
3.0
  0
CIRCLE
  5
366
100
AcDbEntity
  8
0
100
AcDbCircle
 62
7
  6
CONTINUOUS
 10
93.8559442248
 20
-49.4773612519
 40
2.75
  0
ARC
  5
367
100
AcDbEntity
  8
0
100
AcDbCircle
 62
7
  6
CONTINUOUS
 10
106.4999605116
 20
28.5226387481
 40
14.5900727153
100
AcDbArc
 50
178.6254046104
 51
181.3745953896
  0
ARC
  5
368
100
AcDbEntity
  8
0
100
AcDbCircle
 62
7
  6
CONTINUOUS
 10
81.2119279379
 20
28.5226387481
 40
14.5900727153
100
AcDbArc
 50
358.6254046104
 51
1.3745953896
  0
ARC
  5
369
100
AcDbEntity
  8
RACCORDO
100
AcDbCircle
 62
7
  6
CONTINUOUS
 10
103.8559442248
 20
38.5226387481
 40
10.0
100
AcDbArc
 50
0.0
 51
90.0000000138
  0
ARC
  5
36A
100
AcDbEntity
  8
RACCORDO
100
AcDbCircle
 62
253
  6
CONTINUOUS
 10
103.8559442248
 20
38.5226387481
 40
7.9999996053
100
AcDbArc
 50
0.0
 51
90.0
  0
CIRCLE
  5
36B
100
AcDbEntity
  8
0
100
AcDbCircle
 62
7
  6
CONTINUOUS
 10
93.8559442248
 20
28.5226387481
 40
3.0
  0
CIRCLE
  5
36C
100
AcDbEntity
  8
0
100
AcDbCircle
 62
7
  6
CONTINUOUS
 10
93.8559442248
 20
28.5226387481
 40
2.75
  0
ARC
  5
36D
100
AcDbEntity
  8
RACCORDO
100
AcDbCircle
 62
7
  6
CONTINUOUS
 10
-142.7790285604
 20
-67.4773612519
 40
2.0
100
AcDbArc
 50
180.0
 51
270.0
  0
ARC
  5
36E
100
AcDbEntity
  8
RACCORDO
100
AcDbCircle
 62
7
  6
CONTINUOUS
 10
-120.3790285604
 20
-40.1587173315
 40
1.5
100
AcDbArc
 50
180.0
 51
269.0
  0
ARC
  5
36F
100
AcDbEntity
  8
RACCORDO
100
AcDbCircle
 62
7
  6
CONTINUOUS
 10
-120.3790285604
 20
-13.2960051724
 40
1.5
100
AcDbArc
 50
91.0
 51
180.0
  0
ARC
  5
370
100
AcDbEntity
  8
RACCORDO
100
AcDbCircle
 62
7
  6
CONTINUOUS
 10
-124.4790285604
 20
-62.4248437291
 40
1.0
100
AcDbArc
 50
271.0
 51
360.0
  0
ARC
  5
371
100
AcDbEntity
  8
RACCORDO
100
AcDbCircle
 62
7
  6
CONTINUOUS
 10
-138.4790285604
 20
-62.2852032097
 40
1.0
100
AcDbArc
 50
180.0
 51
269.0
  0
ARC
  5
372
100
AcDbEntity
  8
RACCORDO
100
AcDbCircle
 62
7
  6
CONTINUOUS
 10
-142.7790285604
 20
46.5226387481
 40
2.0
100
AcDbArc
 50
90.0
 51
180.0
  0
ARC
  5
373
100
AcDbEntity
  8
RACCORDO
100
AcDbCircle
 62
7
  6
CONTINUOUS
 10
-120.3790285604
 20
-7.6587173315
 40
1.5
100
AcDbArc
 50
180.0
 51
269.0
  0
ARC
  5
374
100
AcDbEntity
  8
RACCORDO
100
AcDbCircle
 62
7
  6
CONTINUOUS
 10
-120.3790285604
 20
19.2039948276
 40
1.5
100
AcDbArc
 50
91.0
 51
180.0
  0
ARC
  5
375
100
AcDbEntity
  8
RACCORDO
100
AcDbCircle
 62
7
  6
CONTINUOUS
 10
-124.4790285604
 20
41.4701212253
 40
1.0
100
AcDbArc
 50
0.0
 51
88.9999999905
  0
ARC
  5
376
100
AcDbEntity
  8
RACCORDO
100
AcDbCircle
 62
7
  6
CONTINUOUS
 10
-138.4790285604
 20
41.3304807058
 40
1.0
100
AcDbArc
 50
91.0
 51
180.0
  0
ARC
  5
377
100
AcDbEntity
  8
RACCORDO
100
AcDbCircle
 62
7
  6
CONTINUOUS
 10
-92.4790285604
 20
-51.1565162162
 40
3.0
100
AcDbArc
 50
271.0
 51
360.0
  0
ARC
  5
378
100
AcDbEntity
  8
RACCORDO
100
AcDbCircle
 62
253
  6
CONTINUOUS
 10
-92.4748684364
 20
-51.1563165858
 40
2.5002155661
100
AcDbArc
 50
271.0045747842
 51
359.9954251801
  0
ARC
  5
379
100
AcDbEntity
  8
RACCORDO
100
AcDbCircle
 62
7
  6
CONTINUOUS
 10
-89.9790285604
 20
-48.8036212918
 40
0.5
100
AcDbArc
 50
270.5
 51
360.0
  0
ARC
  5
37A
100
AcDbEntity
  8
RACCORDO
100
AcDbCircle
 62
7
  6
CONTINUOUS
 10
-89.9791888948
 20
-45.444993541
 40
0.5
100
AcDbArc
 50
270.5183736775
 51
0.0001602095
  0
ARC
  5
37B
100
AcDbEntity
  8
RACCORDO
100
AcDbCircle
 62
7
  6
CONTINUOUS
 10
-92.4790285604
 20
30.2017937123
 40
3.0
100
AcDbArc
 50
0.0
 51
89.0
  0
ARC
  5
37C
100
AcDbEntity
  8
RACCORDO
100
AcDbCircle
 62
253
  6
CONTINUOUS
 10
-92.4748487243
 20
30.2016134536
 40
2.5001912874
100
AcDbArc
 50
0.0041309218
 51
88.9958690988
  0
ARC
  5
37D
100
AcDbEntity
  8
RACCORDO
100
AcDbCircle
 62
7
  6
CONTINUOUS
 10
-89.9790285604
 20
27.848898788
 40
0.5
100
AcDbArc
 50
0.0
 51
89.5
  0
ARC
  5
37E
100
AcDbEntity
  8
RACCORDO
100
AcDbCircle
 62
7
  6
CONTINUOUS
 10
-89.9790285604
 20
24.4902696379
 40
0.5
100
AcDbArc
 50
0.0
 51
89.5
  0
LINE
  5
37F
100
AcDbEntity
  8
RACCORDO
100
AcDbLine
 62
7
  6
CONTINUOUS
 10
-92.4790285415
 20
26.6843120209
 11
-89.9746652926
 21
26.6848248101
  0
SPLINE
  5
380
100
AcDbEntity
  8
RACCORDO
100
AcDbSpline
 62
253
  6
CONTINUOUS
 70
0
 71
3
 72
14
 73
10
 74
8
 42
0.0000001
 43
0.0000001
 44
0.0000000001
 12
-0.0174497851
 22
-1.0000021061
 32
0.0
 13
1.0000020133
 23
-0.0174551012
 33
0.0
 40
0.0
 40
0.0
 40
0.0
 40
0.0
 40
0.1840046962
 40
0.3770771763
 40
0.5667943779
 40
0.7385558451
 40
0.8769689386
 40
0.9677704862
 40
1.0
 40
1.0
 40
1.0
 40
1.0
 10
-138.4964809668
 20
-62.2852032097
 30
0.0
 10
-138.4975512476
 20
-62.3465382376
 30
0.0
 10
-138.4996080767
 20
-62.4723155774
 30
0.0
 10
-138.5016621133
 20
-62.6608842801
 30
0.0
 10
-138.5042278115
 20
-62.8470899753
 30
0.0
 10
-138.5014461524
 20
-63.0095309281
 30
0.0
 10
-138.5094174367
 20
-63.1544206664
 30
0.0
 10
-138.4906853029
 20
-63.2195982376
 30
0.0
 10
-138.5072241597
 20
-63.2848633817
 30
0.0
 10
-138.4964809668
 20
-63.2850509048
 30
0.0
 11
-138.4964809668
 21
-62.2852032097
 31
0.0
 11
-138.4993942357
 21
-62.4692132453
 31
0.0
 11
-138.5017719149
 21
-62.6623008857
 31
0.0
 11
-138.5032961484
 21
-62.8520412464
 31
0.0
 11
-138.5036806911
 21
-63.0238287931
 31
0.0
 11
-138.5027138267
 21
-63.1622598731
 31
0.0
 11
-138.5002989339
 21
-63.253043322
 31
0.0
 11
-138.4964809668
 21
-63.2850509048
 31
0.0
  0
SPLINE
  5
381
100
AcDbEntity
  8
RACCORDO
100
AcDbSpline
 62
253
  6
CONTINUOUS
 70
0
 71
3
 72
14
 73
10
 74
8
 42
0.0000001
 43
0.0000001
 44
0.0000000001
 12
-0.0174497526
 22
1.0000002451
 32
0.0
 13
1.0000001542
 23
0.0174549621
 33
0.0
 40
0.0
 40
0.0
 40
0.0
 40
0.0
 40
0.1789352207
 40
0.3678270342
 40
0.5567689336
 40
0.7311891539
 40
0.8734202191
 40
0.9670071399
 40
1.0
 40
1.0
 40
1.0
 40
1.0
 10
-138.4964809668
 20
41.3304807058
 30
0.0
 10
-138.4975217586
 20
41.390125794
 30
0.0
 10
-138.4995302277
 20
41.5128153665
 30
0.0
 10
-138.5015814491
 20
41.6980558613
 30
0.0
 10
-138.504171697
 20
41.8834749815
 30
0.0
 10
-138.5014053079
 20
42.0477738686
 30
0.0
 10
-138.5096734915
 20
42.1960433182
 30
0.0
 10
-138.4903625857
 20
42.2629978186
 30
0.0
 10
-138.5074785885
 20
42.3301364379
 30
0.0
 10
-138.4964809668
 20
42.330328401
 30
0.0
 11
-138.4964809668
 21
41.3304807058
 31
0.0
 11
-138.4993212493
 21
41.5094206704
 31
0.0
 11
-138.5016762804
 21
41.698326607
 31
0.0
 11
-138.5032414385
 21
41.8872908345
 31
0.0
 11
-138.5036912277
 21
42.0617370706
 31
0.0
 11
-138.5027622751
 21
42.2039867901
 31
0.0
 11
-138.500336659
 21
42.2975565466
 31
0.0
 11
-138.4964809668
 21
42.330328401
 31
0.0
  0
SPLINE
  5
382
100
AcDbEntity
  8
DRAFT
100
AcDbSpline
 62
7
  6
CONTINUOUS
 70
0
 71
3
 72
10
 73
6
 74
4
 42
0.0000001
 43
0.0000001
 44
0.0000000001
 12
0.3378428344
 22
1.2586487543
 32
0.0
 13
-0.3378338654
 23
1.2586511617
 33
0.0
 40
0.0
 40
0.0
 40
0.0
 40
0.0
 40
0.3350838651
 40
0.6649184018
 40
1.0
 40
1.0
 40
1.0
 40
1.0
 10
-96.6634553758
 20
-11.1229026933
 30
0.0
 10
-96.6257201482
 20
-10.9823183968
 30
0.0
 10
-96.5796174595
 20
-10.6952009034
 30
0.0
 10
-96.5796171191
 20
-10.2595195308
 30
0.0
 10
-96.6257214052
 20
-9.9724034248
 30
0.0
 10
-96.6634553758
 20
-9.8318198105
 30
0.0
 11
-96.6634553758
 21
-11.1229026933
 31
0.0
 11
-96.5909618092
 21
-10.6922802262
 31
0.0
 11
-96.5909620542
 21
-10.262439323
 31
0.0
 11
-96.6634553758
 21
-9.8318198105
 31
0.0
  0
LINE
  5
383
100
AcDbEntity
  8
RACCORDO
100
AcDbLine
 62
7
  6
CONTINUOUS
 10
-92.4790285415
 20
-47.6390345247
 11
-89.9746652926
 21
-47.6395473139
  0
SPLINE
  5
384
100
AcDbEntity
  8
RACCORDO
100
AcDbSpline
 62
253
  6
CONTINUOUS
 70
0
 71
3
 72
10
 73
6
 74
4
 42
0.0000001
 43
0.0000001
 44
0.0000000001
 12
0.0087246609
 22
-0.4998908711
 32
0.0
 13
-0.4998908542
 23
-0.0087256282
 33
0.0
 40
0.0
 40
0.0
 40
0.0
 40
0.0
 40
0.4999180518
 40
0.8659452226
 40
1.0
 40
1.0
 40
1.0
 40
1.0
 10
-92.4310342765
 20
-53.656135454
 30
0.0
 10
-92.4295804047
 20
-53.7394369442
 30
0.0
 10
-92.4122848407
 20
-53.8993109708
 30
0.0
 10
-92.4534541638
 20
-54.0216321382
 30
0.0
 10
-92.404333694
 20
-54.1556693965
 30
0.0
 10
-92.4266712798
 20
-54.1560593006
 30
0.0
 11
-92.4310342765
 21
-53.656135454
 31
0.0
 11
-92.4272567623
 21
-53.906049436
 31
0.0
 11
-92.4256595166
 21
-54.0890439725
 31
0.0
 11
-92.4266712798
 21
-54.1560593006
 31
0.0
  0
SPLINE
  5
385
100
AcDbEntity
  8
RACCORDO
100
AcDbSpline
 62
7
  6
CONTINUOUS
 70
0
 71
3
 72
10
 73
6
 74
4
 42
0.0000001
 43
0.0000001
 44
0.0000000001
 12
0.5689428333
 22
0.0020566072
 32
0.0
 13
-0.0
 23
0.5689465504
 33
0.0
 40
0.0
 40
0.0
 40
0.0
 40
0.0
 40
0.4541325415
 40
0.7939816238
 40
1.0
 40
1.0
 40
1.0
 40
1.0
 10
-89.9746652926
 20
-50.6870618061
 30
0.0
 10
-89.888540141
 20
-50.686750482
 30
0.0
 10
-89.7371942483
 20
-50.6681477624
 30
0.0
 10
-89.5568831145
 20
-50.6106788072
 30
0.0
 10
-89.4790285604
 20
-50.519034059
 30
0.0
 10
-89.4790285604
 20
-50.4799629109
 30
0.0
 11
-89.9746652926
 21
-50.6870618061
 31
0.0
 11
-89.7180867302
 21
-50.6566284484
 31
0.0
 11
-89.5407256904
 21
-50.5796246172
 31
0.0
 11
-89.4790285604
 21
-50.4799629109
 31
0.0
  0
SPLINE
  5
386
100
AcDbEntity
  8
RACCORDO
100
AcDbSpline
 62
253
  6
CONTINUOUS
 70
0
 71
3
 72
10
 73
6
 74
4
 42
0.0000001
 43
0.0000001
 44
0.0000000001
 12
0.0
 22
0.6742699698
 32
0.0
 13
-0.6742559969
 23
0.0043408279
 33
0.0
 40
0.0
 40
0.0
 40
0.0
 40
0.0
 40
0.2853919102
 40
0.622021123
 40
1.0
 40
1.0
 40
1.0
 40
1.0
 10
-89.4790285604
 20
-48.0083899655
 30
0.0
 10
-89.4790285604
 20
-47.944246234
 30
0.0
 10
-89.5345706692
 20
-47.8029793054
 30
0.0
 10
-89.7276121266
 20
-47.6712798789
 30
0.0
 10
-89.8897137844
 20
-47.6400942273
 30
0.0
 10
-89.9746652926
 20
-47.6395473135
 30
0.0
 11
-89.4790285604
 21
-48.0083899655
 31
0.0
 11
-89.5435805495
 21
-47.8271089533
 31
0.0
 11
-89.7249895337
 21
-47.6906896259
 31
0.0
 11
-89.9746652926
 21
-47.6395473135
 31
0.0
  0
SPLINE
  5
387
100
AcDbEntity
  8
RACCORDO
100
AcDbSpline
 62
253
  6
CONTINUOUS
 70
0
 71
3
 72
9
 73
5
 74
3
 42
0.0000001
 43
0.0000001
 44
0.0000000001
 12
0.2500940511
 22
-0.0021825377
 32
0.0
 13
0.0243516018
 23
-0.2229888882
 33
0.0
 40
0.0
 40
0.0
 40
0.0
 40
0.0
 40
0.2682950225
 40
1.0
 40
1.0
 40
1.0
 40
1.0
 10
-92.4310342765
 20
25.0116870068
 30
0.0
 10
-92.4086679468
 20
25.0114918188
 30
0.0
 10
-92.4518087745
 20
24.8771804888
 30
0.0
 10
-92.4315989127
 20
24.8160841758
 30
0.0
 10
-92.4256595166
 20
24.761696816
 30
0.0
 11
-92.4310342765
 21
25.0116870068
 31
0.0
 11
-92.4272567623
 21
24.9446918756
 31
0.0
 11
-92.4256595166
 21
24.761696816
 31
0.0
  0
SPLINE
  5
388
100
AcDbEntity
  8
RACCORDO
100
AcDbSpline
 62
253
  6
CONTINUOUS
 70
0
 71
3
 72
8
 73
4
 74
2
 42
0.0000001
 43
0.0000001
 44
0.0000000001
 12
0.0243408179
 22
-0.22289014
 32
0.0
 13
-0.0021807583
 23
-0.2499833067
 33
0.0
 40
0.0
 40
0.0
 40
0.0
 40
0.0
 40
1.0
 40
1.0
 40
1.0
 40
1.0
 10
-92.4256595166
 20
24.761696816
 30
0.0
 10
-92.4175459106
 20
24.6874001026
 30
0.0
 10
-92.4259443604
 20
24.5950338137
 30
0.0
 10
-92.4266712798
 20
24.5117060447
 30
0.0
 11
-92.4256595166
 21
24.761696816
 31
0.0
 11
-92.4266712798
 21
24.5117060447
 31
0.0
  0
SPLINE
  5
389
100
AcDbEntity
  8
RACCORDO
100
AcDbSpline
 62
253
  6
CONTINUOUS
 70
0
 71
3
 72
10
 73
6
 74
4
 42
0.0000001
 43
0.0000001
 44
0.0000000001
 12
0.0
 22
0.6634452929
 32
0.0
 13
-0.6634326614
 23
0.0040939648
 33
0.0
 40
0.0
 40
0.0
 40
0.0
 40
0.0
 40
0.2779511658
 40
0.615568631
 40
1.0
 40
1.0
 40
1.0
 40
1.0
 10
-89.4790285604
 20
26.3312848817
 30
0.0
 10
-89.4790285604
 20
26.3927533459
 30
0.0
 10
-89.5358343306
 20
26.5298283497
 30
0.0
 10
-89.7287075551
 20
26.654617647
 30
0.0
 10
-89.8896505172
 20
26.6843001939
 30
0.0
 10
-89.9746652926
 20
26.6848248101
 30
0.0
 11
-89.4790285604
 21
26.3312848817
 31
0.0
 11
-89.5429529323
 21
26.5042560454
 31
0.0
 11
-89.7244181782
 21
26.6355656276
 31
0.0
 11
-89.9746652926
 21
26.6848248101
 31
0.0
  0
SPLINE
  5
38A
100
AcDbEntity
  8
RACCORDO
100
AcDbSpline
 62
253
  6
CONTINUOUS
 70
0
 71
3
 72
11
 73
7
 74
5
 42
0.0000001
 43
0.0000001
 44
0.0000000001
 12
0.0
 22
-0.6777350005
 32
0.0
 13
-0.6777209559
 23
-0.004363118
 33
0.0
 40
0.0
 40
0.0
 40
0.0
 40
0.0
 40
0.180010191
 40
0.3965796606
 40
0.66831843
 40
1.0
 40
1.0
 40
1.0
 40
1.0
 10
-89.4790285604
 20
27.0536674617
 30
0.0
 10
-89.4790285604
 20
27.0130010594
 30
0.0
 10
-89.5002471782
 20
26.9224618162
 30
0.0
 10
-89.5972440107
 20
26.8012002471
 30
0.0
 10
-89.7621761223
 20
26.708663094
 30
0.0
 10
-89.899736109
 20
26.6853071987
 30
0.0
 10
-89.9746652926
 20
26.6848248101
 30
0.0
 11
-89.4790285604
 21
27.0536674617
 31
0.0
 11
-89.5057781296
 21
26.9346369319
 31
0.0
 11
-89.5946161586
 21
26.8177985517
 31
0.0
 11
-89.7534022647
 21
26.7245011223
 31
0.0
 11
-89.9746652926
 21
26.6848248101
 31
0.0
  0
SPLINE
  5
38B
100
AcDbEntity
  8
RACCORDO
100
AcDbSpline
 62
7
  6
CONTINUOUS
 70
0
 71
3
 72
10
 73
6
 74
4
 42
0.0000001
 43
0.0000001
 44
0.0000000001
 12
0.5689428333
 22
-0.0020566072
 32
0.0
 13
0.0
 23
-0.5689465504
 33
0.0
 40
0.0
 40
0.0
 40
0.0
 40
0.0
 40
0.4541325415
 40
0.7939816238
 40
1.0
 40
1.0
 40
1.0
 40
1.0
 10
-89.9746652926
 20
29.7323393022
 30
0.0
 10
-89.888540141
 20
29.7320279782
 30
0.0
 10
-89.7371942483
 20
29.7134252585
 30
0.0
 10
-89.5568831145
 20
29.6559563034
 30
0.0
 10
-89.4790285604
 20
29.5643115552
 30
0.0
 10
-89.4790285604
 20
29.525240407
 30
0.0
 11
-89.9746652926
 21
29.7323393022
 31
0.0
 11
-89.7180867302
 21
29.7019059446
 31
0.0
 11
-89.5407256904
 21
29.6249021133
 31
0.0
 11
-89.4790285604
 21
29.525240407
 31
0.0
  0
SPLINE
  5
38C
100
AcDbEntity
  8
RACCORDO
100
AcDbSpline
 62
253
  6
CONTINUOUS
 70
0
 71
3
 72
10
 73
6
 74
4
 42
0.0000001
 43
0.0000001
 44
0.0000000001
 12
0.0087249692
 22
0.4998908719
 32
0.0
 13
-0.4998908604
 23
0.0087256274
 33
0.0
 40
0.0
 40
0.0
 40
0.0
 40
0.0
 40
0.4999699701
 40
0.8659709182
 40
1.0
 40
1.0
 40
1.0
 40
1.0
 10
-92.4310342765
 20
32.7014129502
 30
0.0
 10
-92.4295802023
 20
32.7847230917
 30
0.0
 10
-92.4122826819
 20
32.9446035079
 30
0.0
 10
-92.4534516504
 20
33.0669246226
 30
0.0
 10
-92.4043380367
 20
33.2009469685
 30
0.0
 10
-92.426671341
 20
33.2013367978
 30
0.0
 11
-92.4310342765
 21
32.7014129502
 31
0.0
 11
-92.4272563399
 21
32.9513528894
 31
0.0
 11
-92.425659409
 21
33.1343343199
 31
0.0
 11
-92.426671341
 21
33.2013367978
 31
0.0
  0
LINE
  5
38D
100
AcDbEntity
  8
RACCORDO
100
AcDbLine
 62
253
  6
CONTINUOUS
 10
-92.426671341
 20
24.5117060453
 11
-89.4790285604
 21
24.4902696379
  0
LINE
  5
38E
100
AcDbEntity
  8
RACCORDO
100
AcDbLine
 62
253
  6
CONTINUOUS
 10
-89.4790285604
 20
-45.4449921417
 11
-92.426671341
 21
-45.4664285491
  0
SPLINE
  5
38F
100
AcDbEntity
  8
RACCORDO
100
AcDbSpline
 62
253
  6
CONTINUOUS
 70
0
 71
3
 72
9
 73
5
 74
3
 42
0.0000001
 43
0.0000001
 44
0.0000000001
 12
0.2501163071
 22
0.0021827319
 32
0.0
 13
0.0243513221
 23
0.2230114306
 33
0.0
 40
0.0
 40
0.0
 40
0.0
 40
0.0
 40
0.2683310832
 40
1.0
 40
1.0
 40
1.0
 40
1.0
 10
-92.4310342765
 20
-45.9664095106
 30
0.0
 10
-92.40866295
 20
-45.966214279
 30
0.0
 10
-92.4518097955
 20
-45.8318895002
 30
0.0
 10
-92.4315984441
 20
-45.7707872372
 30
0.0
 10
-92.425659409
 20
-45.7163970599
 30
0.0
 11
-92.4310342765
 21
-45.9664095106
 31
0.0
 11
-92.4272563399
 21
-45.8993993883
 31
0.0
 11
-92.425659409
 21
-45.7163970599
 31
0.0
  0
SPLINE
  5
390
100
AcDbEntity
  8
RACCORDO
100
AcDbSpline
 62
253
  6
CONTINUOUS
 70
0
 71
3
 72
8
 73
4
 74
2
 42
0.0000001
 43
0.0000001
 44
0.0000000001
 12
0.0243362054
 22
0.2228729904
 32
0.0
 13
-0.0021807522
 23
0.2499610464
 33
0.0
 40
0.0
 40
0.0
 40
0.0
 40
0.0
 40
1.0
 40
1.0
 40
1.0
 40
1.0
 10
-92.425659409
 20
-45.7163970599
 30
0.0
 10
-92.4175473405
 20
-45.6421060631
 30
0.0
 10
-92.4259444237
 20
-45.5497488979
 30
0.0
 10
-92.426671341
 20
-45.4664285491
 30
0.0
 11
-92.425659409
 21
-45.7163970599
 31
0.0
 11
-92.426671341
 21
-45.4664285491
 31
0.0
  0
SPLINE
  5
391
100
AcDbEntity
  8
RACCORDO
100
AcDbSpline
 62
253
  6
CONTINUOUS
 70
0
 71
3
 72
11
 73
7
 74
5
 42
0.0000001
 43
0.0000001
 44
0.0000000001
 12
0.0
 22
-0.6668781475
 32
0.0
 13
-0.6668654508
 23
-0.0041151115
 33
0.0
 40
0.0
 40
0.0
 40
0.0
 40
0.0
 40
0.1757096681
 40
0.390054851
 40
0.6633246244
 40
1.0
 40
1.0
 40
1.0
 40
1.0
 10
-89.4790285604
 20
-47.2860073855
 30
0.0
 10
-89.4790285604
 20
-47.3250663649
 30
0.0
 10
-89.5006474503
 20
-47.4126975175
 30
0.0
 10
-89.5983208612
 20
-47.5288184153
 30
0.0
 10
-89.7630897912
 20
-47.6169300158
 30
0.0
 10
-89.8998262339
 20
-47.639085495
 30
0.0
 10
-89.9746652926
 20
-47.6395473139
 30
0.0
 11
-89.4790285604
 21
-47.2860073855
 31
0.0
 11
-89.5057741057
 21
-47.4000911731
 31
0.0
 11
-89.5946044786
 21
-47.5120805213
 31
0.0
 11
-89.7533889422
 21
-47.6015123481
 31
0.0
 11
-89.9746652926
 21
-47.6395473139
 31
0.0
  0
ENDSEC
  0
SECTION
  2
OBJECTS
  0
DICTIONARY
  5
C
100
AcDbDictionary
280
0
281
1
  3
ACAD_GROUP
350
D
  3
ACAD_MLINESTYLE
350
17
  3
ACAD_LAYOUT
350
1A
  3
ACAD_PLOTSETTINGS
350
19
  3
ACAD_PLOTSTYLENAME
350
E
  0
DICTIONARY
  5
D
102
{ACAD_REACTORS
330
C
102
}
100
AcDbDictionary
280
0
281
1
  0
ACDBDICTIONARYWDFLT
  5
E
102
{ACAD_REACTORS
330
C
102
}
100
AcDbDictionary
281
1
  3
Normal
350
F
100
AcDbDictionaryWithDefault
340
F
  0
DICTIONARY
  5
17
102
{ACAD_REACTORS
330
C
102
}
100
AcDbDictionary
280
0
281
1
  3
Standard
350
18
  0
DICTIONARY
  5
19
102
{ACAD_REACTORS
330
C
102
}
100
AcDbDictionary
281
1
  0
DICTIONARY
  5
1A
102
{ACAD_REACTORS
330
C
102
}
100
AcDbDictionary
281
1
  3
Model
350
392
  3
Layout1
350
393
  0
ACDBPLACEHOLDER
  5
F
102
{ACAD_REACTORS
330
E
102
}
  0
MLINESTYLE
  5
18
102
{ACAD_REACTORS
330
17
102
}
100
AcDbMlineStyle
  2
STANDARD
 70
0
  3

 62
256
 51
90.0
 52
90.0
 71
2
 49
0.5
 62
256
  6
BYLAYER
 49
-0.5
 62
256
  6
BYLAYER
  0
LAYOUT
  5
392
102
{ACAD_REACTORS
330
1A
102
}
100
AcDbPlotSettings
  1

  2
none_device
  4
ISO_A4_(297.00_x_210.00_MM)
  6

 40
0.0
 41
0.0
 42
0.0
 43
0.0
 44
297.0
 45
210.0
 46
0.0
 47
0.0
 48
0.0
 49
0.0
140
0.0
141
0.0
142
1.0
143
1.0
 70
1024
 72
1
 73
0
 74
0
  7

 75
0
147
1.0
148
0.0
149
0.0
100
AcDbLayout
  1
Model
 70
0
 71
0
 10
0.0
 20
0.0
 11
297.0
 21
210.0
 12
0.0
 22
0.0
 32
0.0
 14
0.0
 24
0.0
 34
0.0
 15
0.0
 25
0.0
 35
0.0
146
0.0
 13
0.0
 23
0.0
 33
0.0
 16
1.0
 26
0.0
 36
0.0
 17
0.0
 27
1.0
 37
0.0
 76
0
330
214
345
0
346
0
  0
LAYOUT
  5
393
102
{ACAD_REACTORS
330
1A
102
}
100
AcDbPlotSettings
  1

  2
none_device
  4
ISO_A4_(297.00_x_210.00_MM)
  6

 40
0.0
 41
0.0
 42
0.0
 43
0.0
 44
297.0
 45
210.0
 46
0.0
 47
0.0
 48
0.0
 49
0.0
140
0.0
141
0.0
142
1.0
143
1.0
 70
0
 72
1
 73
0
 74
0
  7

 75
0
147
1.0
148
0.0
149
0.0
100
AcDbLayout
  1
Layout1
 70
0
 71
1
 10
0.0
 20
0.0
 11
297.0
 21
210.0
 12
0.0
 22
0.0
 32
0.0
 14
0.0
 24
0.0
 34
0.0
 15
0.0
 25
0.0
 35
0.0
146
0.0
 13
0.0
 23
0.0
 33
0.0
 16
1.0
 26
0.0
 36
0.0
 17
0.0
 27
1.0
 37
0.0
 76
0
330
215
345
0
346
0
  0
ENDSEC
  0
EOF
